  0
SECTION
  2
HEADER
  9
$ACADVER
  1
AC1015
  9
$ACADMAINTVER
 70
     6
  9
$DWGCODEPAGE
  3
DOS932
  9
$INSBASE
 10
0.0
 20
0.0
 30
0.0
  9
$EXTMIN
 10
0.0
 20
0.0
 30
0.0
  9
$EXTMAX
 10
210.0
 20
297.0
 30
0.0
  9
$LIMMIN
 10
0.0
 20
0.0
  9
$LIMMAX
 10
210.0
 20
297.0
  9
$ORTHOMODE
 70
     0
  9
$REGENMODE
 70
     1
  9
$FILLMODE
 70
     1
  9
$QTEXTMODE
 70
     0
  9
$MIRRTEXT
 70
     1
  9
$LTSCALE
 40
1.0
  9
$ATTMODE
 70
     1
  9
$TEXTSIZE
 40
3.5
  9
$TRACEWID
 40
1.0
  9
$TEXTSTYLE
  7
Standard
  9
$CLAYER
  8
0
  9
$CELTYPE
  6
ByLayer
  9
$CECOLOR
 62
   256
  9
$CELTSCALE
 40
1.0
  9
$DISPSILH
 70
     0
  9
$DIMSCALE
 40
1.0
  9
$DIMASZ
 40
3.0
  9
$DIMEXO
 40
1.0
  9
$DIMDLI
 40
3.75
  9
$DIMRND
 40
0.0
  9
$DIMDLE
 40
0.0
  9
$DIMEXE
 40
1.0
  9
$DIMTP
 40
0.0
  9
$DIMTM
 40
0.0
  9
$DIMTXT
 40
3.5
  9
$DIMCEN
 40
2.5
  9
$DIMTSZ
 40
0.0
  9
$DIMTOL
 70
     0
  9
$DIMLIM
 70
     0
  9
$DIMTIH
 70
     1
  9
$DIMTOH
 70
     1
  9
$DIMSE1
 70
     0
  9
$DIMSE2
 70
     0
  9
$DIMTAD
 70
     1
  9
$DIMZIN
 70
     0
  9
$DIMBLK
  1

  9
$DIMASO
 70
     1
  9
$DIMSHO
 70
     1
  9
$DIMPOST
  1

  9
$DIMAPOST
  1

  9
$DIMALT
 70
     0
  9
$DIMALTD
 70
     3
  9
$DIMALTF
 40
0.0393700787
  9
$DIMLFAC
 40
1.0
  9
$DIMTOFL
 70
     1
  9
$DIMTVP
 40
0.0
  9
$DIMTIX
 70
     0
  9
$DIMSOXD
 70
     0
  9
$DIMSAH
 70
     0
  9
$DIMBLK1
  1

  9
$DIMBLK2
  1

  9
$DIMSTYLE
  2
ISO-25
  9
$DIMCLRD
 70
     0
  9
$DIMCLRE
 70
     0
  9
$DIMCLRT
 70
     0
  9
$DIMTFAC
 40
1.0
  9
$DIMGAP
 40
1.524
  9
$DIMJUST
 70
     0
  9
$DIMSD1
 70
     0
  9
$DIMSD2
 70
     0
  9
$DIMTOLJ
 70
     0
  9
$DIMTZIN
 70
     0
  9
$DIMALTZ
 70
     0
  9
$DIMALTTZ
 70
     0
  9
$DIMUPT
 70
     0
  9
$DIMDEC
 70
     1
  9
$DIMTDEC
 70
     3
  9
$DIMALTU
 70
     2
  9
$DIMALTTD
 70
     3
  9
$DIMTXSTY
  7
Standard
  9
$DIMAUNIT
 70
     0
  9
$DIMADEC
 70
     2
  9
$DIMALTRND
 40
0.0
  9
$DIMAZIN
 70
     0
  9
$DIMDSEP
 70
    44
  9
$DIMATFIT
 70
     3
  9
$DIMFRAC
 70
     0
  9
$DIMLDRBLK
  1

  9
$DIMLUNIT
 70
     2
  9
$DIMLWD
 70
    -2
  9
$DIMLWE
 70
    -2
  9
$DIMTMOVE
 70
     0
  9
$LUNITS
 70
     2
  9
$LUPREC
 70
     1
  9
$SKETCHINC
 40
1.0
  9
$FILLETRAD
 40
10.0
  9
$AUNITS
 70
     0
  9
$AUPREC
 70
     2
  9
$MENU
  1
.
  9
$ELEVATION
 40
0.0
  9
$PELEVATION
 40
0.0
  9
$THICKNESS
 40
0.0
  9
$LIMCHECK
 70
     0
  9
$CHAMFERA
 40
0.0
  9
$CHAMFERB
 40
0.0
  9
$CHAMFERC
 40
0.0
  9
$CHAMFERD
 40
0.0
  9
$SKPOLY
 70
     0
  9
$TDCREATE
 40
2458843.682977083
  9
$TDUCREATE
 40
2458843.307977083
  9
$TDUPDATE
 40
2458843.682978889
  9
$TDUUPDATE
 40
2458843.307978889
  9
$TDINDWG
 40
0.0000000116
  9
$TDUSRTIMER
 40
0.0000000116
  9
$USRTIMER
 70
     1
  9
$ANGBASE
 50
0.0
  9
$ANGDIR
 70
     0
  9
$PDMODE
 70
     0
  9
$PDSIZE
 40
-1.0
  9
$PLINEWID
 40
0.0
  9
$SPLFRAME
 70
     0
  9
$SPLINETYPE
 70
     6
  9
$SPLINESEGS
 70
     8
  9
$HANDSEED
  5
1A3
  9
$SURFTAB1
 70
     6
  9
$SURFTAB2
 70
     6
  9
$SURFTYPE
 70
     6
  9
$SURFU
 70
     6
  9
$SURFV
 70
     6
  9
$UCSBASE
  2

  9
$UCSNAME
  2

  9
$UCSORG
 10
0.0
 20
0.0
 30
0.0
  9
$UCSXDIR
 10
1.0
 20
0.0
 30
0.0
  9
$UCSYDIR
 10
0.0
 20
1.0
 30
0.0
  9
$UCSORTHOREF
  2

  9
$UCSORTHOVIEW
 70
     0
  9
$UCSORGTOP
 10
0.0
 20
0.0
 30
0.0
  9
$UCSORGBOTTOM
 10
0.0
 20
0.0
 30
0.0
  9
$UCSORGLEFT
 10
0.0
 20
0.0
 30
0.0
  9
$UCSORGRIGHT
 10
0.0
 20
0.0
 30
0.0
  9
$UCSORGFRONT
 10
0.0
 20
0.0
 30
0.0
  9
$UCSORGBACK
 10
0.0
 20
0.0
 30
0.0
  9
$PUCSBASE
  2

  9
$PUCSNAME
  2

  9
$PUCSORG
 10
0.0
 20
0.0
 30
0.0
  9
$PUCSXDIR
 10
1.0
 20
0.0
 30
0.0
  9
$PUCSYDIR
 10
0.0
 20
1.0
 30
0.0
  9
$PUCSORTHOREF
  2

  9
$PUCSORTHOVIEW
 70
     0
  9
$PUCSORGTOP
 10
0.0
 20
0.0
 30
0.0
  9
$PUCSORGBOTTOM
 10
0.0
 20
0.0
 30
0.0
  9
$PUCSORGLEFT
 10
0.0
 20
0.0
 30
0.0
  9
$PUCSORGRIGHT
 10
0.0
 20
0.0
 30
0.0
  9
$PUCSORGFRONT
 10
0.0
 20
0.0
 30
0.0
  9
$PUCSORGBACK
 10
0.0
 20
0.0
 30
0.0
  9
$USERI1
 70
     0
  9
$USERI2
 70
     0
  9
$USERI3
 70
     0
  9
$USERI4
 70
     0
  9
$USERI5
 70
     0
  9
$USERR1
 40
0.0
  9
$USERR2
 40
0.0
  9
$USERR3
 40
0.0
  9
$USERR4
 40
0.0
  9
$USERR5
 40
0.0
  9
$WORLDVIEW
 70
     1
  9
$SHADEDGE
 70
     3
  9
$SHADEDIF
 70
    70
  9
$TILEMODE
 70
     1
  9
$MAXACTVP
 70
    64
  9
$PINSBASE
 10
0.0
 20
0.0
 30
0.0
  9
$PLIMCHECK
 70
     0
  9
$PEXTMIN
 10
1.0000000000E+20
 20
1.0000000000E+20
 30
1.0000000000E+20
  9
$PEXTMAX
 10
-1.0000000000E+20
 20
-1.0000000000E+20
 30
-1.0000000000E+20
  9
$PLIMMIN
 10
0.0
 20
0.0
  9
$PLIMMAX
 10
420.0
 20
297.0
  9
$UNITMODE
 70
     0
  9
$VISRETAIN
 70
     1
  9
$PLINEGEN
 70
     0
  9
$PSLTSCALE
 70
     1
  9
$TREEDEPTH
 70
  3020
  9
$CMLSTYLE
  2
Standard
  9
$CMLJUST
 70
     0
  9
$CMLSCALE
 40
20.0
  9
$PROXYGRAPHICS
 70
     1
  9
$MEASUREMENT
 70
     1
  9
$CELWEIGHT
370
    -1
  9
$ENDCAPS
280
     0
  9
$JOINSTYLE
280
     0
  9
$LWDISPLAY
290
     1
  9
$INSUNITS
 70
     4
  9
$HYPERLINKBASE
  1

  9
$STYLESHEET
  1

  9
$XEDIT
290
     1
  9
$CEPSNTYPE
380
     0
  9
$PSTYLEMODE
290
     1
  9
$FINGERPRINTGUID
  2
{1CB89FC4-08E5-4CAE-B7C5-D66C24B2AF5F}
  9
$VERSIONGUID
  2
{FAEB1C32-E019-11D5-929B-00C0DF256EC4}
  9
$EXTNAMES
290
     1
  9
$PSVPSCALE
 40
0.0
  9
$OLESTARTUP
290
     0
  0
ENDSEC
  0
SECTION
  2
CLASSES
  0
CLASS
  1
ACDBDICTIONARYWDFLT
  2
AcDbDictionaryWithDefault
  3
ObjectDBX Classes
 90
        0
280
     0
281
     0
  0
CLASS
  1
VISUALSTYLE
  2
AcDbVisualStyle
  3
ObjectDBX Classes
 90
     4095
280
     0
281
     0
  0
CLASS
  1
MATERIAL
  2
AcDbMaterial
  3
ObjectDBX Classes
 90
     1153
280
     0
281
     0
  0
CLASS
  1
SCALE
  2
AcDbScale
  3
ObjectDBX Classes
 90
     1153
280
     0
281
     0
  0
CLASS
  1
TABLESTYLE
  2
AcDbTableStyle
  3
ObjectDBX Classes
 90
     4095
280
     0
281
     0
  0
CLASS
  1
MLEADERSTYLE
  2
AcDbMLeaderStyle
  3
ACDB_MLEADERSTYLE_CLASS
 90
     4095
280
     0
281
     0
  0
CLASS
  1
SUN
  2
AcDbSun
  3
SCENEOE
 90
     1153
280
     0
281
     0
  0
CLASS
  1
ACDBPLACEHOLDER
  2
AcDbPlaceHolder
  3
ObjectDBX Classes
 90
        0
280
     0
281
     0
  0
CLASS
  1
LAYOUT
  2
AcDbLayout
  3
ObjectDBX Classes
 90
        0
280
     0
281
     0
  0
ENDSEC
  0
SECTION
  2
TABLES
  0
TABLE
  2
VPORT
  5
8
330
0
100
AcDbSymbolTable
 70
     1
  0
VPORT
  5
29
330
8
100
AcDbSymbolTableRecord
100
AcDbViewportTableRecord
  2
*Active
 70
     0
 10
0.0
 20
0.0
 11
1.0
 21
1.0
 12
105.0
 22
148.5
 13
0.0
 23
0.0
 14
10.0
 24
10.0
 15
10.0
 25
10.0
 16
0.0
 26
0.0
 36
1.0
 17
0.0
 27
0.0
 37
0.0
 40
297.0
 41
0.7070707071
 42
50.0
 43
0.0
 44
0.0
 50
0.0
 51
0.0
 71
     0
 72
  2000
 73
     1
 74
     3
 75
     0
 76
     0
 77
     0
 78
     0
281
     0
 65
     1
110
0.0
120
0.0
130
0.0
111
1.0
121
0.0
131
0.0
112
0.0
122
1.0
132
0.0
 79
     0
146
0.0
  0
ENDTAB
  0
TABLE
  2
LTYPE
  5
5
330
0
100
AcDbSymbolTable
 70
     6
  0
LTYPE
  5
14
330
5
100
AcDbSymbolTableRecord
100
AcDbLinetypeTableRecord
  2
ByBlock
 70
     0
  3

 72
    65
 73
     0
 40
0.0
  0
LTYPE
  5
15
330
5
100
AcDbSymbolTableRecord
100
AcDbLinetypeTableRecord
  2
ByLayer
 70
     0
  3

 72
    65
 73
     0
 40
0.0
  0
LTYPE
  5
16
330
5
100
AcDbSymbolTableRecord
100
AcDbLinetypeTableRecord
  2
Continuous
 70
     0
  3
Solid line
 72
    65
 73
     0
 40
0.0
  0
LTYPE
  5
6E
330
5
100
AcDbSymbolTableRecord
100
AcDbLinetypeTableRecord
  2
HIDDEN
 70
     0
  3
Hidden __ __ __ __ __ __ __ __ __ __ __ __ __ __
 72
    65
 73
     2
 40
1.905
 49
1.27
 74
     0
 49
-0.635
 74
     0
  0
LTYPE
  5
6F
330
5
100
AcDbSymbolTableRecord
100
AcDbLinetypeTableRecord
  2
PHANTOM
 70
     0
  3
Phantom ______  __  __  ______  __  __  ______
 72
    65
 73
     6
 40
12.7
 49
6.35
 74
     0
 49
-1.27
 74
     0
 49
1.27
 74
     0
 49
-1.27
 74
     0
 49
1.27
 74
     0
 49
-1.27
 74
     0
  0
LTYPE
  5
70
330
5
100
AcDbSymbolTableRecord
100
AcDbLinetypeTableRecord
  2
CENTER
 70
     0
  3
Center ____ _ ____ _ ____ _ ____ _ ____ _ ____
 72
    65
 73
     4
 40
10.16
 49
6.35
 74
     0
 49
-1.27
 74
     0
 49
1.27
 74
     0
 49
-1.27
 74
     0
  0
LTYPE
  5
71
330
5
100
AcDbSymbolTableRecord
100
AcDbLinetypeTableRecord
  2
CENTERX2
 70
     0
  3
Center (2x) ________  __  ________  __  _____
 72
    65
 73
     4
 40
20.32
 49
12.7
 74
     0
 49
-2.54
 74
     0
 49
2.54
 74
     0
 49
-2.54
 74
     0
  0
LTYPE
  5
72
330
5
100
AcDbSymbolTableRecord
100
AcDbLinetypeTableRecord
  2
DOT2
 70
     0
  3
Dot (.5x) ........................................
 72
    65
 73
     2
 40
0.635
 49
0.0
 74
     0
 49
-0.635
 74
     0
  0
ENDTAB
  0
TABLE
  2
LAYER
  5
2
330
0
100
AcDbSymbolTable
 70
     1
  0
LAYER
  5
10
330
2
100
AcDbSymbolTableRecord
100
AcDbLayerTableRecord
  2
0
 70
     0
 62
     7
  6
Continuous
370
    -3
390
F
  0
ENDTAB
  0
TABLE
  2
STYLE
  5
3
330
0
100
AcDbSymbolTable
 70
     2
  0
STYLE
  5
11
330
3
100
AcDbSymbolTableRecord
100
AcDbTextStyleTableRecord
  2
Standard
 70
     0
 40
0.0
 41
1.0
 50
0.0
 71
     0
 42
3.5
  3
txt
  4
bigfont
  0
STYLE
  5
7B
330
3
100
AcDbSymbolTableRecord
100
AcDbTextStyleTableRecord
  2
SLDTEXTSTYLE0
 70
     0
 40
0.0
 41
0.7
 50
0.0
 71
     0
 42
3.5
  3
TXT
  4
bigfont
  0
ENDTAB
  0
TABLE
  2
VIEW
  5
6
330
0
100
AcDbSymbolTable
 70
     0
  0
ENDTAB
  0
TABLE
  2
UCS
  5
7
330
0
100
AcDbSymbolTable
 70
     0
  0
ENDTAB
  0
TABLE
  2
APPID
  5
9
330
0
100
AcDbSymbolTable
 70
     1
  0
APPID
  5
12
330
9
100
AcDbSymbolTableRecord
100
AcDbRegAppTableRecord
  2
ACAD
 70
     0
  0
ENDTAB
  0
TABLE
  2
DIMSTYLE
  5
A
330
0
100
AcDbSymbolTable
 70
     4
100
AcDbDimStyleTable
  0
DIMSTYLE
105
27
330
A
100
AcDbSymbolTableRecord
100
AcDbDimStyleTableRecord
  2
ISO-25
 70
     0
 41
2.5
 42
0.625
 43
3.75
 44
1.25
 73
     0
 74
     0
 77
     1
 78
     8
140
2.5
141
2.5
143
0.0393700787
147
0.625
171
     3
172
     1
178
     0
271
     2
272
     2
274
     3
278
    44
283
     0
284
     8
340
11
  0
DIMSTYLE
105
AB
102
{ACAD_REACTORS
330
AA
102
}
330
A
100
AcDbSymbolTableRecord
100
AcDbDimStyleTableRecord
  2
SLDDIMSTYLE0
 70
     0
  3
<>
 41
3.0
 44
0.0
 45
0.000000001
 78
    12
 79
     3
140
3.5
141
0.0
147
0.875
173
     1
178
     0
271
     1
272
     3
276
     2
284
    12
340
7B
  0
DIMSTYLE
105
B4
102
{ACAD_REACTORS
330
B3
330
CB
330
D5
330
DF
330
F5
330
10B
102
}
330
A
100
AcDbSymbolTableRecord
100
AcDbDimStyleTableRecord
  2
SLDDIMSTYLE1
 70
     0
 41
3.0
 44
0.0
 45
0.000000001
 73
     0
 74
     0
 77
     3
 78
    12
 79
     3
140
3.5
147
0.875
173
     1
178
     0
271
     1
272
     3
276
     2
284
    12
340
7B
  0
DIMSTYLE
105
BF
102
{ACAD_REACTORS
330
BE
330
E9
330
FF
330
197
102
}
330
A
100
AcDbSymbolTableRecord
100
AcDbDimStyleTableRecord
  2
SLDDIMSTYLE2
 70
     0
 41
3.0
 44
0.0
 45
0.000000001
 73
     0
 74
     0
 77
     3
 78
    12
 79
     3
140
3.5
147
0.875
172
     1
173
     1
178
     0
271
     1
272
     3
276
     2
284
    12
289
     0
340
7B
  0
ENDTAB
  0
TABLE
  2
BLOCK_RECORD
  5
1
330
0
100
AcDbSymbolTable
 70
    18
  0
BLOCK_RECORD
  5
1F
330
1
100
AcDbSymbolTableRecord
100
AcDbBlockTableRecord
  2
*Model_Space
340
22
  0
BLOCK_RECORD
  5
1B
330
1
100
AcDbSymbolTableRecord
100
AcDbBlockTableRecord
  2
*Paper_Space
340
1E
  0
BLOCK_RECORD
  5
23
330
1
100
AcDbSymbolTableRecord
100
AcDbBlockTableRecord
  2
*Paper_Space0
340
26
  0
BLOCK_RECORD
  5
AC
330
1
100
AcDbSymbolTableRecord
100
AcDbBlockTableRecord
  2
_D
340
0
  0
BLOCK_RECORD
  5
B5
330
1
100
AcDbSymbolTableRecord
100
AcDbBlockTableRecord
  2
_D_1
340
0
  0
BLOCK_RECORD
  5
C0
330
1
100
AcDbSymbolTableRecord
100
AcDbBlockTableRecord
  2
_D_2
340
0
  0
BLOCK_RECORD
  5
CC
330
1
100
AcDbSymbolTableRecord
100
AcDbBlockTableRecord
  2
_D_3
340
0
  0
BLOCK_RECORD
  5
D6
330
1
100
AcDbSymbolTableRecord
100
AcDbBlockTableRecord
  2
_D_4
340
0
  0
BLOCK_RECORD
  5
E0
330
1
100
AcDbSymbolTableRecord
100
AcDbBlockTableRecord
  2
_D_5
340
0
  0
BLOCK_RECORD
  5
EA
330
1
100
AcDbSymbolTableRecord
100
AcDbBlockTableRecord
  2
_D_6
340
0
  0
BLOCK_RECORD
  5
F6
330
1
100
AcDbSymbolTableRecord
100
AcDbBlockTableRecord
  2
_D_7
340
0
  0
BLOCK_RECORD
  5
100
330
1
100
AcDbSymbolTableRecord
100
AcDbBlockTableRecord
  2
_D_8
340
0
  0
BLOCK_RECORD
  5
10C
330
1
100
AcDbSymbolTableRecord
100
AcDbBlockTableRecord
  2
_D_9
340
0
  0
BLOCK_RECORD
  5
115
330
1
100
AcDbSymbolTableRecord
100
AcDbBlockTableRecord
  2
SW_CENTERMARKSYMBOL_0
340
0
102
{BLKREFS
331
120
102
}
  0
BLOCK_RECORD
  5
121
330
1
100
AcDbSymbolTableRecord
100
AcDbBlockTableRecord
  2
SW_CENTERMARKSYMBOL_1
340
0
102
{BLKREFS
331
12C
102
}
  0
BLOCK_RECORD
  5
12D
330
1
100
AcDbSymbolTableRecord
100
AcDbBlockTableRecord
  2
SW_CENTERMARKSYMBOL_2
340
0
102
{BLKREFS
331
138
102
}
  0
BLOCK_RECORD
  5
139
330
1
100
AcDbSymbolTableRecord
100
AcDbBlockTableRecord
  2
SW_CENTERMARKSYMBOL_3
340
0
102
{BLKREFS
331
144
102
}
  0
BLOCK_RECORD
  5
145
330
1
100
AcDbSymbolTableRecord
100
AcDbBlockTableRecord
  2
SW_CENTERMARKSYMBOL_4
340
0
102
{BLKREFS
331
150
102
}
  0
BLOCK_RECORD
  5
151
330
1
100
AcDbSymbolTableRecord
100
AcDbBlockTableRecord
  2
SW_CENTERMARKSYMBOL_5
340
0
102
{BLKREFS
331
15C
102
}
  0
BLOCK_RECORD
  5
198
330
1
100
AcDbSymbolTableRecord
100
AcDbBlockTableRecord
  2
_D_10
340
0
  0
ENDTAB
  0
ENDSEC
  0
SECTION
  2
BLOCKS
  0
BLOCK
  5
20
330
1F
100
AcDbEntity
  8
0
100
AcDbBlockBegin
  2
*Model_Space
 70
     0
 10
0.0
 20
0.0
 30
0.0
  3
*Model_Space
  1

  0
ENDBLK
  5
21
330
1F
100
AcDbEntity
  8
0
100
AcDbBlockEnd
  0
BLOCK
  5
1C
330
1B
100
AcDbEntity
 67
     1
  8
0
100
AcDbBlockBegin
  2
*Paper_Space
 70
     0
 10
0.0
 20
0.0
 30
0.0
  3
*Paper_Space
  1

  0
ENDBLK
  5
1D
330
1B
100
AcDbEntity
 67
     1
  8
0
100
AcDbBlockEnd
  0
BLOCK
  5
24
330
23
100
AcDbEntity
  8
0
100
AcDbBlockBegin
  2
*Paper_Space0
 70
     0
 10
0.0
 20
0.0
 30
0.0
  3
*Paper_Space0
  1

  0
ENDBLK
  5
25
330
23
100
AcDbEntity
  8
0
100
AcDbBlockEnd
  0
BLOCK
  5
AD
330
AC
100
AcDbEntity
  8
0
100
AcDbBlockBegin
  2
_D
 70
     0
 10
0.0
 20
0.0
 30
0.0
  3
_D
  1

  0
SOLID
  5
AF
330
AC
100
AcDbEntity
  8
0
  6
Continuous
 62
     7
370
    18
100
AcDbTrace
 10
157.2480472611
 20
137.5005147632
 30
0.0
 11
159.6743916517
 21
139.4176357553
 31
0.0
 12
158.486764786
 22
140.3339012341
 32
0.0
 13
158.486764786
 23
140.3339012341
 33
0.0
  0
LINE
  5
B0
330
AC
100
AcDbEntity
  8
0
  6
Continuous
 62
     7
370
    18
100
AcDbLine
 10
157.2480472611
 20
137.5005147632
 30
0.0
 11
172.170627901
 21
156.8425701861
 31
0.0
  0
LINE
  5
B1
330
AC
100
AcDbEntity
  8
0
  6
Continuous
 62
     7
370
    18
100
AcDbLine
 10
172.170627901
 20
156.8425701861
 30
0.0
 11
181.9053498909
 21
156.8425701861
 31
0.0
  0
MTEXT
  5
B2
330
AC
100
AcDbEntity
  8
0
  6
Continuous
 62
     7
370
    18
100
AcDbMText
 10
173.758127901
 20
161.3543070425
 30
0.0
 40
3.5
 41
0.0
 71
     1
 72
     1
  1
4-M3
  7
SLDTEXTSTYLE0
 73
     1
 44
1.0
  0
ENDBLK
  5
AE
330
AC
100
AcDbEntity
  8
0
100
AcDbBlockEnd
  0
BLOCK
  5
B6
330
B5
100
AcDbEntity
  8
0
100
AcDbBlockBegin
  2
_D_1
 70
     0
 10
0.0
 20
0.0
 30
0.0
  3
_D_1
  1

  0
SOLID
  5
B8
330
B5
100
AcDbEntity
  8
0
  6
Continuous
 62
     7
370
    18
100
AcDbTrace
 10
92.9054326222
 20
146.0108256914
 30
0.0
 11
92.1554326222
 21
143.0108256914
 31
0.0
 12
93.6554326222
 22
143.0108256914
 32
0.0
 13
93.6554326222
 23
143.0108256914
 33
0.0
  0
SOLID
  5
B9
330
B5
100
AcDbEntity
  8
0
  6
Continuous
 62
     7
370
    18
100
AcDbTrace
 10
92.9054326222
 20
118.0108256914
 30
0.0
 11
93.6554326222
 21
121.0108256914
 31
0.0
 12
92.1554326222
 22
121.0108256914
 32
0.0
 13
92.1554326222
 23
121.0108256914
 33
0.0
  0
LINE
  5
BA
330
B5
100
AcDbEntity
  8
0
  6
Continuous
 62
     7
370
    18
100
AcDbLine
 10
116.9844926823
 20
146.0108256914
 30
0.0
 11
91.9054326222
 21
146.0108256914
 31
0.0
  0
LINE
  5
BB
330
B5
100
AcDbEntity
  8
0
  6
Continuous
 62
     7
370
    18
100
AcDbLine
 10
129.4844926823
 20
118.0108256914
 30
0.0
 11
91.9054326222
 21
118.0108256914
 31
0.0
  0
LINE
  5
BC
330
B5
100
AcDbEntity
  8
0
  6
Continuous
 62
     7
370
    18
100
AcDbLine
 10
92.9054326222
 20
146.0108256914
 30
0.0
 11
92.9054326222
 21
118.0108256914
 31
0.0
  0
MTEXT
  5
BD
330
B5
100
AcDbEntity
  8
0
  6
Continuous
 62
     7
370
    18
100
AcDbMText
 10
88.3936957659
 20
129.974020194
 30
0.0
 40
3.5
 41
0.0
 71
     1
 72
     1
  1
28
  7
SLDTEXTSTYLE0
 11
-7.044195017643634E-15
 21
1.0
 31
0.0
 73
     1
 44
1.0
  0
ENDBLK
  5
B7
330
B5
100
AcDbEntity
  8
0
100
AcDbBlockEnd
  0
BLOCK
  5
C1
330
C0
100
AcDbEntity
  8
0
100
AcDbBlockBegin
  2
_D_2
 70
     0
 10
0.0
 20
0.0
 30
0.0
  3
_D_2
  1

  0
SOLID
  5
C3
330
C0
100
AcDbEntity
  8
0
  6
Continuous
 62
     7
370
    18
100
AcDbTrace
 10
112.3423534158
 20
131.0108256914
 30
0.0
 11
113.0923534158
 21
134.0108256914
 31
0.0
 12
111.5923534158
 22
134.0108256914
 32
0.0
 13
111.5923534158
 23
134.0108256914
 33
0.0
  0
SOLID
  5
C4
330
C0
100
AcDbEntity
  8
0
  6
Continuous
 62
     7
370
    18
100
AcDbTrace
 10
112.3423534158
 20
118.0108256914
 30
0.0
 11
111.5923534158
 21
115.0108256914
 31
0.0
 12
113.0923534158
 22
115.0108256914
 32
0.0
 13
113.0923534158
 23
115.0108256914
 33
0.0
  0
LINE
  5
C5
330
C0
100
AcDbEntity
  8
0
  6
Continuous
 62
     7
370
    18
100
AcDbLine
 10
120.4844926823
 20
131.0108256914
 30
0.0
 11
111.3423534158
 21
131.0108256914
 31
0.0
  0
LINE
  5
C6
330
C0
100
AcDbEntity
  8
0
  6
Continuous
 62
     7
370
    18
100
AcDbLine
 10
129.4844926823
 20
118.0108256914
 30
0.0
 11
111.3423534158
 21
118.0108256914
 31
0.0
  0
LINE
  5
C7
330
C0
100
AcDbEntity
  8
0
  6
Continuous
 62
     7
370
    18
100
AcDbLine
 10
112.3423534158
 20
131.0108256914
 30
0.0
 11
112.3423534158
 21
136.0108256914
 31
0.0
  0
LINE
  5
C8
330
C0
100
AcDbEntity
  8
0
  6
Continuous
 62
     7
370
    18
100
AcDbLine
 10
112.3423534158
 20
131.0108256914
 30
0.0
 11
112.3423534158
 21
118.0108256914
 31
0.0
  0
LINE
  5
C9
330
C0
100
AcDbEntity
  8
0
  6
Continuous
 62
     7
370
    18
100
AcDbLine
 10
112.3423534158
 20
118.0108256914
 30
0.0
 11
112.3423534158
 21
113.0108256914
 31
0.0
  0
MTEXT
  5
CA
330
C0
100
AcDbEntity
  8
0
  6
Continuous
 62
     7
370
    18
100
AcDbMText
 10
107.8306165595
 20
122.474020194
 30
0.0
 40
3.5
 41
0.0
 71
     1
 72
     1
  1
13
  7
SLDTEXTSTYLE0
 11
-7.044195017643634E-15
 21
1.0
 31
0.0
 73
     1
 44
1.0
  0
ENDBLK
  5
C2
330
C0
100
AcDbEntity
  8
0
100
AcDbBlockEnd
  0
BLOCK
  5
CD
330
CC
100
AcDbEntity
  8
0
100
AcDbBlockBegin
  2
_D_3
 70
     0
 10
0.0
 20
0.0
 30
0.0
  3
_D_3
  1

  0
SOLID
  5
CF
330
CC
100
AcDbEntity
  8
0
  6
Continuous
 62
     7
370
    18
100
AcDbTrace
 10
117.9844926823
 20
152.5876417771
 30
0.0
 11
120.9844926823
 21
151.8376417771
 31
0.0
 12
120.9844926823
 22
153.3376417771
 32
0.0
 13
120.9844926823
 23
153.3376417771
 33
0.0
  0
SOLID
  5
D0
330
CC
100
AcDbEntity
  8
0
  6
Continuous
 62
     7
370
    18
100
AcDbTrace
 10
127.9844926823
 20
152.5876417771
 30
0.0
 11
124.9844926823
 21
153.3376417771
 31
0.0
 12
124.9844926823
 22
151.8376417771
 32
0.0
 13
124.9844926823
 23
151.8376417771
 33
0.0
  0
LINE
  5
D1
330
CC
100
AcDbEntity
  8
0
  6
Continuous
 62
     7
370
    18
100
AcDbLine
 10
117.9844926823
 20
147.0108256914
 30
0.0
 11
117.9844926823
 21
153.5876417771
 31
0.0
  0
LINE
  5
D2
330
CC
100
AcDbEntity
  8
0
  6
Continuous
 62
     7
370
    18
100
AcDbLine
 10
127.9844926823
 20
138.5108256914
 30
0.0
 11
127.9844926823
 21
153.5876417771
 31
0.0
  0
LINE
  5
D3
330
CC
100
AcDbEntity
  8
0
  6
Continuous
 62
     7
370
    18
100
AcDbLine
 10
117.9844926823
 20
152.5876417771
 30
0.0
 11
127.9844926823
 21
152.5876417771
 31
0.0
  0
MTEXT
  5
D4
330
CC
100
AcDbEntity
  8
0
  6
Continuous
 62
     7
370
    18
100
AcDbMText
 10
121.5574267193
 20
157.0993786335
 30
0.0
 40
3.5
 41
0.0
 71
     1
 72
     1
  1
10
  7
SLDTEXTSTYLE0
 73
     1
 44
1.0
  0
ENDBLK
  5
CE
330
CC
100
AcDbEntity
  8
0
100
AcDbBlockEnd
  0
BLOCK
  5
D7
330
D6
100
AcDbEntity
  8
0
100
AcDbBlockBegin
  2
_D_4
 70
     0
 10
0.0
 20
0.0
 30
0.0
  3
_D_4
  1

  0
SOLID
  5
D9
330
D6
100
AcDbEntity
  8
0
  6
Continuous
 62
     7
370
    18
100
AcDbTrace
 10
127.9844926823
 20
152.5876417771
 30
0.0
 11
130.9844926823
 21
151.8376417771
 31
0.0
 12
130.9844926823
 22
153.3376417771
 32
0.0
 13
130.9844926823
 23
153.3376417771
 33
0.0
  0
SOLID
  5
DA
330
D6
100
AcDbEntity
  8
0
  6
Continuous
 62
     7
370
    18
100
AcDbTrace
 10
142.9844926823
 20
152.5876417771
 30
0.0
 11
139.9844926823
 21
153.3376417771
 31
0.0
 12
139.9844926823
 22
151.8376417771
 32
0.0
 13
139.9844926823
 23
151.8376417771
 33
0.0
  0
LINE
  5
DB
330
D6
100
AcDbEntity
  8
0
  6
Continuous
 62
     7
370
    18
100
AcDbLine
 10
127.9844926823
 20
138.5108256914
 30
0.0
 11
127.9844926823
 21
153.5876417771
 31
0.0
  0
LINE
  5
DC
330
D6
100
AcDbEntity
  8
0
  6
Continuous
 62
     7
370
    18
100
AcDbLine
 10
142.9844926823
 20
138.5108256914
 30
0.0
 11
142.9844926823
 21
153.5876417771
 31
0.0
  0
LINE
  5
DD
330
D6
100
AcDbEntity
  8
0
  6
Continuous
 62
     7
370
    18
100
AcDbLine
 10
127.9844926823
 20
152.5876417771
 30
0.0
 11
142.9844926823
 21
152.5876417771
 31
0.0
  0
MTEXT
  5
DE
330
D6
100
AcDbEntity
  8
0
  6
Continuous
 62
     7
370
    18
100
AcDbMText
 10
133.4476871848
 20
157.0993786335
 30
0.0
 40
3.5
 41
0.0
 71
     1
 72
     1
  1
15
  7
SLDTEXTSTYLE0
 73
     1
 44
1.0
  0
ENDBLK
  5
D8
330
D6
100
AcDbEntity
  8
0
100
AcDbBlockEnd
  0
BLOCK
  5
E1
330
E0
100
AcDbEntity
  8
0
100
AcDbBlockBegin
  2
_D_5
 70
     0
 10
0.0
 20
0.0
 30
0.0
  3
_D_5
  1

  0
SOLID
  5
E3
330
E0
100
AcDbEntity
  8
0
  6
Continuous
 62
     7
370
    18
100
AcDbTrace
 10
117.9844926823
 20
168.0158256914
 30
0.0
 11
120.9844926823
 21
167.2658256914
 31
0.0
 12
120.9844926823
 22
168.7658256914
 32
0.0
 13
120.9844926823
 23
168.7658256914
 33
0.0
  0
SOLID
  5
E4
330
E0
100
AcDbEntity
  8
0
  6
Continuous
 62
     7
370
    18
100
AcDbTrace
 10
167.9844926823
 20
168.0158256914
 30
0.0
 11
164.9844926823
 21
168.7658256914
 31
0.0
 12
164.9844926823
 22
167.2658256914
 32
0.0
 13
164.9844926823
 23
167.2658256914
 33
0.0
  0
LINE
  5
E5
330
E0
100
AcDbEntity
  8
0
  6
Continuous
 62
     7
370
    18
100
AcDbLine
 10
117.9844926823
 20
147.0108256907
 30
0.0
 11
117.9844926823
 21
169.0158256914
 31
0.0
  0
LINE
  5
E6
330
E0
100
AcDbEntity
  8
0
  6
Continuous
 62
     7
370
    18
100
AcDbLine
 10
167.9844926823
 20
147.0108256907
 30
0.0
 11
167.9844926823
 21
169.0158256914
 31
0.0
  0
LINE
  5
E7
330
E0
100
AcDbEntity
  8
0
  6
Continuous
 62
     7
370
    18
100
AcDbLine
 10
117.9844926823
 20
168.0158256914
 30
0.0
 11
167.9844926823
 21
168.0158256914
 31
0.0
  0
MTEXT
  5
E8
330
E0
100
AcDbEntity
  8
0
  6
Continuous
 62
     7
370
    18
100
AcDbMText
 10
140.9476871848
 20
172.5275625478
 30
0.0
 40
3.5
 41
0.0
 71
     1
 72
     1
  1
50
  7
SLDTEXTSTYLE0
 73
     1
 44
1.0
  0
ENDBLK
  5
E2
330
E0
100
AcDbEntity
  8
0
100
AcDbBlockEnd
  0
BLOCK
  5
EB
330
EA
100
AcDbEntity
  8
0
100
AcDbBlockBegin
  2
_D_6
 70
     0
 10
0.0
 20
0.0
 30
0.0
  3
_D_6
  1

  0
SOLID
  5
ED
330
EA
100
AcDbEntity
  8
0
  6
Continuous
 62
     7
370
    18
100
AcDbTrace
 10
104.4750283327
 20
118.0108256914
 30
0.0
 11
103.7250283327
 21
115.0108256914
 31
0.0
 12
105.2250283327
 22
115.0108256914
 32
0.0
 13
105.2250283327
 23
115.0108256914
 33
0.0
  0
SOLID
  5
EE
330
EA
100
AcDbEntity
  8
0
  6
Continuous
 62
     7
370
    18
100
AcDbTrace
 10
104.4750283327
 20
128.5108256914
 30
0.0
 11
105.2250283327
 21
131.5108256914
 31
0.0
 12
103.7250283327
 22
131.5108256914
 32
0.0
 13
103.7250283327
 23
131.5108256914
 33
0.0
  0
LINE
  5
EF
330
EA
100
AcDbEntity
  8
0
  6
Continuous
 62
     7
370
    18
100
AcDbLine
 10
129.4844926823
 20
118.0108256914
 30
0.0
 11
103.4750283327
 21
118.0108256914
 31
0.0
  0
LINE
  5
F0
330
EA
100
AcDbEntity
  8
0
  6
Continuous
 62
     7
370
    18
100
AcDbLine
 10
116.7344926823
 20
128.5108256914
 30
0.0
 11
103.4750283327
 21
128.5108256914
 31
0.0
  0
LINE
  5
F1
330
EA
100
AcDbEntity
  8
0
  6
Continuous
 62
     7
370
    18
100
AcDbLine
 10
104.4750283327
 20
118.0108256914
 30
0.0
 11
104.4750283327
 21
113.0108256914
 31
0.0
  0
LINE
  5
F2
330
EA
100
AcDbEntity
  8
0
  6
Continuous
 62
     7
370
    18
100
AcDbLine
 10
104.4750283327
 20
118.0108256914
 30
0.0
 11
104.4750283327
 21
128.5108256914
 31
0.0
  0
LINE
  5
F3
330
EA
100
AcDbEntity
  8
0
  6
Continuous
 62
     7
370
    18
100
AcDbLine
 10
104.4750283327
 20
128.5108256914
 30
0.0
 11
104.4750283327
 21
133.5108256914
 31
0.0
  0
MTEXT
  5
F4
330
EA
100
AcDbEntity
  8
0
  6
Continuous
 62
     7
370
    18
100
AcDbMText
 10
99.9632914763
 20
119.1872146965
 30
0.0
 40
3.5
 41
0.0
 71
     1
 72
     1
  1
10.5
  7
SLDTEXTSTYLE0
 11
6.123233995736766E-17
 21
1.0
 31
0.0
 73
     1
 44
1.0
  0
ENDBLK
  5
EC
330
EA
100
AcDbEntity
  8
0
100
AcDbBlockEnd
  0
BLOCK
  5
F7
330
F6
100
AcDbEntity
  8
0
100
AcDbBlockBegin
  2
_D_7
 70
     0
 10
0.0
 20
0.0
 30
0.0
  3
_D_7
  1

  0
SOLID
  5
F9
330
F6
100
AcDbEntity
  8
0
  6
Continuous
 62
     7
370
    18
100
AcDbTrace
 10
104.4750283327
 20
128.5108256914
 30
0.0
 11
105.2250283327
 21
131.5108256914
 31
0.0
 12
103.7250283327
 22
131.5108256914
 32
0.0
 13
103.7250283327
 23
131.5108256914
 33
0.0
  0
SOLID
  5
FA
330
F6
100
AcDbEntity
  8
0
  6
Continuous
 62
     7
370
    18
100
AcDbTrace
 10
104.4750283327
 20
136.5108256914
 30
0.0
 11
103.7250283327
 21
133.5108256914
 31
0.0
 12
105.2250283327
 22
133.5108256914
 32
0.0
 13
105.2250283327
 23
133.5108256914
 33
0.0
  0
LINE
  5
FB
330
F6
100
AcDbEntity
  8
0
  6
Continuous
 62
     7
370
    18
100
AcDbLine
 10
116.7344926823
 20
128.5108256914
 30
0.0
 11
103.4750283327
 21
128.5108256914
 31
0.0
  0
LINE
  5
FC
330
F6
100
AcDbEntity
  8
0
  6
Continuous
 62
     7
370
    18
100
AcDbLine
 10
116.7344926609
 20
136.5108256914
 30
0.0
 11
103.4750283327
 21
136.5108256914
 31
0.0
  0
LINE
  5
FD
330
F6
100
AcDbEntity
  8
0
  6
Continuous
 62
     7
370
    18
100
AcDbLine
 10
104.4750283327
 20
128.5108256914
 30
0.0
 11
104.4750283327
 21
136.5108256914
 31
0.0
  0
MTEXT
  5
FE
330
F6
100
AcDbEntity
  8
0
  6
Continuous
 62
     7
370
    18
100
AcDbMText
 10
99.9632914763
 20
131.4924229427
 30
0.0
 40
3.5
 41
0.0
 71
     1
 72
     1
  1
8
  7
SLDTEXTSTYLE0
 11
6.123233995736766E-17
 21
1.0
 31
0.0
 73
     1
 44
1.0
  0
ENDBLK
  5
F8
330
F6
100
AcDbEntity
  8
0
100
AcDbBlockEnd
  0
BLOCK
  5
101
330
100
100
AcDbEntity
  8
0
100
AcDbBlockBegin
  2
_D_8
 70
     0
 10
0.0
 20
0.0
 30
0.0
  3
_D_8
  1

  0
SOLID
  5
103
330
100
100
AcDbEntity
  8
0
  6
Continuous
 62
     7
370
    18
100
AcDbTrace
 10
117.9844926823
 20
160.223574946
 30
0.0
 11
114.9844926823
 21
160.973574946
 31
0.0
 12
114.9844926823
 22
159.473574946
 32
0.0
 13
114.9844926823
 23
159.473574946
 33
0.0
  0
SOLID
  5
104
330
100
100
AcDbEntity
  8
0
  6
Continuous
 62
     7
370
    18
100
AcDbTrace
 10
121.4844926823
 20
160.223574946
 30
0.0
 11
124.4844926823
 21
159.473574946
 31
0.0
 12
124.4844926823
 22
160.973574946
 32
0.0
 13
124.4844926823
 23
160.973574946
 33
0.0
  0
LINE
  5
105
330
100
100
AcDbEntity
  8
0
  6
Continuous
 62
     7
370
    18
100
AcDbLine
 10
117.9844926823
 20
144.4108256914
 30
0.0
 11
117.9844926823
 21
161.223574946
 31
0.0
  0
LINE
  5
106
330
100
100
AcDbEntity
  8
0
  6
Continuous
 62
     7
370
    18
100
AcDbLine
 10
121.4844926823
 20
141.2608257129
 30
0.0
 11
121.4844926823
 21
161.223574946
 31
0.0
  0
LINE
  5
107
330
100
100
AcDbEntity
  8
0
  6
Continuous
 62
     7
370
    18
100
AcDbLine
 10
117.9844926823
 20
160.223574946
 30
0.0
 11
108.6167026126
 21
160.223574946
 31
0.0
  0
LINE
  5
108
330
100
100
AcDbEntity
  8
0
  6
Continuous
 62
     7
370
    18
100
AcDbLine
 10
117.9844926823
 20
160.223574946
 30
0.0
 11
121.4844926823
 21
160.223574946
 31
0.0
  0
LINE
  5
109
330
100
100
AcDbEntity
  8
0
  6
Continuous
 62
     7
370
    18
100
AcDbLine
 10
121.4844926823
 20
160.223574946
 30
0.0
 11
126.4844926823
 21
160.223574946
 31
0.0
  0
MTEXT
  5
10A
330
100
100
AcDbEntity
  8
0
  6
Continuous
 62
     7
370
    18
100
AcDbMText
 10
108.6167026126
 20
164.7353118024
 30
0.0
 40
3.5
 41
0.0
 71
     1
 72
     1
  1
3.5
  7
SLDTEXTSTYLE0
 73
     1
 44
1.0
  0
ENDBLK
  5
102
330
100
100
AcDbEntity
  8
0
100
AcDbBlockEnd
  0
BLOCK
  5
10D
330
10C
100
AcDbEntity
  8
0
100
AcDbBlockBegin
  2
_D_9
 70
     0
 10
0.0
 20
0.0
 30
0.0
  3
_D_9
  1

  0
SOLID
  5
10F
330
10C
100
AcDbEntity
  8
0
  6
Continuous
 62
     7
370
    18
100
AcDbTrace
 10
121.4844926823
 20
160.223574946
 30
0.0
 11
124.4844926823
 21
159.473574946
 31
0.0
 12
124.4844926823
 22
160.973574946
 32
0.0
 13
124.4844926823
 23
160.973574946
 33
0.0
  0
SOLID
  5
110
330
10C
100
AcDbEntity
  8
0
  6
Continuous
 62
     7
370
    18
100
AcDbTrace
 10
156.4844926823
 20
160.223574946
 30
0.0
 11
153.4844926823
 21
160.973574946
 31
0.0
 12
153.4844926823
 22
159.473574946
 32
0.0
 13
153.4844926823
 23
159.473574946
 33
0.0
  0
LINE
  5
111
330
10C
100
AcDbEntity
  8
0
  6
Continuous
 62
     7
370
    18
100
AcDbLine
 10
121.4844926823
 20
141.2608257129
 30
0.0
 11
121.4844926823
 21
161.223574946
 31
0.0
  0
LINE
  5
112
330
10C
100
AcDbEntity
  8
0
  6
Continuous
 62
     7
370
    18
100
AcDbLine
 10
156.4844926823
 20
141.2608257129
 30
0.0
 11
156.4844926823
 21
161.223574946
 31
0.0
  0
LINE
  5
113
330
10C
100
AcDbEntity
  8
0
  6
Continuous
 62
     7
370
    18
100
AcDbLine
 10
121.4844926823
 20
160.223574946
 30
0.0
 11
156.4844926823
 21
160.223574946
 31
0.0
  0
MTEXT
  5
114
330
10C
100
AcDbEntity
  8
0
  6
Continuous
 62
     7
370
    18
100
AcDbMText
 10
136.9476871848
 20
164.7353118024
 30
0.0
 40
3.5
 41
0.0
 71
     1
 72
     1
  1
35
  7
SLDTEXTSTYLE0
 73
     1
 44
1.0
  0
ENDBLK
  5
10E
330
10C
100
AcDbEntity
  8
0
100
AcDbBlockEnd
  0
BLOCK
  5
116
330
115
100
AcDbEntity
  8
0
100
AcDbBlockBegin
  2
SW_CENTERMARKSYMBOL_0
 70
     0
 10
0.0
 20
0.0
 30
0.0
  3
SW_CENTERMARKSYMBOL_0
  1

  0
LINE
  5
118
330
115
100
AcDbEntity
  8
0
  6
Continuous
 62
     0
370
    18
100
AcDbLine
 10
0.0
 20
0.0
 30
0.0
 11
0.0
 21
2.5
 31
0.0
  0
LINE
  5
119
330
115
100
AcDbEntity
  8
0
  6
Continuous
 62
     0
370
    18
100
AcDbLine
 10
0.0
 20
0.0
 30
0.0
 11
-2.5
 21
0.0
 31
0.0
  0
LINE
  5
11A
330
115
100
AcDbEntity
  8
0
  6
Continuous
 62
     0
370
    18
100
AcDbLine
 10
0.0
 20
0.0
 30
0.0
 11
0.0
 21
-2.5
 31
0.0
  0
LINE
  5
11B
330
115
100
AcDbEntity
  8
0
  6
Continuous
 62
     0
370
    18
100
AcDbLine
 10
0.0
 20
0.0
 30
0.0
 11
2.5
 21
0.0
 31
0.0
  0
LINE
  5
11C
330
115
100
AcDbEntity
  8
0
  6
Continuous
 62
     0
370
    18
100
AcDbLine
 10
0.0
 20
5.0
 30
0.0
 11
0.0
 21
6.5
 31
0.0
  0
LINE
  5
11D
330
115
100
AcDbEntity
  8
0
  6
Continuous
 62
     0
370
    18
100
AcDbLine
 10
-5.0
 20
0.0
 30
0.0
 11
-6.5
 21
0.0
 31
0.0
  0
LINE
  5
11E
330
115
100
AcDbEntity
  8
0
  6
Continuous
 62
     0
370
    18
100
AcDbLine
 10
0.0
 20
-5.0
 30
0.0
 11
0.0
 21
-6.5
 31
0.0
  0
LINE
  5
11F
330
115
100
AcDbEntity
  8
0
  6
Continuous
 62
     0
370
    18
100
AcDbLine
 10
5.0
 20
0.0
 30
0.0
 11
6.5
 21
0.0
 31
0.0
  0
ENDBLK
  5
117
330
115
100
AcDbEntity
  8
0
100
AcDbBlockEnd
  0
BLOCK
  5
122
330
121
100
AcDbEntity
  8
0
100
AcDbBlockBegin
  2
SW_CENTERMARKSYMBOL_1
 70
     0
 10
0.0
 20
0.0
 30
0.0
  3
SW_CENTERMARKSYMBOL_1
  1

  0
LINE
  5
124
330
121
100
AcDbEntity
  8
0
  6
Continuous
 62
     0
370
    18
100
AcDbLine
 10
0.0
 20
0.0
 30
0.0
 11
0.0
 21
2.5
 31
0.0
  0
LINE
  5
125
330
121
100
AcDbEntity
  8
0
  6
Continuous
 62
     0
370
    18
100
AcDbLine
 10
0.0
 20
0.0
 30
0.0
 11
-2.5
 21
0.0
 31
0.0
  0
LINE
  5
126
330
121
100
AcDbEntity
  8
0
  6
Continuous
 62
     0
370
    18
100
AcDbLine
 10
0.0
 20
0.0
 30
0.0
 11
0.0
 21
-2.5
 31
0.0
  0
LINE
  5
127
330
121
100
AcDbEntity
  8
0
  6
Continuous
 62
     0
370
    18
100
AcDbLine
 10
0.0
 20
0.0
 30
0.0
 11
2.5
 21
0.0
 31
0.0
  0
LINE
  5
128
330
121
100
AcDbEntity
  8
0
  6
Continuous
 62
     0
370
    18
100
AcDbLine
 10
0.0
 20
5.0
 30
0.0
 11
0.0
 21
6.5
 31
0.0
  0
LINE
  5
129
330
121
100
AcDbEntity
  8
0
  6
Continuous
 62
     0
370
    18
100
AcDbLine
 10
-5.0
 20
0.0
 30
0.0
 11
-6.5
 21
0.0
 31
0.0
  0
LINE
  5
12A
330
121
100
AcDbEntity
  8
0
  6
Continuous
 62
     0
370
    18
100
AcDbLine
 10
0.0
 20
-5.0
 30
0.0
 11
0.0
 21
-6.5
 31
0.0
  0
LINE
  5
12B
330
121
100
AcDbEntity
  8
0
  6
Continuous
 62
     0
370
    18
100
AcDbLine
 10
5.0
 20
0.0
 30
0.0
 11
6.5
 21
0.0
 31
0.0
  0
ENDBLK
  5
123
330
121
100
AcDbEntity
  8
0
100
AcDbBlockEnd
  0
BLOCK
  5
12E
330
12D
100
AcDbEntity
  8
0
100
AcDbBlockBegin
  2
SW_CENTERMARKSYMBOL_2
 70
     0
 10
0.0
 20
0.0
 30
0.0
  3
SW_CENTERMARKSYMBOL_2
  1

  0
LINE
  5
130
330
12D
100
AcDbEntity
  8
0
  6
Continuous
 62
     0
370
    18
100
AcDbLine
 10
0.0
 20
0.0
 30
0.0
 11
0.0
 21
2.5
 31
0.0
  0
LINE
  5
131
330
12D
100
AcDbEntity
  8
0
  6
Continuous
 62
     0
370
    18
100
AcDbLine
 10
0.0
 20
0.0
 30
0.0
 11
-2.5
 21
0.0
 31
0.0
  0
LINE
  5
132
330
12D
100
AcDbEntity
  8
0
  6
Continuous
 62
     0
370
    18
100
AcDbLine
 10
0.0
 20
0.0
 30
0.0
 11
0.0
 21
-2.5
 31
0.0
  0
LINE
  5
133
330
12D
100
AcDbEntity
  8
0
  6
Continuous
 62
     0
370
    18
100
AcDbLine
 10
0.0
 20
0.0
 30
0.0
 11
2.5
 21
0.0
 31
0.0
  0
LINE
  5
134
330
12D
100
AcDbEntity
  8
0
  6
Continuous
 62
     0
370
    18
100
AcDbLine
 10
0.0
 20
2.5
 30
0.0
 11
0.0
 21
3.7500000214
 31
0.0
  0
LINE
  5
135
330
12D
100
AcDbEntity
  8
0
  6
Continuous
 62
     0
370
    18
100
AcDbLine
 10
-2.5
 20
0.0
 30
0.0
 11
-3.7500000214
 21
0.0
 31
0.0
  0
LINE
  5
136
330
12D
100
AcDbEntity
  8
0
  6
Continuous
 62
     0
370
    18
100
AcDbLine
 10
0.0
 20
-2.5
 30
0.0
 11
0.0
 21
-3.7500000214
 31
0.0
  0
LINE
  5
137
330
12D
100
AcDbEntity
  8
0
  6
Continuous
 62
     0
370
    18
100
AcDbLine
 10
2.5
 20
0.0
 30
0.0
 11
3.7500000214
 21
0.0
 31
0.0
  0
ENDBLK
  5
12F
330
12D
100
AcDbEntity
  8
0
100
AcDbBlockEnd
  0
BLOCK
  5
13A
330
139
100
AcDbEntity
  8
0
100
AcDbBlockBegin
  2
SW_CENTERMARKSYMBOL_3
 70
     0
 10
0.0
 20
0.0
 30
0.0
  3
SW_CENTERMARKSYMBOL_3
  1

  0
LINE
  5
13C
330
139
100
AcDbEntity
  8
0
  6
Continuous
 62
     0
370
    18
100
AcDbLine
 10
0.0
 20
0.0
 30
0.0
 11
0.0
 21
2.5
 31
0.0
  0
LINE
  5
13D
330
139
100
AcDbEntity
  8
0
  6
Continuous
 62
     0
370
    18
100
AcDbLine
 10
0.0
 20
0.0
 30
0.0
 11
-2.5
 21
0.0
 31
0.0
  0
LINE
  5
13E
330
139
100
AcDbEntity
  8
0
  6
Continuous
 62
     0
370
    18
100
AcDbLine
 10
0.0
 20
0.0
 30
0.0
 11
0.0
 21
-2.5
 31
0.0
  0
LINE
  5
13F
330
139
100
AcDbEntity
  8
0
  6
Continuous
 62
     0
370
    18
100
AcDbLine
 10
0.0
 20
0.0
 30
0.0
 11
2.5
 21
0.0
 31
0.0
  0
LINE
  5
140
330
139
100
AcDbEntity
  8
0
  6
Continuous
 62
     0
370
    18
100
AcDbLine
 10
0.0
 20
2.5
 30
0.0
 11
0.0
 21
3.75
 31
0.0
  0
LINE
  5
141
330
139
100
AcDbEntity
  8
0
  6
Continuous
 62
     0
370
    18
100
AcDbLine
 10
-2.5
 20
0.0
 30
0.0
 11
-3.75
 21
0.0
 31
0.0
  0
LINE
  5
142
330
139
100
AcDbEntity
  8
0
  6
Continuous
 62
     0
370
    18
100
AcDbLine
 10
0.0
 20
-2.5
 30
0.0
 11
0.0
 21
-3.75
 31
0.0
  0
LINE
  5
143
330
139
100
AcDbEntity
  8
0
  6
Continuous
 62
     0
370
    18
100
AcDbLine
 10
2.5
 20
0.0
 30
0.0
 11
3.75
 21
0.0
 31
0.0
  0
ENDBLK
  5
13B
330
139
100
AcDbEntity
  8
0
100
AcDbBlockEnd
  0
BLOCK
  5
146
330
145
100
AcDbEntity
  8
0
100
AcDbBlockBegin
  2
SW_CENTERMARKSYMBOL_4
 70
     0
 10
0.0
 20
0.0
 30
0.0
  3
SW_CENTERMARKSYMBOL_4
  1

  0
LINE
  5
148
330
145
100
AcDbEntity
  8
0
  6
Continuous
 62
     0
370
    18
100
AcDbLine
 10
0.0
 20
0.0
 30
0.0
 11
0.0
 21
2.5
 31
0.0
  0
LINE
  5
149
330
145
100
AcDbEntity
  8
0
  6
Continuous
 62
     0
370
    18
100
AcDbLine
 10
0.0
 20
0.0
 30
0.0
 11
-2.5
 21
0.0
 31
0.0
  0
LINE
  5
14A
330
145
100
AcDbEntity
  8
0
  6
Continuous
 62
     0
370
    18
100
AcDbLine
 10
0.0
 20
0.0
 30
0.0
 11
0.0
 21
-2.5
 31
0.0
  0
LINE
  5
14B
330
145
100
AcDbEntity
  8
0
  6
Continuous
 62
     0
370
    18
100
AcDbLine
 10
0.0
 20
0.0
 30
0.0
 11
2.5
 21
0.0
 31
0.0
  0
LINE
  5
14C
330
145
100
AcDbEntity
  8
0
  6
Continuous
 62
     0
370
    18
100
AcDbLine
 10
0.0
 20
2.5
 30
0.0
 11
0.0
 21
3.75
 31
0.0
  0
LINE
  5
14D
330
145
100
AcDbEntity
  8
0
  6
Continuous
 62
     0
370
    18
100
AcDbLine
 10
-2.5
 20
0.0
 30
0.0
 11
-3.75
 21
0.0
 31
0.0
  0
LINE
  5
14E
330
145
100
AcDbEntity
  8
0
  6
Continuous
 62
     0
370
    18
100
AcDbLine
 10
0.0
 20
-2.5
 30
0.0
 11
0.0
 21
-3.75
 31
0.0
  0
LINE
  5
14F
330
145
100
AcDbEntity
  8
0
  6
Continuous
 62
     0
370
    18
100
AcDbLine
 10
2.5
 20
0.0
 30
0.0
 11
3.75
 21
0.0
 31
0.0
  0
ENDBLK
  5
147
330
145
100
AcDbEntity
  8
0
100
AcDbBlockEnd
  0
BLOCK
  5
152
330
151
100
AcDbEntity
  8
0
100
AcDbBlockBegin
  2
SW_CENTERMARKSYMBOL_5
 70
     0
 10
0.0
 20
0.0
 30
0.0
  3
SW_CENTERMARKSYMBOL_5
  1

  0
LINE
  5
154
330
151
100
AcDbEntity
  8
0
  6
Continuous
 62
     0
370
    18
100
AcDbLine
 10
0.0
 20
0.0
 30
0.0
 11
0.0
 21
2.5
 31
0.0
  0
LINE
  5
155
330
151
100
AcDbEntity
  8
0
  6
Continuous
 62
     0
370
    18
100
AcDbLine
 10
0.0
 20
0.0
 30
0.0
 11
-2.5
 21
0.0
 31
0.0
  0
LINE
  5
156
330
151
100
AcDbEntity
  8
0
  6
Continuous
 62
     0
370
    18
100
AcDbLine
 10
0.0
 20
0.0
 30
0.0
 11
0.0
 21
-2.5
 31
0.0
  0
LINE
  5
157
330
151
100
AcDbEntity
  8
0
  6
Continuous
 62
     0
370
    18
100
AcDbLine
 10
0.0
 20
0.0
 30
0.0
 11
2.5
 21
0.0
 31
0.0
  0
LINE
  5
158
330
151
100
AcDbEntity
  8
0
  6
Continuous
 62
     0
370
    18
100
AcDbLine
 10
0.0
 20
2.5
 30
0.0
 11
0.0
 21
3.7500000214
 31
0.0
  0
LINE
  5
159
330
151
100
AcDbEntity
  8
0
  6
Continuous
 62
     0
370
    18
100
AcDbLine
 10
-2.5
 20
0.0
 30
0.0
 11
-3.7500000214
 21
0.0
 31
0.0
  0
LINE
  5
15A
330
151
100
AcDbEntity
  8
0
  6
Continuous
 62
     0
370
    18
100
AcDbLine
 10
0.0
 20
-2.5
 30
0.0
 11
0.0
 21
-3.7500000214
 31
0.0
  0
LINE
  5
15B
330
151
100
AcDbEntity
  8
0
  6
Continuous
 62
     0
370
    18
100
AcDbLine
 10
2.5
 20
0.0
 30
0.0
 11
3.7500000214
 21
0.0
 31
0.0
  0
ENDBLK
  5
153
330
151
100
AcDbEntity
  8
0
100
AcDbBlockEnd
  0
BLOCK
  5
199
330
198
100
AcDbEntity
  8
0
100
AcDbBlockBegin
  2
_D_10
 70
     0
 10
0.0
 20
0.0
 30
0.0
  3
_D_10
  1

  0
SOLID
  5
19B
330
198
100
AcDbEntity
  8
0
  6
Continuous
 62
     7
370
    18
100
AcDbTrace
 10
69.1096489813
 20
152.3160170122
 30
0.0
 11
72.1096489813
 21
151.5660170122
 31
0.0
 12
72.1096489813
 22
153.0660170122
 32
0.0
 13
72.1096489813
 23
153.0660170122
 33
0.0
  0
SOLID
  5
19C
330
198
100
AcDbEntity
  8
0
  6
Continuous
 62
     7
370
    18
100
AcDbTrace
 10
57.5096489813
 20
152.3160170122
 30
0.0
 11
54.5096489813
 21
153.0660170122
 31
0.0
 12
54.5096489813
 22
151.5660170122
 32
0.0
 13
54.5096489813
 23
151.5660170122
 33
0.0
  0
LINE
  5
19D
330
198
100
AcDbEntity
  8
0
  6
Continuous
 62
     7
370
    18
100
AcDbLine
 10
69.1096489813
 20
144.4108256914
 30
0.0
 11
69.1096489813
 21
153.3160170122
 31
0.0
  0
LINE
  5
19E
330
198
100
AcDbEntity
  8
0
  6
Continuous
 62
     7
370
    18
100
AcDbLine
 10
57.5096489813
 20
144.4108256914
 30
0.0
 11
57.5096489813
 21
153.3160170122
 31
0.0
  0
LINE
  5
19F
330
198
100
AcDbEntity
  8
0
  6
Continuous
 62
     7
370
    18
100
AcDbLine
 10
69.1096489813
 20
152.3160170122
 30
0.0
 11
74.1096489813
 21
152.3160170122
 31
0.0
  0
LINE
  5
1A0
330
198
100
AcDbEntity
  8
0
  6
Continuous
 62
     7
370
    18
100
AcDbLine
 10
69.1096489813
 20
152.3160170122
 30
0.0
 11
57.5096489813
 21
152.3160170122
 31
0.0
  0
LINE
  5
1A1
330
198
100
AcDbEntity
  8
0
  6
Continuous
 62
     7
370
    18
100
AcDbLine
 10
57.5096489813
 20
152.3160170122
 30
0.0
 11
52.5096489813
 21
152.3160170122
 31
0.0
  0
MTEXT
  5
1A2
330
198
100
AcDbEntity
  8
0
  6
Continuous
 62
     7
370
    18
100
AcDbMText
 10
59.2360379863
 20
156.8277538686
 30
0.0
 40
3.5
 41
0.0
 71
     1
 72
     1
  1
11.6
  7
SLDTEXTSTYLE0
 73
     1
 44
1.0
  0
ENDBLK
  5
19A
330
198
100
AcDbEntity
  8
0
100
AcDbBlockEnd
  0
ENDSEC
  0
SECTION
  2
ENTITIES
  0
LINE
  5
73
330
1F
100
AcDbEntity
  8
0
  6
Continuous
 62
     7
370
    18
100
AcDbLine
 10
20.2604743903
 20
285.0
 30
0.0
 11
196.7604743903
 21
285.0
 31
0.0
  0
LINE
  5
74
330
1F
100
AcDbEntity
  8
0
  6
Continuous
 62
     7
370
    18
100
AcDbLine
 10
20.2604743903
 20
285.0
 30
0.0
 11
20.2604743903
 21
10.0
 31
0.0
  0
LINE
  5
75
330
1F
100
AcDbEntity
  8
0
  6
Continuous
 62
     7
370
    18
100
AcDbLine
 10
20.2604743903
 20
10.0
 30
0.0
 11
196.7604743903
 21
10.0
 31
0.0
  0
LINE
  5
76
330
1F
100
AcDbEntity
  8
0
  6
Continuous
 62
     7
370
    18
100
AcDbLine
 10
196.7604743903
 20
285.0
 30
0.0
 11
196.7604743903
 21
10.0
 31
0.0
  0
LINE
  5
77
330
1F
100
AcDbEntity
  8
0
  6
Continuous
 62
     7
370
    18
100
AcDbLine
 10
127.0104743903
 20
50.75
 30
0.0
 11
196.7604743903
 21
50.75
 31
0.0
  0
LINE
  5
78
330
1F
100
AcDbEntity
  8
0
  6
Continuous
 62
     7
370
    18
100
AcDbLine
 10
127.0104743903
 20
50.75
 30
0.0
 11
127.0104743903
 21
10.0
 31
0.0
  0
LINE
  5
79
330
1F
100
AcDbEntity
  8
0
  6
Continuous
 62
     7
370
    18
100
AcDbLine
 10
127.0104743903
 20
22.75
 30
0.0
 11
196.7604743903
 21
22.75
 31
0.0
  0
LINE
  5
7A
330
1F
100
AcDbEntity
  8
0
  6
Continuous
 62
     7
370
    18
100
AcDbLine
 10
127.0104743903
 20
36.75
 30
0.0
 11
196.7604743903
 21
36.75
 31
0.0
  0
MTEXT
  5
7C
330
1F
100
AcDbEntity
  8
0
  6
Continuous
 62
     7
370
     0
100
AcDbMText
 10
162.7919136533
 20
30.4171582345
 30
0.0
 40
4.2333333333
 41
0.0
 71
     2
 72
     1
  1
KP-5000
  7
SLDTEXTSTYLE0
 73
     1
 44
1.0
  0
MTEXT
  5
7D
330
1F
100
AcDbEntity
  8
0
  6
Continuous
 62
     7
370
     0
100
AcDbMText
 10
160.4504508018
 20
43.9409718514
 30
0.0
 40
4.2333333333
 41
0.0
 71
     2
 72
     1
  1
SW付当板・交換プレート
  7
SLDTEXTSTYLE0
 73
     1
 44
1.0
  0
MTEXT
  5
7E
330
1F
100
AcDbEntity
  8
0
  6
Continuous
 62
     7
370
     0
100
AcDbMText
 10
163.0474355676
 20
16.8228189052
 30
0.0
 40
4.2333333333
 41
0.0
 71
     2
 72
     1
  1
101839
  7
SLDTEXTSTYLE0
 73
     1
 44
1.0
  0
LINE
  5
7F
330
1F
100
AcDbEntity
  8
0
  6
Continuous
 62
     7
370
    18
100
AcDbLine
 10
130.4844926823
 20
118.0108256914
 30
0.0
 11
155.4844926823
 21
118.0108256914
 31
0.0
  0
SPLINE
  5
80
330
1F
100
AcDbEntity
  8
0
  6
Continuous
 62
   144
370
    18
100
AcDbSpline
210
0.0
220
0.0
230
1.0
 70
    11
 71
     3
 72
    22
 73
    18
 74
     0
 42
0.000000001
 43
0.00000001
 40
0.0
 40
0.0
 40
0.0
 40
0.0
 40
0.125
 40
0.125
 40
0.25
 40
0.25
 40
0.375
 40
0.375
 40
0.5
 40
0.5
 40
0.625
 40
0.625
 40
0.75
 40
0.75
 40
0.875
 40
0.875
 40
1.0
 40
1.0
 40
1.0
 40
1.0
 10
157.7344926823269
 20
136.5108256914337
 30
0.0
 10
157.7344926823269
 20
136.8423369214337
 30
0.0
 10
157.6027899975826
 20
137.1602953291444
 30
0.0
 10
157.1339623200376
 20
137.6291230066894
 30
0.0
 10
156.8160039123269
 20
137.7608256914337
 30
0.0
 10
156.1529814523269
 20
137.7608256914337
 30
0.0
 10
155.8350230446162
 20
137.6291230066894
 30
0.0
 10
155.3661953670712
 20
137.1602953291444
 30
0.0
 10
155.2344926823269
 20
136.8423369214337
 30
0.0
 10
155.2344926823269
 20
136.1793144614337
 30
0.0
 10
155.3661953670712
 20
135.861356053723
 30
0.0
 10
155.8350230446162
 20
135.392528376178
 30
0.0
 10
156.1529814523269
 20
135.2608256914337
 30
0.0
 10
156.8160039123269
 20
135.2608256914337
 30
0.0
 10
157.1339623200376
 20
135.392528376178
 30
0.0
 10
157.6027899975826
 20
135.861356053723
 30
0.0
 10
157.7344926823269
 20
136.1793144614337
 30
0.0
 10
157.7344926823269
 20
136.5108256914337
 30
0.0
  0
SPLINE
  5
81
330
1F
100
AcDbEntity
  8
0
  6
Continuous
 62
   144
370
    18
100
AcDbSpline
210
0.0
220
0.0
230
1.0
 70
    11
 71
     3
 72
    22
 73
    18
 74
     0
 42
0.000000001
 43
0.00000001
 40
0.0
 40
0.0
 40
0.0
 40
0.0
 40
0.125
 40
0.125
 40
0.25
 40
0.25
 40
0.375
 40
0.375
 40
0.5
 40
0.5
 40
0.625
 40
0.625
 40
0.75
 40
0.75
 40
0.875
 40
0.875
 40
1.0
 40
1.0
 40
1.0
 40
1.0
 10
157.7344926823269
 20
128.5108256914337
 30
0.0
 10
157.7344926823269
 20
128.8423369214337
 30
0.0
 10
157.6027899975826
 20
129.1602953291444
 30
0.0
 10
157.1339623200376
 20
129.6291230066894
 30
0.0
 10
156.8160039123269
 20
129.7608256914337
 30
0.0
 10
156.1529814523269
 20
129.7608256914337
 30
0.0
 10
155.8350230446162
 20
129.6291230066894
 30
0.0
 10
155.3661953670712
 20
129.1602953291444
 30
0.0
 10
155.2344926823269
 20
128.8423369214337
 30
0.0
 10
155.2344926823269
 20
128.1793144614337
 30
0.0
 10
155.3661953670712
 20
127.861356053723
 30
0.0
 10
155.8350230446162
 20
127.392528376178
 30
0.0
 10
156.1529814523269
 20
127.2608256914337
 30
0.0
 10
156.8160039123269
 20
127.2608256914337
 30
0.0
 10
157.1339623200376
 20
127.392528376178
 30
0.0
 10
157.6027899975826
 20
127.861356053723
 30
0.0
 10
157.7344926823269
 20
128.1793144614337
 30
0.0
 10
157.7344926823269
 20
128.5108256914337
 30
0.0
  0
SPLINE
  5
82
330
1F
100
AcDbEntity
  8
0
  6
Continuous
 62
   144
370
    18
100
AcDbSpline
210
0.0
220
0.0
230
1.0
 70
    11
 71
     3
 72
    22
 73
    18
 74
     0
 42
0.000000001
 43
0.00000001
 40
0.0
 40
0.0
 40
0.0
 40
0.0
 40
0.125
 40
0.125
 40
0.25
 40
0.25
 40
0.375
 40
0.375
 40
0.5
 40
0.5
 40
0.625
 40
0.625
 40
0.75
 40
0.75
 40
0.875
 40
0.875
 40
1.0
 40
1.0
 40
1.0
 40
1.0
 10
122.7344926823269
 20
136.5108256914337
 30
0.0
 10
122.7344926823269
 20
136.8423369214337
 30
0.0
 10
122.6027899975826
 20
137.1602953291444
 30
0.0
 10
122.1339623200376
 20
137.6291230066894
 30
0.0
 10
121.8160039123269
 20
137.7608256914337
 30
0.0
 10
121.1529814523269
 20
137.7608256914337
 30
0.0
 10
120.8350230446162
 20
137.6291230066894
 30
0.0
 10
120.3661953670712
 20
137.1602953291444
 30
0.0
 10
120.2344926823269
 20
136.8423369214337
 30
0.0
 10
120.2344926823269
 20
136.1793144614337
 30
0.0
 10
120.3661953670712
 20
135.861356053723
 30
0.0
 10
120.8350230446162
 20
135.392528376178
 30
0.0
 10
121.1529814523269
 20
135.2608256914337
 30
0.0
 10
121.8160039123269
 20
135.2608256914337
 30
0.0
 10
122.1339623200376
 20
135.392528376178
 30
0.0
 10
122.6027899975826
 20
135.861356053723
 30
0.0
 10
122.7344926823269
 20
136.1793144614337
 30
0.0
 10
122.7344926823269
 20
136.5108256914337
 30
0.0
  0
SPLINE
  5
83
330
1F
100
AcDbEntity
  8
0
  6
Continuous
 62
   144
370
    18
100
AcDbSpline
210
0.0
220
0.0
230
1.0
 70
    11
 71
     3
 72
    22
 73
    18
 74
     0
 42
0.000000001
 43
0.00000001
 40
0.0
 40
0.0
 40
0.0
 40
0.0
 40
0.125
 40
0.125
 40
0.25
 40
0.25
 40
0.375
 40
0.375
 40
0.5
 40
0.5
 40
0.625
 40
0.625
 40
0.75
 40
0.75
 40
0.875
 40
0.875
 40
1.0
 40
1.0
 40
1.0
 40
1.0
 10
122.7344926823269
 20
128.5108256914337
 30
0.0
 10
122.7344926823269
 20
128.8423369214337
 30
0.0
 10
122.6027899975826
 20
129.1602953291444
 30
0.0
 10
122.1339623200376
 20
129.6291230066894
 30
0.0
 10
121.8160039123269
 20
129.7608256914337
 30
0.0
 10
121.1529814523269
 20
129.7608256914337
 30
0.0
 10
120.8350230446162
 20
129.6291230066894
 30
0.0
 10
120.3661953670712
 20
129.1602953291444
 30
0.0
 10
120.2344926823269
 20
128.8423369214337
 30
0.0
 10
120.2344926823269
 20
128.1793144614337
 30
0.0
 10
120.3661953670712
 20
127.861356053723
 30
0.0
 10
120.8350230446162
 20
127.392528376178
 30
0.0
 10
121.1529814523269
 20
127.2608256914337
 30
0.0
 10
121.8160039123269
 20
127.2608256914337
 30
0.0
 10
122.1339623200376
 20
127.392528376178
 30
0.0
 10
122.6027899975826
 20
127.861356053723
 30
0.0
 10
122.7344926823269
 20
128.1793144614337
 30
0.0
 10
122.7344926823269
 20
128.5108256914337
 30
0.0
  0
SPLINE
  5
84
330
1F
100
AcDbEntity
  8
0
  6
Continuous
 62
   144
370
    18
100
AcDbSpline
210
0.0
220
0.0
230
1.0
 70
    11
 71
     3
 72
    22
 73
    18
 74
     0
 42
0.000000001
 43
0.00000001
 40
0.0
 40
0.0
 40
0.0
 40
0.0
 40
0.125
 40
0.125
 40
0.25
 40
0.25
 40
0.375
 40
0.375
 40
0.5
 40
0.5
 40
0.625
 40
0.625
 40
0.75
 40
0.75
 40
0.875
 40
0.875
 40
1.0
 40
1.0
 40
1.0
 40
1.0
 10
131.9844926823269
 20
131.0108256914337
 30
0.0
 10
131.9844926823269
 20
132.0716616274337
 30
0.0
 10
131.5630440911451
 20
133.0891285321079
 30
0.0
 10
130.0627955230011
 20
134.5893771002519
 30
0.0
 10
129.0453286183269
 20
135.0108256914337
 30
0.0
 10
126.9236567463269
 20
135.0108256914337
 30
0.0
 10
125.9061898416527
 20
134.5893771002519
 30
0.0
 10
124.4059412735087
 20
133.0891285321079
 30
0.0
 10
123.9844926823269
 20
132.0716616274337
 30
0.0
 10
123.9844926823269
 20
129.9499897554337
 30
0.0
 10
124.4059412735087
 20
128.9325228507595
 30
0.0
 10
125.9061898416527
 20
127.4322742826155
 30
0.0
 10
126.9236567463269
 20
127.0108256914337
 30
0.0
 10
129.0453286183269
 20
127.0108256914337
 30
0.0
 10
130.0627955230011
 20
127.4322742826155
 30
0.0
 10
131.5630440911451
 20
128.9325228507595
 30
0.0
 10
131.9844926823269
 20
129.9499897554337
 30
0.0
 10
131.9844926823269
 20
131.0108256914337
 30
0.0
  0
LINE
  5
85
330
1F
100
AcDbEntity
  8
0
  6
Continuous
 62
   144
370
    18
100
AcDbLine
 10
155.4844926823
 20
125.0108256914
 30
0.0
 11
167.9844926823
 21
125.0108256914
 31
0.0
  0
LINE
  5
86
330
1F
100
AcDbEntity
  8
0
  6
Continuous
 62
   144
370
    18
100
AcDbLine
 10
155.4844926823
 20
121.110825688
 30
0.0
 11
155.4844926823
 21
125.0108256914
 31
0.0
  0
SPLINE
  5
87
330
1F
100
AcDbEntity
  8
0
  6
Continuous
 62
   144
370
    18
100
AcDbSpline
210
0.0
220
0.0
230
1.0
 70
    24
 71
     3
 72
    18
 73
    14
 74
     0
 42
0.000000001
 43
0.00000001
 40
0.0
 40
0.0
 40
0.0
 40
0.0
 40
0.062688660303499
 40
0.1564197943202623
 40
0.2501509278460027
 40
0.3438820622829931
 40
0.4376131964010481
 40
0.5313443302721491
 40
0.6250754642510176
 40
0.718806598231376
 40
0.8125377322656342
 40
0.9062688664323626
 40
1.0
 40
1.0
 40
1.0
 40
1.0
 10
155.4844926823269
 20
118.0181442093221
 30
0.0
 10
155.4844926823269
 20
118.0181346656124
 30
0.0
 10
155.4844926823269
 20
118.0181108522929
 30
0.0
 10
155.4844926823269
 20
118.0941167240565
 30
0.0
 10
155.4844926823269
 20
118.2361586423137
 30
0.0
 10
155.4844926823269
 20
118.4420435608075
 30
0.0
 10
155.4844926823269
 20
118.7059244232698
 30
0.0
 10
155.4844926823269
 20
119.0212184424766
 30
0.0
 10
155.4844926823269
 20
119.3824197283193
 30
0.0
 10
155.4844926823269
 20
119.7804504438092
 30
0.0
 10
155.4844926823269
 20
120.207736985831
 30
0.0
 10
155.4844926823269
 20
120.6542607570842
 30
0.0
 10
155.4844926823269
 20
120.9586373780441
 30
0.0
 10
155.4844926823269
 20
121.1108256880377
 30
0.0
  0
SPLINE
  5
88
330
1F
100
AcDbEntity
  8
0
  6
Continuous
 62
   144
370
    18
100
AcDbSpline
210
0.0
220
0.0
230
1.0
 70
    24
 71
     3
 72
    18
 73
    14
 74
     0
 42
0.000000001
 43
0.00000001
 40
0.0
 40
0.0
 40
0.0
 40
0.0
 40
0.093731133567638
 40
0.1874622677343651
 40
0.2811934017686231
 40
0.3749245357489817
 40
0.4686556697278496
 40
0.5623868035989494
 40
0.6561179377170065
 40
0.7498490721539953
 40
0.843580205679734
 40
0.9373113396964998
 40
1.0
 40
1.0
 40
1.0
 40
1.0
 10
130.4844926823269
 20
121.1108256880377
 30
0.0
 10
130.4844926823269
 20
120.9586373780441
 30
0.0
 10
130.4844926823269
 20
120.6542607570842
 30
0.0
 10
130.4844926823269
 20
120.207736985831
 30
0.0
 10
130.4844926823269
 20
119.7804504438092
 30
0.0
 10
130.4844926823269
 20
119.3824197283193
 30
0.0
 10
130.4844926823269
 20
119.0212184424766
 30
0.0
 10
130.4844926823269
 20
118.7059244232698
 30
0.0
 10
130.4844926823269
 20
118.4420435608076
 30
0.0
 10
130.4844926823269
 20
118.2361586423137
 30
0.0
 10
130.4844926823269
 20
118.0941167240565
 30
0.0
 10
130.4844926823269
 20
118.0181108522929
 30
0.0
 10
130.4844926823269
 20
118.0181346656124
 30
0.0
 10
130.4844926823269
 20
118.0181442093221
 30
0.0
  0
LINE
  5
89
330
1F
100
AcDbEntity
  8
0
  6
Continuous
 62
   144
370
    18
100
AcDbLine
 10
130.4844926823
 20
125.0108256914
 30
0.0
 11
130.4844926823
 21
121.110825688
 31
0.0
  0
LINE
  5
8A
330
1F
100
AcDbEntity
  8
0
  6
Continuous
 62
   144
370
    18
100
AcDbLine
 10
117.9844926823
 20
125.0108256914
 30
0.0
 11
130.4844926823
 21
125.0108256914
 31
0.0
  0
SPLINE
  5
8B
330
1F
100
AcDbEntity
  8
0
  6
Continuous
 62
   144
370
    18
100
AcDbSpline
210
0.0
220
0.0
230
1.0
 70
    11
 71
     3
 72
    22
 73
    18
 74
     0
 42
0.000000001
 43
0.00000001
 40
0.0
 40
0.0
 40
0.0
 40
0.0
 40
0.125
 40
0.125
 40
0.25
 40
0.25
 40
0.375
 40
0.375
 40
0.5
 40
0.5
 40
0.625
 40
0.625
 40
0.75
 40
0.75
 40
0.875
 40
0.875
 40
1.0
 40
1.0
 40
1.0
 40
1.0
 10
146.9844926823269
 20
131.0108256914337
 30
0.0
 10
146.9844926823269
 20
132.0716616274337
 30
0.0
 10
146.5630440911451
 20
133.0891285321079
 30
0.0
 10
145.0627955230011
 20
134.5893771002519
 30
0.0
 10
144.0453286183269
 20
135.0108256914337
 30
0.0
 10
141.9236567463269
 20
135.0108256914337
 30
0.0
 10
140.9061898416527
 20
134.5893771002519
 30
0.0
 10
139.4059412735087
 20
133.0891285321079
 30
0.0
 10
138.9844926823269
 20
132.0716616274337
 30
0.0
 10
138.9844926823269
 20
129.9499897554337
 30
0.0
 10
139.4059412735087
 20
128.9325228507595
 30
0.0
 10
140.9061898416527
 20
127.4322742826155
 30
0.0
 10
141.9236567463269
 20
127.0108256914337
 30
0.0
 10
144.0453286183269
 20
127.0108256914337
 30
0.0
 10
145.0627955230011
 20
127.4322742826155
 30
0.0
 10
146.5630440911451
 20
128.9325228507595
 30
0.0
 10
146.9844926823269
 20
129.9499897554337
 30
0.0
 10
146.9844926823269
 20
131.0108256914337
 30
0.0
  0
SPLINE
  5
8C
330
1F
100
AcDbEntity
  8
0
  6
Continuous
 62
   144
370
    18
100
AcDbSpline
210
0.0
220
0.0
230
1.0
 70
    24
 71
     3
 72
    18
 73
    14
 74
     0
 42
0.000000001
 43
0.00000001
 40
0.0
 40
0.0
 40
0.0
 40
0.0
 40
0.0625117723982486
 40
0.1562605951584244
 40
0.2500094179185995
 40
0.3437582406787733
 40
0.4375070634389491
 40
0.5312558861991241
 40
0.6250047089592999
 40
0.7187535317194752
 40
0.81250235447965
 40
0.9062511772398253
 40
1.0
 40
1.0
 40
1.0
 40
1.0
 10
130.4844926823269
 20
118.0182893650945
 30
0.0
 10
130.4844926823269
 20
118.0182197819919
 30
0.0
 10
130.4844926823269
 20
118.0180458452022
 30
0.0
 10
130.4844926823269
 20
118.0944709791097
 30
0.0
 10
130.4844926823269
 20
118.2359919005271
 30
0.0
 10
130.4844926823269
 20
118.4423562620805
 30
0.0
 10
130.4844926823269
 20
118.7057850528357
 30
0.0
 10
130.4844926823269
 20
119.0214632413642
 30
0.0
 10
130.4844926823269
 20
119.3823195685084
 30
0.0
 10
130.4844926823269
 20
119.7806062970059
 30
0.0
 10
130.4844926823269
 20
120.2076846518538
 30
0.0
 10
130.4844926823269
 20
120.6543142444797
 30
0.0
 10
130.4844926823269
 20
120.9586552087445
 30
0.0
 10
130.4844926823269
 20
121.110825690877
 30
0.0
  0
LINE
  5
8D
330
1F
100
AcDbEntity
  8
0
  6
Continuous
 62
   144
370
    18
100
AcDbLine
 10
130.4844926823
 20
121.1108256909
 30
0.0
 11
155.4844926823
 21
121.1108256909
 31
0.0
  0
SPLINE
  5
8E
330
1F
100
AcDbEntity
  8
0
  6
Continuous
 62
   144
370
    18
100
AcDbSpline
210
0.0
220
0.0
230
1.0
 70
    24
 71
     3
 72
    18
 73
    14
 74
     0
 42
0.000000001
 43
0.00000001
 40
0.0
 40
0.0
 40
0.0
 40
0.0
 40
0.0937488227601779
 40
0.1874976455203564
 40
0.2812464682805345
 40
0.3749952910407128
 40
0.4687441138008919
 40
0.5624929365610697
 40
0.6562417593212492
 40
0.7499905820814261
 40
0.8437394048416045
 40
0.9374882276017835
 40
1.0
 40
1.0
 40
1.0
 40
1.0
 10
155.4844926823269
 20
121.110825690877
 30
0.0
 10
155.4844926823269
 20
120.9586552087445
 30
0.0
 10
155.4844926823269
 20
120.6543142444797
 30
0.0
 10
155.4844926823269
 20
120.2076846518538
 30
0.0
 10
155.4844926823269
 20
119.7806062970059
 30
0.0
 10
155.4844926823269
 20
119.3823195685084
 30
0.0
 10
155.4844926823269
 20
119.0214632413642
 30
0.0
 10
155.4844926823269
 20
118.7057850528357
 30
0.0
 10
155.4844926823269
 20
118.4423562620804
 30
0.0
 10
155.4844926823269
 20
118.2359919005271
 30
0.0
 10
155.4844926823269
 20
118.0944709791097
 30
0.0
 10
155.4844926823269
 20
118.0180458452022
 30
0.0
 10
155.4844926823269
 20
118.0182197819919
 30
0.0
 10
155.4844926823269
 20
118.0182893650945
 30
0.0
  0
LINE
  5
8F
330
1F
100
AcDbEntity
  8
0
  6
Continuous
 62
   144
370
    18
100
AcDbLine
 10
155.4844926823
 20
121.1108256914
 30
0.0
 11
155.4844926823
 21
125.010825683
 31
0.0
  0
LINE
  5
90
330
1F
100
AcDbEntity
  8
0
  6
Continuous
 62
   144
370
    18
100
AcDbLine
 10
155.4844926823
 20
125.010825683
 30
0.0
 11
167.9844926823
 21
125.010825683
 31
0.0
  0
LINE
  5
91
330
1F
100
AcDbEntity
  8
0
  6
Continuous
 62
   144
370
    18
100
AcDbLine
 10
167.9844926823
 20
125.010825683
 30
0.0
 11
167.9844926823
 21
143.4108256914
 31
0.0
  0
LINE
  5
92
330
1F
100
AcDbEntity
  8
0
  6
Continuous
 62
   144
370
    18
100
AcDbLine
 10
167.9844926823
 20
143.4108256914
 30
0.0
 11
117.9844926823
 21
143.4108256914
 31
0.0
  0
LINE
  5
93
330
1F
100
AcDbEntity
  8
0
  6
Continuous
 62
   144
370
    18
100
AcDbLine
 10
117.9844926823
 20
143.4108256914
 30
0.0
 11
117.9844926823
 21
125.010825683
 31
0.0
  0
LINE
  5
94
330
1F
100
AcDbEntity
  8
0
  6
Continuous
 62
   144
370
    18
100
AcDbLine
 10
117.9844926823
 20
125.010825683
 30
0.0
 11
130.4844926823
 21
125.010825683
 31
0.0
  0
LINE
  5
95
330
1F
100
AcDbEntity
  8
0
  6
Continuous
 62
   144
370
    18
100
AcDbLine
 10
130.4844926823
 20
125.010825683
 30
0.0
 11
130.4844926823
 21
121.1108256914
 31
0.0
  0
LINE
  5
96
330
1F
100
AcDbEntity
  8
0
  6
Continuous
 62
   144
370
    18
100
AcDbLine
 10
130.4844926823
 20
121.1108256914
 30
0.0
 11
155.4844926823
 21
121.1108256914
 31
0.0
  0
SPLINE
  5
97
330
1F
100
AcDbEntity
  8
0
  6
Continuous
 62
   144
370
    18
100
AcDbSpline
210
0.0
220
0.0
230
1.0
 70
    11
 71
     3
 72
    23
 73
    19
 74
     0
 42
0.000000001
 43
0.00000001
 40
0.0
 40
0.0
 40
0.0
 40
0.0
 40
0.0625000001435954
 40
0.1249999989093679
 40
0.1875000003097522
 40
0.2500000011880246
 40
0.3125000020662967
 40
0.3750000034666809
 40
0.4375000022324538
 40
0.5000000023760495
 40
0.5625000025196453
 40
0.6249999989093681
 40
0.6875000003097524
 40
0.7500000011880246
 40
0.812500002066297
 40
0.8750000034666812
 40
0.9374999998564039
 40
1.0
 40
1.0
 40
1.0
 40
1.0
 10
157.7344926823269
 20
136.5108256994337
 30
0.0
 10
157.7344926816377
 20
136.3472231032477
 30
0.0
 10
157.6694074869285
 20
136.0200179160238
 30
0.0
 10
157.3913872726512
 20
135.6039311143223
 30
0.0
 10
156.9753004854938
 20
135.3259108451851
 30
0.0
 10
156.4844926823269
 20
135.2282831152939
 30
0.0
 10
155.99368487916
 20
135.3259108451851
 30
0.0
 10
155.5775980920026
 20
135.6039311143223
 30
0.0
 10
155.2995778777253
 20
136.0200179160238
 30
0.0
 10
155.2019500853028
 20
136.510825698663
 30
0.0
 10
155.299577872353
 20
137.0016334797066
 30
0.0
 10
155.5775981003537
 20
137.4177202636837
 30
0.0
 10
155.9936848783904
 20
137.6957405319779
 30
0.0
 10
156.4844926823269
 20
137.7933682609757
 30
0.0
 10
156.9753004862634
 20
137.6957405319779
 30
0.0
 10
157.3913872643001
 20
137.4177202636837
 30
0.0
 10
157.6694074923008
 20
137.0016334797066
 30
0.0
 10
157.7344926830161
 20
136.6744282956196
 30
0.0
 10
157.7344926823269
 20
136.5108256994337
 30
0.0
  0
SPLINE
  5
98
330
1F
100
AcDbEntity
  8
0
  6
Continuous
 62
   144
370
    18
100
AcDbSpline
210
0.0
220
0.0
230
1.0
 70
    11
 71
     3
 72
    23
 73
    19
 74
     0
 42
0.000000001
 43
0.00000001
 40
0.0
 40
0.0
 40
0.0
 40
0.0
 40
0.062500000301227
 40
0.1249999968485806
 40
0.1874999984065961
 40
0.2499999999999998
 40
0.3125000015934032
 40
0.3750000031514185
 40
0.4374999996987726
 40
0.4999999999999998
 40
0.5625000003012268
 40
0.6249999968485809
 40
0.6874999984065961
 40
0.7499999999999999
 40
0.8125000015934035
 40
0.875000003151419
 40
0.9374999996987728
 40
1.0
 40
1.0
 40
1.0
 40
1.0
 10
157.7344926823269
 20
128.5108256909337
 30
0.0
 10
157.7344926823269
 20
128.3472230945267
 30
0.0
 10
157.6694074925279
 20
128.020017911539
 30
0.0
 10
157.3913872645388
 20
127.6039311239412
 30
0.0
 10
156.9753004838443
 20
127.3259108676548
 30
0.0
 10
156.4844926823269
 20
127.2282830911639
 30
0.0
 10
155.9936848808095
 20
127.3259108676548
 30
0.0
 10
155.577598100115
 20
127.6039311239412
 30
0.0
 10
155.2995778721259
 20
128.020017911539
 30
0.0
 10
155.2019500864501
 20
128.5108256909337
 30
0.0
 10
155.2995778721259
 20
129.0016334703283
 30
0.0
 10
155.577598100115
 20
129.4177202579262
 30
0.0
 10
155.9936848808095
 20
129.6957405142126
 30
0.0
 10
156.4844926823269
 20
129.7933682907035
 30
0.0
 10
156.9753004838443
 20
129.6957405142126
 30
0.0
 10
157.3913872645388
 20
129.4177202579262
 30
0.0
 10
157.6694074925279
 20
129.0016334703283
 30
0.0
 10
157.7344926823269
 20
128.6744282873407
 30
0.0
 10
157.7344926823269
 20
128.5108256909337
 30
0.0
  0
SPLINE
  5
99
330
1F
100
AcDbEntity
  8
0
  6
Continuous
 62
   144
370
    18
100
AcDbSpline
210
0.0
220
0.0
230
1.0
 70
    11
 71
     3
 72
    23
 73
    19
 74
     0
 42
0.000000001
 43
0.00000001
 40
0.0
 40
0.0
 40
0.0
 40
0.0
 40
0.0625000001435956
 40
0.124999998909368
 40
0.1875000003097525
 40
0.2500000011880245
 40
0.3125000020662973
 40
0.3750000034666814
 40
0.4375000022324541
 40
0.5000000023760494
 40
0.5625000025196456
 40
0.6249999989093684
 40
0.6875000003097523
 40
0.7500000011880251
 40
0.8125000020662971
 40
0.8750000034666816
 40
0.937499999856404
 40
1.0
 40
1.0
 40
1.0
 40
1.0
 10
122.7344926823269
 20
136.5108256994337
 30
0.0
 10
122.7344926816377
 20
136.3472231032477
 30
0.0
 10
122.6694074869285
 20
136.0200179160238
 30
0.0
 10
122.3913872726512
 20
135.6039311143223
 30
0.0
 10
121.9753004854939
 20
135.3259108451851
 30
0.0
 10
121.4844926823269
 20
135.2282831152939
 30
0.0
 10
120.99368487916
 20
135.3259108451851
 30
0.0
 10
120.5775980920026
 20
135.6039311143223
 30
0.0
 10
120.2995778777253
 20
136.0200179160238
 30
0.0
 10
120.2019500853028
 20
136.510825698663
 30
0.0
 10
120.299577872353
 20
137.0016334797066
 30
0.0
 10
120.5775981003537
 20
137.4177202636837
 30
0.0
 10
120.9936848783904
 20
137.6957405319779
 30
0.0
 10
121.4844926823269
 20
137.7933682609757
 30
0.0
 10
121.9753004862634
 20
137.6957405319779
 30
0.0
 10
122.3913872643001
 20
137.4177202636837
 30
0.0
 10
122.6694074923008
 20
137.0016334797066
 30
0.0
 10
122.7344926830161
 20
136.6744282956196
 30
0.0
 10
122.7344926823269
 20
136.5108256994337
 30
0.0
  0
SPLINE
  5
9A
330
1F
100
AcDbEntity
  8
0
  6
Continuous
 62
   144
370
    18
100
AcDbSpline
210
0.0
220
0.0
230
1.0
 70
    11
 71
     3
 72
    23
 73
    19
 74
     0
 42
0.000000001
 43
0.00000001
 40
0.0
 40
0.0
 40
0.0
 40
0.0
 40
0.0625000003012271
 40
0.1249999968485806
 40
0.1874999984065959
 40
0.25
 40
0.3125000015934037
 40
0.3750000031514193
 40
0.4374999996987731
 40
0.5
 40
0.5625000003012273
 40
0.6249999968485811
 40
0.6874999984065963
 40
0.7500000000000004
 40
0.8125000015934036
 40
0.8750000031514192
 40
0.937499999698773
 40
1.0
 40
1.0
 40
1.0
 40
1.0
 10
122.7344926823269
 20
128.5108256909337
 30
0.0
 10
122.7344926823269
 20
128.3472230945267
 30
0.0
 10
122.6694074925279
 20
128.020017911539
 30
0.0
 10
122.3913872645388
 20
127.6039311239412
 30
0.0
 10
121.9753004838443
 20
127.3259108676548
 30
0.0
 10
121.4844926823269
 20
127.2282830911639
 30
0.0
 10
120.9936848808095
 20
127.3259108676548
 30
0.0
 10
120.577598100115
 20
127.6039311239412
 30
0.0
 10
120.2995778721259
 20
128.020017911539
 30
0.0
 10
120.2019500864501
 20
128.5108256909337
 30
0.0
 10
120.2995778721259
 20
129.0016334703283
 30
0.0
 10
120.577598100115
 20
129.4177202579262
 30
0.0
 10
120.9936848808095
 20
129.6957405142126
 30
0.0
 10
121.4844926823269
 20
129.7933682907035
 30
0.0
 10
121.9753004838443
 20
129.6957405142126
 30
0.0
 10
122.3913872645388
 20
129.4177202579262
 30
0.0
 10
122.6694074925279
 20
129.0016334703283
 30
0.0
 10
122.7344926823269
 20
128.6744282873406
 30
0.0
 10
122.7344926823269
 20
128.5108256909337
 30
0.0
  0
SPLINE
  5
9B
330
1F
100
AcDbEntity
  8
0
  6
Continuous
 62
   144
370
    18
100
AcDbSpline
210
0.0
220
0.0
230
1.0
 70
    11
 71
     3
 72
    39
 73
    35
 74
     0
 42
0.000000001
 43
0.00000001
 40
0.0
 40
0.0
 40
0.0
 40
0.0
 40
0.0312499997639626
 40
0.0624999996710349
 40
0.0937500002756418
 40
0.1250000006777848
 40
0.1562499996191752
 40
0.187499998857877
 40
0.2187499999059948
 40
0.2499999997275034
 40
0.2812499995490121
 40
0.3125000005971299
 40
0.3437499998358315
 40
0.3749999987772218
 40
0.406249999179365
 40
0.437499999783972
 40
0.4687499996910443
 40
0.4999999994550068
 40
0.5312499996611871
 40
0.562499999143199
 40
0.5937499997478061
 40
0.6250000001499492
 40
0.6562499995146381
 40
0.6874999988578769
 40
0.7187499999059948
 40
0.7499999997275035
 40
0.7812499995490121
 40
0.8125000005971297
 40
0.8437499999403687
 40
0.8749999993050577
 40
0.9062499997072008
 40
0.9375000003118077
 40
0.9687499997938196
 40
0.9999999999999999
 40
0.9999999999999999
 40
0.9999999999999999
 40
0.9999999999999999
 10
131.984492682327
 20
131.0108256838337
 30
0.0
 10
131.98449268175
 20
130.7489317774647
 30
0.0
 10
131.9343814521747
 20
130.2251439638723
 30
0.0
 10
131.7031592104251
 20
129.4705035792075
 30
0.0
 10
131.3330466848732
 20
128.7733934264479
 30
0.0
 10
130.8306367807132
 20
128.1646815807211
 30
0.0
 10
130.2219249459847
 20
127.662271675386
 30
0.0
 10
129.5248147858453
 20
127.2921591972373
 30
0.0
 10
128.7701744141902
 20
127.0609369260973
 30
0.0
 10
127.9844926823269
 20
126.9857700735436
 30
0.0
 10
127.1988109504636
 20
127.0609369260973
 30
0.0
 10
126.4441705788085
 20
127.2921591972373
 30
0.0
 10
125.7470604186691
 20
127.662271675386
 30
0.0
 10
125.1383485839406
 20
128.1646815807211
 30
0.0
 10
124.6359386797807
 20
128.7733934264479
 30
0.0
 10
124.2658261542287
 20
129.4705035792075
 30
0.0
 10
124.0346039124791
 20
130.2251439638723
 30
0.0
 10
123.959437067819
 20
131.0108256873672
 30
0.0
 10
124.0346039097406
 20
131.7965074083349
 30
0.0
 10
124.2658261570201
 20
132.551147791094
 30
0.0
 10
124.6359386787573
 20
133.2482579421997
 30
0.0
 10
125.1383485891891
 20
133.8569697863006
 30
0.0
 10
125.7470604141878
 20
134.3593797097349
 30
0.0
 10
126.4441705779167
 20
134.729492193084
 30
0.0
 10
127.1988109504762
 20
134.9607144636953
 30
0.0
 10
127.9844926823269
 20
135.0358813165111
 30
0.0
 10
128.7701744141777
 20
134.9607144636953
 30
0.0
 10
129.5248147867372
 20
134.729492193084
 30
0.0
 10
130.221924950466
 20
134.3593797097349
 30
0.0
 10
130.8306367754647
 20
133.8569697863006
 30
0.0
 10
131.3330466858965
 20
133.2482579421996
 30
0.0
 10
131.7031592076337
 20
132.551147791094
 30
0.0
 10
131.9343814549132
 20
131.7965074083349
 30
0.0
 10
131.9844926829038
 20
131.2727195939087
 30
0.0
 10
131.9844926823269
 20
131.0108256838337
 30
0.0
  0
SPLINE
  5
9C
330
1F
100
AcDbEntity
  8
0
  6
Continuous
 62
   144
370
    18
100
AcDbSpline
210
0.0
220
0.0
230
1.0
 70
    11
 71
     3
 72
    39
 73
    35
 74
     0
 42
0.000000001
 43
0.00000001
 40
0.0
 40
0.0
 40
0.0
 40
0.0
 40
0.0312499997639625
 40
0.0624999996710348
 40
0.0937500002756417
 40
0.1250000006777847
 40
0.1562499996191751
 40
0.1874999988578767
 40
0.2187499999059948
 40
0.2499999997275033
 40
0.2812499995490119
 40
0.3125000005971298
 40
0.3437499998358314
 40
0.3749999987772218
 40
0.4062499991793648
 40
0.4374999997839718
 40
0.4687499996910442
 40
0.4999999994550067
 40
0.5312499996611869
 40
0.562499999143199
 40
0.5937499997478061
 40
0.6250000001499489
 40
0.6562499995146378
 40
0.6874999988578769
 40
0.7187499999059948
 40
0.7499999997275033
 40
0.7812499995490122
 40
0.8125000005971299
 40
0.8437499999403688
 40
0.8749999993050577
 40
0.9062499997072005
 40
0.9375000003118077
 40
0.9687499997938196
 40
0.9999999999999999
 40
0.9999999999999999
 40
0.9999999999999999
 40
0.9999999999999999
 10
146.9844926823269
 20
131.0108256838337
 30
0.0
 10
146.98449268175
 20
130.7489317774647
 30
0.0
 10
146.9343814521746
 20
130.2251439638723
 30
0.0
 10
146.7031592104251
 20
129.4705035792075
 30
0.0
 10
146.3330466848732
 20
128.7733934264479
 30
0.0
 10
145.8306367807132
 20
128.1646815807211
 30
0.0
 10
145.2219249459847
 20
127.662271675386
 30
0.0
 10
144.5248147858453
 20
127.2921591972373
 30
0.0
 10
143.7701744141903
 20
127.0609369260973
 30
0.0
 10
142.9844926823269
 20
126.9857700735436
 30
0.0
 10
142.1988109504636
 20
127.0609369260973
 30
0.0
 10
141.4441705788085
 20
127.2921591972373
 30
0.0
 10
140.7470604186691
 20
127.662271675386
 30
0.0
 10
140.1383485839406
 20
128.1646815807211
 30
0.0
 10
139.6359386797806
 20
128.7733934264479
 30
0.0
 10
139.2658261542287
 20
129.4705035792075
 30
0.0
 10
139.0346039124791
 20
130.2251439638723
 30
0.0
 10
138.959437067819
 20
131.0108256873672
 30
0.0
 10
139.0346039097406
 20
131.7965074083349
 30
0.0
 10
139.2658261570201
 20
132.551147791094
 30
0.0
 10
139.6359386787573
 20
133.2482579421996
 30
0.0
 10
140.1383485891891
 20
133.8569697863006
 30
0.0
 10
140.7470604141878
 20
134.3593797097349
 30
0.0
 10
141.4441705779167
 20
134.729492193084
 30
0.0
 10
142.1988109504762
 20
134.9607144636953
 30
0.0
 10
142.9844926823269
 20
135.0358813165111
 30
0.0
 10
143.7701744141776
 20
134.9607144636953
 30
0.0
 10
144.5248147867372
 20
134.729492193084
 30
0.0
 10
145.221924950466
 20
134.3593797097349
 30
0.0
 10
145.8306367754647
 20
133.8569697863006
 30
0.0
 10
146.3330466858965
 20
133.2482579421996
 30
0.0
 10
146.7031592076337
 20
132.551147791094
 30
0.0
 10
146.9343814549132
 20
131.7965074083349
 30
0.0
 10
146.9844926829038
 20
131.2727195939087
 30
0.0
 10
146.9844926823269
 20
131.0108256838337
 30
0.0
  0
SPLINE
  5
9D
330
1F
100
AcDbEntity
  8
0
  6
Continuous
 62
   144
370
    18
100
AcDbSpline
210
0.0
220
0.0
230
1.0
 70
    24
 71
     3
 72
    10
 73
     6
 74
     0
 42
0.000000001
 43
0.00000001
 40
0.0
 40
0.0
 40
0.0
 40
0.0
 40
0.5
 40
0.5
 40
1.0
 40
1.0
 40
1.0
 40
1.0
 10
117.9844926823269
 20
143.4108256914337
 30
0.0
 10
117.9844926823269
 20
144.1003690499265
 30
0.0
 10
117.9844926823269
 20
144.7617225380449
 30
0.0
 10
117.9844926823269
 20
145.7368841073697
 30
0.0
 10
117.9844926823269
 20
146.0108256915751
 30
0.0
 10
117.9844926823269
 20
146.0108256914337
 30
0.0
  0
LINE
  5
9E
330
1F
100
AcDbEntity
  8
0
  6
Continuous
 62
   144
370
    18
100
AcDbLine
 10
117.9844926823
 20
146.0108256914
 30
0.0
 11
167.9844926823
 21
146.0108256914
 31
0.0
  0
SPLINE
  5
9F
330
1F
100
AcDbEntity
  8
0
  6
Continuous
 62
   144
370
    18
100
AcDbSpline
210
0.0
220
0.0
230
1.0
 70
    24
 71
     3
 72
    10
 73
     6
 74
     0
 42
0.000000001
 43
0.00000001
 40
0.0
 40
0.0
 40
0.0
 40
0.0
 40
0.5
 40
0.5
 40
1.0
 40
1.0
 40
1.0
 40
1.0
 10
167.9844926823269
 20
146.0108256914337
 30
0.0
 10
167.9844926823269
 20
146.0108256915751
 30
0.0
 10
167.9844926823269
 20
145.7368841073697
 30
0.0
 10
167.9844926823269
 20
144.7617225380449
 30
0.0
 10
167.9844926823269
 20
144.1003690499265
 30
0.0
 10
167.9844926823269
 20
143.4108256914337
 30
0.0
  0
LINE
  5
A0
330
1F
100
AcDbEntity
  8
0
  6
Continuous
 62
   144
370
    18
100
AcDbLine
 10
167.9844926823
 20
143.4108256914
 30
0.0
 11
117.9844926823
 21
143.4108256914
 31
0.0
  0
LINE
  5
A1
330
1F
100
AcDbEntity
  8
0
  6
Continuous
 62
   144
370
    18
100
AcDbLine
 10
117.9844926823
 20
146.0108256914
 30
0.0
 11
167.9844926823
 21
146.0108256914
 31
0.0
  0
LINE
  5
A2
330
1F
100
AcDbEntity
  8
0
  6
Continuous
 62
   144
370
    18
100
AcDbLine
 10
117.9844926823
 20
125.0108256914
 30
0.0
 11
117.9844926823
 21
143.4108256914
 31
0.0
  0
SPLINE
  5
A3
330
1F
100
AcDbEntity
  8
0
  6
Continuous
 62
   144
370
    18
100
AcDbSpline
210
0.0
220
0.0
230
1.0
 70
    24
 71
     3
 72
    21
 73
    17
 74
     0
 42
0.000000001
 43
0.00000001
 40
0.0
 40
0.0
 40
0.0
 40
0.0
 40
0.0420000722695755
 40
0.0836391842391184
 40
0.1250966375294184
 40
0.1665540908251205
 40
0.2081932028107996
 40
0.2501932751070378
 40
0.375110611327339
 40
0.5000279475150221
 40
0.6249452837027039
 40
0.7498626199230055
 40
0.8127024751342916
 40
0.8749313099856194
 40
0.937160144824802
 40
1.0
 40
1.0
 40
1.0
 40
1.0
 10
117.9844926823269
 20
143.4108256914337
 30
0.0
 10
117.9844926823269
 20
143.4679645765206
 30
0.0
 10
117.9844926823269
 20
143.5817512792275
 30
0.0
 10
117.9844926823269
 20
143.7512300078836
 30
0.0
 10
117.9844926823269
 20
143.9185221693264
 30
0.0
 10
117.9844926823269
 20
144.0836141030279
 30
0.0
 10
117.9844926823269
 20
144.2465138393551
 30
0.0
 10
117.9844926823269
 20
144.5120278641511
 30
0.0
 10
117.9844926823269
 20
144.8652553573064
 30
0.0
 10
117.9844926823269
 20
145.2607921864684
 30
0.0
 10
117.9844926823269
 20
145.587395839468
 30
0.0
 10
117.9844926823269
 20
145.788098936431
 30
0.0
 10
117.9844926823269
 20
145.9033433084663
 30
0.0
 10
117.9844926823269
 20
145.9652151975205
 30
0.0
 10
117.9844926823269
 20
146.0038042694608
 30
0.0
 10
117.9844926823269
 20
146.008477606445
 30
0.0
 10
117.9844926823269
 20
146.0108256906797
 30
0.0
  0
SPLINE
  5
A4
330
1F
100
AcDbEntity
  8
0
  6
Continuous
 62
   144
370
    18
100
AcDbSpline
210
0.0
220
0.0
230
1.0
 70
    24
 71
     3
 72
    21
 73
    17
 74
     0
 42
0.000000001
 43
0.00000001
 40
0.0
 40
0.0
 40
0.0
 40
0.0
 40
0.0420000722695759
 40
0.0836391842391173
 40
0.1250966375294168
 40
0.1665540908251217
 40
0.2081932028107993
 40
0.2501932751070371
 40
0.3751106113273402
 40
0.5000279475150219
 40
0.6249452837027043
 40
0.7498626199230063
 40
0.8127024751342924
 40
0.8749313099856197
 40
0.937160144824801
 40
1.0
 40
1.0
 40
1.0
 40
1.0
 10
167.9844926823269
 20
146.0108256906797
 30
0.0
 10
167.9844926823269
 20
146.00977900842
 30
0.0
 10
167.9844926823269
 20
146.0076946393789
 30
0.0
 10
167.9844926823269
 20
145.9905936431376
 30
0.0
 10
167.9844926823269
 20
145.9632188382695
 30
0.0
 10
167.9844926823269
 20
145.924598926613
 30
0.0
 10
167.9844926823269
 20
145.8749785663732
 30
0.0
 10
167.9844926823269
 20
145.7747900176303
 30
0.0
 10
167.9844926823269
 20
145.5873690091736
 30
0.0
 10
167.9844926823269
 20
145.2608046166322
 30
0.0
 10
167.9844926823269
 20
144.8652324669457
 30
0.0
 10
167.9844926823269
 20
144.4868662851682
 30
0.0
 10
167.9844926823269
 20
144.1664802204401
 30
0.0
 10
167.9844926823269
 20
143.9189779296781
 30
0.0
 10
167.9844926823269
 20
143.6665279171754
 30
0.0
 10
167.9844926823269
 20
143.4963369214705
 30
0.0
 10
167.9844926823269
 20
143.4108256914337
 30
0.0
  0
LINE
  5
A5
330
1F
100
AcDbEntity
  8
0
  6
Continuous
 62
   144
370
    18
100
AcDbLine
 10
167.9844926823
 20
143.4108256914
 30
0.0
 11
167.9844926823
 21
125.0108256914
 31
0.0
  0
CIRCLE
  5
A6
330
1F
100
AcDbEntity
  8
0
  6
Continuous
 62
     7
370
    18
100
AcDbCircle
 10
121.4844926823
 20
136.5108256914
 30
0.0
 40
1.250000021449223
  0
CIRCLE
  5
A7
330
1F
100
AcDbEntity
  8
0
  6
Continuous
 62
     7
370
    18
100
AcDbCircle
 10
121.4844926823
 20
128.5108256914
 30
0.0
 40
1.250000000000003
  0
CIRCLE
  5
A8
330
1F
100
AcDbEntity
  8
0
  6
Continuous
 62
     7
370
    18
100
AcDbCircle
 10
156.4844926823
 20
128.5108256914
 30
0.0
 40
1.249999999999989
  0
CIRCLE
  5
A9
330
1F
100
AcDbEntity
  8
0
  6
Continuous
 62
     7
370
    18
100
AcDbCircle
 10
156.4844926823
 20
136.5108256914
 30
0.0
 40
1.250000021449209
  0
DIMENSION
  5
AA
330
1F
100
AcDbEntity
  8
0
  6
Continuous
 62
     7
370
    18
100
AcDbDimension
  2
_D
 10
155.7209381035
 20
135.5211366197
 30
0.0
 11
177.8317388959
 21
158.8793756836
 31
0.0
 70
   163
  1
4-M3
 71
     1
 42
-1.0
  3
SLDDIMSTYLE0
100
AcDbDiametricDimension
 15
157.2480472611
 25
137.5005147632
 35
0.0
 40
0.0
  0
DIMENSION
  5
B3
330
1F
100
AcDbEntity
  8
0
  6
Continuous
 62
     7
370
    18
100
AcDbDimension
  2
_D_1
 10
92.9054326222
 20
118.0108256914
 30
0.0
 11
92.9054326222
 21
132.0108256914
 31
0.0
 70
   160
  1
<>
 71
     2
 42
-1.0
  3
SLDDIMSTYLE1
100
AcDbAlignedDimension
 13
117.9844926823
 23
146.0108256914
 33
0.0
 14
130.4844926823
 24
118.0108256914
 34
0.0
 50
90.0
100
AcDbRotatedDimension
  0
DIMENSION
  5
BE
330
1F
100
AcDbEntity
  8
0
  6
Continuous
 62
     7
370
    18
100
AcDbDimension
  2
_D_2
 10
112.3423534158
 20
118.0108256914
 30
0.0
 11
112.3423534158
 21
124.5108256914
 31
0.0
 70
   160
  1
<>
 71
     2
 42
-1.0
  3
SLDDIMSTYLE2
100
AcDbAlignedDimension
 13
121.4844926823
 23
131.0108256914
 33
0.0
 14
130.4844926823
 24
118.0108256914
 34
0.0
 50
90.0
100
AcDbRotatedDimension
  0
DIMENSION
  5
CB
330
1F
100
AcDbEntity
  8
0
  6
Continuous
 62
     7
370
    18
100
AcDbDimension
  2
_D_3
 10
127.9844926823
 20
152.5876417771
 30
0.0
 11
123.5942322168
 21
152.5876417771
 31
0.0
 70
   160
  1
<>
 71
     2
 42
-1.0
  3
SLDDIMSTYLE1
100
AcDbAlignedDimension
 13
117.9844926823
 23
146.0108256914
 33
0.0
 14
127.9844926823
 24
137.5108256914
 34
0.0
100
AcDbRotatedDimension
  0
DIMENSION
  5
D5
330
1F
100
AcDbEntity
  8
0
  6
Continuous
 62
     7
370
    18
100
AcDbDimension
  2
_D_4
 10
142.9844926823
 20
152.5876417771
 30
0.0
 11
135.4844926823
 21
152.5876417771
 31
0.0
 70
   160
  1
<>
 71
     2
 42
-1.0
  3
SLDDIMSTYLE1
100
AcDbAlignedDimension
 13
127.9844926823
 23
137.5108256914
 33
0.0
 14
142.9844926823
 24
137.5108256914
 34
0.0
100
AcDbRotatedDimension
  0
DIMENSION
  5
DF
330
1F
100
AcDbEntity
  8
0
  6
Continuous
 62
     7
370
    18
100
AcDbDimension
  2
_D_5
 10
167.9844926823
 20
168.0158256914
 30
0.0
 11
142.9844926823
 21
168.0158256914
 31
0.0
 70
   160
  1
<>
 71
     2
 42
-1.0
  3
SLDDIMSTYLE1
100
AcDbAlignedDimension
 13
117.9844926823
 23
146.0108256907
 33
0.0
 14
167.9844926823
 24
146.0108256907
 34
0.0
100
AcDbRotatedDimension
  0
DIMENSION
  5
E9
330
1F
100
AcDbEntity
  8
0
  6
Continuous
 62
     7
370
    18
100
AcDbDimension
  2
_D_6
 10
104.4750283327
 20
128.5108256914
 30
0.0
 11
104.4750283327
 21
123.2608256914
 31
0.0
 70
   160
  1
<>
 71
     2
 42
-1.0
  3
SLDDIMSTYLE2
100
AcDbAlignedDimension
 13
130.4844926823
 23
118.0108256914
 33
0.0
 14
117.7344926823
 24
128.5108256914
 34
0.0
 50
90.0
100
AcDbRotatedDimension
  0
DIMENSION
  5
F5
330
1F
100
AcDbEntity
  8
0
  6
Continuous
 62
     7
370
    18
100
AcDbDimension
  2
_D_7
 10
104.4750283327
 20
136.5108256914
 30
0.0
 11
104.4750283327
 21
132.5108256914
 31
0.0
 70
   160
  1
<>
 71
     2
 42
-1.0
  3
SLDDIMSTYLE1
100
AcDbAlignedDimension
 13
117.7344926823
 23
128.5108256914
 33
0.0
 14
117.7344926609
 24
136.5108256914
 34
0.0
 50
90.0
100
AcDbRotatedDimension
  0
DIMENSION
  5
FF
330
1F
100
AcDbEntity
  8
0
  6
Continuous
 62
     7
370
    18
100
AcDbDimension
  2
_D_8
 10
121.4844926823
 20
160.223574946
 30
0.0
 11
111.6719109753
 21
160.223574946
 31
0.0
 70
   160
  1
<>
 71
     2
 42
-1.0
  3
SLDDIMSTYLE2
100
AcDbAlignedDimension
 13
117.9844926823
 23
143.4108256914
 33
0.0
 14
121.4844926823
 24
140.2608257129
 34
0.0
100
AcDbRotatedDimension
  0
DIMENSION
  5
10B
330
1F
100
AcDbEntity
  8
0
  6
Continuous
 62
     7
370
    18
100
AcDbDimension
  2
_D_9
 10
156.4844926823
 20
160.223574946
 30
0.0
 11
138.9844926823
 21
160.223574946
 31
0.0
 70
   160
  1
<>
 71
     2
 42
-1.0
  3
SLDDIMSTYLE1
100
AcDbAlignedDimension
 13
121.4844926823
 23
140.2608257129
 33
0.0
 14
156.4844926823
 24
140.2608257129
 34
0.0
100
AcDbRotatedDimension
  0
INSERT
  5
120
330
1F
100
AcDbEntity
  8
0
  6
Continuous
 62
     7
370
    18
100
AcDbBlockReference
  2
SW_CENTERMARKSYMBOL_0
 10
127.9844926823
 20
131.0108256914
 30
0.0
  0
INSERT
  5
12C
330
1F
100
AcDbEntity
  8
0
  6
Continuous
 62
     7
370
    18
100
AcDbBlockReference
  2
SW_CENTERMARKSYMBOL_1
 10
142.9844926823
 20
131.0108256914
 30
0.0
  0
INSERT
  5
138
330
1F
100
AcDbEntity
  8
0
  6
Continuous
 62
     7
370
    18
100
AcDbBlockReference
  2
SW_CENTERMARKSYMBOL_2
 10
121.4844926823
 20
136.5108256914
 30
0.0
  0
INSERT
  5
144
330
1F
100
AcDbEntity
  8
0
  6
Continuous
 62
     7
370
    18
100
AcDbBlockReference
  2
SW_CENTERMARKSYMBOL_3
 10
121.4844926823
 20
128.5108256914
 30
0.0
  0
INSERT
  5
150
330
1F
100
AcDbEntity
  8
0
  6
Continuous
 62
     7
370
    18
100
AcDbBlockReference
  2
SW_CENTERMARKSYMBOL_4
 10
156.4844926823
 20
128.5108256914
 30
0.0
  0
INSERT
  5
15C
330
1F
100
AcDbEntity
  8
0
  6
Continuous
 62
     7
370
    18
100
AcDbBlockReference
  2
SW_CENTERMARKSYMBOL_5
 10
156.4844926823
 20
136.5108256914
 30
0.0
  0
LINE
  5
15D
330
1F
100
AcDbEntity
  8
0
  6
Continuous
 62
     7
370
    18
100
AcDbLine
 10
67.5096489813
 20
130.2608256914
 30
0.0
 11
66.1096489813
 21
130.2608256914
 31
0.0
  0
LINE
  5
15E
330
1F
100
AcDbEntity
  8
0
  6
Continuous
 62
     7
370
    18
100
AcDbLine
 10
66.1096489813
 20
126.7608256914
 30
0.0
 11
67.5096489813
 21
126.7608256914
 31
0.0
  0
LINE
  5
15F
330
1F
100
AcDbEntity
  8
0
  6
Continuous
 62
     7
370
    18
100
AcDbLine
 10
67.5096489813
 20
138.2608256914
 30
0.0
 11
66.1096489813
 21
138.2608256914
 31
0.0
  0
LINE
  5
160
330
1F
100
AcDbEntity
  8
0
  6
Continuous
 62
     7
370
    18
100
AcDbLine
 10
66.1096489813
 20
134.7608256914
 30
0.0
 11
67.5096489813
 21
134.7608256914
 31
0.0
  0
LINE
  5
161
330
1F
100
AcDbEntity
  8
0
  6
Continuous
 62
     7
370
    18
100
AcDbLine
 10
69.1256489813
 20
135.0108256914
 30
0.0
 11
69.1096489813
 21
135.0108256914
 31
0.0
  0
LINE
  5
162
330
1F
100
AcDbEntity
  8
0
  6
Continuous
 62
     7
370
    18
100
AcDbLine
 10
69.1096489813
 20
127.0108256914
 30
0.0
 11
69.1256489813
 21
127.0108256914
 31
0.0
  0
SPLINE
  5
163
330
1F
100
AcDbEntity
  8
0
  6
Continuous
 62
   144
370
    18
100
AcDbSpline
210
0.0
220
0.0
230
1.0
 70
    24
 71
     3
 72
    19
 73
    15
 74
     0
 42
0.000000001
 43
0.00000001
 40
0.0
 40
0.0
 40
0.0
 40
0.0
 40
0.0503521606214466
 40
0.1002358125495334
 40
0.1499623140258168
 40
0.1998459660313865
 40
0.2501981268063583
 40
0.3751277071678674
 40
0.5000572871790147
 40
0.6249868671901625
 40
0.7499164475516719
 40
0.8335194726526213
 40
0.9163969751130961
 40
1.0
 40
1.0
 40
1.0
 40
1.0
 10
66.10964898129946
 20
128.5108256914337
 30
0.0
 10
66.10964898129946
 20
128.5569317215965
 30
0.0
 10
66.10964898129947
 20
128.6487147819411
 30
0.0
 10
66.10964898129946
 20
128.7852049409707
 30
0.0
 10
66.10964898129949
 20
128.9195659614726
 30
0.0
 10
66.10964898129946
 20
129.0517982911244
 30
0.0
 10
66.10964898129946
 20
129.2452350243387
 30
0.0
 10
66.10964898129949
 20
129.4897595559709
 30
0.0
 10
66.10964898129946
 20
129.7560102294832
 30
0.0
 10
66.10964898129946
 20
129.9757748792711
 30
0.0
 10
66.10964898129946
 20
130.1200395911835
 30
0.0
 10
66.10964898129949
 20
130.2059932783632
 30
0.0
 10
66.10964898129944
 20
130.2524376771817
 30
0.0
 10
66.10964898129946
 20
130.2580215745595
 30
0.0
 10
66.10964898129946
 20
130.2608256905657
 30
0.0
  0
LINE
  5
164
330
1F
100
AcDbEntity
  8
0
  6
Continuous
 62
   144
370
    18
100
AcDbLine
 10
66.1096489813
 20
126.7608256923
 30
0.0
 11
66.1096489813
 21
128.5108256914
 31
0.0
  0
SPLINE
  5
165
330
1F
100
AcDbEntity
  8
0
  6
Continuous
 62
   144
370
    18
100
AcDbSpline
210
0.0
220
0.0
230
1.0
 70
    24
 71
     3
 72
    10
 73
     6
 74
     0
 42
0.000000001
 43
0.00000001
 40
0.0
 40
0.0
 40
0.0
 40
0.0
 40
0.4999999999999999
 40
0.4999999999999999
 40
1.0
 40
1.0
 40
1.0
 40
1.0
 10
66.10964898129946
 20
128.5108256914337
 30
0.0
 10
66.10964898129946
 20
128.9749414134337
 30
0.0
 10
66.10964898129946
 20
129.420083184222
 30
0.0
 10
66.10964898129946
 20
130.0764419327878
 30
0.0
 10
66.10964898129946
 20
130.2608256914297
 30
0.0
 10
66.10964898129946
 20
130.2608256914337
 30
0.0
  0
SPLINE
  5
166
330
1F
100
AcDbEntity
  8
0
  6
Continuous
 62
   144
370
    18
100
AcDbSpline
210
0.0
220
0.0
230
1.0
 70
    24
 71
     3
 72
    19
 73
    15
 74
     0
 42
0.000000001
 43
0.00000001
 40
0.0
 40
0.0
 40
0.0
 40
0.0
 40
0.0503521606214466
 40
0.1002358125495336
 40
0.1499623140258169
 40
0.1998459660313865
 40
0.2501981268063584
 40
0.3751277071678677
 40
0.5000572871790145
 40
0.6249868671901626
 40
0.7499164475516719
 40
0.8335194726526212
 40
0.9163969751130961
 40
1.0
 40
1.0
 40
1.0
 40
1.0
 10
66.10964898129946
 20
136.5108256914337
 30
0.0
 10
66.10964898129946
 20
136.5569317215965
 30
0.0
 10
66.10964898129949
 20
136.648714781941
 30
0.0
 10
66.10964898129946
 20
136.7852049409707
 30
0.0
 10
66.10964898129946
 20
136.9195659614726
 30
0.0
 10
66.10964898129949
 20
137.0517982911244
 30
0.0
 10
66.10964898129943
 20
137.2452350243387
 30
0.0
 10
66.10964898129949
 20
137.4897595559709
 30
0.0
 10
66.10964898129946
 20
137.7560102294832
 30
0.0
 10
66.10964898129944
 20
137.9757748792711
 30
0.0
 10
66.10964898129946
 20
138.1200395911835
 30
0.0
 10
66.10964898129949
 20
138.2059932783632
 30
0.0
 10
66.10964898129946
 20
138.2524376771817
 30
0.0
 10
66.10964898129946
 20
138.2580215745595
 30
0.0
 10
66.10964898129946
 20
138.2608256905657
 30
0.0
  0
LINE
  5
167
330
1F
100
AcDbEntity
  8
0
  6
Continuous
 62
   144
370
    18
100
AcDbLine
 10
66.1096489813
 20
134.7608256923
 30
0.0
 11
66.1096489813
 21
136.5108256914
 31
0.0
  0
SPLINE
  5
168
330
1F
100
AcDbEntity
  8
0
  6
Continuous
 62
   144
370
    18
100
AcDbSpline
210
0.0
220
0.0
230
1.0
 70
    24
 71
     3
 72
    10
 73
     6
 74
     0
 42
0.000000001
 43
0.00000001
 40
0.0
 40
0.0
 40
0.0
 40
0.0
 40
0.4999999999999999
 40
0.4999999999999999
 40
1.0
 40
1.0
 40
1.0
 40
1.0
 10
66.10964898129946
 20
136.5108256914337
 30
0.0
 10
66.10964898129946
 20
136.9749414134337
 30
0.0
 10
66.10964898129946
 20
137.420083184222
 30
0.0
 10
66.10964898129946
 20
138.0764419327878
 30
0.0
 10
66.10964898129946
 20
138.2608256914297
 30
0.0
 10
66.10964898129946
 20
138.2608256914337
 30
0.0
  0
LINE
  5
169
330
1F
100
AcDbEntity
  8
0
  6
Continuous
 62
   144
370
    18
100
AcDbLine
 10
67.509648981
 20
121.110825688
 30
0.0
 11
67.509648981
 21
125.0108256914
 31
0.0
  0
SPLINE
  5
16A
330
1F
100
AcDbEntity
  8
0
  6
Continuous
 62
   144
370
    18
100
AcDbSpline
210
0.0
220
0.0
230
1.0
 70
     8
 71
     3
 72
    29
 73
    25
 74
     0
 42
0.000000001
 43
0.00000001
 40
0.0
 40
0.0
 40
0.0
 40
0.0
 40
0.0157099408359769
 40
0.0313342865008251
 40
0.0469586323310931
 40
0.0626685736606341
 40
0.0939815712119622
 40
0.1252945687804332
 40
0.1877490217789667
 40
0.2502034757750941
 40
0.3126579289455356
 40
0.3751123821945193
 40
0.437566835357818
 40
0.5000212887178205
 40
0.5624757426982235
 40
0.624930195557976
 40
0.6873846491284974
 40
0.7498391029705618
 40
0.8122935558846366
 40
0.8747480100491819
 40
0.9060610075246649
 40
0.9373740049680307
 40
0.9686870027988691
 40
0.9999999999999999
 40
0.9999999999999999
 40
0.9999999999999999
 40
0.9999999999999999
 10
66.00964897907986
 20
122.6108256931357
 30
0.0
 10
65.9727313639075
 20
122.6100546832121
 30
0.0
 10
65.89909727815154
 20
122.6085168641909
 30
0.0
 10
65.78934092092653
 20
122.5959349953776
 30
0.0
 10
65.68078263980982
 20
122.5757992956537
 30
0.0
 10
65.53838216909072
 20
122.5381459430458
 30
0.0
 10
65.36589148325889
 20
122.471842882126
 30
0.0
 10
65.10954128921401
 20
122.3264061553012
 30
0.0
 10
64.83311801508432
 20
122.0762514342976
 30
0.0
 10
64.60368392347749
 20
121.6932156828383
 30
0.0
 10
64.49512437633096
 20
121.2599908804562
 30
0.0
 10
64.51704992242782
 20
120.8139292079421
 30
0.0
 10
64.6675022919857
 20
120.3934335437922
 30
0.0
 10
64.93354340643099
 20
120.0347201412685
 30
0.0
 10
65.29225692651008
 20
119.7686790115021
 30
0.0
 10
65.71275212676117
 20
119.6182265742326
 30
0.0
 10
66.15881554741343
 20
119.596301322553
 30
0.0
 10
66.59203382751899
 20
119.7048597291442
 30
0.0
 10
66.97509392198627
 20
119.9342980918256
 30
0.0
 10
67.22517289306089
 20
120.2107080828842
 30
0.0
 10
67.37076441284171
 20
120.4670854269864
 30
0.0
 10
67.44980062676433
 20
120.6738500332889
 30
0.0
 10
67.50039000933174
 20
120.8899064874451
 30
0.0
 10
67.5065626571037
 20
121.0371859550005
 30
0.0
 10
67.50964898095866
 20
121.1108256880377
 30
0.0
  0
LINE
  5
16B
330
1F
100
AcDbEntity
  8
0
  6
Continuous
 62
   144
370
    18
100
AcDbLine
 10
67.0096489824
 20
122.6108256931
 30
0.0
 11
66.0096489791
 21
122.6108256931
 31
0.0
  0
LINE
  5
16C
330
1F
100
AcDbEntity
  8
0
  6
Continuous
 62
   144
370
    18
100
AcDbLine
 10
67.0096489824
 20
124.2108256897
 30
0.0
 11
67.0096489824
 21
122.6108256931
 31
0.0
  0
LINE
  5
16D
330
1F
100
AcDbEntity
  8
0
  6
Continuous
 62
   144
370
    18
100
AcDbLine
 10
66.0096489791
 20
124.2108256897
 30
0.0
 11
67.0096489824
 21
124.2108256897
 31
0.0
  0
SPLINE
  5
16E
330
1F
100
AcDbEntity
  8
0
  6
Continuous
 62
   144
370
    18
100
AcDbSpline
210
0.0
220
0.0
230
1.0
 70
     8
 71
     3
 72
    33
 73
    29
 74
     0
 42
0.000000001
 43
0.00000001
 40
0.0
 40
0.0
 40
0.0
 40
0.0
 40
0.0125737585245146
 40
0.0250818675730907
 40
0.0375680167800401
 40
0.0500761258926994
 40
0.0626498845447116
 40
0.0939509960596059
 40
0.1252521075565006
 40
0.1565532190528975
 40
0.1878543305133057
 40
0.25028507684908
 40
0.3127158228184718
 40
0.3751465688721939
 40
0.4375773149114598
 40
0.5000080612508965
 40
0.5624388073910782
 40
0.6248695537156388
 40
0.6873002998435397
 40
0.7497310459198981
 40
0.8121617921986264
 40
0.8434629036368909
 40
0.8747640152186135
 40
0.9060651266717669
 40
0.9373662383114747
 40
0.9582779947607972
 40
0.9790882433842163
 40
1.0
 40
1.0
 40
1.0
 40
1.0
 10
69.10964898129946
 20
121.1108256880377
 30
0.0
 10
69.10862841890469
 20
121.0497425800427
 30
0.0
 10
69.10659262262425
 20
120.9278952881054
 30
0.0
 10
69.08996816404446
 20
120.7460146596964
 30
0.0
 10
69.06338503084068
 20
120.5657231825148
 30
0.0
 10
69.02587689415043
 20
120.3870150215815
 30
0.0
 10
68.95400190539605
 20
120.1226406374152
 30
0.0
 10
68.82247801058756
 20
119.7804076197496
 30
0.0
 10
68.59641206480505
 20
119.38243250358
 30
0.0
 10
68.315102412212
 20
119.0212101654931
 30
0.0
 10
67.87367684943065
 20
118.6014319916794
 30
0.0
 10
67.21312362535538
 20
118.2048543255377
 30
0.0
 10
66.31795892571404
 20
117.9808913087726
 30
0.0
 10
65.39605337295991
 20
118.0260986575752
 30
0.0
 10
64.5270414931854
 20
118.3370620033792
 30
0.0
 10
63.78569524320188
 20
118.8868719466696
 30
0.0
 10
63.2358852912141
 20
119.628218211
 30
0.0
 10
62.92492195813287
 20
120.4972300422761
 30
0.0
 10
62.87971454382336
 20
121.4191357736898
 30
0.0
 10
63.10367784910216
 20
122.3142998195877
 30
0.0
 10
63.50025457779909
 20
122.9748550866913
 30
0.0
 10
63.92003469139102
 20
123.4162764631918
 30
0.0
 10
64.28125109550358
 20
123.6975989151936
 30
0.0
 10
64.679248480751
 20
123.9236168221594
 30
0.0
 10
65.05936566654776
 20
124.0698879490791
 30
0.0
 10
65.4038485437509
 20
124.1559754616904
 30
0.0
 10
65.70529456290302
 20
124.2023498028153
 30
0.0
 10
65.90803308874318
 20
124.2079958151991
 30
0.0
 10
66.00964897907986
 20
124.2108256896537
 30
0.0
  0
LINE
  5
16F
330
1F
100
AcDbEntity
  8
0
  6
Continuous
 62
   144
370
    18
100
AcDbLine
 10
69.1096489813
 20
125.0108256914
 30
0.0
 11
69.1096489813
 21
121.110825688
 31
0.0
  0
LINE
  5
170
330
1F
100
AcDbEntity
  8
0
  6
Continuous
 62
   144
370
    18
100
AcDbLine
 10
67.5096489813
 20
125.0108256914
 30
0.0
 11
69.1096489813
 21
125.0108256914
 31
0.0
  0
LINE
  5
171
330
1F
100
AcDbEntity
  8
0
  6
Continuous
 62
   144
370
    18
100
AcDbLine
 10
57.5096489813
 20
141.0108256914
 30
0.0
 11
57.5096489813
 21
143.4108256914
 31
0.0
  0
LINE
  5
172
330
1F
100
AcDbEntity
  8
0
  6
Continuous
 62
   144
370
    18
100
AcDbLine
 10
59.1096489813
 20
141.0108256914
 30
0.0
 11
57.5096489813
 21
141.0108256914
 31
0.0
  0
LINE
  5
173
330
1F
100
AcDbEntity
  8
0
  6
Continuous
 62
   144
370
    18
100
AcDbLine
 10
59.1096489813
 20
143.4108256914
 30
0.0
 11
59.1096489813
 21
141.0108256914
 31
0.0
  0
LINE
  5
174
330
1F
100
AcDbEntity
  8
0
  6
Continuous
 62
   144
370
    18
100
AcDbLine
 10
57.5096489813
 20
143.4108256914
 30
0.0
 11
59.1096489813
 21
143.4108256914
 31
0.0
  0
SPLINE
  5
175
330
1F
100
AcDbEntity
  8
0
  6
Continuous
 62
   144
370
    18
100
AcDbSpline
210
0.0
220
0.0
230
1.0
 70
     8
 71
     3
 72
    10
 73
     6
 74
     0
 42
0.000000001
 43
0.00000001
 40
0.0
 40
0.0
 40
0.0
 40
0.0
 40
0.5000000000000002
 40
0.5000000000000002
 40
1.0
 40
1.0
 40
1.0
 40
1.0
 10
60.10964898109435
 20
144.4108256914337
 30
0.0
 10
59.84443999705866
 20
144.4108256913793
 30
0.0
 10
59.59007327088089
 20
144.3054635435036
 30
0.0
 10
59.21501112890981
 20
143.9304014013018
 30
0.0
 10
59.10964898119067
 20
143.6760346750592
 30
0.0
 10
59.10964898129945
 20
143.4108256910235
 30
0.0
  0
LINE
  5
176
330
1F
100
AcDbEntity
  8
0
  6
Continuous
 62
   144
370
    18
100
AcDbLine
 10
60.1096489813
 20
144.4108256914
 30
0.0
 11
66.5096489813
 21
144.4108256914
 31
0.0
  0
SPLINE
  5
177
330
1F
100
AcDbEntity
  8
0
  6
Continuous
 62
   144
370
    18
100
AcDbSpline
210
0.0
220
0.0
230
1.0
 70
     8
 71
     3
 72
    10
 73
     6
 74
     0
 42
0.000000001
 43
0.00000001
 40
0.0
 40
0.0
 40
0.0
 40
0.0
 40
0.5
 40
0.5
 40
1.0
 40
1.0
 40
1.0
 40
1.0
 10
67.50964898129946
 20
143.4108256914337
 30
0.0
 10
67.50964898129946
 20
143.6760346754694
 30
0.0
 10
67.40428683347596
 20
143.9304014016688
 30
0.0
 10
67.02922469135103
 20
144.3054635437168
 30
0.0
 10
66.77485796513005
 20
144.4108256914881
 30
0.0
 10
66.50964898109434
 20
144.4108256914337
 30
0.0
  0
LINE
  5
178
330
1F
100
AcDbEntity
  8
0
  6
Continuous
 62
   144
370
    18
100
AcDbLine
 10
67.5096489813
 20
143.4108256914
 30
0.0
 11
67.5096489813
 21
125.010825683
 31
0.0
  0
LINE
  5
179
330
1F
100
AcDbEntity
  8
0
  6
Continuous
 62
   144
370
    18
100
AcDbLine
 10
67.5096489813
 20
125.010825683
 30
0.0
 11
67.5096489813
 21
121.1108256914
 31
0.0
  0
SPLINE
  5
17A
330
1F
100
AcDbEntity
  8
0
  6
Continuous
 62
   144
370
    18
100
AcDbSpline
210
0.0
220
0.0
230
1.0
 70
     8
 71
     3
 72
    18
 73
    14
 74
     0
 42
0.000000001
 43
0.00000001
 40
0.0
 40
0.0
 40
0.0
 40
0.0
 40
0.1666666666666665
 40
0.1666666666666665
 40
0.3333333333333333
 40
0.3333333333333333
 40
0.4999999999999999
 40
0.4999999999999999
 40
0.6666666666666665
 40
0.6666666666666665
 40
0.8333333333333333
 40
0.8333333333333333
 40
0.9999999999999999
 40
0.9999999999999999
 40
0.9999999999999999
 40
0.9999999999999999
 10
66.0096489809918
 20
122.6108256914337
 30
0.0
 10
65.61183550502547
 20
122.6108256913521
 30
0.0
 10
65.23028541583362
 20
122.4527824696068
 30
0.0
 10
64.66769220290657
 20
121.8901892565211
 30
0.0
 10
64.50964898126887
 20
121.5086391672847
 30
0.0
 10
64.50964898133003
 20
120.7130122153521
 30
0.0
 10
64.6676922030264
 20
120.3314621261399
 30
0.0
 10
65.23028541603995
 20
119.7688689131408
 30
0.0
 10
65.6118355052561
 20
119.6108256914541
 30
0.0
 10
66.40746245718876
 20
119.6108256914133
 30
0.0
 10
66.78901254642113
 20
119.7688689130607
 30
0.0
 10
67.35160575949247
 20
120.3314621260021
 30
0.0
 10
67.50964898122803
 20
120.713012215198
 30
0.0
 10
67.50964898129946
 20
121.1108256911643
 30
0.0
  0
LINE
  5
17B
330
1F
100
AcDbEntity
  8
0
  6
Continuous
 62
   144
370
    18
100
AcDbLine
 10
66.0096489813
 20
122.6108256914
 30
0.0
 11
67.0096489813
 21
122.6108256914
 31
0.0
  0
LINE
  5
17C
330
1F
100
AcDbEntity
  8
0
  6
Continuous
 62
   144
370
    18
100
AcDbLine
 10
67.0096489813
 20
124.2108256914
 30
0.0
 11
67.0096489813
 21
122.6108256914
 31
0.0
  0
LINE
  5
17D
330
1F
100
AcDbEntity
  8
0
  6
Continuous
 62
   144
370
    18
100
AcDbLine
 10
66.0096489813
 20
124.2108256914
 30
0.0
 11
67.0096489813
 21
124.2108256914
 31
0.0
  0
SPLINE
  5
17E
330
1F
100
AcDbEntity
  8
0
  6
Continuous
 62
   144
370
    18
100
AcDbSpline
210
0.0
220
0.0
230
1.0
 70
     8
 71
     3
 72
    18
 73
    14
 74
     0
 42
0.000000001
 43
0.00000001
 40
0.0
 40
0.0
 40
0.0
 40
0.0
 40
0.1666666666666666
 40
0.1666666666666666
 40
0.3333333333333334
 40
0.3333333333333334
 40
0.5
 40
0.5
 40
0.6666666666666667
 40
0.6666666666666667
 40
0.8333333333333334
 40
0.8333333333333334
 40
1.0
 40
1.0
 40
1.0
 40
1.0
 10
66.00964898066364
 20
124.2108256914337
 30
0.0
 10
65.18750113033323
 20
124.2108256912651
 30
0.0
 10
64.39896427933672
 20
123.8842030329915
 30
0.0
 10
63.23627163928749
 20
122.7215103926144
 30
0.0
 10
62.90964898123626
 20
121.9329735415258
 30
0.0
 10
62.90964898136266
 20
120.288677840865
 30
0.0
 10
63.23627163953513
 20
119.5001409898266
 30
0.0
 10
64.39896427976313
 20
118.3374483496283
 30
0.0
 10
65.18750113080984
 20
118.0108256914759
 30
0.0
 10
66.83179683147067
 20
118.0108256913915
 30
0.0
 10
67.62033368255092
 20
118.3374483494628
 30
0.0
 10
68.78302632289834
 20
119.5001409895417
 30
0.0
 10
69.1096489811518
 20
120.2886778405466
 30
0.0
 10
69.10964898129946
 20
121.110825690877
 30
0.0
  0
LINE
  5
17F
330
1F
100
AcDbEntity
  8
0
  6
Continuous
 62
   144
370
    18
100
AcDbLine
 10
69.1096489813
 20
143.4108256914
 30
0.0
 11
69.1096489813
 21
125.010825683
 31
0.0
  0
LINE
  5
180
330
1F
100
AcDbEntity
  8
0
  6
Continuous
 62
   144
370
    18
100
AcDbLine
 10
69.1096489813
 20
125.010825683
 30
0.0
 11
69.1096489813
 21
121.1108256914
 31
0.0
  0
SPLINE
  5
181
330
1F
100
AcDbEntity
  8
0
  6
Continuous
 62
   144
370
    18
100
AcDbSpline
210
0.0
220
0.0
230
1.0
 70
     8
 71
     3
 72
    10
 73
     6
 74
     0
 42
0.000000001
 43
0.00000001
 40
0.0
 40
0.0
 40
0.0
 40
0.0
 40
0.5
 40
0.5
 40
1.0
 40
1.0
 40
1.0
 40
1.0
 10
69.10964898129946
 20
143.4108256914337
 30
0.0
 10
69.10964898129946
 20
144.1003690499265
 30
0.0
 10
68.83570739695836
 20
144.7617225380449
 30
0.0
 10
67.86054582743353
 20
145.7368841073697
 30
0.0
 10
67.19919233925899
 20
146.0108256915751
 30
0.0
 10
66.5096489807662
 20
146.0108256914337
 30
0.0
  0
LINE
  5
182
330
1F
100
AcDbEntity
  8
0
  6
Continuous
 62
   144
370
    18
100
AcDbLine
 10
60.1096489813
 20
146.0108256914
 30
0.0
 11
66.5096489813
 21
146.0108256914
 31
0.0
  0
SPLINE
  5
183
330
1F
100
AcDbEntity
  8
0
  6
Continuous
 62
   144
370
    18
100
AcDbSpline
210
0.0
220
0.0
230
1.0
 70
     8
 71
     3
 72
    10
 73
     6
 74
     0
 42
0.000000001
 43
0.00000001
 40
0.0
 40
0.0
 40
0.0
 40
0.0
 40
0.5000000000000002
 40
0.5000000000000002
 40
1.0
 40
1.0
 40
1.0
 40
1.0
 10
60.10964898076619
 20
146.0108256914337
 30
0.0
 10
59.42010562227338
 20
146.0108256912923
 30
0.0
 10
58.75875213421121
 20
145.7368841068155
 30
0.0
 10
57.78359056508641
 20
144.7617225370907
 30
0.0
 10
57.50964898101659
 20
144.10036904886
 30
0.0
 10
57.50964898129945
 20
143.4108256903672
 30
0.0
  0
LINE
  5
184
330
1F
100
AcDbEntity
  8
0
  6
Continuous
 62
   144
370
    18
100
AcDbLine
 10
57.5096489813
 20
141.0108256914
 30
0.0
 11
57.5096489813
 21
143.4108256914
 31
0.0
  0
LINE
  5
185
330
1F
100
AcDbEntity
  8
0
  6
Continuous
 62
   144
370
    18
100
AcDbLine
 10
59.1096489813
 20
141.0108256914
 30
0.0
 11
57.5096489813
 21
141.0108256914
 31
0.0
  0
LINE
  5
186
330
1F
100
AcDbEntity
  8
0
  6
Continuous
 62
   144
370
    18
100
AcDbLine
 10
59.1096489813
 20
141.0108256914
 30
0.0
 11
59.1096489813
 21
143.4108256914
 31
0.0
  0
LINE
  5
187
330
1F
100
AcDbEntity
  8
0
  6
Continuous
 62
   144
370
    18
100
AcDbLine
 10
66.5096489813
 20
146.0108256914
 30
0.0
 11
60.1096489813
 21
146.0108256914
 31
0.0
  0
LINE
  5
188
330
1F
100
AcDbEntity
  8
0
  6
Continuous
 62
   144
370
    18
100
AcDbLine
 10
60.1096489813
 20
146.0108256914
 30
0.0
 11
60.1096489813
 21
144.4108256914
 31
0.0
  0
LINE
  5
189
330
1F
100
AcDbEntity
  8
0
  6
Continuous
 62
   144
370
    18
100
AcDbLine
 10
60.1096489813
 20
144.4108256914
 30
0.0
 11
66.5096489813
 21
144.4108256914
 31
0.0
  0
LINE
  5
18A
330
1F
100
AcDbEntity
  8
0
  6
Continuous
 62
   144
370
    18
100
AcDbLine
 10
66.5096489813
 20
144.4108256914
 30
0.0
 11
66.5096489813
 21
146.0108256914
 31
0.0
  0
LINE
  5
18B
330
1F
100
AcDbEntity
  8
0
  6
Continuous
 62
   144
370
    18
100
AcDbLine
 10
60.1096489813
 20
144.4108256917
 30
0.0
 11
60.1096489813
 21
146.0108256907
 31
0.0
  0
SPLINE
  5
18C
330
1F
100
AcDbEntity
  8
0
  6
Continuous
 62
   144
370
    18
100
AcDbSpline
210
0.0
220
0.0
230
1.0
 70
     8
 71
     3
 72
    21
 73
    17
 74
     0
 42
0.000000001
 43
0.00000001
 40
0.0
 40
0.0
 40
0.0
 40
0.0
 40
0.0420000722695743
 40
0.083639184239119
 40
0.1250966375294185
 40
0.1665540908251201
 40
0.2081932028107994
 40
0.2501932751070371
 40
0.3751106113273404
 40
0.5000279475150221
 40
0.6249452837027045
 40
0.7498626199230057
 40
0.8127024751342923
 40
0.8749313099856202
 40
0.9371601448248009
 40
1.0
 40
1.0
 40
1.0
 40
1.0
 10
60.10964898129946
 20
146.0108256906797
 30
0.0
 10
60.05251009621253
 20
146.00977900842
 30
0.0
 10
59.9387233935057
 20
146.0076946393789
 30
0.0
 10
59.76924466484952
 20
145.9905936431377
 30
0.0
 10
59.60195250340674
 20
145.9632188382695
 30
0.0
 10
59.43686056970523
 20
145.924598926613
 30
0.0
 10
59.27396083337808
 20
145.8749785663732
 30
0.0
 10
59.00844680858208
 20
145.7747900176303
 30
0.0
 10
58.65521931542676
 20
145.5873690091736
 30
0.0
 10
58.25968248626471
 20
145.2608046166322
 30
0.0
 10
57.93307883326513
 20
144.8652324669457
 30
0.0
 10
57.73237573630215
 20
144.4868662851682
 30
0.0
 10
57.6171313642668
 20
144.1664802204401
 30
0.0
 10
57.55525947521265
 20
143.9189779296781
 30
0.0
 10
57.51667040327239
 20
143.6665279171754
 30
0.0
 10
57.51199706628815
 20
143.4963369214705
 30
0.0
 10
57.50964898205346
 20
143.4108256914337
 30
0.0
  0
LINE
  5
18D
330
1F
100
AcDbEntity
  8
0
  6
Continuous
 62
   144
370
    18
100
AcDbLine
 10
57.5096489821
 20
143.4108256914
 30
0.0
 11
59.109648981
 21
143.4108256914
 31
0.0
  0
SPLINE
  5
18E
330
1F
100
AcDbEntity
  8
0
  6
Continuous
 62
   144
370
    18
100
AcDbSpline
210
0.0
220
0.0
230
1.0
 70
     8
 71
     3
 72
    17
 73
    13
 74
     0
 42
0.000000001
 43
0.00000001
 40
0.0
 40
0.0
 40
0.0
 40
0.0
 40
0.0628623979887365
 40
0.125113556380736
 40
0.187364714730741
 40
0.250227112594713
 40
0.3751892604205477
 40
0.5001514084048598
 40
0.6251135563891705
 40
0.7500757042150092
 40
0.8750378520238166
 40
1.0
 40
1.0
 40
1.0
 40
1.0
 10
59.10964898098585
 20
143.4108256914337
 30
0.0
 10
59.11055209177464
 20
143.4437146311196
 30
0.0
 10
59.11234953199655
 20
143.5091727164195
 30
0.0
 10
59.1271914612738
 20
143.6062688014801
 30
0.0
 10
59.15098842419307
 20
143.7014622707139
 30
0.0
 10
59.19531277022803
 20
143.824686272225
 30
0.0
 10
59.27250940092942
 20
143.9702224019113
 30
0.0
 10
59.39811324021039
 20
144.122321395514
 30
0.0
 10
59.55029083961615
 20
144.2480868510445
 30
0.0
 10
59.724568477361
 20
144.3400420144986
 30
0.0
 10
59.9132285445462
 20
144.3999764357316
 30
0.0
 10
60.04417550235249
 20
144.4072092730738
 30
0.0
 10
60.10964898129946
 20
144.4108256917473
 30
0.0
  0
LINE
  5
18F
330
1F
100
AcDbEntity
  8
0
  6
Continuous
 62
   144
370
    18
100
AcDbLine
 10
69.1096489813
 20
125.0108256914
 30
0.0
 11
69.1096489813
 21
143.4108256914
 31
0.0
  0
LINE
  5
190
330
1F
100
AcDbEntity
  8
0
  6
Continuous
 62
   144
370
    18
100
AcDbLine
 10
67.5096489813
 20
125.0108256914
 30
0.0
 11
69.1096489813
 21
125.0108256914
 31
0.0
  0
LINE
  5
191
330
1F
100
AcDbEntity
  8
0
  6
Continuous
 62
   144
370
    18
100
AcDbLine
 10
67.5096489813
 20
143.4108256914
 30
0.0
 11
67.5096489813
 21
125.0108256914
 31
0.0
  0
LINE
  5
192
330
1F
100
AcDbEntity
  8
0
  6
Continuous
 62
   144
370
    18
100
AcDbLine
 10
69.1096489813
 20
143.4108256914
 30
0.0
 11
67.5096489813
 21
143.4108256914
 31
0.0
  0
LINE
  5
193
330
1F
100
AcDbEntity
  8
0
  6
Continuous
 62
   144
370
    18
100
AcDbLine
 10
67.5096489816
 20
143.4108256914
 30
0.0
 11
69.1096489805
 21
143.4108256914
 31
0.0
  0
SPLINE
  5
194
330
1F
100
AcDbEntity
  8
0
  6
Continuous
 62
   144
370
    18
100
AcDbSpline
210
0.0
220
0.0
230
1.0
 70
     8
 71
     3
 72
    21
 73
    17
 74
     0
 42
0.000000001
 43
0.00000001
 40
0.0
 40
0.0
 40
0.0
 40
0.0
 40
0.0420000722695755
 40
0.0836391842391184
 40
0.1250966375294184
 40
0.1665540908251205
 40
0.2081932028107996
 40
0.2501932751070378
 40
0.375110611327339
 40
0.5000279475150221
 40
0.6249452837027039
 40
0.7498626199230055
 40
0.8127024751342916
 40
0.8749313099856194
 40
0.937160144824802
 40
1.0
 40
1.0
 40
1.0
 40
1.0
 10
69.10964898054544
 20
143.4108256914337
 30
0.0
 10
69.10860229828572
 20
143.4679645765206
 30
0.0
 10
69.10651792924466
 20
143.5817512792275
 30
0.0
 10
69.08941693300342
 20
143.7512300078836
 30
0.0
 10
69.0620421281352
 20
143.9185221693264
 30
0.0
 10
69.0234222164787
 20
144.0836141030279
 30
0.0
 10
68.97380185623899
 20
144.2465138393551
 30
0.0
 10
68.87361330749604
 20
144.5120278641511
 30
0.0
 10
68.68619229903939
 20
144.8652553573064
 30
0.0
 10
68.35962790649796
 20
145.2607921864684
 30
0.0
 10
67.96405575681145
 20
145.587395839468
 30
0.0
 10
67.58568957503394
 20
145.788098936431
 30
0.0
 10
67.26530351030588
 20
145.9033433084663
 30
0.0
 10
67.01780121954383
 20
145.9652151975205
 30
0.0
 10
66.7653512070411
 20
146.0038042694608
 30
0.0
 10
66.59516021133622
 20
146.008477606445
 30
0.0
 10
66.50964898129946
 20
146.0108256906797
 30
0.0
  0
LINE
  5
195
330
1F
100
AcDbEntity
  8
0
  6
Continuous
 62
   144
370
    18
100
AcDbLine
 10
66.5096489813
 20
146.0108256907
 30
0.0
 11
66.5096489813
 21
144.4108256917
 31
0.0
  0
SPLINE
  5
196
330
1F
100
AcDbEntity
  8
0
  6
Continuous
 62
   144
370
    18
100
AcDbSpline
210
0.0
220
0.0
230
1.0
 70
     8
 71
     3
 72
    17
 73
    13
 74
     0
 42
0.000000001
 43
0.00000001
 40
0.0
 40
0.0
 40
0.0
 40
0.0
 40
0.0628623979887335
 40
0.1251135563807371
 40
0.1873647147307415
 40
0.2502271125947133
 40
0.3751892604205524
 40
0.5001514084048606
 40
0.625113556389174
 40
0.7500757042150112
 40
0.8750378520238213
 40
1.0
 40
1.0
 40
1.0
 40
1.0
 10
66.50964898129946
 20
144.4108256917473
 30
0.0
 10
66.54253792098541
 20
144.4099225809585
 30
0.0
 10
66.60799600628523
 20
144.4081251407366
 30
0.0
 10
66.70509209134583
 20
144.3932832114593
 30
0.0
 10
66.80028556057965
 20
144.3694862485401
 30
0.0
 10
66.92350956209081
 20
144.3251619025051
 30
0.0
 10
67.06904569177706
 20
144.2479652718037
 30
0.0
 10
67.22114468537976
 20
144.1223614325228
 30
0.0
 10
67.34691014091027
 20
143.970183833117
 30
0.0
 10
67.43886530436441
 20
143.7959061953721
 30
0.0
 10
67.49879972559738
 20
143.6072461281869
 30
0.0
 10
67.50603256293957
 20
143.4762991703807
 30
0.0
 10
67.50964898161304
 20
143.4108256914337
 30
0.0
  0
DIMENSION
  5
197
330
1F
100
AcDbEntity
  8
0
  6
Continuous
 62
     7
370
    18
100
AcDbDimension
  2
_D_10
 10
57.5096489813
 20
152.3160170122
 30
0.0
 11
63.3096489813
 21
152.3160170122
 31
0.0
 70
   160
  1
<>
 71
     2
 42
-1.0
  3
SLDDIMSTYLE2
100
AcDbAlignedDimension
 13
69.1096489813
 23
143.4108256914
 33
0.0
 14
57.5096489813
 24
143.4108256914
 34
0.0
100
AcDbRotatedDimension
  0
ENDSEC
  0
SECTION
  2
OBJECTS
  0
DICTIONARY
  5
C
330
0
100
AcDbDictionary
281
     1
  3
ACAD_GROUP
350
D
  3
ACAD_LAYOUT
350
1A
  3
ACAD_MLINESTYLE
350
17
  3
ACAD_PLOTSETTINGS
350
19
  3
ACAD_PLOTSTYLENAME
350
E
  3
ACAD_SCALELIST
350
47
  0
DICTIONARY
  5
D
102
{ACAD_REACTORS
330
C
102
}
330
C
100
AcDbDictionary
281
     1
  0
DICTIONARY
  5
1A
102
{ACAD_REACTORS
330
C
102
}
330
C
100
AcDbDictionary
281
     1
  3
Layout1
350
1E
  3
Layout2
350
26
  3
Model
350
22
  0
DICTIONARY
  5
17
102
{ACAD_REACTORS
330
C
102
}
330
C
100
AcDbDictionary
281
     1
  3
Standard
350
18
  0
DICTIONARY
  5
19
102
{ACAD_REACTORS
330
C
102
}
330
C
100
AcDbDictionary
281
     1
  0
ACDBDICTIONARYWDFLT
  5
E
102
{ACAD_REACTORS
330
C
102
}
330
C
100
AcDbDictionary
281
     1
  3
Normal
350
F
100
AcDbDictionaryWithDefault
340
F
  0
DICTIONARY
  5
47
102
{ACAD_REACTORS
330
C
102
}
330
C
100
AcDbDictionary
281
     1
  3
A0
350
48
  3
A1
350
49
  3
A2
350
4A
  3
A3
350
4B
  3
A4
350
4C
  3
A5
350
4D
  3
A6
350
4E
  3
A7
350
4F
  3
A8
350
50
  3
A9
350
51
  3
B0
350
52
  3
B1
350
53
  3
B2
350
54
  3
B3
350
55
  3
B4
350
56
  3
B5
350
57
  3
B6
350
58
  3
B7
350
59
  3
B8
350
5A
  3
B9
350
5B
  3
C0
350
5C
  3
C1
350
5D
  3
C2
350
5E
  3
C3
350
5F
  3
C4
350
60
  3
C5
350
61
  3
C6
350
62
  3
C7
350
63
  3
C8
350
64
  3
C9
350
65
  3
D0
350
66
  3
D1
350
67
  3
D2
350
68
  0
LAYOUT
  5
1E
102
{ACAD_REACTORS
330
1A
102
}
330
1A
100
AcDbPlotSettings
  1

  2
none_device
  4

  6

 40
0.0
 41
0.0
 42
0.0
 43
0.0
 44
0.0
 45
0.0
 46
0.0
 47
0.0
 48
0.0
 49
0.0
140
0.0
141
0.0
142
1.0
143
1.0
 70
   688
 72
     1
 73
     0
 74
     5
  7

 75
    16
147
1.0
148
0.0
149
0.0
100
AcDbLayout
  1
Layout1
 70
     1
 71
     1
 10
0.0
 20
0.0
 11
420.0
 21
297.0
 12
0.0
 22
0.0
 32
0.0
 14
1.0000000000E+20
 24
1.0000000000E+20
 34
1.0000000000E+20
 15
-1.0000000000E+20
 25
-1.0000000000E+20
 35
-1.0000000000E+20
146
0.0
 13
0.0
 23
0.0
 33
0.0
 16
1.0
 26
0.0
 36
0.0
 17
0.0
 27
1.0
 37
0.0
 76
     0
330
1B
  0
LAYOUT
  5
26
102
{ACAD_REACTORS
330
1A
102
}
330
1A
100
AcDbPlotSettings
  1

  2
none_device
  4

  6

 40
0.0
 41
0.0
 42
0.0
 43
0.0
 44
0.0
 45
0.0
 46
0.0
 47
0.0
 48
0.0
 49
0.0
140
0.0
141
0.0
142
1.0
143
1.0
 70
   688
 72
     1
 73
     0
 74
     5
  7

 75
    16
147
1.0
148
0.0
149
0.0
100
AcDbLayout
  1
Layout2
 70
     1
 71
     2
 10
0.0
 20
0.0
 11
0.0
 21
0.0
 12
0.0
 22
0.0
 32
0.0
 14
0.0
 24
0.0
 34
0.0
 15
0.0
 25
0.0
 35
0.0
146
0.0
 13
0.0
 23
0.0
 33
0.0
 16
1.0
 26
0.0
 36
0.0
 17
0.0
 27
1.0
 37
0.0
 76
     0
330
23
  0
LAYOUT
  5
22
102
{ACAD_REACTORS
330
1A
102
}
330
1A
100
AcDbPlotSettings
  1

  2
none_device
  4
Letter_(8.50_x_11.00_Inches)
  6

 40
6.35
 41
6.35
 42
6.35000508
 43
6.35000508
 44
215.9
 45
279.4
 46
0.0
 47
0.0
 48
0.0
 49
0.0
140
0.0
141
0.0
142
1.0
143
1.0
 70
  1712
 72
     1
 73
     0
 74
     0
  7

 75
     0
147
1.0
148
0.0
149
0.0
100
AcDbLayout
  1
Model
 70
     1
 71
     0
 10
0.0
 20
0.0
 11
210.0
 21
297.0
 12
0.0
 22
0.0
 32
0.0
 14
0.0
 24
0.0
 34
0.0
 15
210.0
 25
297.0
 35
0.0
146
0.0
 13
0.0
 23
0.0
 33
0.0
 16
1.0
 26
0.0
 36
0.0
 17
0.0
 27
1.0
 37
0.0
 76
     0
330
1F
331
29
  0
MLINESTYLE
  5
18
102
{ACAD_REACTORS
330
17
102
}
330
17
100
AcDbMlineStyle
  2
Standard
 70
     0
  3

 62
   256
 51
90.0
 52
90.0
 71
     2
 49
0.5
 62
   256
  6
BYLAYER
 49
-0.5
 62
   256
  6
BYLAYER
  0
ACDBPLACEHOLDER
  5
F
102
{ACAD_REACTORS
330
E
102
}
330
E
  0
SCALE
  5
48
102
{ACAD_REACTORS
330
47
102
}
330
47
100
AcDbScale
 70
     0
300
1:1
140
1.0
141
1.0
290
     1
  0
SCALE
  5
49
102
{ACAD_REACTORS
330
47
102
}
330
47
100
AcDbScale
 70
     0
300
1:2
140
1.0
141
2.0
290
     0
  0
SCALE
  5
4A
102
{ACAD_REACTORS
330
47
102
}
330
47
100
AcDbScale
 70
     0
300
1:4
140
1.0
141
4.0
290
     0
  0
SCALE
  5
4B
102
{ACAD_REACTORS
330
47
102
}
330
47
100
AcDbScale
 70
     0
300
1:5
140
1.0
141
5.0
290
     0
  0
SCALE
  5
4C
102
{ACAD_REACTORS
330
47
102
}
330
47
100
AcDbScale
 70
     0
300
1:8
140
1.0
141
8.0
290
     0
  0
SCALE
  5
4D
102
{ACAD_REACTORS
330
47
102
}
330
47
100
AcDbScale
 70
     0
300
1:10
140
1.0
141
10.0
290
     0
  0
SCALE
  5
4E
102
{ACAD_REACTORS
330
47
102
}
330
47
100
AcDbScale
 70
     0
300
1:16
140
1.0
141
16.0
290
     0
  0
SCALE
  5
4F
102
{ACAD_REACTORS
330
47
102
}
330
47
100
AcDbScale
 70
     0
300
1:20
140
1.0
141
20.0
290
     0
  0
SCALE
  5
50
102
{ACAD_REACTORS
330
47
102
}
330
47
100
AcDbScale
 70
     0
300
1:30
140
1.0
141
30.0
290
     0
  0
SCALE
  5
51
102
{ACAD_REACTORS
330
47
102
}
330
47
100
AcDbScale
 70
     0
300
1:40
140
1.0
141
40.0
290
     0
  0
SCALE
  5
52
102
{ACAD_REACTORS
330
47
102
}
330
47
100
AcDbScale
 70
     0
300
1:50
140
1.0
141
50.0
290
     0
  0
SCALE
  5
53
102
{ACAD_REACTORS
330
47
102
}
330
47
100
AcDbScale
 70
     0
300
1:100
140
1.0
141
100.0
290
     0
  0
SCALE
  5
54
102
{ACAD_REACTORS
330
47
102
}
330
47
100
AcDbScale
 70
     0
300
2:1
140
2.0
141
1.0
290
     0
  0
SCALE
  5
55
102
{ACAD_REACTORS
330
47
102
}
330
47
100
AcDbScale
 70
     0
300
4:1
140
4.0
141
1.0
290
     0
  0
SCALE
  5
56
102
{ACAD_REACTORS
330
47
102
}
330
47
100
AcDbScale
 70
     0
300
8:1
140
8.0
141
1.0
290
     0
  0
SCALE
  5
57
102
{ACAD_REACTORS
330
47
102
}
330
47
100
AcDbScale
 70
     0
300
10:1
140
10.0
141
1.0
290
     0
  0
SCALE
  5
58
102
{ACAD_REACTORS
330
47
102
}
330
47
100
AcDbScale
 70
     0
300
100:1
140
100.0
141
1.0
290
     0
  0
SCALE
  5
59
102
{ACAD_REACTORS
330
47
102
}
330
47
100
AcDbScale
 70
     0
300
1/128" = 1'-0"
140
0.0078125
141
12.0
290
     0
  0
SCALE
  5
5A
102
{ACAD_REACTORS
330
47
102
}
330
47
100
AcDbScale
 70
     0
300
1/64" = 1'-0"
140
0.015625
141
12.0
290
     0
  0
SCALE
  5
5B
102
{ACAD_REACTORS
330
47
102
}
330
47
100
AcDbScale
 70
     0
300
1/32" = 1'-0"
140
0.03125
141
12.0
290
     0
  0
SCALE
  5
5C
102
{ACAD_REACTORS
330
47
102
}
330
47
100
AcDbScale
 70
     0
300
1/16" = 1'-0"
140
0.0625
141
12.0
290
     0
  0
SCALE
  5
5D
102
{ACAD_REACTORS
330
47
102
}
330
47
100
AcDbScale
 70
     0
300
3/32" = 1'-0"
140
0.09375
141
12.0
290
     0
  0
SCALE
  5
5E
102
{ACAD_REACTORS
330
47
102
}
330
47
100
AcDbScale
 70
     0
300
1/8" = 1'-0"
140
0.125
141
12.0
290
     0
  0
SCALE
  5
5F
102
{ACAD_REACTORS
330
47
102
}
330
47
100
AcDbScale
 70
     0
300
3/16" = 1'-0"
140
0.1875
141
12.0
290
     0
  0
SCALE
  5
60
102
{ACAD_REACTORS
330
47
102
}
330
47
100
AcDbScale
 70
     0
300
1/4" = 1'-0"
140
0.25
141
12.0
290
     0
  0
SCALE
  5
61
102
{ACAD_REACTORS
330
47
102
}
330
47
100
AcDbScale
 70
     0
300
3/8" = 1'-0"
140
0.375
141
12.0
290
     0
  0
SCALE
  5
62
102
{ACAD_REACTORS
330
47
102
}
330
47
100
AcDbScale
 70
     0
300
1/2" = 1'-0"
140
0.5
141
12.0
290
     0
  0
SCALE
  5
63
102
{ACAD_REACTORS
330
47
102
}
330
47
100
AcDbScale
 70
     0
300
3/4" = 1'-0"
140
0.75
141
12.0
290
     0
  0
SCALE
  5
64
102
{ACAD_REACTORS
330
47
102
}
330
47
100
AcDbScale
 70
     0
300
1" = 1'-0"
140
1.0
141
12.0
290
     0
  0
SCALE
  5
65
102
{ACAD_REACTORS
330
47
102
}
330
47
100
AcDbScale
 70
     0
300
1-1/2" = 1'-0"
140
1.5
141
12.0
290
     0
  0
SCALE
  5
66
102
{ACAD_REACTORS
330
47
102
}
330
47
100
AcDbScale
 70
     0
300
3" = 1'-0"
140
3.0
141
12.0
290
     0
  0
SCALE
  5
67
102
{ACAD_REACTORS
330
47
102
}
330
47
100
AcDbScale
 70
     0
300
6" = 1'-0"
140
6.0
141
12.0
290
     0
  0
SCALE
  5
68
102
{ACAD_REACTORS
330
47
102
}
330
47
100
AcDbScale
 70
     0
300
1'-0" = 1'-0"
140
12.0
141
12.0
290
     0
  0
ENDSEC
  0
EOF
