  0
SECTION
  2
HEADER
  9
$ACADVER
  1
AC1015
  9
$ACADMAINTVER
 70
     6
  9
$DWGCODEPAGE
  3
DOS932
  9
$INSBASE
 10
0.0
 20
0.0
 30
0.0
  9
$EXTMIN
 10
0.0
 20
0.0
 30
0.0
  9
$EXTMAX
 10
420.0
 20
297.0
 30
0.0
  9
$LIMMIN
 10
0.0
 20
0.0
  9
$LIMMAX
 10
420.0
 20
297.0
  9
$ORTHOMODE
 70
     0
  9
$REGENMODE
 70
     1
  9
$FILLMODE
 70
     1
  9
$QTEXTMODE
 70
     0
  9
$MIRRTEXT
 70
     1
  9
$LTSCALE
 40
1.0
  9
$ATTMODE
 70
     1
  9
$TEXTSIZE
 40
3.5
  9
$TRACEWID
 40
1.0
  9
$TEXTSTYLE
  7
Standard
  9
$CLAYER
  8
0
  9
$CELTYPE
  6
ByLayer
  9
$CECOLOR
 62
   256
  9
$CELTSCALE
 40
1.0
  9
$DISPSILH
 70
     0
  9
$DIMSCALE
 40
1.0
  9
$DIMASZ
 40
3.0
  9
$DIMEXO
 40
1.0
  9
$DIMDLI
 40
3.75
  9
$DIMRND
 40
0.0
  9
$DIMDLE
 40
0.0
  9
$DIMEXE
 40
1.0
  9
$DIMTP
 40
0.0
  9
$DIMTM
 40
0.0
  9
$DIMTXT
 40
3.5
  9
$DIMCEN
 40
2.5
  9
$DIMTSZ
 40
0.0
  9
$DIMTOL
 70
     0
  9
$DIMLIM
 70
     0
  9
$DIMTIH
 70
     1
  9
$DIMTOH
 70
     1
  9
$DIMSE1
 70
     0
  9
$DIMSE2
 70
     0
  9
$DIMTAD
 70
     1
  9
$DIMZIN
 70
     0
  9
$DIMBLK
  1

  9
$DIMASO
 70
     1
  9
$DIMSHO
 70
     1
  9
$DIMPOST
  1

  9
$DIMAPOST
  1

  9
$DIMALT
 70
     0
  9
$DIMALTD
 70
     3
  9
$DIMALTF
 40
0.0393700787
  9
$DIMLFAC
 40
1.0
  9
$DIMTOFL
 70
     1
  9
$DIMTVP
 40
0.0
  9
$DIMTIX
 70
     0
  9
$DIMSOXD
 70
     0
  9
$DIMSAH
 70
     0
  9
$DIMBLK1
  1

  9
$DIMBLK2
  1

  9
$DIMSTYLE
  2
ISO-25
  9
$DIMCLRD
 70
     0
  9
$DIMCLRE
 70
     0
  9
$DIMCLRT
 70
     0
  9
$DIMTFAC
 40
1.0
  9
$DIMGAP
 40
1.524
  9
$DIMJUST
 70
     0
  9
$DIMSD1
 70
     0
  9
$DIMSD2
 70
     0
  9
$DIMTOLJ
 70
     0
  9
$DIMTZIN
 70
     0
  9
$DIMALTZ
 70
     0
  9
$DIMALTTZ
 70
     0
  9
$DIMUPT
 70
     0
  9
$DIMDEC
 70
     1
  9
$DIMTDEC
 70
     3
  9
$DIMALTU
 70
     2
  9
$DIMALTTD
 70
     3
  9
$DIMTXSTY
  7
Standard
  9
$DIMAUNIT
 70
     0
  9
$DIMADEC
 70
     2
  9
$DIMALTRND
 40
0.0
  9
$DIMAZIN
 70
     0
  9
$DIMDSEP
 70
    44
  9
$DIMATFIT
 70
     3
  9
$DIMFRAC
 70
     0
  9
$DIMLDRBLK
  1

  9
$DIMLUNIT
 70
     2
  9
$DIMLWD
 70
    -2
  9
$DIMLWE
 70
    -2
  9
$DIMTMOVE
 70
     0
  9
$LUNITS
 70
     2
  9
$LUPREC
 70
     1
  9
$SKETCHINC
 40
1.0
  9
$FILLETRAD
 40
10.0
  9
$AUNITS
 70
     0
  9
$AUPREC
 70
     2
  9
$MENU
  1
.
  9
$ELEVATION
 40
0.0
  9
$PELEVATION
 40
0.0
  9
$THICKNESS
 40
0.0
  9
$LIMCHECK
 70
     0
  9
$CHAMFERA
 40
10.0
  9
$CHAMFERB
 40
10.0
  9
$CHAMFERC
 40
20.0
  9
$CHAMFERD
 40
0.0
  9
$SKPOLY
 70
     0
  9
$TDCREATE
 40
2456282.871389063
  9
$TDUCREATE
 40
2456282.496389063
  9
$TDUPDATE
 40
2456282.871389074
  9
$TDUUPDATE
 40
2456282.496389074
  9
$TDINDWG
 40
0.0000000116
  9
$TDUSRTIMER
 40
0.0000000116
  9
$USRTIMER
 70
     1
  9
$ANGBASE
 50
0.0
  9
$ANGDIR
 70
     0
  9
$PDMODE
 70
     0
  9
$PDSIZE
 40
-1.0
  9
$PLINEWID
 40
0.0
  9
$SPLFRAME
 70
     0
  9
$SPLINETYPE
 70
     6
  9
$SPLINESEGS
 70
     8
  9
$HANDSEED
  5
3D9
  9
$SURFTAB1
 70
     6
  9
$SURFTAB2
 70
     6
  9
$SURFTYPE
 70
     6
  9
$SURFU
 70
     6
  9
$SURFV
 70
     6
  9
$UCSBASE
  2

  9
$UCSNAME
  2

  9
$UCSORG
 10
0.0
 20
0.0
 30
0.0
  9
$UCSXDIR
 10
1.0
 20
0.0
 30
0.0
  9
$UCSYDIR
 10
0.0
 20
1.0
 30
0.0
  9
$UCSORTHOREF
  2

  9
$UCSORTHOVIEW
 70
     0
  9
$UCSORGTOP
 10
0.0
 20
0.0
 30
0.0
  9
$UCSORGBOTTOM
 10
0.0
 20
0.0
 30
0.0
  9
$UCSORGLEFT
 10
0.0
 20
0.0
 30
0.0
  9
$UCSORGRIGHT
 10
0.0
 20
0.0
 30
0.0
  9
$UCSORGFRONT
 10
0.0
 20
0.0
 30
0.0
  9
$UCSORGBACK
 10
0.0
 20
0.0
 30
0.0
  9
$PUCSBASE
  2

  9
$PUCSNAME
  2

  9
$PUCSORG
 10
0.0
 20
0.0
 30
0.0
  9
$PUCSXDIR
 10
1.0
 20
0.0
 30
0.0
  9
$PUCSYDIR
 10
0.0
 20
1.0
 30
0.0
  9
$PUCSORTHOREF
  2

  9
$PUCSORTHOVIEW
 70
     0
  9
$PUCSORGTOP
 10
0.0
 20
0.0
 30
0.0
  9
$PUCSORGBOTTOM
 10
0.0
 20
0.0
 30
0.0
  9
$PUCSORGLEFT
 10
0.0
 20
0.0
 30
0.0
  9
$PUCSORGRIGHT
 10
0.0
 20
0.0
 30
0.0
  9
$PUCSORGFRONT
 10
0.0
 20
0.0
 30
0.0
  9
$PUCSORGBACK
 10
0.0
 20
0.0
 30
0.0
  9
$USERI1
 70
     0
  9
$USERI2
 70
     0
  9
$USERI3
 70
     0
  9
$USERI4
 70
     0
  9
$USERI5
 70
     0
  9
$USERR1
 40
0.0
  9
$USERR2
 40
0.0
  9
$USERR3
 40
0.0
  9
$USERR4
 40
0.0
  9
$USERR5
 40
0.0
  9
$WORLDVIEW
 70
     1
  9
$SHADEDGE
 70
     3
  9
$SHADEDIF
 70
    70
  9
$TILEMODE
 70
     1
  9
$MAXACTVP
 70
    64
  9
$PINSBASE
 10
0.0
 20
0.0
 30
0.0
  9
$PLIMCHECK
 70
     0
  9
$PEXTMIN
 10
1.0000000000E+20
 20
1.0000000000E+20
 30
1.0000000000E+20
  9
$PEXTMAX
 10
-1.0000000000E+20
 20
-1.0000000000E+20
 30
-1.0000000000E+20
  9
$PLIMMIN
 10
0.0
 20
0.0
  9
$PLIMMAX
 10
420.0
 20
297.0
  9
$UNITMODE
 70
     0
  9
$VISRETAIN
 70
     1
  9
$PLINEGEN
 70
     0
  9
$PSLTSCALE
 70
     1
  9
$TREEDEPTH
 70
  3020
  9
$CMLSTYLE
  2
Standard
  9
$CMLJUST
 70
     0
  9
$CMLSCALE
 40
20.0
  9
$PROXYGRAPHICS
 70
     1
  9
$MEASUREMENT
 70
     1
  9
$CELWEIGHT
370
    -1
  9
$ENDCAPS
280
     0
  9
$JOINSTYLE
280
     0
  9
$LWDISPLAY
290
     1
  9
$INSUNITS
 70
     4
  9
$HYPERLINKBASE
  1

  9
$STYLESHEET
  1

  9
$XEDIT
290
     1
  9
$CEPSNTYPE
380
     0
  9
$PSTYLEMODE
290
     1
  9
$FINGERPRINTGUID
  2
{4A1675B3-7D60-436B-8C6F-861F88652033}
  9
$VERSIONGUID
  2
{FAEB1C32-E019-11D5-929B-00C0DF256EC4}
  9
$EXTNAMES
290
     1
  9
$PSVPSCALE
 40
0.0
  9
$OLESTARTUP
290
     0
  0
ENDSEC
  0
SECTION
  2
CLASSES
  0
CLASS
  1
ACDBDICTIONARYWDFLT
  2
AcDbDictionaryWithDefault
  3
ObjectDBX Classes
 90
        0
280
     0
281
     0
  0
CLASS
  1
VISUALSTYLE
  2
AcDbVisualStyle
  3
ObjectDBX Classes
 90
     4095
280
     0
281
     0
  0
CLASS
  1
MATERIAL
  2
AcDbMaterial
  3
ObjectDBX Classes
 90
     1153
280
     0
281
     0
  0
CLASS
  1
SCALE
  2
AcDbScale
  3
ObjectDBX Classes
 90
     1153
280
     0
281
     0
  0
CLASS
  1
DICTIONARYVAR
  2
AcDbDictionaryVar
  3
ObjectDBX Classes
 90
        0
280
     0
281
     0
  0
CLASS
  1
ACDBPLACEHOLDER
  2
AcDbPlaceHolder
  3
ObjectDBX Classes
 90
        0
280
     0
281
     0
  0
CLASS
  1
LAYOUT
  2
AcDbLayout
  3
ObjectDBX Classes
 90
        0
280
     0
281
     0
  0
ENDSEC
  0
SECTION
  2
TABLES
  0
TABLE
  2
VPORT
  5
8
330
0
100
AcDbSymbolTable
 70
     1
  0
VPORT
  5
29
330
8
100
AcDbSymbolTableRecord
100
AcDbViewportTableRecord
  2
*Active
 70
     0
 10
0.0
 20
0.0
 11
1.0
 21
1.0
 12
210.0
 22
148.5
 13
0.0
 23
0.0
 14
10.0
 24
10.0
 15
10.0
 25
10.0
 16
0.0
 26
0.0
 36
1.0
 17
0.0
 27
0.0
 37
0.0
 40
297.0
 41
1.4141414141
 42
50.0
 43
0.0
 44
0.0
 50
0.0
 51
0.0
 71
     0
 72
  2000
 73
     1
 74
     3
 75
     0
 76
     0
 77
     0
 78
     0
281
     0
 65
     1
110
0.0
120
0.0
130
0.0
111
1.0
121
0.0
131
0.0
112
0.0
122
1.0
132
0.0
 79
     0
146
0.0
  0
ENDTAB
  0
TABLE
  2
LTYPE
  5
5
330
0
100
AcDbSymbolTable
 70
     6
  0
LTYPE
  5
14
330
5
100
AcDbSymbolTableRecord
100
AcDbLinetypeTableRecord
  2
ByBlock
 70
     0
  3

 72
    65
 73
     0
 40
0.0
  0
LTYPE
  5
15
330
5
100
AcDbSymbolTableRecord
100
AcDbLinetypeTableRecord
  2
ByLayer
 70
     0
  3

 72
    65
 73
     0
 40
0.0
  0
LTYPE
  5
16
330
5
100
AcDbSymbolTableRecord
100
AcDbLinetypeTableRecord
  2
Continuous
 70
     0
  3
Solid line
 72
    65
 73
     0
 40
0.0
  0
LTYPE
  5
3F
330
5
100
AcDbSymbolTableRecord
100
AcDbLinetypeTableRecord
  2
HIDDEN
 70
     0
  3
Hidden __ __ __ __ __ __ __ __ __ __ __ __ __ __
 72
    65
 73
     2
 40
1.905
 49
1.27
 74
     0
 49
-0.635
 74
     0
  0
LTYPE
  5
40
330
5
100
AcDbSymbolTableRecord
100
AcDbLinetypeTableRecord
  2
PHANTOM
 70
     0
  3
Phantom ______  __  __  ______  __  __  ______
 72
    65
 73
     6
 40
12.7
 49
6.35
 74
     0
 49
-1.27
 74
     0
 49
1.27
 74
     0
 49
-1.27
 74
     0
 49
1.27
 74
     0
 49
-1.27
 74
     0
  0
LTYPE
  5
41
330
5
100
AcDbSymbolTableRecord
100
AcDbLinetypeTableRecord
  2
CENTER
 70
     0
  3
Center ____ _ ____ _ ____ _ ____ _ ____ _ ____
 72
    65
 73
     4
 40
10.16
 49
6.35
 74
     0
 49
-1.27
 74
     0
 49
1.27
 74
     0
 49
-1.27
 74
     0
  0
LTYPE
  5
42
330
5
100
AcDbSymbolTableRecord
100
AcDbLinetypeTableRecord
  2
CENTERX2
 70
     0
  3
Center (2x) ________  __  ________  __  _____
 72
    65
 73
     4
 40
20.32
 49
12.7
 74
     0
 49
-2.54
 74
     0
 49
2.54
 74
     0
 49
-2.54
 74
     0
  0
LTYPE
  5
43
330
5
100
AcDbSymbolTableRecord
100
AcDbLinetypeTableRecord
  2
DOT2
 70
     0
  3
Dot (.5x) ........................................
 72
    65
 73
     2
 40
0.635
 49
0.0
 74
     0
 49
-0.635
 74
     0
  0
ENDTAB
  0
TABLE
  2
LAYER
  5
2
330
0
100
AcDbSymbolTable
 70
     6
  0
LAYER
  5
10
330
2
100
AcDbSymbolTableRecord
100
AcDbLayerTableRecord
  2
0
 70
     0
 62
     7
  6
Continuous
370
    -3
390
F
  0
LAYER
  5
44
330
2
100
AcDbSymbolTableRecord
100
AcDbLayerTableRecord
  2
FORMAT
 70
     0
 62
     7
  6
Continuous
370
    -3
390
F
  0
LAYER
  5
45
330
2
100
AcDbSymbolTableRecord
100
AcDbLayerTableRecord
  2
SLD-0_0
 70
     0
 62
   179
  6
Continuous
370
    -3
390
F
  0
LAYER
  5
46
330
2
100
AcDbSymbolTableRecord
100
AcDbLayerTableRecord
  2
PV
 70
     0
 62
   179
  6
Continuous
370
    -3
390
F
  0
LAYER
  5
47
330
2
100
AcDbSymbolTableRecord
100
AcDbLayerTableRecord
  2
WK
 70
     0
 62
   179
  6
Continuous
370
    -3
390
F
  0
LAYER
  5
48
330
2
100
AcDbSymbolTableRecord
100
AcDbLayerTableRecord
  2
SLD-0
 70
     0
 62
   179
  6
Continuous
370
    -3
390
F
  0
ENDTAB
  0
TABLE
  2
STYLE
  5
3
330
0
100
AcDbSymbolTable
 70
     2
  0
STYLE
  5
11
330
3
100
AcDbSymbolTableRecord
100
AcDbTextStyleTableRecord
  2
Standard
 70
     0
 40
0.0
 41
1.0
 50
0.0
 71
     0
 42
2.5
  3
txt
  4
bigfont
  0
STYLE
  5
53
330
3
100
AcDbSymbolTableRecord
100
AcDbTextStyleTableRecord
  2
SLDTEXTSTYLE0
 70
     0
 40
0.0
 41
0.7
 50
0.0
 71
     0
 42
0.2
  3
TXT
  4
bigfont
  0
ENDTAB
  0
TABLE
  2
VIEW
  5
6
330
0
100
AcDbSymbolTable
 70
     0
  0
ENDTAB
  0
TABLE
  2
UCS
  5
7
330
0
100
AcDbSymbolTable
 70
     0
  0
ENDTAB
  0
TABLE
  2
APPID
  5
9
330
0
100
AcDbSymbolTable
 70
     1
  0
APPID
  5
12
330
9
100
AcDbSymbolTableRecord
100
AcDbRegAppTableRecord
  2
ACAD
 70
     0
  0
ENDTAB
  0
TABLE
  2
DIMSTYLE
  5
A
330
0
100
AcDbSymbolTable
 70
     5
100
AcDbDimStyleTable
  0
DIMSTYLE
105
27
330
A
100
AcDbSymbolTableRecord
100
AcDbDimStyleTableRecord
  2
ISO-25
 70
     0
 41
2.5
 42
0.625
 43
3.75
 44
1.25
 73
     0
 74
     0
 77
     1
 78
     8
140
2.5
141
2.5
143
0.0393700787
147
0.625
171
     3
172
     1
271
     2
272
     2
274
     3
278
    44
283
     0
284
     8
340
11
  0
DIMSTYLE
105
A8
102
{ACAD_REACTORS
330
A7
330
B8
330
CF
330
F3
330
109
330
116
330
120
330
150
330
168
330
1E2
330
1EC
330
1F6
330
200
330
25D
330
2A9
330
33F
330
36A
330
3A0
102
}
330
A
100
AcDbSymbolTableRecord
100
AcDbDimStyleTableRecord
  2
SLDDIMSTYLE0
 70
     0
 41
3.0
 44
0.0
 45
0.000000001
 73
     0
 74
     0
 77
     3
 78
    12
140
3.5
147
0.875
173
     1
271
     1
272
     3
276
     2
284
    12
340
53
341
A9
343
A9
344
A9
  0
DIMSTYLE
105
C3
102
{ACAD_REACTORS
330
C2
330
D9
330
E7
330
FD
330
12A
330
138
330
144
330
15A
330
172
330
20A
330
217
330
251
330
267
330
273
330
27F
330
289
330
29D
330
2B3
330
2BF
330
333
330
349
330
35E
330
374
330
380
330
38C
330
396
102
}
330
A
100
AcDbSymbolTableRecord
100
AcDbDimStyleTableRecord
  2
SLDDIMSTYLE1
 70
     0
 41
3.0
 44
0.0
 45
0.000000001
 73
     0
 74
     0
 77
     3
 78
    12
140
3.5
147
0.875
173
     1
271
     1
272
     3
276
     2
284
    12
340
53
341
A9
343
A9
344
A9
  0
DIMSTYLE
105
23F
102
{ACAD_REACTORS
330
23E
330
248
330
321
330
32A
102
}
330
A
100
AcDbSymbolTableRecord
100
AcDbDimStyleTableRecord
  2
SLDDIMSTYLE2
 70
     0
 41
3.0
 44
0.0
 45
0.000000001
 78
    12
140
3.5
141
0.0
147
0.875
173
     1
271
     1
272
     3
276
     2
284
    12
340
53
341
A9
343
A9
344
A9
  0
DIMSTYLE
105
294
102
{ACAD_REACTORS
330
293
330
355
102
}
330
A
100
AcDbSymbolTableRecord
100
AcDbDimStyleTableRecord
  2
SLDDIMSTYLE3
 70
     0
 41
3.0
 44
0.0
 45
0.000000001
 78
    12
140
3.5
141
0.0
147
0.875
173
     1
271
     1
272
     3
276
     2
284
    12
340
53
341
A9
343
A9
344
A9
  0
ENDTAB
  0
TABLE
  2
BLOCK_RECORD
  5
1
330
0
100
AcDbSymbolTable
 70
    63
  0
BLOCK_RECORD
  5
1F
330
1
100
AcDbSymbolTableRecord
100
AcDbBlockTableRecord
  2
*Model_Space
340
22
  0
BLOCK_RECORD
  5
1B
330
1
100
AcDbSymbolTableRecord
100
AcDbBlockTableRecord
  2
*Paper_Space
340
1E
  0
BLOCK_RECORD
  5
23
330
1
100
AcDbSymbolTableRecord
100
AcDbBlockTableRecord
  2
*Paper_Space0
340
26
  0
BLOCK_RECORD
  5
A9
330
1
100
AcDbSymbolTableRecord
100
AcDbBlockTableRecord
  2
_OPEN30
340
0
102
{BLKREFS
331
B2
331
B3
331
BC
331
BD
331
C7
331
C8
331
D3
331
D4
331
DF
331
E0
331
EB
331
EC
331
F7
331
F8
331
101
331
102
331
10F
331
110
331
11A
331
11B
331
124
331
125
331
130
331
131
331
13C
331
13D
331
148
331
149
331
154
331
155
331
160
331
161
331
16C
331
16D
331
176
331
177
331
1E6
331
1E7
331
1F0
331
1F1
331
1FA
331
1FB
331
204
331
205
331
20E
331
20F
331
21B
331
21C
331
243
331
24C
331
255
331
256
331
261
331
262
331
26B
331
26C
331
277
331
278
331
283
331
284
331
28D
331
28E
331
298
331
2A1
331
2A2
331
2AD
331
2AE
331
2B7
331
2B8
331
2C3
331
2C4
331
325
331
32E
331
337
331
338
331
343
331
344
331
34D
331
34E
331
359
331
362
331
363
331
36E
331
36F
331
378
331
379
331
384
331
385
331
390
331
391
331
39A
331
39B
331
3A4
331
3A5
102
}
  0
BLOCK_RECORD
  5
AF
330
1
100
AcDbSymbolTableRecord
100
AcDbBlockTableRecord
  2
*D2
340
0
  0
BLOCK_RECORD
  5
B9
330
1
100
AcDbSymbolTableRecord
100
AcDbBlockTableRecord
  2
*D3
340
0
  0
BLOCK_RECORD
  5
C4
330
1
100
AcDbSymbolTableRecord
100
AcDbBlockTableRecord
  2
*D4
340
0
  0
BLOCK_RECORD
  5
D0
330
1
100
AcDbSymbolTableRecord
100
AcDbBlockTableRecord
  2
*D5
340
0
  0
BLOCK_RECORD
  5
DA
330
1
100
AcDbSymbolTableRecord
100
AcDbBlockTableRecord
  2
*D6
340
0
  0
BLOCK_RECORD
  5
E8
330
1
100
AcDbSymbolTableRecord
100
AcDbBlockTableRecord
  2
*D7
340
0
  0
BLOCK_RECORD
  5
F4
330
1
100
AcDbSymbolTableRecord
100
AcDbBlockTableRecord
  2
*D8
340
0
  0
BLOCK_RECORD
  5
FE
330
1
100
AcDbSymbolTableRecord
100
AcDbBlockTableRecord
  2
*D9
340
0
  0
BLOCK_RECORD
  5
10A
330
1
100
AcDbSymbolTableRecord
100
AcDbBlockTableRecord
  2
*D10
340
0
  0
BLOCK_RECORD
  5
117
330
1
100
AcDbSymbolTableRecord
100
AcDbBlockTableRecord
  2
*D11
340
0
  0
BLOCK_RECORD
  5
121
330
1
100
AcDbSymbolTableRecord
100
AcDbBlockTableRecord
  2
*D12
340
0
  0
BLOCK_RECORD
  5
12B
330
1
100
AcDbSymbolTableRecord
100
AcDbBlockTableRecord
  2
*D13
340
0
  0
BLOCK_RECORD
  5
139
330
1
100
AcDbSymbolTableRecord
100
AcDbBlockTableRecord
  2
*D14
340
0
  0
BLOCK_RECORD
  5
145
330
1
100
AcDbSymbolTableRecord
100
AcDbBlockTableRecord
  2
*D15
340
0
  0
BLOCK_RECORD
  5
151
330
1
100
AcDbSymbolTableRecord
100
AcDbBlockTableRecord
  2
*D16
340
0
  0
BLOCK_RECORD
  5
15B
330
1
100
AcDbSymbolTableRecord
100
AcDbBlockTableRecord
  2
*D17
340
0
  0
BLOCK_RECORD
  5
169
330
1
100
AcDbSymbolTableRecord
100
AcDbBlockTableRecord
  2
*D18
340
0
  0
BLOCK_RECORD
  5
173
330
1
100
AcDbSymbolTableRecord
100
AcDbBlockTableRecord
  2
*D19
340
0
  0
BLOCK_RECORD
  5
17E
330
1
100
AcDbSymbolTableRecord
100
AcDbBlockTableRecord
  2
SW_CENTERMARKSYMBOL_0
340
0
102
{BLKREFS
331
190
102
}
  0
BLOCK_RECORD
  5
191
330
1
100
AcDbSymbolTableRecord
100
AcDbBlockTableRecord
  2
SW_CENTERMARKSYMBOL_1
340
0
102
{BLKREFS
331
1A3
102
}
  0
BLOCK_RECORD
  5
1A4
330
1
100
AcDbSymbolTableRecord
100
AcDbBlockTableRecord
  2
SW_CENTERMARKSYMBOL_2
340
0
102
{BLKREFS
331
1B6
102
}
  0
BLOCK_RECORD
  5
1B7
330
1
100
AcDbSymbolTableRecord
100
AcDbBlockTableRecord
  2
SW_CENTERMARKSYMBOL_3
340
0
102
{BLKREFS
331
1C9
102
}
  0
BLOCK_RECORD
  5
1E3
330
1
100
AcDbSymbolTableRecord
100
AcDbBlockTableRecord
  2
*D24
340
0
  0
BLOCK_RECORD
  5
1ED
330
1
100
AcDbSymbolTableRecord
100
AcDbBlockTableRecord
  2
*D25
340
0
  0
BLOCK_RECORD
  5
1F7
330
1
100
AcDbSymbolTableRecord
100
AcDbBlockTableRecord
  2
*D26
340
0
  0
BLOCK_RECORD
  5
201
330
1
100
AcDbSymbolTableRecord
100
AcDbBlockTableRecord
  2
*D27
340
0
  0
BLOCK_RECORD
  5
20B
330
1
100
AcDbSymbolTableRecord
100
AcDbBlockTableRecord
  2
*D28
340
0
  0
BLOCK_RECORD
  5
218
330
1
100
AcDbSymbolTableRecord
100
AcDbBlockTableRecord
  2
*D29
340
0
  0
BLOCK_RECORD
  5
240
330
1
100
AcDbSymbolTableRecord
100
AcDbBlockTableRecord
  2
*D30
340
0
  0
BLOCK_RECORD
  5
249
330
1
100
AcDbSymbolTableRecord
100
AcDbBlockTableRecord
  2
*D31
340
0
  0
BLOCK_RECORD
  5
252
330
1
100
AcDbSymbolTableRecord
100
AcDbBlockTableRecord
  2
*D32
340
0
  0
BLOCK_RECORD
  5
25E
330
1
100
AcDbSymbolTableRecord
100
AcDbBlockTableRecord
  2
*D33
340
0
  0
BLOCK_RECORD
  5
268
330
1
100
AcDbSymbolTableRecord
100
AcDbBlockTableRecord
  2
*D34
340
0
  0
BLOCK_RECORD
  5
274
330
1
100
AcDbSymbolTableRecord
100
AcDbBlockTableRecord
  2
*D35
340
0
  0
BLOCK_RECORD
  5
280
330
1
100
AcDbSymbolTableRecord
100
AcDbBlockTableRecord
  2
*D36
340
0
  0
BLOCK_RECORD
  5
28A
330
1
100
AcDbSymbolTableRecord
100
AcDbBlockTableRecord
  2
*D37
340
0
  0
BLOCK_RECORD
  5
295
330
1
100
AcDbSymbolTableRecord
100
AcDbBlockTableRecord
  2
*D38
340
0
  0
BLOCK_RECORD
  5
29E
330
1
100
AcDbSymbolTableRecord
100
AcDbBlockTableRecord
  2
*D39
340
0
  0
BLOCK_RECORD
  5
2AA
330
1
100
AcDbSymbolTableRecord
100
AcDbBlockTableRecord
  2
*D40
340
0
  0
BLOCK_RECORD
  5
2B4
330
1
100
AcDbSymbolTableRecord
100
AcDbBlockTableRecord
  2
*D41
340
0
  0
BLOCK_RECORD
  5
2C0
330
1
100
AcDbSymbolTableRecord
100
AcDbBlockTableRecord
  2
*D42
340
0
  0
BLOCK_RECORD
  5
2CB
330
1
100
AcDbSymbolTableRecord
100
AcDbBlockTableRecord
  2
SW_CENTERMARKSYMBOL_4
340
0
102
{BLKREFS
331
2D6
102
}
  0
BLOCK_RECORD
  5
2D7
330
1
100
AcDbSymbolTableRecord
100
AcDbBlockTableRecord
  2
SW_CENTERMARKSYMBOL_5
340
0
102
{BLKREFS
331
2E2
102
}
  0
BLOCK_RECORD
  5
2E3
330
1
100
AcDbSymbolTableRecord
100
AcDbBlockTableRecord
  2
SW_CENTERMARKSYMBOL_6
340
0
102
{BLKREFS
331
2EE
102
}
  0
BLOCK_RECORD
  5
2EF
330
1
100
AcDbSymbolTableRecord
100
AcDbBlockTableRecord
  2
SW_CENTERMARKSYMBOL_7
340
0
102
{BLKREFS
331
2FA
102
}
  0
BLOCK_RECORD
  5
2FB
330
1
100
AcDbSymbolTableRecord
100
AcDbBlockTableRecord
  2
SW_CENTERMARKSYMBOL_8
340
0
102
{BLKREFS
331
306
102
}
  0
BLOCK_RECORD
  5
322
330
1
100
AcDbSymbolTableRecord
100
AcDbBlockTableRecord
  2
*D48
340
0
  0
BLOCK_RECORD
  5
32B
330
1
100
AcDbSymbolTableRecord
100
AcDbBlockTableRecord
  2
*D49
340
0
  0
BLOCK_RECORD
  5
334
330
1
100
AcDbSymbolTableRecord
100
AcDbBlockTableRecord
  2
*D50
340
0
  0
BLOCK_RECORD
  5
340
330
1
100
AcDbSymbolTableRecord
100
AcDbBlockTableRecord
  2
*D51
340
0
  0
BLOCK_RECORD
  5
34A
330
1
100
AcDbSymbolTableRecord
100
AcDbBlockTableRecord
  2
*D52
340
0
  0
BLOCK_RECORD
  5
356
330
1
100
AcDbSymbolTableRecord
100
AcDbBlockTableRecord
  2
*D53
340
0
  0
BLOCK_RECORD
  5
35F
330
1
100
AcDbSymbolTableRecord
100
AcDbBlockTableRecord
  2
*D54
340
0
  0
BLOCK_RECORD
  5
36B
330
1
100
AcDbSymbolTableRecord
100
AcDbBlockTableRecord
  2
*D55
340
0
  0
BLOCK_RECORD
  5
375
330
1
100
AcDbSymbolTableRecord
100
AcDbBlockTableRecord
  2
*D56
340
0
  0
BLOCK_RECORD
  5
381
330
1
100
AcDbSymbolTableRecord
100
AcDbBlockTableRecord
  2
*D57
340
0
  0
BLOCK_RECORD
  5
38D
330
1
100
AcDbSymbolTableRecord
100
AcDbBlockTableRecord
  2
*D58
340
0
  0
BLOCK_RECORD
  5
397
330
1
100
AcDbSymbolTableRecord
100
AcDbBlockTableRecord
  2
*D59
340
0
  0
BLOCK_RECORD
  5
3A1
330
1
100
AcDbSymbolTableRecord
100
AcDbBlockTableRecord
  2
*D60
340
0
  0
BLOCK_RECORD
  5
3AB
330
1
100
AcDbSymbolTableRecord
100
AcDbBlockTableRecord
  2
SW_CENTERMARKSYMBOL_9
340
0
102
{BLKREFS
331
3B6
102
}
  0
BLOCK_RECORD
  5
3B7
330
1
100
AcDbSymbolTableRecord
100
AcDbBlockTableRecord
  2
SW_CENTERMARKSYMBOL_10
340
0
102
{BLKREFS
331
3D6
102
}
  0
ENDTAB
  0
ENDSEC
  0
SECTION
  2
BLOCKS
  0
BLOCK
  5
20
330
1F
100
AcDbEntity
  8
0
100
AcDbBlockBegin
  2
*Model_Space
 70
     0
 10
0.0
 20
0.0
 30
0.0
  3
*Model_Space
  1

  0
ENDBLK
  5
21
330
1F
100
AcDbEntity
  8
0
100
AcDbBlockEnd
  0
BLOCK
  5
1C
330
1B
100
AcDbEntity
 67
     1
  8
0
100
AcDbBlockBegin
  2
*Paper_Space
 70
     0
 10
0.0
 20
0.0
 30
0.0
  3
*Paper_Space
  1

  0
ENDBLK
  5
1D
330
1B
100
AcDbEntity
 67
     1
  8
0
100
AcDbBlockEnd
  0
BLOCK
  5
24
330
23
100
AcDbEntity
  8
0
100
AcDbBlockBegin
  2
*Paper_Space0
 70
     0
 10
0.0
 20
0.0
 30
0.0
  3
*Paper_Space0
  1

  0
ENDBLK
  5
25
330
23
100
AcDbEntity
  8
0
100
AcDbBlockEnd
  0
BLOCK
  5
AA
330
A9
100
AcDbEntity
  8
0
100
AcDbBlockBegin
  2
_OPEN30
 70
     0
 10
0.0
 20
0.0
 30
0.0
  3
_OPEN30
  1

  0
LINE
  5
AC
330
A9
100
AcDbEntity
  8
0
  6
ByBlock
 62
     0
370
    -2
100
AcDbLine
 10
-1.0
 20
0.267949
 30
0.0
 11
0.0
 21
0.0
 31
0.0
  0
LINE
  5
AD
330
A9
100
AcDbEntity
  8
0
  6
ByBlock
 62
     0
370
    -2
100
AcDbLine
 10
0.0
 20
0.0
 30
0.0
 11
-1.0
 21
-0.267949
 31
0.0
  0
LINE
  5
AE
330
A9
100
AcDbEntity
  8
0
  6
ByBlock
 62
     0
370
    -2
100
AcDbLine
 10
0.0
 20
0.0
 30
0.0
 11
-1.0
 21
0.0
 31
0.0
  0
ENDBLK
  5
AB
330
A9
100
AcDbEntity
  8
0
100
AcDbBlockEnd
  0
BLOCK
  5
B0
330
AF
100
AcDbEntity
  8
0
100
AcDbBlockBegin
  2
*D2
 70
     1
 10
0.0
 20
0.0
 30
0.0
  3
*D2
  1

  0
INSERT
  5
B2
330
AF
100
AcDbEntity
  8
SLD-0_0
100
AcDbBlockReference
  2
_OPEN30
 10
191.4896281008
 20
239.7397094876
 30
-29.9
 41
3.0
 42
3.0
 50
90.0
  0
INSERT
  5
B3
330
AF
100
AcDbEntity
  8
SLD-0_0
100
AcDbBlockReference
  2
_OPEN30
 10
191.4896281008
 20
179.7397094876
 30
-29.9
 41
3.0
 42
3.0
 50
270.0
  0
LINE
  5
B4
330
AF
100
AcDbEntity
  8
SLD-0_0
100
AcDbLine
 10
174.6749421601
 20
239.7397094876
 30
0.0
 11
192.4896281008
 21
239.7397094876
 31
0.0
  0
LINE
  5
B5
330
AF
100
AcDbEntity
  8
SLD-0_0
100
AcDbLine
 10
174.6749421601
 20
179.7397094876
 30
0.0
 11
192.4896281008
 21
179.7397094876
 31
0.0
  0
LINE
  5
B6
330
AF
100
AcDbEntity
  8
SLD-0_0
100
AcDbLine
 10
191.4896281008
 20
239.7397094876
 30
0.0
 11
191.4896281008
 21
179.7397094876
 31
0.0
  0
MTEXT
  5
B7
330
AF
100
AcDbEntity
  8
SLD-0_0
100
AcDbMText
 10
186.9778912444
 20
207.7045605941
 30
0.0
 40
3.5
 41
0.0
 71
     1
 72
     1
  1
60
  7
SLDTEXTSTYLE0
 11
-7.044195017643634E-15
 21
1.0
 31
0.0
 73
     1
 44
1.0
  0
ENDBLK
  5
B1
330
AF
100
AcDbEntity
  8
0
100
AcDbBlockEnd
  0
BLOCK
  5
BA
330
B9
100
AcDbEntity
  8
0
100
AcDbBlockBegin
  2
*D3
 70
     1
 10
0.0
 20
0.0
 30
0.0
  3
*D3
  1

  0
INSERT
  5
BC
330
B9
100
AcDbEntity
  8
SLD-0_0
100
AcDbBlockReference
  2
_OPEN30
 10
141.1749421601
 20
252.1654298819
 30
-29.9
 41
3.0
 42
3.0
 50
180.0
  0
INSERT
  5
BD
330
B9
100
AcDbEntity
  8
SLD-0_0
100
AcDbBlockReference
  2
_OPEN30
 10
161.1749421601
 20
252.1654298819
 30
-29.9
 41
3.0
 42
3.0
 50
360.0
  0
LINE
  5
BE
330
B9
100
AcDbEntity
  8
SLD-0_0
100
AcDbLine
 10
141.1749421601
 20
231.2397094876
 30
0.0
 11
141.1749421601
 21
253.1654298819
 31
0.0
  0
LINE
  5
BF
330
B9
100
AcDbEntity
  8
SLD-0_0
100
AcDbLine
 10
161.1749421601
 20
231.2397094876
 30
0.0
 11
161.1749421601
 21
253.1654298819
 31
0.0
  0
LINE
  5
C0
330
B9
100
AcDbEntity
  8
SLD-0_0
100
AcDbLine
 10
141.1749421601
 20
252.1654298819
 30
0.0
 11
161.1749421601
 21
252.1654298819
 31
0.0
  0
MTEXT
  5
C1
330
B9
100
AcDbEntity
  8
SLD-0_0
100
AcDbMText
 10
149.1397932666
 20
256.6771667383
 30
0.0
 40
3.5
 41
0.0
 71
     1
 72
     1
  1
20
  7
SLDTEXTSTYLE0
 73
     1
 44
1.0
  0
ENDBLK
  5
BB
330
B9
100
AcDbEntity
  8
0
100
AcDbBlockEnd
  0
BLOCK
  5
C5
330
C4
100
AcDbEntity
  8
0
100
AcDbBlockBegin
  2
*D4
 70
     1
 10
0.0
 20
0.0
 30
0.0
  3
*D4
  1

  0
INSERT
  5
C7
330
C4
100
AcDbEntity
  8
SLD-0_0
100
AcDbBlockReference
  2
_OPEN30
 10
161.1749421601
 20
252.1654298819
 30
-29.9
 41
3.0
 42
3.0
 50
0.0
  0
INSERT
  5
C8
330
C4
100
AcDbEntity
  8
SLD-0_0
100
AcDbBlockReference
  2
_OPEN30
 10
173.6749421601
 20
252.1654298819
 30
-29.9
 41
3.0
 42
3.0
 50
180.0
  0
LINE
  5
C9
330
C4
100
AcDbEntity
  8
SLD-0_0
100
AcDbLine
 10
161.1749421601
 20
231.2397094876
 30
0.0
 11
161.1749421601
 21
253.1654298819
 31
0.0
  0
LINE
  5
CA
330
C4
100
AcDbEntity
  8
SLD-0_0
100
AcDbLine
 10
173.6749421601
 20
240.7397094876
 30
0.0
 11
173.6749421601
 21
253.1654298819
 31
0.0
  0
LINE
  5
CB
330
C4
100
AcDbEntity
  8
SLD-0_0
100
AcDbLine
 10
161.1749421601
 20
252.1654298819
 30
0.0
 11
156.1749421601
 21
252.1654298819
 31
0.0
  0
LINE
  5
CC
330
C4
100
AcDbEntity
  8
SLD-0_0
100
AcDbLine
 10
161.1749421601
 20
252.1654298819
 30
0.0
 11
173.6749421601
 21
252.1654298819
 31
0.0
  0
LINE
  5
CD
330
C4
100
AcDbEntity
  8
SLD-0_0
100
AcDbLine
 10
173.6749421601
 20
252.1654298819
 30
0.0
 11
178.6749421601
 21
252.1654298819
 31
0.0
  0
MTEXT
  5
CE
330
C4
100
AcDbEntity
  8
SLD-0_0
100
AcDbMText
 10
163.3521503181
 20
256.6771667383
 30
0.0
 40
3.5
 41
0.0
 71
     1
 72
     1
  1
12.5
  7
SLDTEXTSTYLE0
 73
     1
 44
1.0
  0
ENDBLK
  5
C6
330
C4
100
AcDbEntity
  8
0
100
AcDbBlockEnd
  0
BLOCK
  5
D1
330
D0
100
AcDbEntity
  8
0
100
AcDbBlockBegin
  2
*D5
 70
     1
 10
0.0
 20
0.0
 30
0.0
  3
*D5
  1

  0
INSERT
  5
D3
330
D0
100
AcDbEntity
  8
SLD-0_0
100
AcDbBlockReference
  2
_OPEN30
 10
173.6749421601
 20
264.5905843004
 30
-29.9
 41
3.0
 42
3.0
 50
0.0
  0
INSERT
  5
D4
330
D0
100
AcDbEntity
  8
SLD-0_0
100
AcDbBlockReference
  2
_OPEN30
 10
133.6749421601
 20
264.5905843004
 30
-29.9
 41
3.0
 42
3.0
 50
180.0
  0
LINE
  5
D5
330
D0
100
AcDbEntity
  8
SLD-0_0
100
AcDbLine
 10
173.6749421601
 20
240.7397094876
 30
0.0
 11
173.6749421601
 21
265.5905843004
 31
0.0
  0
LINE
  5
D6
330
D0
100
AcDbEntity
  8
SLD-0_0
100
AcDbLine
 10
133.6749421601
 20
235.7397094876
 30
0.0
 11
133.6749421601
 21
265.5905843004
 31
0.0
  0
LINE
  5
D7
330
D0
100
AcDbEntity
  8
SLD-0_0
100
AcDbLine
 10
173.6749421601
 20
264.5905843004
 30
0.0
 11
133.6749421601
 21
264.5905843004
 31
0.0
  0
MTEXT
  5
D8
330
D0
100
AcDbEntity
  8
SLD-0_0
100
AcDbMText
 10
151.6397932666
 20
269.1023211568
 30
0.0
 40
3.5
 41
0.0
 71
     1
 72
     1
  1
40
  7
SLDTEXTSTYLE0
 73
     1
 44
1.0
  0
ENDBLK
  5
D2
330
D0
100
AcDbEntity
  8
0
100
AcDbBlockEnd
  0
BLOCK
  5
DB
330
DA
100
AcDbEntity
  8
0
100
AcDbBlockBegin
  2
*D6
 70
     1
 10
0.0
 20
0.0
 30
0.0
  3
*D6
  1

  0
ARC
  5
DD
330
DA
100
AcDbEntity
  8
SLD-0_0
100
AcDbCircle
 10
109.6397932666
 20
232.6873583811
 30
0.0
 40
4.550731270185872
100
AcDbArc
 50
243.4349488229
 51
296.5650511771
  0
ARC
  5
DE
330
DA
100
AcDbEntity
  8
SLD-0_0
100
AcDbCircle
 10
109.6397932666
 20
231.7920605941
 30
0.0
 40
4.550731270185858
100
AcDbArc
 50
63.4349488229
 51
116.5650511771
  0
INSERT
  5
DF
330
DA
100
AcDbEntity
  8
SLD-0_0
100
AcDbBlockReference
  2
_OPEN30
 10
111.6749421601
 20
239.7397094876
 30
-29.9
 41
3.0
 42
3.0
 50
270.0
  0
INSERT
  5
E0
330
DA
100
AcDbEntity
  8
SLD-0_0
100
AcDbBlockReference
  2
_OPEN30
 10
111.6749421601
 20
224.7397094876
 30
-29.9
 41
3.0
 42
3.0
 50
90.0
  0
LINE
  5
E1
330
DA
100
AcDbEntity
  8
SLD-0_0
100
AcDbLine
 10
137.6749421601
 20
239.7397094876
 30
0.0
 11
110.6749421601
 21
239.7397094876
 31
0.0
  0
LINE
  5
E2
330
DA
100
AcDbEntity
  8
SLD-0_0
100
AcDbLine
 10
154.6749421601
 20
224.7397094876
 30
0.0
 11
110.6749421601
 21
224.7397094876
 31
0.0
  0
LINE
  5
E3
330
DA
100
AcDbEntity
  8
SLD-0_0
100
AcDbLine
 10
111.6749421601
 20
239.7397094876
 30
0.0
 11
111.6749421601
 21
244.7397094876
 31
0.0
  0
LINE
  5
E4
330
DA
100
AcDbEntity
  8
SLD-0_0
100
AcDbLine
 10
111.6749421601
 20
239.7397094876
 30
0.0
 11
111.6749421601
 21
224.7397094876
 31
0.0
  0
LINE
  5
E5
330
DA
100
AcDbEntity
  8
SLD-0_0
100
AcDbLine
 10
111.6749421601
 20
224.7397094876
 30
0.0
 11
111.6749421601
 21
219.7397094876
 31
0.0
  0
MTEXT
  5
E6
330
DA
100
AcDbEntity
  8
SLD-0_0
100
AcDbMText
 10
107.1632053037
 20
230.2045605941
 30
0.0
 40
3.5
 41
0.0
 71
     1
 72
     1
  1
15
  7
SLDTEXTSTYLE0
 11
-7.044195017643634E-15
 21
1.0
 31
0.0
 73
     1
 44
1.0
  0
ENDBLK
  5
DC
330
DA
100
AcDbEntity
  8
0
100
AcDbBlockEnd
  0
BLOCK
  5
E9
330
E8
100
AcDbEntity
  8
0
100
AcDbBlockBegin
  2
*D7
 70
     1
 10
0.0
 20
0.0
 30
0.0
  3
*D7
  1

  0
INSERT
  5
EB
330
E8
100
AcDbEntity
  8
SLD-0_0
100
AcDbBlockReference
  2
_OPEN30
 10
123.6749421601
 20
227.7397094876
 30
-29.9
 41
3.0
 42
3.0
 50
270.0
  0
INSERT
  5
EC
330
E8
100
AcDbEntity
  8
SLD-0_0
100
AcDbBlockReference
  2
_OPEN30
 10
123.6749421601
 20
221.7397094876
 30
-29.9
 41
3.0
 42
3.0
 50
90.0
  0
LINE
  5
ED
330
E8
100
AcDbEntity
  8
SLD-0_0
100
AcDbLine
 10
140.1749421601
 20
227.7397094876
 30
0.0
 11
122.6749421601
 21
227.7397094876
 31
0.0
  0
LINE
  5
EE
330
E8
100
AcDbEntity
  8
SLD-0_0
100
AcDbLine
 10
140.1749421601
 20
221.7397094876
 30
0.0
 11
122.6749421601
 21
221.7397094876
 31
0.0
  0
LINE
  5
EF
330
E8
100
AcDbEntity
  8
SLD-0_0
100
AcDbLine
 10
123.6749421601
 20
227.7397094876
 30
0.0
 11
123.6749421601
 21
232.7397094876
 31
0.0
  0
LINE
  5
F0
330
E8
100
AcDbEntity
  8
SLD-0_0
100
AcDbLine
 10
123.6749421601
 20
227.7397094876
 30
0.0
 11
123.6749421601
 21
221.7397094876
 31
0.0
  0
LINE
  5
F1
330
E8
100
AcDbEntity
  8
SLD-0_0
100
AcDbLine
 10
123.6749421601
 20
221.7397094876
 30
0.0
 11
123.6749421601
 21
211.2494626449
 31
0.0
  0
MTEXT
  5
F2
330
E8
100
AcDbEntity
  8
SLD-0_0
100
AcDbMText
 10
119.1632053037
 20
212.8369626449
 30
0.0
 40
3.5
 41
0.0
 71
     1
 72
     1
  1
6
  7
SLDTEXTSTYLE0
 11
-7.044195017643634E-15
 21
1.0
 31
0.0
 73
     1
 44
1.0
  0
ENDBLK
  5
EA
330
E8
100
AcDbEntity
  8
0
100
AcDbBlockEnd
  0
BLOCK
  5
F5
330
F4
100
AcDbEntity
  8
0
100
AcDbBlockBegin
  2
*D8
 70
     1
 10
0.0
 20
0.0
 30
0.0
  3
*D8
  1

  0
INSERT
  5
F7
330
F4
100
AcDbEntity
  8
SLD-0_0
100
AcDbBlockReference
  2
_OPEN30
 10
111.6749421601
 20
224.7397094876
 30
-29.9
 41
3.0
 42
3.0
 50
90.0
  0
INSERT
  5
F8
330
F4
100
AcDbEntity
  8
SLD-0_0
100
AcDbBlockReference
  2
_OPEN30
 10
111.6749421601
 20
194.7397094876
 30
-29.9
 41
3.0
 42
3.0
 50
270.0
  0
LINE
  5
F9
330
F4
100
AcDbEntity
  8
SLD-0_0
100
AcDbLine
 10
145.6749421601
 20
224.7397094876
 30
0.0
 11
110.6749421601
 21
224.7397094876
 31
0.0
  0
LINE
  5
FA
330
F4
100
AcDbEntity
  8
SLD-0_0
100
AcDbLine
 10
145.6749421601
 20
194.7397094876
 30
0.0
 11
110.6749421601
 21
194.7397094876
 31
0.0
  0
LINE
  5
FB
330
F4
100
AcDbEntity
  8
SLD-0_0
100
AcDbLine
 10
111.6749421601
 20
224.7397094876
 30
0.0
 11
111.6749421601
 21
194.7397094876
 31
0.0
  0
MTEXT
  5
FC
330
F4
100
AcDbEntity
  8
SLD-0_0
100
AcDbMText
 10
107.1632053037
 20
207.7045605941
 30
0.0
 40
3.5
 41
0.0
 71
     1
 72
     1
  1
30
  7
SLDTEXTSTYLE0
 11
-7.932373437343760E-15
 21
1.0
 31
0.0
 73
     1
 44
1.0
  0
ENDBLK
  5
F6
330
F4
100
AcDbEntity
  8
0
100
AcDbBlockEnd
  0
BLOCK
  5
FF
330
FE
100
AcDbEntity
  8
0
100
AcDbBlockBegin
  2
*D9
 70
     1
 10
0.0
 20
0.0
 30
0.0
  3
*D9
  1

  0
INSERT
  5
101
330
FE
100
AcDbEntity
  8
SLD-0_0
100
AcDbBlockReference
  2
_OPEN30
 10
111.6749421601
 20
194.7397094876
 30
-29.9
 41
3.0
 42
3.0
 50
270.0
  0
INSERT
  5
102
330
FE
100
AcDbEntity
  8
SLD-0_0
100
AcDbBlockReference
  2
_OPEN30
 10
111.6749421601
 20
179.7397094876
 30
-29.9
 41
3.0
 42
3.0
 50
90.0
  0
LINE
  5
103
330
FE
100
AcDbEntity
  8
SLD-0_0
100
AcDbLine
 10
145.6749421601
 20
194.7397094876
 30
0.0
 11
110.6749421601
 21
194.7397094876
 31
0.0
  0
LINE
  5
104
330
FE
100
AcDbEntity
  8
SLD-0_0
100
AcDbLine
 10
137.6749421601
 20
179.7397094876
 30
0.0
 11
110.6749421601
 21
179.7397094876
 31
0.0
  0
LINE
  5
105
330
FE
100
AcDbEntity
  8
SLD-0_0
100
AcDbLine
 10
111.6749421601
 20
194.7397094876
 30
0.0
 11
111.6749421601
 21
199.7397094876
 31
0.0
  0
LINE
  5
106
330
FE
100
AcDbEntity
  8
SLD-0_0
100
AcDbLine
 10
111.6749421601
 20
194.7397094876
 30
0.0
 11
111.6749421601
 21
179.7397094876
 31
0.0
  0
LINE
  5
107
330
FE
100
AcDbEntity
  8
SLD-0_0
100
AcDbLine
 10
111.6749421601
 20
179.7397094876
 30
0.0
 11
111.6749421601
 21
174.7397094876
 31
0.0
  0
MTEXT
  5
108
330
FE
100
AcDbEntity
  8
SLD-0_0
100
AcDbMText
 10
107.1632053037
 20
185.2045605941
 30
0.0
 40
3.5
 41
0.0
 71
     1
 72
     1
  1
15
  7
SLDTEXTSTYLE0
 11
-7.044195017643634E-15
 21
1.0
 31
0.0
 73
     1
 44
1.0
  0
ENDBLK
  5
100
330
FE
100
AcDbEntity
  8
0
100
AcDbBlockEnd
  0
BLOCK
  5
10B
330
10A
100
AcDbEntity
  8
0
100
AcDbBlockBegin
  2
*D10
 70
     1
 10
0.0
 20
0.0
 30
0.0
  3
*D10
  1

  0
ARC
  5
10D
330
10A
100
AcDbEntity
  8
SLD-0_0
100
AcDbCircle
 10
125.9464992343
 20
254.2005787754
 30
0.0
 40
4.550731270185795
100
AcDbArc
 50
153.4349488229
 51
206.5650511771
  0
ARC
  5
10E
330
10A
100
AcDbEntity
  8
SLD-0_0
100
AcDbCircle
 10
127.0863503408
 20
254.2005787754
 30
0.0
 40
4.550731270185795
100
AcDbArc
 50
333.4349488229
 51
26.5650511771
  0
INSERT
  5
10F
330
10A
100
AcDbEntity
  8
SLD-0_0
100
AcDbBlockReference
  2
_OPEN30
 10
141.1749421601
 20
252.1654298819
 30
-29.9
 41
3.0
 42
3.0
 50
0.0
  0
INSERT
  5
110
330
10A
100
AcDbEntity
  8
SLD-0_0
100
AcDbBlockReference
  2
_OPEN30
 10
133.6749421601
 20
252.1654298819
 30
-29.9
 41
3.0
 42
3.0
 50
180.0
  0
LINE
  5
111
330
10A
100
AcDbEntity
  8
SLD-0_0
100
AcDbLine
 10
141.1749421601
 20
231.2397094876
 30
0.0
 11
141.1749421601
 21
253.1654298819
 31
0.0
  0
LINE
  5
112
330
10A
100
AcDbEntity
  8
SLD-0_0
100
AcDbLine
 10
133.6749421601
 20
235.7397094876
 30
0.0
 11
133.6749421601
 21
253.1654298819
 31
0.0
  0
LINE
  5
113
330
10A
100
AcDbEntity
  8
SLD-0_0
100
AcDbLine
 10
141.1749421601
 20
252.1654298819
 30
0.0
 11
133.6749421601
 21
252.1654298819
 31
0.0
  0
LINE
  5
114
330
10A
100
AcDbEntity
  8
SLD-0_0
100
AcDbLine
 10
133.6749421601
 20
252.1654298819
 30
0.0
 11
120.2887014473
 21
252.1654298819
 31
0.0
  0
MTEXT
  5
115
330
10A
100
AcDbEntity
  8
SLD-0_0
100
AcDbMText
 10
123.4637014473
 20
256.6771667383
 30
0.0
 40
3.5
 41
0.0
 71
     1
 72
     1
  1
7.5
  7
SLDTEXTSTYLE0
 73
     1
 44
1.0
  0
ENDBLK
  5
10C
330
10A
100
AcDbEntity
  8
0
100
AcDbBlockEnd
  0
BLOCK
  5
118
330
117
100
AcDbEntity
  8
0
100
AcDbBlockBegin
  2
*D11
 70
     1
 10
0.0
 20
0.0
 30
0.0
  3
*D11
  1

  0
INSERT
  5
11A
330
117
100
AcDbEntity
  8
SLD-0_0
100
AcDbBlockReference
  2
_OPEN30
 10
228.6038364578
 20
239.7397094876
 30
-29.9
 41
3.0
 42
3.0
 50
90.0
  0
INSERT
  5
11B
330
117
100
AcDbEntity
  8
SLD-0_0
100
AcDbBlockReference
  2
_OPEN30
 10
228.6038364578
 20
179.7397094876
 30
-29.9
 41
3.0
 42
3.0
 50
270.0
  0
LINE
  5
11C
330
117
100
AcDbEntity
  8
SLD-0_0
100
AcDbLine
 10
242.6749421601
 20
239.7397094876
 30
0.0
 11
227.6038364578
 21
239.7397094876
 31
0.0
  0
LINE
  5
11D
330
117
100
AcDbEntity
  8
SLD-0_0
100
AcDbLine
 10
242.6749421601
 20
179.7397094876
 30
0.0
 11
227.6038364578
 21
179.7397094876
 31
0.0
  0
LINE
  5
11E
330
117
100
AcDbEntity
  8
SLD-0_0
100
AcDbLine
 10
228.6038364578
 20
239.7397094876
 30
0.0
 11
228.6038364578
 21
179.7397094876
 31
0.0
  0
MTEXT
  5
11F
330
117
100
AcDbEntity
  8
SLD-0_0
100
AcDbMText
 10
224.0920996015
 20
207.7045605941
 30
0.0
 40
3.5
 41
0.0
 71
     1
 72
     1
  1
60
  7
SLDTEXTSTYLE0
 11
-7.044195017643634E-15
 21
1.0
 31
0.0
 73
     1
 44
1.0
  0
ENDBLK
  5
119
330
117
100
AcDbEntity
  8
0
100
AcDbBlockEnd
  0
BLOCK
  5
122
330
121
100
AcDbEntity
  8
0
100
AcDbBlockBegin
  2
*D12
 70
     1
 10
0.0
 20
0.0
 30
0.0
  3
*D12
  1

  0
INSERT
  5
124
330
121
100
AcDbEntity
  8
SLD-0_0
100
AcDbBlockReference
  2
_OPEN30
 10
303.0571604831
 20
224.7397094876
 30
-29.9
 41
3.0
 42
3.0
 50
90.0
  0
INSERT
  5
125
330
121
100
AcDbEntity
  8
SLD-0_0
100
AcDbBlockReference
  2
_OPEN30
 10
303.0571604831
 20
194.7397094876
 30
-29.9
 41
3.0
 42
3.0
 50
270.0
  0
LINE
  5
126
330
121
100
AcDbEntity
  8
SLD-0_0
100
AcDbLine
 10
271.6749421601
 20
224.7397094876
 30
0.0
 11
304.0571604831
 21
224.7397094876
 31
0.0
  0
LINE
  5
127
330
121
100
AcDbEntity
  8
SLD-0_0
100
AcDbLine
 10
271.6749421601
 20
194.7397094876
 30
0.0
 11
304.0571604831
 21
194.7397094876
 31
0.0
  0
LINE
  5
128
330
121
100
AcDbEntity
  8
SLD-0_0
100
AcDbLine
 10
303.0571604831
 20
224.7397094876
 30
0.0
 11
303.0571604831
 21
194.7397094876
 31
0.0
  0
MTEXT
  5
129
330
121
100
AcDbEntity
  8
SLD-0_0
100
AcDbMText
 10
298.5454236268
 20
207.7045605941
 30
0.0
 40
3.5
 41
0.0
 71
     1
 72
     1
  1
30
  7
SLDTEXTSTYLE0
 11
-7.044195017643634E-15
 21
1.0
 31
0.0
 73
     1
 44
1.0
  0
ENDBLK
  5
123
330
121
100
AcDbEntity
  8
0
100
AcDbBlockEnd
  0
BLOCK
  5
12C
330
12B
100
AcDbEntity
  8
0
100
AcDbBlockBegin
  2
*D13
 70
     1
 10
0.0
 20
0.0
 30
0.0
  3
*D13
  1

  0
ARC
  5
12E
330
12B
100
AcDbEntity
  8
SLD-0_0
100
AcDbCircle
 10
301.0220115896
 20
232.6873583811
 30
0.0
 40
4.550731270185935
100
AcDbArc
 50
243.4349488229
 51
296.5650511771
  0
ARC
  5
12F
330
12B
100
AcDbEntity
  8
SLD-0_0
100
AcDbCircle
 10
301.0220115896
 20
231.7920605941
 30
0.0
 40
4.550731270185884
100
AcDbArc
 50
63.4349488229
 51
116.5650511771
  0
INSERT
  5
130
330
12B
100
AcDbEntity
  8
SLD-0_0
100
AcDbBlockReference
  2
_OPEN30
 10
303.0571604831
 20
224.7397094876
 30
-29.9
 41
3.0
 42
3.0
 50
90.0
  0
INSERT
  5
131
330
12B
100
AcDbEntity
  8
SLD-0_0
100
AcDbBlockReference
  2
_OPEN30
 10
303.0571604831
 20
239.7397094876
 30
-29.9
 41
3.0
 42
3.0
 50
270.0
  0
LINE
  5
132
330
12B
100
AcDbEntity
  8
SLD-0_0
100
AcDbLine
 10
271.6749421601
 20
224.7397094876
 30
0.0
 11
304.0571604831
 21
224.7397094876
 31
0.0
  0
LINE
  5
133
330
12B
100
AcDbEntity
  8
SLD-0_0
100
AcDbLine
 10
279.6749421601
 20
239.7397094876
 30
0.0
 11
304.0571604831
 21
239.7397094876
 31
0.0
  0
LINE
  5
134
330
12B
100
AcDbEntity
  8
SLD-0_0
100
AcDbLine
 10
303.0571604831
 20
224.7397094876
 30
0.0
 11
303.0571604831
 21
219.7397094876
 31
0.0
  0
LINE
  5
135
330
12B
100
AcDbEntity
  8
SLD-0_0
100
AcDbLine
 10
303.0571604831
 20
224.7397094876
 30
0.0
 11
303.0571604831
 21
239.7397094876
 31
0.0
  0
LINE
  5
136
330
12B
100
AcDbEntity
  8
SLD-0_0
100
AcDbLine
 10
303.0571604831
 20
239.7397094876
 30
0.0
 11
303.0571604831
 21
244.7397094876
 31
0.0
  0
MTEXT
  5
137
330
12B
100
AcDbEntity
  8
SLD-0_0
100
AcDbMText
 10
298.5454236268
 20
230.2045605941
 30
0.0
 40
3.5
 41
0.0
 71
     1
 72
     1
  1
15
  7
SLDTEXTSTYLE0
 11
-1.608122649676637E-16
 21
1.0
 31
0.0
 73
     1
 44
1.0
  0
ENDBLK
  5
12D
330
12B
100
AcDbEntity
  8
0
100
AcDbBlockEnd
  0
BLOCK
  5
13A
330
139
100
AcDbEntity
  8
0
100
AcDbBlockBegin
  2
*D14
 70
     1
 10
0.0
 20
0.0
 30
0.0
  3
*D14
  1

  0
INSERT
  5
13C
330
139
100
AcDbEntity
  8
SLD-0_0
100
AcDbBlockReference
  2
_OPEN30
 10
303.0571604831
 20
194.7397094876
 30
-29.9
 41
3.0
 42
3.0
 50
270.0
  0
INSERT
  5
13D
330
139
100
AcDbEntity
  8
SLD-0_0
100
AcDbBlockReference
  2
_OPEN30
 10
303.0571604831
 20
179.7397094876
 30
-29.9
 41
3.0
 42
3.0
 50
90.0
  0
LINE
  5
13E
330
139
100
AcDbEntity
  8
SLD-0_0
100
AcDbLine
 10
271.6749421601
 20
194.7397094876
 30
0.0
 11
304.0571604831
 21
194.7397094876
 31
0.0
  0
LINE
  5
13F
330
139
100
AcDbEntity
  8
SLD-0_0
100
AcDbLine
 10
279.6749421601
 20
179.7397094876
 30
0.0
 11
304.0571604831
 21
179.7397094876
 31
0.0
  0
LINE
  5
140
330
139
100
AcDbEntity
  8
SLD-0_0
100
AcDbLine
 10
303.0571604831
 20
194.7397094876
 30
0.0
 11
303.0571604831
 21
199.7397094876
 31
0.0
  0
LINE
  5
141
330
139
100
AcDbEntity
  8
SLD-0_0
100
AcDbLine
 10
303.0571604831
 20
194.7397094876
 30
0.0
 11
303.0571604831
 21
179.7397094876
 31
0.0
  0
LINE
  5
142
330
139
100
AcDbEntity
  8
SLD-0_0
100
AcDbLine
 10
303.0571604831
 20
179.7397094876
 30
0.0
 11
303.0571604831
 21
174.7397094876
 31
0.0
  0
MTEXT
  5
143
330
139
100
AcDbEntity
  8
SLD-0_0
100
AcDbMText
 10
298.5454236268
 20
185.2045605941
 30
0.0
 40
3.5
 41
0.0
 71
     1
 72
     1
  1
15
  7
SLDTEXTSTYLE0
 11
-7.044195017643634E-15
 21
1.0
 31
0.0
 73
     1
 44
1.0
  0
ENDBLK
  5
13B
330
139
100
AcDbEntity
  8
0
100
AcDbBlockEnd
  0
BLOCK
  5
146
330
145
100
AcDbEntity
  8
0
100
AcDbBlockBegin
  2
*D15
 70
     1
 10
0.0
 20
0.0
 30
0.0
  3
*D15
  1

  0
INSERT
  5
148
330
145
100
AcDbEntity
  8
SLD-0_0
100
AcDbBlockReference
  2
_OPEN30
 10
243.6749421601
 20
252.1654298819
 30
-29.9
 41
3.0
 42
3.0
 50
0.0
  0
INSERT
  5
149
330
145
100
AcDbEntity
  8
SLD-0_0
100
AcDbBlockReference
  2
_OPEN30
 10
256.1749421601
 20
252.1654298819
 30
-29.9
 41
3.0
 42
3.0
 50
180.0
  0
LINE
  5
14A
330
145
100
AcDbEntity
  8
SLD-0_0
100
AcDbLine
 10
243.6749421601
 20
240.7397094876
 30
0.0
 11
243.6749421601
 21
253.1654298819
 31
0.0
  0
LINE
  5
14B
330
145
100
AcDbEntity
  8
SLD-0_0
100
AcDbLine
 10
256.1749421601
 20
231.2397094876
 30
0.0
 11
256.1749421601
 21
253.1654298819
 31
0.0
  0
LINE
  5
14C
330
145
100
AcDbEntity
  8
SLD-0_0
100
AcDbLine
 10
243.6749421601
 20
252.1654298819
 30
0.0
 11
238.6749421601
 21
252.1654298819
 31
0.0
  0
LINE
  5
14D
330
145
100
AcDbEntity
  8
SLD-0_0
100
AcDbLine
 10
243.6749421601
 20
252.1654298819
 30
0.0
 11
256.1749421601
 21
252.1654298819
 31
0.0
  0
LINE
  5
14E
330
145
100
AcDbEntity
  8
SLD-0_0
100
AcDbLine
 10
256.1749421601
 20
252.1654298819
 30
0.0
 11
261.1749421601
 21
252.1654298819
 31
0.0
  0
MTEXT
  5
14F
330
145
100
AcDbEntity
  8
SLD-0_0
100
AcDbMText
 10
245.8521503181
 20
256.6771667383
 30
0.0
 40
3.5
 41
0.0
 71
     1
 72
     1
  1
12.5
  7
SLDTEXTSTYLE0
 73
     1
 44
1.0
  0
ENDBLK
  5
147
330
145
100
AcDbEntity
  8
0
100
AcDbBlockEnd
  0
BLOCK
  5
152
330
151
100
AcDbEntity
  8
0
100
AcDbBlockBegin
  2
*D16
 70
     1
 10
0.0
 20
0.0
 30
0.0
  3
*D16
  1

  0
INSERT
  5
154
330
151
100
AcDbEntity
  8
SLD-0_0
100
AcDbBlockReference
  2
_OPEN30
 10
256.1749421601
 20
252.1654298819
 30
-29.9
 41
3.0
 42
3.0
 50
180.0
  0
INSERT
  5
155
330
151
100
AcDbEntity
  8
SLD-0_0
100
AcDbBlockReference
  2
_OPEN30
 10
276.1749421601
 20
252.1654298819
 30
-29.9
 41
3.0
 42
3.0
 50
360.0
  0
LINE
  5
156
330
151
100
AcDbEntity
  8
SLD-0_0
100
AcDbLine
 10
256.1749421601
 20
231.2397094876
 30
0.0
 11
256.1749421601
 21
253.1654298819
 31
0.0
  0
LINE
  5
157
330
151
100
AcDbEntity
  8
SLD-0_0
100
AcDbLine
 10
276.1749421601
 20
231.2397094876
 30
0.0
 11
276.1749421601
 21
253.1654298819
 31
0.0
  0
LINE
  5
158
330
151
100
AcDbEntity
  8
SLD-0_0
100
AcDbLine
 10
256.1749421601
 20
252.1654298819
 30
0.0
 11
276.1749421601
 21
252.1654298819
 31
0.0
  0
MTEXT
  5
159
330
151
100
AcDbEntity
  8
SLD-0_0
100
AcDbMText
 10
264.1397932666
 20
256.6771667383
 30
0.0
 40
3.5
 41
0.0
 71
     1
 72
     1
  1
20
  7
SLDTEXTSTYLE0
 73
     1
 44
1.0
  0
ENDBLK
  5
153
330
151
100
AcDbEntity
  8
0
100
AcDbBlockEnd
  0
BLOCK
  5
15C
330
15B
100
AcDbEntity
  8
0
100
AcDbBlockBegin
  2
*D17
 70
     1
 10
0.0
 20
0.0
 30
0.0
  3
*D17
  1

  0
ARC
  5
15E
330
15B
100
AcDbEntity
  8
SLD-0_0
100
AcDbCircle
 10
290.3209378951
 20
254.2005787754
 30
0.0
 40
4.550731270185834
100
AcDbArc
 50
153.4349488229
 51
206.5650511771
  0
ARC
  5
15F
330
15B
100
AcDbEntity
  8
SLD-0_0
100
AcDbCircle
 10
291.4607890016
 20
254.2005787754
 30
0.0
 40
4.550731270185834
100
AcDbArc
 50
333.4349488229
 51
26.5650511771
  0
INSERT
  5
160
330
15B
100
AcDbEntity
  8
SLD-0_0
100
AcDbBlockReference
  2
_OPEN30
 10
276.1749421601
 20
252.1654298819
 30
-29.9
 41
3.0
 42
3.0
 50
0.0
  0
INSERT
  5
161
330
15B
100
AcDbEntity
  8
SLD-0_0
100
AcDbBlockReference
  2
_OPEN30
 10
283.6749421601
 20
252.1654298819
 30
-29.9
 41
3.0
 42
3.0
 50
180.0
  0
LINE
  5
162
330
15B
100
AcDbEntity
  8
SLD-0_0
100
AcDbLine
 10
276.1749421601
 20
231.2397094876
 30
0.0
 11
276.1749421601
 21
253.1654298819
 31
0.0
  0
LINE
  5
163
330
15B
100
AcDbEntity
  8
SLD-0_0
100
AcDbLine
 10
283.6749421601
 20
235.7397094876
 30
0.0
 11
283.6749421601
 21
253.1654298819
 31
0.0
  0
LINE
  5
164
330
15B
100
AcDbEntity
  8
SLD-0_0
100
AcDbLine
 10
276.1749421601
 20
252.1654298819
 30
0.0
 11
271.1749421601
 21
252.1654298819
 31
0.0
  0
LINE
  5
165
330
15B
100
AcDbEntity
  8
SLD-0_0
100
AcDbLine
 10
276.1749421601
 20
252.1654298819
 30
0.0
 11
283.6749421601
 21
252.1654298819
 31
0.0
  0
LINE
  5
166
330
15B
100
AcDbEntity
  8
SLD-0_0
100
AcDbLine
 10
283.6749421601
 20
252.1654298819
 30
0.0
 11
297.1185867886
 21
252.1654298819
 31
0.0
  0
MTEXT
  5
167
330
15B
100
AcDbEntity
  8
SLD-0_0
100
AcDbMText
 10
287.8381401082
 20
256.6771667383
 30
0.0
 40
3.5
 41
0.0
 71
     1
 72
     1
  1
7.5
  7
SLDTEXTSTYLE0
 73
     1
 44
1.0
  0
ENDBLK
  5
15D
330
15B
100
AcDbEntity
  8
0
100
AcDbBlockEnd
  0
BLOCK
  5
16A
330
169
100
AcDbEntity
  8
0
100
AcDbBlockBegin
  2
*D18
 70
     1
 10
0.0
 20
0.0
 30
0.0
  3
*D18
  1

  0
INSERT
  5
16C
330
169
100
AcDbEntity
  8
SLD-0_0
100
AcDbBlockReference
  2
_OPEN30
 10
243.6749421601
 20
264.5905843004
 30
-29.9
 41
3.0
 42
3.0
 50
180.0
  0
INSERT
  5
16D
330
169
100
AcDbEntity
  8
SLD-0_0
100
AcDbBlockReference
  2
_OPEN30
 10
283.6749421601
 20
264.5905843004
 30
-29.9
 41
3.0
 42
3.0
 50
0.0
  0
LINE
  5
16E
330
169
100
AcDbEntity
  8
SLD-0_0
100
AcDbLine
 10
243.6749421601
 20
240.7397094876
 30
0.0
 11
243.6749421601
 21
265.5905843004
 31
0.0
  0
LINE
  5
16F
330
169
100
AcDbEntity
  8
SLD-0_0
100
AcDbLine
 10
283.6749421601
 20
235.7397094876
 30
0.0
 11
283.6749421601
 21
265.5905843004
 31
0.0
  0
LINE
  5
170
330
169
100
AcDbEntity
  8
SLD-0_0
100
AcDbLine
 10
243.6749421601
 20
264.5905843004
 30
0.0
 11
283.6749421601
 21
264.5905843004
 31
0.0
  0
MTEXT
  5
171
330
169
100
AcDbEntity
  8
SLD-0_0
100
AcDbMText
 10
261.6397932666
 20
269.1023211568
 30
0.0
 40
3.5
 41
0.0
 71
     1
 72
     1
  1
40
  7
SLDTEXTSTYLE0
 73
     1
 44
1.0
  0
ENDBLK
  5
16B
330
169
100
AcDbEntity
  8
0
100
AcDbBlockEnd
  0
BLOCK
  5
174
330
173
100
AcDbEntity
  8
0
100
AcDbBlockBegin
  2
*D19
 70
     1
 10
0.0
 20
0.0
 30
0.0
  3
*D19
  1

  0
INSERT
  5
176
330
173
100
AcDbEntity
  8
SLD-0_0
100
AcDbBlockReference
  2
_OPEN30
 10
290.8908634484
 20
221.7397094876
 30
-29.9
 41
3.0
 42
3.0
 50
90.0
  0
INSERT
  5
177
330
173
100
AcDbEntity
  8
SLD-0_0
100
AcDbBlockReference
  2
_OPEN30
 10
290.8908634484
 20
227.7397094876
 30
-29.9
 41
3.0
 42
3.0
 50
270.0
  0
LINE
  5
178
330
173
100
AcDbEntity
  8
SLD-0_0
100
AcDbLine
 10
277.1749421601
 20
221.7397094876
 30
0.0
 11
291.8908634484
 21
221.7397094876
 31
0.0
  0
LINE
  5
179
330
173
100
AcDbEntity
  8
SLD-0_0
100
AcDbLine
 10
277.1749421601
 20
227.7397094876
 30
0.0
 11
291.8908634484
 21
227.7397094876
 31
0.0
  0
LINE
  5
17A
330
173
100
AcDbEntity
  8
SLD-0_0
100
AcDbLine
 10
290.8908634484
 20
221.7397094876
 30
0.0
 11
290.8908634484
 21
211.7961589588
 31
0.0
  0
LINE
  5
17B
330
173
100
AcDbEntity
  8
SLD-0_0
100
AcDbLine
 10
290.8908634484
 20
221.7397094876
 30
0.0
 11
290.8908634484
 21
227.7397094876
 31
0.0
  0
LINE
  5
17C
330
173
100
AcDbEntity
  8
SLD-0_0
100
AcDbLine
 10
290.8908634484
 20
227.7397094876
 30
0.0
 11
290.8908634484
 21
232.7397094876
 31
0.0
  0
MTEXT
  5
17D
330
173
100
AcDbEntity
  8
SLD-0_0
100
AcDbMText
 10
286.379126592
 20
213.3836589588
 30
0.0
 40
3.5
 41
0.0
 71
     1
 72
     1
  1
6
  7
SLDTEXTSTYLE0
 11
6.123233995736766E-17
 21
1.0
 31
0.0
 73
     1
 44
1.0
  0
ENDBLK
  5
175
330
173
100
AcDbEntity
  8
0
100
AcDbBlockEnd
  0
BLOCK
  5
17F
330
17E
100
AcDbEntity
  8
0
100
AcDbBlockBegin
  2
SW_CENTERMARKSYMBOL_0
 70
     0
 10
0.0
 20
0.0
 30
0.0
  3
SW_CENTERMARKSYMBOL_0
  1

  0
LINE
  5
181
330
17E
100
AcDbEntity
  8
SLD-0_0
 62
     0
100
AcDbLine
 10
0.0
 20
0.0
 30
0.0
 11
0.0
 21
2.5
 31
0.0
  0
LINE
  5
182
330
17E
100
AcDbEntity
  8
SLD-0_0
 62
     0
100
AcDbLine
 10
0.0
 20
0.0
 30
0.0
 11
-2.5
 21
0.0
 31
0.0
  0
LINE
  5
183
330
17E
100
AcDbEntity
  8
SLD-0_0
 62
     0
100
AcDbLine
 10
0.0
 20
0.0
 30
0.0
 11
0.0
 21
-2.5
 31
0.0
  0
LINE
  5
184
330
17E
100
AcDbEntity
  8
SLD-0_0
 62
     0
100
AcDbLine
 10
0.0
 20
0.0
 30
0.0
 11
2.5
 21
0.0
 31
0.0
  0
LINE
  5
185
330
17E
100
AcDbEntity
  8
SLD-0_0
 62
     0
100
AcDbLine
 10
0.0
 20
5.0
 30
0.0
 11
0.0
 21
5.5
 31
0.0
  0
LINE
  5
186
330
17E
100
AcDbEntity
  8
SLD-0_0
 62
     0
100
AcDbLine
 10
-5.0
 20
0.0
 30
0.0
 11
-5.5
 21
0.0
 31
0.0
  0
LINE
  5
187
330
17E
100
AcDbEntity
  8
SLD-0_0
 62
     0
100
AcDbLine
 10
0.0
 20
-5.0
 30
0.0
 11
0.0
 21
-5.5
 31
0.0
  0
LINE
  5
188
330
17E
100
AcDbEntity
  8
SLD-0_0
 62
     0
100
AcDbLine
 10
20.0
 20
0.0
 30
0.0
 11
20.0
 21
2.5
 31
0.0
  0
LINE
  5
189
330
17E
100
AcDbEntity
  8
SLD-0_0
 62
     0
100
AcDbLine
 10
20.0
 20
0.0
 30
0.0
 11
17.5
 21
0.0
 31
0.0
  0
LINE
  5
18A
330
17E
100
AcDbEntity
  8
SLD-0_0
 62
     0
100
AcDbLine
 10
20.0
 20
0.0
 30
0.0
 11
20.0
 21
-2.5
 31
0.0
  0
LINE
  5
18B
330
17E
100
AcDbEntity
  8
SLD-0_0
 62
     0
100
AcDbLine
 10
20.0
 20
0.0
 30
0.0
 11
22.5
 21
0.0
 31
0.0
  0
LINE
  5
18C
330
17E
100
AcDbEntity
  8
SLD-0_0
 62
     0
100
AcDbLine
 10
20.0
 20
5.0
 30
0.0
 11
20.0
 21
5.5
 31
0.0
  0
LINE
  5
18D
330
17E
100
AcDbEntity
  8
SLD-0_0
 62
     0
100
AcDbLine
 10
20.0
 20
-5.0
 30
0.0
 11
20.0
 21
-5.5
 31
0.0
  0
LINE
  5
18E
330
17E
100
AcDbEntity
  8
SLD-0_0
 62
     0
100
AcDbLine
 10
25.0
 20
0.0
 30
0.0
 11
25.5
 21
0.0
 31
0.0
  0
LINE
  5
18F
330
17E
100
AcDbEntity
  8
SLD-0_0
 62
     0
100
AcDbLine
 10
5.0
 20
0.0
 30
0.0
 11
15.0
 21
0.0
 31
0.0
  0
ENDBLK
  5
180
330
17E
100
AcDbEntity
  8
0
100
AcDbBlockEnd
  0
BLOCK
  5
192
330
191
100
AcDbEntity
  8
0
100
AcDbBlockBegin
  2
SW_CENTERMARKSYMBOL_1
 70
     0
 10
0.0
 20
0.0
 30
0.0
  3
SW_CENTERMARKSYMBOL_1
  1

  0
LINE
  5
194
330
191
100
AcDbEntity
  8
SLD-0_0
 62
     0
100
AcDbLine
 10
0.0
 20
0.0
 30
0.0
 11
0.0
 21
2.5
 31
0.0
  0
LINE
  5
195
330
191
100
AcDbEntity
  8
SLD-0_0
 62
     0
100
AcDbLine
 10
0.0
 20
0.0
 30
0.0
 11
-2.5
 21
0.0
 31
0.0
  0
LINE
  5
196
330
191
100
AcDbEntity
  8
SLD-0_0
 62
     0
100
AcDbLine
 10
0.0
 20
0.0
 30
0.0
 11
0.0
 21
-2.5
 31
0.0
  0
LINE
  5
197
330
191
100
AcDbEntity
  8
SLD-0_0
 62
     0
100
AcDbLine
 10
0.0
 20
0.0
 30
0.0
 11
2.5
 21
0.0
 31
0.0
  0
LINE
  5
198
330
191
100
AcDbEntity
  8
SLD-0_0
 62
     0
100
AcDbLine
 10
0.0
 20
5.0
 30
0.0
 11
0.0
 21
5.5
 31
0.0
  0
LINE
  5
199
330
191
100
AcDbEntity
  8
SLD-0_0
 62
     0
100
AcDbLine
 10
-5.0
 20
0.0
 30
0.0
 11
-5.5
 21
0.0
 31
0.0
  0
LINE
  5
19A
330
191
100
AcDbEntity
  8
SLD-0_0
 62
     0
100
AcDbLine
 10
0.0
 20
-5.0
 30
0.0
 11
0.0
 21
-5.5
 31
0.0
  0
LINE
  5
19B
330
191
100
AcDbEntity
  8
SLD-0_0
 62
     0
100
AcDbLine
 10
20.0
 20
0.0
 30
0.0
 11
20.0
 21
2.5
 31
0.0
  0
LINE
  5
19C
330
191
100
AcDbEntity
  8
SLD-0_0
 62
     0
100
AcDbLine
 10
20.0
 20
0.0
 30
0.0
 11
17.5
 21
0.0
 31
0.0
  0
LINE
  5
19D
330
191
100
AcDbEntity
  8
SLD-0_0
 62
     0
100
AcDbLine
 10
20.0
 20
0.0
 30
0.0
 11
20.0
 21
-2.5
 31
0.0
  0
LINE
  5
19E
330
191
100
AcDbEntity
  8
SLD-0_0
 62
     0
100
AcDbLine
 10
20.0
 20
0.0
 30
0.0
 11
22.5
 21
0.0
 31
0.0
  0
LINE
  5
19F
330
191
100
AcDbEntity
  8
SLD-0_0
 62
     0
100
AcDbLine
 10
20.0
 20
5.0
 30
0.0
 11
20.0
 21
5.5
 31
0.0
  0
LINE
  5
1A0
330
191
100
AcDbEntity
  8
SLD-0_0
 62
     0
100
AcDbLine
 10
20.0
 20
-5.0
 30
0.0
 11
20.0
 21
-5.5
 31
0.0
  0
LINE
  5
1A1
330
191
100
AcDbEntity
  8
SLD-0_0
 62
     0
100
AcDbLine
 10
25.0
 20
0.0
 30
0.0
 11
25.5
 21
0.0
 31
0.0
  0
LINE
  5
1A2
330
191
100
AcDbEntity
  8
SLD-0_0
 62
     0
100
AcDbLine
 10
5.0
 20
0.0
 30
0.0
 11
15.0
 21
0.0
 31
0.0
  0
ENDBLK
  5
193
330
191
100
AcDbEntity
  8
0
100
AcDbBlockEnd
  0
BLOCK
  5
1A5
330
1A4
100
AcDbEntity
  8
0
100
AcDbBlockBegin
  2
SW_CENTERMARKSYMBOL_2
 70
     0
 10
0.0
 20
0.0
 30
0.0
  3
SW_CENTERMARKSYMBOL_2
  1

  0
LINE
  5
1A7
330
1A4
100
AcDbEntity
  8
SLD-0_0
 62
     0
100
AcDbLine
 10
0.0
 20
0.0
 30
0.0
 11
0.0
 21
2.5
 31
0.0
  0
LINE
  5
1A8
330
1A4
100
AcDbEntity
  8
SLD-0_0
 62
     0
100
AcDbLine
 10
0.0
 20
0.0
 30
0.0
 11
-2.5
 21
0.0
 31
0.0
  0
LINE
  5
1A9
330
1A4
100
AcDbEntity
  8
SLD-0_0
 62
     0
100
AcDbLine
 10
0.0
 20
0.0
 30
0.0
 11
0.0
 21
-2.5
 31
0.0
  0
LINE
  5
1AA
330
1A4
100
AcDbEntity
  8
SLD-0_0
 62
     0
100
AcDbLine
 10
0.0
 20
0.0
 30
0.0
 11
2.5
 21
0.0
 31
0.0
  0
LINE
  5
1AB
330
1A4
100
AcDbEntity
  8
SLD-0_0
 62
     0
100
AcDbLine
 10
0.0
 20
5.0
 30
0.0
 11
0.0
 21
5.5
 31
0.0
  0
LINE
  5
1AC
330
1A4
100
AcDbEntity
  8
SLD-0_0
 62
     0
100
AcDbLine
 10
-5.0
 20
0.0
 30
0.0
 11
-5.5
 21
0.0
 31
0.0
  0
LINE
  5
1AD
330
1A4
100
AcDbEntity
  8
SLD-0_0
 62
     0
100
AcDbLine
 10
0.0
 20
-5.0
 30
0.0
 11
0.0
 21
-5.5
 31
0.0
  0
LINE
  5
1AE
330
1A4
100
AcDbEntity
  8
SLD-0_0
 62
     0
100
AcDbLine
 10
20.0
 20
0.0
 30
0.0
 11
20.0
 21
2.5
 31
0.0
  0
LINE
  5
1AF
330
1A4
100
AcDbEntity
  8
SLD-0_0
 62
     0
100
AcDbLine
 10
20.0
 20
0.0
 30
0.0
 11
17.5
 21
0.0
 31
0.0
  0
LINE
  5
1B0
330
1A4
100
AcDbEntity
  8
SLD-0_0
 62
     0
100
AcDbLine
 10
20.0
 20
0.0
 30
0.0
 11
20.0
 21
-2.5
 31
0.0
  0
LINE
  5
1B1
330
1A4
100
AcDbEntity
  8
SLD-0_0
 62
     0
100
AcDbLine
 10
20.0
 20
0.0
 30
0.0
 11
22.5
 21
0.0
 31
0.0
  0
LINE
  5
1B2
330
1A4
100
AcDbEntity
  8
SLD-0_0
 62
     0
100
AcDbLine
 10
20.0
 20
5.0
 30
0.0
 11
20.0
 21
5.5
 31
0.0
  0
LINE
  5
1B3
330
1A4
100
AcDbEntity
  8
SLD-0_0
 62
     0
100
AcDbLine
 10
20.0
 20
-5.0
 30
0.0
 11
20.0
 21
-5.5
 31
0.0
  0
LINE
  5
1B4
330
1A4
100
AcDbEntity
  8
SLD-0_0
 62
     0
100
AcDbLine
 10
25.0
 20
0.0
 30
0.0
 11
25.5
 21
0.0
 31
0.0
  0
LINE
  5
1B5
330
1A4
100
AcDbEntity
  8
SLD-0_0
 62
     0
100
AcDbLine
 10
5.0
 20
0.0
 30
0.0
 11
15.0
 21
0.0
 31
0.0
  0
ENDBLK
  5
1A6
330
1A4
100
AcDbEntity
  8
0
100
AcDbBlockEnd
  0
BLOCK
  5
1B8
330
1B7
100
AcDbEntity
  8
0
100
AcDbBlockBegin
  2
SW_CENTERMARKSYMBOL_3
 70
     0
 10
0.0
 20
0.0
 30
0.0
  3
SW_CENTERMARKSYMBOL_3
  1

  0
LINE
  5
1BA
330
1B7
100
AcDbEntity
  8
SLD-0_0
 62
     0
100
AcDbLine
 10
0.0
 20
0.0
 30
0.0
 11
0.0
 21
2.5
 31
0.0
  0
LINE
  5
1BB
330
1B7
100
AcDbEntity
  8
SLD-0_0
 62
     0
100
AcDbLine
 10
0.0
 20
0.0
 30
0.0
 11
-2.5
 21
0.0
 31
0.0
  0
LINE
  5
1BC
330
1B7
100
AcDbEntity
  8
SLD-0_0
 62
     0
100
AcDbLine
 10
0.0
 20
0.0
 30
0.0
 11
0.0
 21
-2.5
 31
0.0
  0
LINE
  5
1BD
330
1B7
100
AcDbEntity
  8
SLD-0_0
 62
     0
100
AcDbLine
 10
0.0
 20
0.0
 30
0.0
 11
2.5
 21
0.0
 31
0.0
  0
LINE
  5
1BE
330
1B7
100
AcDbEntity
  8
SLD-0_0
 62
     0
100
AcDbLine
 10
0.0
 20
5.0
 30
0.0
 11
0.0
 21
5.5
 31
0.0
  0
LINE
  5
1BF
330
1B7
100
AcDbEntity
  8
SLD-0_0
 62
     0
100
AcDbLine
 10
-5.0
 20
0.0
 30
0.0
 11
-5.5
 21
0.0
 31
0.0
  0
LINE
  5
1C0
330
1B7
100
AcDbEntity
  8
SLD-0_0
 62
     0
100
AcDbLine
 10
0.0
 20
-5.0
 30
0.0
 11
0.0
 21
-5.5
 31
0.0
  0
LINE
  5
1C1
330
1B7
100
AcDbEntity
  8
SLD-0_0
 62
     0
100
AcDbLine
 10
20.0
 20
0.0
 30
0.0
 11
20.0
 21
2.5
 31
0.0
  0
LINE
  5
1C2
330
1B7
100
AcDbEntity
  8
SLD-0_0
 62
     0
100
AcDbLine
 10
20.0
 20
0.0
 30
0.0
 11
17.5
 21
0.0
 31
0.0
  0
LINE
  5
1C3
330
1B7
100
AcDbEntity
  8
SLD-0_0
 62
     0
100
AcDbLine
 10
20.0
 20
0.0
 30
0.0
 11
20.0
 21
-2.5
 31
0.0
  0
LINE
  5
1C4
330
1B7
100
AcDbEntity
  8
SLD-0_0
 62
     0
100
AcDbLine
 10
20.0
 20
0.0
 30
0.0
 11
22.5
 21
0.0
 31
0.0
  0
LINE
  5
1C5
330
1B7
100
AcDbEntity
  8
SLD-0_0
 62
     0
100
AcDbLine
 10
20.0
 20
5.0
 30
0.0
 11
20.0
 21
5.5
 31
0.0
  0
LINE
  5
1C6
330
1B7
100
AcDbEntity
  8
SLD-0_0
 62
     0
100
AcDbLine
 10
20.0
 20
-5.0
 30
0.0
 11
20.0
 21
-5.5
 31
0.0
  0
LINE
  5
1C7
330
1B7
100
AcDbEntity
  8
SLD-0_0
 62
     0
100
AcDbLine
 10
25.0
 20
0.0
 30
0.0
 11
25.5
 21
0.0
 31
0.0
  0
LINE
  5
1C8
330
1B7
100
AcDbEntity
  8
SLD-0_0
 62
     0
100
AcDbLine
 10
5.0
 20
0.0
 30
0.0
 11
15.0
 21
0.0
 31
0.0
  0
ENDBLK
  5
1B9
330
1B7
100
AcDbEntity
  8
0
100
AcDbBlockEnd
  0
BLOCK
  5
1E4
330
1E3
100
AcDbEntity
  8
0
100
AcDbBlockBegin
  2
*D24
 70
     1
 10
0.0
 20
0.0
 30
0.0
  3
*D24
  1

  0
INSERT
  5
1E6
330
1E3
100
AcDbEntity
  8
SLD-0_0
100
AcDbBlockReference
  2
_OPEN30
 10
233.2771430764
 20
136.3258822672
 30
0.1
 41
3.0
 42
3.0
 50
90.0
  0
INSERT
  5
1E7
330
1E3
100
AcDbEntity
  8
SLD-0_0
100
AcDbBlockReference
  2
_OPEN30
 10
233.2771430764
 20
76.3258822672
 30
0.1
 41
3.0
 42
3.0
 50
270.0
  0
LINE
  5
1E8
330
1E3
100
AcDbEntity
  8
SLD-0_0
100
AcDbLine
 10
242.6749421601
 20
136.3258822672
 30
0.0
 11
232.2771430764
 21
136.3258822672
 31
0.0
  0
LINE
  5
1E9
330
1E3
100
AcDbEntity
  8
SLD-0_0
100
AcDbLine
 10
242.6749421601
 20
76.3258822672
 30
0.0
 11
232.2771430764
 21
76.3258822672
 31
0.0
  0
LINE
  5
1EA
330
1E3
100
AcDbEntity
  8
SLD-0_0
100
AcDbLine
 10
233.2771430764
 20
136.3258822672
 30
0.0
 11
233.2771430764
 21
76.3258822672
 31
0.0
  0
MTEXT
  5
1EB
330
1E3
100
AcDbEntity
  8
SLD-0_0
100
AcDbMText
 10
228.7654062201
 20
104.2907333737
 30
0.0
 40
3.5
 41
0.0
 71
     1
 72
     1
  1
60
  7
SLDTEXTSTYLE0
 11
-6.156016597943509E-15
 21
1.0
 31
0.0
 73
     1
 44
1.0
  0
ENDBLK
  5
1E5
330
1E3
100
AcDbEntity
  8
0
100
AcDbBlockEnd
  0
BLOCK
  5
1EE
330
1ED
100
AcDbEntity
  8
0
100
AcDbBlockBegin
  2
*D25
 70
     1
 10
0.0
 20
0.0
 30
0.0
  3
*D25
  1

  0
INSERT
  5
1F0
330
1ED
100
AcDbEntity
  8
SLD-0_0
100
AcDbBlockReference
  2
_OPEN30
 10
185.3358790448
 20
136.3258822672
 30
0.1
 41
3.0
 42
3.0
 50
90.0
  0
INSERT
  5
1F1
330
1ED
100
AcDbEntity
  8
SLD-0_0
100
AcDbBlockReference
  2
_OPEN30
 10
185.3358790448
 20
76.3258822672
 30
0.1
 41
3.0
 42
3.0
 50
270.0
  0
LINE
  5
1F2
330
1ED
100
AcDbEntity
  8
SLD-0_0
100
AcDbLine
 10
174.6749421601
 20
136.3258822672
 30
0.0
 11
186.3358790448
 21
136.3258822672
 31
0.0
  0
LINE
  5
1F3
330
1ED
100
AcDbEntity
  8
SLD-0_0
100
AcDbLine
 10
174.6749421601
 20
76.3258822672
 30
0.0
 11
186.3358790448
 21
76.3258822672
 31
0.0
  0
LINE
  5
1F4
330
1ED
100
AcDbEntity
  8
SLD-0_0
100
AcDbLine
 10
185.3358790448
 20
136.3258822672
 30
0.0
 11
185.3358790448
 21
76.3258822672
 31
0.0
  0
MTEXT
  5
1F5
330
1ED
100
AcDbEntity
  8
SLD-0_0
100
AcDbMText
 10
180.8241421884
 20
104.2907333737
 30
0.0
 40
3.5
 41
0.0
 71
     1
 72
     1
  1
60
  7
SLDTEXTSTYLE0
 11
-7.044195017643634E-15
 21
1.0
 31
0.0
 73
     1
 44
1.0
  0
ENDBLK
  5
1EF
330
1ED
100
AcDbEntity
  8
0
100
AcDbBlockEnd
  0
BLOCK
  5
1F8
330
1F7
100
AcDbEntity
  8
0
100
AcDbBlockBegin
  2
*D26
 70
     1
 10
0.0
 20
0.0
 30
0.0
  3
*D26
  1

  0
INSERT
  5
1FA
330
1F7
100
AcDbEntity
  8
SLD-0_0
100
AcDbBlockReference
  2
_OPEN30
 10
173.6749421601
 20
66.3258822672
 30
0.1
 41
3.0
 42
3.0
 50
360.0
  0
INSERT
  5
1FB
330
1F7
100
AcDbEntity
  8
SLD-0_0
100
AcDbBlockReference
  2
_OPEN30
 10
133.6749421601
 20
66.3258822672
 30
0.1
 41
3.0
 42
3.0
 50
180.0
  0
LINE
  5
1FC
330
1F7
100
AcDbEntity
  8
SLD-0_0
100
AcDbLine
 10
173.6749421601
 20
75.3258822672
 30
0.0
 11
173.6749421601
 21
65.3258822672
 31
0.0
  0
LINE
  5
1FD
330
1F7
100
AcDbEntity
  8
SLD-0_0
100
AcDbLine
 10
133.6749421601
 20
75.3258822672
 30
0.0
 11
133.6749421601
 21
65.3258822672
 31
0.0
  0
LINE
  5
1FE
330
1F7
100
AcDbEntity
  8
SLD-0_0
100
AcDbLine
 10
173.6749421601
 20
66.3258822672
 30
0.0
 11
133.6749421601
 21
66.3258822672
 31
0.0
  0
MTEXT
  5
1FF
330
1F7
100
AcDbEntity
  8
SLD-0_0
100
AcDbMText
 10
151.6397932666
 20
70.8376191236
 30
0.0
 40
3.5
 41
0.0
 71
     1
 72
     1
  1
40
  7
SLDTEXTSTYLE0
 73
     1
 44
1.0
  0
ENDBLK
  5
1F9
330
1F7
100
AcDbEntity
  8
0
100
AcDbBlockEnd
  0
BLOCK
  5
202
330
201
100
AcDbEntity
  8
0
100
AcDbBlockBegin
  2
*D27
 70
     1
 10
0.0
 20
0.0
 30
0.0
  3
*D27
  1

  0
INSERT
  5
204
330
201
100
AcDbEntity
  8
SLD-0_0
100
AcDbBlockReference
  2
_OPEN30
 10
283.6749421601
 20
66.3258822672
 30
0.1
 41
3.0
 42
3.0
 50
0.0
  0
INSERT
  5
205
330
201
100
AcDbEntity
  8
SLD-0_0
100
AcDbBlockReference
  2
_OPEN30
 10
243.6749421601
 20
66.3258822672
 30
0.1
 41
3.0
 42
3.0
 50
180.0
  0
LINE
  5
206
330
201
100
AcDbEntity
  8
SLD-0_0
100
AcDbLine
 10
283.6749421601
 20
75.3258822672
 30
0.0
 11
283.6749421601
 21
65.3258822672
 31
0.0
  0
LINE
  5
207
330
201
100
AcDbEntity
  8
SLD-0_0
100
AcDbLine
 10
243.6749421601
 20
75.3258822672
 30
0.0
 11
243.6749421601
 21
65.3258822672
 31
0.0
  0
LINE
  5
208
330
201
100
AcDbEntity
  8
SLD-0_0
100
AcDbLine
 10
283.6749421601
 20
66.3258822672
 30
0.0
 11
243.6749421601
 21
66.3258822672
 31
0.0
  0
MTEXT
  5
209
330
201
100
AcDbEntity
  8
SLD-0_0
100
AcDbMText
 10
261.6397932666
 20
70.8376191236
 30
0.0
 40
3.5
 41
0.0
 71
     1
 72
     1
  1
40
  7
SLDTEXTSTYLE0
 73
     1
 44
1.0
  0
ENDBLK
  5
203
330
201
100
AcDbEntity
  8
0
100
AcDbBlockEnd
  0
BLOCK
  5
20C
330
20B
100
AcDbEntity
  8
0
100
AcDbBlockBegin
  2
*D28
 70
     1
 10
0.0
 20
0.0
 30
0.0
  3
*D28
  1

  0
INSERT
  5
20E
330
20B
100
AcDbEntity
  8
SLD-0_0
100
AcDbBlockReference
  2
_OPEN30
 10
293.6749421601
 20
81.3258822672
 30
0.1
 41
3.0
 42
3.0
 50
270.0
  0
INSERT
  5
20F
330
20B
100
AcDbEntity
  8
SLD-0_0
100
AcDbBlockReference
  2
_OPEN30
 10
293.6749421601
 20
76.3258822672
 30
0.1
 41
3.0
 42
3.0
 50
90.0
  0
LINE
  5
210
330
20B
100
AcDbEntity
  8
SLD-0_0
100
AcDbLine
 10
284.6749421601
 20
81.3258822672
 30
0.0
 11
294.6749421601
 21
81.3258822672
 31
0.0
  0
LINE
  5
211
330
20B
100
AcDbEntity
  8
SLD-0_0
100
AcDbLine
 10
284.6749421601
 20
76.3258822672
 30
0.0
 11
294.6749421601
 21
76.3258822672
 31
0.0
  0
LINE
  5
212
330
20B
100
AcDbEntity
  8
SLD-0_0
100
AcDbLine
 10
293.6749421601
 20
81.3258822672
 30
0.0
 11
293.6749421601
 21
92.724623535
 31
0.0
  0
LINE
  5
213
330
20B
100
AcDbEntity
  8
SLD-0_0
100
AcDbLine
 10
293.6749421601
 20
81.3258822672
 30
0.0
 11
293.6749421601
 21
76.3258822672
 31
0.0
  0
LINE
  5
214
330
20B
100
AcDbEntity
  8
SLD-0_0
100
AcDbLine
 10
293.6749421601
 20
76.3258822672
 30
0.0
 11
293.6749421601
 21
71.3258822672
 31
0.0
  0
MTEXT
  5
215
330
20B
100
AcDbEntity
  8
SLD-0_0
100
AcDbMText
 10
289.1632053037
 20
87.066825748
 30
0.0
 40
3.5
 41
0.0
 71
     1
 72
     1
  1
t
  7
SLDTEXTSTYLE0
 11
-6.156016597943509E-15
 21
1.0
 31
0.0
 73
     1
 44
1.0
  0
MTEXT
  5
216
330
20B
100
AcDbEntity
  8
SLD-0_0
100
AcDbMText
 10
289.1632053037
 20
89.1019746415
 30
0.0
 40
3.5
 41
0.0
 71
     1
 72
     1
  1
5
  7
SLDTEXTSTYLE0
 11
-6.156016597943509E-15
 21
1.0
 31
0.0
 73
     1
 44
1.0
  0
ENDBLK
  5
20D
330
20B
100
AcDbEntity
  8
0
100
AcDbBlockEnd
  0
BLOCK
  5
219
330
218
100
AcDbEntity
  8
0
100
AcDbBlockBegin
  2
*D29
 70
     1
 10
0.0
 20
0.0
 30
0.0
  3
*D29
  1

  0
INSERT
  5
21B
330
218
100
AcDbEntity
  8
SLD-0_0
100
AcDbBlockReference
  2
_OPEN30
 10
121.5040169964
 20
76.3258822672
 30
0.1
 41
3.0
 42
3.0
 50
90.0
  0
INSERT
  5
21C
330
218
100
AcDbEntity
  8
SLD-0_0
100
AcDbBlockReference
  2
_OPEN30
 10
121.5040169964
 20
81.3258822672
 30
0.1
 41
3.0
 42
3.0
 50
270.0
  0
LINE
  5
21D
330
218
100
AcDbEntity
  8
SLD-0_0
100
AcDbLine
 10
132.6749421601
 20
76.3258822672
 30
0.0
 11
120.5040169964
 21
76.3258822672
 31
0.0
  0
LINE
  5
21E
330
218
100
AcDbEntity
  8
SLD-0_0
100
AcDbLine
 10
132.6749421601
 20
81.3258822672
 30
0.0
 11
120.5040169964
 21
81.3258822672
 31
0.0
  0
LINE
  5
21F
330
218
100
AcDbEntity
  8
SLD-0_0
100
AcDbLine
 10
121.5040169964
 20
76.3258822672
 30
0.0
 11
121.5040169964
 21
71.3258822672
 31
0.0
  0
LINE
  5
220
330
218
100
AcDbEntity
  8
SLD-0_0
100
AcDbLine
 10
121.5040169964
 20
76.3258822672
 30
0.0
 11
121.5040169964
 21
81.3258822672
 31
0.0
  0
LINE
  5
221
330
218
100
AcDbEntity
  8
SLD-0_0
100
AcDbLine
 10
121.5040169964
 20
81.3258822672
 30
0.0
 11
121.5040169964
 21
92.724623535
 31
0.0
  0
MTEXT
  5
222
330
218
100
AcDbEntity
  8
SLD-0_0
100
AcDbMText
 10
116.99228014
 20
87.066825748
 30
0.0
 40
3.5
 41
0.0
 71
     1
 72
     1
  1
t
  7
SLDTEXTSTYLE0
 11
-3.828568698926949E-16
 21
1.0
 31
0.0
 73
     1
 44
1.0
  0
MTEXT
  5
223
330
218
100
AcDbEntity
  8
SLD-0_0
100
AcDbMText
 10
116.99228014
 20
89.1019746415
 30
0.0
 40
3.5
 41
0.0
 71
     1
 72
     1
  1
5
  7
SLDTEXTSTYLE0
 11
-3.828568698926949E-16
 21
1.0
 31
0.0
 73
     1
 44
1.0
  0
ENDBLK
  5
21A
330
218
100
AcDbEntity
  8
0
100
AcDbBlockEnd
  0
BLOCK
  5
241
330
240
100
AcDbEntity
  8
0
100
AcDbBlockBegin
  2
*D30
 70
     1
 10
0.0
 20
0.0
 30
0.0
  3
*D30
  1

  0
INSERT
  5
243
330
240
100
AcDbEntity
  8
SLD-0_0
100
AcDbBlockReference
  2
_OPEN30
 10
330.9846520477
 20
123.0830634329
 30
0.1
 41
3.0
 42
3.0
 50
191.0360911972
  0
LINE
  5
244
330
240
100
AcDbEntity
  8
SLD-0_0
100
AcDbLine
 10
360.4298559328
 20
128.8258822672
 30
0.0
 11
350.3474773305
 21
126.8594746323
 31
0.0
  0
LINE
  5
245
330
240
100
AcDbEntity
  8
SLD-0_0
100
AcDbLine
 10
330.9846520477
 20
123.0830634329
 30
0.0
 11
341.06703065
 21
125.0494710678
 31
0.0
  0
MTEXT
  5
246
330
240
100
AcDbEntity
  8
SLD-0_0
100
AcDbMText
 10
342.65453065
 20
128.4310608129
 30
0.0
 40
3.5
 41
0.0
 71
     1
 72
     1
  1
R
  7
SLDTEXTSTYLE0
 73
     1
 44
1.0
  0
MTEXT
  5
247
330
240
100
AcDbEntity
  8
SLD-0_0
100
AcDbMText
 10
344.6896795435
 20
128.4310608129
 30
0.0
 40
3.5
 41
0.0
 71
     1
 72
     1
  1
30
  7
SLDTEXTSTYLE0
 73
     1
 44
1.0
  0
ENDBLK
  5
242
330
240
100
AcDbEntity
  8
0
100
AcDbBlockEnd
  0
BLOCK
  5
24A
330
249
100
AcDbEntity
  8
0
100
AcDbBlockBegin
  2
*D31
 70
     1
 10
0.0
 20
0.0
 30
0.0
  3
*D31
  1

  0
INSERT
  5
24C
330
249
100
AcDbEntity
  8
SLD-0_0
100
AcDbBlockReference
  2
_OPEN30
 10
348.6100066941
 20
90.6121260533
 30
0.1
 41
3.0
 42
3.0
 50
252.8127040695
  0
LINE
  5
24D
330
249
100
AcDbEntity
  8
SLD-0_0
100
AcDbLine
 10
360.4298559328
 20
128.8258822672
 30
0.0
 11
355.1494206776
 21
111.7541530538
 31
0.0
  0
LINE
  5
24E
330
249
100
AcDbEntity
  8
SLD-0_0
100
AcDbLine
 10
348.6100066941
 20
90.6121260533
 30
0.0
 11
353.8904419494
 21
107.6838552668
 31
0.0
  0
MTEXT
  5
24F
330
249
100
AcDbEntity
  8
SLD-0_0
100
AcDbMText
 10
351.4672079733
 20
112.1955921231
 30
0.0
 40
3.5
 41
0.0
 71
     1
 72
     1
  1
R
  7
SLDTEXTSTYLE0
 73
     1
 44
1.0
  0
MTEXT
  5
250
330
249
100
AcDbEntity
  8
SLD-0_0
100
AcDbMText
 10
353.5023568667
 20
112.1955921231
 30
0.0
 40
3.5
 41
0.0
 71
     1
 72
     1
  1
40
  7
SLDTEXTSTYLE0
 73
     1
 44
1.0
  0
ENDBLK
  5
24B
330
249
100
AcDbEntity
  8
0
100
AcDbBlockEnd
  0
BLOCK
  5
253
330
252
100
AcDbEntity
  8
0
100
AcDbBlockBegin
  2
*D32
 70
     1
 10
0.0
 20
0.0
 30
0.0
  3
*D32
  1

  0
INSERT
  5
255
330
252
100
AcDbEntity
  8
SLD-0_0
100
AcDbBlockReference
  2
_OPEN30
 10
382.6959732516
 20
136.3258822672
 30
0.1
 41
3.0
 42
3.0
 50
270.0
  0
INSERT
  5
256
330
252
100
AcDbEntity
  8
SLD-0_0
100
AcDbBlockReference
  2
_OPEN30
 10
382.6959732516
 20
128.8258822672
 30
0.1
 41
3.0
 42
3.0
 50
90.0
  0
LINE
  5
257
330
252
100
AcDbEntity
  8
SLD-0_0
100
AcDbLine
 10
366.4298559328
 20
136.3258822672
 30
0.0
 11
383.6959732516
 21
136.3258822672
 31
0.0
  0
LINE
  5
258
330
252
100
AcDbEntity
  8
SLD-0_0
100
AcDbLine
 10
366.6798559328
 20
128.8258822672
 30
0.0
 11
383.6959732516
 21
128.8258822672
 31
0.0
  0
LINE
  5
259
330
252
100
AcDbEntity
  8
SLD-0_0
100
AcDbLine
 10
382.6959732516
 20
136.3258822672
 30
0.0
 11
382.6959732516
 21
147.7409675939
 31
0.0
  0
LINE
  5
25A
330
252
100
AcDbEntity
  8
SLD-0_0
100
AcDbLine
 10
382.6959732516
 20
136.3258822672
 30
0.0
 11
382.6959732516
 21
128.8258822672
 31
0.0
  0
LINE
  5
25B
330
252
100
AcDbEntity
  8
SLD-0_0
100
AcDbLine
 10
382.6959732516
 20
128.8258822672
 30
0.0
 11
382.6959732516
 21
123.8258822672
 31
0.0
  0
MTEXT
  5
25C
330
252
100
AcDbEntity
  8
SLD-0_0
100
AcDbMText
 10
378.1842363952
 20
140.0480209134
 30
0.0
 40
3.5
 41
0.0
 71
     1
 72
     1
  1
7.5
  7
SLDTEXTSTYLE0
 11
-3.491481338843133E-15
 21
1.0
 31
0.0
 73
     1
 44
1.0
  0
ENDBLK
  5
254
330
252
100
AcDbEntity
  8
0
100
AcDbBlockEnd
  0
BLOCK
  5
25F
330
25E
100
AcDbEntity
  8
0
100
AcDbBlockBegin
  2
*D33
 70
     1
 10
0.0
 20
0.0
 30
0.0
  3
*D33
  1

  0
INSERT
  5
261
330
25E
100
AcDbEntity
  8
SLD-0_0
100
AcDbBlockReference
  2
_OPEN30
 10
392.4299059328
 20
136.3258822672
 30
0.1
 41
3.0
 42
3.0
 50
90.0
  0
INSERT
  5
262
330
25E
100
AcDbEntity
  8
SLD-0_0
100
AcDbBlockReference
  2
_OPEN30
 10
392.4299059328
 20
98.8258822672
 30
0.1
 41
3.0
 42
3.0
 50
270.0
  0
LINE
  5
263
330
25E
100
AcDbEntity
  8
SLD-0_0
100
AcDbLine
 10
366.4298559328
 20
136.3258822672
 30
0.0
 11
393.4299059328
 21
136.3258822672
 31
0.0
  0
LINE
  5
264
330
25E
100
AcDbEntity
  8
SLD-0_0
100
AcDbLine
 10
366.6798559328
 20
98.8258822672
 30
0.0
 11
393.4299059328
 21
98.8258822672
 31
0.0
  0
LINE
  5
265
330
25E
100
AcDbEntity
  8
SLD-0_0
100
AcDbLine
 10
392.4299059328
 20
136.3258822672
 30
0.0
 11
392.4299059328
 21
98.8258822672
 31
0.0
  0
MTEXT
  5
266
330
25E
100
AcDbEntity
  8
SLD-0_0
100
AcDbMText
 10
387.9181690765
 20
113.5030904252
 30
0.0
 40
3.5
 41
0.0
 71
     1
 72
     1
  1
37.5
  7
SLDTEXTSTYLE0
 11
-3.491481338843133E-15
 21
1.0
 31
0.0
 73
     1
 44
1.0
  0
ENDBLK
  5
260
330
25E
100
AcDbEntity
  8
0
100
AcDbBlockEnd
  0
BLOCK
  5
269
330
268
100
AcDbEntity
  8
0
100
AcDbBlockBegin
  2
*D34
 70
     1
 10
0.0
 20
0.0
 30
0.0
  3
*D34
  1

  0
INSERT
  5
26B
330
268
100
AcDbEntity
  8
SLD-0_0
100
AcDbBlockReference
  2
_OPEN30
 10
392.4299059328
 20
98.8258822672
 30
0.1
 41
3.0
 42
3.0
 50
270.0
  0
INSERT
  5
26C
330
268
100
AcDbEntity
  8
SLD-0_0
100
AcDbBlockReference
  2
_OPEN30
 10
392.4299059328
 20
88.8258822672
 30
0.1
 41
3.0
 42
3.0
 50
90.0
  0
LINE
  5
26D
330
268
100
AcDbEntity
  8
SLD-0_0
100
AcDbLine
 10
366.6798559328
 20
98.8258822672
 30
0.0
 11
393.4299059328
 21
98.8258822672
 31
0.0
  0
LINE
  5
26E
330
268
100
AcDbEntity
  8
SLD-0_0
100
AcDbLine
 10
366.6798559328
 20
88.8258822672
 30
0.0
 11
393.4299059328
 21
88.8258822672
 31
0.0
  0
LINE
  5
26F
330
268
100
AcDbEntity
  8
SLD-0_0
100
AcDbLine
 10
392.4299059328
 20
98.8258822672
 30
0.0
 11
392.4299059328
 21
103.8258822672
 31
0.0
  0
LINE
  5
270
330
268
100
AcDbEntity
  8
SLD-0_0
100
AcDbLine
 10
392.4299059328
 20
98.8258822672
 30
0.0
 11
392.4299059328
 21
88.8258822672
 31
0.0
  0
LINE
  5
271
330
268
100
AcDbEntity
  8
SLD-0_0
100
AcDbLine
 10
392.4299059328
 20
88.8258822672
 30
0.0
 11
392.4299059328
 21
83.8258822672
 31
0.0
  0
MTEXT
  5
272
330
268
100
AcDbEntity
  8
SLD-0_0
100
AcDbMText
 10
387.9181690765
 20
91.7907333737
 30
0.0
 40
3.5
 41
0.0
 71
     1
 72
     1
  1
10
  7
SLDTEXTSTYLE0
 11
-7.044195017643634E-15
 21
1.0
 31
0.0
 73
     1
 44
1.0
  0
ENDBLK
  5
26A
330
268
100
AcDbEntity
  8
0
100
AcDbBlockEnd
  0
BLOCK
  5
275
330
274
100
AcDbEntity
  8
0
100
AcDbBlockBegin
  2
*D35
 70
     1
 10
0.0
 20
0.0
 30
0.0
  3
*D35
  1

  0
INSERT
  5
277
330
274
100
AcDbEntity
  8
SLD-0_0
100
AcDbBlockReference
  2
_OPEN30
 10
370.4298559328
 20
66.3258822672
 30
0.1
 41
3.0
 42
3.0
 50
180.0
  0
INSERT
  5
278
330
274
100
AcDbEntity
  8
SLD-0_0
100
AcDbBlockReference
  2
_OPEN30
 10
360.4298559328
 20
66.3258822672
 30
0.1
 41
3.0
 42
3.0
 50
360.0
  0
LINE
  5
279
330
274
100
AcDbEntity
  8
SLD-0_0
100
AcDbLine
 10
370.4298559328
 20
75.3258822672
 30
0.0
 11
370.4298559328
 21
65.3258822672
 31
0.0
  0
LINE
  5
27A
330
274
100
AcDbEntity
  8
SLD-0_0
100
AcDbLine
 10
360.4298559328
 20
82.5758822672
 30
0.0
 11
360.4298559328
 21
65.3258822672
 31
0.0
  0
LINE
  5
27B
330
274
100
AcDbEntity
  8
SLD-0_0
100
AcDbLine
 10
370.4298559328
 20
66.3258822672
 30
0.0
 11
375.4298559328
 21
66.3258822672
 31
0.0
  0
LINE
  5
27C
330
274
100
AcDbEntity
  8
SLD-0_0
100
AcDbLine
 10
370.4298559328
 20
66.3258822672
 30
0.0
 11
360.4298559328
 21
66.3258822672
 31
0.0
  0
LINE
  5
27D
330
274
100
AcDbEntity
  8
SLD-0_0
100
AcDbLine
 10
360.4298559328
 20
66.3258822672
 30
0.0
 11
355.4298559328
 21
66.3258822672
 31
0.0
  0
MTEXT
  5
27E
330
274
100
AcDbEntity
  8
SLD-0_0
100
AcDbMText
 10
363.3947070393
 20
70.8376191236
 30
0.0
 40
3.5
 41
0.0
 71
     1
 72
     1
  1
10
  7
SLDTEXTSTYLE0
 73
     1
 44
1.0
  0
ENDBLK
  5
276
330
274
100
AcDbEntity
  8
0
100
AcDbBlockEnd
  0
BLOCK
  5
281
330
280
100
AcDbEntity
  8
0
100
AcDbBlockBegin
  2
*D36
 70
     1
 10
0.0
 20
0.0
 30
0.0
  3
*D36
  1

  0
INSERT
  5
283
330
280
100
AcDbEntity
  8
SLD-0_0
100
AcDbBlockReference
  2
_OPEN30
 10
337.2100531486
 20
92.9315476354
 30
0.1
 41
3.0
 42
3.0
 50
57.1014445262
  0
INSERT
  5
284
330
280
100
AcDbEntity
  8
SLD-0_0
100
AcDbBlockReference
  2
_OPEN30
 10
340.1973961969
 20
97.5495322079
 30
0.1
 41
3.0
 42
3.0
 50
237.1014445262
  0
LINE
  5
285
330
280
100
AcDbEntity
  8
SLD-0_0
100
AcDbLine
 10
337.2100531486
 20
92.9315476354
 30
0.0
 11
334.4942867411
 21
88.7333798422
 31
0.0
  0
LINE
  5
286
330
280
100
AcDbEntity
  8
SLD-0_0
100
AcDbLine
 10
337.2100531486
 20
92.9315476354
 30
0.0
 11
340.1973961969
 21
97.5495322079
 31
0.0
  0
LINE
  5
287
330
280
100
AcDbEntity
  8
SLD-0_0
100
AcDbLine
 10
340.1973961969
 20
97.5495322079
 30
0.0
 11
330.3885937636
 21
82.3865939112
 31
0.0
  0
MTEXT
  5
288
330
280
100
AcDbEntity
  8
SLD-0_0
100
AcDbMText
 10
327.4626439256
 20
86.1700768644
 30
0.0
 40
3.5
 41
0.0
 71
     1
 72
     1
  1
5.5
  7
SLDTEXTSTYLE0
 11
0.5431532815020226
 21
0.8396335586394725
 31
0.0
 73
     1
 44
1.0
  0
ENDBLK
  5
282
330
280
100
AcDbEntity
  8
0
100
AcDbBlockEnd
  0
BLOCK
  5
28B
330
28A
100
AcDbEntity
  8
0
100
AcDbBlockBegin
  2
*D37
 70
     1
 10
0.0
 20
0.0
 30
0.0
  3
*D37
  1

  0
INSERT
  5
28D
330
28A
100
AcDbEntity
  8
SLD-0_0
100
AcDbBlockReference
  2
_OPEN30
 10
337.1939836265
 20
105.7465248636
 30
0.1
 41
3.0
 42
3.0
 50
44.8063788246
  0
INSERT
  5
28E
330
28A
100
AcDbEntity
  8
SLD-0_0
100
AcDbBlockReference
  2
_OPEN30
 10
341.0961911894
 20
109.622447481
 30
0.1
 41
3.0
 42
3.0
 50
224.8063788246
  0
LINE
  5
28F
330
28A
100
AcDbEntity
  8
SLD-0_0
100
AcDbLine
 10
337.1939836265
 20
105.7465248636
 30
0.0
 11
349.3494317594
 21
117.8200949091
 31
0.0
  0
LINE
  5
290
330
28A
100
AcDbEntity
  8
SLD-0_0
100
AcDbLine
 10
337.1939836265
 20
105.7465248636
 30
0.0
 11
341.0961911894
 21
109.622447481
 31
0.0
  0
LINE
  5
291
330
28A
100
AcDbEntity
  8
SLD-0_0
100
AcDbLine
 10
341.0961911894
 20
109.622447481
 30
0.0
 11
344.6436526102
 21
113.1460134968
 31
0.0
  0
MTEXT
  5
292
330
28A
100
AcDbEntity
  8
SLD-0_0
100
AcDbMText
 10
340.7118649152
 20
115.5998162999
 30
0.0
 40
3.5
 41
0.0
 71
     1
 72
     1
  1
5.5
  7
SLDTEXTSTYLE0
 11
0.7094922841618952
 21
0.7047132031647602
 31
0.0
 73
     1
 44
1.0
  0
ENDBLK
  5
28C
330
28A
100
AcDbEntity
  8
0
100
AcDbBlockEnd
  0
BLOCK
  5
296
330
295
100
AcDbEntity
  8
0
100
AcDbBlockBegin
  2
*D38
 70
     1
 10
0.0
 20
0.0
 30
0.0
  3
*D38
  1

  0
INSERT
  5
298
330
295
100
AcDbEntity
  8
SLD-0_0
100
AcDbBlockReference
  2
_OPEN30
 10
359.4667900072
 20
131.4017324226
 30
0.1
 41
3.0
 42
3.0
 50
290.4999027334
  0
LINE
  5
299
330
295
100
AcDbEntity
  8
SLD-0_0
100
AcDbLine
 10
359.4667900072
 20
131.4017324226
 30
0.0
 11
353.8678699683
 21
146.3768018004
 31
0.0
  0
LINE
  5
29A
330
295
100
AcDbEntity
  8
SLD-0_0
100
AcDbLine
 10
353.8678699683
 20
146.3768018004
 30
0.0
 11
339.1341380122
 21
146.3768018004
 31
0.0
  0
MTEXT
  5
29B
330
295
100
AcDbEntity
  8
SLD-0_0
100
AcDbMText
 10
340.7216380122
 20
150.8885386568
 30
0.0
 40
3.5
 41
0.0
 71
     1
 72
     1
  1
%%c
  7
SLDTEXTSTYLE0
 73
     1
 44
1.0
  0
MTEXT
  5
29C
330
295
100
AcDbEntity
  8
SLD-0_0
100
AcDbMText
 10
344.5874232879
 20
150.8885386568
 30
0.0
 40
3.5
 41
0.0
 71
     1
 72
     1
  1
5.5
  7
SLDTEXTSTYLE0
 73
     1
 44
1.0
  0
ENDBLK
  5
297
330
295
100
AcDbEntity
  8
0
100
AcDbBlockEnd
  0
BLOCK
  5
29F
330
29E
100
AcDbEntity
  8
0
100
AcDbBlockBegin
  2
*D39
 70
     1
 10
0.0
 20
0.0
 30
0.0
  3
*D39
  1

  0
INSERT
  5
2A1
330
29E
100
AcDbEntity
  8
SLD-0_0
100
AcDbBlockReference
  2
_OPEN30
 10
360.4298559328
 20
154.4721574018
 30
0.1
 41
3.0
 42
3.0
 50
360.0
  0
INSERT
  5
2A2
330
29E
100
AcDbEntity
  8
SLD-0_0
100
AcDbBlockReference
  2
_OPEN30
 10
370.4298559328
 20
154.4721574018
 30
0.1
 41
3.0
 42
3.0
 50
180.0
  0
LINE
  5
2A3
330
29E
100
AcDbEntity
  8
SLD-0_0
100
AcDbLine
 10
360.4298559328
 20
135.0758822672
 30
0.0
 11
360.4298559328
 21
155.4721574018
 31
0.0
  0
LINE
  5
2A4
330
29E
100
AcDbEntity
  8
SLD-0_0
100
AcDbLine
 10
370.4298559328
 20
132.3258822672
 30
0.0
 11
370.4298559328
 21
155.4721574018
 31
0.0
  0
LINE
  5
2A5
330
29E
100
AcDbEntity
  8
SLD-0_0
100
AcDbLine
 10
360.4298559328
 20
154.4721574018
 30
0.0
 11
355.4298559328
 21
154.4721574018
 31
0.0
  0
LINE
  5
2A6
330
29E
100
AcDbEntity
  8
SLD-0_0
100
AcDbLine
 10
360.4298559328
 20
154.4721574018
 30
0.0
 11
370.4298559328
 21
154.4721574018
 31
0.0
  0
LINE
  5
2A7
330
29E
100
AcDbEntity
  8
SLD-0_0
100
AcDbLine
 10
370.4298559328
 20
154.4721574018
 30
0.0
 11
375.4298559328
 21
154.4721574018
 31
0.0
  0
MTEXT
  5
2A8
330
29E
100
AcDbEntity
  8
SLD-0_0
100
AcDbMText
 10
363.3947070394
 20
158.9838942581
 30
0.0
 40
3.5
 41
0.0
 71
     1
 72
     1
  1
10
  7
SLDTEXTSTYLE0
 73
     1
 44
1.0
  0
ENDBLK
  5
2A0
330
29E
100
AcDbEntity
  8
0
100
AcDbBlockEnd
  0
BLOCK
  5
2AB
330
2AA
100
AcDbEntity
  8
0
100
AcDbBlockBegin
  2
*D40
 70
     1
 10
0.0
 20
0.0
 30
0.0
  3
*D40
  1

  0
INSERT
  5
2AD
330
2AA
100
AcDbEntity
  8
SLD-0_0
100
AcDbBlockReference
  2
_OPEN30
 10
330.4298559328
 20
170.3258822672
 30
0.1
 41
3.0
 42
3.0
 50
180.0
  0
INSERT
  5
2AE
330
2AA
100
AcDbEntity
  8
SLD-0_0
100
AcDbBlockReference
  2
_OPEN30
 10
370.4298559328
 20
170.3258822672
 30
0.1
 41
3.0
 42
3.0
 50
360.0
  0
LINE
  5
2AF
330
2AA
100
AcDbEntity
  8
SLD-0_0
100
AcDbLine
 10
330.4298559328
 20
135.0758822672
 30
0.0
 11
330.4298559328
 21
171.3258822672
 31
0.0
  0
LINE
  5
2B0
330
2AA
100
AcDbEntity
  8
SLD-0_0
100
AcDbLine
 10
370.4298559328
 20
132.3258822672
 30
0.0
 11
370.4298559328
 21
171.3258822672
 31
0.0
  0
LINE
  5
2B1
330
2AA
100
AcDbEntity
  8
SLD-0_0
100
AcDbLine
 10
330.4298559328
 20
170.3258822672
 30
0.0
 11
370.4298559328
 21
170.3258822672
 31
0.0
  0
MTEXT
  5
2B2
330
2AA
100
AcDbEntity
  8
SLD-0_0
100
AcDbMText
 10
348.3947070394
 20
174.8376191236
 30
0.0
 40
3.5
 41
0.0
 71
     1
 72
     1
  1
40
  7
SLDTEXTSTYLE0
 73
     1
 44
1.0
  0
ENDBLK
  5
2AC
330
2AA
100
AcDbEntity
  8
0
100
AcDbBlockEnd
  0
BLOCK
  5
2B5
330
2B4
100
AcDbEntity
  8
0
100
AcDbBlockBegin
  2
*D41
 70
     1
 10
0.0
 20
0.0
 30
0.0
  3
*D41
  1

  0
INSERT
  5
2B7
330
2B4
100
AcDbEntity
  8
SLD-0_0
100
AcDbBlockReference
  2
_OPEN30
 10
320.4298559328
 20
170.3258822672
 30
0.1
 41
3.0
 42
3.0
 50
0.0
  0
INSERT
  5
2B8
330
2B4
100
AcDbEntity
  8
SLD-0_0
100
AcDbBlockReference
  2
_OPEN30
 10
330.4298559328
 20
170.3258822672
 30
0.1
 41
3.0
 42
3.0
 50
180.0
  0
LINE
  5
2B9
330
2B4
100
AcDbEntity
  8
SLD-0_0
100
AcDbLine
 10
320.4298559328
 20
135.0758822672
 30
0.0
 11
320.4298559328
 21
171.3258822672
 31
0.0
  0
LINE
  5
2BA
330
2B4
100
AcDbEntity
  8
SLD-0_0
100
AcDbLine
 10
330.4298559328
 20
135.0758822672
 30
0.0
 11
330.4298559328
 21
171.3258822672
 31
0.0
  0
LINE
  5
2BB
330
2B4
100
AcDbEntity
  8
SLD-0_0
100
AcDbLine
 10
320.4298559328
 20
170.3258822672
 30
0.0
 11
315.4298559328
 21
170.3258822672
 31
0.0
  0
LINE
  5
2BC
330
2B4
100
AcDbEntity
  8
SLD-0_0
100
AcDbLine
 10
320.4298559328
 20
170.3258822672
 30
0.0
 11
330.4298559328
 21
170.3258822672
 31
0.0
  0
LINE
  5
2BD
330
2B4
100
AcDbEntity
  8
SLD-0_0
100
AcDbLine
 10
330.4298559328
 20
170.3258822672
 30
0.0
 11
335.4298559328
 21
170.3258822672
 31
0.0
  0
MTEXT
  5
2BE
330
2B4
100
AcDbEntity
  8
SLD-0_0
100
AcDbMText
 10
323.3947070393
 20
174.8376191236
 30
0.0
 40
3.5
 41
0.0
 71
     1
 72
     1
  1
10
  7
SLDTEXTSTYLE0
 73
     1
 44
1.0
  0
ENDBLK
  5
2B6
330
2B4
100
AcDbEntity
  8
0
100
AcDbBlockEnd
  0
BLOCK
  5
2C1
330
2C0
100
AcDbEntity
  8
0
100
AcDbBlockBegin
  2
*D42
 70
     1
 10
0.0
 20
0.0
 30
0.0
  3
*D42
  1

  0
INSERT
  5
2C3
330
2C0
100
AcDbEntity
  8
SLD-0_0
100
AcDbBlockReference
  2
_OPEN30
 10
300.4298059328
 20
136.3258822672
 30
0.1
 41
3.0
 42
3.0
 50
270.0
  0
INSERT
  5
2C4
330
2C0
100
AcDbEntity
  8
SLD-0_0
100
AcDbBlockReference
  2
_OPEN30
 10
300.4298059328
 20
128.8258822672
 30
0.1
 41
3.0
 42
3.0
 50
90.0
  0
LINE
  5
2C5
330
2C0
100
AcDbEntity
  8
SLD-0_0
100
AcDbLine
 10
314.4298559328
 20
136.3258822672
 30
0.0
 11
299.4298059328
 21
136.3258822672
 31
0.0
  0
LINE
  5
2C6
330
2C0
100
AcDbEntity
  8
SLD-0_0
100
AcDbLine
 10
314.1798559328
 20
128.8258822672
 30
0.0
 11
299.4298059328
 21
128.8258822672
 31
0.0
  0
LINE
  5
2C7
330
2C0
100
AcDbEntity
  8
SLD-0_0
100
AcDbLine
 10
300.4298059328
 20
136.3258822672
 30
0.0
 11
300.4298059328
 21
147.7409675939
 31
0.0
  0
LINE
  5
2C8
330
2C0
100
AcDbEntity
  8
SLD-0_0
100
AcDbLine
 10
300.4298059328
 20
136.3258822672
 30
0.0
 11
300.4298059328
 21
128.8258822672
 31
0.0
  0
LINE
  5
2C9
330
2C0
100
AcDbEntity
  8
SLD-0_0
100
AcDbLine
 10
300.4298059328
 20
128.8258822672
 30
0.0
 11
300.4298059328
 21
123.8258822672
 31
0.0
  0
MTEXT
  5
2CA
330
2C0
100
AcDbEntity
  8
SLD-0_0
100
AcDbMText
 10
295.9180690765
 20
140.0480209134
 30
0.0
 40
3.5
 41
0.0
 71
     1
 72
     1
  1
7.5
  7
SLDTEXTSTYLE0
 11
-3.491481338843133E-15
 21
1.0
 31
0.0
 73
     1
 44
1.0
  0
ENDBLK
  5
2C2
330
2C0
100
AcDbEntity
  8
0
100
AcDbBlockEnd
  0
BLOCK
  5
2CC
330
2CB
100
AcDbEntity
  8
0
100
AcDbBlockBegin
  2
SW_CENTERMARKSYMBOL_4
 70
     0
 10
0.0
 20
0.0
 30
0.0
  3
SW_CENTERMARKSYMBOL_4
  1

  0
LINE
  5
2CE
330
2CB
100
AcDbEntity
  8
SLD-0_0
 62
     0
100
AcDbLine
 10
0.0
 20
0.0
 30
0.0
 11
0.0
 21
2.5
 31
0.0
  0
LINE
  5
2CF
330
2CB
100
AcDbEntity
  8
SLD-0_0
 62
     0
100
AcDbLine
 10
0.0
 20
0.0
 30
0.0
 11
-2.5
 21
0.0
 31
0.0
  0
LINE
  5
2D0
330
2CB
100
AcDbEntity
  8
SLD-0_0
 62
     0
100
AcDbLine
 10
0.0
 20
0.0
 30
0.0
 11
0.0
 21
-2.5
 31
0.0
  0
LINE
  5
2D1
330
2CB
100
AcDbEntity
  8
SLD-0_0
 62
     0
100
AcDbLine
 10
0.0
 20
0.0
 30
0.0
 11
2.5
 21
0.0
 31
0.0
  0
LINE
  5
2D2
330
2CB
100
AcDbEntity
  8
SLD-0_0
 62
     0
100
AcDbLine
 10
0.0
 20
5.0
 30
0.0
 11
0.0
 21
5.25
 31
0.0
  0
LINE
  5
2D3
330
2CB
100
AcDbEntity
  8
SLD-0_0
 62
     0
100
AcDbLine
 10
-5.0
 20
0.0
 30
0.0
 11
-5.25
 21
0.0
 31
0.0
  0
LINE
  5
2D4
330
2CB
100
AcDbEntity
  8
SLD-0_0
 62
     0
100
AcDbLine
 10
0.0
 20
-5.0
 30
0.0
 11
0.0
 21
-5.25
 31
0.0
  0
LINE
  5
2D5
330
2CB
100
AcDbEntity
  8
SLD-0_0
 62
     0
100
AcDbLine
 10
5.0
 20
0.0
 30
0.0
 11
5.25
 21
0.0
 31
0.0
  0
ENDBLK
  5
2CD
330
2CB
100
AcDbEntity
  8
0
100
AcDbBlockEnd
  0
BLOCK
  5
2D8
330
2D7
100
AcDbEntity
  8
0
100
AcDbBlockBegin
  2
SW_CENTERMARKSYMBOL_5
 70
     0
 10
0.0
 20
0.0
 30
0.0
  3
SW_CENTERMARKSYMBOL_5
  1

  0
LINE
  5
2DA
330
2D7
100
AcDbEntity
  8
SLD-0_0
 62
     0
100
AcDbLine
 10
0.0
 20
0.0
 30
0.0
 11
0.0
 21
2.5
 31
0.0
  0
LINE
  5
2DB
330
2D7
100
AcDbEntity
  8
SLD-0_0
 62
     0
100
AcDbLine
 10
0.0
 20
0.0
 30
0.0
 11
-2.5
 21
0.0
 31
0.0
  0
LINE
  5
2DC
330
2D7
100
AcDbEntity
  8
SLD-0_0
 62
     0
100
AcDbLine
 10
0.0
 20
0.0
 30
0.0
 11
0.0
 21
-2.5
 31
0.0
  0
LINE
  5
2DD
330
2D7
100
AcDbEntity
  8
SLD-0_0
 62
     0
100
AcDbLine
 10
0.0
 20
0.0
 30
0.0
 11
2.5
 21
0.0
 31
0.0
  0
LINE
  5
2DE
330
2D7
100
AcDbEntity
  8
SLD-0_0
 62
     0
100
AcDbLine
 10
0.0
 20
5.0
 30
0.0
 11
0.0
 21
5.25
 31
0.0
  0
LINE
  5
2DF
330
2D7
100
AcDbEntity
  8
SLD-0_0
 62
     0
100
AcDbLine
 10
-5.0
 20
0.0
 30
0.0
 11
-5.25
 21
0.0
 31
0.0
  0
LINE
  5
2E0
330
2D7
100
AcDbEntity
  8
SLD-0_0
 62
     0
100
AcDbLine
 10
0.0
 20
-5.0
 30
0.0
 11
0.0
 21
-5.25
 31
0.0
  0
LINE
  5
2E1
330
2D7
100
AcDbEntity
  8
SLD-0_0
 62
     0
100
AcDbLine
 10
5.0
 20
0.0
 30
0.0
 11
5.25
 21
0.0
 31
0.0
  0
ENDBLK
  5
2D9
330
2D7
100
AcDbEntity
  8
0
100
AcDbBlockEnd
  0
BLOCK
  5
2E4
330
2E3
100
AcDbEntity
  8
0
100
AcDbBlockBegin
  2
SW_CENTERMARKSYMBOL_6
 70
     0
 10
0.0
 20
0.0
 30
0.0
  3
SW_CENTERMARKSYMBOL_6
  1

  0
LINE
  5
2E6
330
2E3
100
AcDbEntity
  8
SLD-0_0
 62
     0
100
AcDbLine
 10
0.0
 20
0.0
 30
0.0
 11
0.0
 21
2.5
 31
0.0
  0
LINE
  5
2E7
330
2E3
100
AcDbEntity
  8
SLD-0_0
 62
     0
100
AcDbLine
 10
0.0
 20
0.0
 30
0.0
 11
-2.5
 21
0.0
 31
0.0
  0
LINE
  5
2E8
330
2E3
100
AcDbEntity
  8
SLD-0_0
 62
     0
100
AcDbLine
 10
0.0
 20
0.0
 30
0.0
 11
0.0
 21
-2.5
 31
0.0
  0
LINE
  5
2E9
330
2E3
100
AcDbEntity
  8
SLD-0_0
 62
     0
100
AcDbLine
 10
0.0
 20
0.0
 30
0.0
 11
2.5
 21
0.0
 31
0.0
  0
LINE
  5
2EA
330
2E3
100
AcDbEntity
  8
SLD-0_0
 62
     0
100
AcDbLine
 10
0.0
 20
5.0
 30
0.0
 11
0.0
 21
5.25
 31
0.0
  0
LINE
  5
2EB
330
2E3
100
AcDbEntity
  8
SLD-0_0
 62
     0
100
AcDbLine
 10
-5.0
 20
0.0
 30
0.0
 11
-5.25
 21
0.0
 31
0.0
  0
LINE
  5
2EC
330
2E3
100
AcDbEntity
  8
SLD-0_0
 62
     0
100
AcDbLine
 10
0.0
 20
-5.0
 30
0.0
 11
0.0
 21
-5.25
 31
0.0
  0
LINE
  5
2ED
330
2E3
100
AcDbEntity
  8
SLD-0_0
 62
     0
100
AcDbLine
 10
5.0
 20
0.0
 30
0.0
 11
5.25
 21
0.0
 31
0.0
  0
ENDBLK
  5
2E5
330
2E3
100
AcDbEntity
  8
0
100
AcDbBlockEnd
  0
BLOCK
  5
2F0
330
2EF
100
AcDbEntity
  8
0
100
AcDbBlockBegin
  2
SW_CENTERMARKSYMBOL_7
 70
     0
 10
0.0
 20
0.0
 30
0.0
  3
SW_CENTERMARKSYMBOL_7
  1

  0
LINE
  5
2F2
330
2EF
100
AcDbEntity
  8
SLD-0_0
 62
     0
100
AcDbLine
 10
0.0
 20
0.0
 30
0.0
 11
0.0
 21
2.5
 31
0.0
  0
LINE
  5
2F3
330
2EF
100
AcDbEntity
  8
SLD-0_0
 62
     0
100
AcDbLine
 10
0.0
 20
0.0
 30
0.0
 11
-2.5
 21
0.0
 31
0.0
  0
LINE
  5
2F4
330
2EF
100
AcDbEntity
  8
SLD-0_0
 62
     0
100
AcDbLine
 10
0.0
 20
0.0
 30
0.0
 11
0.0
 21
-2.5
 31
0.0
  0
LINE
  5
2F5
330
2EF
100
AcDbEntity
  8
SLD-0_0
 62
     0
100
AcDbLine
 10
0.0
 20
0.0
 30
0.0
 11
2.5
 21
0.0
 31
0.0
  0
LINE
  5
2F6
330
2EF
100
AcDbEntity
  8
SLD-0_0
 62
     0
100
AcDbLine
 10
0.0
 20
5.0
 30
0.0
 11
0.0
 21
5.25
 31
0.0
  0
LINE
  5
2F7
330
2EF
100
AcDbEntity
  8
SLD-0_0
 62
     0
100
AcDbLine
 10
-5.0
 20
0.0
 30
0.0
 11
-5.25
 21
0.0
 31
0.0
  0
LINE
  5
2F8
330
2EF
100
AcDbEntity
  8
SLD-0_0
 62
     0
100
AcDbLine
 10
0.0
 20
-5.0
 30
0.0
 11
0.0
 21
-5.25
 31
0.0
  0
LINE
  5
2F9
330
2EF
100
AcDbEntity
  8
SLD-0_0
 62
     0
100
AcDbLine
 10
5.0
 20
0.0
 30
0.0
 11
5.25
 21
0.0
 31
0.0
  0
ENDBLK
  5
2F1
330
2EF
100
AcDbEntity
  8
0
100
AcDbBlockEnd
  0
BLOCK
  5
2FC
330
2FB
100
AcDbEntity
  8
0
100
AcDbBlockBegin
  2
SW_CENTERMARKSYMBOL_8
 70
     0
 10
0.0
 20
0.0
 30
0.0
  3
SW_CENTERMARKSYMBOL_8
  1

  0
LINE
  5
2FE
330
2FB
100
AcDbEntity
  8
SLD-0_0
 62
     0
100
AcDbLine
 10
0.0
 20
0.0
 30
0.0
 11
0.0
 21
2.5
 31
0.0
  0
LINE
  5
2FF
330
2FB
100
AcDbEntity
  8
SLD-0_0
 62
     0
100
AcDbLine
 10
0.0
 20
0.0
 30
0.0
 11
-2.5
 21
0.0
 31
0.0
  0
LINE
  5
300
330
2FB
100
AcDbEntity
  8
SLD-0_0
 62
     0
100
AcDbLine
 10
0.0
 20
0.0
 30
0.0
 11
0.0
 21
-2.5
 31
0.0
  0
LINE
  5
301
330
2FB
100
AcDbEntity
  8
SLD-0_0
 62
     0
100
AcDbLine
 10
0.0
 20
0.0
 30
0.0
 11
2.5
 21
0.0
 31
0.0
  0
LINE
  5
302
330
2FB
100
AcDbEntity
  8
SLD-0_0
 62
     0
100
AcDbLine
 10
0.0
 20
5.0
 30
0.0
 11
0.0
 21
5.25
 31
0.0
  0
LINE
  5
303
330
2FB
100
AcDbEntity
  8
SLD-0_0
 62
     0
100
AcDbLine
 10
-5.0
 20
0.0
 30
0.0
 11
-5.25
 21
0.0
 31
0.0
  0
LINE
  5
304
330
2FB
100
AcDbEntity
  8
SLD-0_0
 62
     0
100
AcDbLine
 10
0.0
 20
-5.0
 30
0.0
 11
0.0
 21
-5.25
 31
0.0
  0
LINE
  5
305
330
2FB
100
AcDbEntity
  8
SLD-0_0
 62
     0
100
AcDbLine
 10
5.0
 20
0.0
 30
0.0
 11
5.25
 21
0.0
 31
0.0
  0
ENDBLK
  5
2FD
330
2FB
100
AcDbEntity
  8
0
100
AcDbBlockEnd
  0
BLOCK
  5
323
330
322
100
AcDbEntity
  8
0
100
AcDbBlockBegin
  2
*D48
 70
     1
 10
0.0
 20
0.0
 30
0.0
  3
*D48
  1

  0
INSERT
  5
325
330
322
100
AcDbEntity
  8
SLD-0_0
100
AcDbBlockReference
  2
_OPEN30
 10
87.5178572699
 20
124.9222181099
 30
0.1
 41
3.0
 42
3.0
 50
352.5233497081
  0
LINE
  5
326
330
322
100
AcDbEntity
  8
SLD-0_0
100
AcDbLine
 10
57.7729181012
 20
128.8258822672
 30
0.0
 11
68.0051643453
 21
127.4830234809
 31
0.0
  0
LINE
  5
327
330
322
100
AcDbEntity
  8
SLD-0_0
100
AcDbLine
 10
87.5178572699
 20
124.9222181099
 30
0.0
 11
77.2856110258
 21
126.2650768963
 31
0.0
  0
MTEXT
  5
328
330
322
100
AcDbEntity
  8
SLD-0_0
100
AcDbMText
 10
69.5926643453
 20
129.3506381515
 30
0.0
 40
3.5
 41
0.0
 71
     1
 72
     1
  1
R
  7
SLDTEXTSTYLE0
 73
     1
 44
1.0
  0
MTEXT
  5
329
330
322
100
AcDbEntity
  8
SLD-0_0
100
AcDbMText
 10
71.6278132388
 20
129.3506381515
 30
0.0
 40
3.5
 41
0.0
 71
     1
 72
     1
  1
30
  7
SLDTEXTSTYLE0
 73
     1
 44
1.0
  0
ENDBLK
  5
324
330
322
100
AcDbEntity
  8
0
100
AcDbBlockEnd
  0
BLOCK
  5
32C
330
32B
100
AcDbEntity
  8
0
100
AcDbBlockBegin
  2
*D49
 70
     1
 10
0.0
 20
0.0
 30
0.0
  3
*D49
  1

  0
INSERT
  5
32E
330
32B
100
AcDbEntity
  8
SLD-0_0
100
AcDbBlockReference
  2
_OPEN30
 10
64.9954682252
 20
89.4833509594
 30
0.1
 41
3.0
 42
3.0
 50
280.4025985424
  0
LINE
  5
32F
330
32B
100
AcDbEntity
  8
SLD-0_0
100
AcDbLine
 10
57.7729181012
 20
128.8258822672
 30
0.0
 11
61.0105780346
 21
111.1897655068
 31
0.0
  0
LINE
  5
330
330
32B
100
AcDbEntity
  8
SLD-0_0
100
AcDbLine
 10
64.9954682252
 20
89.4833509594
 30
0.0
 11
61.7578082918
 21
107.1194677198
 31
0.0
  0
MTEXT
  5
331
330
32B
100
AcDbEntity
  8
SLD-0_0
100
AcDbMText
 10
58.331469823
 20
111.6312045762
 30
0.0
 40
3.5
 41
0.0
 71
     1
 72
     1
  1
R
  7
SLDTEXTSTYLE0
 73
     1
 44
1.0
  0
MTEXT
  5
332
330
32B
100
AcDbEntity
  8
SLD-0_0
100
AcDbMText
 10
60.3666187165
 20
111.6312045762
 30
0.0
 40
3.5
 41
0.0
 71
     1
 72
     1
  1
40
  7
SLDTEXTSTYLE0
 73
     1
 44
1.0
  0
ENDBLK
  5
32D
330
32B
100
AcDbEntity
  8
0
100
AcDbBlockEnd
  0
BLOCK
  5
335
330
334
100
AcDbEntity
  8
0
100
AcDbBlockBegin
  2
*D50
 70
     1
 10
0.0
 20
0.0
 30
0.0
  3
*D50
  1

  0
INSERT
  5
337
330
334
100
AcDbEntity
  8
SLD-0_0
100
AcDbBlockReference
  2
_OPEN30
 10
87.7729181012
 20
164.3258822672
 30
0.1
 41
3.0
 42
3.0
 50
360.0
  0
INSERT
  5
338
330
334
100
AcDbEntity
  8
SLD-0_0
100
AcDbBlockReference
  2
_OPEN30
 10
97.7729181012
 20
164.3258822672
 30
0.1
 41
3.0
 42
3.0
 50
180.0
  0
LINE
  5
339
330
334
100
AcDbEntity
  8
SLD-0_0
100
AcDbLine
 10
87.7729181012
 20
135.0758822672
 30
0.0
 11
87.7729181012
 21
165.3258822672
 31
0.0
  0
LINE
  5
33A
330
334
100
AcDbEntity
  8
SLD-0_0
100
AcDbLine
 10
97.7729181012
 20
135.0758822672
 30
0.0
 11
97.7729181012
 21
165.3258822672
 31
0.0
  0
LINE
  5
33B
330
334
100
AcDbEntity
  8
SLD-0_0
100
AcDbLine
 10
87.7729181012
 20
164.3258822672
 30
0.0
 11
82.7729181012
 21
164.3258822672
 31
0.0
  0
LINE
  5
33C
330
334
100
AcDbEntity
  8
SLD-0_0
100
AcDbLine
 10
87.7729181012
 20
164.3258822672
 30
0.0
 11
97.7729181012
 21
164.3258822672
 31
0.0
  0
LINE
  5
33D
330
334
100
AcDbEntity
  8
SLD-0_0
100
AcDbLine
 10
97.7729181012
 20
164.3258822672
 30
0.0
 11
102.7729181012
 21
164.3258822672
 31
0.0
  0
MTEXT
  5
33E
330
334
100
AcDbEntity
  8
SLD-0_0
100
AcDbMText
 10
90.7377692077
 20
168.8376191236
 30
0.0
 40
3.5
 41
0.0
 71
     1
 72
     1
  1
10
  7
SLDTEXTSTYLE0
 73
     1
 44
1.0
  0
ENDBLK
  5
336
330
334
100
AcDbEntity
  8
0
100
AcDbBlockEnd
  0
BLOCK
  5
341
330
340
100
AcDbEntity
  8
0
100
AcDbBlockBegin
  2
*D51
 70
     1
 10
0.0
 20
0.0
 30
0.0
  3
*D51
  1

  0
INSERT
  5
343
330
340
100
AcDbEntity
  8
SLD-0_0
100
AcDbBlockReference
  2
_OPEN30
 10
47.7729181012
 20
164.3258822672
 30
0.1
 41
3.0
 42
3.0
 50
180.0
  0
INSERT
  5
344
330
340
100
AcDbEntity
  8
SLD-0_0
100
AcDbBlockReference
  2
_OPEN30
 10
87.7729181012
 20
164.3258822672
 30
0.1
 41
3.0
 42
3.0
 50
0.0
  0
LINE
  5
345
330
340
100
AcDbEntity
  8
SLD-0_0
100
AcDbLine
 10
47.7729181012
 20
132.3258822672
 30
0.0
 11
47.7729181012
 21
165.3258822672
 31
0.0
  0
LINE
  5
346
330
340
100
AcDbEntity
  8
SLD-0_0
100
AcDbLine
 10
87.7729181012
 20
135.0758822672
 30
0.0
 11
87.7729181012
 21
165.3258822672
 31
0.0
  0
LINE
  5
347
330
340
100
AcDbEntity
  8
SLD-0_0
100
AcDbLine
 10
47.7729181012
 20
164.3258822672
 30
0.0
 11
87.7729181012
 21
164.3258822672
 31
0.0
  0
MTEXT
  5
348
330
340
100
AcDbEntity
  8
SLD-0_0
100
AcDbMText
 10
65.7377692077
 20
168.8376191236
 30
0.0
 40
3.5
 41
0.0
 71
     1
 72
     1
  1
40
  7
SLDTEXTSTYLE0
 73
     1
 44
1.0
  0
ENDBLK
  5
342
330
340
100
AcDbEntity
  8
0
100
AcDbBlockEnd
  0
BLOCK
  5
34B
330
34A
100
AcDbEntity
  8
0
100
AcDbBlockBegin
  2
*D52
 70
     1
 10
0.0
 20
0.0
 30
0.0
  3
*D52
  1

  0
INSERT
  5
34D
330
34A
100
AcDbEntity
  8
SLD-0_0
100
AcDbBlockReference
  2
_OPEN30
 10
47.7729181012
 20
152.3258822672
 30
0.1
 41
3.0
 42
3.0
 50
0.0
  0
INSERT
  5
34E
330
34A
100
AcDbEntity
  8
SLD-0_0
100
AcDbBlockReference
  2
_OPEN30
 10
57.7729181012
 20
152.3258822672
 30
0.1
 41
3.0
 42
3.0
 50
180.0
  0
LINE
  5
34F
330
34A
100
AcDbEntity
  8
SLD-0_0
100
AcDbLine
 10
47.7729181012
 20
132.3258822672
 30
0.0
 11
47.7729181012
 21
153.3258822672
 31
0.0
  0
LINE
  5
350
330
34A
100
AcDbEntity
  8
SLD-0_0
100
AcDbLine
 10
57.7729181012
 20
135.0758822672
 30
0.0
 11
57.7729181012
 21
153.3258822672
 31
0.0
  0
LINE
  5
351
330
34A
100
AcDbEntity
  8
SLD-0_0
100
AcDbLine
 10
47.7729181012
 20
152.3258822672
 30
0.0
 11
42.7729181012
 21
152.3258822672
 31
0.0
  0
LINE
  5
352
330
34A
100
AcDbEntity
  8
SLD-0_0
100
AcDbLine
 10
47.7729181012
 20
152.3258822672
 30
0.0
 11
57.7729181012
 21
152.3258822672
 31
0.0
  0
LINE
  5
353
330
34A
100
AcDbEntity
  8
SLD-0_0
100
AcDbLine
 10
57.7729181012
 20
152.3258822672
 30
0.0
 11
62.7729181012
 21
152.3258822672
 31
0.0
  0
MTEXT
  5
354
330
34A
100
AcDbEntity
  8
SLD-0_0
100
AcDbMText
 10
50.7377692077
 20
156.8376191236
 30
0.0
 40
3.5
 41
0.0
 71
     1
 72
     1
  1
10
  7
SLDTEXTSTYLE0
 73
     1
 44
1.0
  0
ENDBLK
  5
34C
330
34A
100
AcDbEntity
  8
0
100
AcDbBlockEnd
  0
BLOCK
  5
357
330
356
100
AcDbEntity
  8
0
100
AcDbBlockBegin
  2
*D53
 70
     1
 10
0.0
 20
0.0
 30
0.0
  3
*D53
  1

  0
INSERT
  5
359
330
356
100
AcDbEntity
  8
SLD-0_0
100
AcDbBlockReference
  2
_OPEN30
 10
59.73409123
 20
130.7536529898
 30
0.1
 41
3.0
 42
3.0
 50
224.5078947105
  0
LINE
  5
35A
330
356
100
AcDbEntity
  8
SLD-0_0
100
AcDbLine
 10
59.73409123
 20
130.7536529898
 30
0.0
 11
72.7680160233
 21
143.5655859336
 31
0.0
  0
LINE
  5
35B
330
356
100
AcDbEntity
  8
SLD-0_0
100
AcDbLine
 10
72.7680160233
 20
143.5655859336
 30
0.0
 11
87.5017479794
 21
143.5655859336
 31
0.0
  0
MTEXT
  5
35C
330
356
100
AcDbEntity
  8
SLD-0_0
100
AcDbMText
 10
75.9430160233
 20
148.07732279
 30
0.0
 40
3.5
 41
0.0
 71
     1
 72
     1
  1
%%c
  7
SLDTEXTSTYLE0
 73
     1
 44
1.0
  0
MTEXT
  5
35D
330
356
100
AcDbEntity
  8
SLD-0_0
100
AcDbMText
 10
79.8088012989
 20
148.07732279
 30
0.0
 40
3.5
 41
0.0
 71
     1
 72
     1
  1
5.5
  7
SLDTEXTSTYLE0
 73
     1
 44
1.0
  0
ENDBLK
  5
358
330
356
100
AcDbEntity
  8
0
100
AcDbBlockEnd
  0
BLOCK
  5
360
330
35F
100
AcDbEntity
  8
0
100
AcDbBlockBegin
  2
*D54
 70
     1
 10
0.0
 20
0.0
 30
0.0
  3
*D54
  1

  0
INSERT
  5
362
330
35F
100
AcDbEntity
  8
SLD-0_0
100
AcDbBlockReference
  2
_OPEN30
 10
37.7728681012
 20
136.3258822672
 30
0.1
 41
3.0
 42
3.0
 50
270.0
  0
INSERT
  5
363
330
35F
100
AcDbEntity
  8
SLD-0_0
100
AcDbBlockReference
  2
_OPEN30
 10
37.7728681012
 20
128.8258822672
 30
0.1
 41
3.0
 42
3.0
 50
90.0
  0
LINE
  5
364
330
35F
100
AcDbEntity
  8
SLD-0_0
100
AcDbLine
 10
51.7729181012
 20
136.3258822672
 30
0.0
 11
36.7728681012
 21
136.3258822672
 31
0.0
  0
LINE
  5
365
330
35F
100
AcDbEntity
  8
SLD-0_0
100
AcDbLine
 10
51.5229181012
 20
128.8258822672
 30
0.0
 11
36.7728681012
 21
128.8258822672
 31
0.0
  0
LINE
  5
366
330
35F
100
AcDbEntity
  8
SLD-0_0
100
AcDbLine
 10
37.7728681012
 20
136.3258822672
 30
0.0
 11
37.7728681012
 21
148.2980102807
 31
0.0
  0
LINE
  5
367
330
35F
100
AcDbEntity
  8
SLD-0_0
100
AcDbLine
 10
37.7728681012
 20
136.3258822672
 30
0.0
 11
37.7728681012
 21
128.8258822672
 31
0.0
  0
LINE
  5
368
330
35F
100
AcDbEntity
  8
SLD-0_0
100
AcDbLine
 10
37.7728681012
 20
128.8258822672
 30
0.0
 11
37.7728681012
 21
123.8258822672
 31
0.0
  0
MTEXT
  5
369
330
35F
100
AcDbEntity
  8
SLD-0_0
100
AcDbMText
 10
33.2611312448
 20
140.6050636002
 30
0.0
 40
3.5
 41
0.0
 71
     1
 72
     1
  1
7.5
  7
SLDTEXTSTYLE0
 11
-1.059690869644414E-14
 21
1.0
 31
0.0
 73
     1
 44
1.0
  0
ENDBLK
  5
361
330
35F
100
AcDbEntity
  8
0
100
AcDbBlockEnd
  0
BLOCK
  5
36C
330
36B
100
AcDbEntity
  8
0
100
AcDbBlockBegin
  2
*D55
 70
     1
 10
0.0
 20
0.0
 30
0.0
  3
*D55
  1

  0
INSERT
  5
36E
330
36B
100
AcDbEntity
  8
SLD-0_0
100
AcDbBlockReference
  2
_OPEN30
 10
28.9328170042
 20
136.3258822672
 30
0.1
 41
3.0
 42
3.0
 50
90.0
  0
INSERT
  5
36F
330
36B
100
AcDbEntity
  8
SLD-0_0
100
AcDbBlockReference
  2
_OPEN30
 10
28.9328170042
 20
98.8258822672
 30
0.1
 41
3.0
 42
3.0
 50
270.0
  0
LINE
  5
370
330
36B
100
AcDbEntity
  8
SLD-0_0
100
AcDbLine
 10
51.7729181012
 20
136.3258822672
 30
0.0
 11
27.9328170042
 21
136.3258822672
 31
0.0
  0
LINE
  5
371
330
36B
100
AcDbEntity
  8
SLD-0_0
100
AcDbLine
 10
51.5229181012
 20
98.8258822672
 30
0.0
 11
27.9328170042
 21
98.8258822672
 31
0.0
  0
LINE
  5
372
330
36B
100
AcDbEntity
  8
SLD-0_0
100
AcDbLine
 10
28.9328170042
 20
136.3258822672
 30
0.0
 11
28.9328170042
 21
98.8258822672
 31
0.0
  0
MTEXT
  5
373
330
36B
100
AcDbEntity
  8
SLD-0_0
100
AcDbMText
 10
24.4210801478
 20
113.5030904252
 30
0.0
 40
3.5
 41
0.0
 71
     1
 72
     1
  1
37.5
  7
SLDTEXTSTYLE0
 11
-1.059690869644414E-14
 21
1.0
 31
0.0
 73
     1
 44
1.0
  0
ENDBLK
  5
36D
330
36B
100
AcDbEntity
  8
0
100
AcDbBlockEnd
  0
BLOCK
  5
376
330
375
100
AcDbEntity
  8
0
100
AcDbBlockBegin
  2
*D56
 70
     1
 10
0.0
 20
0.0
 30
0.0
  3
*D56
  1

  0
INSERT
  5
378
330
375
100
AcDbEntity
  8
SLD-0_0
100
AcDbBlockReference
  2
_OPEN30
 10
28.9328170042
 20
98.8258822672
 30
0.1
 41
3.0
 42
3.0
 50
270.0
  0
INSERT
  5
379
330
375
100
AcDbEntity
  8
SLD-0_0
100
AcDbBlockReference
  2
_OPEN30
 10
28.9328170042
 20
88.8258822672
 30
0.1
 41
3.0
 42
3.0
 50
90.0
  0
LINE
  5
37A
330
375
100
AcDbEntity
  8
SLD-0_0
100
AcDbLine
 10
51.5229181012
 20
98.8258822672
 30
0.0
 11
27.9328170042
 21
98.8258822672
 31
0.0
  0
LINE
  5
37B
330
375
100
AcDbEntity
  8
SLD-0_0
100
AcDbLine
 10
51.5229181012
 20
88.8258822672
 30
0.0
 11
27.9328170042
 21
88.8258822672
 31
0.0
  0
LINE
  5
37C
330
375
100
AcDbEntity
  8
SLD-0_0
100
AcDbLine
 10
28.9328170042
 20
98.8258822672
 30
0.0
 11
28.9328170042
 21
103.8258822672
 31
0.0
  0
LINE
  5
37D
330
375
100
AcDbEntity
  8
SLD-0_0
100
AcDbLine
 10
28.9328170042
 20
98.8258822672
 30
0.0
 11
28.9328170042
 21
88.8258822672
 31
0.0
  0
LINE
  5
37E
330
375
100
AcDbEntity
  8
SLD-0_0
100
AcDbLine
 10
28.9328170042
 20
88.8258822672
 30
0.0
 11
28.9328170042
 21
83.8258822672
 31
0.0
  0
MTEXT
  5
37F
330
375
100
AcDbEntity
  8
SLD-0_0
100
AcDbMText
 10
24.4210801478
 20
91.7907333737
 30
0.0
 40
3.5
 41
0.0
 71
     1
 72
     1
  1
10
  7
SLDTEXTSTYLE0
 11
-7.044195017643634E-15
 21
1.0
 31
0.0
 73
     1
 44
1.0
  0
ENDBLK
  5
377
330
375
100
AcDbEntity
  8
0
100
AcDbBlockEnd
  0
BLOCK
  5
382
330
381
100
AcDbEntity
  8
0
100
AcDbBlockBegin
  2
*D57
 70
     1
 10
0.0
 20
0.0
 30
0.0
  3
*D57
  1

  0
INSERT
  5
384
330
381
100
AcDbEntity
  8
SLD-0_0
100
AcDbBlockReference
  2
_OPEN30
 10
47.7729181012
 20
63.3925230693
 30
0.1
 41
3.0
 42
3.0
 50
0.0
  0
INSERT
  5
385
330
381
100
AcDbEntity
  8
SLD-0_0
100
AcDbBlockReference
  2
_OPEN30
 10
57.7729181012
 20
63.3925230693
 30
0.1
 41
3.0
 42
3.0
 50
180.0
  0
LINE
  5
386
330
381
100
AcDbEntity
  8
SLD-0_0
100
AcDbLine
 10
47.7729181012
 20
75.3258822672
 30
0.0
 11
47.7729181012
 21
62.3925230693
 31
0.0
  0
LINE
  5
387
330
381
100
AcDbEntity
  8
SLD-0_0
100
AcDbLine
 10
57.7729181012
 20
82.5758822672
 30
0.0
 11
57.7729181012
 21
62.3925230693
 31
0.0
  0
LINE
  5
388
330
381
100
AcDbEntity
  8
SLD-0_0
100
AcDbLine
 10
47.7729181012
 20
63.3925230693
 30
0.0
 11
42.7729181012
 21
63.3925230693
 31
0.0
  0
LINE
  5
389
330
381
100
AcDbEntity
  8
SLD-0_0
100
AcDbLine
 10
47.7729181012
 20
63.3925230693
 30
0.0
 11
57.7729181012
 21
63.3925230693
 31
0.0
  0
LINE
  5
38A
330
381
100
AcDbEntity
  8
SLD-0_0
100
AcDbLine
 10
57.7729181012
 20
63.3925230693
 30
0.0
 11
62.7729181012
 21
63.3925230693
 31
0.0
  0
MTEXT
  5
38B
330
381
100
AcDbEntity
  8
SLD-0_0
100
AcDbMText
 10
50.7377692077
 20
67.9042599257
 30
0.0
 40
3.5
 41
0.0
 71
     1
 72
     1
  1
10
  7
SLDTEXTSTYLE0
 73
     1
 44
1.0
  0
ENDBLK
  5
383
330
381
100
AcDbEntity
  8
0
100
AcDbBlockEnd
  0
BLOCK
  5
38E
330
38D
100
AcDbEntity
  8
0
100
AcDbBlockBegin
  2
*D58
 70
     1
 10
0.0
 20
0.0
 30
0.0
  3
*D58
  1

  0
INSERT
  5
390
330
38D
100
AcDbEntity
  8
SLD-0_0
100
AcDbBlockReference
  2
_OPEN30
 10
79.8561832734
 20
92.2213484041
 30
0.1
 41
3.0
 42
3.0
 50
121.1022936534
  0
INSERT
  5
391
330
38D
100
AcDbEntity
  8
SLD-0_0
100
AcDbBlockReference
  2
_OPEN30
 10
77.0150614384
 20
96.930703638
 30
0.1
 41
3.0
 42
3.0
 50
301.1022936534
  0
LINE
  5
392
330
38D
100
AcDbEntity
  8
SLD-0_0
100
AcDbLine
 10
79.8561832734
 20
92.2213484041
 30
0.0
 11
82.4390213053
 21
87.9401163734
 31
0.0
  0
LINE
  5
393
330
38D
100
AcDbEntity
  8
SLD-0_0
100
AcDbLine
 10
79.8561832734
 20
92.2213484041
 30
0.0
 11
77.0150614384
 21
96.930703638
 31
0.0
  0
LINE
  5
394
330
38D
100
AcDbEntity
  8
SLD-0_0
100
AcDbLine
 10
77.0150614384
 20
96.930703638
 30
0.0
 11
86.8578823499
 21
80.6155496718
 31
0.0
  0
MTEXT
  5
395
330
38D
100
AcDbEntity
  8
SLD-0_0
100
AcDbMText
 10
86.747113766
 20
89.5332247282
 30
0.0
 40
3.5
 41
0.0
 71
     1
 72
     1
  1
5.5
  7
SLDTEXTSTYLE0
 11
0.5165676063681061
 21
-0.8562464061536991
 31
0.0
 73
     1
 44
1.0
  0
ENDBLK
  5
38F
330
38D
100
AcDbEntity
  8
0
100
AcDbBlockEnd
  0
BLOCK
  5
398
330
397
100
AcDbEntity
  8
0
100
AcDbBlockBegin
  2
*D59
 70
     1
 10
0.0
 20
0.0
 30
0.0
  3
*D59
  1

  0
INSERT
  5
39A
330
397
100
AcDbEntity
  8
SLD-0_0
100
AcDbBlockReference
  2
_OPEN30
 10
82.5008104716
 20
107.3527865677
 30
0.1
 41
3.0
 42
3.0
 50
139.029751847
  0
INSERT
  5
39B
330
397
100
AcDbEntity
  8
SLD-0_0
100
AcDbBlockReference
  2
_OPEN30
 10
78.3480346536
 20
110.9589553111
 30
0.1
 41
3.0
 42
3.0
 50
319.029751847
  0
LINE
  5
39C
330
397
100
AcDbEntity
  8
SLD-0_0
100
AcDbLine
 10
82.5008104716
 20
107.3527865677
 30
0.0
 11
67.2245419147
 21
120.6183237894
 31
0.0
  0
LINE
  5
39D
330
397
100
AcDbEntity
  8
SLD-0_0
100
AcDbLine
 10
82.5008104716
 20
107.3527865677
 30
0.0
 11
78.3480346536
 21
110.9589553111
 31
0.0
  0
LINE
  5
39E
330
397
100
AcDbEntity
  8
SLD-0_0
100
AcDbLine
 10
78.3480346536
 20
110.9589553111
 30
0.0
 11
74.5727839101
 21
114.2372905324
 31
0.0
  0
MTEXT
  5
39F
330
397
100
AcDbEntity
  8
SLD-0_0
100
AcDbMText
 10
71.3813811949
 20
122.984039941
 30
0.0
 40
3.5
 41
0.0
 71
     1
 72
     1
  1
5.5
  7
SLDTEXTSTYLE0
 11
0.7550501487133283
 21
-0.6556670442594936
 31
0.0
 73
     1
 44
1.0
  0
ENDBLK
  5
399
330
397
100
AcDbEntity
  8
0
100
AcDbBlockEnd
  0
BLOCK
  5
3A2
330
3A1
100
AcDbEntity
  8
0
100
AcDbBlockBegin
  2
*D60
 70
     1
 10
0.0
 20
0.0
 30
0.0
  3
*D60
  1

  0
INSERT
  5
3A4
330
3A1
100
AcDbEntity
  8
SLD-0_0
100
AcDbBlockReference
  2
_OPEN30
 10
117.7729681012
 20
136.3258822672
 30
0.1
 41
3.0
 42
3.0
 50
90.0
  0
INSERT
  5
3A5
330
3A1
100
AcDbEntity
  8
SLD-0_0
100
AcDbBlockReference
  2
_OPEN30
 10
117.7729681012
 20
128.8258822672
 30
0.1
 41
3.0
 42
3.0
 50
270.0
  0
LINE
  5
3A6
330
3A1
100
AcDbEntity
  8
SLD-0_0
100
AcDbLine
 10
103.7729181012
 20
136.3258822672
 30
0.0
 11
118.7729681012
 21
136.3258822672
 31
0.0
  0
LINE
  5
3A7
330
3A1
100
AcDbEntity
  8
SLD-0_0
100
AcDbLine
 10
104.0229181012
 20
128.8258822672
 30
0.0
 11
118.7729681012
 21
128.8258822672
 31
0.0
  0
LINE
  5
3A8
330
3A1
100
AcDbEntity
  8
SLD-0_0
100
AcDbLine
 10
117.7729681012
 20
136.3258822672
 30
0.0
 11
117.7729681012
 21
148.2980102807
 31
0.0
  0
LINE
  5
3A9
330
3A1
100
AcDbEntity
  8
SLD-0_0
100
AcDbLine
 10
117.7729681012
 20
136.3258822672
 30
0.0
 11
117.7729681012
 21
128.8258822672
 31
0.0
  0
MTEXT
  5
3AA
330
3A1
100
AcDbEntity
  8
SLD-0_0
100
AcDbMText
 10
113.2612312448
 20
140.6050636002
 30
0.0
 40
3.5
 41
0.0
 71
     1
 72
     1
  1
7.5
  7
SLDTEXTSTYLE0
 11
-1.059690869644414E-14
 21
1.0
 31
0.0
 73
     1
 44
1.0
  0
ENDBLK
  5
3A3
330
3A1
100
AcDbEntity
  8
0
100
AcDbBlockEnd
  0
BLOCK
  5
3AC
330
3AB
100
AcDbEntity
  8
0
100
AcDbBlockBegin
  2
SW_CENTERMARKSYMBOL_9
 70
     0
 10
0.0
 20
0.0
 30
0.0
  3
SW_CENTERMARKSYMBOL_9
  1

  0
LINE
  5
3AE
330
3AB
100
AcDbEntity
  8
SLD-0_0
 62
     0
100
AcDbLine
 10
0.0
 20
0.0
 30
0.0
 11
0.0
 21
2.5
 31
0.0
  0
LINE
  5
3AF
330
3AB
100
AcDbEntity
  8
SLD-0_0
 62
     0
100
AcDbLine
 10
0.0
 20
0.0
 30
0.0
 11
-2.5
 21
0.0
 31
0.0
  0
LINE
  5
3B0
330
3AB
100
AcDbEntity
  8
SLD-0_0
 62
     0
100
AcDbLine
 10
0.0
 20
0.0
 30
0.0
 11
0.0
 21
-2.5
 31
0.0
  0
LINE
  5
3B1
330
3AB
100
AcDbEntity
  8
SLD-0_0
 62
     0
100
AcDbLine
 10
0.0
 20
0.0
 30
0.0
 11
2.5
 21
0.0
 31
0.0
  0
LINE
  5
3B2
330
3AB
100
AcDbEntity
  8
SLD-0_0
 62
     0
100
AcDbLine
 10
0.0
 20
5.0
 30
0.0
 11
0.0
 21
5.25
 31
0.0
  0
LINE
  5
3B3
330
3AB
100
AcDbEntity
  8
SLD-0_0
 62
     0
100
AcDbLine
 10
-5.0
 20
0.0
 30
0.0
 11
-5.25
 21
0.0
 31
0.0
  0
LINE
  5
3B4
330
3AB
100
AcDbEntity
  8
SLD-0_0
 62
     0
100
AcDbLine
 10
0.0
 20
-5.0
 30
0.0
 11
0.0
 21
-5.25
 31
0.0
  0
LINE
  5
3B5
330
3AB
100
AcDbEntity
  8
SLD-0_0
 62
     0
100
AcDbLine
 10
5.0
 20
0.0
 30
0.0
 11
5.25
 21
0.0
 31
0.0
  0
ENDBLK
  5
3AD
330
3AB
100
AcDbEntity
  8
0
100
AcDbBlockEnd
  0
BLOCK
  5
3B8
330
3B7
100
AcDbEntity
  8
0
100
AcDbBlockBegin
  2
SW_CENTERMARKSYMBOL_10
 70
     0
 10
0.0
 20
0.0
 30
0.0
  3
SW_CENTERMARKSYMBOL_10
  1

  0
LINE
  5
3BA
330
3B7
100
AcDbEntity
  8
SLD-0_0
 62
     0
100
AcDbLine
 10
0.0
 20
0.0
 30
0.0
 11
0.0
 21
2.5
 31
0.0
  0
LINE
  5
3BB
330
3B7
100
AcDbEntity
  8
SLD-0_0
 62
     0
100
AcDbLine
 10
0.0
 20
0.0
 30
0.0
 11
-2.5
 21
0.0
 31
0.0
  0
LINE
  5
3BC
330
3B7
100
AcDbEntity
  8
SLD-0_0
 62
     0
100
AcDbLine
 10
0.0
 20
0.0
 30
0.0
 11
0.0
 21
-2.5
 31
0.0
  0
LINE
  5
3BD
330
3B7
100
AcDbEntity
  8
SLD-0_0
 62
     0
100
AcDbLine
 10
0.0
 20
0.0
 30
0.0
 11
2.5
 21
0.0
 31
0.0
  0
LINE
  5
3BE
330
3B7
100
AcDbEntity
  8
SLD-0_0
 62
     0
100
AcDbLine
 10
0.0
 20
5.0
 30
0.0
 11
0.0
 21
5.25
 31
0.0
  0
LINE
  5
3BF
330
3B7
100
AcDbEntity
  8
SLD-0_0
 62
     0
100
AcDbLine
 10
-5.0
 20
0.0
 30
0.0
 11
-5.25
 21
0.0
 31
0.0
  0
LINE
  5
3C0
330
3B7
100
AcDbEntity
  8
SLD-0_0
 62
     0
100
AcDbLine
 10
0.0
 20
-5.0
 30
0.0
 11
0.0
 21
-5.25
 31
0.0
  0
LINE
  5
3C1
330
3B7
100
AcDbEntity
  8
SLD-0_0
 62
     0
100
AcDbLine
 10
10.0
 20
0.0
 30
0.0
 11
10.0
 21
2.5
 31
0.0
  0
LINE
  5
3C2
330
3B7
100
AcDbEntity
  8
SLD-0_0
 62
     0
100
AcDbLine
 10
10.0
 20
0.0
 30
0.0
 11
7.5
 21
0.0
 31
0.0
  0
LINE
  5
3C3
330
3B7
100
AcDbEntity
  8
SLD-0_0
 62
     0
100
AcDbLine
 10
10.0
 20
0.0
 30
0.0
 11
10.0
 21
-2.5
 31
0.0
  0
LINE
  5
3C4
330
3B7
100
AcDbEntity
  8
SLD-0_0
 62
     0
100
AcDbLine
 10
10.0
 20
0.0
 30
0.0
 11
12.5
 21
0.0
 31
0.0
  0
LINE
  5
3C5
330
3B7
100
AcDbEntity
  8
SLD-0_0
 62
     0
100
AcDbLine
 10
10.0
 20
5.0
 30
0.0
 11
10.0
 21
5.25
 31
0.0
  0
LINE
  5
3C6
330
3B7
100
AcDbEntity
  8
SLD-0_0
 62
     0
100
AcDbLine
 10
10.0
 20
-5.0
 30
0.0
 11
10.0
 21
-5.25
 31
0.0
  0
LINE
  5
3C7
330
3B7
100
AcDbEntity
  8
SLD-0_0
 62
     0
100
AcDbLine
 10
15.0
 20
0.0
 30
0.0
 11
15.25
 21
0.0
 31
0.0
  0
LINE
  5
3C8
330
3B7
100
AcDbEntity
  8
SLD-0_0
 62
     0
100
AcDbLine
 10
-30.0
 20
-30.0
 30
0.0
 11
-30.0
 21
-27.5
 31
0.0
  0
LINE
  5
3C9
330
3B7
100
AcDbEntity
  8
SLD-0_0
 62
     0
100
AcDbLine
 10
-30.0
 20
-30.0
 30
0.0
 11
-32.5
 21
-30.0
 31
0.0
  0
LINE
  5
3CA
330
3B7
100
AcDbEntity
  8
SLD-0_0
 62
     0
100
AcDbLine
 10
-30.0
 20
-30.0
 30
0.0
 11
-30.0
 21
-32.5
 31
0.0
  0
LINE
  5
3CB
330
3B7
100
AcDbEntity
  8
SLD-0_0
 62
     0
100
AcDbLine
 10
-30.0
 20
-30.0
 30
0.0
 11
-27.5
 21
-30.0
 31
0.0
  0
LINE
  5
3CC
330
3B7
100
AcDbEntity
  8
SLD-0_0
 62
     0
100
AcDbLine
 10
-30.0
 20
-25.0
 30
0.0
 11
-30.0
 21
-24.75
 31
0.0
  0
LINE
  5
3CD
330
3B7
100
AcDbEntity
  8
SLD-0_0
 62
     0
100
AcDbLine
 10
-35.0
 20
-30.0
 30
0.0
 11
-35.25
 21
-30.0
 31
0.0
  0
LINE
  5
3CE
330
3B7
100
AcDbEntity
  8
SLD-0_0
 62
     0
100
AcDbLine
 10
-25.0
 20
-30.0
 30
0.0
 11
-24.75
 21
-30.0
 31
0.0
  0
LINE
  5
3CF
330
3B7
100
AcDbEntity
  8
SLD-0_0
 62
     0
100
AcDbLine
 10
-30.0
 20
-40.0
 30
0.0
 11
-30.0
 21
-37.5
 31
0.0
  0
LINE
  5
3D0
330
3B7
100
AcDbEntity
  8
SLD-0_0
 62
     0
100
AcDbLine
 10
-30.0
 20
-40.0
 30
0.0
 11
-32.5
 21
-40.0
 31
0.0
  0
LINE
  5
3D1
330
3B7
100
AcDbEntity
  8
SLD-0_0
 62
     0
100
AcDbLine
 10
-30.0
 20
-40.0
 30
0.0
 11
-30.0
 21
-42.5
 31
0.0
  0
LINE
  5
3D2
330
3B7
100
AcDbEntity
  8
SLD-0_0
 62
     0
100
AcDbLine
 10
-30.0
 20
-40.0
 30
0.0
 11
-27.5
 21
-40.0
 31
0.0
  0
LINE
  5
3D3
330
3B7
100
AcDbEntity
  8
SLD-0_0
 62
     0
100
AcDbLine
 10
-35.0
 20
-40.0
 30
0.0
 11
-35.25
 21
-40.0
 31
0.0
  0
LINE
  5
3D4
330
3B7
100
AcDbEntity
  8
SLD-0_0
 62
     0
100
AcDbLine
 10
-30.0
 20
-45.0
 30
0.0
 11
-30.0
 21
-45.25
 31
0.0
  0
LINE
  5
3D5
330
3B7
100
AcDbEntity
  8
SLD-0_0
 62
     0
100
AcDbLine
 10
-25.0
 20
-40.0
 30
0.0
 11
-24.75
 21
-40.0
 31
0.0
  0
ENDBLK
  5
3B9
330
3B7
100
AcDbEntity
  8
0
100
AcDbBlockEnd
  0
ENDSEC
  0
SECTION
  2
ENTITIES
  0
LINE
  5
49
330
1F
100
AcDbEntity
  8
SLD-0
100
AcDbLine
 10
334.4999964925
 20
24.4999957746
 30
0.0
 11
334.4999964925
 21
36.9999957746
 31
0.0
  0
LINE
  5
4A
330
1F
100
AcDbEntity
  8
SLD-0
100
AcDbLine
 10
16.9999964925
 20
11.9999957746
 30
0.0
 11
402.9999964925
 21
11.9999957746
 31
0.0
  0
LINE
  5
4B
330
1F
100
AcDbEntity
  8
SLD-0
100
AcDbLine
 10
16.9999964925
 20
11.9999957746
 30
0.0
 11
16.9999964925
 21
284.9999957746
 31
0.0
  0
LINE
  5
4C
330
1F
100
AcDbEntity
  8
SLD-0
100
AcDbLine
 10
16.9999964925
 20
284.9999957746
 30
0.0
 11
402.9999964925
 21
284.9999957746
 31
0.0
  0
LINE
  5
4D
330
1F
100
AcDbEntity
  8
SLD-0
100
AcDbLine
 10
402.9999964925
 20
11.9999957746
 30
0.0
 11
402.9999964925
 21
284.9999957746
 31
0.0
  0
LINE
  5
4E
330
1F
100
AcDbEntity
  8
SLD-0
100
AcDbLine
 10
402.9999964925
 20
24.4999957746
 30
0.0
 11
334.4999964925
 21
24.4999957746
 31
0.0
  0
LINE
  5
4F
330
1F
100
AcDbEntity
  8
SLD-0
100
AcDbLine
 10
334.4999964925
 20
11.9999957746
 30
0.0
 11
334.4999964925
 21
24.4999957746
 31
0.0
  0
LINE
  5
50
330
1F
100
AcDbEntity
  8
SLD-0
100
AcDbLine
 10
334.4999964925
 20
36.9999957746
 30
0.0
 11
402.9999964925
 21
36.9999957746
 31
0.0
  0
LINE
  5
51
330
1F
100
AcDbEntity
  8
SLD-0
100
AcDbLine
 10
334.4999964925
 20
36.9999957746
 30
0.0
 11
334.4999964925
 21
49.4999957746
 31
0.0
  0
LINE
  5
52
330
1F
100
AcDbEntity
  8
SLD-0
100
AcDbLine
 10
334.4999964925
 20
49.4999957746
 30
0.0
 11
402.9999964925
 21
49.4999957746
 31
0.0
  0
MTEXT
  5
76
330
1F
100
AcDbEntity
  8
SLD-0_0
100
AcDbMText
 10
361.3475363989
 20
20.8107374856
 30
0.0
 40
5.2916666667
 41
0.0
 71
     1
 72
     1
  1
110656
  7
SLDTEXTSTYLE0
 73
     1
 44
1.0
  0
MTEXT
  5
77
330
1F
100
AcDbEntity
  8
SLD-0_0
100
AcDbMText
 10
348.1183646534
 20
33.3012764114
 30
0.0
 40
4.7625
 41
0.0
 71
     1
 72
     1
  1
LX0090-100(L.R)
  7
SLDTEXTSTYLE0
 73
     1
 44
1.0
  0
MTEXT
  5
78
330
1F
100
AcDbEntity
  8
SLD-0_0
100
AcDbMText
 10
343.7086547081
 20
45.7152575492
 30
0.0
 40
4.2333333333
 41
0.0
 71
     1
 72
     1
  1
ﾆｯﾊﾟｰﾌﾞﾗｹｯﾄ･GT-NRﾖｳ 
  7
SLDTEXTSTYLE0
 73
     1
 44
1.0
  0
LINE
  5
79
330
1F
100
AcDbEntity
  8
0
  6
Continuous
 62
     7
370
     0
100
AcDbLine
 10
248.6749421601
 20
234.7397094876
 30
0.0
 11
243.6749421601
 21
234.7397094876
 31
0.0
  0
LINE
  5
7A
330
1F
100
AcDbEntity
  8
0
  6
Continuous
 62
     7
370
     0
100
AcDbLine
 10
243.6749421601
 20
239.7397094876
 30
0.0
 11
248.6749421601
 21
239.7397094876
 31
0.0
  0
LINE
  5
7B
330
1F
100
AcDbEntity
  8
0
  6
Continuous
 62
     7
370
     0
100
AcDbLine
 10
248.6749421601
 20
239.7397094876
 30
0.0
 11
248.6749421601
 21
234.7397094876
 31
0.0
  0
LINE
  5
7C
330
1F
100
AcDbEntity
  8
0
  6
Continuous
 62
     7
370
     0
100
AcDbLine
 10
243.6749421601
 20
234.7397094876
 30
0.0
 11
243.6749421601
 21
239.7397094876
 31
0.0
  0
LINE
  5
7D
330
1F
100
AcDbEntity
  8
0
  6
Continuous
 62
     7
370
     0
100
AcDbLine
 10
243.6749421601
 20
184.7397094876
 30
0.0
 11
248.6749421601
 21
184.7397094876
 31
0.0
  0
LINE
  5
7E
330
1F
100
AcDbEntity
  8
0
  6
Continuous
 62
     7
370
     0
100
AcDbLine
 10
248.6749421601
 20
184.7397094876
 30
0.0
 11
248.6749421601
 21
179.7397094876
 31
0.0
  0
LINE
  5
7F
330
1F
100
AcDbEntity
  8
0
  6
Continuous
 62
     7
370
     0
100
AcDbLine
 10
248.6749421601
 20
179.7397094876
 30
0.0
 11
243.6749421601
 21
179.7397094876
 31
0.0
  0
LINE
  5
80
330
1F
100
AcDbEntity
  8
0
  6
Continuous
 62
     7
370
     0
100
AcDbLine
 10
243.6749421601
 20
179.7397094876
 30
0.0
 11
243.6749421601
 21
184.7397094876
 31
0.0
  0
LINE
  5
81
330
1F
100
AcDbEntity
  8
0
  6
Continuous
 62
     7
370
     0
100
AcDbLine
 10
248.6749421601
 20
184.7397094876
 30
0.0
 11
248.6749421601
 21
234.7397094876
 31
0.0
  0
LINE
  5
82
330
1F
100
AcDbEntity
  8
0
  6
Continuous
 62
     7
370
     0
100
AcDbLine
 10
243.6749421601
 20
234.7397094876
 30
0.0
 11
243.6749421601
 21
184.7397094876
 31
0.0
  0
LINE
  5
83
330
1F
100
AcDbEntity
  8
0
  6
Continuous
 62
     7
370
     0
100
AcDbLine
 10
283.6749421601
 20
234.7397094876
 30
0.0
 11
278.6749421601
 21
239.7397094876
 31
0.0
  0
LINE
  5
84
330
1F
100
AcDbEntity
  8
0
  6
Continuous
 62
     7
370
     0
100
AcDbLine
 10
283.6749421601
 20
184.7397094876
 30
0.0
 11
283.6749421601
 21
234.7397094876
 31
0.0
  0
LINE
  5
85
330
1F
100
AcDbEntity
  8
0
  6
Continuous
 62
     7
370
     0
100
AcDbLine
 10
278.6749421601
 20
179.7397094876
 30
0.0
 11
283.6749421601
 21
184.7397094876
 31
0.0
  0
LINE
  5
86
330
1F
100
AcDbEntity
  8
0
  6
Continuous
 62
     7
370
     0
100
AcDbLine
 10
256.1749421601
 20
221.7397094876
 30
0.0
 11
276.1749421601
 21
221.7397094876
 31
0.0
  0
ARC
  5
87
330
1F
100
AcDbEntity
  8
0
  6
Continuous
 62
     7
370
     0
100
AcDbCircle
 10
276.1749421601
 20
224.7397094876
 30
0.0
 40
3.000000000000028
100
AcDbArc
 50
270.0
 51
90.0
  0
LINE
  5
88
330
1F
100
AcDbEntity
  8
0
  6
Continuous
 62
     7
370
     0
100
AcDbLine
 10
276.1749421601
 20
227.7397094876
 30
0.0
 11
256.1749421601
 21
227.7397094876
 31
0.0
  0
ARC
  5
89
330
1F
100
AcDbEntity
  8
0
  6
Continuous
 62
     7
370
     0
100
AcDbCircle
 10
256.1749421601
 20
224.7397094876
 30
0.0
 40
3.000000000000028
100
AcDbArc
 50
90.0
 51
270.0
  0
LINE
  5
8A
330
1F
100
AcDbEntity
  8
0
  6
Continuous
 62
     7
370
     0
100
AcDbLine
 10
256.1749421601
 20
191.7397094876
 30
0.0
 11
276.1749421601
 21
191.7397094876
 31
0.0
  0
ARC
  5
8B
330
1F
100
AcDbEntity
  8
0
  6
Continuous
 62
     7
370
     0
100
AcDbCircle
 10
276.1749421601
 20
194.7397094876
 30
0.0
 40
3.000000000000028
100
AcDbArc
 50
270.0
 51
90.0
  0
LINE
  5
8C
330
1F
100
AcDbEntity
  8
0
  6
Continuous
 62
     7
370
     0
100
AcDbLine
 10
276.1749421601
 20
197.7397094876
 30
0.0
 11
256.1749421601
 21
197.7397094876
 31
0.0
  0
ARC
  5
8D
330
1F
100
AcDbEntity
  8
0
  6
Continuous
 62
     7
370
     0
100
AcDbCircle
 10
256.1749421601
 20
194.7397094876
 30
0.0
 40
3.000000000000028
100
AcDbArc
 50
90.0
 51
270.0
  0
LINE
  5
8E
330
1F
100
AcDbEntity
  8
0
  6
Continuous
 62
     7
370
     0
100
AcDbLine
 10
278.6749421601
 20
239.7397094876
 30
0.0
 11
248.6749421601
 21
239.7397094876
 31
0.0
  0
LINE
  5
8F
330
1F
100
AcDbEntity
  8
0
  6
Continuous
 62
     7
370
     0
100
AcDbLine
 10
248.6749421601
 20
179.7397094876
 30
0.0
 11
278.6749421601
 21
179.7397094876
 31
0.0
  0
LINE
  5
90
330
1F
100
AcDbEntity
  8
0
  6
Continuous
 62
     7
370
     0
100
AcDbLine
 10
168.6749421601
 20
179.7397094876
 30
0.0
 11
173.6749421601
 21
179.7397094876
 31
0.0
  0
LINE
  5
91
330
1F
100
AcDbEntity
  8
0
  6
Continuous
 62
     7
370
     0
100
AcDbLine
 10
168.6749421601
 20
184.7397094876
 30
0.0
 11
168.6749421601
 21
179.7397094876
 31
0.0
  0
LINE
  5
92
330
1F
100
AcDbEntity
  8
0
  6
Continuous
 62
     7
370
     0
100
AcDbLine
 10
173.6749421601
 20
184.7397094876
 30
0.0
 11
168.6749421601
 21
184.7397094876
 31
0.0
  0
LINE
  5
93
330
1F
100
AcDbEntity
  8
0
  6
Continuous
 62
     7
370
     0
100
AcDbLine
 10
173.6749421601
 20
179.7397094876
 30
0.0
 11
173.6749421601
 21
184.7397094876
 31
0.0
  0
LINE
  5
94
330
1F
100
AcDbEntity
  8
0
  6
Continuous
 62
     7
370
     0
100
AcDbLine
 10
168.6749421601
 20
234.7397094876
 30
0.0
 11
173.6749421601
 21
234.7397094876
 31
0.0
  0
LINE
  5
95
330
1F
100
AcDbEntity
  8
0
  6
Continuous
 62
     7
370
     0
100
AcDbLine
 10
168.6749421601
 20
184.7397094876
 30
0.0
 11
168.6749421601
 21
234.7397094876
 31
0.0
  0
LINE
  5
96
330
1F
100
AcDbEntity
  8
0
  6
Continuous
 62
     7
370
     0
100
AcDbLine
 10
173.6749421601
 20
234.7397094876
 30
0.0
 11
173.6749421601
 21
184.7397094876
 31
0.0
  0
LINE
  5
97
330
1F
100
AcDbEntity
  8
0
  6
Continuous
 62
     7
370
     0
100
AcDbLine
 10
173.6749421601
 20
239.7397094876
 30
0.0
 11
168.6749421601
 21
239.7397094876
 31
0.0
  0
LINE
  5
98
330
1F
100
AcDbEntity
  8
0
  6
Continuous
 62
     7
370
     0
100
AcDbLine
 10
168.6749421601
 20
239.7397094876
 30
0.0
 11
168.6749421601
 21
234.7397094876
 31
0.0
  0
LINE
  5
99
330
1F
100
AcDbEntity
  8
0
  6
Continuous
 62
     7
370
     0
100
AcDbLine
 10
173.6749421601
 20
234.7397094876
 30
0.0
 11
173.6749421601
 21
239.7397094876
 31
0.0
  0
LINE
  5
9A
330
1F
100
AcDbEntity
  8
0
  6
Continuous
 62
     7
370
     0
100
AcDbLine
 10
138.6749421601
 20
179.7397094876
 30
0.0
 11
133.6749421601
 21
184.7397094876
 31
0.0
  0
LINE
  5
9B
330
1F
100
AcDbEntity
  8
0
  6
Continuous
 62
     7
370
     0
100
AcDbLine
 10
133.6749421601
 20
184.7397094876
 30
0.0
 11
133.6749421601
 21
234.7397094876
 31
0.0
  0
LINE
  5
9C
330
1F
100
AcDbEntity
  8
0
  6
Continuous
 62
     7
370
     0
100
AcDbLine
 10
133.6749421601
 20
234.7397094876
 30
0.0
 11
138.6749421601
 21
239.7397094876
 31
0.0
  0
LINE
  5
9D
330
1F
100
AcDbEntity
  8
0
  6
Continuous
 62
     7
370
     0
100
AcDbLine
 10
141.1749421601
 20
227.7397094876
 30
0.0
 11
161.1749421601
 21
227.7397094876
 31
0.0
  0
ARC
  5
9E
330
1F
100
AcDbEntity
  8
0
  6
Continuous
 62
     7
370
     0
100
AcDbCircle
 10
141.1749421601
 20
224.7397094876
 30
0.0
 40
3.000000000000028
100
AcDbArc
 50
90.0
 51
270.0
  0
LINE
  5
9F
330
1F
100
AcDbEntity
  8
0
  6
Continuous
 62
     7
370
     0
100
AcDbLine
 10
161.1749421601
 20
221.7397094876
 30
0.0
 11
141.1749421601
 21
221.7397094876
 31
0.0
  0
ARC
  5
A0
330
1F
100
AcDbEntity
  8
0
  6
Continuous
 62
     7
370
     0
100
AcDbCircle
 10
161.1749421601
 20
224.7397094876
 30
0.0
 40
3.000000000000028
100
AcDbArc
 50
270.0
 51
90.0
  0
LINE
  5
A1
330
1F
100
AcDbEntity
  8
0
  6
Continuous
 62
     7
370
     0
100
AcDbLine
 10
141.1749421601
 20
197.7397094876
 30
0.0
 11
161.1749421601
 21
197.7397094876
 31
0.0
  0
ARC
  5
A2
330
1F
100
AcDbEntity
  8
0
  6
Continuous
 62
     7
370
     0
100
AcDbCircle
 10
141.1749421601
 20
194.7397094876
 30
0.0
 40
3.000000000000028
100
AcDbArc
 50
90.0
 51
270.0
  0
LINE
  5
A3
330
1F
100
AcDbEntity
  8
0
  6
Continuous
 62
     7
370
     0
100
AcDbLine
 10
161.1749421601
 20
191.7397094876
 30
0.0
 11
141.1749421601
 21
191.7397094876
 31
0.0
  0
ARC
  5
A4
330
1F
100
AcDbEntity
  8
0
  6
Continuous
 62
     7
370
     0
100
AcDbCircle
 10
161.1749421601
 20
194.7397094876
 30
0.0
 40
3.000000000000028
100
AcDbArc
 50
270.0
 51
90.0
  0
LINE
  5
A5
330
1F
100
AcDbEntity
  8
0
  6
Continuous
 62
     7
370
     0
100
AcDbLine
 10
138.6749421601
 20
239.7397094876
 30
0.0
 11
168.6749421601
 21
239.7397094876
 31
0.0
  0
LINE
  5
A6
330
1F
100
AcDbEntity
  8
0
  6
Continuous
 62
     7
370
     0
100
AcDbLine
 10
168.6749421601
 20
179.7397094876
 30
0.0
 11
138.6749421601
 21
179.7397094876
 31
0.0
  0
DIMENSION
  5
A7
330
1F
100
AcDbEntity
  8
SLD-0_0
100
AcDbDimension
  2
*D2
 10
191.4896281008
 20
179.7397094876
 30
0.0
 11
191.4896281008
 21
209.7397094876
 31
0.0
 70
   160
 71
     2
 42
-1.0
  3
SLDDIMSTYLE0
100
AcDbAlignedDimension
 13
173.6749421601
 23
239.7397094876
 33
0.0
 14
173.6749421601
 24
179.7397094876
 34
0.0
 50
90.0
100
AcDbRotatedDimension
  0
DIMENSION
  5
B8
330
1F
100
AcDbEntity
  8
SLD-0_0
100
AcDbDimension
  2
*D3
 10
161.1749421601
 20
252.1654298819
 30
0.0
 11
151.1749421601
 21
252.1654298819
 31
0.0
 70
   160
 71
     2
 42
-1.0
  3
SLDDIMSTYLE0
100
AcDbAlignedDimension
 13
141.1749421601
 23
230.2397094876
 33
0.0
 14
161.1749421601
 24
230.2397094876
 34
0.0
100
AcDbRotatedDimension
  0
DIMENSION
  5
C2
330
1F
100
AcDbEntity
  8
SLD-0_0
100
AcDbDimension
  2
*D4
 10
173.6749421601
 20
252.1654298819
 30
0.0
 11
167.4249421601
 21
252.1654298819
 31
0.0
 70
   160
 71
     2
 42
-1.0
  3
SLDDIMSTYLE1
100
AcDbAlignedDimension
 13
161.1749421601
 23
230.2397094876
 33
0.0
 14
173.6749421601
 24
239.7397094876
 34
0.0
100
AcDbRotatedDimension
  0
DIMENSION
  5
CF
330
1F
100
AcDbEntity
  8
SLD-0_0
100
AcDbDimension
  2
*D5
 10
133.6749421601
 20
264.5905843004
 30
0.0
 11
153.6749421601
 21
264.5905843004
 31
0.0
 70
   160
 71
     2
 42
-1.0
  3
SLDDIMSTYLE0
100
AcDbAlignedDimension
 13
173.6749421601
 23
239.7397094876
 33
0.0
 14
133.6749421601
 24
234.7397094876
 34
0.0
100
AcDbRotatedDimension
  0
DIMENSION
  5
D9
330
1F
100
AcDbEntity
  8
SLD-0_0
100
AcDbDimension
  2
*D6
 10
111.6749421601
 20
224.7397094876
 30
0.0
 11
111.6749421601
 21
232.2397094876
 31
0.0
 70
   160
  1
(<>)
 71
     2
 42
-1.0
  3
SLDDIMSTYLE1
100
AcDbAlignedDimension
 13
138.6749421601
 23
239.7397094876
 33
0.0
 14
155.6749421601
 24
224.7397094876
 34
0.0
 50
90.0
100
AcDbRotatedDimension
  0
DIMENSION
  5
E7
330
1F
100
AcDbEntity
  8
SLD-0_0
100
AcDbDimension
  2
*D7
 10
123.6749421601
 20
221.7397094876
 30
0.0
 11
123.6749421601
 21
213.8545370917
 31
0.0
 70
   160
 71
     2
 42
-1.0
  3
SLDDIMSTYLE1
100
AcDbAlignedDimension
 13
141.1749421601
 23
227.7397094876
 33
0.0
 14
141.1749421601
 24
221.7397094876
 34
0.0
 50
90.0
100
AcDbRotatedDimension
  0
DIMENSION
  5
F3
330
1F
100
AcDbEntity
  8
SLD-0_0
100
AcDbDimension
  2
*D8
 10
111.6749421601
 20
194.7397094876
 30
0.0
 11
111.6749421601
 21
209.7397094876
 31
0.0
 70
   160
 71
     2
 42
-1.0
  3
SLDDIMSTYLE0
100
AcDbAlignedDimension
 13
146.6749421601
 23
224.7397094876
 33
0.0
 14
146.6749421601
 24
194.7397094876
 34
0.0
 50
90.0
100
AcDbRotatedDimension
  0
DIMENSION
  5
FD
330
1F
100
AcDbEntity
  8
SLD-0_0
100
AcDbDimension
  2
*D9
 10
111.6749421601
 20
179.7397094876
 30
0.0
 11
111.6749421601
 21
187.2397094876
 31
0.0
 70
   160
 71
     2
 42
-1.0
  3
SLDDIMSTYLE1
100
AcDbAlignedDimension
 13
146.6749421601
 23
194.7397094876
 33
0.0
 14
138.6749421601
 24
179.7397094876
 34
0.0
 50
90.0
100
AcDbRotatedDimension
  0
DIMENSION
  5
109
330
1F
100
AcDbEntity
  8
SLD-0_0
100
AcDbDimension
  2
*D10
 10
133.6749421601
 20
252.1654298819
 30
0.0
 11
126.5164247876
 21
252.1654298819
 31
0.0
 70
   160
  1
(<>)
 71
     2
 42
-1.0
  3
SLDDIMSTYLE0
100
AcDbAlignedDimension
 13
141.1749421601
 23
230.2397094876
 33
0.0
 14
133.6749421601
 24
234.7397094876
 34
0.0
100
AcDbRotatedDimension
  0
DIMENSION
  5
116
330
1F
100
AcDbEntity
  8
SLD-0_0
100
AcDbDimension
  2
*D11
 10
228.6038364578
 20
179.7397094876
 30
0.0
 11
228.6038364578
 21
209.7397094876
 31
0.0
 70
   160
 71
     2
 42
-1.0
  3
SLDDIMSTYLE0
100
AcDbAlignedDimension
 13
243.6749421601
 23
239.7397094876
 33
0.0
 14
243.6749421601
 24
179.7397094876
 34
0.0
 50
90.0
100
AcDbRotatedDimension
  0
DIMENSION
  5
120
330
1F
100
AcDbEntity
  8
SLD-0_0
100
AcDbDimension
  2
*D12
 10
303.0571604831
 20
194.7397094876
 30
0.0
 11
303.0571604831
 21
209.7397094876
 31
0.0
 70
   160
 71
     2
 42
-1.0
  3
SLDDIMSTYLE0
100
AcDbAlignedDimension
 13
270.6749421601
 23
224.7397094876
 33
0.0
 14
270.6749421601
 24
194.7397094876
 34
0.0
 50
90.0
100
AcDbRotatedDimension
  0
DIMENSION
  5
12A
330
1F
100
AcDbEntity
  8
SLD-0_0
100
AcDbDimension
  2
*D13
 10
303.0571604831
 20
239.7397094876
 30
0.0
 11
303.0571604831
 21
232.2397094876
 31
0.0
 70
   160
  1
(<>)
 71
     2
 42
-1.0
  3
SLDDIMSTYLE1
100
AcDbAlignedDimension
 13
270.6749421601
 23
224.7397094876
 33
0.0
 14
278.6749421601
 24
239.7397094876
 34
0.0
 50
90.0
100
AcDbRotatedDimension
  0
DIMENSION
  5
138
330
1F
100
AcDbEntity
  8
SLD-0_0
100
AcDbDimension
  2
*D14
 10
303.0571604831
 20
179.7397094876
 30
0.0
 11
303.0571604831
 21
187.2397094876
 31
0.0
 70
   160
 71
     2
 42
-1.0
  3
SLDDIMSTYLE1
100
AcDbAlignedDimension
 13
270.6749421601
 23
194.7397094876
 33
0.0
 14
278.6749421601
 24
179.7397094876
 34
0.0
 50
90.0
100
AcDbRotatedDimension
  0
DIMENSION
  5
144
330
1F
100
AcDbEntity
  8
SLD-0_0
100
AcDbDimension
  2
*D15
 10
256.1749421601
 20
252.1654298819
 30
0.0
 11
249.9249421601
 21
252.1654298819
 31
0.0
 70
   160
 71
     2
 42
-1.0
  3
SLDDIMSTYLE1
100
AcDbAlignedDimension
 13
243.6749421601
 23
239.7397094876
 33
0.0
 14
256.1749421601
 24
230.2397094876
 34
0.0
100
AcDbRotatedDimension
  0
DIMENSION
  5
150
330
1F
100
AcDbEntity
  8
SLD-0_0
100
AcDbDimension
  2
*D16
 10
276.1749421601
 20
252.1654298819
 30
0.0
 11
266.1749421601
 21
252.1654298819
 31
0.0
 70
   160
 71
     2
 42
-1.0
  3
SLDDIMSTYLE0
100
AcDbAlignedDimension
 13
256.1749421601
 23
230.2397094876
 33
0.0
 14
276.1749421601
 24
230.2397094876
 34
0.0
100
AcDbRotatedDimension
  0
DIMENSION
  5
15A
330
1F
100
AcDbEntity
  8
SLD-0_0
100
AcDbDimension
  2
*D17
 10
283.6749421601
 20
252.1654298819
 30
0.0
 11
290.8908634484
 21
252.1654298819
 31
0.0
 70
   160
  1
(<>)
 71
     2
 42
-1.0
  3
SLDDIMSTYLE1
100
AcDbAlignedDimension
 13
276.1749421601
 23
230.2397094876
 33
0.0
 14
283.6749421601
 24
234.7397094876
 34
0.0
100
AcDbRotatedDimension
  0
DIMENSION
  5
168
330
1F
100
AcDbEntity
  8
SLD-0_0
100
AcDbDimension
  2
*D18
 10
283.6749421601
 20
264.5905843004
 30
0.0
 11
263.6749421601
 21
264.5905843004
 31
0.0
 70
   160
 71
     2
 42
-1.0
  3
SLDDIMSTYLE0
100
AcDbAlignedDimension
 13
243.6749421601
 23
239.7397094876
 33
0.0
 14
283.6749421601
 24
234.7397094876
 34
0.0
100
AcDbRotatedDimension
  0
DIMENSION
  5
172
330
1F
100
AcDbEntity
  8
SLD-0_0
100
AcDbDimension
  2
*D19
 10
290.8908634484
 20
227.7397094876
 30
0.0
 11
290.8908634484
 21
214.4012334056
 31
0.0
 70
   160
 71
     2
 42
-1.0
  3
SLDDIMSTYLE1
100
AcDbAlignedDimension
 13
276.1749421601
 23
221.7397094876
 33
0.0
 14
276.1749421601
 24
227.7397094876
 34
0.0
 50
90.0
100
AcDbRotatedDimension
  0
INSERT
  5
190
330
1F
100
AcDbEntity
  8
SLD-0_0
100
AcDbBlockReference
  2
SW_CENTERMARKSYMBOL_0
 10
141.1749421601
 20
224.7397094876
 30
0.0
  0
INSERT
  5
1A3
330
1F
100
AcDbEntity
  8
SLD-0_0
100
AcDbBlockReference
  2
SW_CENTERMARKSYMBOL_1
 10
141.1749421601
 20
194.7397094876
 30
0.0
  0
INSERT
  5
1B6
330
1F
100
AcDbEntity
  8
SLD-0_0
100
AcDbBlockReference
  2
SW_CENTERMARKSYMBOL_2
 10
256.1749421601
 20
224.7397094876
 30
0.0
  0
INSERT
  5
1C9
330
1F
100
AcDbEntity
  8
SLD-0_0
100
AcDbBlockReference
  2
SW_CENTERMARKSYMBOL_3
 10
256.1749421601
 20
194.7397094876
 30
0.0
  0
LINE
  5
1CA
330
1F
100
AcDbEntity
  8
0
  6
Continuous
 62
     7
370
     0
100
AcDbLine
 10
243.6749421601
 20
131.3258822672
 30
0.0
 11
243.6749421601
 21
76.3258822672
 31
0.0
  0
LINE
  5
1CB
330
1F
100
AcDbEntity
  8
0
  6
Continuous
 62
     7
370
     0
100
AcDbLine
 10
248.6749421601
 20
131.3258822672
 30
0.0
 11
243.6749421601
 21
131.3258822672
 31
0.0
  0
LINE
  5
1CC
330
1F
100
AcDbEntity
  8
0
  6
Continuous
 62
     7
370
     0
100
AcDbLine
 10
248.6749421601
 20
131.3258822672
 30
0.0
 11
248.6749421601
 21
81.3258822672
 31
0.0
  0
LINE
  5
1CD
330
1F
100
AcDbEntity
  8
0
  6
Continuous
 62
     7
370
     0
100
AcDbLine
 10
248.6749421601
 20
81.3258822672
 30
0.0
 11
278.6749421601
 21
81.3258822672
 31
0.0
  0
LINE
  5
1CE
330
1F
100
AcDbEntity
  8
0
  6
Continuous
 62
     7
370
     0
100
AcDbLine
 10
278.6749421601
 20
76.3258822672
 30
0.0
 11
278.6749421601
 21
81.3258822672
 31
0.0
  0
LINE
  5
1CF
330
1F
100
AcDbEntity
  8
0
  6
Continuous
 62
     7
370
     0
100
AcDbLine
 10
243.6749421601
 20
76.3258822672
 30
0.0
 11
278.6749421601
 21
76.3258822672
 31
0.0
  0
LINE
  5
1D0
330
1F
100
AcDbEntity
  8
0
  6
Continuous
 62
     7
370
     0
100
AcDbLine
 10
283.6749421601
 20
81.3258822672
 30
0.0
 11
283.6749421601
 21
76.3258822672
 31
0.0
  0
LINE
  5
1D1
330
1F
100
AcDbEntity
  8
0
  6
Continuous
 62
     7
370
     0
100
AcDbLine
 10
283.6749421601
 20
76.3258822672
 30
0.0
 11
278.6749421601
 21
76.3258822672
 31
0.0
  0
LINE
  5
1D2
330
1F
100
AcDbEntity
  8
0
  6
Continuous
 62
     7
370
     0
100
AcDbLine
 10
278.6749421601
 20
81.3258822672
 30
0.0
 11
283.6749421601
 21
81.3258822672
 31
0.0
  0
LINE
  5
1D3
330
1F
100
AcDbEntity
  8
0
  6
Continuous
 62
     7
370
     0
100
AcDbLine
 10
243.6749421601
 20
136.3258822672
 30
0.0
 11
248.6749421601
 21
136.3258822672
 31
0.0
  0
LINE
  5
1D4
330
1F
100
AcDbEntity
  8
0
  6
Continuous
 62
     7
370
     0
100
AcDbLine
 10
243.6749421601
 20
131.3258822672
 30
0.0
 11
243.6749421601
 21
136.3258822672
 31
0.0
  0
LINE
  5
1D5
330
1F
100
AcDbEntity
  8
0
  6
Continuous
 62
     7
370
     0
100
AcDbLine
 10
248.6749421601
 20
136.3258822672
 30
0.0
 11
248.6749421601
 21
131.3258822672
 31
0.0
  0
LINE
  5
1D6
330
1F
100
AcDbEntity
  8
0
  6
Continuous
 62
     7
370
     0
100
AcDbLine
 10
138.6749421601
 20
76.3258822672
 30
0.0
 11
138.6749421601
 21
81.3258822672
 31
0.0
  0
LINE
  5
1D7
330
1F
100
AcDbEntity
  8
0
  6
Continuous
 62
     7
370
     0
100
AcDbLine
 10
168.6749421601
 20
81.3258822672
 30
0.0
 11
138.6749421601
 21
81.3258822672
 31
0.0
  0
LINE
  5
1D8
330
1F
100
AcDbEntity
  8
0
  6
Continuous
 62
     7
370
     0
100
AcDbLine
 10
168.6749421601
 20
131.3258822672
 30
0.0
 11
168.6749421601
 21
81.3258822672
 31
0.0
  0
LINE
  5
1D9
330
1F
100
AcDbEntity
  8
0
  6
Continuous
 62
     7
370
     0
100
AcDbLine
 10
168.6749421601
 20
131.3258822672
 30
0.0
 11
173.6749421601
 21
131.3258822672
 31
0.0
  0
LINE
  5
1DA
330
1F
100
AcDbEntity
  8
0
  6
Continuous
 62
     7
370
     0
100
AcDbLine
 10
173.6749421601
 20
131.3258822672
 30
0.0
 11
173.6749421601
 21
76.3258822672
 31
0.0
  0
LINE
  5
1DB
330
1F
100
AcDbEntity
  8
0
  6
Continuous
 62
     7
370
     0
100
AcDbLine
 10
173.6749421601
 20
76.3258822672
 30
0.0
 11
138.6749421601
 21
76.3258822672
 31
0.0
  0
LINE
  5
1DC
330
1F
100
AcDbEntity
  8
0
  6
Continuous
 62
     7
370
     0
100
AcDbLine
 10
133.6749421601
 20
76.3258822672
 30
0.0
 11
138.6749421601
 21
76.3258822672
 31
0.0
  0
LINE
  5
1DD
330
1F
100
AcDbEntity
  8
0
  6
Continuous
 62
     7
370
     0
100
AcDbLine
 10
133.6749421601
 20
81.3258822672
 30
0.0
 11
133.6749421601
 21
76.3258822672
 31
0.0
  0
LINE
  5
1DE
330
1F
100
AcDbEntity
  8
0
  6
Continuous
 62
     7
370
     0
100
AcDbLine
 10
138.6749421601
 20
81.3258822672
 30
0.0
 11
133.6749421601
 21
81.3258822672
 31
0.0
  0
LINE
  5
1DF
330
1F
100
AcDbEntity
  8
0
  6
Continuous
 62
     7
370
     0
100
AcDbLine
 10
173.6749421601
 20
136.3258822672
 30
0.0
 11
168.6749421601
 21
136.3258822672
 31
0.0
  0
LINE
  5
1E0
330
1F
100
AcDbEntity
  8
0
  6
Continuous
 62
     7
370
     0
100
AcDbLine
 10
173.6749421601
 20
131.3258822672
 30
0.0
 11
173.6749421601
 21
136.3258822672
 31
0.0
  0
LINE
  5
1E1
330
1F
100
AcDbEntity
  8
0
  6
Continuous
 62
     7
370
     0
100
AcDbLine
 10
168.6749421601
 20
136.3258822672
 30
0.0
 11
168.6749421601
 21
131.3258822672
 31
0.0
  0
DIMENSION
  5
1E2
330
1F
100
AcDbEntity
  8
SLD-0_0
100
AcDbDimension
  2
*D24
 10
233.2771430764
 20
76.3258822672
 30
0.0
 11
233.2771430764
 21
106.3258822672
 31
0.0
 70
   160
 71
     2
 42
-1.0
  3
SLDDIMSTYLE0
100
AcDbAlignedDimension
 13
243.6749421601
 23
136.3258822672
 33
0.0
 14
243.6749421601
 24
76.3258822672
 34
0.0
 50
90.0
100
AcDbRotatedDimension
  0
DIMENSION
  5
1EC
330
1F
100
AcDbEntity
  8
SLD-0_0
100
AcDbDimension
  2
*D25
 10
185.3358790448
 20
76.3258822672
 30
0.0
 11
185.3358790448
 21
106.3258822672
 31
0.0
 70
   160
 71
     2
 42
-1.0
  3
SLDDIMSTYLE0
100
AcDbAlignedDimension
 13
173.6749421601
 23
136.3258822672
 33
0.0
 14
173.6749421601
 24
76.3258822672
 34
0.0
 50
90.0
100
AcDbRotatedDimension
  0
DIMENSION
  5
1F6
330
1F
100
AcDbEntity
  8
SLD-0_0
100
AcDbDimension
  2
*D26
 10
133.6749421601
 20
66.3258822672
 30
0.0
 11
153.6749421601
 21
66.3258822672
 31
0.0
 70
   160
 71
     2
 42
-1.0
  3
SLDDIMSTYLE0
100
AcDbAlignedDimension
 13
173.6749421601
 23
76.3258822672
 33
0.0
 14
133.6749421601
 24
76.3258822672
 34
0.0
100
AcDbRotatedDimension
  0
DIMENSION
  5
200
330
1F
100
AcDbEntity
  8
SLD-0_0
100
AcDbDimension
  2
*D27
 10
243.6749421601
 20
66.3258822672
 30
0.0
 11
263.6749421601
 21
66.3258822672
 31
0.0
 70
   160
 71
     2
 42
-1.0
  3
SLDDIMSTYLE0
100
AcDbAlignedDimension
 13
283.6749421601
 23
76.3258822672
 33
0.0
 14
243.6749421601
 24
76.3258822672
 34
0.0
100
AcDbRotatedDimension
  0
DIMENSION
  5
20A
330
1F
100
AcDbEntity
  8
SLD-0_0
100
AcDbDimension
  2
*D28
 10
293.6749421601
 20
76.3258822672
 30
0.0
 11
293.6749421601
 21
89.1019746415
 31
0.0
 70
   160
  1
t<>
 71
     2
 42
-1.0
  3
SLDDIMSTYLE1
100
AcDbAlignedDimension
 13
283.6749421601
 23
81.3258822672
 33
0.0
 14
283.6749421601
 24
76.3258822672
 34
0.0
 50
90.0
100
AcDbRotatedDimension
  0
DIMENSION
  5
217
330
1F
100
AcDbEntity
  8
SLD-0_0
100
AcDbDimension
  2
*D29
 10
121.5040169964
 20
81.3258822672
 30
0.0
 11
121.5040169964
 21
89.1019746415
 31
0.0
 70
   160
  1
t<>
 71
     2
 42
-1.0
  3
SLDDIMSTYLE1
100
AcDbAlignedDimension
 13
133.6749421601
 23
76.3258822672
 33
0.0
 14
133.6749421601
 24
81.3258822672
 34
0.0
 50
90.0
100
AcDbRotatedDimension
  0
LINE
  5
224
330
1F
100
AcDbEntity
  8
0
  6
Continuous
 62
     7
370
     0
100
AcDbLine
 10
370.4298559328
 20
81.3258822672
 30
0.0
 11
370.4298559328
 21
76.3258822672
 31
0.0
  0
LINE
  5
225
330
1F
100
AcDbEntity
  8
0
  6
Continuous
 62
     7
370
     0
100
AcDbLine
 10
370.4298559328
 20
76.3258822672
 30
0.0
 11
365.4298559328
 21
76.3258822672
 31
0.0
  0
LINE
  5
226
330
1F
100
AcDbEntity
  8
0
  6
Continuous
 62
     7
370
     0
100
AcDbLine
 10
365.4298559328
 20
76.3258822672
 30
0.0
 11
365.4298559328
 21
81.3258822672
 31
0.0
  0
LINE
  5
227
330
1F
100
AcDbEntity
  8
0
  6
Continuous
 62
     7
370
     0
100
AcDbLine
 10
365.4298559328
 20
81.3258822672
 30
0.0
 11
370.4298559328
 21
81.3258822672
 31
0.0
  0
LINE
  5
228
330
1F
100
AcDbEntity
  8
0
  6
Continuous
 62
     7
370
     0
100
AcDbLine
 10
315.4298559328
 20
81.3258822672
 30
0.0
 11
315.4298559328
 21
76.3258822672
 31
0.0
  0
LINE
  5
229
330
1F
100
AcDbEntity
  8
0
  6
Continuous
 62
     7
370
     0
100
AcDbLine
 10
315.4298559328
 20
76.3258822672
 30
0.0
 11
365.4298559328
 21
76.3258822672
 31
0.0
  0
LINE
  5
22A
330
1F
100
AcDbEntity
  8
0
  6
Continuous
 62
     7
370
     0
100
AcDbLine
 10
315.4298559328
 20
81.3258822672
 30
0.0
 11
365.4298559328
 21
81.3258822672
 31
0.0
  0
LINE
  5
22B
330
1F
100
AcDbEntity
  8
0
  6
Continuous
 62
     7
370
     0
100
AcDbLine
 10
310.4298559328
 20
76.3258822672
 30
0.0
 11
310.4298559328
 21
81.3258822672
 31
0.0
  0
LINE
  5
22C
330
1F
100
AcDbEntity
  8
0
  6
Continuous
 62
     7
370
     0
100
AcDbLine
 10
315.4298559328
 20
76.3258822672
 30
0.0
 11
310.4298559328
 21
76.3258822672
 31
0.0
  0
LINE
  5
22D
330
1F
100
AcDbEntity
  8
0
  6
Continuous
 62
     7
370
     0
100
AcDbLine
 10
310.4298559328
 20
81.3258822672
 30
0.0
 11
315.4298559328
 21
81.3258822672
 31
0.0
  0
LINE
  5
22E
330
1F
100
AcDbEntity
  8
0
  6
Continuous
 62
     7
370
     0
100
AcDbLine
 10
315.4298559328
 20
136.3258822672
 30
0.0
 11
310.4298559328
 21
131.3258822672
 31
0.0
  0
LINE
  5
22F
330
1F
100
AcDbEntity
  8
0
  6
Continuous
 62
     7
370
     0
100
AcDbLine
 10
315.4298559328
 20
136.3258822672
 30
0.0
 11
365.4298559328
 21
136.3258822672
 31
0.0
  0
LINE
  5
230
330
1F
100
AcDbEntity
  8
0
  6
Continuous
 62
     7
370
     0
100
AcDbLine
 10
370.4298559328
 20
131.3258822672
 30
0.0
 11
365.4298559328
 21
136.3258822672
 31
0.0
  0
CIRCLE
  5
231
330
1F
100
AcDbEntity
  8
0
  6
Continuous
 62
     7
370
     0
100
AcDbCircle
 10
360.4298559328
 20
128.8258822672
 30
0.0
 40
2.75
  0
ARC
  5
232
330
1F
100
AcDbEntity
  8
0
  6
Continuous
 62
     7
370
     0
100
AcDbCircle
 10
360.4298559328
 20
88.8258822672
 30
0.0
 40
2.75
100
AcDbArc
 50
270.0
 51
90.0
  0
ARC
  5
233
330
1F
100
AcDbEntity
  8
0
  6
Continuous
 62
     7
370
     0
100
AcDbCircle
 10
360.4298559328
 20
128.8258822672
 30
0.0
 40
37.25000000000001
100
AcDbArc
 50
180.0
 51
270.0
  0
ARC
  5
234
330
1F
100
AcDbEntity
  8
0
  6
Continuous
 62
     7
370
     0
100
AcDbCircle
 10
320.4298559328
 20
128.8258822672
 30
0.0
 40
2.750000000000057
100
AcDbArc
 50
0.0
 51
180.0
  0
ARC
  5
235
330
1F
100
AcDbEntity
  8
0
  6
Continuous
 62
     7
370
     0
100
AcDbCircle
 10
360.4298559328
 20
128.8258822672
 30
0.0
 40
42.75000000000001
100
AcDbArc
 50
180.0
 51
270.0
  0
ARC
  5
236
330
1F
100
AcDbEntity
  8
0
  6
Continuous
 62
     7
370
     0
100
AcDbCircle
 10
360.4298559328
 20
98.8258822672
 30
0.0
 40
2.75
100
AcDbArc
 50
270.0
 51
90.0
  0
ARC
  5
237
330
1F
100
AcDbEntity
  8
0
  6
Continuous
 62
     7
370
     0
100
AcDbCircle
 10
360.4298559328
 20
128.8258822672
 30
0.0
 40
27.25
100
AcDbArc
 50
180.0
 51
270.0
  0
ARC
  5
238
330
1F
100
AcDbEntity
  8
0
  6
Continuous
 62
     7
370
     0
100
AcDbCircle
 10
330.4298559328
 20
128.8258822672
 30
0.0
 40
2.75
100
AcDbArc
 50
0.0
 51
180.0
  0
ARC
  5
239
330
1F
100
AcDbEntity
  8
0
  6
Continuous
 62
     7
370
     0
100
AcDbCircle
 10
360.4298559328
 20
128.8258822672
 30
0.0
 40
32.75
100
AcDbArc
 50
180.0
 51
270.0
  0
LINE
  5
23A
330
1F
100
AcDbEntity
  8
0
  6
Continuous
 62
     7
370
     0
100
AcDbLine
 10
310.4298559328
 20
131.3258822672
 30
0.0
 11
310.4298559328
 21
81.3258822672
 31
0.0
  0
LINE
  5
23B
330
1F
100
AcDbEntity
  8
0
  6
Continuous
 62
     7
370
     0
100
AcDbLine
 10
370.4298559328
 20
131.3258822672
 30
0.0
 11
370.4298559328
 21
81.3258822672
 31
0.0
  0
ARC
  5
23C
330
1F
100
AcDbEntity
  8
SLD-0_0
  6
CENTERX2
100
AcDbCircle
 10
360.4298559328
 20
128.8258822672
 30
0.0
 40
30.00000000000009
100
AcDbArc
 50
180.0
 51
270.0
  0
ARC
  5
23D
330
1F
100
AcDbEntity
  8
SLD-0_0
  6
CENTERX2
100
AcDbCircle
 10
360.4298559328
 20
128.8258822672
 30
0.0
 40
40.00000000000028
100
AcDbArc
 50
180.0
 51
270.0
  0
DIMENSION
  5
23E
330
1F
100
AcDbEntity
  8
SLD-0_0
100
AcDbDimension
  2
*D30
 10
360.4298559328
 20
128.8258822672
 30
0.0
 11
345.7072639903
 21
125.9544828501
 31
0.0
 70
   164
  1
<>
 71
     1
 42
-1.0
  3
SLDDIMSTYLE2
100
AcDbRadialDimension
 15
330.9846520477
 25
123.0830634329
 35
0.0
 40
0.0
  0
DIMENSION
  5
248
330
1F
100
AcDbEntity
  8
SLD-0_0
100
AcDbDimension
  2
*D31
 10
360.4298559328
 20
128.8258822672
 30
0.0
 11
354.5199413135
 21
109.7190141603
 31
0.0
 70
   164
  1
<>
 71
     1
 42
-1.0
  3
SLDDIMSTYLE2
100
AcDbRadialDimension
 15
348.6100066941
 25
90.6121260533
 35
0.0
 40
0.0
  0
DIMENSION
  5
251
330
1F
100
AcDbEntity
  8
SLD-0_0
100
AcDbDimension
  2
*D32
 10
382.6959732516
 20
128.8258822672
 30
0.0
 11
382.6959732516
 21
143.1007442536
 31
0.0
 70
   160
 71
     2
 42
-1.0
  3
SLDDIMSTYLE1
100
AcDbAlignedDimension
 13
365.4298559328
 23
136.3258822672
 33
0.0
 14
365.6798559328
 24
128.8258822672
 34
0.0
 50
90.0
100
AcDbRotatedDimension
  0
DIMENSION
  5
25D
330
1F
100
AcDbEntity
  8
SLD-0_0
100
AcDbDimension
  2
*D33
 10
392.4299059328
 20
98.8258822672
 30
0.0
 11
392.4299059328
 21
117.5758822672
 31
0.0
 70
   160
 71
     2
 42
-1.0
  3
SLDDIMSTYLE0
100
AcDbAlignedDimension
 13
365.4298559328
 23
136.3258822672
 33
0.0
 14
365.6798559328
 24
98.8258822672
 34
0.0
 50
90.0
100
AcDbRotatedDimension
  0
DIMENSION
  5
267
330
1F
100
AcDbEntity
  8
SLD-0_0
100
AcDbDimension
  2
*D34
 10
392.4299059328
 20
88.8258822672
 30
0.0
 11
392.4299059328
 21
93.8258822672
 31
0.0
 70
   160
 71
     2
 42
-1.0
  3
SLDDIMSTYLE1
100
AcDbAlignedDimension
 13
365.6798559328
 23
98.8258822672
 33
0.0
 14
365.6798559328
 24
88.8258822672
 34
0.0
 50
90.0
100
AcDbRotatedDimension
  0
DIMENSION
  5
273
330
1F
100
AcDbEntity
  8
SLD-0_0
100
AcDbDimension
  2
*D35
 10
360.4298559328
 20
66.3258822672
 30
0.0
 11
365.4298559328
 21
66.3258822672
 31
0.0
 70
   160
 71
     2
 42
-1.0
  3
SLDDIMSTYLE1
100
AcDbAlignedDimension
 13
370.4298559328
 23
76.3258822672
 33
0.0
 14
360.4298559328
 24
83.5758822672
 34
0.0
 50
0.0
100
AcDbRotatedDimension
  0
DIMENSION
  5
27F
330
1F
100
AcDbEntity
  8
SLD-0_0
100
AcDbDimension
  2
*D36
 10
340.1973961969
 20
97.5495322079
 30
0.0
 11
332.9089462978
 21
86.2826811473
 31
0.0
 70
   160
 71
     2
 42
-1.0
  3
SLDDIMSTYLE1
100
AcDbAlignedDimension
 13
337.2100531486
 23
92.9315476354
 33
0.0
 14
340.1973961969
 24
97.5495322079
 34
0.0
 50
57.1014445262
100
AcDbRotatedDimension
  0
DIMENSION
  5
289
330
1F
100
AcDbEntity
  8
SLD-0_0
100
AcDbDimension
  2
*D37
 10
341.0961911894
 20
109.622447481
 30
0.0
 11
346.0572291027
 21
114.5500682556
 31
0.0
 70
   160
 71
     2
 42
-1.0
  3
SLDDIMSTYLE1
100
AcDbAlignedDimension
 13
337.1939836265
 23
105.7465248636
 33
0.0
 14
341.0961911894
 24
109.622447481
 34
0.0
 50
44.8063788246
100
AcDbRotatedDimension
  0
DIMENSION
  5
293
330
1F
100
AcDbEntity
  8
SLD-0_0
100
AcDbDimension
  2
*D38
 10
361.3929218585
 20
126.2500321119
 30
0.0
 11
345.7072539903
 21
148.4119506939
 31
0.0
 70
   163
  1
<>
 71
     1
 42
-1.0
  3
SLDDIMSTYLE3
100
AcDbDiametricDimension
 15
359.4667900072
 25
131.4017324226
 35
0.0
 40
0.0
  0
DIMENSION
  5
29D
330
1F
100
AcDbEntity
  8
SLD-0_0
100
AcDbDimension
  2
*D39
 10
370.4298559328
 20
154.4721574018
 30
0.0
 11
365.4298559328
 21
154.4721574018
 31
0.0
 70
   160
 71
     2
 42
-1.0
  3
SLDDIMSTYLE1
100
AcDbAlignedDimension
 13
360.4298559328
 23
134.0758822672
 33
0.0
 14
370.4298559328
 24
131.3258822672
 34
0.0
 50
0.0
100
AcDbRotatedDimension
  0
DIMENSION
  5
2A9
330
1F
100
AcDbEntity
  8
SLD-0_0
100
AcDbDimension
  2
*D40
 10
370.4298559328
 20
170.3258822672
 30
0.0
 11
350.4298559328
 21
170.3258822672
 31
0.0
 70
   160
 71
     2
 42
-1.0
  3
SLDDIMSTYLE0
100
AcDbAlignedDimension
 13
330.4298559328
 23
134.0758822672
 33
0.0
 14
370.4298559328
 24
131.3258822672
 34
0.0
 50
0.0
100
AcDbRotatedDimension
  0
DIMENSION
  5
2B3
330
1F
100
AcDbEntity
  8
SLD-0_0
100
AcDbDimension
  2
*D41
 10
330.4298559328
 20
170.3258822672
 30
0.0
 11
325.4298559328
 21
170.3258822672
 31
0.0
 70
   160
 71
     2
 42
-1.0
  3
SLDDIMSTYLE1
100
AcDbAlignedDimension
 13
320.4298559328
 23
134.0758822672
 33
0.0
 14
330.4298559328
 24
134.0758822672
 34
0.0
100
AcDbRotatedDimension
  0
DIMENSION
  5
2BF
330
1F
100
AcDbEntity
  8
SLD-0_0
100
AcDbDimension
  2
*D42
 10
300.4298059328
 20
128.8258822672
 30
0.0
 11
300.4298059328
 21
143.1007442536
 31
0.0
 70
   160
 71
     2
 42
-1.0
  3
SLDDIMSTYLE1
100
AcDbAlignedDimension
 13
315.4298559328
 23
136.3258822672
 33
0.0
 14
315.1798559328
 24
128.8258822672
 34
0.0
 50
90.0
100
AcDbRotatedDimension
  0
INSERT
  5
2D6
330
1F
100
AcDbEntity
  8
SLD-0_0
100
AcDbBlockReference
  2
SW_CENTERMARKSYMBOL_4
 10
360.4298559328
 20
128.8258822672
 30
0.0
  0
INSERT
  5
2E2
330
1F
100
AcDbEntity
  8
SLD-0_0
100
AcDbBlockReference
  2
SW_CENTERMARKSYMBOL_5
 10
320.4298559328
 20
128.8258822672
 30
0.0
  0
INSERT
  5
2EE
330
1F
100
AcDbEntity
  8
SLD-0_0
100
AcDbBlockReference
  2
SW_CENTERMARKSYMBOL_6
 10
330.4298559328
 20
128.8258822672
 30
0.0
  0
INSERT
  5
2FA
330
1F
100
AcDbEntity
  8
SLD-0_0
100
AcDbBlockReference
  2
SW_CENTERMARKSYMBOL_7
 10
360.4298559328
 20
98.8258822672
 30
0.0
  0
INSERT
  5
306
330
1F
100
AcDbEntity
  8
SLD-0_0
100
AcDbBlockReference
  2
SW_CENTERMARKSYMBOL_8
 10
360.4298559328
 20
88.8258822672
 30
0.0
  0
LINE
  5
307
330
1F
100
AcDbEntity
  8
0
  6
Continuous
 62
     7
370
     0
100
AcDbLine
 10
52.7729181012
 20
76.3258822672
 30
0.0
 11
52.7729181012
 21
81.3258822672
 31
0.0
  0
LINE
  5
308
330
1F
100
AcDbEntity
  8
0
  6
Continuous
 62
     7
370
     0
100
AcDbLine
 10
47.7729181012
 20
76.3258822672
 30
0.0
 11
52.7729181012
 21
76.3258822672
 31
0.0
  0
LINE
  5
309
330
1F
100
AcDbEntity
  8
0
  6
Continuous
 62
     7
370
     0
100
AcDbLine
 10
47.7729181012
 20
81.3258822672
 30
0.0
 11
47.7729181012
 21
76.3258822672
 31
0.0
  0
LINE
  5
30A
330
1F
100
AcDbEntity
  8
0
  6
Continuous
 62
     7
370
     0
100
AcDbLine
 10
52.7729181012
 20
81.3258822672
 30
0.0
 11
47.7729181012
 21
81.3258822672
 31
0.0
  0
LINE
  5
30B
330
1F
100
AcDbEntity
  8
0
  6
Continuous
 62
     7
370
     0
100
AcDbLine
 10
102.7729181012
 20
81.3258822672
 30
0.0
 11
102.7729181012
 21
76.3258822672
 31
0.0
  0
LINE
  5
30C
330
1F
100
AcDbEntity
  8
0
  6
Continuous
 62
     7
370
     0
100
AcDbLine
 10
102.7729181012
 20
76.3258822672
 30
0.0
 11
52.7729181012
 21
76.3258822672
 31
0.0
  0
LINE
  5
30D
330
1F
100
AcDbEntity
  8
0
  6
Continuous
 62
     7
370
     0
100
AcDbLine
 10
102.7729181012
 20
81.3258822672
 30
0.0
 11
52.7729181012
 21
81.3258822672
 31
0.0
  0
LINE
  5
30E
330
1F
100
AcDbEntity
  8
0
  6
Continuous
 62
     7
370
     0
100
AcDbLine
 10
107.7729181012
 20
76.3258822672
 30
0.0
 11
107.7729181012
 21
81.3258822672
 31
0.0
  0
LINE
  5
30F
330
1F
100
AcDbEntity
  8
0
  6
Continuous
 62
     7
370
     0
100
AcDbLine
 10
102.7729181012
 20
76.3258822672
 30
0.0
 11
107.7729181012
 21
76.3258822672
 31
0.0
  0
LINE
  5
310
330
1F
100
AcDbEntity
  8
0
  6
Continuous
 62
     7
370
     0
100
AcDbLine
 10
107.7729181012
 20
81.3258822672
 30
0.0
 11
102.7729181012
 21
81.3258822672
 31
0.0
  0
LINE
  5
311
330
1F
100
AcDbEntity
  8
0
  6
Continuous
 62
     7
370
     0
100
AcDbLine
 10
47.7729181012
 20
131.3258822672
 30
0.0
 11
52.7729181012
 21
136.3258822672
 31
0.0
  0
LINE
  5
312
330
1F
100
AcDbEntity
  8
0
  6
Continuous
 62
     7
370
     0
100
AcDbLine
 10
102.7729181012
 20
136.3258822672
 30
0.0
 11
52.7729181012
 21
136.3258822672
 31
0.0
  0
LINE
  5
313
330
1F
100
AcDbEntity
  8
0
  6
Continuous
 62
     7
370
     0
100
AcDbLine
 10
102.7729181012
 20
136.3258822672
 30
0.0
 11
107.7729181012
 21
131.3258822672
 31
0.0
  0
CIRCLE
  5
314
330
1F
100
AcDbEntity
  8
0
  6
Continuous
 62
     7
370
     0
100
AcDbCircle
 10
57.7729181012
 20
128.8258822672
 30
0.0
 40
2.75
  0
ARC
  5
315
330
1F
100
AcDbEntity
  8
0
  6
Continuous
 62
     7
370
     0
100
AcDbCircle
 10
97.7729181012
 20
128.8258822672
 30
0.0
 40
2.750000000000014
100
AcDbArc
 50
0.0
 51
180.0
  0
ARC
  5
316
330
1F
100
AcDbEntity
  8
0
  6
Continuous
 62
     7
370
     0
100
AcDbCircle
 10
57.7729181012
 20
128.8258822672
 30
0.0
 40
37.25000000000001
100
AcDbArc
 50
270.0
 51
0.0
  0
ARC
  5
317
330
1F
100
AcDbEntity
  8
0
  6
Continuous
 62
     7
370
     0
100
AcDbCircle
 10
57.7729181012
 20
88.8258822672
 30
0.0
 40
2.75
100
AcDbArc
 50
90.0
 51
270.0
  0
ARC
  5
318
330
1F
100
AcDbEntity
  8
0
  6
Continuous
 62
     7
370
     0
100
AcDbCircle
 10
57.7729181012
 20
128.8258822672
 30
0.0
 40
42.75000000000001
100
AcDbArc
 50
270.0
 51
0.0
  0
ARC
  5
319
330
1F
100
AcDbEntity
  8
0
  6
Continuous
 62
     7
370
     0
100
AcDbCircle
 10
87.7729181012
 20
128.8258822672
 30
0.0
 40
2.75
100
AcDbArc
 50
0.0
 51
180.0
  0
ARC
  5
31A
330
1F
100
AcDbEntity
  8
0
  6
Continuous
 62
     7
370
     0
100
AcDbCircle
 10
57.7729181012
 20
128.8258822672
 30
0.0
 40
27.25
100
AcDbArc
 50
270.0
 51
0.0
  0
ARC
  5
31B
330
1F
100
AcDbEntity
  8
0
  6
Continuous
 62
     7
370
     0
100
AcDbCircle
 10
57.7729181012
 20
98.8258822672
 30
0.0
 40
2.75
100
AcDbArc
 50
90.0
 51
270.0
  0
ARC
  5
31C
330
1F
100
AcDbEntity
  8
0
  6
Continuous
 62
     7
370
     0
100
AcDbCircle
 10
57.7729181012
 20
128.8258822672
 30
0.0
 40
32.75
100
AcDbArc
 50
270.0
 51
0.0
  0
LINE
  5
31D
330
1F
100
AcDbEntity
  8
0
  6
Continuous
 62
     7
370
     0
100
AcDbLine
 10
107.7729181012
 20
131.3258822672
 30
0.0
 11
107.7729181012
 21
81.3258822672
 31
0.0
  0
LINE
  5
31E
330
1F
100
AcDbEntity
  8
0
  6
Continuous
 62
     7
370
     0
100
AcDbLine
 10
47.7729181012
 20
131.3258822672
 30
0.0
 11
47.7729181012
 21
81.3258822672
 31
0.0
  0
ARC
  5
31F
330
1F
100
AcDbEntity
  8
SLD-0_0
  6
CENTERX2
100
AcDbCircle
 10
57.7729181012
 20
128.8258822672
 30
0.0
 40
30.00000000000014
100
AcDbArc
 50
270.0
 51
0.0
  0
ARC
  5
320
330
1F
100
AcDbEntity
  8
SLD-0_0
  6
CENTERX2
100
AcDbCircle
 10
57.7729181012
 20
128.8258822672
 30
0.0
 40
40.0
100
AcDbArc
 50
270.0
 51
0.0
  0
DIMENSION
  5
321
330
1F
100
AcDbEntity
  8
SLD-0_0
100
AcDbDimension
  2
*D48
 10
57.7729181012
 20
128.8258822672
 30
0.0
 11
72.6453976855
 21
126.8740601886
 31
0.0
 70
   164
  1
<>
 71
     1
 42
-1.0
  3
SLDDIMSTYLE2
100
AcDbRadialDimension
 15
87.5178572699
 25
124.9222181099
 35
0.0
 40
0.0
  0
DIMENSION
  5
32A
330
1F
100
AcDbEntity
  8
SLD-0_0
100
AcDbDimension
  2
*D49
 10
57.7729181012
 20
128.8258822672
 30
0.0
 11
61.3842031632
 21
109.1546266133
 31
0.0
 70
   164
  1
<>
 71
     1
 42
-1.0
  3
SLDDIMSTYLE2
100
AcDbRadialDimension
 15
64.9954682252
 25
89.4833509594
 35
0.0
 40
0.0
  0
DIMENSION
  5
333
330
1F
100
AcDbEntity
  8
SLD-0_0
100
AcDbDimension
  2
*D50
 10
97.7729181012
 20
164.3258822672
 30
0.0
 11
92.7729181012
 21
164.3258822672
 31
0.0
 70
   160
 71
     2
 42
-1.0
  3
SLDDIMSTYLE1
100
AcDbAlignedDimension
 13
87.7729181012
 23
134.0758822672
 33
0.0
 14
97.7729181012
 24
134.0758822672
 34
0.0
100
AcDbRotatedDimension
  0
DIMENSION
  5
33F
330
1F
100
AcDbEntity
  8
SLD-0_0
100
AcDbDimension
  2
*D51
 10
87.7729181012
 20
164.3258822672
 30
0.0
 11
67.7729181012
 21
164.3258822672
 31
0.0
 70
   160
 71
     2
 42
-1.0
  3
SLDDIMSTYLE0
100
AcDbAlignedDimension
 13
47.7729181012
 23
131.3258822672
 33
0.0
 14
87.7729181012
 24
134.0758822672
 34
0.0
 50
0.0
100
AcDbRotatedDimension
  0
DIMENSION
  5
349
330
1F
100
AcDbEntity
  8
SLD-0_0
100
AcDbDimension
  2
*D52
 10
57.7729181012
 20
152.3258822672
 30
0.0
 11
52.7729181012
 21
152.3258822672
 31
0.0
 70
   160
 71
     2
 42
-1.0
  3
SLDDIMSTYLE1
100
AcDbAlignedDimension
 13
47.7729181012
 23
131.3258822672
 33
0.0
 14
57.7729181012
 24
134.0758822672
 34
0.0
 50
0.0
100
AcDbRotatedDimension
  0
DIMENSION
  5
355
330
1F
100
AcDbEntity
  8
SLD-0_0
100
AcDbDimension
  2
*D53
 10
55.8117449724
 20
126.8981115446
 30
0.0
 11
80.9286320013
 21
145.6007348271
 31
0.0
 70
   163
  1
<>
 71
     1
 42
-1.0
  3
SLDDIMSTYLE3
100
AcDbDiametricDimension
 15
59.73409123
 25
130.7536529898
 35
0.0
 40
0.0
  0
DIMENSION
  5
35E
330
1F
100
AcDbEntity
  8
SLD-0_0
100
AcDbDimension
  2
*D54
 10
37.7728681012
 20
128.8258822672
 30
0.0
 11
37.7728681012
 21
143.6577869405
 31
0.0
 70
   160
 71
     2
 42
-1.0
  3
SLDDIMSTYLE1
100
AcDbAlignedDimension
 13
52.7729181012
 23
136.3258822672
 33
0.0
 14
52.5229181012
 24
128.8258822672
 34
0.0
 50
90.0
100
AcDbRotatedDimension
  0
DIMENSION
  5
36A
330
1F
100
AcDbEntity
  8
SLD-0_0
100
AcDbDimension
  2
*D55
 10
28.9328170042
 20
98.8258822672
 30
0.0
 11
28.9328170042
 21
117.5758822672
 31
0.0
 70
   160
 71
     2
 42
-1.0
  3
SLDDIMSTYLE0
100
AcDbAlignedDimension
 13
52.7729181012
 23
136.3258822672
 33
0.0
 14
52.5229181012
 24
98.8258822672
 34
0.0
 50
90.0
100
AcDbRotatedDimension
  0
DIMENSION
  5
374
330
1F
100
AcDbEntity
  8
SLD-0_0
100
AcDbDimension
  2
*D56
 10
28.9328170042
 20
88.8258822672
 30
0.0
 11
28.9328170042
 21
93.8258822672
 31
0.0
 70
   160
 71
     2
 42
-1.0
  3
SLDDIMSTYLE1
100
AcDbAlignedDimension
 13
52.5229181012
 23
98.8258822672
 33
0.0
 14
52.5229181012
 24
88.8258822672
 34
0.0
 50
90.0
100
AcDbRotatedDimension
  0
DIMENSION
  5
380
330
1F
100
AcDbEntity
  8
SLD-0_0
100
AcDbDimension
  2
*D57
 10
57.7729181012
 20
63.3925230693
 30
0.0
 11
52.7729181012
 21
63.3925230693
 31
0.0
 70
   160
 71
     2
 42
-1.0
  3
SLDDIMSTYLE1
100
AcDbAlignedDimension
 13
47.7729181012
 23
76.3258822672
 33
0.0
 14
57.7729181012
 24
83.5758822672
 34
0.0
 50
0.0
100
AcDbRotatedDimension
  0
DIMENSION
  5
38C
330
1F
100
AcDbEntity
  8
SLD-0_0
100
AcDbDimension
  2
*D58
 10
77.0150614384
 20
96.930703638
 30
0.0
 11
84.460893286
 21
84.5887242306
 31
0.0
 70
   160
 71
     2
 42
-1.0
  3
SLDDIMSTYLE1
100
AcDbAlignedDimension
 13
79.8561832734
 23
92.2213484041
 33
0.0
 14
77.0150614384
 24
96.930703638
 34
0.0
 50
-58.8977063466
100
AcDbRotatedDimension
  0
DIMENSION
  5
396
330
1F
100
AcDbEntity
  8
SLD-0_0
100
AcDbDimension
  2
*D59
 10
78.3480346536
 20
110.9589553111
 30
0.0
 11
70.7281432378
 21
117.5758822672
 31
0.0
 70
   160
 71
     2
 42
-1.0
  3
SLDDIMSTYLE1
100
AcDbAlignedDimension
 13
82.5008104716
 23
107.3527865677
 33
0.0
 14
78.3480346536
 24
110.9589553111
 34
0.0
 50
-40.970248153
100
AcDbRotatedDimension
  0
DIMENSION
  5
3A0
330
1F
100
AcDbEntity
  8
SLD-0_0
100
AcDbDimension
  2
*D60
 10
117.7729681012
 20
128.8258822672
 30
0.0
 11
117.7729681012
 21
143.6577869405
 31
0.0
 70
   160
 71
     2
 42
-1.0
  3
SLDDIMSTYLE0
100
AcDbAlignedDimension
 13
102.7729181012
 23
136.3258822672
 33
0.0
 14
103.0229181012
 24
128.8258822672
 34
0.0
 50
90.0
100
AcDbRotatedDimension
  0
INSERT
  5
3B6
330
1F
100
AcDbEntity
  8
SLD-0_0
100
AcDbBlockReference
  2
SW_CENTERMARKSYMBOL_9
 10
57.7729181012
 20
128.8258822672
 30
0.0
  0
INSERT
  5
3D6
330
1F
100
AcDbEntity
  8
SLD-0_0
100
AcDbBlockReference
  2
SW_CENTERMARKSYMBOL_10
 10
87.7729181012
 20
128.8258822672
 30
0.0
  0
ENDSEC
  0
SECTION
  2
OBJECTS
  0
DICTIONARY
  5
C
330
0
100
AcDbDictionary
281
     1
  3
ACAD_GROUP
350
D
  3
ACAD_LAYOUT
350
1A
  3
ACAD_MLINESTYLE
350
17
  3
ACAD_PLOTSETTINGS
350
19
  3
ACAD_PLOTSTYLENAME
350
E
  3
ACAD_SCALELIST
350
54
  3
AcDbVariableDictionary
350
3D7
  0
DICTIONARY
  5
D
102
{ACAD_REACTORS
330
C
102
}
330
C
100
AcDbDictionary
281
     1
  0
DICTIONARY
  5
1A
102
{ACAD_REACTORS
330
C
102
}
330
C
100
AcDbDictionary
281
     1
  3
Layout1
350
1E
  3
Layout2
350
26
  3
Model
350
22
  0
DICTIONARY
  5
17
102
{ACAD_REACTORS
330
C
102
}
330
C
100
AcDbDictionary
281
     1
  3
Standard
350
18
  0
DICTIONARY
  5
19
102
{ACAD_REACTORS
330
C
102
}
330
C
100
AcDbDictionary
281
     1
  0
ACDBDICTIONARYWDFLT
  5
E
102
{ACAD_REACTORS
330
C
102
}
330
C
100
AcDbDictionary
281
     1
  3
Normal
350
F
100
AcDbDictionaryWithDefault
340
F
  0
DICTIONARY
  5
54
102
{ACAD_REACTORS
330
C
102
}
330
C
100
AcDbDictionary
281
     1
  3
A0
350
55
  3
A1
350
56
  3
A2
350
57
  3
A3
350
58
  3
A4
350
59
  3
A5
350
5A
  3
A6
350
5B
  3
A7
350
5C
  3
A8
350
5D
  3
A9
350
5E
  3
B0
350
5F
  3
B1
350
60
  3
B2
350
61
  3
B3
350
62
  3
B4
350
63
  3
B5
350
64
  3
B6
350
65
  3
B7
350
66
  3
B8
350
67
  3
B9
350
68
  3
C0
350
69
  3
C1
350
6A
  3
C2
350
6B
  3
C3
350
6C
  3
C4
350
6D
  3
C5
350
6E
  3
C6
350
6F
  3
C7
350
70
  3
C8
350
71
  3
C9
350
72
  3
D0
350
73
  3
D1
350
74
  3
D2
350
75
  0
DICTIONARY
  5
3D7
102
{ACAD_REACTORS
330
C
102
}
330
C
100
AcDbDictionary
281
     1
  3
CANNOSCALE
350
3D8
  0
LAYOUT
  5
1E
102
{ACAD_REACTORS
330
1A
102
}
330
1A
100
AcDbPlotSettings
  1

  2
none_device
  4

  6

 40
0.0
 41
0.0
 42
0.0
 43
0.0
 44
0.0
 45
0.0
 46
0.0
 47
0.0
 48
0.0
 49
0.0
140
0.0
141
0.0
142
1.0
143
1.0
 70
   688
 72
     0
 73
     0
 74
     5
  7

 75
    16
147
1.0
148
0.0
149
0.0
100
AcDbLayout
  1
Layout1
 70
     1
 71
     1
 10
0.0
 20
0.0
 11
420.0
 21
297.0
 12
0.0
 22
0.0
 32
0.0
 14
1.0000000000E+20
 24
1.0000000000E+20
 34
1.0000000000E+20
 15
-1.0000000000E+20
 25
-1.0000000000E+20
 35
-1.0000000000E+20
146
0.0
 13
0.0
 23
0.0
 33
0.0
 16
1.0
 26
0.0
 36
0.0
 17
0.0
 27
1.0
 37
0.0
 76
     0
330
1B
  0
LAYOUT
  5
26
102
{ACAD_REACTORS
330
1A
102
}
330
1A
100
AcDbPlotSettings
  1

  2
none_device
  4

  6

 40
0.0
 41
0.0
 42
0.0
 43
0.0
 44
0.0
 45
0.0
 46
0.0
 47
0.0
 48
0.0
 49
0.0
140
0.0
141
0.0
142
1.0
143
1.0
 70
   688
 72
     0
 73
     0
 74
     5
  7

 75
    16
147
1.0
148
0.0
149
0.0
100
AcDbLayout
  1
Layout2
 70
     1
 71
     2
 10
0.0
 20
0.0
 11
0.0
 21
0.0
 12
0.0
 22
0.0
 32
0.0
 14
0.0
 24
0.0
 34
0.0
 15
0.0
 25
0.0
 35
0.0
146
0.0
 13
0.0
 23
0.0
 33
0.0
 16
1.0
 26
0.0
 36
0.0
 17
0.0
 27
1.0
 37
0.0
 76
     0
330
23
  0
LAYOUT
  5
22
102
{ACAD_REACTORS
330
1A
102
}
330
1A
100
AcDbPlotSettings
  1

  2
none_device
  4

  6

 40
0.0
 41
0.0
 42
0.0
 43
0.0
 44
0.0
 45
0.0
 46
0.0
 47
0.0
 48
0.0
 49
0.0
140
0.0
141
0.0
142
1.0
143
1.0
 70
  1712
 72
     0
 73
     0
 74
     0
  7

 75
     0
147
1.0
148
0.0
149
0.0
100
AcDbLayout
  1
Model
 70
     1
 71
     0
 10
0.0
 20
0.0
 11
420.0
 21
297.0
 12
0.0
 22
0.0
 32
0.0
 14
0.0
 24
0.0
 34
0.0
 15
420.0
 25
297.0
 35
0.0
146
0.0
 13
0.0
 23
0.0
 33
0.0
 16
1.0
 26
0.0
 36
0.0
 17
0.0
 27
1.0
 37
0.0
 76
     0
330
1F
331
29
  0
MLINESTYLE
  5
18
102
{ACAD_REACTORS
330
17
102
}
330
17
100
AcDbMlineStyle
  2
Standard
 70
     0
  3

 62
   256
 51
90.0
 52
90.0
 71
     2
 49
0.5
 62
   256
  6
BYLAYER
 49
-0.5
 62
   256
  6
BYLAYER
  0
ACDBPLACEHOLDER
  5
F
102
{ACAD_REACTORS
330
E
102
}
330
E
  0
SCALE
  5
55
102
{ACAD_REACTORS
330
54
102
}
330
54
100
AcDbScale
 70
     0
300
1:1
140
1.0
141
1.0
290
     1
  0
SCALE
  5
56
102
{ACAD_REACTORS
330
54
102
}
330
54
100
AcDbScale
 70
     0
300
1:2
140
1.0
141
2.0
290
     0
  0
SCALE
  5
57
102
{ACAD_REACTORS
330
54
102
}
330
54
100
AcDbScale
 70
     0
300
1:4
140
1.0
141
4.0
290
     0
  0
SCALE
  5
58
102
{ACAD_REACTORS
330
54
102
}
330
54
100
AcDbScale
 70
     0
300
1:5
140
1.0
141
5.0
290
     0
  0
SCALE
  5
59
102
{ACAD_REACTORS
330
54
102
}
330
54
100
AcDbScale
 70
     0
300
1:8
140
1.0
141
8.0
290
     0
  0
SCALE
  5
5A
102
{ACAD_REACTORS
330
54
102
}
330
54
100
AcDbScale
 70
     0
300
1:10
140
1.0
141
10.0
290
     0
  0
SCALE
  5
5B
102
{ACAD_REACTORS
330
54
102
}
330
54
100
AcDbScale
 70
     0
300
1:16
140
1.0
141
16.0
290
     0
  0
SCALE
  5
5C
102
{ACAD_REACTORS
330
54
102
}
330
54
100
AcDbScale
 70
     0
300
1:20
140
1.0
141
20.0
290
     0
  0
SCALE
  5
5D
102
{ACAD_REACTORS
330
54
102
}
330
54
100
AcDbScale
 70
     0
300
1:30
140
1.0
141
30.0
290
     0
  0
SCALE
  5
5E
102
{ACAD_REACTORS
330
54
102
}
330
54
100
AcDbScale
 70
     0
300
1:40
140
1.0
141
40.0
290
     0
  0
SCALE
  5
5F
102
{ACAD_REACTORS
330
54
102
}
330
54
100
AcDbScale
 70
     0
300
1:50
140
1.0
141
50.0
290
     0
  0
SCALE
  5
60
102
{ACAD_REACTORS
330
54
102
}
330
54
100
AcDbScale
 70
     0
300
1:100
140
1.0
141
100.0
290
     0
  0
SCALE
  5
61
102
{ACAD_REACTORS
330
54
102
}
330
54
100
AcDbScale
 70
     0
300
2:1
140
2.0
141
1.0
290
     0
  0
SCALE
  5
62
102
{ACAD_REACTORS
330
54
102
}
330
54
100
AcDbScale
 70
     0
300
4:1
140
4.0
141
1.0
290
     0
  0
SCALE
  5
63
102
{ACAD_REACTORS
330
54
102
}
330
54
100
AcDbScale
 70
     0
300
8:1
140
8.0
141
1.0
290
     0
  0
SCALE
  5
64
102
{ACAD_REACTORS
330
54
102
}
330
54
100
AcDbScale
 70
     0
300
10:1
140
10.0
141
1.0
290
     0
  0
SCALE
  5
65
102
{ACAD_REACTORS
330
54
102
}
330
54
100
AcDbScale
 70
     0
300
100:1
140
100.0
141
1.0
290
     0
  0
SCALE
  5
66
102
{ACAD_REACTORS
330
54
102
}
330
54
100
AcDbScale
 70
     0
300
1/128" = 1'-0"
140
0.0078125
141
12.0
290
     0
  0
SCALE
  5
67
102
{ACAD_REACTORS
330
54
102
}
330
54
100
AcDbScale
 70
     0
300
1/64" = 1'-0"
140
0.015625
141
12.0
290
     0
  0
SCALE
  5
68
102
{ACAD_REACTORS
330
54
102
}
330
54
100
AcDbScale
 70
     0
300
1/32" = 1'-0"
140
0.03125
141
12.0
290
     0
  0
SCALE
  5
69
102
{ACAD_REACTORS
330
54
102
}
330
54
100
AcDbScale
 70
     0
300
1/16" = 1'-0"
140
0.0625
141
12.0
290
     0
  0
SCALE
  5
6A
102
{ACAD_REACTORS
330
54
102
}
330
54
100
AcDbScale
 70
     0
300
3/32" = 1'-0"
140
0.09375
141
12.0
290
     0
  0
SCALE
  5
6B
102
{ACAD_REACTORS
330
54
102
}
330
54
100
AcDbScale
 70
     0
300
1/8" = 1'-0"
140
0.125
141
12.0
290
     0
  0
SCALE
  5
6C
102
{ACAD_REACTORS
330
54
102
}
330
54
100
AcDbScale
 70
     0
300
3/16" = 1'-0"
140
0.1875
141
12.0
290
     0
  0
SCALE
  5
6D
102
{ACAD_REACTORS
330
54
102
}
330
54
100
AcDbScale
 70
     0
300
1/4" = 1'-0"
140
0.25
141
12.0
290
     0
  0
SCALE
  5
6E
102
{ACAD_REACTORS
330
54
102
}
330
54
100
AcDbScale
 70
     0
300
3/8" = 1'-0"
140
0.375
141
12.0
290
     0
  0
SCALE
  5
6F
102
{ACAD_REACTORS
330
54
102
}
330
54
100
AcDbScale
 70
     0
300
1/2" = 1'-0"
140
0.5
141
12.0
290
     0
  0
SCALE
  5
70
102
{ACAD_REACTORS
330
54
102
}
330
54
100
AcDbScale
 70
     0
300
3/4" = 1'-0"
140
0.75
141
12.0
290
     0
  0
SCALE
  5
71
102
{ACAD_REACTORS
330
54
102
}
330
54
100
AcDbScale
 70
     0
300
1" = 1'-0"
140
1.0
141
12.0
290
     0
  0
SCALE
  5
72
102
{ACAD_REACTORS
330
54
102
}
330
54
100
AcDbScale
 70
     0
300
1-1/2" = 1'-0"
140
1.5
141
12.0
290
     0
  0
SCALE
  5
73
102
{ACAD_REACTORS
330
54
102
}
330
54
100
AcDbScale
 70
     0
300
3" = 1'-0"
140
3.0
141
12.0
290
     0
  0
SCALE
  5
74
102
{ACAD_REACTORS
330
54
102
}
330
54
100
AcDbScale
 70
     0
300
6" = 1'-0"
140
6.0
141
12.0
290
     0
  0
SCALE
  5
75
102
{ACAD_REACTORS
330
54
102
}
330
54
100
AcDbScale
 70
     0
300
1'-0" = 1'-0"
140
12.0
141
12.0
290
     0
  0
DICTIONARYVAR
  5
3D8
102
{ACAD_REACTORS
330
3D7
102
}
330
3D7
100
DictionaryVariables
280
     0
  1
1:1
  0
ENDSEC
  0
EOF
