  0
SECTION
  2
HEADER
  9
$ACADVER
  1
AC1015
  9
$ACADMAINTVER
 70
     6
  9
$DWGCODEPAGE
  3
DOS932
  9
$INSBASE
 10
0.0
 20
0.0
 30
0.0
  9
$EXTMIN
 10
0.0
 20
0.0
 30
0.0
  9
$EXTMAX
 10
420.0
 20
297.0
 30
0.0
  9
$LIMMIN
 10
0.0
 20
0.0
  9
$LIMMAX
 10
420.0
 20
297.0
  9
$ORTHOMODE
 70
     0
  9
$REGENMODE
 70
     1
  9
$FILLMODE
 70
     1
  9
$QTEXTMODE
 70
     0
  9
$MIRRTEXT
 70
     1
  9
$LTSCALE
 40
1.0
  9
$ATTMODE
 70
     1
  9
$TEXTSIZE
 40
3.5
  9
$TRACEWID
 40
1.0
  9
$TEXTSTYLE
  7
Standard
  9
$CLAYER
  8
0
  9
$CELTYPE
  6
ByLayer
  9
$CECOLOR
 62
   256
  9
$CELTSCALE
 40
1.0
  9
$DISPSILH
 70
     0
  9
$DIMSCALE
 40
1.0
  9
$DIMASZ
 40
3.0
  9
$DIMEXO
 40
1.0
  9
$DIMDLI
 40
3.75
  9
$DIMRND
 40
0.0
  9
$DIMDLE
 40
0.0
  9
$DIMEXE
 40
1.0
  9
$DIMTP
 40
0.0
  9
$DIMTM
 40
0.0
  9
$DIMTXT
 40
3.5
  9
$DIMCEN
 40
2.5
  9
$DIMTSZ
 40
0.0
  9
$DIMTOL
 70
     0
  9
$DIMLIM
 70
     0
  9
$DIMTIH
 70
     1
  9
$DIMTOH
 70
     1
  9
$DIMSE1
 70
     0
  9
$DIMSE2
 70
     0
  9
$DIMTAD
 70
     1
  9
$DIMZIN
 70
     0
  9
$DIMBLK
  1

  9
$DIMASO
 70
     1
  9
$DIMSHO
 70
     1
  9
$DIMPOST
  1

  9
$DIMAPOST
  1

  9
$DIMALT
 70
     0
  9
$DIMALTD
 70
     3
  9
$DIMALTF
 40
0.0393700787
  9
$DIMLFAC
 40
1.0
  9
$DIMTOFL
 70
     1
  9
$DIMTVP
 40
0.0
  9
$DIMTIX
 70
     0
  9
$DIMSOXD
 70
     0
  9
$DIMSAH
 70
     0
  9
$DIMBLK1
  1

  9
$DIMBLK2
  1

  9
$DIMSTYLE
  2
ISO-25
  9
$DIMCLRD
 70
     0
  9
$DIMCLRE
 70
     0
  9
$DIMCLRT
 70
     0
  9
$DIMTFAC
 40
1.0
  9
$DIMGAP
 40
1.524
  9
$DIMJUST
 70
     0
  9
$DIMSD1
 70
     0
  9
$DIMSD2
 70
     0
  9
$DIMTOLJ
 70
     0
  9
$DIMTZIN
 70
     0
  9
$DIMALTZ
 70
     0
  9
$DIMALTTZ
 70
     0
  9
$DIMUPT
 70
     0
  9
$DIMDEC
 70
     1
  9
$DIMTDEC
 70
     2
  9
$DIMALTU
 70
     2
  9
$DIMALTTD
 70
     3
  9
$DIMTXSTY
  7
Standard
  9
$DIMAUNIT
 70
     0
  9
$DIMADEC
 70
     2
  9
$DIMALTRND
 40
0.0
  9
$DIMAZIN
 70
     0
  9
$DIMDSEP
 70
    44
  9
$DIMATFIT
 70
     3
  9
$DIMFRAC
 70
     0
  9
$DIMLDRBLK
  1

  9
$DIMLUNIT
 70
     2
  9
$DIMLWD
 70
    -2
  9
$DIMLWE
 70
    -2
  9
$DIMTMOVE
 70
     0
  9
$LUNITS
 70
     2
  9
$LUPREC
 70
     1
  9
$SKETCHINC
 40
1.0
  9
$FILLETRAD
 40
10.0
  9
$AUNITS
 70
     0
  9
$AUPREC
 70
     2
  9
$MENU
  1
.
  9
$ELEVATION
 40
0.0
  9
$PELEVATION
 40
0.0
  9
$THICKNESS
 40
0.0
  9
$LIMCHECK
 70
     0
  9
$CHAMFERA
 40
10.0
  9
$CHAMFERB
 40
10.0
  9
$CHAMFERC
 40
20.0
  9
$CHAMFERD
 40
0.0
  9
$SKPOLY
 70
     0
  9
$TDCREATE
 40
2456315.793256285
  9
$TDUCREATE
 40
2456315.418256285
  9
$TDUPDATE
 40
2456315.793256296
  9
$TDUUPDATE
 40
2456315.418256296
  9
$TDINDWG
 40
0.0000000116
  9
$TDUSRTIMER
 40
0.0000000116
  9
$USRTIMER
 70
     1
  9
$ANGBASE
 50
0.0
  9
$ANGDIR
 70
     0
  9
$PDMODE
 70
     0
  9
$PDSIZE
 40
-1.0
  9
$PLINEWID
 40
0.0
  9
$SPLFRAME
 70
     0
  9
$SPLINETYPE
 70
     6
  9
$SPLINESEGS
 70
     8
  9
$HANDSEED
  5
2D1
  9
$SURFTAB1
 70
     6
  9
$SURFTAB2
 70
     6
  9
$SURFTYPE
 70
     6
  9
$SURFU
 70
     6
  9
$SURFV
 70
     6
  9
$UCSBASE
  2

  9
$UCSNAME
  2

  9
$UCSORG
 10
0.0
 20
0.0
 30
0.0
  9
$UCSXDIR
 10
1.0
 20
0.0
 30
0.0
  9
$UCSYDIR
 10
0.0
 20
1.0
 30
0.0
  9
$UCSORTHOREF
  2

  9
$UCSORTHOVIEW
 70
     0
  9
$UCSORGTOP
 10
0.0
 20
0.0
 30
0.0
  9
$UCSORGBOTTOM
 10
0.0
 20
0.0
 30
0.0
  9
$UCSORGLEFT
 10
0.0
 20
0.0
 30
0.0
  9
$UCSORGRIGHT
 10
0.0
 20
0.0
 30
0.0
  9
$UCSORGFRONT
 10
0.0
 20
0.0
 30
0.0
  9
$UCSORGBACK
 10
0.0
 20
0.0
 30
0.0
  9
$PUCSBASE
  2

  9
$PUCSNAME
  2

  9
$PUCSORG
 10
0.0
 20
0.0
 30
0.0
  9
$PUCSXDIR
 10
1.0
 20
0.0
 30
0.0
  9
$PUCSYDIR
 10
0.0
 20
1.0
 30
0.0
  9
$PUCSORTHOREF
  2

  9
$PUCSORTHOVIEW
 70
     0
  9
$PUCSORGTOP
 10
0.0
 20
0.0
 30
0.0
  9
$PUCSORGBOTTOM
 10
0.0
 20
0.0
 30
0.0
  9
$PUCSORGLEFT
 10
0.0
 20
0.0
 30
0.0
  9
$PUCSORGRIGHT
 10
0.0
 20
0.0
 30
0.0
  9
$PUCSORGFRONT
 10
0.0
 20
0.0
 30
0.0
  9
$PUCSORGBACK
 10
0.0
 20
0.0
 30
0.0
  9
$USERI1
 70
     0
  9
$USERI2
 70
     0
  9
$USERI3
 70
     0
  9
$USERI4
 70
     0
  9
$USERI5
 70
     0
  9
$USERR1
 40
0.0
  9
$USERR2
 40
0.0
  9
$USERR3
 40
0.0
  9
$USERR4
 40
0.0
  9
$USERR5
 40
0.0
  9
$WORLDVIEW
 70
     1
  9
$SHADEDGE
 70
     3
  9
$SHADEDIF
 70
    70
  9
$TILEMODE
 70
     1
  9
$MAXACTVP
 70
    64
  9
$PINSBASE
 10
0.0
 20
0.0
 30
0.0
  9
$PLIMCHECK
 70
     0
  9
$PEXTMIN
 10
1.0000000000E+20
 20
1.0000000000E+20
 30
1.0000000000E+20
  9
$PEXTMAX
 10
-1.0000000000E+20
 20
-1.0000000000E+20
 30
-1.0000000000E+20
  9
$PLIMMIN
 10
0.0
 20
0.0
  9
$PLIMMAX
 10
420.0
 20
297.0
  9
$UNITMODE
 70
     0
  9
$VISRETAIN
 70
     1
  9
$PLINEGEN
 70
     0
  9
$PSLTSCALE
 70
     1
  9
$TREEDEPTH
 70
  3020
  9
$CMLSTYLE
  2
Standard
  9
$CMLJUST
 70
     0
  9
$CMLSCALE
 40
20.0
  9
$PROXYGRAPHICS
 70
     1
  9
$MEASUREMENT
 70
     1
  9
$CELWEIGHT
370
    -1
  9
$ENDCAPS
280
     0
  9
$JOINSTYLE
280
     0
  9
$LWDISPLAY
290
     1
  9
$INSUNITS
 70
     4
  9
$HYPERLINKBASE
  1

  9
$STYLESHEET
  1

  9
$XEDIT
290
     1
  9
$CEPSNTYPE
380
     0
  9
$PSTYLEMODE
290
     1
  9
$FINGERPRINTGUID
  2
{FC3BE4A4-05AC-46E3-A02F-E2F3692D0361}
  9
$VERSIONGUID
  2
{FAEB1C32-E019-11D5-929B-00C0DF256EC4}
  9
$EXTNAMES
290
     1
  9
$PSVPSCALE
 40
0.0
  9
$OLESTARTUP
290
     0
  0
ENDSEC
  0
SECTION
  2
CLASSES
  0
CLASS
  1
ACDBDICTIONARYWDFLT
  2
AcDbDictionaryWithDefault
  3
ObjectDBX Classes
 90
        0
280
     0
281
     0
  0
CLASS
  1
VISUALSTYLE
  2
AcDbVisualStyle
  3
ObjectDBX Classes
 90
     4095
280
     0
281
     0
  0
CLASS
  1
MATERIAL
  2
AcDbMaterial
  3
ObjectDBX Classes
 90
     1153
280
     0
281
     0
  0
CLASS
  1
SCALE
  2
AcDbScale
  3
ObjectDBX Classes
 90
     1153
280
     0
281
     0
  0
CLASS
  1
DICTIONARYVAR
  2
AcDbDictionaryVar
  3
ObjectDBX Classes
 90
        0
280
     0
281
     0
  0
CLASS
  1
ACDBPLACEHOLDER
  2
AcDbPlaceHolder
  3
ObjectDBX Classes
 90
        0
280
     0
281
     0
  0
CLASS
  1
LAYOUT
  2
AcDbLayout
  3
ObjectDBX Classes
 90
        0
280
     0
281
     0
  0
ENDSEC
  0
SECTION
  2
TABLES
  0
TABLE
  2
VPORT
  5
8
330
0
100
AcDbSymbolTable
 70
     1
  0
VPORT
  5
29
330
8
100
AcDbSymbolTableRecord
100
AcDbViewportTableRecord
  2
*Active
 70
     0
 10
0.0
 20
0.0
 11
1.0
 21
1.0
 12
210.0
 22
148.5
 13
0.0
 23
0.0
 14
10.0
 24
10.0
 15
10.0
 25
10.0
 16
0.0
 26
0.0
 36
1.0
 17
0.0
 27
0.0
 37
0.0
 40
297.0
 41
1.4141414141
 42
50.0
 43
0.0
 44
0.0
 50
0.0
 51
0.0
 71
     0
 72
  2000
 73
     1
 74
     3
 75
     0
 76
     0
 77
     0
 78
     0
281
     0
 65
     1
110
0.0
120
0.0
130
0.0
111
1.0
121
0.0
131
0.0
112
0.0
122
1.0
132
0.0
 79
     0
146
0.0
  0
ENDTAB
  0
TABLE
  2
LTYPE
  5
5
330
0
100
AcDbSymbolTable
 70
     6
  0
LTYPE
  5
14
330
5
100
AcDbSymbolTableRecord
100
AcDbLinetypeTableRecord
  2
ByBlock
 70
     0
  3

 72
    65
 73
     0
 40
0.0
  0
LTYPE
  5
15
330
5
100
AcDbSymbolTableRecord
100
AcDbLinetypeTableRecord
  2
ByLayer
 70
     0
  3

 72
    65
 73
     0
 40
0.0
  0
LTYPE
  5
16
330
5
100
AcDbSymbolTableRecord
100
AcDbLinetypeTableRecord
  2
Continuous
 70
     0
  3
Solid line
 72
    65
 73
     0
 40
0.0
  0
LTYPE
  5
3F
330
5
100
AcDbSymbolTableRecord
100
AcDbLinetypeTableRecord
  2
HIDDEN
 70
     0
  3
Hidden __ __ __ __ __ __ __ __ __ __ __ __ __ __
 72
    65
 73
     2
 40
1.905
 49
1.27
 74
     0
 49
-0.635
 74
     0
  0
LTYPE
  5
40
330
5
100
AcDbSymbolTableRecord
100
AcDbLinetypeTableRecord
  2
PHANTOM
 70
     0
  3
Phantom ______  __  __  ______  __  __  ______
 72
    65
 73
     6
 40
12.7
 49
6.35
 74
     0
 49
-1.27
 74
     0
 49
1.27
 74
     0
 49
-1.27
 74
     0
 49
1.27
 74
     0
 49
-1.27
 74
     0
  0
LTYPE
  5
41
330
5
100
AcDbSymbolTableRecord
100
AcDbLinetypeTableRecord
  2
CENTER
 70
     0
  3
Center ____ _ ____ _ ____ _ ____ _ ____ _ ____
 72
    65
 73
     4
 40
10.16
 49
6.35
 74
     0
 49
-1.27
 74
     0
 49
1.27
 74
     0
 49
-1.27
 74
     0
  0
LTYPE
  5
42
330
5
100
AcDbSymbolTableRecord
100
AcDbLinetypeTableRecord
  2
CENTERX2
 70
     0
  3
Center (2x) ________  __  ________  __  _____
 72
    65
 73
     4
 40
20.32
 49
12.7
 74
     0
 49
-2.54
 74
     0
 49
2.54
 74
     0
 49
-2.54
 74
     0
  0
LTYPE
  5
43
330
5
100
AcDbSymbolTableRecord
100
AcDbLinetypeTableRecord
  2
DOT2
 70
     0
  3
Dot (.5x) ........................................
 72
    65
 73
     2
 40
0.635
 49
0.0
 74
     0
 49
-0.635
 74
     0
  0
ENDTAB
  0
TABLE
  2
LAYER
  5
2
330
0
100
AcDbSymbolTable
 70
     3
  0
LAYER
  5
10
330
2
100
AcDbSymbolTableRecord
100
AcDbLayerTableRecord
  2
0
 70
     0
 62
     7
  6
Continuous
370
    -3
390
F
  0
LAYER
  5
44
330
2
100
AcDbSymbolTableRecord
100
AcDbLayerTableRecord
  2
SLD-0_0
 70
     0
 62
   179
  6
Continuous
370
    -3
390
F
  0
LAYER
  5
45
330
2
100
AcDbSymbolTableRecord
100
AcDbLayerTableRecord
  2
SLD-0
 70
     0
 62
   179
  6
Continuous
370
    -3
390
F
  0
ENDTAB
  0
TABLE
  2
STYLE
  5
3
330
0
100
AcDbSymbolTable
 70
     2
  0
STYLE
  5
11
330
3
100
AcDbSymbolTableRecord
100
AcDbTextStyleTableRecord
  2
Standard
 70
     0
 40
0.0
 41
1.0
 50
0.0
 71
     0
 42
2.5
  3
txt
  4
bigfont
  0
STYLE
  5
50
330
3
100
AcDbSymbolTableRecord
100
AcDbTextStyleTableRecord
  2
SLDTEXTSTYLE0
 70
     0
 40
0.0
 41
0.7
 50
0.0
 71
     0
 42
0.2
  3
TXT
  4
bigfont
  0
ENDTAB
  0
TABLE
  2
VIEW
  5
6
330
0
100
AcDbSymbolTable
 70
     0
  0
ENDTAB
  0
TABLE
  2
UCS
  5
7
330
0
100
AcDbSymbolTable
 70
     0
  0
ENDTAB
  0
TABLE
  2
APPID
  5
9
330
0
100
AcDbSymbolTable
 70
     1
  0
APPID
  5
12
330
9
100
AcDbSymbolTableRecord
100
AcDbRegAppTableRecord
  2
ACAD
 70
     0
  0
ENDTAB
  0
TABLE
  2
DIMSTYLE
  5
A
330
0
100
AcDbSymbolTable
 70
     7
100
AcDbDimStyleTable
  0
DIMSTYLE
105
27
330
A
100
AcDbSymbolTableRecord
100
AcDbDimStyleTableRecord
  2
ISO-25
 70
     0
 41
2.5
 42
0.625
 43
3.75
 44
1.25
 73
     0
 74
     0
 77
     1
 78
     8
140
2.5
141
2.5
143
0.0393700787
147
0.625
171
     3
172
     1
271
     2
272
     2
274
     3
278
    44
283
     0
284
     8
340
11
  0
DIMSTYLE
105
9B
102
{ACAD_REACTORS
330
9A
330
AE
330
C5
330
E6
330
19F
330
1B5
330
1E5
330
1FC
330
292
330
29E
102
}
330
A
100
AcDbSymbolTableRecord
100
AcDbDimStyleTableRecord
  2
SLDDIMSTYLE0
 70
     0
 41
3.0
 44
0.0
 45
0.000000001
 73
     0
 74
     0
 77
     3
 78
    12
140
3.5
147
0.875
173
     1
271
     1
272
     2
276
     2
284
    12
340
50
341
9C
343
9C
344
9C
  0
DIMSTYLE
105
BB
102
{ACAD_REACTORS
330
BA
330
D2
330
DC
330
142
330
14C
330
1AB
330
27E
330
288
102
}
330
A
100
AcDbSymbolTableRecord
100
AcDbDimStyleTableRecord
  2
SLDDIMSTYLE1
 70
     0
 41
3.0
 44
0.0
 45
0.000000001
 73
     0
 74
     0
 77
     3
 78
    12
140
3.5
147
0.875
173
     1
271
     1
272
     2
276
     2
284
    12
340
50
341
9C
343
9C
344
9C
  0
DIMSTYLE
105
FD
330
A
100
AcDbSymbolTableRecord
100
AcDbDimStyleTableRecord
  2
SLDDIMSTYLE2
 70
     0
 41
3.0
 44
0.0
 45
0.000000001
140
0.0
146
3.0
147
0.0
173
     1
271
     0
272
     0
276
     2
340
11
341
9C
343
9C
344
9C
  0
DIMSTYLE
105
1C2
102
{ACAD_REACTORS
330
1C1
102
}
330
A
100
AcDbSymbolTableRecord
100
AcDbDimStyleTableRecord
  2
SLDDIMSTYLE3
 70
     0
 41
3.0
 44
0.0
 45
0.000000001
 73
     0
 74
     0
 77
     3
 78
    12
140
3.5
147
0.875
173
     1
271
     1
272
     2
276
     2
284
    12
340
50
341
9C
343
9C
344
1C3
  0
DIMSTYLE
105
1D7
102
{ACAD_REACTORS
330
1D6
102
}
330
A
100
AcDbSymbolTableRecord
100
AcDbDimStyleTableRecord
  2
SLDDIMSTYLE4
 70
     0
 41
1.5
 44
0.0
 45
0.000000001
 73
     0
 74
     0
 77
     3
 78
    12
140
3.5
147
0.875
173
     1
271
     1
272
     2
276
     2
284
    12
340
50
341
1C3
343
1C3
344
1C3
  0
DIMSTYLE
105
1F2
102
{ACAD_REACTORS
330
1F1
102
}
330
A
100
AcDbSymbolTableRecord
100
AcDbDimStyleTableRecord
  2
SLDDIMSTYLE5
 70
     0
 41
1.5
 44
0.0
 45
0.000000001
 73
     0
 74
     0
 77
     3
 78
    12
140
3.5
147
0.875
173
     1
271
     1
272
     2
276
     2
284
    12
340
50
341
1C3
343
1C3
344
9C
  0
ENDTAB
  0
TABLE
  2
BLOCK_RECORD
  5
1
330
0
100
AcDbSymbolTable
 70
    39
  0
BLOCK_RECORD
  5
1F
330
1
100
AcDbSymbolTableRecord
100
AcDbBlockTableRecord
  2
*Model_Space
340
22
  0
BLOCK_RECORD
  5
1B
330
1
100
AcDbSymbolTableRecord
100
AcDbBlockTableRecord
  2
*Paper_Space
340
1E
  0
BLOCK_RECORD
  5
23
330
1
100
AcDbSymbolTableRecord
100
AcDbBlockTableRecord
  2
*Paper_Space0
340
26
  0
BLOCK_RECORD
  5
9C
330
1
100
AcDbSymbolTableRecord
100
AcDbBlockTableRecord
  2
_OPEN30
340
0
102
{BLKREFS
331
A5
331
A6
331
B2
331
B3
331
BF
331
C0
331
C9
331
CA
331
D6
331
D7
331
E0
331
E1
331
EA
331
EB
331
146
331
147
331
150
331
151
331
1A3
331
1A4
331
1AF
331
1B0
331
1B9
331
1BA
331
1CE
331
1E9
331
1EA
331
1F7
331
200
331
201
331
282
331
283
331
28C
331
28D
331
296
331
297
331
2A2
331
2A3
102
}
  0
BLOCK_RECORD
  5
A2
330
1
100
AcDbSymbolTableRecord
100
AcDbBlockTableRecord
  2
*D2
340
0
  0
BLOCK_RECORD
  5
AF
330
1
100
AcDbSymbolTableRecord
100
AcDbBlockTableRecord
  2
*D3
340
0
  0
BLOCK_RECORD
  5
BC
330
1
100
AcDbSymbolTableRecord
100
AcDbBlockTableRecord
  2
*D4
340
0
  0
BLOCK_RECORD
  5
C6
330
1
100
AcDbSymbolTableRecord
100
AcDbBlockTableRecord
  2
*D5
340
0
  0
BLOCK_RECORD
  5
D3
330
1
100
AcDbSymbolTableRecord
100
AcDbBlockTableRecord
  2
*D6
340
0
  0
BLOCK_RECORD
  5
DD
330
1
100
AcDbSymbolTableRecord
100
AcDbBlockTableRecord
  2
*D7
340
0
  0
BLOCK_RECORD
  5
E7
330
1
100
AcDbSymbolTableRecord
100
AcDbBlockTableRecord
  2
*D8
340
0
  0
BLOCK_RECORD
  5
F2
330
1
100
AcDbSymbolTableRecord
100
AcDbBlockTableRecord
  2
SW_NOTE_0
340
0
102
{BLKREFS
331
FC
102
}
  0
BLOCK_RECORD
  5
FF
330
1
100
AcDbSymbolTableRecord
100
AcDbBlockTableRecord
  2
SW_CENTERMARKSYMBOL_0
340
0
102
{BLKREFS
331
10A
102
}
  0
BLOCK_RECORD
  5
10B
330
1
100
AcDbSymbolTableRecord
100
AcDbBlockTableRecord
  2
SW_CENTERMARKSYMBOL_1
340
0
102
{BLKREFS
331
116
102
}
  0
BLOCK_RECORD
  5
143
330
1
100
AcDbSymbolTableRecord
100
AcDbBlockTableRecord
  2
*D12
340
0
  0
BLOCK_RECORD
  5
14D
330
1
100
AcDbSymbolTableRecord
100
AcDbBlockTableRecord
  2
*D13
340
0
  0
BLOCK_RECORD
  5
156
330
1
100
AcDbSymbolTableRecord
100
AcDbBlockTableRecord
  2
SW_NOTE_1
340
0
102
{BLKREFS
331
160
102
}
  0
BLOCK_RECORD
  5
162
330
1
100
AcDbSymbolTableRecord
100
AcDbBlockTableRecord
  2
SW_CENTERMARKSYMBOL_2
340
0
102
{BLKREFS
331
16D
102
}
  0
BLOCK_RECORD
  5
16E
330
1
100
AcDbSymbolTableRecord
100
AcDbBlockTableRecord
  2
SW_CENTERMARKSYMBOL_3
340
0
102
{BLKREFS
331
179
102
}
  0
BLOCK_RECORD
  5
1A0
330
1
100
AcDbSymbolTableRecord
100
AcDbBlockTableRecord
  2
*D17
340
0
  0
BLOCK_RECORD
  5
1AC
330
1
100
AcDbSymbolTableRecord
100
AcDbBlockTableRecord
  2
*D18
340
0
  0
BLOCK_RECORD
  5
1B6
330
1
100
AcDbSymbolTableRecord
100
AcDbBlockTableRecord
  2
*D19
340
0
  0
BLOCK_RECORD
  5
1C3
330
1
100
AcDbSymbolTableRecord
100
AcDbBlockTableRecord
  2
_DOT
340
0
102
{BLKREFS
331
1CF
331
1DB
331
1DC
331
1F6
102
}
  0
BLOCK_RECORD
  5
1CB
330
1
100
AcDbSymbolTableRecord
100
AcDbBlockTableRecord
  2
*D21
340
0
  0
BLOCK_RECORD
  5
1D8
330
1
100
AcDbSymbolTableRecord
100
AcDbBlockTableRecord
  2
*D22
340
0
  0
BLOCK_RECORD
  5
1E6
330
1
100
AcDbSymbolTableRecord
100
AcDbBlockTableRecord
  2
*D23
340
0
  0
BLOCK_RECORD
  5
1F3
330
1
100
AcDbSymbolTableRecord
100
AcDbBlockTableRecord
  2
*D24
340
0
  0
BLOCK_RECORD
  5
1FD
330
1
100
AcDbSymbolTableRecord
100
AcDbBlockTableRecord
  2
*D25
340
0
  0
BLOCK_RECORD
  5
20A
330
1
100
AcDbSymbolTableRecord
100
AcDbBlockTableRecord
  2
SW_NOTE_2
340
0
102
{BLKREFS
331
214
102
}
  0
BLOCK_RECORD
  5
216
330
1
100
AcDbSymbolTableRecord
100
AcDbBlockTableRecord
  2
SW_NOTE_3
340
0
102
{BLKREFS
331
220
102
}
  0
BLOCK_RECORD
  5
222
330
1
100
AcDbSymbolTableRecord
100
AcDbBlockTableRecord
  2
SW_CENTERMARKSYMBOL_4
340
0
102
{BLKREFS
331
22D
102
}
  0
BLOCK_RECORD
  5
22E
330
1
100
AcDbSymbolTableRecord
100
AcDbBlockTableRecord
  2
SW_CENTERMARKSYMBOL_5
340
0
102
{BLKREFS
331
239
102
}
  0
BLOCK_RECORD
  5
23A
330
1
100
AcDbSymbolTableRecord
100
AcDbBlockTableRecord
  2
SW_CENTERMARKSYMBOL_6
340
0
102
{BLKREFS
331
245
102
}
  0
BLOCK_RECORD
  5
246
330
1
100
AcDbSymbolTableRecord
100
AcDbBlockTableRecord
  2
SW_CENTERMARKSYMBOL_7
340
0
102
{BLKREFS
331
251
102
}
  0
BLOCK_RECORD
  5
27F
330
1
100
AcDbSymbolTableRecord
100
AcDbBlockTableRecord
  2
*D32
340
0
  0
BLOCK_RECORD
  5
289
330
1
100
AcDbSymbolTableRecord
100
AcDbBlockTableRecord
  2
*D33
340
0
  0
BLOCK_RECORD
  5
293
330
1
100
AcDbSymbolTableRecord
100
AcDbBlockTableRecord
  2
*D34
340
0
  0
BLOCK_RECORD
  5
29F
330
1
100
AcDbSymbolTableRecord
100
AcDbBlockTableRecord
  2
*D35
340
0
  0
BLOCK_RECORD
  5
2AA
330
1
100
AcDbSymbolTableRecord
100
AcDbBlockTableRecord
  2
SW_NOTE_4
340
0
102
{BLKREFS
331
2B4
102
}
  0
BLOCK_RECORD
  5
2B6
330
1
100
AcDbSymbolTableRecord
100
AcDbBlockTableRecord
  2
SW_CENTERMARKSYMBOL_8
340
0
102
{BLKREFS
331
2C1
102
}
  0
BLOCK_RECORD
  5
2C2
330
1
100
AcDbSymbolTableRecord
100
AcDbBlockTableRecord
  2
SW_CENTERMARKSYMBOL_9
340
0
102
{BLKREFS
331
2CD
102
}
  0
ENDTAB
  0
ENDSEC
  0
SECTION
  2
BLOCKS
  0
BLOCK
  5
20
330
1F
100
AcDbEntity
  8
0
100
AcDbBlockBegin
  2
*Model_Space
 70
     0
 10
0.0
 20
0.0
 30
0.0
  3
*Model_Space
  1

  0
ENDBLK
  5
21
330
1F
100
AcDbEntity
  8
0
100
AcDbBlockEnd
  0
BLOCK
  5
1C
330
1B
100
AcDbEntity
 67
     1
  8
0
100
AcDbBlockBegin
  2
*Paper_Space
 70
     0
 10
0.0
 20
0.0
 30
0.0
  3
*Paper_Space
  1

  0
ENDBLK
  5
1D
330
1B
100
AcDbEntity
 67
     1
  8
0
100
AcDbBlockEnd
  0
BLOCK
  5
24
330
23
100
AcDbEntity
  8
0
100
AcDbBlockBegin
  2
*Paper_Space0
 70
     0
 10
0.0
 20
0.0
 30
0.0
  3
*Paper_Space0
  1

  0
ENDBLK
  5
25
330
23
100
AcDbEntity
  8
0
100
AcDbBlockEnd
  0
BLOCK
  5
9D
330
9C
100
AcDbEntity
  8
0
100
AcDbBlockBegin
  2
_OPEN30
 70
     0
 10
0.0
 20
0.0
 30
0.0
  3
_OPEN30
  1

  0
LINE
  5
9F
330
9C
100
AcDbEntity
  8
0
  6
ByBlock
 62
     0
370
    -2
100
AcDbLine
 10
-1.0
 20
0.267949
 30
0.0
 11
0.0
 21
0.0
 31
0.0
  0
LINE
  5
A0
330
9C
100
AcDbEntity
  8
0
  6
ByBlock
 62
     0
370
    -2
100
AcDbLine
 10
0.0
 20
0.0
 30
0.0
 11
-1.0
 21
-0.267949
 31
0.0
  0
LINE
  5
A1
330
9C
100
AcDbEntity
  8
0
  6
ByBlock
 62
     0
370
    -2
100
AcDbLine
 10
0.0
 20
0.0
 30
0.0
 11
-1.0
 21
0.0
 31
0.0
  0
ENDBLK
  5
9E
330
9C
100
AcDbEntity
  8
0
100
AcDbBlockEnd
  0
BLOCK
  5
A3
330
A2
100
AcDbEntity
  8
0
100
AcDbBlockBegin
  2
*D2
 70
     1
 10
0.0
 20
0.0
 30
0.0
  3
*D2
  1

  0
INSERT
  5
A5
330
A2
100
AcDbEntity
  8
SLD-0
100
AcDbBlockReference
  2
_OPEN30
 10
188.3656696925
 20
169.8351890948
 30
0.1
 41
3.0
 42
3.0
 50
180.0
  0
INSERT
  5
A6
330
A2
100
AcDbEntity
  8
SLD-0
100
AcDbBlockReference
  2
_OPEN30
 10
182.6656696925
 20
169.8351890948
 30
0.1
 41
3.0
 42
3.0
 50
0.0
  0
LINE
  5
A7
330
A2
100
AcDbEntity
  8
SLD-0
100
AcDbLine
 10
188.3656696925
 20
160.8351890948
 30
0.0
 11
188.3656696925
 21
170.8351890948
 31
0.0
  0
LINE
  5
A8
330
A2
100
AcDbEntity
  8
SLD-0
100
AcDbLine
 10
182.6656696925
 20
160.8351890948
 30
0.0
 11
182.6656696925
 21
170.8351890948
 31
0.0
  0
LINE
  5
A9
330
A2
100
AcDbEntity
  8
SLD-0
100
AcDbLine
 10
188.3656696925
 20
169.8351890948
 30
0.0
 11
216.3479851064
 21
169.8351890948
 31
0.0
  0
LINE
  5
AA
330
A2
100
AcDbEntity
  8
SLD-0
100
AcDbLine
 10
188.3656696925
 20
169.8351890948
 30
0.0
 11
182.6656696925
 21
169.8351890948
 31
0.0
  0
LINE
  5
AB
330
A2
100
AcDbEntity
  8
SLD-0
100
AcDbLine
 10
182.6656696925
 20
169.8351890948
 30
0.0
 11
177.6656696925
 21
169.8351890948
 31
0.0
  0
MTEXT
  5
AC
330
A2
100
AcDbEntity
  8
SLD-0
100
AcDbMText
 10
196.43065646
 20
174.3469259512
 30
0.0
 40
3.5
 41
0.0
 71
     1
 72
     1
  1
5.7
  7
SLDTEXTSTYLE0
 73
     1
 44
1.0
  0
MTEXT
  5
AD
330
A2
100
AcDbEntity
  8
SLD-0
100
AcDbMText
 10
202.5405993421
 20
174.3469259512
 30
0.0
 40
3.5
 41
0.0
 71
     1
 72
     1
  1
(閉時)
  7
SLDTEXTSTYLE0
 73
     1
 44
1.0
  0
ENDBLK
  5
A4
330
A2
100
AcDbEntity
  8
0
100
AcDbBlockEnd
  0
BLOCK
  5
B0
330
AF
100
AcDbEntity
  8
0
100
AcDbBlockBegin
  2
*D3
 70
     1
 10
0.0
 20
0.0
 30
0.0
  3
*D3
  1

  0
INSERT
  5
B2
330
AF
100
AcDbEntity
  8
SLD-0
100
AcDbBlockReference
  2
_OPEN30
 10
177.5156696925
 20
90.4060686663
 30
0.1
 41
3.0
 42
3.0
 50
0.0
  0
INSERT
  5
B3
330
AF
100
AcDbEntity
  8
SLD-0
100
AcDbBlockReference
  2
_OPEN30
 10
193.5156696925
 20
90.4060686663
 30
0.1
 41
3.0
 42
3.0
 50
180.0
  0
LINE
  5
B4
330
AF
100
AcDbEntity
  8
SLD-0
100
AcDbLine
 10
177.5156696925
 20
120.8351890948
 30
0.0
 11
177.5156696925
 21
89.4060686663
 31
0.0
  0
LINE
  5
B5
330
AF
100
AcDbEntity
  8
SLD-0
100
AcDbLine
 10
193.5156696925
 20
120.8351890948
 30
0.0
 11
193.5156696925
 21
89.4060686663
 31
0.0
  0
LINE
  5
B6
330
AF
100
AcDbEntity
  8
SLD-0
100
AcDbLine
 10
177.5156696925
 20
90.4060686663
 30
0.0
 11
172.5156696925
 21
90.4060686663
 31
0.0
  0
LINE
  5
B7
330
AF
100
AcDbEntity
  8
SLD-0
100
AcDbLine
 10
177.5156696925
 20
90.4060686663
 30
0.0
 11
193.5156696925
 21
90.4060686663
 31
0.0
  0
LINE
  5
B8
330
AF
100
AcDbEntity
  8
SLD-0
100
AcDbLine
 10
193.5156696925
 20
90.4060686663
 30
0.0
 11
198.5156696925
 21
90.4060686663
 31
0.0
  0
MTEXT
  5
B9
330
AF
100
AcDbEntity
  8
SLD-0
100
AcDbMText
 10
183.4790220651
 20
94.9178055227
 30
0.0
 40
3.5
 41
0.0
 71
     1
 72
     1
  1
16
  7
SLDTEXTSTYLE0
 73
     1
 44
1.0
  0
ENDBLK
  5
B1
330
AF
100
AcDbEntity
  8
0
100
AcDbBlockEnd
  0
BLOCK
  5
BD
330
BC
100
AcDbEntity
  8
0
100
AcDbBlockBegin
  2
*D4
 70
     1
 10
0.0
 20
0.0
 30
0.0
  3
*D4
  1

  0
INSERT
  5
BF
330
BC
100
AcDbEntity
  8
SLD-0
100
AcDbBlockReference
  2
_OPEN30
 10
207.5923124174
 20
102.8351890948
 30
0.1
 41
3.0
 42
3.0
 50
270.0
  0
INSERT
  5
C0
330
BC
100
AcDbEntity
  8
SLD-0
100
AcDbBlockReference
  2
_OPEN30
 10
207.5923124174
 20
125.8351890948
 30
0.1
 41
3.0
 42
3.0
 50
90.0
  0
LINE
  5
C1
330
BC
100
AcDbEntity
  8
SLD-0
100
AcDbLine
 10
198.0156696925
 20
102.8351890948
 30
0.0
 11
208.5923124174
 21
102.8351890948
 31
0.0
  0
LINE
  5
C2
330
BC
100
AcDbEntity
  8
SLD-0
100
AcDbLine
 10
198.5156696925
 20
125.8351890948
 30
0.0
 11
208.5923124174
 21
125.8351890948
 31
0.0
  0
LINE
  5
C3
330
BC
100
AcDbEntity
  8
SLD-0
100
AcDbLine
 10
207.5923124174
 20
102.8351890948
 30
0.0
 11
207.5923124174
 21
125.8351890948
 31
0.0
  0
MTEXT
  5
C4
330
BC
100
AcDbEntity
  8
SLD-0
100
AcDbMText
 10
203.0805755611
 20
112.2985414674
 30
0.0
 40
3.5
 41
0.0
 71
     1
 72
     1
  1
23
  7
SLDTEXTSTYLE0
 11
-3.491481338843133E-15
 21
1.0
 31
0.0
 73
     1
 44
1.0
  0
ENDBLK
  5
BE
330
BC
100
AcDbEntity
  8
0
100
AcDbBlockEnd
  0
BLOCK
  5
C7
330
C6
100
AcDbEntity
  8
0
100
AcDbBlockBegin
  2
*D5
 70
     1
 10
0.0
 20
0.0
 30
0.0
  3
*D5
  1

  0
INSERT
  5
C9
330
C6
100
AcDbEntity
  8
SLD-0
100
AcDbBlockReference
  2
_OPEN30
 10
190.3656696925
 20
181.8351890948
 30
0.1
 41
3.0
 42
3.0
 50
180.0
  0
INSERT
  5
CA
330
C6
100
AcDbEntity
  8
SLD-0
100
AcDbBlockReference
  2
_OPEN30
 10
180.6656696925
 20
181.8351890948
 30
0.1
 41
3.0
 42
3.0
 50
0.0
  0
LINE
  5
CB
330
C6
100
AcDbEntity
  8
SLD-0
100
AcDbLine
 10
190.3656696925
 20
160.8351890948
 30
0.0
 11
190.3656696925
 21
182.8351890948
 31
0.0
  0
LINE
  5
CC
330
C6
100
AcDbEntity
  8
SLD-0
100
AcDbLine
 10
180.6656696925
 20
160.8351890948
 30
0.0
 11
180.6656696925
 21
182.8351890948
 31
0.0
  0
LINE
  5
CD
330
C6
100
AcDbEntity
  8
SLD-0
100
AcDbLine
 10
190.3656696925
 20
181.8351890948
 30
0.0
 11
216.3479851064
 21
181.8351890948
 31
0.0
  0
LINE
  5
CE
330
C6
100
AcDbEntity
  8
SLD-0
100
AcDbLine
 10
190.3656696925
 20
181.8351890948
 30
0.0
 11
180.6656696925
 21
181.8351890948
 31
0.0
  0
LINE
  5
CF
330
C6
100
AcDbEntity
  8
SLD-0
100
AcDbLine
 10
180.6656696925
 20
181.8351890948
 30
0.0
 11
175.6656696925
 21
181.8351890948
 31
0.0
  0
MTEXT
  5
D0
330
C6
100
AcDbEntity
  8
SLD-0
100
AcDbMText
 10
196.43065646
 20
186.3469259512
 30
0.0
 40
3.5
 41
0.0
 71
     1
 72
     1
  1
9.7
  7
SLDTEXTSTYLE0
 73
     1
 44
1.0
  0
MTEXT
  5
D1
330
C6
100
AcDbEntity
  8
SLD-0
100
AcDbMText
 10
202.5405993421
 20
186.3469259512
 30
0.0
 40
3.5
 41
0.0
 71
     1
 72
     1
  1
(開時)
  7
SLDTEXTSTYLE0
 73
     1
 44
1.0
  0
ENDBLK
  5
C8
330
C6
100
AcDbEntity
  8
0
100
AcDbBlockEnd
  0
BLOCK
  5
D4
330
D3
100
AcDbEntity
  8
0
100
AcDbBlockBegin
  2
*D6
 70
     1
 10
0.0
 20
0.0
 30
0.0
  3
*D6
  1

  0
INSERT
  5
D6
330
D3
100
AcDbEntity
  8
SLD-0
100
AcDbBlockReference
  2
_OPEN30
 10
171.0156696925
 20
78.4494152716
 30
0.1
 41
3.0
 42
3.0
 50
180.0
  0
INSERT
  5
D7
330
D3
100
AcDbEntity
  8
SLD-0
100
AcDbBlockReference
  2
_OPEN30
 10
200.0156696925
 20
78.4494152716
 30
0.1
 41
3.0
 42
3.0
 50
0.0
  0
LINE
  5
D8
330
D3
100
AcDbEntity
  8
SLD-0
100
AcDbLine
 10
171.0156696925
 20
139.6351890948
 30
0.0
 11
171.0156696925
 21
77.4494152716
 31
0.0
  0
LINE
  5
D9
330
D3
100
AcDbEntity
  8
SLD-0
100
AcDbLine
 10
200.0156696925
 20
139.6351890948
 30
0.0
 11
200.0156696925
 21
77.4494152716
 31
0.0
  0
LINE
  5
DA
330
D3
100
AcDbEntity
  8
SLD-0
100
AcDbLine
 10
171.0156696925
 20
78.4494152716
 30
0.0
 11
200.0156696925
 21
78.4494152716
 31
0.0
  0
MTEXT
  5
DB
330
D3
100
AcDbEntity
  8
SLD-0
100
AcDbMText
 10
183.4790220651
 20
82.9611521279
 30
0.0
 40
3.5
 41
0.0
 71
     1
 72
     1
  1
29
  7
SLDTEXTSTYLE0
 73
     1
 44
1.0
  0
ENDBLK
  5
D5
330
D3
100
AcDbEntity
  8
0
100
AcDbBlockEnd
  0
BLOCK
  5
DE
330
DD
100
AcDbEntity
  8
0
100
AcDbBlockBegin
  2
*D7
 70
     1
 10
0.0
 20
0.0
 30
0.0
  3
*D7
  1

  0
INSERT
  5
E0
330
DD
100
AcDbEntity
  8
SLD-0
100
AcDbBlockReference
  2
_OPEN30
 10
216.0156696925
 20
102.8351890948
 30
0.1
 41
3.0
 42
3.0
 50
270.0
  0
INSERT
  5
E1
330
DD
100
AcDbEntity
  8
SLD-0
100
AcDbBlockReference
  2
_OPEN30
 10
216.0156696925
 20
140.6351890948
 30
0.1
 41
3.0
 42
3.0
 50
90.0
  0
LINE
  5
E2
330
DD
100
AcDbEntity
  8
SLD-0
100
AcDbLine
 10
198.0156696925
 20
102.8351890948
 30
0.0
 11
217.0156696925
 21
102.8351890948
 31
0.0
  0
LINE
  5
E3
330
DD
100
AcDbEntity
  8
SLD-0
100
AcDbLine
 10
201.0156696925
 20
140.6351890948
 30
0.0
 11
217.0156696925
 21
140.6351890948
 31
0.0
  0
LINE
  5
E4
330
DD
100
AcDbEntity
  8
SLD-0
100
AcDbLine
 10
216.0156696925
 20
102.8351890948
 30
0.0
 11
216.0156696925
 21
140.6351890948
 31
0.0
  0
MTEXT
  5
E5
330
DD
100
AcDbEntity
  8
SLD-0
100
AcDbMText
 10
211.5039328361
 20
117.66189384
 30
0.0
 40
3.5
 41
0.0
 71
     1
 72
     1
  1
37.8
  7
SLDTEXTSTYLE0
 11
-3.269436733918102E-15
 21
1.0
 31
0.0
 73
     1
 44
1.0
  0
ENDBLK
  5
DF
330
DD
100
AcDbEntity
  8
0
100
AcDbBlockEnd
  0
BLOCK
  5
E8
330
E7
100
AcDbEntity
  8
0
100
AcDbBlockBegin
  2
*D8
 70
     1
 10
0.0
 20
0.0
 30
0.0
  3
*D8
  1

  0
INSERT
  5
EA
330
E7
100
AcDbEntity
  8
SLD-0
100
AcDbBlockReference
  2
_OPEN30
 10
216.0156696925
 20
140.6351890948
 30
0.1
 41
3.0
 42
3.0
 50
90.0
  0
INSERT
  5
EB
330
E7
100
AcDbEntity
  8
SLD-0
100
AcDbBlockReference
  2
_OPEN30
 10
216.0156696925
 20
146.6351890948
 30
0.1
 41
3.0
 42
3.0
 50
270.0
  0
LINE
  5
EC
330
E7
100
AcDbEntity
  8
SLD-0
100
AcDbLine
 10
201.0156696925
 20
140.6351890948
 30
0.0
 11
217.0156696925
 21
140.6351890948
 31
0.0
  0
LINE
  5
ED
330
E7
100
AcDbEntity
  8
SLD-0
100
AcDbLine
 10
201.0156696925
 20
146.6351890948
 30
0.0
 11
217.0156696925
 21
146.6351890948
 31
0.0
  0
LINE
  5
EE
330
E7
100
AcDbEntity
  8
SLD-0
100
AcDbLine
 10
216.0156696925
 20
140.6351890948
 30
0.0
 11
216.0156696925
 21
135.6351890948
 31
0.0
  0
LINE
  5
EF
330
E7
100
AcDbEntity
  8
SLD-0
100
AcDbLine
 10
216.0156696925
 20
140.6351890948
 30
0.0
 11
216.0156696925
 21
146.6351890948
 31
0.0
  0
LINE
  5
F0
330
E7
100
AcDbEntity
  8
SLD-0
100
AcDbLine
 10
216.0156696925
 20
146.6351890948
 30
0.0
 11
216.0156696925
 21
151.6351890948
 31
0.0
  0
MTEXT
  5
F1
330
E7
100
AcDbEntity
  8
SLD-0
100
AcDbMText
 10
211.5039328361
 20
142.6168652811
 30
0.0
 40
3.5
 41
0.0
 71
     1
 72
     1
  1
6
  7
SLDTEXTSTYLE0
 11
-3.491481338843133E-15
 21
1.0
 31
0.0
 73
     1
 44
1.0
  0
ENDBLK
  5
E9
330
E7
100
AcDbEntity
  8
0
100
AcDbBlockEnd
  0
BLOCK
  5
F3
330
F2
100
AcDbEntity
  8
0
100
AcDbBlockBegin
  2
SW_NOTE_0
 70
     0
 10
0.0
 20
0.0
 30
0.0
  3
SW_NOTE_0
  1

  0
LINE
  5
F5
330
F2
100
AcDbEntity
  8
SLD-0
 62
     0
100
AcDbLine
 10
-24.4439364522
 20
0.0
 30
0.0
 11
0.0
 21
0.0
 31
0.0
  0
LINE
  5
F6
330
F2
100
AcDbEntity
  8
SLD-0
 62
     0
100
AcDbLine
 10
0.0
 20
0.0
 30
0.0
 11
-24.4439364522
 21
0.0
 31
0.0
  0
LINE
  5
F7
330
F2
100
AcDbEntity
  8
SLD-0
 62
     0
100
AcDbLine
 10
-24.4439364522
 20
0.0
 30
0.0
 11
0.0
 21
0.0
 31
0.0
  0
LINE
  5
F8
330
F2
100
AcDbEntity
  8
SLD-0
 62
     0
100
AcDbLine
 10
0.0
 20
0.0
 30
0.0
 11
-24.4439364522
 21
0.0
 31
0.0
  0
LINE
  5
F9
330
F2
100
AcDbEntity
  8
SLD-0
 62
     0
100
AcDbLine
 10
-24.4439364522
 20
0.0
 30
0.0
 11
0.0
 21
0.0
 31
0.0
  0
LINE
  5
FA
330
F2
100
AcDbEntity
  8
SLD-0
 62
     0
100
AcDbLine
 10
0.0
 20
0.0
 30
0.0
 11
-24.4439364522
 21
0.0
 31
0.0
  0
MTEXT
  5
FB
330
F2
100
AcDbEntity
  8
SLD-0
 62
     0
100
AcDbMText
 10
-24.4414328862
 20
4.5135295886
 30
0.0
 40
3.5
 41
0.0
 71
     1
 72
     1
  1
4-M3×0.5深6
  7
SLDTEXTSTYLE0
 73
     1
 44
1.0
  0
ENDBLK
  5
F4
330
F2
100
AcDbEntity
  8
0
100
AcDbBlockEnd
  0
BLOCK
  5
100
330
FF
100
AcDbEntity
  8
0
100
AcDbBlockBegin
  2
SW_CENTERMARKSYMBOL_0
 70
     0
 10
0.0
 20
0.0
 30
0.0
  3
SW_CENTERMARKSYMBOL_0
  1

  0
LINE
  5
102
330
FF
100
AcDbEntity
  8
SLD-0
 62
     0
100
AcDbLine
 10
0.0
 20
0.0
 30
0.0
 11
0.0
 21
2.5
 31
0.0
  0
LINE
  5
103
330
FF
100
AcDbEntity
  8
SLD-0
 62
     0
100
AcDbLine
 10
0.0
 20
0.0
 30
0.0
 11
-2.5
 21
0.0
 31
0.0
  0
LINE
  5
104
330
FF
100
AcDbEntity
  8
SLD-0
 62
     0
100
AcDbLine
 10
0.0
 20
0.0
 30
0.0
 11
0.0
 21
-2.5
 31
0.0
  0
LINE
  5
105
330
FF
100
AcDbEntity
  8
SLD-0
 62
     0
100
AcDbLine
 10
0.0
 20
0.0
 30
0.0
 11
2.5
 21
0.0
 31
0.0
  0
LINE
  5
106
330
FF
100
AcDbEntity
  8
SLD-0
 62
     0
100
AcDbLine
 10
0.0
 20
2.5
 30
0.0
 11
0.0
 21
4.0
 31
0.0
  0
LINE
  5
107
330
FF
100
AcDbEntity
  8
SLD-0
 62
     0
100
AcDbLine
 10
-2.5
 20
0.0
 30
0.0
 11
-4.0
 21
0.0
 31
0.0
  0
LINE
  5
108
330
FF
100
AcDbEntity
  8
SLD-0
 62
     0
100
AcDbLine
 10
0.0
 20
-2.5
 30
0.0
 11
0.0
 21
-4.0
 31
0.0
  0
LINE
  5
109
330
FF
100
AcDbEntity
  8
SLD-0
 62
     0
100
AcDbLine
 10
2.5
 20
0.0
 30
0.0
 11
4.0
 21
0.0
 31
0.0
  0
ENDBLK
  5
101
330
FF
100
AcDbEntity
  8
0
100
AcDbBlockEnd
  0
BLOCK
  5
10C
330
10B
100
AcDbEntity
  8
0
100
AcDbBlockBegin
  2
SW_CENTERMARKSYMBOL_1
 70
     0
 10
0.0
 20
0.0
 30
0.0
  3
SW_CENTERMARKSYMBOL_1
  1

  0
LINE
  5
10E
330
10B
100
AcDbEntity
  8
SLD-0
 62
     0
100
AcDbLine
 10
0.0
 20
0.0
 30
0.0
 11
0.0
 21
2.5
 31
0.0
  0
LINE
  5
10F
330
10B
100
AcDbEntity
  8
SLD-0
 62
     0
100
AcDbLine
 10
0.0
 20
0.0
 30
0.0
 11
-2.5
 21
0.0
 31
0.0
  0
LINE
  5
110
330
10B
100
AcDbEntity
  8
SLD-0
 62
     0
100
AcDbLine
 10
0.0
 20
0.0
 30
0.0
 11
0.0
 21
-2.5
 31
0.0
  0
LINE
  5
111
330
10B
100
AcDbEntity
  8
SLD-0
 62
     0
100
AcDbLine
 10
0.0
 20
0.0
 30
0.0
 11
2.5
 21
0.0
 31
0.0
  0
LINE
  5
112
330
10B
100
AcDbEntity
  8
SLD-0
 62
     0
100
AcDbLine
 10
0.0
 20
2.5
 30
0.0
 11
0.0
 21
4.0
 31
0.0
  0
LINE
  5
113
330
10B
100
AcDbEntity
  8
SLD-0
 62
     0
100
AcDbLine
 10
-2.5
 20
0.0
 30
0.0
 11
-4.0
 21
0.0
 31
0.0
  0
LINE
  5
114
330
10B
100
AcDbEntity
  8
SLD-0
 62
     0
100
AcDbLine
 10
0.0
 20
-2.5
 30
0.0
 11
0.0
 21
-4.0
 31
0.0
  0
LINE
  5
115
330
10B
100
AcDbEntity
  8
SLD-0
 62
     0
100
AcDbLine
 10
2.5
 20
0.0
 30
0.0
 11
4.0
 21
0.0
 31
0.0
  0
ENDBLK
  5
10D
330
10B
100
AcDbEntity
  8
0
100
AcDbBlockEnd
  0
BLOCK
  5
144
330
143
100
AcDbEntity
  8
0
100
AcDbBlockBegin
  2
*D12
 70
     1
 10
0.0
 20
0.0
 30
0.0
  3
*D12
  1

  0
INSERT
  5
146
330
143
100
AcDbEntity
  8
SLD-0
100
AcDbBlockReference
  2
_OPEN30
 10
126.5082423256
 20
129.8351890948
 30
0.1
 41
3.0
 42
3.0
 50
90.0
  0
INSERT
  5
147
330
143
100
AcDbEntity
  8
SLD-0
100
AcDbBlockReference
  2
_OPEN30
 10
126.5082423256
 20
102.8351890948
 30
0.1
 41
3.0
 42
3.0
 50
270.0
  0
LINE
  5
148
330
143
100
AcDbEntity
  8
SLD-0
100
AcDbLine
 10
120.0295515714
 20
129.8351890948
 30
0.0
 11
127.5082423256
 21
129.8351890948
 31
0.0
  0
LINE
  5
149
330
143
100
AcDbEntity
  8
SLD-0
100
AcDbLine
 10
117.5080923256
 20
102.8351890948
 30
0.0
 11
127.5082423256
 21
102.8351890948
 31
0.0
  0
LINE
  5
14A
330
143
100
AcDbEntity
  8
SLD-0
100
AcDbLine
 10
126.5082423256
 20
129.8351890948
 30
0.0
 11
126.5082423256
 21
102.8351890948
 31
0.0
  0
MTEXT
  5
14B
330
143
100
AcDbEntity
  8
SLD-0
100
AcDbMText
 10
121.9965054693
 20
114.2985414674
 30
0.0
 40
3.5
 41
0.0
 71
     1
 72
     1
  1
27
  7
SLDTEXTSTYLE0
 11
-7.044195017643634E-15
 21
1.0
 31
0.0
 73
     1
 44
1.0
  0
ENDBLK
  5
145
330
143
100
AcDbEntity
  8
0
100
AcDbBlockEnd
  0
BLOCK
  5
14E
330
14D
100
AcDbEntity
  8
0
100
AcDbBlockBegin
  2
*D13
 70
     1
 10
0.0
 20
0.0
 30
0.0
  3
*D13
  1

  0
INSERT
  5
150
330
14D
100
AcDbEntity
  8
SLD-0
100
AcDbBlockReference
  2
_OPEN30
 10
102.6080923256
 20
92.8350390948
 30
0.1
 41
3.0
 42
3.0
 50
180.0
  0
INSERT
  5
151
330
14D
100
AcDbEntity
  8
SLD-0
100
AcDbBlockReference
  2
_OPEN30
 10
114.0080923256
 20
92.8350390948
 30
0.1
 41
3.0
 42
3.0
 50
360.0
  0
LINE
  5
152
330
14D
100
AcDbEntity
  8
SLD-0
100
AcDbLine
 10
102.6080923256
 20
127.3351890948
 30
0.0
 11
102.6080923256
 21
91.8350390948
 31
0.0
  0
LINE
  5
153
330
14D
100
AcDbEntity
  8
SLD-0
100
AcDbLine
 10
114.0080923256
 20
127.3351890948
 30
0.0
 11
114.0080923256
 21
91.8350390948
 31
0.0
  0
LINE
  5
154
330
14D
100
AcDbEntity
  8
SLD-0
100
AcDbLine
 10
102.6080923256
 20
92.8350390948
 30
0.0
 11
114.0080923256
 21
92.8350390948
 31
0.0
  0
MTEXT
  5
155
330
14D
100
AcDbEntity
  8
SLD-0
100
AcDbMText
 10
104.2347970709
 20
97.3467759512
 30
0.0
 40
3.5
 41
0.0
 71
     1
 72
     1
  1
11.4
  7
SLDTEXTSTYLE0
 73
     1
 44
1.0
  0
ENDBLK
  5
14F
330
14D
100
AcDbEntity
  8
0
100
AcDbBlockEnd
  0
BLOCK
  5
157
330
156
100
AcDbEntity
  8
0
100
AcDbBlockBegin
  2
SW_NOTE_1
 70
     0
 10
0.0
 20
0.0
 30
0.0
  3
SW_NOTE_1
  1

  0
LINE
  5
159
330
156
100
AcDbEntity
  8
SLD-0
 62
     0
100
AcDbLine
 10
-24.4439364522
 20
0.0
 30
0.0
 11
0.0
 21
0.0
 31
0.0
  0
LINE
  5
15A
330
156
100
AcDbEntity
  8
SLD-0
 62
     0
100
AcDbLine
 10
0.0
 20
0.0
 30
0.0
 11
-24.4439364522
 21
0.0
 31
0.0
  0
LINE
  5
15B
330
156
100
AcDbEntity
  8
SLD-0
 62
     0
100
AcDbLine
 10
-24.4439364522
 20
0.0
 30
0.0
 11
0.0
 21
0.0
 31
0.0
  0
LINE
  5
15C
330
156
100
AcDbEntity
  8
SLD-0
 62
     0
100
AcDbLine
 10
0.0
 20
0.0
 30
0.0
 11
-24.4439364522
 21
0.0
 31
0.0
  0
LINE
  5
15D
330
156
100
AcDbEntity
  8
SLD-0
 62
     0
100
AcDbLine
 10
-24.4439364522
 20
0.0
 30
0.0
 11
0.0
 21
0.0
 31
0.0
  0
LINE
  5
15E
330
156
100
AcDbEntity
  8
SLD-0
 62
     0
100
AcDbLine
 10
0.0
 20
0.0
 30
0.0
 11
-24.4439364522
 21
0.0
 31
0.0
  0
MTEXT
  5
15F
330
156
100
AcDbEntity
  8
SLD-0
 62
     0
100
AcDbMText
 10
-24.4406179119
 20
4.5119149133
 30
0.0
 40
3.5
 41
0.0
 71
     1
 72
     1
  1
2-M3×0.5深6
  7
SLDTEXTSTYLE0
 73
     1
 44
1.0
  0
ENDBLK
  5
158
330
156
100
AcDbEntity
  8
0
100
AcDbBlockEnd
  0
BLOCK
  5
163
330
162
100
AcDbEntity
  8
0
100
AcDbBlockBegin
  2
SW_CENTERMARKSYMBOL_2
 70
     0
 10
0.0
 20
0.0
 30
0.0
  3
SW_CENTERMARKSYMBOL_2
  1

  0
LINE
  5
165
330
162
100
AcDbEntity
  8
SLD-0
 62
     0
100
AcDbLine
 10
0.0
 20
0.0
 30
0.0
 11
0.0
 21
2.5
 31
0.0
  0
LINE
  5
166
330
162
100
AcDbEntity
  8
SLD-0
 62
     0
100
AcDbLine
 10
0.0
 20
0.0
 30
0.0
 11
-2.5
 21
0.0
 31
0.0
  0
LINE
  5
167
330
162
100
AcDbEntity
  8
SLD-0
 62
     0
100
AcDbLine
 10
0.0
 20
0.0
 30
0.0
 11
0.0
 21
-2.5
 31
0.0
  0
LINE
  5
168
330
162
100
AcDbEntity
  8
SLD-0
 62
     0
100
AcDbLine
 10
0.0
 20
0.0
 30
0.0
 11
2.5
 21
0.0
 31
0.0
  0
LINE
  5
169
330
162
100
AcDbEntity
  8
SLD-0
 62
     0
100
AcDbLine
 10
0.0
 20
2.5
 30
0.0
 11
0.0
 21
3.7424022421
 31
0.0
  0
LINE
  5
16A
330
162
100
AcDbEntity
  8
SLD-0
 62
     0
100
AcDbLine
 10
-2.5
 20
0.0
 30
0.0
 11
-3.7424022421
 21
0.0
 31
0.0
  0
LINE
  5
16B
330
162
100
AcDbEntity
  8
SLD-0
 62
     0
100
AcDbLine
 10
0.0
 20
-2.5
 30
0.0
 11
0.0
 21
-3.7424022421
 31
0.0
  0
LINE
  5
16C
330
162
100
AcDbEntity
  8
SLD-0
 62
     0
100
AcDbLine
 10
2.5
 20
0.0
 30
0.0
 11
3.7424022421
 21
0.0
 31
0.0
  0
ENDBLK
  5
164
330
162
100
AcDbEntity
  8
0
100
AcDbBlockEnd
  0
BLOCK
  5
16F
330
16E
100
AcDbEntity
  8
0
100
AcDbBlockBegin
  2
SW_CENTERMARKSYMBOL_3
 70
     0
 10
0.0
 20
0.0
 30
0.0
  3
SW_CENTERMARKSYMBOL_3
  1

  0
LINE
  5
171
330
16E
100
AcDbEntity
  8
SLD-0
 62
     0
100
AcDbLine
 10
0.0
 20
0.0
 30
0.0
 11
0.0
 21
2.5
 31
0.0
  0
LINE
  5
172
330
16E
100
AcDbEntity
  8
SLD-0
 62
     0
100
AcDbLine
 10
0.0
 20
0.0
 30
0.0
 11
-2.5
 21
0.0
 31
0.0
  0
LINE
  5
173
330
16E
100
AcDbEntity
  8
SLD-0
 62
     0
100
AcDbLine
 10
0.0
 20
0.0
 30
0.0
 11
0.0
 21
-2.5
 31
0.0
  0
LINE
  5
174
330
16E
100
AcDbEntity
  8
SLD-0
 62
     0
100
AcDbLine
 10
0.0
 20
0.0
 30
0.0
 11
2.5
 21
0.0
 31
0.0
  0
LINE
  5
175
330
16E
100
AcDbEntity
  8
SLD-0
 62
     0
100
AcDbLine
 10
0.0
 20
2.5
 30
0.0
 11
0.0
 21
3.7369387057
 31
0.0
  0
LINE
  5
176
330
16E
100
AcDbEntity
  8
SLD-0
 62
     0
100
AcDbLine
 10
-2.5
 20
0.0
 30
0.0
 11
-3.7369387057
 21
0.0
 31
0.0
  0
LINE
  5
177
330
16E
100
AcDbEntity
  8
SLD-0
 62
     0
100
AcDbLine
 10
0.0
 20
-2.5
 30
0.0
 11
0.0
 21
-3.7369387057
 31
0.0
  0
LINE
  5
178
330
16E
100
AcDbEntity
  8
SLD-0
 62
     0
100
AcDbLine
 10
2.5
 20
0.0
 30
0.0
 11
3.7369387057
 21
0.0
 31
0.0
  0
ENDBLK
  5
170
330
16E
100
AcDbEntity
  8
0
100
AcDbBlockEnd
  0
BLOCK
  5
1A1
330
1A0
100
AcDbEntity
  8
0
100
AcDbBlockBegin
  2
*D17
 70
     1
 10
0.0
 20
0.0
 30
0.0
  3
*D17
  1

  0
INSERT
  5
1A3
330
1A0
100
AcDbEntity
  8
SLD-0
100
AcDbBlockReference
  2
_OPEN30
 10
274.7284825425
 20
102.8351890948
 30
0.1
 41
3.0
 42
3.0
 50
90.0
  0
INSERT
  5
1A4
330
1A0
100
AcDbEntity
  8
SLD-0
100
AcDbBlockReference
  2
_OPEN30
 10
274.7284825425
 20
111.8351890948
 30
0.1
 41
3.0
 42
3.0
 50
270.0
  0
LINE
  5
1A5
330
1A0
100
AcDbEntity
  8
SLD-0
100
AcDbLine
 10
281.3389106479
 20
102.8351890948
 30
0.0
 11
273.7284825425
 21
102.8351890948
 31
0.0
  0
LINE
  5
1A6
330
1A0
100
AcDbEntity
  8
SLD-0
100
AcDbLine
 10
280.0389106479
 20
111.8351890948
 30
0.0
 11
273.7284825425
 21
111.8351890948
 31
0.0
  0
LINE
  5
1A7
330
1A0
100
AcDbEntity
  8
SLD-0
100
AcDbLine
 10
274.7284825425
 20
102.8351890948
 30
0.0
 11
274.7284825425
 21
97.8351890948
 31
0.0
  0
LINE
  5
1A8
330
1A0
100
AcDbEntity
  8
SLD-0
100
AcDbLine
 10
274.7284825425
 20
102.8351890948
 30
0.0
 11
274.7284825425
 21
111.8351890948
 31
0.0
  0
LINE
  5
1A9
330
1A0
100
AcDbEntity
  8
SLD-0
100
AcDbLine
 10
274.7284825425
 20
111.8351890948
 30
0.0
 11
274.7284825425
 21
116.8351890948
 31
0.0
  0
MTEXT
  5
1AA
330
1A0
100
AcDbEntity
  8
SLD-0
100
AcDbMText
 10
270.2167456861
 20
106.3168652811
 30
0.0
 40
3.5
 41
0.0
 71
     1
 72
     1
  1
9
  7
SLDTEXTSTYLE0
 11
6.123233995736766E-17
 21
1.0
 31
0.0
 73
     1
 44
1.0
  0
ENDBLK
  5
1A2
330
1A0
100
AcDbEntity
  8
0
100
AcDbBlockEnd
  0
BLOCK
  5
1AD
330
1AC
100
AcDbEntity
  8
0
100
AcDbBlockBegin
  2
*D18
 70
     1
 10
0.0
 20
0.0
 30
0.0
  3
*D18
  1

  0
INSERT
  5
1AF
330
1AC
100
AcDbEntity
  8
SLD-0
100
AcDbBlockReference
  2
_OPEN30
 10
266.3387606479
 20
102.8351890948
 30
0.1
 41
3.0
 42
3.0
 50
270.0
  0
INSERT
  5
1B0
330
1AC
100
AcDbEntity
  8
SLD-0
100
AcDbBlockReference
  2
_OPEN30
 10
266.3387606479
 20
121.8351890948
 30
0.1
 41
3.0
 42
3.0
 50
90.0
  0
LINE
  5
1B1
330
1AC
100
AcDbEntity
  8
SLD-0
100
AcDbLine
 10
281.3389106479
 20
102.8351890948
 30
0.0
 11
265.3387606479
 21
102.8351890948
 31
0.0
  0
LINE
  5
1B2
330
1AC
100
AcDbEntity
  8
SLD-0
100
AcDbLine
 10
291.0389106479
 20
121.8351890948
 30
0.0
 11
265.3387606479
 21
121.8351890948
 31
0.0
  0
LINE
  5
1B3
330
1AC
100
AcDbEntity
  8
SLD-0
100
AcDbLine
 10
266.3387606479
 20
102.8351890948
 30
0.0
 11
266.3387606479
 21
121.8351890948
 31
0.0
  0
MTEXT
  5
1B4
330
1AC
100
AcDbEntity
  8
SLD-0
100
AcDbMText
 10
261.8270237916
 20
110.2985414674
 30
0.0
 40
3.5
 41
0.0
 71
     1
 72
     1
  1
19
  7
SLDTEXTSTYLE0
 11
6.123233995736766E-17
 21
1.0
 31
0.0
 73
     1
 44
1.0
  0
ENDBLK
  5
1AE
330
1AC
100
AcDbEntity
  8
0
100
AcDbBlockEnd
  0
BLOCK
  5
1B7
330
1B6
100
AcDbEntity
  8
0
100
AcDbBlockBegin
  2
*D19
 70
     1
 10
0.0
 20
0.0
 30
0.0
  3
*D19
  1

  0
INSERT
  5
1B9
330
1B6
100
AcDbEntity
  8
SLD-0
100
AcDbBlockReference
  2
_OPEN30
 10
285.0389106479
 20
90.9225720507
 30
0.1
 41
3.0
 42
3.0
 50
0.0
  0
INSERT
  5
1BA
330
1B6
100
AcDbEntity
  8
SLD-0
100
AcDbBlockReference
  2
_OPEN30
 10
296.0389106479
 20
90.9225720507
 30
0.1
 41
3.0
 42
3.0
 50
180.0
  0
LINE
  5
1BB
330
1B6
100
AcDbEntity
  8
SLD-0
100
AcDbLine
 10
285.0389106479
 20
106.8351890948
 30
0.0
 11
285.0389106479
 21
89.9225720507
 31
0.0
  0
LINE
  5
1BC
330
1B6
100
AcDbEntity
  8
SLD-0
100
AcDbLine
 10
296.0389106479
 20
116.8351890948
 30
0.0
 11
296.0389106479
 21
89.9225720507
 31
0.0
  0
LINE
  5
1BD
330
1B6
100
AcDbEntity
  8
SLD-0
100
AcDbLine
 10
285.0389106479
 20
90.9225720507
 30
0.0
 11
280.0389106479
 21
90.9225720507
 31
0.0
  0
LINE
  5
1BE
330
1B6
100
AcDbEntity
  8
SLD-0
100
AcDbLine
 10
285.0389106479
 20
90.9225720507
 30
0.0
 11
296.0389106479
 21
90.9225720507
 31
0.0
  0
LINE
  5
1BF
330
1B6
100
AcDbEntity
  8
SLD-0
100
AcDbLine
 10
296.0389106479
 20
90.9225720507
 30
0.0
 11
301.0389106479
 21
90.9225720507
 31
0.0
  0
MTEXT
  5
1C0
330
1B6
100
AcDbEntity
  8
SLD-0
100
AcDbMText
 10
288.5022630206
 20
95.434308907
 30
0.0
 40
3.5
 41
0.0
 71
     1
 72
     1
  1
11
  7
SLDTEXTSTYLE0
 73
     1
 44
1.0
  0
ENDBLK
  5
1B8
330
1B6
100
AcDbEntity
  8
0
100
AcDbBlockEnd
  0
BLOCK
  5
1C4
330
1C3
100
AcDbEntity
  8
0
100
AcDbBlockBegin
  2
_DOT
 70
     0
 10
0.0
 20
0.0
 30
0.0
  3
_DOT
  1

  0
POLYLINE
  5
1C6
330
1C3
100
AcDbEntity
  8
0
  6
ByBlock
 62
     0
100
AcDb2dPolyline
 66
     1
 10
0.0
 20
0.0
 30
0.0
 70
     1
 40
0.5
 41
0.5
  0
VERTEX
  5
1C8
330
1C6
100
AcDbEntity
  8
0
  6
ByBlock
 62
     0
100
AcDbVertex
100
AcDb2dVertex
 10
-0.25
 20
0.0
 30
0.0
 42
1.0
  0
VERTEX
  5
1C9
330
1C6
100
AcDbEntity
  8
0
  6
ByBlock
 62
     0
100
AcDbVertex
100
AcDb2dVertex
 10
0.25
 20
0.0
 30
0.0
 42
1.0
  0
SEQEND
  5
1CA
330
1C6
100
AcDbEntity
  8
0
  6
ByBlock
 62
     0
  0
LINE
  5
1C7
330
1C3
100
AcDbEntity
  8
0
  6
ByBlock
 62
     0
370
    -2
100
AcDbLine
 10
-0.5
 20
0.0
 30
0.0
 11
-1.0
 21
0.0
 31
0.0
  0
ENDBLK
  5
1C5
330
1C3
100
AcDbEntity
  8
0
100
AcDbBlockEnd
  0
BLOCK
  5
1CC
330
1CB
100
AcDbEntity
  8
0
100
AcDbBlockBegin
  2
*D21
 70
     1
 10
0.0
 20
0.0
 30
0.0
  3
*D21
  1

  0
INSERT
  5
1CE
330
1CB
100
AcDbEntity
  8
SLD-0
100
AcDbBlockReference
  2
_OPEN30
 10
258.1679725629
 20
159.8351890948
 30
0.1
 41
3.0
 42
3.0
 50
270.0
  0
INSERT
  5
1CF
330
1CB
100
AcDbEntity
  8
SLD-0
100
AcDbBlockReference
  2
_DOT
 10
258.1679725629
 20
156.8351890948
 30
0.1
 41
1.5
 42
1.5
 50
90.0
  0
LINE
  5
1D0
330
1CB
100
AcDbEntity
  8
SLD-0
100
AcDbLine
 10
287.0389106479
 20
159.8351890948
 30
0.0
 11
257.1679725629
 21
159.8351890948
 31
0.0
  0
LINE
  5
1D1
330
1CB
100
AcDbEntity
  8
SLD-0
100
AcDbLine
 10
285.7889106479
 20
156.8351890948
 30
0.0
 11
257.1679725629
 21
156.8351890948
 31
0.0
  0
LINE
  5
1D2
330
1CB
100
AcDbEntity
  8
SLD-0
100
AcDbLine
 10
258.1679725629
 20
159.8351890948
 30
0.0
 11
258.1679725629
 21
167.9497237628
 31
0.0
  0
LINE
  5
1D3
330
1CB
100
AcDbEntity
  8
SLD-0
100
AcDbLine
 10
258.1679725629
 20
159.8351890948
 30
0.0
 11
258.1679725629
 21
156.8351890948
 31
0.0
  0
LINE
  5
1D4
330
1CB
100
AcDbEntity
  8
SLD-0
100
AcDbLine
 10
258.1679725629
 20
156.8351890948
 30
0.0
 11
258.1679725629
 21
151.8351890948
 31
0.0
  0
MTEXT
  5
1D5
330
1CB
100
AcDbEntity
  8
SLD-0
100
AcDbMText
 10
253.6562357065
 20
164.3255761355
 30
0.0
 40
3.5
 41
0.0
 71
     1
 72
     1
  1
3
  7
SLDTEXTSTYLE0
 11
-7.044195017643634E-15
 21
1.0
 31
0.0
 73
     1
 44
1.0
  0
ENDBLK
  5
1CD
330
1CB
100
AcDbEntity
  8
0
100
AcDbBlockEnd
  0
BLOCK
  5
1D9
330
1D8
100
AcDbEntity
  8
0
100
AcDbBlockBegin
  2
*D22
 70
     1
 10
0.0
 20
0.0
 30
0.0
  3
*D22
  1

  0
INSERT
  5
1DB
330
1D8
100
AcDbEntity
  8
SLD-0
100
AcDbBlockReference
  2
_DOT
 10
258.1679725629
 20
156.8351890948
 30
0.1
 41
1.5
 42
1.5
 50
270.0
  0
INSERT
  5
1DC
330
1D8
100
AcDbEntity
  8
SLD-0
100
AcDbBlockReference
  2
_DOT
 10
258.1679725629
 20
151.1351890948
 30
0.1
 41
1.5
 42
1.5
 50
90.0
  0
LINE
  5
1DD
330
1D8
100
AcDbEntity
  8
SLD-0
100
AcDbLine
 10
285.7889106479
 20
156.8351890948
 30
0.0
 11
257.1679725629
 21
156.8351890948
 31
0.0
  0
LINE
  5
1DE
330
1D8
100
AcDbEntity
  8
SLD-0
100
AcDbLine
 10
285.7889106479
 20
151.1351890948
 30
0.0
 11
257.1679725629
 21
151.1351890948
 31
0.0
  0
LINE
  5
1DF
330
1D8
100
AcDbEntity
  8
SLD-0
100
AcDbLine
 10
258.1679725629
 20
156.8351890948
 30
0.0
 11
258.1679725629
 21
161.8351890948
 31
0.0
  0
LINE
  5
1E0
330
1D8
100
AcDbEntity
  8
SLD-0
100
AcDbLine
 10
258.1679725629
 20
156.8351890948
 30
0.0
 11
258.1679725629
 21
151.1351890948
 31
0.0
  0
LINE
  5
1E1
330
1D8
100
AcDbEntity
  8
SLD-0
100
AcDbLine
 10
258.1679725629
 20
151.1351890948
 30
0.0
 11
258.1679725629
 21
146.1351890948
 31
0.0
  0
LINE
  5
1E2
330
1D8
100
AcDbEntity
  8
SLD-0
100
AcDbLine
 10
258.1679725629
 20
153.9851890948
 30
0.0
 11
255.1227443398
 21
150.0500014031
 31
0.0
  0
LINE
  5
1E3
330
1D8
100
AcDbEntity
  8
SLD-0
100
AcDbLine
 10
255.1227443398
 20
150.0500014031
 30
0.0
 11
245.8378014576
 21
150.0500014031
 31
0.0
  0
MTEXT
  5
1E4
330
1D8
100
AcDbEntity
  8
SLD-0
100
AcDbMText
 10
247.4253014576
 20
154.5617382595
 30
0.0
 40
3.5
 41
0.0
 71
     1
 72
     1
  1
5.7
  7
SLDTEXTSTYLE0
 73
     1
 44
1.0
  0
ENDBLK
  5
1DA
330
1D8
100
AcDbEntity
  8
0
100
AcDbBlockEnd
  0
BLOCK
  5
1E7
330
1E6
100
AcDbEntity
  8
0
100
AcDbBlockBegin
  2
*D23
 70
     1
 10
0.0
 20
0.0
 30
0.0
  3
*D23
  1

  0
INSERT
  5
1E9
330
1E6
100
AcDbEntity
  8
SLD-0
100
AcDbBlockReference
  2
_OPEN30
 10
288.0389106479
 20
173.4969837523
 30
0.1
 41
3.0
 42
3.0
 50
0.0
  0
INSERT
  5
1EA
330
1E6
100
AcDbEntity
  8
SLD-0
100
AcDbBlockReference
  2
_OPEN30
 10
293.0389106479
 20
173.4969837523
 30
0.1
 41
3.0
 42
3.0
 50
180.0
  0
LINE
  5
1EB
330
1E6
100
AcDbEntity
  8
SLD-0
100
AcDbLine
 10
288.0389106479
 20
160.8351890948
 30
0.0
 11
288.0389106479
 21
174.4969837523
 31
0.0
  0
LINE
  5
1EC
330
1E6
100
AcDbEntity
  8
SLD-0
100
AcDbLine
 10
293.0389106479
 20
160.8351890948
 30
0.0
 11
293.0389106479
 21
174.4969837523
 31
0.0
  0
LINE
  5
1ED
330
1E6
100
AcDbEntity
  8
SLD-0
100
AcDbLine
 10
288.0389106479
 20
173.4969837523
 30
0.0
 11
283.0389106479
 21
173.4969837523
 31
0.0
  0
LINE
  5
1EE
330
1E6
100
AcDbEntity
  8
SLD-0
100
AcDbLine
 10
288.0389106479
 20
173.4969837523
 30
0.0
 11
293.0389106479
 21
173.4969837523
 31
0.0
  0
LINE
  5
1EF
330
1E6
100
AcDbEntity
  8
SLD-0
100
AcDbLine
 10
293.0389106479
 20
173.4969837523
 30
0.0
 11
298.0389106479
 21
173.4969837523
 31
0.0
  0
MTEXT
  5
1F0
330
1E6
100
AcDbEntity
  8
SLD-0
100
AcDbMText
 10
289.5205868343
 20
178.0087206086
 30
0.0
 40
3.5
 41
0.0
 71
     1
 72
     1
  1
5
  7
SLDTEXTSTYLE0
 73
     1
 44
1.0
  0
ENDBLK
  5
1E8
330
1E6
100
AcDbEntity
  8
0
100
AcDbBlockEnd
  0
BLOCK
  5
1F4
330
1F3
100
AcDbEntity
  8
0
100
AcDbBlockBegin
  2
*D24
 70
     1
 10
0.0
 20
0.0
 30
0.0
  3
*D24
  1

  0
INSERT
  5
1F6
330
1F3
100
AcDbEntity
  8
SLD-0
100
AcDbBlockReference
  2
_DOT
 10
258.1679725629
 20
151.1351890948
 30
0.1
 41
1.5
 42
1.5
 50
90.0
  0
INSERT
  5
1F7
330
1F3
100
AcDbEntity
  8
SLD-0
100
AcDbBlockReference
  2
_OPEN30
 10
258.1679725629
 20
102.8351890948
 30
0.1
 41
3.0
 42
3.0
 50
270.0
  0
LINE
  5
1F8
330
1F3
100
AcDbEntity
  8
SLD-0
100
AcDbLine
 10
285.7889106479
 20
151.1351890948
 30
0.0
 11
257.1679725629
 21
151.1351890948
 31
0.0
  0
LINE
  5
1F9
330
1F3
100
AcDbEntity
  8
SLD-0
100
AcDbLine
 10
286.4389106479
 20
102.8351890948
 30
0.0
 11
257.1679725629
 21
102.8351890948
 31
0.0
  0
LINE
  5
1FA
330
1F3
100
AcDbEntity
  8
SLD-0
100
AcDbLine
 10
258.1679725629
 20
151.1351890948
 30
0.0
 11
258.1679725629
 21
102.8351890948
 31
0.0
  0
MTEXT
  5
1FB
330
1F3
100
AcDbEntity
  8
SLD-0
100
AcDbMText
 10
253.6562357065
 20
122.91189384
 30
0.0
 40
3.5
 41
0.0
 71
     1
 72
     1
  1
48.3
  7
SLDTEXTSTYLE0
 11
-7.044195017643634E-15
 21
1.0
 31
0.0
 73
     1
 44
1.0
  0
ENDBLK
  5
1F5
330
1F3
100
AcDbEntity
  8
0
100
AcDbBlockEnd
  0
BLOCK
  5
1FE
330
1FD
100
AcDbEntity
  8
0
100
AcDbBlockBegin
  2
*D25
 70
     1
 10
0.0
 20
0.0
 30
0.0
  3
*D25
  1

  0
INSERT
  5
200
330
1FD
100
AcDbEntity
  8
SLD-0
100
AcDbBlockReference
  2
_OPEN30
 10
282.3389106479
 20
184.6937491435
 30
0.1
 41
3.0
 42
3.0
 50
0.0
  0
INSERT
  5
201
330
1FD
100
AcDbEntity
  8
SLD-0
100
AcDbBlockReference
  2
_OPEN30
 10
298.7389106479
 20
184.6937491435
 30
0.1
 41
3.0
 42
3.0
 50
180.0
  0
LINE
  5
202
330
1FD
100
AcDbEntity
  8
SLD-0
100
AcDbLine
 10
282.3389106479
 20
147.6351890948
 30
0.0
 11
282.3389106479
 21
185.6937491435
 31
0.0
  0
LINE
  5
203
330
1FD
100
AcDbEntity
  8
SLD-0
100
AcDbLine
 10
298.7389106479
 20
147.6351890948
 30
0.0
 11
298.7389106479
 21
185.6937491435
 31
0.0
  0
LINE
  5
204
330
1FD
100
AcDbEntity
  8
SLD-0
100
AcDbLine
 10
282.3389106479
 20
184.6937491435
 30
0.0
 11
277.3389106479
 21
184.6937491435
 31
0.0
  0
LINE
  5
205
330
1FD
100
AcDbEntity
  8
SLD-0
100
AcDbLine
 10
282.3389106479
 20
184.6937491435
 30
0.0
 11
298.7389106479
 21
184.6937491435
 31
0.0
  0
LINE
  5
206
330
1FD
100
AcDbEntity
  8
SLD-0
100
AcDbLine
 10
298.7389106479
 20
184.6937491435
 30
0.0
 11
303.7389106479
 21
184.6937491435
 31
0.0
  0
MTEXT
  5
207
330
1FD
100
AcDbEntity
  8
SLD-0
100
AcDbMText
 10
286.4656153932
 20
189.2054859999
 30
0.0
 40
3.5
 41
0.0
 71
     1
 72
     1
  1
16.4
  7
SLDTEXTSTYLE0
 73
     1
 44
1.0
  0
ENDBLK
  5
1FF
330
1FD
100
AcDbEntity
  8
0
100
AcDbBlockEnd
  0
BLOCK
  5
20B
330
20A
100
AcDbEntity
  8
0
100
AcDbBlockBegin
  2
SW_NOTE_2
 70
     0
 10
0.0
 20
0.0
 30
0.0
  3
SW_NOTE_2
  1

  0
LINE
  5
20D
330
20A
100
AcDbEntity
  8
SLD-0
 62
     0
100
AcDbLine
 10
0.0
 20
0.0
 30
0.0
 11
30.5538793343
 21
0.0
 31
0.0
  0
LINE
  5
20E
330
20A
100
AcDbEntity
  8
SLD-0
 62
     0
100
AcDbLine
 10
30.5538793343
 20
0.0
 30
0.0
 11
0.0
 21
0.0
 31
0.0
  0
LINE
  5
20F
330
20A
100
AcDbEntity
  8
SLD-0
 62
     0
100
AcDbLine
 10
0.0
 20
0.0
 30
0.0
 11
30.5538793343
 21
0.0
 31
0.0
  0
LINE
  5
210
330
20A
100
AcDbEntity
  8
SLD-0
 62
     0
100
AcDbLine
 10
30.5538793343
 20
0.0
 30
0.0
 11
0.0
 21
0.0
 31
0.0
  0
LINE
  5
211
330
20A
100
AcDbEntity
  8
SLD-0
 62
     0
100
AcDbLine
 10
0.0
 20
0.0
 30
0.0
 11
30.5538793343
 21
0.0
 31
0.0
  0
LINE
  5
212
330
20A
100
AcDbEntity
  8
SLD-0
 62
     0
100
AcDbLine
 10
30.5538793343
 20
0.0
 30
0.0
 11
0.0
 21
0.0
 31
0.0
  0
MTEXT
  5
213
330
20A
100
AcDbEntity
  8
SLD-0
 62
     0
100
AcDbMText
 10
0.0032273348
 20
4.512822225
 30
0.0
 40
3.5
 41
0.0
 71
     1
 72
     1
  1
2＊2-M2.5×0.45
  7
SLDTEXTSTYLE0
 73
     1
 44
1.0
  0
ENDBLK
  5
20C
330
20A
100
AcDbEntity
  8
0
100
AcDbBlockEnd
  0
BLOCK
  5
217
330
216
100
AcDbEntity
  8
0
100
AcDbBlockBegin
  2
SW_NOTE_3
 70
     0
 10
0.0
 20
0.0
 30
0.0
  3
SW_NOTE_3
  1

  0
LINE
  5
219
330
216
100
AcDbEntity
  8
SLD-0
 62
     0
100
AcDbLine
 10
0.0
 20
0.0
 30
0.0
 11
10.1874030605
 21
0.0
 31
0.0
  0
LINE
  5
21A
330
216
100
AcDbEntity
  8
SLD-0
 62
     0
100
AcDbLine
 10
10.1874030605
 20
0.0
 30
0.0
 11
0.0
 21
0.0
 31
0.0
  0
LINE
  5
21B
330
216
100
AcDbEntity
  8
SLD-0
 62
     0
100
AcDbLine
 10
0.0
 20
0.0
 30
0.0
 11
10.1874030605
 21
0.0
 31
0.0
  0
LINE
  5
21C
330
216
100
AcDbEntity
  8
SLD-0
 62
     0
100
AcDbLine
 10
10.1874030605
 20
0.0
 30
0.0
 11
0.0
 21
0.0
 31
0.0
  0
LINE
  5
21D
330
216
100
AcDbEntity
  8
SLD-0
 62
     0
100
AcDbLine
 10
0.0
 20
0.0
 30
0.0
 11
10.1874030605
 21
0.0
 31
0.0
  0
LINE
  5
21E
330
216
100
AcDbEntity
  8
SLD-0
 62
     0
100
AcDbLine
 10
10.1874030605
 20
0.0
 30
0.0
 11
0.0
 21
0.0
 31
0.0
  0
MTEXT
  5
21F
330
216
100
AcDbEntity
  8
SLD-0
 62
     0
100
AcDbMText
 10
0.0034183564
 20
4.512311626
 30
0.0
 40
3.5
 41
0.0
 71
     1
 72
     1
  1
M3   
  7
SLDTEXTSTYLE0
 73
     1
 44
1.0
  0
ENDBLK
  5
218
330
216
100
AcDbEntity
  8
0
100
AcDbBlockEnd
  0
BLOCK
  5
223
330
222
100
AcDbEntity
  8
0
100
AcDbBlockBegin
  2
SW_CENTERMARKSYMBOL_4
 70
     0
 10
0.0
 20
0.0
 30
0.0
  3
SW_CENTERMARKSYMBOL_4
  1

  0
LINE
  5
225
330
222
100
AcDbEntity
  8
SLD-0
 62
     0
100
AcDbLine
 10
0.0
 20
0.0
 30
0.0
 11
0.0
 21
2.5
 31
0.0
  0
LINE
  5
226
330
222
100
AcDbEntity
  8
SLD-0
 62
     0
100
AcDbLine
 10
0.0
 20
0.0
 30
0.0
 11
-2.5
 21
0.0
 31
0.0
  0
LINE
  5
227
330
222
100
AcDbEntity
  8
SLD-0
 62
     0
100
AcDbLine
 10
0.0
 20
0.0
 30
0.0
 11
0.0
 21
-2.5
 31
0.0
  0
LINE
  5
228
330
222
100
AcDbEntity
  8
SLD-0
 62
     0
100
AcDbLine
 10
0.0
 20
0.0
 30
0.0
 11
2.5
 21
0.0
 31
0.0
  0
LINE
  5
229
330
222
100
AcDbEntity
  8
SLD-0
 62
     0
100
AcDbLine
 10
0.0
 20
2.5
 30
0.0
 11
0.0
 21
4.0
 31
0.0
  0
LINE
  5
22A
330
222
100
AcDbEntity
  8
SLD-0
 62
     0
100
AcDbLine
 10
-2.5
 20
0.0
 30
0.0
 11
-4.0
 21
0.0
 31
0.0
  0
LINE
  5
22B
330
222
100
AcDbEntity
  8
SLD-0
 62
     0
100
AcDbLine
 10
0.0
 20
-2.5
 30
0.0
 11
0.0
 21
-4.0
 31
0.0
  0
LINE
  5
22C
330
222
100
AcDbEntity
  8
SLD-0
 62
     0
100
AcDbLine
 10
2.5
 20
0.0
 30
0.0
 11
4.0
 21
0.0
 31
0.0
  0
ENDBLK
  5
224
330
222
100
AcDbEntity
  8
0
100
AcDbBlockEnd
  0
BLOCK
  5
22F
330
22E
100
AcDbEntity
  8
0
100
AcDbBlockBegin
  2
SW_CENTERMARKSYMBOL_5
 70
     0
 10
0.0
 20
0.0
 30
0.0
  3
SW_CENTERMARKSYMBOL_5
  1

  0
LINE
  5
231
330
22E
100
AcDbEntity
  8
SLD-0
 62
     0
100
AcDbLine
 10
0.0
 20
0.0
 30
0.0
 11
0.0
 21
2.5
 31
0.0
  0
LINE
  5
232
330
22E
100
AcDbEntity
  8
SLD-0
 62
     0
100
AcDbLine
 10
0.0
 20
0.0
 30
0.0
 11
-2.5
 21
0.0
 31
0.0
  0
LINE
  5
233
330
22E
100
AcDbEntity
  8
SLD-0
 62
     0
100
AcDbLine
 10
0.0
 20
0.0
 30
0.0
 11
0.0
 21
-2.5
 31
0.0
  0
LINE
  5
234
330
22E
100
AcDbEntity
  8
SLD-0
 62
     0
100
AcDbLine
 10
0.0
 20
0.0
 30
0.0
 11
2.5
 21
0.0
 31
0.0
  0
LINE
  5
235
330
22E
100
AcDbEntity
  8
SLD-0
 62
     0
100
AcDbLine
 10
0.0
 20
2.5
 30
0.0
 11
0.0
 21
4.0
 31
0.0
  0
LINE
  5
236
330
22E
100
AcDbEntity
  8
SLD-0
 62
     0
100
AcDbLine
 10
-2.5
 20
0.0
 30
0.0
 11
-4.0
 21
0.0
 31
0.0
  0
LINE
  5
237
330
22E
100
AcDbEntity
  8
SLD-0
 62
     0
100
AcDbLine
 10
0.0
 20
-2.5
 30
0.0
 11
0.0
 21
-4.0
 31
0.0
  0
LINE
  5
238
330
22E
100
AcDbEntity
  8
SLD-0
 62
     0
100
AcDbLine
 10
2.5
 20
0.0
 30
0.0
 11
4.0
 21
0.0
 31
0.0
  0
ENDBLK
  5
230
330
22E
100
AcDbEntity
  8
0
100
AcDbBlockEnd
  0
BLOCK
  5
23B
330
23A
100
AcDbEntity
  8
0
100
AcDbBlockBegin
  2
SW_CENTERMARKSYMBOL_6
 70
     0
 10
0.0
 20
0.0
 30
0.0
  3
SW_CENTERMARKSYMBOL_6
  1

  0
LINE
  5
23D
330
23A
100
AcDbEntity
  8
SLD-0
 62
     0
100
AcDbLine
 10
0.0
 20
0.0
 30
0.0
 11
0.0
 21
2.5
 31
0.0
  0
LINE
  5
23E
330
23A
100
AcDbEntity
  8
SLD-0
 62
     0
100
AcDbLine
 10
0.0
 20
0.0
 30
0.0
 11
-2.5
 21
0.0
 31
0.0
  0
LINE
  5
23F
330
23A
100
AcDbEntity
  8
SLD-0
 62
     0
100
AcDbLine
 10
0.0
 20
0.0
 30
0.0
 11
0.0
 21
-2.5
 31
0.0
  0
LINE
  5
240
330
23A
100
AcDbEntity
  8
SLD-0
 62
     0
100
AcDbLine
 10
0.0
 20
0.0
 30
0.0
 11
2.5
 21
0.0
 31
0.0
  0
LINE
  5
241
330
23A
100
AcDbEntity
  8
SLD-0
 62
     0
100
AcDbLine
 10
0.0
 20
2.5
 30
0.0
 11
0.0
 21
3.75
 31
0.0
  0
LINE
  5
242
330
23A
100
AcDbEntity
  8
SLD-0
 62
     0
100
AcDbLine
 10
-2.5
 20
0.0
 30
0.0
 11
-3.75
 21
0.0
 31
0.0
  0
LINE
  5
243
330
23A
100
AcDbEntity
  8
SLD-0
 62
     0
100
AcDbLine
 10
0.0
 20
-2.5
 30
0.0
 11
0.0
 21
-3.75
 31
0.0
  0
LINE
  5
244
330
23A
100
AcDbEntity
  8
SLD-0
 62
     0
100
AcDbLine
 10
2.5
 20
0.0
 30
0.0
 11
3.75
 21
0.0
 31
0.0
  0
ENDBLK
  5
23C
330
23A
100
AcDbEntity
  8
0
100
AcDbBlockEnd
  0
BLOCK
  5
247
330
246
100
AcDbEntity
  8
0
100
AcDbBlockBegin
  2
SW_CENTERMARKSYMBOL_7
 70
     0
 10
0.0
 20
0.0
 30
0.0
  3
SW_CENTERMARKSYMBOL_7
  1

  0
LINE
  5
249
330
246
100
AcDbEntity
  8
SLD-0
 62
     0
100
AcDbLine
 10
0.0
 20
0.0
 30
0.0
 11
0.0
 21
2.5
 31
0.0
  0
LINE
  5
24A
330
246
100
AcDbEntity
  8
SLD-0
 62
     0
100
AcDbLine
 10
0.0
 20
0.0
 30
0.0
 11
-2.5
 21
0.0
 31
0.0
  0
LINE
  5
24B
330
246
100
AcDbEntity
  8
SLD-0
 62
     0
100
AcDbLine
 10
0.0
 20
0.0
 30
0.0
 11
0.0
 21
-2.5
 31
0.0
  0
LINE
  5
24C
330
246
100
AcDbEntity
  8
SLD-0
 62
     0
100
AcDbLine
 10
0.0
 20
0.0
 30
0.0
 11
2.5
 21
0.0
 31
0.0
  0
LINE
  5
24D
330
246
100
AcDbEntity
  8
SLD-0
 62
     0
100
AcDbLine
 10
0.0
 20
2.5
 30
0.0
 11
0.0
 21
3.75
 31
0.0
  0
LINE
  5
24E
330
246
100
AcDbEntity
  8
SLD-0
 62
     0
100
AcDbLine
 10
-2.5
 20
0.0
 30
0.0
 11
-3.75
 21
0.0
 31
0.0
  0
LINE
  5
24F
330
246
100
AcDbEntity
  8
SLD-0
 62
     0
100
AcDbLine
 10
0.0
 20
-2.5
 30
0.0
 11
0.0
 21
-52.4964926183
 31
0.0
  0
LINE
  5
250
330
246
100
AcDbEntity
  8
SLD-0
 62
     0
100
AcDbLine
 10
2.5
 20
0.0
 30
0.0
 11
3.75
 21
0.0
 31
0.0
  0
ENDBLK
  5
248
330
246
100
AcDbEntity
  8
0
100
AcDbBlockEnd
  0
BLOCK
  5
280
330
27F
100
AcDbEntity
  8
0
100
AcDbBlockBegin
  2
*D32
 70
     1
 10
0.0
 20
0.0
 30
0.0
  3
*D32
  1

  0
INSERT
  5
282
330
27F
100
AcDbEntity
  8
SLD-0
100
AcDbBlockReference
  2
_OPEN30
 10
194.5156696925
 20
27.9190982818
 30
-9.200075
 41
3.0
 42
3.0
 50
360.0
  0
INSERT
  5
283
330
27F
100
AcDbEntity
  8
SLD-0
100
AcDbBlockReference
  2
_OPEN30
 10
176.5156696925
 20
27.9190982818
 30
-9.200075
 41
3.0
 42
3.0
 50
180.0
  0
LINE
  5
284
330
27F
100
AcDbEntity
  8
SLD-0
100
AcDbLine
 10
194.5156696925
 20
33.2881176161
 30
0.0
 11
194.5156696925
 21
26.9190982818
 31
0.0
  0
LINE
  5
285
330
27F
100
AcDbEntity
  8
SLD-0
100
AcDbLine
 10
176.5156696925
 20
45.3025028894
 30
0.0
 11
176.5156696925
 21
26.9190982818
 31
0.0
  0
LINE
  5
286
330
27F
100
AcDbEntity
  8
SLD-0
100
AcDbLine
 10
194.5156696925
 20
27.9190982818
 30
0.0
 11
176.5156696925
 21
27.9190982818
 31
0.0
  0
MTEXT
  5
287
330
27F
100
AcDbEntity
  8
SLD-0
100
AcDbMText
 10
183.4790220651
 20
32.4308351382
 30
0.0
 40
3.5
 41
0.0
 71
     1
 72
     1
  1
18
  7
SLDTEXTSTYLE0
 73
     1
 44
1.0
  0
ENDBLK
  5
281
330
27F
100
AcDbEntity
  8
0
100
AcDbBlockEnd
  0
BLOCK
  5
28A
330
289
100
AcDbEntity
  8
0
100
AcDbBlockBegin
  2
*D33
 70
     1
 10
0.0
 20
0.0
 30
0.0
  3
*D33
  1

  0
INSERT
  5
28C
330
289
100
AcDbEntity
  8
SLD-0
100
AcDbBlockReference
  2
_OPEN30
 10
174.0156696925
 20
18.0773738683
 30
-9.200075
 41
3.0
 42
3.0
 50
180.0
  0
INSERT
  5
28D
330
289
100
AcDbEntity
  8
SLD-0
100
AcDbBlockReference
  2
_OPEN30
 10
197.0156696925
 20
18.0773738683
 30
-9.200075
 41
3.0
 42
3.0
 50
360.0
  0
LINE
  5
28E
330
289
100
AcDbEntity
  8
SLD-0
100
AcDbLine
 10
174.0156696925
 20
35.1325625123
 30
0.0
 11
174.0156696925
 21
17.0773738683
 31
0.0
  0
LINE
  5
28F
330
289
100
AcDbEntity
  8
SLD-0
100
AcDbLine
 10
197.0156696925
 20
35.1325625123
 30
0.0
 11
197.0156696925
 21
17.0773738683
 31
0.0
  0
LINE
  5
290
330
289
100
AcDbEntity
  8
SLD-0
100
AcDbLine
 10
174.0156696925
 20
18.0773738683
 30
0.0
 11
197.0156696925
 21
18.0773738683
 31
0.0
  0
MTEXT
  5
291
330
289
100
AcDbEntity
  8
SLD-0
100
AcDbMText
 10
183.4790220651
 20
22.5891107247
 30
0.0
 40
3.5
 41
0.0
 71
     1
 72
     1
  1
23
  7
SLDTEXTSTYLE0
 73
     1
 44
1.0
  0
ENDBLK
  5
28B
330
289
100
AcDbEntity
  8
0
100
AcDbBlockEnd
  0
BLOCK
  5
294
330
293
100
AcDbEntity
  8
0
100
AcDbBlockBegin
  2
*D34
 70
     1
 10
0.0
 20
0.0
 30
0.0
  3
*D34
  1

  0
INSERT
  5
296
330
293
100
AcDbEntity
  8
SLD-0
100
AcDbBlockReference
  2
_OPEN30
 10
161.0156696925
 20
50.3325625123
 30
-9.200075
 41
3.0
 42
3.0
 50
270.0
  0
INSERT
  5
297
330
293
100
AcDbEntity
  8
SLD-0
100
AcDbBlockReference
  2
_OPEN30
 10
161.0156696925
 20
38.3325625123
 30
-9.200075
 41
3.0
 42
3.0
 50
90.0
  0
LINE
  5
298
330
293
100
AcDbEntity
  8
SLD-0
100
AcDbLine
 10
171.4856100695
 20
50.3325625123
 30
0.0
 11
160.0156696925
 21
50.3325625123
 31
0.0
  0
LINE
  5
299
330
293
100
AcDbEntity
  8
SLD-0
100
AcDbLine
 10
189.4712247962
 20
38.3325625123
 30
0.0
 11
160.0156696925
 21
38.3325625123
 31
0.0
  0
LINE
  5
29A
330
293
100
AcDbEntity
  8
SLD-0
100
AcDbLine
 10
161.0156696925
 20
50.3325625123
 30
0.0
 11
161.0156696925
 21
55.3325625123
 31
0.0
  0
LINE
  5
29B
330
293
100
AcDbEntity
  8
SLD-0
100
AcDbLine
 10
161.0156696925
 20
50.3325625123
 30
0.0
 11
161.0156696925
 21
38.3325625123
 31
0.0
  0
LINE
  5
29C
330
293
100
AcDbEntity
  8
SLD-0
100
AcDbLine
 10
161.0156696925
 20
38.3325625123
 30
0.0
 11
161.0156696925
 21
33.3325625123
 31
0.0
  0
MTEXT
  5
29D
330
293
100
AcDbEntity
  8
SLD-0
100
AcDbMText
 10
156.5039328361
 20
42.2959148849
 30
0.0
 40
3.5
 41
0.0
 71
     1
 72
     1
  1
12
  7
SLDTEXTSTYLE0
 11
-7.044195017643634E-15
 21
1.0
 31
0.0
 73
     1
 44
1.0
  0
ENDBLK
  5
295
330
293
100
AcDbEntity
  8
0
100
AcDbBlockEnd
  0
BLOCK
  5
2A0
330
29F
100
AcDbEntity
  8
0
100
AcDbBlockBegin
  2
*D35
 70
     1
 10
0.0
 20
0.0
 30
0.0
  3
*D35
  1

  0
INSERT
  5
2A2
330
29F
100
AcDbEntity
  8
SLD-0
100
AcDbBlockReference
  2
_OPEN30
 10
152.8164615044
 20
52.5325625123
 30
-9.200075
 41
3.0
 42
3.0
 50
270.0
  0
INSERT
  5
2A3
330
29F
100
AcDbEntity
  8
SLD-0
100
AcDbBlockReference
  2
_OPEN30
 10
152.8164615044
 20
36.1325625123
 30
-9.200075
 41
3.0
 42
3.0
 50
90.0
  0
LINE
  5
2A4
330
29F
100
AcDbEntity
  8
SLD-0
100
AcDbLine
 10
170.0156696925
 20
52.5325625123
 30
0.0
 11
151.8164615044
 21
52.5325625123
 31
0.0
  0
LINE
  5
2A5
330
29F
100
AcDbEntity
  8
SLD-0
100
AcDbLine
 10
170.0156696925
 20
36.1325625123
 30
0.0
 11
151.8164615044
 21
36.1325625123
 31
0.0
  0
LINE
  5
2A6
330
29F
100
AcDbEntity
  8
SLD-0
100
AcDbLine
 10
152.8164615044
 20
52.5325625123
 30
0.0
 11
152.8164615044
 21
57.5325625123
 31
0.0
  0
LINE
  5
2A7
330
29F
100
AcDbEntity
  8
SLD-0
100
AcDbLine
 10
152.8164615044
 20
52.5325625123
 30
0.0
 11
152.8164615044
 21
36.1325625123
 31
0.0
  0
LINE
  5
2A8
330
29F
100
AcDbEntity
  8
SLD-0
100
AcDbLine
 10
152.8164615044
 20
36.1325625123
 30
0.0
 11
152.8164615044
 21
31.1325625123
 31
0.0
  0
MTEXT
  5
2A9
330
29F
100
AcDbEntity
  8
SLD-0
100
AcDbMText
 10
148.304724648
 20
40.2592672575
 30
0.0
 40
3.5
 41
0.0
 71
     1
 72
     1
  1
16.4
  7
SLDTEXTSTYLE0
 11
-7.044195017643634E-15
 21
1.0
 31
0.0
 73
     1
 44
1.0
  0
ENDBLK
  5
2A1
330
29F
100
AcDbEntity
  8
0
100
AcDbBlockEnd
  0
BLOCK
  5
2AB
330
2AA
100
AcDbEntity
  8
0
100
AcDbBlockBegin
  2
SW_NOTE_4
 70
     0
 10
0.0
 20
0.0
 30
0.0
  3
SW_NOTE_4
  1

  0
LINE
  5
2AD
330
2AA
100
AcDbEntity
  8
SLD-0
 62
     0
100
AcDbLine
 10
0.0
 20
0.0
 30
0.0
 11
24.4439364522
 21
0.0
 31
0.0
  0
LINE
  5
2AE
330
2AA
100
AcDbEntity
  8
SLD-0
 62
     0
100
AcDbLine
 10
24.4439364522
 20
0.0
 30
0.0
 11
0.0
 21
0.0
 31
0.0
  0
LINE
  5
2AF
330
2AA
100
AcDbEntity
  8
SLD-0
 62
     0
100
AcDbLine
 10
0.0
 20
0.0
 30
0.0
 11
24.4439364522
 21
0.0
 31
0.0
  0
LINE
  5
2B0
330
2AA
100
AcDbEntity
  8
SLD-0
 62
     0
100
AcDbLine
 10
24.4439364522
 20
0.0
 30
0.0
 11
0.0
 21
0.0
 31
0.0
  0
LINE
  5
2B1
330
2AA
100
AcDbEntity
  8
SLD-0
 62
     0
100
AcDbLine
 10
0.0
 20
0.0
 30
0.0
 11
24.4439364522
 21
0.0
 31
0.0
  0
LINE
  5
2B2
330
2AA
100
AcDbEntity
  8
SLD-0
 62
     0
100
AcDbLine
 10
24.4439364522
 20
0.0
 30
0.0
 11
0.0
 21
0.0
 31
0.0
  0
MTEXT
  5
2B3
330
2AA
100
AcDbEntity
  8
SLD-0
 62
     0
100
AcDbMText
 10
0.0031550364
 20
4.5123107135
 30
0.0
 40
3.5
 41
0.0
 71
     1
 72
     1
  1
2-M3×0.5深6
  7
SLDTEXTSTYLE0
 73
     1
 44
1.0
  0
ENDBLK
  5
2AC
330
2AA
100
AcDbEntity
  8
0
100
AcDbBlockEnd
  0
BLOCK
  5
2B7
330
2B6
100
AcDbEntity
  8
0
100
AcDbBlockBegin
  2
SW_CENTERMARKSYMBOL_8
 70
     0
 10
0.0
 20
0.0
 30
0.0
  3
SW_CENTERMARKSYMBOL_8
  1

  0
LINE
  5
2B9
330
2B6
100
AcDbEntity
  8
SLD-0
 62
     0
100
AcDbLine
 10
0.0
 20
0.0
 30
0.0
 11
0.0
 21
2.5
 31
0.0
  0
LINE
  5
2BA
330
2B6
100
AcDbEntity
  8
SLD-0
 62
     0
100
AcDbLine
 10
0.0
 20
0.0
 30
0.0
 11
-2.5
 21
0.0
 31
0.0
  0
LINE
  5
2BB
330
2B6
100
AcDbEntity
  8
SLD-0
 62
     0
100
AcDbLine
 10
0.0
 20
0.0
 30
0.0
 11
0.0
 21
-2.5
 31
0.0
  0
LINE
  5
2BC
330
2B6
100
AcDbEntity
  8
SLD-0
 62
     0
100
AcDbLine
 10
0.0
 20
0.0
 30
0.0
 11
2.5
 21
0.0
 31
0.0
  0
LINE
  5
2BD
330
2B6
100
AcDbEntity
  8
SLD-0
 62
     0
100
AcDbLine
 10
0.0
 20
2.5
 30
0.0
 11
0.0
 21
4.0300596229
 31
0.0
  0
LINE
  5
2BE
330
2B6
100
AcDbEntity
  8
SLD-0
 62
     0
100
AcDbLine
 10
-2.5
 20
0.0
 30
0.0
 11
-4.0300596229
 21
0.0
 31
0.0
  0
LINE
  5
2BF
330
2B6
100
AcDbEntity
  8
SLD-0
 62
     0
100
AcDbLine
 10
0.0
 20
-2.5
 30
0.0
 11
0.0
 21
-4.0300596229
 31
0.0
  0
LINE
  5
2C0
330
2B6
100
AcDbEntity
  8
SLD-0
 62
     0
100
AcDbLine
 10
2.5
 20
0.0
 30
0.0
 11
4.0300596229
 21
0.0
 31
0.0
  0
ENDBLK
  5
2B8
330
2B6
100
AcDbEntity
  8
0
100
AcDbBlockEnd
  0
BLOCK
  5
2C3
330
2C2
100
AcDbEntity
  8
0
100
AcDbBlockBegin
  2
SW_CENTERMARKSYMBOL_9
 70
     0
 10
0.0
 20
0.0
 30
0.0
  3
SW_CENTERMARKSYMBOL_9
  1

  0
LINE
  5
2C5
330
2C2
100
AcDbEntity
  8
SLD-0
 62
     0
100
AcDbLine
 10
0.0
 20
0.0
 30
0.0
 11
0.0
 21
2.5
 31
0.0
  0
LINE
  5
2C6
330
2C2
100
AcDbEntity
  8
SLD-0
 62
     0
100
AcDbLine
 10
0.0
 20
0.0
 30
0.0
 11
-2.5
 21
0.0
 31
0.0
  0
LINE
  5
2C7
330
2C2
100
AcDbEntity
  8
SLD-0
 62
     0
100
AcDbLine
 10
0.0
 20
0.0
 30
0.0
 11
0.0
 21
-2.5
 31
0.0
  0
LINE
  5
2C8
330
2C2
100
AcDbEntity
  8
SLD-0
 62
     0
100
AcDbLine
 10
0.0
 20
0.0
 30
0.0
 11
2.5
 21
0.0
 31
0.0
  0
LINE
  5
2C9
330
2C2
100
AcDbEntity
  8
SLD-0
 62
     0
100
AcDbLine
 10
0.0
 20
2.5
 30
0.0
 11
0.0
 21
4.0444448962
 31
0.0
  0
LINE
  5
2CA
330
2C2
100
AcDbEntity
  8
SLD-0
 62
     0
100
AcDbLine
 10
-2.5
 20
0.0
 30
0.0
 11
-4.0444448962
 21
0.0
 31
0.0
  0
LINE
  5
2CB
330
2C2
100
AcDbEntity
  8
SLD-0
 62
     0
100
AcDbLine
 10
0.0
 20
-2.5
 30
0.0
 11
0.0
 21
-4.0444448962
 31
0.0
  0
LINE
  5
2CC
330
2C2
100
AcDbEntity
  8
SLD-0
 62
     0
100
AcDbLine
 10
2.5
 20
0.0
 30
0.0
 11
4.0444448962
 21
0.0
 31
0.0
  0
ENDBLK
  5
2C4
330
2C2
100
AcDbEntity
  8
0
100
AcDbBlockEnd
  0
ENDSEC
  0
SECTION
  2
ENTITIES
  0
LINE
  5
46
330
1F
100
AcDbEntity
  8
SLD-0
100
AcDbLine
 10
334.4999964925
 20
24.4999957746
 30
0.0
 11
334.4999964925
 21
36.9999957746
 31
0.0
  0
LINE
  5
47
330
1F
100
AcDbEntity
  8
SLD-0
100
AcDbLine
 10
16.9999964925
 20
11.9999957746
 30
0.0
 11
402.9999964925
 21
11.9999957746
 31
0.0
  0
LINE
  5
48
330
1F
100
AcDbEntity
  8
SLD-0
100
AcDbLine
 10
16.9999964925
 20
11.9999957746
 30
0.0
 11
16.9999964925
 21
284.9999957746
 31
0.0
  0
LINE
  5
49
330
1F
100
AcDbEntity
  8
SLD-0
100
AcDbLine
 10
16.9999964925
 20
284.9999957746
 30
0.0
 11
402.9999964925
 21
284.9999957746
 31
0.0
  0
LINE
  5
4A
330
1F
100
AcDbEntity
  8
SLD-0
100
AcDbLine
 10
402.9999964925
 20
11.9999957746
 30
0.0
 11
402.9999964925
 21
284.9999957746
 31
0.0
  0
LINE
  5
4B
330
1F
100
AcDbEntity
  8
SLD-0
100
AcDbLine
 10
402.9999964925
 20
24.4999957746
 30
0.0
 11
334.4999964925
 21
24.4999957746
 31
0.0
  0
LINE
  5
4C
330
1F
100
AcDbEntity
  8
SLD-0
100
AcDbLine
 10
334.4999964925
 20
11.9999957746
 30
0.0
 11
334.4999964925
 21
24.4999957746
 31
0.0
  0
LINE
  5
4D
330
1F
100
AcDbEntity
  8
SLD-0
100
AcDbLine
 10
334.4999964925
 20
36.9999957746
 30
0.0
 11
402.9999964925
 21
36.9999957746
 31
0.0
  0
LINE
  5
4E
330
1F
100
AcDbEntity
  8
SLD-0
100
AcDbLine
 10
334.4999964925
 20
36.9999957746
 30
0.0
 11
334.4999964925
 21
49.4999957746
 31
0.0
  0
LINE
  5
4F
330
1F
100
AcDbEntity
  8
SLD-0
100
AcDbLine
 10
334.4999964925
 20
49.4999957746
 30
0.0
 11
402.9999964925
 21
49.4999957746
 31
0.0
  0
MTEXT
  5
73
330
1F
100
AcDbEntity
  8
SLD-0
100
AcDbMText
 10
311.1736313919
 20
130.7787027854
 30
0.0
 40
3.5
 41
0.0
 71
     1
 72
     1
  1
閉ポート
  7
SLDTEXTSTYLE0
 73
     1
 44
1.0
  0
MTEXT
  5
74
330
1F
100
AcDbEntity
  8
SLD-0
100
AcDbMText
 10
258.0726879404
 20
89.9709983803
 30
0.0
 40
3.5
 41
0.0
 71
     1
 72
     1
  1
開ポート
  7
SLDTEXTSTYLE0
 73
     1
 44
1.0
  0
MTEXT
  5
75
330
1F
100
AcDbEntity
  8
SLD-0
100
AcDbMText
 10
352.5967652447
 20
45.3759647058
 30
0.0
 40
4.2333333333
 41
0.0
 71
     1
 72
     1
  1
平行チャック
  7
SLDTEXTSTYLE0
 73
     1
 44
1.0
  0
MTEXT
  5
76
330
1F
100
AcDbEntity
  8
SLD-0
100
AcDbMText
 10
355.2425986625
 20
32.791308219
 30
0.0
 40
4.7625
 41
0.0
 71
     1
 72
     1
  1
MHZ2-10SN
  7
SLDTEXTSTYLE0
 73
     1
 44
1.0
  0
MTEXT
  5
77
330
1F
100
AcDbEntity
  8
SLD-0
100
AcDbMText
 10
360.0050982557
 20
19.6759033299
 30
0.0
 40
4.7625
 41
0.0
 71
     1
 72
     1
  1
122451
  7
SLDTEXTSTYLE0
 73
     1
 44
1.0
  0
LINE
  5
78
330
1F
100
AcDbEntity
  8
0
  6
Continuous
 62
     7
370
    15
100
AcDbLine
 10
171.0156696925
 20
146.6351890948
 30
0.0
 11
171.0156696925
 21
140.6351890948
 31
0.0
  0
ARC
  5
79
330
1F
100
AcDbEntity
  8
0
  6
Continuous
 62
     7
370
    15
100
AcDbCircle
 10
177.5156696925
 20
125.8351890948
 30
0.0
 40
1.5
100
AcDbArc
 50
90.0
 51
270.0
  0
LINE
  5
7A
330
1F
100
AcDbEntity
  8
0
  6
Continuous
 62
     7
370
    15
100
AcDbLine
 10
174.0156696925
 20
102.8351890948
 30
0.0
 11
197.0156696925
 21
102.8351890948
 31
0.0
  0
LINE
  5
7B
330
1F
100
AcDbEntity
  8
0
  6
Continuous
 62
     7
370
    15
100
AcDbLine
 10
197.0156696925
 20
102.8351890948
 30
0.0
 11
197.0156696925
 21
140.6351890948
 31
0.0
  0
LINE
  5
7C
330
1F
100
AcDbEntity
  8
0
  6
Continuous
 62
     7
370
    15
100
AcDbLine
 10
174.0156696925
 20
140.6351890948
 30
0.0
 11
174.0156696925
 21
102.8351890948
 31
0.0
  0
SPLINE
  5
7D
330
1F
100
AcDbEntity
  8
0
  6
Continuous
 62
     7
370
    15
100
AcDbSpline
210
0.0
220
0.0
230
1.0
 70
     8
 71
     3
 72
    19
 73
    15
 74
     0
 42
0.00000001
 43
0.00000001
 40
0.0
 40
0.0
 40
0.0
 40
0.0
 40
0.1197214739305885
 40
0.1848036583180078
 40
0.249999948618416
 40
0.3150821843435202
 40
0.3802785260694076
 40
0.4999999999999968
 40
0.6197214739305845
 40
0.6848036583181861
 40
0.7499999486183881
 40
0.8150821843438671
 40
0.8802785260694113
 40
1.0
 40
1.0
 40
1.0
 40
1.0
 10
193.5156696924557
 20
124.3351890947967
 30
0.0
 10
193.3270529136687
 20
124.3553349871588
 30
0.0
 10
193.035901547121
 20
124.386432454358
 30
0.0
 10
192.6862222707235
 20
124.5731638670553
 30
0.0
 10
192.4479263446555
 20
124.7669314857677
 30
0.0
 10
192.2527618133754
 20
125.0056527766922
 30
0.0
 10
192.0719027968099
 20
125.3552090138483
 30
0.0
 10
191.9792627073745
 20
125.8351882248253
 30
0.0
 10
192.0718679151559
 20
126.3149919991587
 30
0.0
 10
192.2526626355402
 20
126.6645678790445
 30
0.0
 10
192.4476743725584
 20
126.9031951499843
 30
0.0
 10
192.6860647153605
 20
127.0971161131463
 30
0.0
 10
193.035724146472
 20
127.2839212588253
 30
0.0
 10
193.3270538765196
 20
127.3150411326082
 30
0.0
 10
193.5156696924557
 20
127.3351890947967
 30
0.0
  0
SPLINE
  5
7E
330
1F
100
AcDbEntity
  8
0
  6
Continuous
 62
     7
370
    15
100
AcDbSpline
210
0.0
220
0.0
230
1.0
 70
     8
 71
     3
 72
    19
 73
    15
 74
     0
 42
0.00000001
 43
0.00000001
 40
0.0
 40
0.0
 40
0.0
 40
0.0
 40
0.119721473930594
 40
0.1848036583180103
 40
0.2499999486183925
 40
0.3150821843431488
 40
0.3802785260694063
 40
0.4999999999999982
 40
0.6197214739305921
 40
0.6848036583175617
 40
0.7499999486184108
 40
0.8150821843427548
 40
0.8802785260694064
 40
1.0
 40
1.0
 40
1.0
 40
1.0
 10
193.5156696924557
 20
127.3351890947967
 30
0.0
 10
193.7042864712428
 20
127.3150432024348
 30
0.0
 10
193.9954378377907
 20
127.2839457352359
 30
0.0
 10
194.3451171141873
 20
127.097214322537
 30
0.0
 10
194.5834130402556
 20
126.9034467038261
 30
0.0
 10
194.7785775715361
 20
126.6647254129018
 30
0.0
 10
194.9594365881012
 20
126.3151691757454
 30
0.0
 10
195.052076677537
 20
125.835189964768
 30
0.0
 10
194.9594714697555
 20
125.3553861904357
 30
0.0
 10
194.7786767493721
 20
125.0058103105495
 30
0.0
 10
194.5836650123551
 20
124.7671830396108
 30
0.0
 10
194.3452746695518
 20
124.573262076449
 30
0.0
 10
193.9956152384414
 20
124.3864569307677
 30
0.0
 10
193.7042855083919
 20
124.355337056985
 30
0.0
 10
193.5156696924557
 20
124.3351890947967
 30
0.0
  0
SPLINE
  5
7F
330
1F
100
AcDbEntity
  8
0
  6
Continuous
 62
     7
370
    15
100
AcDbSpline
210
0.0
220
0.0
230
1.0
 70
     8
 71
     3
 72
    19
 73
    15
 74
     0
 42
0.00000001
 43
0.00000001
 40
0.0
 40
0.0
 40
0.0
 40
0.0
 40
0.1197214739305911
 40
0.1848036583176985
 40
0.2499999486184169
 40
0.3150821843431457
 40
0.3802785260694092
 40
0.4999999999999997
 40
0.6197214739305887
 40
0.6848036583179079
 40
0.7499999486183815
 40
0.8150821843433853
 40
0.8802785260694085
 40
0.9999999999999999
 40
0.9999999999999999
 40
0.9999999999999999
 40
0.9999999999999999
 10
177.5156696924557
 20
124.3351890947967
 30
0.0
 10
177.3270529136687
 20
124.3553349871587
 30
0.0
 10
177.0359015471215
 20
124.3864324543579
 30
0.0
 10
176.686222270724
 20
124.5731638670551
 30
0.0
 10
176.4479263446562
 20
124.7669314857669
 30
0.0
 10
176.2527618133758
 20
125.0056527766918
 30
0.0
 10
176.07190279681
 20
125.3552090138478
 30
0.0
 10
175.9792627073746
 20
125.8351882248253
 30
0.0
 10
176.0718679151557
 20
126.3149919991583
 30
0.0
 10
176.2526626355403
 20
126.6645678790439
 30
0.0
 10
176.4476743725575
 20
126.9031951499835
 30
0.0
 10
176.6860647153599
 20
127.097116113146
 30
0.0
 10
177.0357241464713
 20
127.2839212588251
 30
0.0
 10
177.3270538765196
 20
127.3150411326081
 30
0.0
 10
177.5156696924557
 20
127.3351890947967
 30
0.0
  0
SPLINE
  5
80
330
1F
100
AcDbEntity
  8
0
  6
Continuous
 62
     7
370
    15
100
AcDbSpline
210
0.0
220
0.0
230
1.0
 70
     8
 71
     3
 72
    19
 73
    15
 74
     0
 42
0.00000001
 43
0.00000001
 40
0.0
 40
0.0
 40
0.0
 40
0.0
 40
0.1197214739305945
 40
0.1848036583182095
 40
0.2499999486183875
 40
0.3150821843431437
 40
0.3802785260694026
 40
0.4999999999999962
 40
0.6197214739305917
 40
0.6848036583178103
 40
0.7499999486184015
 40
0.8150821843429009
 40
0.8802785260694059
 40
1.0
 40
1.0
 40
1.0
 40
1.0
 10
177.5156696924557
 20
127.3351890947967
 30
0.0
 10
177.7042864712429
 20
127.3150432024348
 30
0.0
 10
177.9954378377911
 20
127.283945735236
 30
0.0
 10
178.3451171141874
 20
127.0972143225366
 30
0.0
 10
178.5834130402559
 20
126.9034467038259
 30
0.0
 10
178.7785775715361
 20
126.6647254129018
 30
0.0
 10
178.9594365881012
 20
126.3151691757454
 30
0.0
 10
179.052076677537
 20
125.835189964768
 30
0.0
 10
178.9594714697556
 20
125.3553861904352
 30
0.0
 10
178.7786767493716
 20
125.0058103105494
 30
0.0
 10
178.5836650123547
 20
124.7671830396103
 30
0.0
 10
178.3452746695517
 20
124.5732620764487
 30
0.0
 10
177.9956152384411
 20
124.3864569307677
 30
0.0
 10
177.7042855083919
 20
124.355337056985
 30
0.0
 10
177.5156696924557
 20
124.3351890947967
 30
0.0
  0
LINE
  5
81
330
1F
100
AcDbEntity
  8
0
  6
Continuous
 62
     7
370
    15
100
AcDbLine
 10
197.0156696925
 20
140.6351890948
 30
0.0
 11
200.0156696925
 21
140.6351890948
 31
0.0
  0
LINE
  5
82
330
1F
100
AcDbEntity
  8
0
  6
Continuous
 62
     7
370
    15
100
AcDbLine
 10
200.0156696925
 20
140.6351890948
 30
0.0
 11
200.0156696925
 21
146.6351890948
 31
0.0
  0
LINE
  5
83
330
1F
100
AcDbEntity
  8
0
  6
Continuous
 62
     7
370
    15
100
AcDbLine
 10
200.0156696925
 20
146.6351890948
 30
0.0
 11
171.0156696925
 21
146.6351890948
 31
0.0
  0
LINE
  5
84
330
1F
100
AcDbEntity
  8
0
  6
Continuous
 62
     7
370
    15
100
AcDbLine
 10
171.0156696925
 20
140.6351890948
 30
0.0
 11
174.0156696925
 21
140.6351890948
 31
0.0
  0
ARC
  5
85
330
1F
100
AcDbEntity
  8
0
  6
Continuous
 62
     7
370
    15
100
AcDbCircle
 10
193.5156696925
 20
125.8351890948
 30
0.0
 40
1.5
100
AcDbArc
 50
270.0
 51
90.0
  0
ARC
  5
86
330
1F
100
AcDbEntity
  8
0
  6
Continuous
 62
     7
370
    15
100
AcDbCircle
 10
193.5156696925
 20
125.8351890948
 30
0.0
 40
1.5
100
AcDbArc
 50
90.0
 51
270.0
  0
ARC
  5
87
330
1F
100
AcDbEntity
  8
0
  6
Continuous
 62
     7
370
    15
100
AcDbCircle
 10
177.5156696925
 20
125.8351890948
 30
0.0
 40
1.5
100
AcDbArc
 50
270.0
 51
90.0
  0
LINE
  5
88
330
1F
100
AcDbEntity
  8
0
  6
Continuous
 62
     7
370
    15
100
AcDbLine
 10
180.6656696925
 20
159.8351890948
 30
0.0
 11
176.6656696925
 21
159.8351890948
 31
0.0
  0
LINE
  5
89
330
1F
100
AcDbEntity
  8
0
  6
Continuous
 62
     7
370
    15
100
AcDbLine
 10
194.3656696925
 20
159.8351890948
 30
0.0
 11
190.3656696925
 21
159.8351890948
 31
0.0
  0
LINE
  5
8A
330
1F
100
AcDbEntity
  8
0
  6
Continuous
 62
     7
370
    15
100
AcDbLine
 10
199.9656696925
 20
146.6351890948
 30
0.0
 11
199.9656696925
 21
147.8351890948
 31
0.0
  0
LINE
  5
8B
330
1F
100
AcDbEntity
  8
0
  6
Continuous
 62
     7
370
    15
100
AcDbLine
 10
171.0656696925
 20
147.8351890948
 30
0.0
 11
171.0656696925
 21
146.6351890948
 31
0.0
  0
LINE
  5
8C
330
1F
100
AcDbEntity
  8
0
  6
Continuous
 62
     7
370
    15
100
AcDbLine
 10
183.3656696925
 20
146.6351890948
 30
0.0
 11
183.3656696925
 21
147.8351890948
 31
0.0
  0
LINE
  5
8D
330
1F
100
AcDbEntity
  8
0
  6
Continuous
 62
     7
370
    15
100
AcDbLine
 10
187.6656696925
 20
147.8351890948
 30
0.0
 11
187.6656696925
 21
146.6351890948
 31
0.0
  0
LINE
  5
8E
330
1F
100
AcDbEntity
  8
0
  6
Continuous
 62
     7
370
    15
100
AcDbLine
 10
199.9656696925
 20
147.8351890948
 30
0.0
 11
194.3656696925
 21
147.8351890948
 31
0.0
  0
LINE
  5
8F
330
1F
100
AcDbEntity
  8
0
  6
Continuous
 62
     7
370
    15
100
AcDbLine
 10
176.6656696925
 20
147.8351890948
 30
0.0
 11
171.0656696925
 21
147.8351890948
 31
0.0
  0
LINE
  5
90
330
1F
100
AcDbEntity
  8
0
  6
Continuous
 62
     7
370
    15
100
AcDbLine
 10
190.3656696925
 20
159.8351890948
 30
0.0
 11
190.3656696925
 21
147.8351890948
 31
0.0
  0
LINE
  5
91
330
1F
100
AcDbEntity
  8
0
  6
Continuous
 62
     7
370
    15
100
AcDbLine
 10
180.6656696925
 20
147.8351890948
 30
0.0
 11
180.6656696925
 21
159.8351890948
 31
0.0
  0
LINE
  5
92
330
1F
100
AcDbEntity
  8
0
  6
Continuous
 62
     7
370
    15
100
AcDbLine
 10
194.3656696925
 20
147.8351890948
 30
0.0
 11
194.3656696925
 21
159.8351890948
 31
0.0
  0
LINE
  5
93
330
1F
100
AcDbEntity
  8
0
  6
Continuous
 62
     7
370
    15
100
AcDbLine
 10
176.6656696925
 20
159.8351890948
 30
0.0
 11
176.6656696925
 21
147.8351890948
 31
0.0
  0
LINE
  5
94
330
1F
100
AcDbEntity
  8
0
  6
Continuous
 62
     7
370
    15
100
AcDbLine
 10
183.3656696925
 20
147.8351890948
 30
0.0
 11
180.6656696925
 21
147.8351890948
 31
0.0
  0
LINE
  5
95
330
1F
100
AcDbEntity
  8
0
  6
Continuous
 62
     7
370
    15
100
AcDbLine
 10
187.6656696925
 20
147.8351890948
 30
0.0
 11
190.3656696925
 21
147.8351890948
 31
0.0
  0
LINE
  5
96
330
1F
100
AcDbEntity
  8
SLD-0
100
AcDbLine
 10
180.6656696925
 20
159.8351890948
 30
0.0
 11
182.6656696925
 21
159.8351890948
 31
0.0
  0
LINE
  5
97
330
1F
100
AcDbEntity
  8
SLD-0
100
AcDbLine
 10
182.6656696925
 20
159.8351890948
 30
0.0
 11
182.6656696925
 21
147.8351890948
 31
0.0
  0
LINE
  5
98
330
1F
100
AcDbEntity
  8
SLD-0
100
AcDbLine
 10
190.3656696925
 20
159.8351890948
 30
0.0
 11
188.3656696925
 21
159.8351890948
 31
0.0
  0
LINE
  5
99
330
1F
100
AcDbEntity
  8
SLD-0
100
AcDbLine
 10
188.3656696925
 20
159.8351890948
 30
0.0
 11
188.3656696925
 21
147.8351890948
 31
0.0
  0
DIMENSION
  5
9A
330
1F
100
AcDbEntity
  8
SLD-0
100
AcDbDimension
  2
*D2
 10
182.6656696925
 20
169.8351890948
 30
0.0
 11
205.5955707832
 21
169.8351890948
 31
0.0
 70
   160
  1
<>(閉時)
 71
     2
 42
-1.0
  3
SLDDIMSTYLE0
100
AcDbAlignedDimension
 13
188.3656696925
 23
159.8351890948
 33
0.0
 14
182.6656696925
 24
159.8351890948
 34
0.0
 50
0.0
100
AcDbRotatedDimension
  0
DIMENSION
  5
AE
330
1F
100
AcDbEntity
  8
SLD-0
100
AcDbDimension
  2
*D3
 10
193.5156696925
 20
90.4060686663
 30
0.0
 11
185.5156696925
 21
90.4060686663
 31
0.0
 70
   160
 71
     2
 42
-1.0
  3
SLDDIMSTYLE0
100
AcDbAlignedDimension
 13
177.5156696925
 23
121.8351890948
 33
0.0
 14
193.5156696925
 24
121.8351890948
 34
0.0
100
AcDbRotatedDimension
  0
DIMENSION
  5
BA
330
1F
100
AcDbEntity
  8
SLD-0
100
AcDbDimension
  2
*D4
 10
207.5923124174
 20
125.8351890948
 30
0.0
 11
207.5923124174
 21
114.3351890948
 31
0.0
 70
   160
 71
     2
 42
-1.0
  3
SLDDIMSTYLE1
100
AcDbAlignedDimension
 13
197.0156696925
 23
102.8351890948
 33
0.0
 14
197.5156696925
 24
125.8351890948
 34
0.0
 50
90.0
100
AcDbRotatedDimension
  0
DIMENSION
  5
C5
330
1F
100
AcDbEntity
  8
SLD-0
100
AcDbDimension
  2
*D5
 10
180.6656696925
 20
181.8351890948
 30
0.0
 11
205.5955707832
 21
181.8351890948
 31
0.0
 70
   160
  1
<>(開時)
 71
     2
 42
-1.0
  3
SLDDIMSTYLE0
100
AcDbAlignedDimension
 13
190.3656696925
 23
159.8351890948
 33
0.0
 14
180.6656696925
 24
159.8351890948
 34
0.0
 50
0.0
100
AcDbRotatedDimension
  0
DIMENSION
  5
D2
330
1F
100
AcDbEntity
  8
SLD-0
100
AcDbDimension
  2
*D6
 10
200.0156696925
 20
78.4494152716
 30
0.0
 11
185.5156696925
 21
78.4494152716
 31
0.0
 70
   160
 71
     2
 42
-1.0
  3
SLDDIMSTYLE1
100
AcDbAlignedDimension
 13
171.0156696925
 23
140.6351890948
 33
0.0
 14
200.0156696925
 24
140.6351890948
 34
0.0
 50
0.0
100
AcDbRotatedDimension
  0
DIMENSION
  5
DC
330
1F
100
AcDbEntity
  8
SLD-0
100
AcDbDimension
  2
*D7
 10
216.0156696925
 20
140.6351890948
 30
0.0
 11
216.0156696925
 21
121.7351890948
 31
0.0
 70
   160
 71
     2
 42
-1.0
  3
SLDDIMSTYLE1
100
AcDbAlignedDimension
 13
197.0156696925
 23
102.8351890948
 33
0.0
 14
200.0156696925
 24
140.6351890948
 34
0.0
 50
90.0
100
AcDbRotatedDimension
  0
DIMENSION
  5
E6
330
1F
100
AcDbEntity
  8
SLD-0
100
AcDbDimension
  2
*D8
 10
216.0156696925
 20
146.6351890948
 30
0.0
 11
216.0156696925
 21
143.6351890948
 31
0.0
 70
   160
 71
     2
 42
-1.0
  3
SLDDIMSTYLE0
100
AcDbAlignedDimension
 13
200.0156696925
 23
140.6351890948
 33
0.0
 14
200.0156696925
 24
146.6351890948
 34
0.0
 50
90.0
100
AcDbRotatedDimension
  0
INSERT
  5
FC
330
1F
100
AcDbEntity
  8
SLD-0
100
AcDbBlockReference
  2
SW_NOTE_0
 10
162.2259264304
 20
143.0597854756
 30
0.0
  0
LEADER
  5
FE
330
1F
100
AcDbEntity
  8
SLD-0
100
AcDbLeader
  3
SLDDIMSTYLE2
 76
     2
 10
176.3064463028
 20
126.7227581309
 30
0.0
 10
162.2259264304
 20
143.0597854756
 30
0.0
  0
INSERT
  5
10A
330
1F
100
AcDbEntity
  8
SLD-0
100
AcDbBlockReference
  2
SW_CENTERMARKSYMBOL_0
 10
177.5156696925
 20
125.8351890948
 30
0.0
  0
INSERT
  5
116
330
1F
100
AcDbEntity
  8
SLD-0
100
AcDbBlockReference
  2
SW_CENTERMARKSYMBOL_1
 10
193.5156696925
 20
125.8351890948
 30
0.0
  0
LINE
  5
117
330
1F
100
AcDbEntity
  8
SLD-0
  6
CENTERX2
370
     0
100
AcDbLine
 10
185.5156696925
 20
164.479951523
 30
0.0
 11
185.5156696925
 21
96.2242154891
 31
0.0
  0
LINE
  5
118
330
1F
100
AcDbEntity
  8
0
  6
Continuous
 62
     7
370
    15
100
AcDbLine
 10
110.8080923256
 20
159.8351890948
 30
0.0
 11
105.8080923256
 21
159.8351890948
 31
0.0
  0
LINE
  5
119
330
1F
100
AcDbEntity
  8
0
  6
Continuous
 62
     7
370
    15
100
AcDbLine
 10
105.8080923256
 20
146.6351890948
 30
0.0
 11
105.8080923256
 21
147.8351890948
 31
0.0
  0
LINE
  5
11A
330
1F
100
AcDbEntity
  8
0
  6
Continuous
 62
     7
370
    15
100
AcDbLine
 10
105.8080923256
 20
147.8351890948
 30
0.0
 11
110.8080923256
 21
147.8351890948
 31
0.0
  0
LINE
  5
11B
330
1F
100
AcDbEntity
  8
0
  6
Continuous
 62
     7
370
    15
100
AcDbLine
 10
110.8080923256
 20
147.8351890948
 30
0.0
 11
110.8080923256
 21
146.6351890948
 31
0.0
  0
ARC
  5
11C
330
1F
100
AcDbEntity
  8
0
  6
Continuous
 62
     7
370
    15
100
AcDbCircle
 10
108.3080923256
 20
151.1351890948
 30
0.0
 40
1.250000000000014
100
AcDbArc
 50
0.0
 51
180.0
  0
ARC
  5
11D
330
1F
100
AcDbEntity
  8
0
  6
Continuous
 62
     7
370
    15
100
AcDbCircle
 10
108.3080923256
 20
151.1351890948
 30
0.0
 40
1.250000000000014
100
AcDbArc
 50
180.0
 51
0.0
  0
ARC
  5
11E
330
1F
100
AcDbEntity
  8
0
  6
Continuous
 62
     7
370
    15
100
AcDbCircle
 10
108.3080923256
 20
156.8351890948
 30
0.0
 40
1.250000000000014
100
AcDbArc
 50
0.0
 51
180.0
  0
ARC
  5
11F
330
1F
100
AcDbEntity
  8
0
  6
Continuous
 62
     7
370
    15
100
AcDbCircle
 10
108.3080923256
 20
156.8351890948
 30
0.0
 40
1.250000000000014
100
AcDbArc
 50
180.0
 51
360.0
  0
LINE
  5
120
330
1F
100
AcDbEntity
  8
0
  6
Continuous
 62
     7
370
    15
100
AcDbLine
 10
105.8080923256
 20
147.8351890948
 30
0.0
 11
105.8080923256
 21
159.8351890948
 31
0.0
  0
LINE
  5
121
330
1F
100
AcDbEntity
  8
0
  6
Continuous
 62
     7
370
    15
100
AcDbLine
 10
110.8080923256
 20
159.8351890948
 30
0.0
 11
110.8080923256
 21
147.8351890948
 31
0.0
  0
ARC
  5
122
330
1F
100
AcDbEntity
  8
0
  6
Continuous
 62
     7
370
    15
100
AcDbCircle
 10
108.3080923256
 20
151.1351890948
 30
0.0
 40
1.250000000000014
100
AcDbArc
 50
180.0
 51
0.0
  0
ARC
  5
123
330
1F
100
AcDbEntity
  8
0
  6
Continuous
 62
     7
370
    15
100
AcDbCircle
 10
108.3080923256
 20
156.8351890948
 30
0.0
 40
1.250000000000014
100
AcDbArc
 50
180.0
 51
0.0
  0
ARC
  5
124
330
1F
100
AcDbEntity
  8
0
  6
Continuous
 62
     7
370
    15
100
AcDbCircle
 10
108.3080923256
 20
156.8351890948
 30
0.0
 40
1.250000000000014
100
AcDbArc
 50
0.0
 51
180.0
  0
ARC
  5
125
330
1F
100
AcDbEntity
  8
0
  6
Continuous
 62
     7
370
    15
100
AcDbCircle
 10
108.3080923256
 20
151.1351890948
 30
0.0
 40
1.250000000000014
100
AcDbArc
 50
0.0
 51
180.0
  0
LINE
  5
126
330
1F
100
AcDbEntity
  8
0
  6
Continuous
 62
     7
370
    15
100
AcDbLine
 10
105.8080923256
 20
143.5351890948
 30
0.0
 11
110.8080923256
 21
143.5351890948
 31
0.0
  0
LINE
  5
127
330
1F
100
AcDbEntity
  8
0
  6
Continuous
 62
     7
370
    15
100
AcDbLine
 10
105.8080923256
 20
146.6351890948
 30
0.0
 11
105.8080923256
 21
143.5351890948
 31
0.0
  0
LINE
  5
128
330
1F
100
AcDbEntity
  8
0
  6
Continuous
 62
     7
370
    15
100
AcDbLine
 10
100.1080923256
 20
146.6351890948
 30
0.0
 11
105.8080923256
 21
146.6351890948
 31
0.0
  0
LINE
  5
129
330
1F
100
AcDbEntity
  8
0
  6
Continuous
 62
     7
370
    15
100
AcDbLine
 10
100.1080923256
 20
140.6351890948
 30
0.0
 11
100.1080923256
 21
146.6351890948
 31
0.0
  0
LINE
  5
12A
330
1F
100
AcDbEntity
  8
0
  6
Continuous
 62
     7
370
    15
100
AcDbLine
 10
116.5080923256
 20
140.6351890948
 30
0.0
 11
100.1080923256
 21
140.6351890948
 31
0.0
  0
LINE
  5
12B
330
1F
100
AcDbEntity
  8
0
  6
Continuous
 62
     7
370
    15
100
AcDbLine
 10
116.5080923256
 20
146.6351890948
 30
0.0
 11
116.5080923256
 21
140.6351890948
 31
0.0
  0
LINE
  5
12C
330
1F
100
AcDbEntity
  8
0
  6
Continuous
 62
     7
370
    15
100
AcDbLine
 10
110.8080923256
 20
146.6351890948
 30
0.0
 11
116.5080923256
 21
146.6351890948
 31
0.0
  0
LINE
  5
12D
330
1F
100
AcDbEntity
  8
0
  6
Continuous
 62
     7
370
    15
100
AcDbLine
 10
110.8080923256
 20
143.5351890948
 30
0.0
 11
110.8080923256
 21
146.6351890948
 31
0.0
  0
ARC
  5
12E
330
1F
100
AcDbEntity
  8
0
  6
Continuous
 62
     7
370
    15
100
AcDbCircle
 10
102.6080923256
 20
129.8351890948
 30
0.0
 40
1.500000000000028
100
AcDbArc
 50
90.0
 51
270.0
  0
ARC
  5
12F
330
1F
100
AcDbEntity
  8
0
  6
Continuous
 62
     7
370
    15
100
AcDbCircle
 10
102.6080923256
 20
129.8351890948
 30
0.0
 40
1.500000000000028
100
AcDbArc
 50
270.0
 51
90.0
  0
LINE
  5
130
330
1F
100
AcDbEntity
  8
0
  6
Continuous
 62
     7
370
    15
100
AcDbLine
 10
100.1080923256
 20
102.8351890948
 30
0.0
 11
105.8080923256
 21
102.8351890948
 31
0.0
  0
LINE
  5
131
330
1F
100
AcDbEntity
  8
0
  6
Continuous
 62
     7
370
    15
100
AcDbLine
 10
105.8080923256
 20
102.8351890948
 30
0.0
 11
110.8080923256
 21
102.8351890948
 31
0.0
  0
LINE
  5
132
330
1F
100
AcDbEntity
  8
0
  6
Continuous
 62
     7
370
    15
100
AcDbLine
 10
110.8080923256
 20
102.8351890948
 30
0.0
 11
116.5080923256
 21
102.8351890948
 31
0.0
  0
ARC
  5
133
330
1F
100
AcDbEntity
  8
0
  6
Continuous
 62
     7
370
    15
100
AcDbCircle
 10
102.6080923256
 20
129.8351890948
 30
0.0
 40
1.500000000000028
100
AcDbArc
 50
90.0
 51
270.0
  0
ARC
  5
134
330
1F
100
AcDbEntity
  8
0
  6
Continuous
 62
     7
370
    15
100
AcDbCircle
 10
102.6080923256
 20
129.8351890948
 30
0.0
 40
1.500000000000028
100
AcDbArc
 50
270.0
 51
90.0
  0
LINE
  5
135
330
1F
100
AcDbEntity
  8
0
  6
Continuous
 62
     7
370
    15
100
AcDbLine
 10
100.1080923256
 20
102.8351890948
 30
0.0
 11
100.1080923256
 21
140.6351890948
 31
0.0
  0
LINE
  5
136
330
1F
100
AcDbEntity
  8
0
  6
Continuous
 62
     7
370
    15
100
AcDbLine
 10
105.8080923256
 20
140.6351890948
 30
0.0
 11
105.8080923256
 21
102.8351890948
 31
0.0
  0
ARC
  5
137
330
1F
100
AcDbEntity
  8
0
  6
Continuous
 62
     7
370
    15
100
AcDbCircle
 10
114.0080923256
 20
129.8351890948
 30
0.0
 40
1.500000000000057
100
AcDbArc
 50
270.0
 51
90.0
  0
ARC
  5
138
330
1F
100
AcDbEntity
  8
0
  6
Continuous
 62
     7
370
    15
100
AcDbCircle
 10
114.0080923256
 20
129.8351890948
 30
0.0
 40
1.500000000000057
100
AcDbArc
 50
90.0
 51
270.0
  0
LINE
  5
139
330
1F
100
AcDbEntity
  8
0
  6
Continuous
 62
     7
370
    15
100
AcDbLine
 10
116.5080923256
 20
140.6351890948
 30
0.0
 11
116.5080923256
 21
102.8351890948
 31
0.0
  0
LINE
  5
13A
330
1F
100
AcDbEntity
  8
0
  6
Continuous
 62
     7
370
    15
100
AcDbLine
 10
110.8080923256
 20
102.8351890948
 30
0.0
 11
110.8080923256
 21
140.6351890948
 31
0.0
  0
ARC
  5
13B
330
1F
100
AcDbEntity
  8
0
  6
Continuous
 62
     7
370
    15
100
AcDbCircle
 10
114.0080923256
 20
129.8351890948
 30
0.0
 40
1.500000000000028
100
AcDbArc
 50
90.0
 51
270.0
  0
ARC
  5
13C
330
1F
100
AcDbEntity
  8
0
  6
Continuous
 62
     7
370
    15
100
AcDbCircle
 10
114.0080923256
 20
129.8351890948
 30
0.0
 40
1.500000000000028
100
AcDbArc
 50
270.0
 51
90.0
  0
LINE
  5
13D
330
1F
100
AcDbEntity
  8
SLD-0
100
AcDbLine
 10
95.4583848956
 20
129.8351890948
 30
0.0
 11
119.0295515714
 21
129.8351890948
 31
0.0
  0
LINE
  5
13E
330
1F
100
AcDbEntity
  8
SLD-0
100
AcDbLine
 10
102.6023449739
 20
132.6321870088
 30
0.0
 11
102.6023449739
 21
127.5049145343
 31
0.0
  0
LINE
  5
13F
330
1F
100
AcDbEntity
  8
SLD-0
100
AcDbLine
 10
113.9715143739
 20
132.6321870088
 30
0.0
 11
113.9715143739
 21
127.5049145343
 31
0.0
  0
CIRCLE
  5
140
330
1F
100
AcDbEntity
  8
SLD-0
100
AcDbCircle
 10
108.3080923256
 20
156.8351890948
 30
0.0
 40
1.236938705696232
  0
CIRCLE
  5
141
330
1F
100
AcDbEntity
  8
SLD-0
100
AcDbCircle
 10
108.3080923256
 20
151.1351890948
 30
0.0
 40
1.242402242120164
  0
DIMENSION
  5
142
330
1F
100
AcDbEntity
  8
SLD-0
100
AcDbDimension
  2
*D12
 10
126.5082423256
 20
102.8351890948
 30
0.0
 11
126.5082423256
 21
116.3351890948
 31
0.0
 70
   160
 71
     2
 42
-1.0
  3
SLDDIMSTYLE1
100
AcDbAlignedDimension
 13
119.0295515714
 23
129.8351890948
 33
0.0
 14
116.5080923256
 24
102.8351890948
 34
0.0
 50
90.0
100
AcDbRotatedDimension
  0
DIMENSION
  5
14C
330
1F
100
AcDbEntity
  8
SLD-0
100
AcDbDimension
  2
*D13
 10
114.0080923256
 20
92.8350390948
 30
0.0
 11
108.3080923256
 21
92.8350390948
 31
0.0
 70
   160
 71
     2
 42
-1.0
  3
SLDDIMSTYLE1
100
AcDbAlignedDimension
 13
102.6080923256
 23
128.3351890948
 33
0.0
 14
114.0080923256
 24
128.3351890948
 34
0.0
100
AcDbRotatedDimension
  0
INSERT
  5
160
330
1F
100
AcDbEntity
  8
SLD-0
100
AcDbBlockReference
  2
SW_NOTE_1
 10
94.5542482101
 20
141.5729077599
 30
0.0
  0
LEADER
  5
161
330
1F
100
AcDbEntity
  8
SLD-0
100
AcDbLeader
  3
SLDDIMSTYLE2
 76
     2
 10
101.5342929175
 20
130.8825604741
 30
0.0
 10
94.5542482101
 20
141.5729077599
 30
0.0
  0
INSERT
  5
16D
330
1F
100
AcDbEntity
  8
SLD-0
100
AcDbBlockReference
  2
SW_CENTERMARKSYMBOL_2
 10
108.3080923256
 20
151.1351890948
 30
0.0
  0
INSERT
  5
179
330
1F
100
AcDbEntity
  8
SLD-0
100
AcDbBlockReference
  2
SW_CENTERMARKSYMBOL_3
 10
108.3080923256
 20
156.8351890948
 30
0.0
  0
ARC
  5
17A
330
1F
100
AcDbEntity
  8
0
  6
Continuous
 62
     7
370
    15
100
AcDbCircle
 10
296.0389106479
 20
121.8351890948
 30
0.0
 40
1.500000000000014
100
AcDbArc
 50
90.0
 51
270.0
  0
ARC
  5
17B
330
1F
100
AcDbEntity
  8
0
  6
Continuous
 62
     7
370
    15
100
AcDbCircle
 10
285.0389106479
 20
111.8351890948
 30
0.0
 40
1.5
100
AcDbArc
 50
90.0
 51
270.0
  0
ARC
  5
17C
330
1F
100
AcDbEntity
  8
0
  6
Continuous
 62
     7
370
    15
100
AcDbCircle
 10
285.0389106479
 20
111.8351890948
 30
0.0
 40
1.5
100
AcDbArc
 50
270.0
 51
90.0
  0
ARC
  5
17D
330
1F
100
AcDbEntity
  8
0
  6
Continuous
 62
     7
370
    15
100
AcDbCircle
 10
296.0389106479
 20
121.8351890948
 30
0.0
 40
1.500000000000014
100
AcDbArc
 50
270.0
 51
90.0
  0
LINE
  5
17E
330
1F
100
AcDbEntity
  8
0
  6
Continuous
 62
     7
370
    15
100
AcDbLine
 10
288.0389107038
 20
102.8351899769
 30
0.0
 11
288.0389107038
 21
140.6351890948
 31
0.0
  0
LINE
  5
17F
330
1F
100
AcDbEntity
  8
0
  6
Continuous
 62
     7
370
    15
100
AcDbLine
 10
293.0389105921
 20
140.6351890948
 30
0.0
 11
293.0389105921
 21
102.8351899769
 31
0.0
  0
LINE
  5
180
330
1F
100
AcDbEntity
  8
0
  6
Continuous
 62
     7
370
    15
100
AcDbLine
 10
282.3389106077
 20
140.6351890948
 30
0.0
 11
298.7389106882
 21
140.6351890948
 31
0.0
  0
LINE
  5
181
330
1F
100
AcDbEntity
  8
0
  6
Continuous
 62
     7
370
    15
100
AcDbLine
 10
293.0389105921
 20
143.5351890579
 30
0.0
 11
293.0389105921
 21
146.635189147
 31
0.0
  0
LINE
  5
182
330
1F
100
AcDbEntity
  8
0
  6
Continuous
 62
     7
370
    15
100
AcDbLine
 10
293.0389105921
 20
146.635189147
 30
0.0
 11
298.7389106882
 21
146.635189147
 31
0.0
  0
LINE
  5
183
330
1F
100
AcDbEntity
  8
0
  6
Continuous
 62
     7
370
    15
100
AcDbLine
 10
298.7389106882
 20
146.635189147
 30
0.0
 11
298.7389106882
 21
140.6351890948
 31
0.0
  0
LINE
  5
184
330
1F
100
AcDbEntity
  8
0
  6
Continuous
 62
     7
370
    15
100
AcDbLine
 10
282.3389106077
 20
140.6351890948
 30
0.0
 11
282.3389106077
 21
146.635189147
 31
0.0
  0
LINE
  5
185
330
1F
100
AcDbEntity
  8
0
  6
Continuous
 62
     7
370
    15
100
AcDbLine
 10
282.3389106077
 20
146.635189147
 30
0.0
 11
288.0389107038
 21
146.635189147
 31
0.0
  0
LINE
  5
186
330
1F
100
AcDbEntity
  8
0
  6
Continuous
 62
     7
370
    15
100
AcDbLine
 10
288.0389107038
 20
146.635189147
 30
0.0
 11
288.0389107038
 21
143.5351890579
 31
0.0
  0
LINE
  5
187
330
1F
100
AcDbEntity
  8
0
  6
Continuous
 62
     7
370
    15
100
AcDbLine
 10
288.0389107038
 20
143.5351890579
 30
0.0
 11
293.0389105921
 21
143.5351890579
 31
0.0
  0
LINE
  5
188
330
1F
100
AcDbEntity
  8
0
  6
Continuous
 62
     7
370
    15
100
AcDbLine
 10
282.3389106077
 20
102.8351899769
 30
0.0
 11
288.0389107038
 21
102.8351899769
 31
0.0
  0
LINE
  5
189
330
1F
100
AcDbEntity
  8
0
  6
Continuous
 62
     7
370
    15
100
AcDbLine
 10
288.0389107038
 20
102.8351899769
 30
0.0
 11
293.0389105921
 21
102.8351899769
 31
0.0
  0
LINE
  5
18A
330
1F
100
AcDbEntity
  8
0
  6
Continuous
 62
     7
370
    15
100
AcDbLine
 10
293.0389105921
 20
102.8351899769
 30
0.0
 11
298.7389106882
 21
102.8351899769
 31
0.0
  0
SPLINE
  5
18B
330
1F
100
AcDbEntity
  8
0
  6
Continuous
 62
     7
370
    15
100
AcDbSpline
210
0.0
220
0.0
230
1.0
 70
     8
 71
     3
 72
    19
 73
    15
 74
     0
 42
0.00000001
 43
0.00000001
 40
0.0
 40
0.0
 40
0.0
 40
0.0
 40
0.1197214761320422
 40
0.184803627554621
 40
0.2499999751957668
 40
0.3150821534367143
 40
0.3802783860747463
 40
0.4999998436235856
 40
0.619721301172425
 40
0.684803498210725
 40
0.7499999368663736
 40
0.8150821151073211
 40
0.8802785238679579
 40
1.0
 40
1.0
 40
1.0
 40
1.0
 10
296.0389106181449
 20
123.3351886805444
 30
0.0
 10
295.8502938946946
 20
123.3150426582056
 30
0.0
 10
295.5591426673856
 20
123.2839449961212
 30
0.0
 10
295.2094630143993
 20
123.097214148503
 30
0.0
 10
294.971167694559
 20
122.9034458226851
 30
0.0
 10
294.7760031040914
 20
122.6647249666516
 30
0.0
 10
294.5951431447892
 20
122.3151694389204
 30
0.0
 10
294.5025043016608
 20
121.8351902230348
 30
0.0
 10
294.5951084482158
 20
121.3553863178706
 30
0.0
 10
294.7759039759969
 20
121.0058106053986
 30
0.0
 10
294.9709151236281
 20
120.7671827001981
 30
0.0
 10
295.2093056628929
 20
120.5732615323076
 30
0.0
 10
295.5589649493137
 20
120.3864561050194
 30
0.0
 10
295.8502947946926
 20
120.355336178175
 30
0.0
 10
296.0389106181449
 20
120.3351881888061
 30
0.0
  0
SPLINE
  5
18C
330
1F
100
AcDbEntity
  8
0
  6
Continuous
 62
     7
370
    15
100
AcDbSpline
210
0.0
220
0.0
230
1.0
 70
     8
 71
     3
 72
    19
 73
    15
 74
     0
 42
0.00000001
 43
0.00000001
 40
0.0
 40
0.0
 40
0.0
 40
0.0
 40
0.1197214744935063
 40
0.1848038074889528
 40
0.2499999034644265
 40
0.3150820808146443
 40
0.3802786648057182
 40
0.5000001392992246
 40
0.6197216137927309
 40
0.6848038099403009
 40
0.7499999402879322
 40
0.81508211763815
 40
0.8802785255064938
 40
1.0
 40
1.0
 40
1.0
 40
1.0
 10
296.0389106181449
 20
120.3351881888061
 30
0.0
 10
296.2275275950562
 20
120.3553337649527
 30
0.0
 10
296.5186795010757
 20
120.3864307689925
 30
0.0
 10
296.8683570931861
 20
120.5731650913815
 30
0.0
 10
297.1066541438244
 20
120.7669308247393
 30
0.0
 10
297.3018186202035
 20
121.0056523657931
 30
0.0
 10
297.4826773372558
 20
121.3552089986652
 30
0.0
 10
297.5753180131986
 20
121.835188482011
 30
0.0
 10
297.4827124798389
 20
122.3149922368789
 30
0.0
 10
297.3019178609865
 20
122.664567981056
 30
0.0
 10
297.1069054224023
 20
122.9031942254425
 30
0.0
 10
296.8685156559725
 20
123.0971154021607
 30
0.0
 10
296.5188562453127
 20
123.2839207314759
 30
0.0
 10
296.2275264252237
 20
123.3150406782636
 30
0.0
 10
296.0389106181449
 20
123.3351886805444
 30
0.0
  0
LINE
  5
18D
330
1F
100
AcDbEntity
  8
0
  6
Continuous
 62
     7
370
    15
100
AcDbLine
 10
298.7389106882
 20
140.6351890948
 30
0.0
 11
298.7389106882
 21
102.8351899769
 31
0.0
  0
SPLINE
  5
18E
330
1F
100
AcDbEntity
  8
0
  6
Continuous
 62
     7
370
    15
100
AcDbSpline
210
0.0
220
0.0
230
1.0
 70
     8
 71
     3
 72
    19
 73
    15
 74
     0
 42
0.00000001
 43
0.00000001
 40
0.0
 40
0.0
 40
0.0
 40
0.0
 40
0.1197214707649754
 40
0.184803619269947
 40
0.249999963988366
 40
0.315082139311705
 40
0.3802787212723371
 40
0.5000001734541105
 40
0.619721625635884
 40
0.6848038197565746
 40
0.7499999480737782
 40
0.8150821233971172
 40
0.8802785292350247
 40
1.0
 40
1.0
 40
1.0
 40
1.0
 10
285.0389106777496
 20
110.3351884123235
 30
0.0
 10
285.227527398089
 20
110.355334436212
 30
0.0
 10
285.5186786205961
 20
110.3864321006886
 30
0.0
 10
285.8683582971683
 20
110.573162936557
 30
0.0
 10
286.1066535413283
 20
110.7669313000766
 30
0.0
 10
286.301818767541
 20
111.0056524447748
 30
0.0
 10
286.4826774375641
 20
111.3552092612946
 30
0.0
 10
286.5753172594212
 20
111.8351886793218
 30
0.0
 10
286.4827126350824
 20
112.3149925021928
 30
0.0
 10
286.3019178989769
 20
112.6645682014403
 30
0.0
 10
286.1069054877812
 20
112.903194449797
 30
0.0
 10
285.8685157140652
 20
113.097115625459
 30
0.0
 10
285.5188563056803
 20
113.2839209551039
 30
0.0
 10
285.2275264851282
 20
113.3150409018245
 30
0.0
 10
285.0389106777496
 20
113.3351889040618
 30
0.0
  0
SPLINE
  5
18F
330
1F
100
AcDbEntity
  8
0
  6
Continuous
 62
     7
370
    15
100
AcDbSpline
210
0.0
220
0.0
230
1.0
 70
     8
 71
     3
 72
    19
 73
    15
 74
     0
 42
0.00000001
 43
0.00000001
 40
0.0
 40
0.0
 40
0.0
 40
0.0
 40
0.1197214716824254
 40
0.1848036206861347
 40
0.2499999659041666
 40
0.3150821417262435
 40
0.380278371941166
 40
0.4999998436235915
 40
0.6197213153060168
 40
0.6848035099254455
 40
0.7499999461579769
 40
0.8150821219800539
 40
0.8802785283175747
 40
1.0
 40
1.0
 40
1.0
 40
1.0
 10
285.0389106777496
 20
113.3351889040618
 30
0.0
 10
284.8502939546063
 20
113.3150428816894
 30
0.0
 10
284.5591427277714
 20
113.283945219553
 30
0.0
 10
284.2094630724565
 20
113.09721437219
 30
0.0
 10
283.9711677600881
 20
112.9034460455534
 30
0.0
 10
283.7760031415755
 20
112.6647251925928
 30
0.0
 10
283.5951433029279
 20
112.3151696241845
 30
0.0
 10
283.502503528297
 20
111.835190446548
 30
0.0
 10
283.595108606125
 20
111.3553865796185
 30
0.0
 10
283.7759040134589
 20
111.0058108264895
 30
0.0
 10
283.970915189148
 20
110.7671829243638
 30
0.0
 10
284.2093057209486
 20
110.5732617556552
 30
0.0
 10
284.5589650096998
 20
110.3864563286225
 30
0.0
 10
284.8502948546044
 20
110.355336401726
 30
0.0
 10
285.0389106777496
 20
110.3351884123235
 30
0.0
  0
LINE
  5
190
330
1F
100
AcDbEntity
  8
0
  6
Continuous
 62
     7
370
    15
100
AcDbLine
 10
282.3389106077
 20
102.8351899769
 30
0.0
 11
282.3389106077
 21
140.6351890948
 31
0.0
  0
ARC
  5
191
330
1F
100
AcDbEntity
  8
0
  6
Continuous
 62
     7
370
    15
100
AcDbCircle
 10
290.5389106479
 20
151.1351890948
 30
0.0
 40
1.250000000000057
100
AcDbArc
 50
180.0
 51
0.0
  0
ARC
  5
192
330
1F
100
AcDbEntity
  8
0
  6
Continuous
 62
     7
370
    15
100
AcDbCircle
 10
290.5389106479
 20
156.8351890948
 30
0.0
 40
1.250000000000057
100
AcDbArc
 50
180.0
 51
0.0
  0
ARC
  5
193
330
1F
100
AcDbEntity
  8
0
  6
Continuous
 62
     7
370
    15
100
AcDbCircle
 10
290.5389106479
 20
156.8351890948
 30
0.0
 40
1.250000000000057
100
AcDbArc
 50
0.0
 51
180.0
  0
ARC
  5
194
330
1F
100
AcDbEntity
  8
0
  6
Continuous
 62
     7
370
    15
100
AcDbCircle
 10
290.5389106479
 20
151.1351890948
 30
0.0
 40
1.250000000000057
100
AcDbArc
 50
0.0
 51
180.0
  0
LINE
  5
195
330
1F
100
AcDbEntity
  8
0
  6
Continuous
 62
     7
370
    15
100
AcDbLine
 10
293.0389105921
 20
159.8351900067
 30
0.0
 11
288.0389107038
 21
159.8351900067
 31
0.0
  0
LINE
  5
196
330
1F
100
AcDbEntity
  8
0
  6
Continuous
 62
     7
370
    15
100
AcDbLine
 10
288.0389107038
 20
146.635189147
 30
0.0
 11
288.0389107038
 21
147.8351889711
 31
0.0
  0
LINE
  5
197
330
1F
100
AcDbEntity
  8
0
  6
Continuous
 62
     7
370
    15
100
AcDbLine
 10
288.0389107038
 20
147.8351889711
 30
0.0
 11
293.0389105921
 21
147.8351889711
 31
0.0
  0
LINE
  5
198
330
1F
100
AcDbEntity
  8
0
  6
Continuous
 62
     7
370
    15
100
AcDbLine
 10
293.0389105921
 20
147.8351889711
 30
0.0
 11
293.0389105921
 21
146.635189147
 31
0.0
  0
SPLINE
  5
199
330
1F
100
AcDbEntity
  8
0
  6
Continuous
 62
     7
370
    15
100
AcDbSpline
210
0.0
220
0.0
230
1.0
 70
     8
 71
     3
 72
    19
 73
    15
 74
     0
 42
0.00000001
 43
0.00000001
 40
0.0
 40
0.0
 40
0.0
 40
0.0
 40
0.1197216128065172
 40
0.1847922499613561
 40
0.2499999973434628
 40
0.3150707559938896
 40
0.3802785467602613
 40
0.499999983822403
 40
0.619721420884538
 40
0.6847921556969453
 40
0.749999871524587
 40
0.8150707096656951
 40
0.8802783871934828
 40
1.0
 40
1.0
 40
1.0
 40
1.0
 10
291.7889106200076
 20
151.1351889532356
 30
0.0
 10
291.772122710504
 20
151.2923699544533
 30
0.0
 10
291.7462103000663
 20
151.5349813776149
 30
0.0
 10
291.5906061297475
 20
151.8263820718377
 30
0.0
 10
291.4291465302231
 20
152.0249544507425
 30
0.0
 10
291.2302038043923
 20
152.1876037564778
 30
0.0
 10
290.9389090241616
 20
152.3383256630026
 30
0.0
 10
290.5389114459878
 20
152.4155274343188
 30
0.0
 10
290.1390897586867
 20
152.3383602129244
 30
0.0
 10
289.8477746662879
 20
152.1877036586576
 30
0.0
 10
289.6489266191792
 20
152.0252063448456
 30
0.0
 10
289.4873131692901
 20
151.8265398623645
 30
0.0
 10
289.3316356067388
 20
151.5351587608071
 30
0.0
 10
289.3057007053137
 20
151.2923689580959
 30
0.0
 10
289.2889106758869
 20
151.1351889532356
 30
0.0
  0
SPLINE
  5
19A
330
1F
100
AcDbEntity
  8
0
  6
Continuous
 62
     7
370
    15
100
AcDbSpline
210
0.0
220
0.0
230
1.0
 70
     8
 71
     3
 72
    19
 73
    15
 74
     0
 42
0.00000001
 43
0.00000001
 40
0.0
 40
0.0
 40
0.0
 40
0.0
 40
0.1197213892718852
 40
0.1847922433853106
 40
0.2499999963696451
 40
0.3150707606105304
 40
0.3802785569791336
 40
0.5000000043269603
 40
0.6197214516747926
 40
0.684792301551853
 40
0.7499998725211721
 40
0.8150707162527454
 40
0.8802786107281149
 40
1.0
 40
1.0
 40
1.0
 40
1.0
 10
289.2889106758869
 20
151.1351889532356
 30
0.0
 10
289.3056987525712
 20
150.9780083334535
 30
0.0
 10
289.3316114685152
 20
150.735397054693
 30
0.0
 10
289.4872148821074
 20
150.443995994991
 30
0.0
 10
289.6486747956532
 20
150.2454234689257
 30
0.0
 10
289.8476174807422
 20
150.0827741516053
 30
0.0
 10
290.138912291416
 20
149.9320522178038
 30
0.0
 10
290.5389097338457
 20
149.8548506744941
 30
0.0
 10
290.9387320196082
 20
149.9320171222146
 30
0.0
 10
291.2300460610938
 20
150.0826754400389
 30
0.0
 10
291.4288949817508
 20
150.2451714485663
 30
0.0
 10
291.5905083550473
 20
150.4438382777238
 30
0.0
 10
291.7461852446511
 20
150.7352196345084
 30
0.0
 10
291.7721204345661
 20
150.9780093152273
 30
0.0
 10
291.7889106200076
 20
151.1351889532356
 30
0.0
  0
SPLINE
  5
19B
330
1F
100
AcDbEntity
  8
0
  6
Continuous
 62
     7
370
    15
100
AcDbSpline
210
0.0
220
0.0
230
1.0
 70
     8
 71
     3
 72
    19
 73
    15
 74
     0
 42
0.00000001
 43
0.00000001
 40
0.0
 40
0.0
 40
0.0
 40
0.0
 40
0.1197214317504032
 40
0.1847923089517118
 40
0.2499999006201362
 40
0.3150706879488728
 40
0.3802785074539479
 40
0.4999999972803207
 40
0.6197214871066842
 40
0.6847922505973908
 40
0.7499999951637029
 40
0.8150708619831557
 40
0.8802785682495969
 40
1.0
 40
1.0
 40
1.0
 40
1.0
 10
291.7889106200076
 20
156.8351895150094
 30
0.0
 10
291.7721225088836
 20
156.9923701066743
 30
0.0
 10
291.7462097397814
 20
157.2349813420354
 30
0.0
 10
291.5906067020906
 20
157.5263823999027
 30
0.0
 10
291.4291461595176
 20
157.7249540956075
 30
0.0
 10
291.230203852536
 20
157.8876034235134
 30
0.0
 10
290.9389089988192
 20
158.0383252741958
 30
0.0
 10
290.5389114545623
 20
158.1155270712883
 30
0.0
 10
290.1390897575441
 20
158.0383598425001
 30
0.0
 10
289.8477746664714
 20
157.8877032892622
 30
0.0
 10
289.6489266193003
 20
157.7252059753359
 30
0.0
 10
289.4873131686236
 20
157.526539492507
 30
0.0
 10
289.3316357557898
 20
157.2351586654008
 30
0.0
 10
289.3057007568689
 20
156.9923691959056
 30
0.0
 10
289.2889106758869
 20
156.8351895150094
 30
0.0
  0
SPLINE
  5
19C
330
1F
100
AcDbEntity
  8
0
  6
Continuous
 62
     7
370
    15
100
AcDbSpline
210
0.0
220
0.0
230
1.0
 70
     8
 71
     3
 72
    19
 73
    15
 74
     0
 42
0.00000001
 43
0.00000001
 40
0.0
 40
0.0
 40
0.0
 40
0.0
 40
0.1197213736858672
 40
0.1847922193279951
 40
0.2499999638232098
 40
0.3150707195928092
 40
0.3802785074722871
 40
0.4999999838337855
 40
0.6197214601952922
 40
0.6847921921268733
 40
0.7499999050676244
 40
0.8150707403279016
 40
0.8802786263141328
 40
1.0
 40
1.0
 40
1.0
 40
1.0
 10
289.2889106758869
 20
156.8351895150094
 30
0.0
 10
289.3056987525951
 20
156.6780088959178
 30
0.0
 10
289.3316114685759
 20
156.435397618223
 30
0.0
 10
289.487214881987
 20
156.1439965532864
 30
0.0
 10
289.6486747961142
 20
155.9454240440205
 30
0.0
 10
289.8476174790216
 20
155.7827746636544
 30
0.0
 10
290.1389123520958
 20
155.6320530044813
 30
0.0
 10
290.5389098499128
 20
155.5548493666157
 30
0.0
 10
290.9387314569143
 20
155.6320184540011
 30
0.0
 10
291.2300466420609
 20
155.7826747614371
 30
0.0
 10
291.4288946463103
 20
155.9451721498824
 30
0.0
 10
291.5905084103255
 20
156.1438387628993
 30
0.0
 10
291.7461852167624
 20
156.4352202349272
 30
0.0
 10
291.7721204236065
 20
156.6780098921878
 30
0.0
 10
291.7889106200076
 20
156.8351895150094
 30
0.0
  0
LINE
  5
19D
330
1F
100
AcDbEntity
  8
0
  6
Continuous
 62
     7
370
    15
100
AcDbLine
 10
288.0389107038
 20
147.8351889711
 30
0.0
 11
288.0389107038
 21
159.8351900067
 31
0.0
  0
LINE
  5
19E
330
1F
100
AcDbEntity
  8
0
  6
Continuous
 62
     7
370
    15
100
AcDbLine
 10
293.0389105921
 20
159.8351900067
 30
0.0
 11
293.0389105921
 21
147.8351889711
 31
0.0
  0
DIMENSION
  5
19F
330
1F
100
AcDbEntity
  8
SLD-0
100
AcDbDimension
  2
*D17
 10
274.7284825425
 20
111.8351890948
 30
0.0
 11
274.7284825425
 21
107.3351890948
 31
0.0
 70
   160
 71
     2
 42
-1.0
  3
SLDDIMSTYLE0
100
AcDbAlignedDimension
 13
282.3389106479
 23
102.8351890948
 33
0.0
 14
281.0389106479
 24
111.8351890948
 34
0.0
 50
90.0
100
AcDbRotatedDimension
  0
DIMENSION
  5
1AB
330
1F
100
AcDbEntity
  8
SLD-0
100
AcDbDimension
  2
*D18
 10
266.3387606479
 20
121.8351890948
 30
0.0
 11
266.3387606479
 21
112.3351890948
 31
0.0
 70
   160
 71
     2
 42
-1.0
  3
SLDDIMSTYLE1
100
AcDbAlignedDimension
 13
282.3389106479
 23
102.8351890948
 33
0.0
 14
292.0389106479
 24
121.8351890948
 34
0.0
 50
90.0
100
AcDbRotatedDimension
  0
DIMENSION
  5
1B5
330
1F
100
AcDbEntity
  8
SLD-0
100
AcDbDimension
  2
*D19
 10
296.0389106479
 20
90.9225720507
 30
0.0
 11
290.5389106479
 21
90.9225720507
 31
0.0
 70
   160
 71
     2
 42
-1.0
  3
SLDDIMSTYLE0
100
AcDbAlignedDimension
 13
285.0389106479
 23
107.8351890948
 33
0.0
 14
296.0389106479
 24
117.8351890948
 34
0.0
100
AcDbRotatedDimension
  0
DIMENSION
  5
1C1
330
1F
100
AcDbEntity
  8
SLD-0
100
AcDbDimension
  2
*D21
 10
258.1679725629
 20
156.8351890948
 30
0.0
 11
258.1679725629
 21
165.3438999491
 31
0.0
 70
   160
 71
     2
 42
-1.0
  3
SLDDIMSTYLE3
100
AcDbAlignedDimension
 13
288.0389106479
 23
159.8351890948
 33
0.0
 14
286.7889106479
 24
156.8351890948
 34
0.0
 50
90.0
100
AcDbRotatedDimension
  0
DIMENSION
  5
1D6
330
1F
100
AcDbEntity
  8
SLD-0
100
AcDbDimension
  2
*D22
 10
258.1679725629
 20
151.1351890948
 30
0.0
 11
258.1679725629
 21
153.9851890948
 31
0.0
 70
   160
 71
     2
 42
-1.0
  3
SLDDIMSTYLE4
100
AcDbAlignedDimension
 13
286.7889106479
 23
156.8351890948
 33
0.0
 14
286.7889106479
 24
151.1351890948
 34
0.0
 50
90.0
100
AcDbRotatedDimension
  0
DIMENSION
  5
1E5
330
1F
100
AcDbEntity
  8
SLD-0
100
AcDbDimension
  2
*D23
 10
293.0389106479
 20
173.4969837523
 30
0.0
 11
290.5389106479
 21
173.4969837523
 31
0.0
 70
   160
 71
     2
 42
-1.0
  3
SLDDIMSTYLE0
100
AcDbAlignedDimension
 13
288.0389106479
 23
159.8351890948
 33
0.0
 14
293.0389106479
 24
159.8351890948
 34
0.0
100
AcDbRotatedDimension
  0
DIMENSION
  5
1F1
330
1F
100
AcDbEntity
  8
SLD-0
100
AcDbDimension
  2
*D24
 10
258.1679725629
 20
102.8351890948
 30
0.0
 11
258.1679725629
 21
126.9851890948
 31
0.0
 70
   160
 71
     2
 42
-1.0
  3
SLDDIMSTYLE5
100
AcDbAlignedDimension
 13
286.7889106479
 23
151.1351890948
 33
0.0
 14
287.4389106479
 24
102.8351890948
 34
0.0
 50
90.0
100
AcDbRotatedDimension
  0
DIMENSION
  5
1FC
330
1F
100
AcDbEntity
  8
SLD-0
100
AcDbDimension
  2
*D25
 10
298.7389106479
 20
184.6937491435
 30
0.0
 11
290.5389106479
 21
184.6937491435
 31
0.0
 70
   160
 71
     2
 42
-1.0
  3
SLDDIMSTYLE0
100
AcDbAlignedDimension
 13
282.3389106479
 23
146.6351890948
 33
0.0
 14
298.7389106479
 24
146.6351890948
 34
0.0
100
AcDbRotatedDimension
  0
MTEXT
  5
208
330
1F
100
AcDbEntity
  8
SLD-0
100
AcDbMText
 10
258.1679725629
 20
94.8606980201
 30
0.0
 40
3.5
 41
0.0
 71
     1
 72
     1
  1
M3　　
  7
SLDTEXTSTYLE0
 73
     1
 44
1.0
  0
LEADER
  5
209
330
1F
100
AcDbEntity
  8
SLD-0
100
AcDbLeader
  3
SLDDIMSTYLE2
 76
     3
 10
283.638750326
 20
111.2970959228
 30
0.0
 10
270.8848267074
 20
90.3485127309
 30
0.0
 10
258.1649409431
 20
90.3485127309
 30
0.0
  0
INSERT
  5
214
330
1F
100
AcDbEntity
  8
SLD-0
100
AcDbBlockReference
  2
SW_NOTE_2
 10
307.0736384653
 20
172.9222874967
 30
0.0
  0
LEADER
  5
215
330
1F
100
AcDbEntity
  8
SLD-0
100
AcDbLeader
  3
SLDDIMSTYLE2
 76
     2
 10
291.4636830221
 20
157.6762394443
 30
0.0
 10
307.0736384653
 20
172.9222874967
 30
0.0
  0
INSERT
  5
220
330
1F
100
AcDbEntity
  8
SLD-0
100
AcDbBlockReference
  2
SW_NOTE_3
 10
311.1552635672
 20
131.3688450051
 30
0.0
  0
LEADER
  5
221
330
1F
100
AcDbEntity
  8
SLD-0
100
AcDbLeader
  3
SLDDIMSTYLE2
 76
     2
 10
297.0573002021
 20
122.9365731077
 30
0.0
 10
311.1552635672
 20
131.3688450051
 30
0.0
  0
INSERT
  5
22D
330
1F
100
AcDbEntity
  8
SLD-0
100
AcDbBlockReference
  2
SW_CENTERMARKSYMBOL_4
 10
285.0389106479
 20
111.8351890948
 30
0.0
  0
INSERT
  5
239
330
1F
100
AcDbEntity
  8
SLD-0
100
AcDbBlockReference
  2
SW_CENTERMARKSYMBOL_5
 10
296.0389106479
 20
121.8351890948
 30
0.0
  0
INSERT
  5
245
330
1F
100
AcDbEntity
  8
SLD-0
100
AcDbBlockReference
  2
SW_CENTERMARKSYMBOL_6
 10
290.5389106479
 20
156.8351890948
 30
0.0
  0
INSERT
  5
251
330
1F
100
AcDbEntity
  8
SLD-0
100
AcDbBlockReference
  2
SW_CENTERMARKSYMBOL_7
 10
290.5389106479
 20
151.1351890948
 30
0.0
  0
ARC
  5
252
330
1F
100
AcDbEntity
  8
0
  6
Continuous
 62
     7
370
    15
100
AcDbCircle
 10
177.9156696925
 20
39.1325625123
 30
0.0
 40
1.0
100
AcDbArc
 50
180.0
 51
0.0
  0
ARC
  5
253
330
1F
100
AcDbEntity
  8
0
  6
Continuous
 62
     7
370
    15
100
AcDbCircle
 10
177.9156696925
 20
39.1325625123
 30
0.0
 40
1.0
100
AcDbArc
 50
0.0
 51
180.0
  0
LINE
  5
254
330
1F
100
AcDbEntity
  8
0
  6
Continuous
 62
     7
370
    15
100
AcDbLine
 10
195.6358855182
 20
47.4325626013
 30
0.0
 11
195.9156697208
 21
46.8325624564
 31
0.0
  0
LINE
  5
255
330
1F
100
AcDbEntity
  8
0
  6
Continuous
 62
     7
370
    15
100
AcDbLine
 10
175.1156696641
 20
46.8325624564
 30
0.0
 11
175.3954538667
 21
47.4325626013
 31
0.0
  0
LINE
  5
256
330
1F
100
AcDbEntity
  8
0
  6
Continuous
 62
     7
370
    15
100
AcDbLine
 10
175.3954538667
 20
41.2325624232
 30
0.0
 11
175.1156696641
 21
41.8325625682
 31
0.0
  0
LINE
  5
257
330
1F
100
AcDbEntity
  8
0
  6
Continuous
 62
     7
370
    15
100
AcDbLine
 10
195.9156697208
 20
41.8325625682
 30
0.0
 11
195.6358855182
 21
41.2325624232
 31
0.0
  0
ARC
  5
258
330
1F
100
AcDbEntity
  8
0
  6
Continuous
 62
     7
370
    15
100
AcDbCircle
 10
176.5156696925
 20
50.3325625123
 30
0.0
 40
1.5
100
AcDbArc
 50
180.0
 51
0.0
  0
ARC
  5
259
330
1F
100
AcDbEntity
  8
0
  6
Continuous
 62
     7
370
    15
100
AcDbCircle
 10
194.5156696925
 20
38.3325625123
 30
0.0
 40
1.5
100
AcDbArc
 50
180.0
 51
0.0
  0
ARC
  5
25A
330
1F
100
AcDbEntity
  8
0
  6
Continuous
 62
     7
370
    15
100
AcDbCircle
 10
194.5156696925
 20
38.3325625123
 30
0.0
 40
1.5
100
AcDbArc
 50
0.0
 51
180.0
  0
ARC
  5
25B
330
1F
100
AcDbEntity
  8
0
  6
Continuous
 62
     7
370
    15
100
AcDbCircle
 10
176.5156696925
 20
50.3325625123
 30
0.0
 40
1.5
100
AcDbArc
 50
0.0
 51
180.0
  0
ARC
  5
25C
330
1F
100
AcDbEntity
  8
0
  6
Continuous
 62
     7
370
    15
100
AcDbCircle
 10
185.5156696925
 20
44.3325625123
 30
0.0
 40
5.5
100
AcDbArc
 50
180.0
 51
0.0
  0
ARC
  5
25D
330
1F
100
AcDbEntity
  8
0
  6
Continuous
 62
     7
370
    15
100
AcDbCircle
 10
185.5156696925
 20
44.3325625123
 30
0.0
 40
5.5
100
AcDbArc
 50
0.0
 51
180.0
  0
LINE
  5
25E
330
1F
100
AcDbEntity
  8
0
  6
Continuous
 62
     7
370
    15
100
AcDbLine
 10
174.0156696701
 20
46.8325624564
 30
0.0
 11
175.1156696641
 21
46.8325624564
 31
0.0
  0
LINE
  5
25F
330
1F
100
AcDbEntity
  8
0
  6
Continuous
 62
     7
370
    15
100
AcDbLine
 10
175.1156696641
 20
41.8325625682
 30
0.0
 11
174.0156696701
 21
41.8325625682
 31
0.0
  0
LINE
  5
260
330
1F
100
AcDbEntity
  8
0
  6
Continuous
 62
     7
370
    15
100
AcDbLine
 10
195.9156697208
 20
46.8325624564
 30
0.0
 11
197.0156697148
 21
46.8325624564
 31
0.0
  0
LINE
  5
261
330
1F
100
AcDbEntity
  8
0
  6
Continuous
 62
     7
370
    15
100
AcDbLine
 10
197.0156697148
 20
41.8325625682
 30
0.0
 11
195.9156697208
 21
41.8325625682
 31
0.0
  0
LINE
  5
262
330
1F
100
AcDbEntity
  8
0
  6
Continuous
 62
     7
370
    15
100
AcDbLine
 10
174.0156696701
 20
36.132562472
 30
0.0
 11
171.0156701097
 21
36.132562472
 31
0.0
  0
LINE
  5
263
330
1F
100
AcDbEntity
  8
0
  6
Continuous
 62
     7
370
    15
100
AcDbLine
 10
171.0156701097
 20
36.132562472
 30
0.0
 11
171.0156701097
 21
52.5325625525
 31
0.0
  0
LINE
  5
264
330
1F
100
AcDbEntity
  8
0
  6
Continuous
 62
     7
370
    15
100
AcDbLine
 10
171.0156701097
 20
52.5325625525
 30
0.0
 11
174.0156696701
 21
52.5325625525
 31
0.0
  0
LINE
  5
265
330
1F
100
AcDbEntity
  8
0
  6
Continuous
 62
     7
370
    15
100
AcDbLine
 10
200.0156692752
 20
52.5325625525
 30
0.0
 11
200.0156692752
 21
36.132562472
 31
0.0
  0
LINE
  5
266
330
1F
100
AcDbEntity
  8
0
  6
Continuous
 62
     7
370
    15
100
AcDbLine
 10
200.0156692752
 20
36.132562472
 30
0.0
 11
197.0156697148
 21
36.132562472
 31
0.0
  0
LINE
  5
267
330
1F
100
AcDbEntity
  8
0
  6
Continuous
 62
     7
370
    15
100
AcDbLine
 10
197.0156697148
 20
52.5325625525
 30
0.0
 11
200.0156692752
 21
52.5325625525
 31
0.0
  0
LINE
  5
268
330
1F
100
AcDbEntity
  8
0
  6
Continuous
 62
     7
370
    15
100
AcDbLine
 10
175.3954538667
 20
47.4325626013
 30
0.0
 11
179.4156698102
 21
47.4325626013
 31
0.0
  0
LINE
  5
269
330
1F
100
AcDbEntity
  8
0
  6
Continuous
 62
     7
370
    15
100
AcDbLine
 10
195.6358855182
 20
41.2325624232
 30
0.0
 11
191.6156695747
 21
41.2325624232
 31
0.0
  0
LINE
  5
26A
330
1F
100
AcDbEntity
  8
0
  6
Continuous
 62
     7
370
    15
100
AcDbLine
 10
191.6156695747
 20
47.4325626013
 30
0.0
 11
195.6358855182
 21
47.4325626013
 31
0.0
  0
LINE
  5
26B
330
1F
100
AcDbEntity
  8
0
  6
Continuous
 62
     7
370
    15
100
AcDbLine
 10
179.4156698102
 20
41.2325624232
 30
0.0
 11
175.3954538667
 21
41.2325624232
 31
0.0
  0
LINE
  5
26C
330
1F
100
AcDbEntity
  8
0
  6
Continuous
 62
     7
370
    15
100
AcDbLine
 10
191.6156695747
 20
47.4325626013
 30
0.0
 11
191.6156695747
 21
41.2325624232
 31
0.0
  0
LINE
  5
26D
330
1F
100
AcDbEntity
  8
0
  6
Continuous
 62
     7
370
    15
100
AcDbLine
 10
197.0156697148
 20
52.5325625525
 30
0.0
 11
197.0156697148
 21
46.8325624564
 31
0.0
  0
LINE
  5
26E
330
1F
100
AcDbEntity
  8
0
  6
Continuous
 62
     7
370
    15
100
AcDbLine
 10
174.0156696701
 20
52.5325625525
 30
0.0
 11
197.0156697148
 21
52.5325625525
 31
0.0
  0
LINE
  5
26F
330
1F
100
AcDbEntity
  8
0
  6
Continuous
 62
     7
370
    15
100
AcDbLine
 10
174.0156696701
 20
46.8325624564
 30
0.0
 11
174.0156696701
 21
52.5325625525
 31
0.0
  0
LINE
  5
270
330
1F
100
AcDbEntity
  8
0
  6
Continuous
 62
     7
370
    15
100
AcDbLine
 10
179.4156698102
 20
41.2325624232
 30
0.0
 11
179.4156698102
 21
47.4325626013
 31
0.0
  0
LINE
  5
271
330
1F
100
AcDbEntity
  8
0
  6
Continuous
 62
     7
370
    15
100
AcDbLine
 10
174.0156696701
 20
36.132562472
 30
0.0
 11
174.0156696701
 21
41.8325625682
 31
0.0
  0
LINE
  5
272
330
1F
100
AcDbEntity
  8
0
  6
Continuous
 62
     7
370
    15
100
AcDbLine
 10
197.0156697148
 20
36.132562472
 30
0.0
 11
174.0156696701
 21
36.132562472
 31
0.0
  0
LINE
  5
273
330
1F
100
AcDbEntity
  8
0
  6
Continuous
 62
     7
370
    15
100
AcDbLine
 10
197.0156697148
 20
41.8325625682
 30
0.0
 11
197.0156697148
 21
36.132562472
 31
0.0
  0
SPLINE
  5
274
330
1F
100
AcDbEntity
  8
0
  6
Continuous
 62
     7
370
    15
100
AcDbSpline
210
0.0
220
0.0
230
1.0
 70
     8
 71
     3
 72
    19
 73
    15
 74
     0
 42
0.00000001
 43
0.00000001
 40
0.0
 40
0.0
 40
0.0
 40
0.0
 40
0.1197214690296562
 40
0.1848036165912857
 40
0.2499998349778422
 40
0.3150822257499549
 40
0.3802785850118491
 40
0.5000000540415053
 40
0.6197215230711615
 40
0.6848037162485093
 40
0.7499999973284531
 40
0.8150821717084497
 40
0.8802785309703439
 40
1.0
 40
1.0
 40
1.0
 40
1.0
 10
175.0156698340168
 20
50.33256256443671
 30
0.0
 10
175.0358158185094
 20
50.1439458113506
 30
0.0
 10
175.0669134221741
 20
49.85279453829543
 30
0.0
 10
175.2536444630809
 20
49.50311528538391
 30
0.0
 10
175.4474119123905
 20
49.26481909991162
 30
0.0
 10
175.6861334000614
 20
49.06965447572711
 30
0.0
 10
176.035690056073
 20
48.88879571605171
 30
0.0
 10
176.5156691752195
 20
48.79615521944518
 30
0.0
 10
176.9954730204831
 20
48.88876060998653
 30
0.0
 10
177.3450487768019
 20
49.06955560433388
 30
0.0
 10
177.5836758087545
 20
49.26456743604832
 30
0.0
 10
177.7775970953026
 20
49.50295744593182
 30
0.0
 10
177.96440169867
 20
49.85261711283314
 30
0.0
 10
177.9955217713407
 20
50.14394679810143
 30
0.0
 10
178.0156698600938
 20
50.33256256443671
 30
0.0
  0
SPLINE
  5
275
330
1F
100
AcDbEntity
  8
0
  6
Continuous
 62
     7
370
    15
100
AcDbSpline
210
0.0
220
0.0
230
1.0
 70
     8
 71
     3
 72
    19
 73
    15
 74
     0
 42
0.00000001
 43
0.00000001
 40
0.0
 40
0.0
 40
0.0
 40
0.0
 40
0.1197214782090683
 40
0.1848036763764674
 40
0.2499998997618178
 40
0.3150822328161175
 40
0.3802784665852271
 40
0.4999999262110922
 40
0.6197213858369574
 40
0.6848035840043565
 40
0.7500000237910862
 40
0.8150822031611327
 40
0.8802785217909318
 40
1.0
 40
1.0
 40
1.0
 40
1.0
 10
178.0156698600938
 20
50.33256256443671
 30
0.0
 10
177.9955239749889
 20
50.52117937550819
 30
0.0
 10
177.9644265170646
 20
50.81233080993621
 30
0.0
 10
177.7776946528359
 20
51.16200967610866
 30
0.0
 10
177.5839275327894
 20
51.4003061465602
 30
0.0
 10
177.3452056881903
 20
51.5954697407853
 30
0.0
 10
176.9956502622907
 20
51.77633015684331
 30
0.0
 10
176.5156708968341
 20
51.8689688421654
 30
0.0
 10
176.035867046096
 20
51.77636473502055
 30
0.0
 10
175.686291300614
 20
51.59556921469009
 30
0.0
 10
175.4476634817276
 20
51.40055802419847
 30
0.0
 10
175.2537420851801
 20
51.16216776172242
 30
0.0
 10
175.0669382078141
 20
50.81250784143312
 30
0.0
 10
175.0358180092493
 20
50.52117829040452
 30
0.0
 10
175.0156698340168
 20
50.33256256443671
 30
0.0
  0
SPLINE
  5
276
330
1F
100
AcDbEntity
  8
0
  6
Continuous
 62
     7
370
    15
100
AcDbSpline
210
0.0
220
0.0
230
1.0
 70
     8
 71
     3
 72
    19
 73
    15
 74
     0
 42
0.00000001
 43
0.00000001
 40
0.0
 40
0.0
 40
0.0
 40
0.0
 40
0.1197214782090683
 40
0.1848036763764674
 40
0.2499998997618178
 40
0.3150822328161175
 40
0.3802784665852271
 40
0.4999999262110922
 40
0.6197213858369574
 40
0.6848035840043565
 40
0.7500000237910862
 40
0.8150822031611327
 40
0.8802785217909318
 40
1.0
 40
1.0
 40
1.0
 40
1.0
 10
193.0156695248177
 20
38.33256246012859
 30
0.0
 10
193.0358154099226
 20
38.14394564905712
 30
0.0
 10
193.0669128678469
 20
37.8527942146291
 30
0.0
 10
193.2536447320755
 20
37.50311534845665
 30
0.0
 10
193.447411852122
 20
37.26481887800512
 30
0.0
 10
193.6861336967211
 20
37.06965528378002
 30
0.0
 10
194.0356891226207
 20
36.88879486772199
 30
0.0
 10
194.5156684880774
 20
36.79615618239991
 30
0.0
 10
194.9954723388154
 20
36.88876028954476
 30
0.0
 10
195.3450480842974
 20
37.06955580987521
 30
0.0
 10
195.5836759031838
 20
37.26456700036683
 30
0.0
 10
195.7775972997314
 20
37.5029572628429
 30
0.0
 10
195.9644011770973
 20
37.85261718313219
 30
0.0
 10
195.9955213756621
 20
38.14394673416079
 30
0.0
 10
196.0156695508947
 20
38.33256246012859
 30
0.0
  0
SPLINE
  5
277
330
1F
100
AcDbEntity
  8
0
  6
Continuous
 62
     7
370
    15
100
AcDbSpline
210
0.0
220
0.0
230
1.0
 70
     8
 71
     3
 72
    19
 73
    15
 74
     0
 42
0.00000001
 43
0.00000001
 40
0.0
 40
0.0
 40
0.0
 40
0.0
 40
0.1197214690296562
 40
0.1848036165912857
 40
0.2499998349778422
 40
0.3150822257499549
 40
0.3802785850118491
 40
0.5000000540415053
 40
0.6197215230711615
 40
0.6848037162485093
 40
0.7499999973284531
 40
0.8150821717084497
 40
0.8802785309703439
 40
1.0
 40
1.0
 40
1.0
 40
1.0
 10
196.0156695508947
 20
38.33256246012859
 30
0.0
 10
195.995523566402
 20
38.52117921321472
 30
0.0
 10
195.9644259627373
 20
38.81233048626989
 30
0.0
 10
195.7776949218305
 20
39.1620097391814
 30
0.0
 10
195.583927472521
 20
39.40030592465369
 30
0.0
 10
195.3452059848501
 20
39.5954705488382
 30
0.0
 10
194.9956493288384
 20
39.7763293085136
 30
0.0
 10
194.515670209692
 20
39.86896980512013
 30
0.0
 10
194.0358663644284
 20
39.77636441457877
 30
0.0
 10
193.6862906081096
 20
39.59556942023143
 30
0.0
 10
193.4476635761569
 20
39.400557588517
 30
0.0
 10
193.2537422896089
 20
39.16216757863349
 30
0.0
 10
193.0669376862415
 20
38.81250791173217
 30
0.0
 10
193.0358176135707
 20
38.52117822646388
 30
0.0
 10
193.0156695248177
 20
38.33256246012859
 30
0.0
  0
SPLINE
  5
278
330
1F
100
AcDbEntity
  8
0
  6
Continuous
 62
     7
370
    15
100
AcDbSpline
210
0.0
220
0.0
230
1.0
 70
     8
 71
     3
 72
    19
 73
    15
 74
     0
 42
0.00000001
 43
0.00000001
 40
0.0
 40
0.0
 40
0.0
 40
0.0
 40
0.1197214702026556
 40
0.1847751487262257
 40
0.2499998783287873
 40
0.3150537724415363
 40
0.3802783722479799
 40
0.4999999607133095
 40
0.6197215491786392
 40
0.6847751640130912
 40
0.7500000089011016
 40
0.8150536936878026
 40
0.8802785576723694
 40
1.0
 40
1.0
 40
1.0
 40
1.0
 10
176.915669400393
 20
39.13256249812655
 30
0.0
 10
176.9291000546947
 20
39.00681793460292
 30
0.0
 10
176.9498285935433
 20
38.8127468929822
 30
0.0
 10
177.0743031336747
 20
38.57962378105104
 30
0.0
 10
177.2034561936115
 20
38.42077549428556
 30
0.0
 10
177.3626193832157
 20
38.29064070819792
 30
0.0
 10
177.5956533177273
 20
38.17005683913996
 30
0.0
 10
177.9156686894614
 20
38.10829099532949
 30
0.0
 10
178.2355089129933
 20
38.17002200679469
 30
0.0
 10
178.4685625198026
 20
38.29054173661559
 30
0.0
 10
178.6276320821524
 20
38.42052354566264
 30
0.0
 10
178.756937965755
 20
38.57946647123325
 30
0.0
 10
178.8814867364727
 20
38.81256941355029
 30
0.0
 10
178.9022372691113
 20
39.00681885183852
 30
0.0
 10
178.9156697282185
 20
39.13256249812655
 30
0.0
  0
SPLINE
  5
279
330
1F
100
AcDbEntity
  8
0
  6
Continuous
 62
     7
370
    15
100
AcDbSpline
210
0.0
220
0.0
230
1.0
 70
     8
 71
     3
 72
    19
 73
    15
 74
     0
 42
0.00000001
 43
0.00000001
 40
0.0
 40
0.0
 40
0.0
 40
0.0
 40
0.1197214352342247
 40
0.184775109903413
 40
0.2499998356414582
 40
0.3150536106411019
 40
0.3802784707611443
 40
0.5000000521330594
 40
0.6197216335049746
 40
0.6847752444850486
 40
0.7499999702230937
 40
0.8150537452227374
 40
0.8802785368907519
 40
1.0
 40
1.0
 40
1.0
 40
1.0
 10
178.9156697282185
 20
39.13256249812655
 30
0.0
 10
178.9022392729778
 20
39.25830706486639
 30
0.0
 10
178.881511039656
 20
39.45237812735955
 30
0.0
 10
178.7570364683178
 20
39.68550124078158
 30
0.0
 10
178.6278834027576
 20
39.84434930158989
 30
0.0
 10
178.468720480594
 20
39.97448471916571
 30
0.0
 10
178.2356859006544
 20
40.09506775555619
 30
0.0
 10
177.9156704842411
 20
40.15683413841941
 30
0.0
 10
177.5958302640185
 20
40.09510291277031
 30
0.0
 10
177.3627766094957
 20
39.97458343375865
 30
0.0
 10
177.2037075642733
 20
39.84460111104247
 30
0.0
 10
177.0744010055581
 20
39.68565883440578
 30
0.0
 10
176.9498531919597
 20
39.45255529897027
 30
0.0
 10
176.9291021774833
 20
39.25830606743936
 30
0.0
 10
176.915669400393
 20
39.13256249812655
 30
0.0
  0
SPLINE
  5
27A
330
1F
100
AcDbEntity
  8
0
  6
Continuous
 62
     7
370
    15
100
AcDbSpline
210
0.0
220
0.0
230
1.0
 70
     8
 71
     3
 72
    33
 73
    29
 74
     0
 42
0.00000001
 43
0.00000001
 40
0.0
 40
0.0
 40
0.0
 40
0.0
 40
0.040115170802704
 40
0.0799033595728071
 40
0.120004370169625
 40
0.152158387551297
 40
0.1843428928569038
 40
0.2499625308989365
 40
0.2828007201879702
 40
0.3156700675848775
 40
0.3478240862482418
 40
0.3800085955349756
 40
0.4211442298438516
 40
0.4611692881938496
 40
0.5000043374475951
 40
0.5388120190336317
 40
0.5788374330528185
 40
0.6200000856404868
 40
0.6521541030221588
 40
0.6843386083277656
 40
0.7499582463697984
 40
0.7827964356588321
 40
0.8156657830557394
 40
0.8478198017191038
 40
0.8800043110058375
 40
0.9211399453147135
 40
0.9611581101944494
 40
1.0
 40
1.0
 40
1.0
 40
1.0
 10
180.0156697222581
 20
44.33256251228264
 30
0.0
 10
180.0238413960569
 20
44.10151468744403
 30
0.0
 10
180.0401181356744
 20
43.64130232745206
 30
0.0
 10
180.1746895454902
 20
42.96100612160235
 30
0.0
 10
180.3741176070471
 20
42.34634067209223
 30
0.0
 10
180.6236991901506
 20
41.7982502134488
 30
0.0
 10
181.0013804073926
 20
41.15153494548724
 30
0.0
 10
181.479513696609
 20
40.56296185775457
 30
0.0
 10
182.0415101963749
 20
40.05598776280872
 30
0.0
 10
182.4973790206267
 20
39.72337929500353
 30
0.0
 10
182.981238253033
 20
39.44060998542886
 30
0.0
 10
183.534642485989
 20
39.18867505848103
 30
0.0
 10
184.157194529487
 20
38.98750944251202
 30
0.0
 10
184.83785159417
 20
38.86024051671384
 30
0.0
 10
185.5155133849671
 20
38.818935148654
 30
0.0
 10
186.1931693130832
 20
38.86023931698641
 30
0.0
 10
186.8738529161545
 20
38.98739438929216
 30
0.0
 10
187.4963776251143
 20
39.18854630480109
 30
0.0
 10
188.0499685466586
 20
39.44057488974329
 30
0.0
 10
188.696704981314
 20
39.81828345430313
 30
0.0
 10
189.2852712675144
 20
40.29640486971824
 30
0.0
 10
189.7922408859684
 20
40.85840332519692
 30
0.0
 10
190.1248672160731
 20
41.31427176700652
 30
0.0
 10
190.4075698063501
 20
41.7981310655784
 30
0.0
 10
190.659776224344
 20
42.35153541825646
 30
0.0
 10
190.8596486381323
 20
42.97404890726676
 30
0.0
 10
190.9917523324035
 20
43.65470648053138
 30
0.0
 10
191.0077768932516
 20
44.10886859283885
 30
0.0
 10
191.0156696626534
 20
44.33256251228264
 30
0.0
  0
SPLINE
  5
27B
330
1F
100
AcDbEntity
  8
0
  6
Continuous
 62
     7
370
    15
100
AcDbSpline
210
0.0
220
0.0
230
1.0
 70
     8
 71
     3
 72
    33
 73
    29
 74
     0
 42
0.00000001
 43
0.00000001
 40
0.0
 40
0.0
 40
0.0
 40
0.0
 40
0.040115170802706
 40
0.079903359572809
 40
0.1200043701696266
 40
0.1521583875512986
 40
0.1843428928569052
 40
0.2499625308989376
 40
0.2828007201879712
 40
0.3156700675848783
 40
0.3478240862482426
 40
0.3800085955349762
 40
0.421144229843852
 40
0.4611692881938499
 40
0.5000043374475965
 40
0.5388120190336316
 40
0.5788374330528183
 40
0.6200000856404864
 40
0.6521541030221584
 40
0.6843386083277649
 40
0.7499582463697975
 40
0.7827964356588311
 40
0.8156657830557382
 40
0.8478198017191024
 40
0.8800043110058361
 40
0.9211399453147119
 40
0.9611581101944476
 40
1.0
 40
1.0
 40
1.0
 40
1.0
 10
191.0156696626534
 20
44.33256251228264
 30
0.0
 10
191.0074979888545
 20
44.56361033712125
 30
0.0
 10
190.9912212492371
 20
45.02382269711324
 30
0.0
 10
190.8566498394213
 20
45.70411890296295
 30
0.0
 10
190.6572217778644
 20
46.31878435247308
 30
0.0
 10
190.4076401947609
 20
46.86687481111651
 30
0.0
 10
190.0299589775188
 20
47.51359007907807
 30
0.0
 10
189.5518256883024
 20
48.10216316681073
 30
0.0
 10
188.9898291885365
 20
48.60913726175659
 30
0.0
 10
188.5339603642847
 20
48.94174572956178
 30
0.0
 10
188.0501011318784
 20
49.22451503913645
 30
0.0
 10
187.4966968989224
 20
49.47644996608428
 30
0.0
 10
186.8741448554245
 20
49.67761558205329
 30
0.0
 10
186.1934877907414
 20
49.80488450785148
 30
0.0
 10
185.5158259999444
 20
49.84618987591131
 30
0.0
 10
184.8381700718283
 20
49.8048857075789
 30
0.0
 10
184.1574864687569
 20
49.67773063527314
 30
0.0
 10
183.5349617597972
 20
49.47657871976421
 30
0.0
 10
182.9813708382529
 20
49.22455013482202
 30
0.0
 10
182.3346344035975
 20
48.84684157026217
 30
0.0
 10
181.746068117397
 20
48.36872015484707
 30
0.0
 10
181.2390984989431
 20
47.80672169936839
 30
0.0
 10
180.9064721688384
 20
47.35085325755879
 30
0.0
 10
180.6237695785613
 20
46.8669939589869
 30
0.0
 10
180.3715631605674
 20
46.31358960630885
 30
0.0
 10
180.1716907467791
 20
45.69107611729854
 30
0.0
 10
180.0395870525079
 20
45.01041854403392
 30
0.0
 10
180.0235624916598
 20
44.55625643172643
 30
0.0
 10
180.0156697222581
 20
44.33256251228264
 30
0.0
  0
CIRCLE
  5
27C
330
1F
100
AcDbEntity
  8
SLD-0
100
AcDbCircle
 10
176.5156696925
 20
50.3325625123
 30
0.0
 40
1.530059622917231
  0
CIRCLE
  5
27D
330
1F
100
AcDbEntity
  8
SLD-0
100
AcDbCircle
 10
194.5156696925
 20
38.3325625123
 30
0.0
 40
1.544444896207865
  0
DIMENSION
  5
27E
330
1F
100
AcDbEntity
  8
SLD-0
100
AcDbDimension
  2
*D32
 10
176.5156696925
 20
27.9190982818
 30
0.0
 11
185.5156696925
 21
27.9190982818
 31
0.0
 70
   160
 71
     2
 42
-1.0
  3
SLDDIMSTYLE1
100
AcDbAlignedDimension
 13
194.5156696925
 23
34.2881176161
 33
0.0
 14
176.5156696925
 24
46.3025028894
 34
0.0
100
AcDbRotatedDimension
  0
DIMENSION
  5
288
330
1F
100
AcDbEntity
  8
SLD-0
100
AcDbDimension
  2
*D33
 10
197.0156696925
 20
18.0773738683
 30
0.0
 11
185.5156696925
 21
18.0773738683
 31
0.0
 70
   160
 71
     2
 42
-1.0
  3
SLDDIMSTYLE1
100
AcDbAlignedDimension
 13
174.0156696925
 23
36.1325625123
 33
0.0
 14
197.0156696925
 24
36.1325625123
 34
0.0
100
AcDbRotatedDimension
  0
DIMENSION
  5
292
330
1F
100
AcDbEntity
  8
SLD-0
100
AcDbDimension
  2
*D34
 10
161.0156696925
 20
38.3325625123
 30
0.0
 11
161.0156696925
 21
44.3325625123
 31
0.0
 70
   160
 71
     2
 42
-1.0
  3
SLDDIMSTYLE0
100
AcDbAlignedDimension
 13
172.4856100695
 23
50.3325625123
 33
0.0
 14
190.4712247962
 24
38.3325625123
 34
0.0
 50
90.0
100
AcDbRotatedDimension
  0
DIMENSION
  5
29E
330
1F
100
AcDbEntity
  8
SLD-0
100
AcDbDimension
  2
*D35
 10
152.8164615044
 20
36.1325625123
 30
0.0
 11
152.8164615044
 21
44.3325625123
 31
0.0
 70
   160
 71
     2
 42
-1.0
  3
SLDDIMSTYLE0
100
AcDbAlignedDimension
 13
171.0156696925
 23
52.5325625123
 33
0.0
 14
171.0156696925
 24
36.1325625123
 34
0.0
 50
90.0
100
AcDbRotatedDimension
  0
INSERT
  5
2B4
330
1F
100
AcDbEntity
  8
SLD-0
100
AcDbBlockReference
  2
SW_NOTE_4
 10
205.6993986893
 20
52.9516639656
 30
0.0
  0
LEADER
  5
2B5
330
1F
100
AcDbEntity
  8
SLD-0
100
AcDbLeader
  3
SLDDIMSTYLE2
 76
     2
 10
195.8739007137
 20
39.0677621656
 30
0.0
 10
205.6993986893
 20
52.9516639656
 30
0.0
  0
INSERT
  5
2C1
330
1F
100
AcDbEntity
  8
SLD-0
100
AcDbBlockReference
  2
SW_CENTERMARKSYMBOL_8
 10
176.5156696925
 20
50.3325625123
 30
0.0
  0
INSERT
  5
2CD
330
1F
100
AcDbEntity
  8
SLD-0
100
AcDbBlockReference
  2
SW_CENTERMARKSYMBOL_9
 10
194.5156696925
 20
38.3325625123
 30
0.0
  0
LINE
  5
2CE
330
1F
100
AcDbEntity
  8
SLD-0
  6
CENTERX2
370
     0
100
AcDbLine
 10
185.5156696925
 20
34.1325625123
 30
0.0
 11
185.5156696925
 21
54.5325625123
 31
0.0
  0
ENDSEC
  0
SECTION
  2
OBJECTS
  0
DICTIONARY
  5
C
330
0
100
AcDbDictionary
281
     1
  3
ACAD_GROUP
350
D
  3
ACAD_LAYOUT
350
1A
  3
ACAD_MLINESTYLE
350
17
  3
ACAD_PLOTSETTINGS
350
19
  3
ACAD_PLOTSTYLENAME
350
E
  3
ACAD_SCALELIST
350
51
  3
AcDbVariableDictionary
350
2CF
  0
DICTIONARY
  5
D
102
{ACAD_REACTORS
330
C
102
}
330
C
100
AcDbDictionary
281
     1
  0
DICTIONARY
  5
1A
102
{ACAD_REACTORS
330
C
102
}
330
C
100
AcDbDictionary
281
     1
  3
Layout1
350
1E
  3
Layout2
350
26
  3
Model
350
22
  0
DICTIONARY
  5
17
102
{ACAD_REACTORS
330
C
102
}
330
C
100
AcDbDictionary
281
     1
  3
Standard
350
18
  0
DICTIONARY
  5
19
102
{ACAD_REACTORS
330
C
102
}
330
C
100
AcDbDictionary
281
     1
  0
ACDBDICTIONARYWDFLT
  5
E
102
{ACAD_REACTORS
330
C
102
}
330
C
100
AcDbDictionary
281
     1
  3
Normal
350
F
100
AcDbDictionaryWithDefault
340
F
  0
DICTIONARY
  5
51
102
{ACAD_REACTORS
330
C
102
}
330
C
100
AcDbDictionary
281
     1
  3
A0
350
52
  3
A1
350
53
  3
A2
350
54
  3
A3
350
55
  3
A4
350
56
  3
A5
350
57
  3
A6
350
58
  3
A7
350
59
  3
A8
350
5A
  3
A9
350
5B
  3
B0
350
5C
  3
B1
350
5D
  3
B2
350
5E
  3
B3
350
5F
  3
B4
350
60
  3
B5
350
61
  3
B6
350
62
  3
B7
350
63
  3
B8
350
64
  3
B9
350
65
  3
C0
350
66
  3
C1
350
67
  3
C2
350
68
  3
C3
350
69
  3
C4
350
6A
  3
C5
350
6B
  3
C6
350
6C
  3
C7
350
6D
  3
C8
350
6E
  3
C9
350
6F
  3
D0
350
70
  3
D1
350
71
  3
D2
350
72
  0
DICTIONARY
  5
2CF
102
{ACAD_REACTORS
330
C
102
}
330
C
100
AcDbDictionary
281
     1
  3
CANNOSCALE
350
2D0
  0
LAYOUT
  5
1E
102
{ACAD_REACTORS
330
1A
102
}
330
1A
100
AcDbPlotSettings
  1

  2
none_device
  4

  6

 40
0.0
 41
0.0
 42
0.0
 43
0.0
 44
0.0
 45
0.0
 46
0.0
 47
0.0
 48
0.0
 49
0.0
140
0.0
141
0.0
142
1.0
143
1.0
 70
   688
 72
     0
 73
     0
 74
     5
  7

 75
    16
147
1.0
148
0.0
149
0.0
100
AcDbLayout
  1
Layout1
 70
     1
 71
     1
 10
0.0
 20
0.0
 11
420.0
 21
297.0
 12
0.0
 22
0.0
 32
0.0
 14
1.0000000000E+20
 24
1.0000000000E+20
 34
1.0000000000E+20
 15
-1.0000000000E+20
 25
-1.0000000000E+20
 35
-1.0000000000E+20
146
0.0
 13
0.0
 23
0.0
 33
0.0
 16
1.0
 26
0.0
 36
0.0
 17
0.0
 27
1.0
 37
0.0
 76
     0
330
1B
  0
LAYOUT
  5
26
102
{ACAD_REACTORS
330
1A
102
}
330
1A
100
AcDbPlotSettings
  1

  2
none_device
  4

  6

 40
0.0
 41
0.0
 42
0.0
 43
0.0
 44
0.0
 45
0.0
 46
0.0
 47
0.0
 48
0.0
 49
0.0
140
0.0
141
0.0
142
1.0
143
1.0
 70
   688
 72
     0
 73
     0
 74
     5
  7

 75
    16
147
1.0
148
0.0
149
0.0
100
AcDbLayout
  1
Layout2
 70
     1
 71
     2
 10
0.0
 20
0.0
 11
0.0
 21
0.0
 12
0.0
 22
0.0
 32
0.0
 14
0.0
 24
0.0
 34
0.0
 15
0.0
 25
0.0
 35
0.0
146
0.0
 13
0.0
 23
0.0
 33
0.0
 16
1.0
 26
0.0
 36
0.0
 17
0.0
 27
1.0
 37
0.0
 76
     0
330
23
  0
LAYOUT
  5
22
102
{ACAD_REACTORS
330
1A
102
}
330
1A
100
AcDbPlotSettings
  1

  2
none_device
  4

  6

 40
0.0
 41
0.0
 42
0.0
 43
0.0
 44
0.0
 45
0.0
 46
0.0
 47
0.0
 48
0.0
 49
0.0
140
0.0
141
0.0
142
1.0
143
1.0
 70
  1712
 72
     0
 73
     0
 74
     0
  7

 75
     0
147
1.0
148
0.0
149
0.0
100
AcDbLayout
  1
Model
 70
     1
 71
     0
 10
0.0
 20
0.0
 11
420.0
 21
297.0
 12
0.0
 22
0.0
 32
0.0
 14
0.0
 24
0.0
 34
0.0
 15
420.0
 25
297.0
 35
0.0
146
0.0
 13
0.0
 23
0.0
 33
0.0
 16
1.0
 26
0.0
 36
0.0
 17
0.0
 27
1.0
 37
0.0
 76
     0
330
1F
331
29
  0
MLINESTYLE
  5
18
102
{ACAD_REACTORS
330
17
102
}
330
17
100
AcDbMlineStyle
  2
Standard
 70
     0
  3

 62
   256
 51
90.0
 52
90.0
 71
     2
 49
0.5
 62
   256
  6
BYLAYER
 49
-0.5
 62
   256
  6
BYLAYER
  0
ACDBPLACEHOLDER
  5
F
102
{ACAD_REACTORS
330
E
102
}
330
E
  0
SCALE
  5
52
102
{ACAD_REACTORS
330
51
102
}
330
51
100
AcDbScale
 70
     0
300
1:1
140
1.0
141
1.0
290
     1
  0
SCALE
  5
53
102
{ACAD_REACTORS
330
51
102
}
330
51
100
AcDbScale
 70
     0
300
1:2
140
1.0
141
2.0
290
     0
  0
SCALE
  5
54
102
{ACAD_REACTORS
330
51
102
}
330
51
100
AcDbScale
 70
     0
300
1:4
140
1.0
141
4.0
290
     0
  0
SCALE
  5
55
102
{ACAD_REACTORS
330
51
102
}
330
51
100
AcDbScale
 70
     0
300
1:5
140
1.0
141
5.0
290
     0
  0
SCALE
  5
56
102
{ACAD_REACTORS
330
51
102
}
330
51
100
AcDbScale
 70
     0
300
1:8
140
1.0
141
8.0
290
     0
  0
SCALE
  5
57
102
{ACAD_REACTORS
330
51
102
}
330
51
100
AcDbScale
 70
     0
300
1:10
140
1.0
141
10.0
290
     0
  0
SCALE
  5
58
102
{ACAD_REACTORS
330
51
102
}
330
51
100
AcDbScale
 70
     0
300
1:16
140
1.0
141
16.0
290
     0
  0
SCALE
  5
59
102
{ACAD_REACTORS
330
51
102
}
330
51
100
AcDbScale
 70
     0
300
1:20
140
1.0
141
20.0
290
     0
  0
SCALE
  5
5A
102
{ACAD_REACTORS
330
51
102
}
330
51
100
AcDbScale
 70
     0
300
1:30
140
1.0
141
30.0
290
     0
  0
SCALE
  5
5B
102
{ACAD_REACTORS
330
51
102
}
330
51
100
AcDbScale
 70
     0
300
1:40
140
1.0
141
40.0
290
     0
  0
SCALE
  5
5C
102
{ACAD_REACTORS
330
51
102
}
330
51
100
AcDbScale
 70
     0
300
1:50
140
1.0
141
50.0
290
     0
  0
SCALE
  5
5D
102
{ACAD_REACTORS
330
51
102
}
330
51
100
AcDbScale
 70
     0
300
1:100
140
1.0
141
100.0
290
     0
  0
SCALE
  5
5E
102
{ACAD_REACTORS
330
51
102
}
330
51
100
AcDbScale
 70
     0
300
2:1
140
2.0
141
1.0
290
     0
  0
SCALE
  5
5F
102
{ACAD_REACTORS
330
51
102
}
330
51
100
AcDbScale
 70
     0
300
4:1
140
4.0
141
1.0
290
     0
  0
SCALE
  5
60
102
{ACAD_REACTORS
330
51
102
}
330
51
100
AcDbScale
 70
     0
300
8:1
140
8.0
141
1.0
290
     0
  0
SCALE
  5
61
102
{ACAD_REACTORS
330
51
102
}
330
51
100
AcDbScale
 70
     0
300
10:1
140
10.0
141
1.0
290
     0
  0
SCALE
  5
62
102
{ACAD_REACTORS
330
51
102
}
330
51
100
AcDbScale
 70
     0
300
100:1
140
100.0
141
1.0
290
     0
  0
SCALE
  5
63
102
{ACAD_REACTORS
330
51
102
}
330
51
100
AcDbScale
 70
     0
300
1/128" = 1'-0"
140
0.0078125
141
12.0
290
     0
  0
SCALE
  5
64
102
{ACAD_REACTORS
330
51
102
}
330
51
100
AcDbScale
 70
     0
300
1/64" = 1'-0"
140
0.015625
141
12.0
290
     0
  0
SCALE
  5
65
102
{ACAD_REACTORS
330
51
102
}
330
51
100
AcDbScale
 70
     0
300
1/32" = 1'-0"
140
0.03125
141
12.0
290
     0
  0
SCALE
  5
66
102
{ACAD_REACTORS
330
51
102
}
330
51
100
AcDbScale
 70
     0
300
1/16" = 1'-0"
140
0.0625
141
12.0
290
     0
  0
SCALE
  5
67
102
{ACAD_REACTORS
330
51
102
}
330
51
100
AcDbScale
 70
     0
300
3/32" = 1'-0"
140
0.09375
141
12.0
290
     0
  0
SCALE
  5
68
102
{ACAD_REACTORS
330
51
102
}
330
51
100
AcDbScale
 70
     0
300
1/8" = 1'-0"
140
0.125
141
12.0
290
     0
  0
SCALE
  5
69
102
{ACAD_REACTORS
330
51
102
}
330
51
100
AcDbScale
 70
     0
300
3/16" = 1'-0"
140
0.1875
141
12.0
290
     0
  0
SCALE
  5
6A
102
{ACAD_REACTORS
330
51
102
}
330
51
100
AcDbScale
 70
     0
300
1/4" = 1'-0"
140
0.25
141
12.0
290
     0
  0
SCALE
  5
6B
102
{ACAD_REACTORS
330
51
102
}
330
51
100
AcDbScale
 70
     0
300
3/8" = 1'-0"
140
0.375
141
12.0
290
     0
  0
SCALE
  5
6C
102
{ACAD_REACTORS
330
51
102
}
330
51
100
AcDbScale
 70
     0
300
1/2" = 1'-0"
140
0.5
141
12.0
290
     0
  0
SCALE
  5
6D
102
{ACAD_REACTORS
330
51
102
}
330
51
100
AcDbScale
 70
     0
300
3/4" = 1'-0"
140
0.75
141
12.0
290
     0
  0
SCALE
  5
6E
102
{ACAD_REACTORS
330
51
102
}
330
51
100
AcDbScale
 70
     0
300
1" = 1'-0"
140
1.0
141
12.0
290
     0
  0
SCALE
  5
6F
102
{ACAD_REACTORS
330
51
102
}
330
51
100
AcDbScale
 70
     0
300
1-1/2" = 1'-0"
140
1.5
141
12.0
290
     0
  0
SCALE
  5
70
102
{ACAD_REACTORS
330
51
102
}
330
51
100
AcDbScale
 70
     0
300
3" = 1'-0"
140
3.0
141
12.0
290
     0
  0
SCALE
  5
71
102
{ACAD_REACTORS
330
51
102
}
330
51
100
AcDbScale
 70
     0
300
6" = 1'-0"
140
6.0
141
12.0
290
     0
  0
SCALE
  5
72
102
{ACAD_REACTORS
330
51
102
}
330
51
100
AcDbScale
 70
     0
300
1'-0" = 1'-0"
140
12.0
141
12.0
290
     0
  0
DICTIONARYVAR
  5
2D0
102
{ACAD_REACTORS
330
2CF
102
}
330
2CF
100
DictionaryVariables
280
     0
  1
1:1
  0
ENDSEC
  0
EOF
