  0
SECTION
  2
HEADER
  9
$ACADVER
  1
AC1015
  9
$ACADMAINTVER
 70
     6
  9
$DWGCODEPAGE
  3
DOS932
  9
$INSBASE
 10
0.0
 20
0.0
 30
0.0
  9
$EXTMIN
 10
0.0
 20
0.0
 30
0.0
  9
$EXTMAX
 10
420.0
 20
297.0
 30
0.0
  9
$LIMMIN
 10
0.0
 20
0.0
  9
$LIMMAX
 10
420.0
 20
297.0
  9
$ORTHOMODE
 70
     0
  9
$REGENMODE
 70
     1
  9
$FILLMODE
 70
     1
  9
$QTEXTMODE
 70
     0
  9
$MIRRTEXT
 70
     1
  9
$LTSCALE
 40
1.0
  9
$ATTMODE
 70
     1
  9
$TEXTSIZE
 40
3.5
  9
$TRACEWID
 40
1.0
  9
$TEXTSTYLE
  7
Standard
  9
$CLAYER
  8
0
  9
$CELTYPE
  6
ByLayer
  9
$CECOLOR
 62
   256
  9
$CELTSCALE
 40
1.0
  9
$DISPSILH
 70
     0
  9
$DIMSCALE
 40
1.0
  9
$DIMASZ
 40
3.0
  9
$DIMEXO
 40
1.0
  9
$DIMDLI
 40
3.75
  9
$DIMRND
 40
0.0
  9
$DIMDLE
 40
0.0
  9
$DIMEXE
 40
1.0
  9
$DIMTP
 40
0.0
  9
$DIMTM
 40
0.0
  9
$DIMTXT
 40
3.5
  9
$DIMCEN
 40
2.5
  9
$DIMTSZ
 40
0.0
  9
$DIMTOL
 70
     0
  9
$DIMLIM
 70
     0
  9
$DIMTIH
 70
     1
  9
$DIMTOH
 70
     1
  9
$DIMSE1
 70
     0
  9
$DIMSE2
 70
     0
  9
$DIMTAD
 70
     1
  9
$DIMZIN
 70
     0
  9
$DIMBLK
  1

  9
$DIMASO
 70
     1
  9
$DIMSHO
 70
     1
  9
$DIMPOST
  1

  9
$DIMAPOST
  1

  9
$DIMALT
 70
     0
  9
$DIMALTD
 70
     3
  9
$DIMALTF
 40
0.0393700787
  9
$DIMLFAC
 40
1.0
  9
$DIMTOFL
 70
     1
  9
$DIMTVP
 40
0.0
  9
$DIMTIX
 70
     0
  9
$DIMSOXD
 70
     0
  9
$DIMSAH
 70
     0
  9
$DIMBLK1
  1

  9
$DIMBLK2
  1

  9
$DIMSTYLE
  2
ISO-25
  9
$DIMCLRD
 70
     0
  9
$DIMCLRE
 70
     0
  9
$DIMCLRT
 70
     0
  9
$DIMTFAC
 40
1.0
  9
$DIMGAP
 40
1.524
  9
$DIMJUST
 70
     0
  9
$DIMSD1
 70
     0
  9
$DIMSD2
 70
     0
  9
$DIMTOLJ
 70
     0
  9
$DIMTZIN
 70
     0
  9
$DIMALTZ
 70
     0
  9
$DIMALTTZ
 70
     0
  9
$DIMUPT
 70
     0
  9
$DIMDEC
 70
     1
  9
$DIMTDEC
 70
     2
  9
$DIMALTU
 70
     2
  9
$DIMALTTD
 70
     3
  9
$DIMTXSTY
  7
Standard
  9
$DIMAUNIT
 70
     0
  9
$DIMADEC
 70
     2
  9
$DIMALTRND
 40
0.0
  9
$DIMAZIN
 70
     0
  9
$DIMDSEP
 70
    44
  9
$DIMATFIT
 70
     3
  9
$DIMFRAC
 70
     0
  9
$DIMLDRBLK
  1

  9
$DIMLUNIT
 70
     2
  9
$DIMLWD
 70
    -2
  9
$DIMLWE
 70
    -2
  9
$DIMTMOVE
 70
     0
  9
$LUNITS
 70
     2
  9
$LUPREC
 70
     1
  9
$SKETCHINC
 40
1.0
  9
$FILLETRAD
 40
10.0
  9
$AUNITS
 70
     0
  9
$AUPREC
 70
     2
  9
$MENU
  1
.
  9
$ELEVATION
 40
0.0
  9
$PELEVATION
 40
0.0
  9
$THICKNESS
 40
0.0
  9
$LIMCHECK
 70
     0
  9
$CHAMFERA
 40
10.0
  9
$CHAMFERB
 40
10.0
  9
$CHAMFERC
 40
20.0
  9
$CHAMFERD
 40
0.0
  9
$SKPOLY
 70
     0
  9
$TDCREATE
 40
2456315.802377026
  9
$TDUCREATE
 40
2456315.427377026
  9
$TDUPDATE
 40
2456315.802377037
  9
$TDUUPDATE
 40
2456315.427377037
  9
$TDINDWG
 40
0.0000000116
  9
$TDUSRTIMER
 40
0.0000000116
  9
$USRTIMER
 70
     1
  9
$ANGBASE
 50
0.0
  9
$ANGDIR
 70
     0
  9
$PDMODE
 70
     0
  9
$PDSIZE
 40
-1.0
  9
$PLINEWID
 40
0.0
  9
$SPLFRAME
 70
     0
  9
$SPLINETYPE
 70
     6
  9
$SPLINESEGS
 70
     8
  9
$HANDSEED
  5
2D1
  9
$SURFTAB1
 70
     6
  9
$SURFTAB2
 70
     6
  9
$SURFTYPE
 70
     6
  9
$SURFU
 70
     6
  9
$SURFV
 70
     6
  9
$UCSBASE
  2

  9
$UCSNAME
  2

  9
$UCSORG
 10
0.0
 20
0.0
 30
0.0
  9
$UCSXDIR
 10
1.0
 20
0.0
 30
0.0
  9
$UCSYDIR
 10
0.0
 20
1.0
 30
0.0
  9
$UCSORTHOREF
  2

  9
$UCSORTHOVIEW
 70
     0
  9
$UCSORGTOP
 10
0.0
 20
0.0
 30
0.0
  9
$UCSORGBOTTOM
 10
0.0
 20
0.0
 30
0.0
  9
$UCSORGLEFT
 10
0.0
 20
0.0
 30
0.0
  9
$UCSORGRIGHT
 10
0.0
 20
0.0
 30
0.0
  9
$UCSORGFRONT
 10
0.0
 20
0.0
 30
0.0
  9
$UCSORGBACK
 10
0.0
 20
0.0
 30
0.0
  9
$PUCSBASE
  2

  9
$PUCSNAME
  2

  9
$PUCSORG
 10
0.0
 20
0.0
 30
0.0
  9
$PUCSXDIR
 10
1.0
 20
0.0
 30
0.0
  9
$PUCSYDIR
 10
0.0
 20
1.0
 30
0.0
  9
$PUCSORTHOREF
  2

  9
$PUCSORTHOVIEW
 70
     0
  9
$PUCSORGTOP
 10
0.0
 20
0.0
 30
0.0
  9
$PUCSORGBOTTOM
 10
0.0
 20
0.0
 30
0.0
  9
$PUCSORGLEFT
 10
0.0
 20
0.0
 30
0.0
  9
$PUCSORGRIGHT
 10
0.0
 20
0.0
 30
0.0
  9
$PUCSORGFRONT
 10
0.0
 20
0.0
 30
0.0
  9
$PUCSORGBACK
 10
0.0
 20
0.0
 30
0.0
  9
$USERI1
 70
     0
  9
$USERI2
 70
     0
  9
$USERI3
 70
     0
  9
$USERI4
 70
     0
  9
$USERI5
 70
     0
  9
$USERR1
 40
0.0
  9
$USERR2
 40
0.0
  9
$USERR3
 40
0.0
  9
$USERR4
 40
0.0
  9
$USERR5
 40
0.0
  9
$WORLDVIEW
 70
     1
  9
$SHADEDGE
 70
     3
  9
$SHADEDIF
 70
    70
  9
$TILEMODE
 70
     1
  9
$MAXACTVP
 70
    64
  9
$PINSBASE
 10
0.0
 20
0.0
 30
0.0
  9
$PLIMCHECK
 70
     0
  9
$PEXTMIN
 10
1.0000000000E+20
 20
1.0000000000E+20
 30
1.0000000000E+20
  9
$PEXTMAX
 10
-1.0000000000E+20
 20
-1.0000000000E+20
 30
-1.0000000000E+20
  9
$PLIMMIN
 10
0.0
 20
0.0
  9
$PLIMMAX
 10
420.0
 20
297.0
  9
$UNITMODE
 70
     0
  9
$VISRETAIN
 70
     1
  9
$PLINEGEN
 70
     0
  9
$PSLTSCALE
 70
     1
  9
$TREEDEPTH
 70
  3020
  9
$CMLSTYLE
  2
Standard
  9
$CMLJUST
 70
     0
  9
$CMLSCALE
 40
20.0
  9
$PROXYGRAPHICS
 70
     1
  9
$MEASUREMENT
 70
     1
  9
$CELWEIGHT
370
    -1
  9
$ENDCAPS
280
     0
  9
$JOINSTYLE
280
     0
  9
$LWDISPLAY
290
     1
  9
$INSUNITS
 70
     4
  9
$HYPERLINKBASE
  1

  9
$STYLESHEET
  1

  9
$XEDIT
290
     1
  9
$CEPSNTYPE
380
     0
  9
$PSTYLEMODE
290
     1
  9
$FINGERPRINTGUID
  2
{8236FE8D-DE3C-4319-A64C-148BDE1E7268}
  9
$VERSIONGUID
  2
{FAEB1C32-E019-11D5-929B-00C0DF256EC4}
  9
$EXTNAMES
290
     1
  9
$PSVPSCALE
 40
0.0
  9
$OLESTARTUP
290
     0
  0
ENDSEC
  0
SECTION
  2
CLASSES
  0
CLASS
  1
ACDBDICTIONARYWDFLT
  2
AcDbDictionaryWithDefault
  3
ObjectDBX Classes
 90
        0
280
     0
281
     0
  0
CLASS
  1
VISUALSTYLE
  2
AcDbVisualStyle
  3
ObjectDBX Classes
 90
     4095
280
     0
281
     0
  0
CLASS
  1
MATERIAL
  2
AcDbMaterial
  3
ObjectDBX Classes
 90
     1153
280
     0
281
     0
  0
CLASS
  1
SCALE
  2
AcDbScale
  3
ObjectDBX Classes
 90
     1153
280
     0
281
     0
  0
CLASS
  1
DICTIONARYVAR
  2
AcDbDictionaryVar
  3
ObjectDBX Classes
 90
        0
280
     0
281
     0
  0
CLASS
  1
ACDBPLACEHOLDER
  2
AcDbPlaceHolder
  3
ObjectDBX Classes
 90
        0
280
     0
281
     0
  0
CLASS
  1
LAYOUT
  2
AcDbLayout
  3
ObjectDBX Classes
 90
        0
280
     0
281
     0
  0
ENDSEC
  0
SECTION
  2
TABLES
  0
TABLE
  2
VPORT
  5
8
330
0
100
AcDbSymbolTable
 70
     1
  0
VPORT
  5
29
330
8
100
AcDbSymbolTableRecord
100
AcDbViewportTableRecord
  2
*Active
 70
     0
 10
0.0
 20
0.0
 11
1.0
 21
1.0
 12
210.0
 22
148.5
 13
0.0
 23
0.0
 14
10.0
 24
10.0
 15
10.0
 25
10.0
 16
0.0
 26
0.0
 36
1.0
 17
0.0
 27
0.0
 37
0.0
 40
297.0
 41
1.4141414141
 42
50.0
 43
0.0
 44
0.0
 50
0.0
 51
0.0
 71
     0
 72
  2000
 73
     1
 74
     3
 75
     0
 76
     0
 77
     0
 78
     0
281
     0
 65
     1
110
0.0
120
0.0
130
0.0
111
1.0
121
0.0
131
0.0
112
0.0
122
1.0
132
0.0
 79
     0
146
0.0
  0
ENDTAB
  0
TABLE
  2
LTYPE
  5
5
330
0
100
AcDbSymbolTable
 70
     6
  0
LTYPE
  5
14
330
5
100
AcDbSymbolTableRecord
100
AcDbLinetypeTableRecord
  2
ByBlock
 70
     0
  3

 72
    65
 73
     0
 40
0.0
  0
LTYPE
  5
15
330
5
100
AcDbSymbolTableRecord
100
AcDbLinetypeTableRecord
  2
ByLayer
 70
     0
  3

 72
    65
 73
     0
 40
0.0
  0
LTYPE
  5
16
330
5
100
AcDbSymbolTableRecord
100
AcDbLinetypeTableRecord
  2
Continuous
 70
     0
  3
Solid line
 72
    65
 73
     0
 40
0.0
  0
LTYPE
  5
3F
330
5
100
AcDbSymbolTableRecord
100
AcDbLinetypeTableRecord
  2
HIDDEN
 70
     0
  3
Hidden __ __ __ __ __ __ __ __ __ __ __ __ __ __
 72
    65
 73
     2
 40
1.905
 49
1.27
 74
     0
 49
-0.635
 74
     0
  0
LTYPE
  5
40
330
5
100
AcDbSymbolTableRecord
100
AcDbLinetypeTableRecord
  2
PHANTOM
 70
     0
  3
Phantom ______  __  __  ______  __  __  ______
 72
    65
 73
     6
 40
12.7
 49
6.35
 74
     0
 49
-1.27
 74
     0
 49
1.27
 74
     0
 49
-1.27
 74
     0
 49
1.27
 74
     0
 49
-1.27
 74
     0
  0
LTYPE
  5
41
330
5
100
AcDbSymbolTableRecord
100
AcDbLinetypeTableRecord
  2
CENTER
 70
     0
  3
Center ____ _ ____ _ ____ _ ____ _ ____ _ ____
 72
    65
 73
     4
 40
10.16
 49
6.35
 74
     0
 49
-1.27
 74
     0
 49
1.27
 74
     0
 49
-1.27
 74
     0
  0
LTYPE
  5
42
330
5
100
AcDbSymbolTableRecord
100
AcDbLinetypeTableRecord
  2
CENTERX2
 70
     0
  3
Center (2x) ________  __  ________  __  _____
 72
    65
 73
     4
 40
20.32
 49
12.7
 74
     0
 49
-2.54
 74
     0
 49
2.54
 74
     0
 49
-2.54
 74
     0
  0
LTYPE
  5
43
330
5
100
AcDbSymbolTableRecord
100
AcDbLinetypeTableRecord
  2
DOT2
 70
     0
  3
Dot (.5x) ........................................
 72
    65
 73
     2
 40
0.635
 49
0.0
 74
     0
 49
-0.635
 74
     0
  0
ENDTAB
  0
TABLE
  2
LAYER
  5
2
330
0
100
AcDbSymbolTable
 70
     3
  0
LAYER
  5
10
330
2
100
AcDbSymbolTableRecord
100
AcDbLayerTableRecord
  2
0
 70
     0
 62
     7
  6
Continuous
370
    -3
390
F
  0
LAYER
  5
44
330
2
100
AcDbSymbolTableRecord
100
AcDbLayerTableRecord
  2
SLD-0_0
 70
     0
 62
   179
  6
Continuous
370
    -3
390
F
  0
LAYER
  5
45
330
2
100
AcDbSymbolTableRecord
100
AcDbLayerTableRecord
  2
SLD-0
 70
     0
 62
   179
  6
Continuous
370
    -3
390
F
  0
ENDTAB
  0
TABLE
  2
STYLE
  5
3
330
0
100
AcDbSymbolTable
 70
     2
  0
STYLE
  5
11
330
3
100
AcDbSymbolTableRecord
100
AcDbTextStyleTableRecord
  2
Standard
 70
     0
 40
0.0
 41
1.0
 50
0.0
 71
     0
 42
2.5
  3
txt
  4
bigfont
  0
STYLE
  5
50
330
3
100
AcDbSymbolTableRecord
100
AcDbTextStyleTableRecord
  2
SLDTEXTSTYLE0
 70
     0
 40
0.0
 41
0.7
 50
0.0
 71
     0
 42
0.2
  3
TXT
  4
bigfont
  0
ENDTAB
  0
TABLE
  2
VIEW
  5
6
330
0
100
AcDbSymbolTable
 70
     0
  0
ENDTAB
  0
TABLE
  2
UCS
  5
7
330
0
100
AcDbSymbolTable
 70
     0
  0
ENDTAB
  0
TABLE
  2
APPID
  5
9
330
0
100
AcDbSymbolTable
 70
     1
  0
APPID
  5
12
330
9
100
AcDbSymbolTableRecord
100
AcDbRegAppTableRecord
  2
ACAD
 70
     0
  0
ENDTAB
  0
TABLE
  2
DIMSTYLE
  5
A
330
0
100
AcDbSymbolTable
 70
     7
100
AcDbDimStyleTable
  0
DIMSTYLE
105
27
330
A
100
AcDbSymbolTableRecord
100
AcDbDimStyleTableRecord
  2
ISO-25
 70
     0
 41
2.5
 42
0.625
 43
3.75
 44
1.25
 73
     0
 74
     0
 77
     1
 78
     8
140
2.5
141
2.5
143
0.0393700787
147
0.625
171
     3
172
     1
271
     2
272
     2
274
     3
278
    44
283
     0
284
     8
340
11
  0
DIMSTYLE
105
9B
102
{ACAD_REACTORS
330
9A
330
BA
330
C6
330
DC
330
E6
330
140
330
1DB
330
27E
330
294
102
}
330
A
100
AcDbSymbolTableRecord
100
AcDbDimStyleTableRecord
  2
SLDDIMSTYLE0
 70
     0
 41
3.0
 44
0.0
 45
0.000000001
 73
     0
 74
     0
 77
     3
 78
    12
140
3.5
147
0.875
173
     1
271
     1
272
     2
276
     2
284
    12
340
50
341
9C
343
9C
344
9C
  0
DIMSTYLE
105
AE
102
{ACAD_REACTORS
330
AD
330
D0
330
14A
330
19F
330
1CF
330
1F0
330
1FC
330
288
330
29E
102
}
330
A
100
AcDbSymbolTableRecord
100
AcDbDimStyleTableRecord
  2
SLDDIMSTYLE1
 70
     0
 41
3.0
 44
0.0
 45
0.000000001
 73
     0
 74
     0
 77
     3
 78
    12
140
3.5
147
0.875
173
     1
271
     1
272
     2
276
     2
284
    12
340
50
341
9C
343
9C
344
9C
  0
DIMSTYLE
105
FB
330
A
100
AcDbSymbolTableRecord
100
AcDbDimStyleTableRecord
  2
SLDDIMSTYLE2
 70
     0
 41
3.0
 44
0.0
 45
0.000000001
140
0.0
146
3.0
147
0.0
173
     1
271
     0
272
     0
276
     2
340
11
341
9C
343
9C
344
9C
  0
DIMSTYLE
105
1AC
102
{ACAD_REACTORS
330
1AB
102
}
330
A
100
AcDbSymbolTableRecord
100
AcDbDimStyleTableRecord
  2
SLDDIMSTYLE3
 70
     0
 41
3.0
 44
0.0
 45
0.000000001
 73
     0
 74
     0
 77
     3
 78
    12
140
3.5
147
0.875
173
     1
271
     1
272
     2
276
     2
284
    12
340
50
341
9C
343
9C
344
1AD
  0
DIMSTYLE
105
1C1
102
{ACAD_REACTORS
330
1C0
102
}
330
A
100
AcDbSymbolTableRecord
100
AcDbDimStyleTableRecord
  2
SLDDIMSTYLE4
 70
     0
 41
1.5
 44
0.0
 45
0.000000001
 73
     0
 74
     0
 77
     3
 78
    12
140
3.5
147
0.875
173
     1
271
     1
272
     2
276
     2
284
    12
340
50
341
1AD
343
1AD
344
1AD
  0
DIMSTYLE
105
1E6
102
{ACAD_REACTORS
330
1E5
102
}
330
A
100
AcDbSymbolTableRecord
100
AcDbDimStyleTableRecord
  2
SLDDIMSTYLE5
 70
     0
 41
1.5
 44
0.0
 45
0.000000001
 73
     0
 74
     0
 77
     3
 78
    12
140
3.5
147
0.875
173
     1
271
     1
272
     2
276
     2
284
    12
340
50
341
1AD
343
1AD
344
9C
  0
ENDTAB
  0
TABLE
  2
BLOCK_RECORD
  5
1
330
0
100
AcDbSymbolTable
 70
    39
  0
BLOCK_RECORD
  5
1F
330
1
100
AcDbSymbolTableRecord
100
AcDbBlockTableRecord
  2
*Model_Space
340
22
  0
BLOCK_RECORD
  5
1B
330
1
100
AcDbSymbolTableRecord
100
AcDbBlockTableRecord
  2
*Paper_Space
340
1E
  0
BLOCK_RECORD
  5
23
330
1
100
AcDbSymbolTableRecord
100
AcDbBlockTableRecord
  2
*Paper_Space0
340
26
  0
BLOCK_RECORD
  5
9C
330
1
100
AcDbSymbolTableRecord
100
AcDbBlockTableRecord
  2
_OPEN30
340
0
102
{BLKREFS
331
A5
331
A6
331
B2
331
B3
331
BE
331
BF
331
CA
331
CB
331
D4
331
D5
331
E0
331
E1
331
EA
331
EB
331
144
331
145
331
14E
331
14F
331
1A3
331
1A4
331
1B8
331
1D3
331
1D4
331
1DF
331
1E0
331
1EB
331
1F4
331
1F5
331
200
331
201
331
282
331
283
331
28C
331
28D
331
298
331
299
331
2A2
331
2A3
102
}
  0
BLOCK_RECORD
  5
A2
330
1
100
AcDbSymbolTableRecord
100
AcDbBlockTableRecord
  2
*D2
340
0
  0
BLOCK_RECORD
  5
AF
330
1
100
AcDbSymbolTableRecord
100
AcDbBlockTableRecord
  2
*D3
340
0
  0
BLOCK_RECORD
  5
BB
330
1
100
AcDbSymbolTableRecord
100
AcDbBlockTableRecord
  2
*D4
340
0
  0
BLOCK_RECORD
  5
C7
330
1
100
AcDbSymbolTableRecord
100
AcDbBlockTableRecord
  2
*D5
340
0
  0
BLOCK_RECORD
  5
D1
330
1
100
AcDbSymbolTableRecord
100
AcDbBlockTableRecord
  2
*D6
340
0
  0
BLOCK_RECORD
  5
DD
330
1
100
AcDbSymbolTableRecord
100
AcDbBlockTableRecord
  2
*D7
340
0
  0
BLOCK_RECORD
  5
E7
330
1
100
AcDbSymbolTableRecord
100
AcDbBlockTableRecord
  2
*D8
340
0
  0
BLOCK_RECORD
  5
F0
330
1
100
AcDbSymbolTableRecord
100
AcDbBlockTableRecord
  2
SW_NOTE_0
340
0
102
{BLKREFS
331
FA
102
}
  0
BLOCK_RECORD
  5
FD
330
1
100
AcDbSymbolTableRecord
100
AcDbBlockTableRecord
  2
SW_CENTERMARKSYMBOL_0
340
0
102
{BLKREFS
331
108
102
}
  0
BLOCK_RECORD
  5
109
330
1
100
AcDbSymbolTableRecord
100
AcDbBlockTableRecord
  2
SW_CENTERMARKSYMBOL_1
340
0
102
{BLKREFS
331
114
102
}
  0
BLOCK_RECORD
  5
141
330
1
100
AcDbSymbolTableRecord
100
AcDbBlockTableRecord
  2
*D12
340
0
  0
BLOCK_RECORD
  5
14B
330
1
100
AcDbSymbolTableRecord
100
AcDbBlockTableRecord
  2
*D13
340
0
  0
BLOCK_RECORD
  5
156
330
1
100
AcDbSymbolTableRecord
100
AcDbBlockTableRecord
  2
SW_NOTE_1
340
0
102
{BLKREFS
331
160
102
}
  0
BLOCK_RECORD
  5
162
330
1
100
AcDbSymbolTableRecord
100
AcDbBlockTableRecord
  2
SW_CENTERMARKSYMBOL_2
340
0
102
{BLKREFS
331
16D
102
}
  0
BLOCK_RECORD
  5
16E
330
1
100
AcDbSymbolTableRecord
100
AcDbBlockTableRecord
  2
SW_CENTERMARKSYMBOL_3
340
0
102
{BLKREFS
331
179
102
}
  0
BLOCK_RECORD
  5
1A0
330
1
100
AcDbSymbolTableRecord
100
AcDbBlockTableRecord
  2
*D17
340
0
  0
BLOCK_RECORD
  5
1AD
330
1
100
AcDbSymbolTableRecord
100
AcDbBlockTableRecord
  2
_DOT
340
0
102
{BLKREFS
331
1B9
331
1C5
331
1C6
331
1EA
102
}
  0
BLOCK_RECORD
  5
1B5
330
1
100
AcDbSymbolTableRecord
100
AcDbBlockTableRecord
  2
*D19
340
0
  0
BLOCK_RECORD
  5
1C2
330
1
100
AcDbSymbolTableRecord
100
AcDbBlockTableRecord
  2
*D20
340
0
  0
BLOCK_RECORD
  5
1D0
330
1
100
AcDbSymbolTableRecord
100
AcDbBlockTableRecord
  2
*D21
340
0
  0
BLOCK_RECORD
  5
1DC
330
1
100
AcDbSymbolTableRecord
100
AcDbBlockTableRecord
  2
*D22
340
0
  0
BLOCK_RECORD
  5
1E7
330
1
100
AcDbSymbolTableRecord
100
AcDbBlockTableRecord
  2
*D23
340
0
  0
BLOCK_RECORD
  5
1F1
330
1
100
AcDbSymbolTableRecord
100
AcDbBlockTableRecord
  2
*D24
340
0
  0
BLOCK_RECORD
  5
1FD
330
1
100
AcDbSymbolTableRecord
100
AcDbBlockTableRecord
  2
*D25
340
0
  0
BLOCK_RECORD
  5
20A
330
1
100
AcDbSymbolTableRecord
100
AcDbBlockTableRecord
  2
SW_NOTE_2
340
0
102
{BLKREFS
331
214
102
}
  0
BLOCK_RECORD
  5
216
330
1
100
AcDbSymbolTableRecord
100
AcDbBlockTableRecord
  2
SW_NOTE_3
340
0
102
{BLKREFS
331
220
102
}
  0
BLOCK_RECORD
  5
222
330
1
100
AcDbSymbolTableRecord
100
AcDbBlockTableRecord
  2
SW_CENTERMARKSYMBOL_4
340
0
102
{BLKREFS
331
22D
102
}
  0
BLOCK_RECORD
  5
22E
330
1
100
AcDbSymbolTableRecord
100
AcDbBlockTableRecord
  2
SW_CENTERMARKSYMBOL_5
340
0
102
{BLKREFS
331
239
102
}
  0
BLOCK_RECORD
  5
23A
330
1
100
AcDbSymbolTableRecord
100
AcDbBlockTableRecord
  2
SW_CENTERMARKSYMBOL_6
340
0
102
{BLKREFS
331
245
102
}
  0
BLOCK_RECORD
  5
246
330
1
100
AcDbSymbolTableRecord
100
AcDbBlockTableRecord
  2
SW_CENTERMARKSYMBOL_7
340
0
102
{BLKREFS
331
251
102
}
  0
BLOCK_RECORD
  5
27F
330
1
100
AcDbSymbolTableRecord
100
AcDbBlockTableRecord
  2
*D32
340
0
  0
BLOCK_RECORD
  5
289
330
1
100
AcDbSymbolTableRecord
100
AcDbBlockTableRecord
  2
*D33
340
0
  0
BLOCK_RECORD
  5
295
330
1
100
AcDbSymbolTableRecord
100
AcDbBlockTableRecord
  2
*D34
340
0
  0
BLOCK_RECORD
  5
29F
330
1
100
AcDbSymbolTableRecord
100
AcDbBlockTableRecord
  2
*D35
340
0
  0
BLOCK_RECORD
  5
2AA
330
1
100
AcDbSymbolTableRecord
100
AcDbBlockTableRecord
  2
SW_NOTE_4
340
0
102
{BLKREFS
331
2B4
102
}
  0
BLOCK_RECORD
  5
2B6
330
1
100
AcDbSymbolTableRecord
100
AcDbBlockTableRecord
  2
SW_CENTERMARKSYMBOL_8
340
0
102
{BLKREFS
331
2C1
102
}
  0
BLOCK_RECORD
  5
2C2
330
1
100
AcDbSymbolTableRecord
100
AcDbBlockTableRecord
  2
SW_CENTERMARKSYMBOL_9
340
0
102
{BLKREFS
331
2CD
102
}
  0
ENDTAB
  0
ENDSEC
  0
SECTION
  2
BLOCKS
  0
BLOCK
  5
20
330
1F
100
AcDbEntity
  8
0
100
AcDbBlockBegin
  2
*Model_Space
 70
     0
 10
0.0
 20
0.0
 30
0.0
  3
*Model_Space
  1

  0
ENDBLK
  5
21
330
1F
100
AcDbEntity
  8
0
100
AcDbBlockEnd
  0
BLOCK
  5
1C
330
1B
100
AcDbEntity
 67
     1
  8
0
100
AcDbBlockBegin
  2
*Paper_Space
 70
     0
 10
0.0
 20
0.0
 30
0.0
  3
*Paper_Space
  1

  0
ENDBLK
  5
1D
330
1B
100
AcDbEntity
 67
     1
  8
0
100
AcDbBlockEnd
  0
BLOCK
  5
24
330
23
100
AcDbEntity
  8
0
100
AcDbBlockBegin
  2
*Paper_Space0
 70
     0
 10
0.0
 20
0.0
 30
0.0
  3
*Paper_Space0
  1

  0
ENDBLK
  5
25
330
23
100
AcDbEntity
  8
0
100
AcDbBlockEnd
  0
BLOCK
  5
9D
330
9C
100
AcDbEntity
  8
0
100
AcDbBlockBegin
  2
_OPEN30
 70
     0
 10
0.0
 20
0.0
 30
0.0
  3
_OPEN30
  1

  0
LINE
  5
9F
330
9C
100
AcDbEntity
  8
0
  6
ByBlock
 62
     0
370
    -2
100
AcDbLine
 10
-1.0
 20
0.267949
 30
0.0
 11
0.0
 21
0.0
 31
0.0
  0
LINE
  5
A0
330
9C
100
AcDbEntity
  8
0
  6
ByBlock
 62
     0
370
    -2
100
AcDbLine
 10
0.0
 20
0.0
 30
0.0
 11
-1.0
 21
-0.267949
 31
0.0
  0
LINE
  5
A1
330
9C
100
AcDbEntity
  8
0
  6
ByBlock
 62
     0
370
    -2
100
AcDbLine
 10
0.0
 20
0.0
 30
0.0
 11
-1.0
 21
0.0
 31
0.0
  0
ENDBLK
  5
9E
330
9C
100
AcDbEntity
  8
0
100
AcDbBlockEnd
  0
BLOCK
  5
A3
330
A2
100
AcDbEntity
  8
0
100
AcDbBlockBegin
  2
*D2
 70
     1
 10
0.0
 20
0.0
 30
0.0
  3
*D2
  1

  0
INSERT
  5
A5
330
A2
100
AcDbEntity
  8
SLD-0
100
AcDbBlockReference
  2
_OPEN30
 10
191.1156696925
 20
169.8351890948
 30
0.1
 41
3.0
 42
3.0
 50
0.0
  0
INSERT
  5
A6
330
A2
100
AcDbEntity
  8
SLD-0
100
AcDbBlockReference
  2
_OPEN30
 10
179.9156696925
 20
169.8351890948
 30
0.1
 41
3.0
 42
3.0
 50
180.0
  0
LINE
  5
A7
330
A2
100
AcDbEntity
  8
SLD-0
100
AcDbLine
 10
191.1156696925
 20
160.8351890948
 30
0.0
 11
191.1156696925
 21
170.8351890948
 31
0.0
  0
LINE
  5
A8
330
A2
100
AcDbEntity
  8
SLD-0
100
AcDbLine
 10
179.9156696925
 20
160.8351890948
 30
0.0
 11
179.9156696925
 21
170.8351890948
 31
0.0
  0
LINE
  5
A9
330
A2
100
AcDbEntity
  8
SLD-0
100
AcDbLine
 10
191.1156696925
 20
169.8351890948
 30
0.0
 11
217.3642061257
 21
169.8351890948
 31
0.0
  0
LINE
  5
AA
330
A2
100
AcDbEntity
  8
SLD-0
100
AcDbLine
 10
191.1156696925
 20
169.8351890948
 30
0.0
 11
179.9156696925
 21
169.8351890948
 31
0.0
  0
MTEXT
  5
AB
330
A2
100
AcDbEntity
  8
SLD-0
100
AcDbMText
 10
195.4144354407
 20
174.3469259512
 30
0.0
 40
3.5
 41
0.0
 71
     1
 72
     1
  1
11.2
  7
SLDTEXTSTYLE0
 73
     1
 44
1.0
  0
MTEXT
  5
AC
330
A2
100
AcDbEntity
  8
SLD-0
100
AcDbMText
 10
203.5576715923
 20
174.3469259512
 30
0.0
 40
3.5
 41
0.0
 71
     1
 72
     1
  1
(閉時)
  7
SLDTEXTSTYLE0
 73
     1
 44
1.0
  0
ENDBLK
  5
A4
330
A2
100
AcDbEntity
  8
0
100
AcDbBlockEnd
  0
BLOCK
  5
B0
330
AF
100
AcDbEntity
  8
0
100
AcDbBlockBegin
  2
*D3
 70
     1
 10
0.0
 20
0.0
 30
0.0
  3
*D3
  1

  0
INSERT
  5
B2
330
AF
100
AcDbEntity
  8
SLD-0
100
AcDbBlockReference
  2
_OPEN30
 10
177.5156696925
 20
90.4060686663
 30
0.1
 41
3.0
 42
3.0
 50
0.0
  0
INSERT
  5
B3
330
AF
100
AcDbEntity
  8
SLD-0
100
AcDbBlockReference
  2
_OPEN30
 10
193.5156696925
 20
90.4060686663
 30
0.1
 41
3.0
 42
3.0
 50
180.0
  0
LINE
  5
B4
330
AF
100
AcDbEntity
  8
SLD-0
100
AcDbLine
 10
177.5156696925
 20
120.8351890948
 30
0.0
 11
177.5156696925
 21
89.4060686663
 31
0.0
  0
LINE
  5
B5
330
AF
100
AcDbEntity
  8
SLD-0
100
AcDbLine
 10
193.5156696925
 20
120.8351890948
 30
0.0
 11
193.5156696925
 21
89.4060686663
 31
0.0
  0
LINE
  5
B6
330
AF
100
AcDbEntity
  8
SLD-0
100
AcDbLine
 10
177.5156696925
 20
90.4060686663
 30
0.0
 11
172.5156696925
 21
90.4060686663
 31
0.0
  0
LINE
  5
B7
330
AF
100
AcDbEntity
  8
SLD-0
100
AcDbLine
 10
177.5156696925
 20
90.4060686663
 30
0.0
 11
193.5156696925
 21
90.4060686663
 31
0.0
  0
LINE
  5
B8
330
AF
100
AcDbEntity
  8
SLD-0
100
AcDbLine
 10
193.5156696925
 20
90.4060686663
 30
0.0
 11
198.5156696925
 21
90.4060686663
 31
0.0
  0
MTEXT
  5
B9
330
AF
100
AcDbEntity
  8
SLD-0
100
AcDbMText
 10
183.4798606546
 20
94.9178055227
 30
0.0
 40
3.5
 41
0.0
 71
     1
 72
     1
  1
16
  7
SLDTEXTSTYLE0
 73
     1
 44
1.0
  0
ENDBLK
  5
B1
330
AF
100
AcDbEntity
  8
0
100
AcDbBlockEnd
  0
BLOCK
  5
BC
330
BB
100
AcDbEntity
  8
0
100
AcDbBlockBegin
  2
*D4
 70
     1
 10
0.0
 20
0.0
 30
0.0
  3
*D4
  1

  0
INSERT
  5
BE
330
BB
100
AcDbEntity
  8
SLD-0
100
AcDbBlockReference
  2
_OPEN30
 10
177.9156696925
 20
181.8351890948
 30
0.1
 41
3.0
 42
3.0
 50
180.0
  0
INSERT
  5
BF
330
BB
100
AcDbEntity
  8
SLD-0
100
AcDbBlockReference
  2
_OPEN30
 10
193.1156696925
 20
181.8351890948
 30
0.1
 41
3.0
 42
3.0
 50
0.0
  0
LINE
  5
C0
330
BB
100
AcDbEntity
  8
SLD-0
100
AcDbLine
 10
177.9156696925
 20
160.8351890948
 30
0.0
 11
177.9156696925
 21
182.8351890948
 31
0.0
  0
LINE
  5
C1
330
BB
100
AcDbEntity
  8
SLD-0
100
AcDbLine
 10
193.1156696925
 20
160.8351890948
 30
0.0
 11
193.1156696925
 21
182.8351890948
 31
0.0
  0
LINE
  5
C2
330
BB
100
AcDbEntity
  8
SLD-0
100
AcDbLine
 10
177.9156696925
 20
181.8351890948
 30
0.0
 11
193.1156696925
 21
181.8351890948
 31
0.0
  0
LINE
  5
C3
330
BB
100
AcDbEntity
  8
SLD-0
100
AcDbLine
 10
193.1156696925
 20
181.8351890948
 30
0.0
 11
217.3642061257
 21
181.8351890948
 31
0.0
  0
MTEXT
  5
C4
330
BB
100
AcDbEntity
  8
SLD-0
100
AcDbMText
 10
195.4144354407
 20
186.3469259512
 30
0.0
 40
3.5
 41
0.0
 71
     1
 72
     1
  1
15.2
  7
SLDTEXTSTYLE0
 73
     1
 44
1.0
  0
MTEXT
  5
C5
330
BB
100
AcDbEntity
  8
SLD-0
100
AcDbMText
 10
203.5576715923
 20
186.3469259512
 30
0.0
 40
3.5
 41
0.0
 71
     1
 72
     1
  1
(開時)
  7
SLDTEXTSTYLE0
 73
     1
 44
1.0
  0
ENDBLK
  5
BD
330
BB
100
AcDbEntity
  8
0
100
AcDbBlockEnd
  0
BLOCK
  5
C8
330
C7
100
AcDbEntity
  8
0
100
AcDbBlockBegin
  2
*D5
 70
     1
 10
0.0
 20
0.0
 30
0.0
  3
*D5
  1

  0
INSERT
  5
CA
330
C7
100
AcDbEntity
  8
SLD-0
100
AcDbBlockReference
  2
_OPEN30
 10
205.5955707832
 20
125.8351890948
 30
0.1
 41
3.0
 42
3.0
 50
90.0
  0
INSERT
  5
CB
330
C7
100
AcDbEntity
  8
SLD-0
100
AcDbBlockReference
  2
_OPEN30
 10
205.5955707832
 20
102.8351890948
 30
0.1
 41
3.0
 42
3.0
 50
270.0
  0
LINE
  5
CC
330
C7
100
AcDbEntity
  8
SLD-0
100
AcDbLine
 10
198.5156696925
 20
125.8351890948
 30
0.0
 11
206.5955707832
 21
125.8351890948
 31
0.0
  0
LINE
  5
CD
330
C7
100
AcDbEntity
  8
SLD-0
100
AcDbLine
 10
198.0156696925
 20
102.8351890948
 30
0.0
 11
206.5955707832
 21
102.8351890948
 31
0.0
  0
LINE
  5
CE
330
C7
100
AcDbEntity
  8
SLD-0
100
AcDbLine
 10
205.5955707832
 20
125.8351890948
 30
0.0
 11
205.5955707832
 21
102.8351890948
 31
0.0
  0
MTEXT
  5
CF
330
C7
100
AcDbEntity
  8
SLD-0
100
AcDbMText
 10
201.0838339268
 20
112.2993800569
 30
0.0
 40
3.5
 41
0.0
 71
     1
 72
     1
  1
23
  7
SLDTEXTSTYLE0
 11
-9.930774881669041E-15
 21
1.0
 31
0.0
 73
     1
 44
1.0
  0
ENDBLK
  5
C9
330
C7
100
AcDbEntity
  8
0
100
AcDbBlockEnd
  0
BLOCK
  5
D2
330
D1
100
AcDbEntity
  8
0
100
AcDbBlockBegin
  2
*D6
 70
     1
 10
0.0
 20
0.0
 30
0.0
  3
*D6
  1

  0
INSERT
  5
D4
330
D1
100
AcDbEntity
  8
SLD-0
100
AcDbBlockReference
  2
_OPEN30
 10
214.0954197515
 20
146.6351890948
 30
0.1
 41
3.0
 42
3.0
 50
270.0
  0
INSERT
  5
D5
330
D1
100
AcDbEntity
  8
SLD-0
100
AcDbBlockReference
  2
_OPEN30
 10
214.0954197515
 20
140.6351890948
 30
0.1
 41
3.0
 42
3.0
 50
90.0
  0
LINE
  5
D6
330
D1
100
AcDbEntity
  8
SLD-0
100
AcDbLine
 10
201.0156696925
 20
146.6351890948
 30
0.0
 11
215.0954197515
 21
146.6351890948
 31
0.0
  0
LINE
  5
D7
330
D1
100
AcDbEntity
  8
SLD-0
100
AcDbLine
 10
201.0156696925
 20
140.6351890948
 30
0.0
 11
215.0954197515
 21
140.6351890948
 31
0.0
  0
LINE
  5
D8
330
D1
100
AcDbEntity
  8
SLD-0
100
AcDbLine
 10
214.0954197515
 20
146.6351890948
 30
0.0
 11
214.0954197515
 21
151.6351890948
 31
0.0
  0
LINE
  5
D9
330
D1
100
AcDbEntity
  8
SLD-0
100
AcDbLine
 10
214.0954197515
 20
146.6351890948
 30
0.0
 11
214.0954197515
 21
140.6351890948
 31
0.0
  0
LINE
  5
DA
330
D1
100
AcDbEntity
  8
SLD-0
100
AcDbLine
 10
214.0954197515
 20
140.6351890948
 30
0.0
 11
214.0954197515
 21
135.6351890948
 31
0.0
  0
MTEXT
  5
DB
330
D1
100
AcDbEntity
  8
SLD-0
100
AcDbMText
 10
209.5836828951
 20
142.6172845759
 30
0.0
 40
3.5
 41
0.0
 71
     1
 72
     1
  1
6
  7
SLDTEXTSTYLE0
 11
-1.059690869644414E-14
 21
1.0
 31
0.0
 73
     1
 44
1.0
  0
ENDBLK
  5
D3
330
D1
100
AcDbEntity
  8
0
100
AcDbBlockEnd
  0
BLOCK
  5
DE
330
DD
100
AcDbEntity
  8
0
100
AcDbBlockBegin
  2
*D7
 70
     1
 10
0.0
 20
0.0
 30
0.0
  3
*D7
  1

  0
INSERT
  5
E0
330
DD
100
AcDbEntity
  8
SLD-0
100
AcDbBlockReference
  2
_OPEN30
 10
214.0954197515
 20
140.6351890948
 30
0.1
 41
3.0
 42
3.0
 50
90.0
  0
INSERT
  5
E1
330
DD
100
AcDbEntity
  8
SLD-0
100
AcDbBlockReference
  2
_OPEN30
 10
214.0954197515
 20
102.8351890948
 30
0.1
 41
3.0
 42
3.0
 50
270.0
  0
LINE
  5
E2
330
DD
100
AcDbEntity
  8
SLD-0
100
AcDbLine
 10
201.0156696925
 20
140.6351890948
 30
0.0
 11
215.0954197515
 21
140.6351890948
 31
0.0
  0
LINE
  5
E3
330
DD
100
AcDbEntity
  8
SLD-0
100
AcDbLine
 10
198.0156696925
 20
102.8351890948
 30
0.0
 11
215.0954197515
 21
102.8351890948
 31
0.0
  0
LINE
  5
E4
330
DD
100
AcDbEntity
  8
SLD-0
100
AcDbLine
 10
214.0954197515
 20
140.6351890948
 30
0.0
 11
214.0954197515
 21
102.8351890948
 31
0.0
  0
MTEXT
  5
E5
330
DD
100
AcDbEntity
  8
SLD-0
100
AcDbMText
 10
209.5836828951
 20
117.663571019
 30
0.0
 40
3.5
 41
0.0
 71
     1
 72
     1
  1
37.8
  7
SLDTEXTSTYLE0
 11
-9.930774881669041E-15
 21
1.0
 31
0.0
 73
     1
 44
1.0
  0
ENDBLK
  5
DF
330
DD
100
AcDbEntity
  8
0
100
AcDbBlockEnd
  0
BLOCK
  5
E8
330
E7
100
AcDbEntity
  8
0
100
AcDbBlockBegin
  2
*D8
 70
     1
 10
0.0
 20
0.0
 30
0.0
  3
*D8
  1

  0
INSERT
  5
EA
330
E7
100
AcDbEntity
  8
SLD-0
100
AcDbBlockReference
  2
_OPEN30
 10
171.0156696925
 20
80.8350390948
 30
0.1
 41
3.0
 42
3.0
 50
180.0
  0
INSERT
  5
EB
330
E7
100
AcDbEntity
  8
SLD-0
100
AcDbBlockReference
  2
_OPEN30
 10
200.0156696925
 20
80.8350390948
 30
0.1
 41
3.0
 42
3.0
 50
0.0
  0
LINE
  5
EC
330
E7
100
AcDbEntity
  8
SLD-0
100
AcDbLine
 10
171.0156696925
 20
139.6351890948
 30
0.0
 11
171.0156696925
 21
79.8350390948
 31
0.0
  0
LINE
  5
ED
330
E7
100
AcDbEntity
  8
SLD-0
100
AcDbLine
 10
200.0156696925
 20
139.6351890948
 30
0.0
 11
200.0156696925
 21
79.8350390948
 31
0.0
  0
LINE
  5
EE
330
E7
100
AcDbEntity
  8
SLD-0
100
AcDbLine
 10
171.0156696925
 20
80.8350390948
 30
0.0
 11
200.0156696925
 21
80.8350390948
 31
0.0
  0
MTEXT
  5
EF
330
E7
100
AcDbEntity
  8
SLD-0
100
AcDbMText
 10
183.4798606546
 20
85.3467759512
 30
0.0
 40
3.5
 41
0.0
 71
     1
 72
     1
  1
29
  7
SLDTEXTSTYLE0
 73
     1
 44
1.0
  0
ENDBLK
  5
E9
330
E7
100
AcDbEntity
  8
0
100
AcDbBlockEnd
  0
BLOCK
  5
F1
330
F0
100
AcDbEntity
  8
0
100
AcDbBlockBegin
  2
SW_NOTE_0
 70
     0
 10
0.0
 20
0.0
 30
0.0
  3
SW_NOTE_0
  1

  0
LINE
  5
F3
330
F0
100
AcDbEntity
  8
SLD-0
 62
     0
100
AcDbLine
 10
-24.4422493728
 20
0.0010947986
 30
0.0
 11
0.0
 21
0.0010947986
 31
0.0
  0
LINE
  5
F4
330
F0
100
AcDbEntity
  8
SLD-0
 62
     0
100
AcDbLine
 10
0.0
 20
0.0010947986
 30
0.0
 11
-24.4422493728
 21
0.0010947986
 31
0.0
  0
LINE
  5
F5
330
F0
100
AcDbEntity
  8
SLD-0
 62
     0
100
AcDbLine
 10
-24.4422493728
 20
0.0010947986
 30
0.0
 11
0.0
 21
0.0010947986
 31
0.0
  0
LINE
  5
F6
330
F0
100
AcDbEntity
  8
SLD-0
 62
     0
100
AcDbLine
 10
0.0
 20
0.0010947986
 30
0.0
 11
-24.4422493728
 21
0.0010947986
 31
0.0
  0
LINE
  5
F7
330
F0
100
AcDbEntity
  8
SLD-0
 62
     0
100
AcDbLine
 10
-24.4422493728
 20
0.0010947986
 30
0.0
 11
0.0
 21
0.0010947986
 31
0.0
  0
LINE
  5
F8
330
F0
100
AcDbEntity
  8
SLD-0
 62
     0
100
AcDbLine
 10
0.0
 20
0.0010947986
 30
0.0
 11
-24.4422493728
 21
0.0010947986
 31
0.0
  0
MTEXT
  5
F9
330
F0
100
AcDbEntity
  8
SLD-0
 62
     0
100
AcDbMText
 10
-24.4383474663
 20
4.5147029976
 30
0.0
 40
3.5
 41
0.0
 71
     1
 72
     1
  1
4-M3×0.5深6
  7
SLDTEXTSTYLE0
 73
     1
 44
1.0
  0
ENDBLK
  5
F2
330
F0
100
AcDbEntity
  8
0
100
AcDbBlockEnd
  0
BLOCK
  5
FE
330
FD
100
AcDbEntity
  8
0
100
AcDbBlockBegin
  2
SW_CENTERMARKSYMBOL_0
 70
     0
 10
0.0
 20
0.0
 30
0.0
  3
SW_CENTERMARKSYMBOL_0
  1

  0
LINE
  5
100
330
FD
100
AcDbEntity
  8
SLD-0
 62
     0
100
AcDbLine
 10
0.0
 20
0.0
 30
0.0
 11
0.0
 21
2.5
 31
0.0
  0
LINE
  5
101
330
FD
100
AcDbEntity
  8
SLD-0
 62
     0
100
AcDbLine
 10
0.0
 20
0.0
 30
0.0
 11
-2.5
 21
0.0
 31
0.0
  0
LINE
  5
102
330
FD
100
AcDbEntity
  8
SLD-0
 62
     0
100
AcDbLine
 10
0.0
 20
0.0
 30
0.0
 11
0.0
 21
-2.5
 31
0.0
  0
LINE
  5
103
330
FD
100
AcDbEntity
  8
SLD-0
 62
     0
100
AcDbLine
 10
0.0
 20
0.0
 30
0.0
 11
2.5
 21
0.0
 31
0.0
  0
LINE
  5
104
330
FD
100
AcDbEntity
  8
SLD-0
 62
     0
100
AcDbLine
 10
0.0
 20
2.5
 30
0.0
 11
0.0
 21
4.0
 31
0.0
  0
LINE
  5
105
330
FD
100
AcDbEntity
  8
SLD-0
 62
     0
100
AcDbLine
 10
-2.5
 20
0.0
 30
0.0
 11
-4.0
 21
0.0
 31
0.0
  0
LINE
  5
106
330
FD
100
AcDbEntity
  8
SLD-0
 62
     0
100
AcDbLine
 10
0.0
 20
-2.5
 30
0.0
 11
0.0
 21
-4.0
 31
0.0
  0
LINE
  5
107
330
FD
100
AcDbEntity
  8
SLD-0
 62
     0
100
AcDbLine
 10
2.5
 20
0.0
 30
0.0
 11
4.0
 21
0.0
 31
0.0
  0
ENDBLK
  5
FF
330
FD
100
AcDbEntity
  8
0
100
AcDbBlockEnd
  0
BLOCK
  5
10A
330
109
100
AcDbEntity
  8
0
100
AcDbBlockBegin
  2
SW_CENTERMARKSYMBOL_1
 70
     0
 10
0.0
 20
0.0
 30
0.0
  3
SW_CENTERMARKSYMBOL_1
  1

  0
LINE
  5
10C
330
109
100
AcDbEntity
  8
SLD-0
 62
     0
100
AcDbLine
 10
0.0
 20
0.0
 30
0.0
 11
0.0
 21
2.5
 31
0.0
  0
LINE
  5
10D
330
109
100
AcDbEntity
  8
SLD-0
 62
     0
100
AcDbLine
 10
0.0
 20
0.0
 30
0.0
 11
-2.5
 21
0.0
 31
0.0
  0
LINE
  5
10E
330
109
100
AcDbEntity
  8
SLD-0
 62
     0
100
AcDbLine
 10
0.0
 20
0.0
 30
0.0
 11
0.0
 21
-2.5
 31
0.0
  0
LINE
  5
10F
330
109
100
AcDbEntity
  8
SLD-0
 62
     0
100
AcDbLine
 10
0.0
 20
0.0
 30
0.0
 11
2.5
 21
0.0
 31
0.0
  0
LINE
  5
110
330
109
100
AcDbEntity
  8
SLD-0
 62
     0
100
AcDbLine
 10
0.0
 20
2.5
 30
0.0
 11
0.0
 21
4.0
 31
0.0
  0
LINE
  5
111
330
109
100
AcDbEntity
  8
SLD-0
 62
     0
100
AcDbLine
 10
-2.5
 20
0.0
 30
0.0
 11
-4.0
 21
0.0
 31
0.0
  0
LINE
  5
112
330
109
100
AcDbEntity
  8
SLD-0
 62
     0
100
AcDbLine
 10
0.0
 20
-2.5
 30
0.0
 11
0.0
 21
-4.0
 31
0.0
  0
LINE
  5
113
330
109
100
AcDbEntity
  8
SLD-0
 62
     0
100
AcDbLine
 10
2.5
 20
0.0
 30
0.0
 11
4.0
 21
0.0
 31
0.0
  0
ENDBLK
  5
10B
330
109
100
AcDbEntity
  8
0
100
AcDbBlockEnd
  0
BLOCK
  5
142
330
141
100
AcDbEntity
  8
0
100
AcDbBlockBegin
  2
*D12
 70
     1
 10
0.0
 20
0.0
 30
0.0
  3
*D12
  1

  0
INSERT
  5
144
330
141
100
AcDbEntity
  8
SLD-0
100
AcDbBlockReference
  2
_OPEN30
 10
128.4393316426
 20
129.8351890948
 30
0.1
 41
3.0
 42
3.0
 50
90.0
  0
INSERT
  5
145
330
141
100
AcDbEntity
  8
SLD-0
100
AcDbBlockReference
  2
_OPEN30
 10
128.4393316426
 20
102.8351890948
 30
0.1
 41
3.0
 42
3.0
 50
270.0
  0
LINE
  5
146
330
141
100
AcDbEntity
  8
SLD-0
100
AcDbLine
 10
120.0295515714
 20
129.8351890948
 30
0.0
 11
129.4393316426
 21
129.8351890948
 31
0.0
  0
LINE
  5
147
330
141
100
AcDbEntity
  8
SLD-0
100
AcDbLine
 10
117.5080923256
 20
102.8351890948
 30
0.0
 11
129.4393316426
 21
102.8351890948
 31
0.0
  0
LINE
  5
148
330
141
100
AcDbEntity
  8
SLD-0
100
AcDbLine
 10
128.4393316426
 20
129.8351890948
 30
0.0
 11
128.4393316426
 21
102.8351890948
 31
0.0
  0
MTEXT
  5
149
330
141
100
AcDbEntity
  8
SLD-0
100
AcDbMText
 10
123.9275947862
 20
114.2993800569
 30
0.0
 40
3.5
 41
0.0
 71
     1
 72
     1
  1
27
  7
SLDTEXTSTYLE0
 11
-7.044195017643634E-15
 21
1.0
 31
0.0
 73
     1
 44
1.0
  0
ENDBLK
  5
143
330
141
100
AcDbEntity
  8
0
100
AcDbBlockEnd
  0
BLOCK
  5
14C
330
14B
100
AcDbEntity
  8
0
100
AcDbBlockBegin
  2
*D13
 70
     1
 10
0.0
 20
0.0
 30
0.0
  3
*D13
  1

  0
INSERT
  5
14E
330
14B
100
AcDbEntity
  8
SLD-0
100
AcDbBlockReference
  2
_OPEN30
 10
102.6023449739
 20
92.8350390948
 30
0.1
 41
3.0
 42
3.0
 50
0.0
  0
INSERT
  5
14F
330
14B
100
AcDbEntity
  8
SLD-0
100
AcDbBlockReference
  2
_OPEN30
 10
114.0023449739
 20
92.8350390948
 30
0.1
 41
3.0
 42
3.0
 50
180.0
  0
LINE
  5
150
330
14B
100
AcDbEntity
  8
SLD-0
100
AcDbLine
 10
102.6023449739
 20
126.5049145343
 30
0.0
 11
102.6023449739
 21
91.8350390948
 31
0.0
  0
LINE
  5
151
330
14B
100
AcDbEntity
  8
SLD-0
100
AcDbLine
 10
114.0023449739
 20
126.5049145343
 30
0.0
 11
114.0023449739
 21
91.8350390948
 31
0.0
  0
LINE
  5
152
330
14B
100
AcDbEntity
  8
SLD-0
100
AcDbLine
 10
102.6023449739
 20
92.8350390948
 30
0.0
 11
97.6023449739
 21
92.8350390948
 31
0.0
  0
LINE
  5
153
330
14B
100
AcDbEntity
  8
SLD-0
100
AcDbLine
 10
102.6023449739
 20
92.8350390948
 30
0.0
 11
114.0023449739
 21
92.8350390948
 31
0.0
  0
LINE
  5
154
330
14B
100
AcDbEntity
  8
SLD-0
100
AcDbLine
 10
114.0023449739
 20
92.8350390948
 30
0.0
 11
119.0023449739
 21
92.8350390948
 31
0.0
  0
MTEXT
  5
155
330
14B
100
AcDbEntity
  8
SLD-0
100
AcDbMText
 10
104.2307268981
 20
97.3467759512
 30
0.0
 40
3.5
 41
0.0
 71
     1
 72
     1
  1
11.4
  7
SLDTEXTSTYLE0
 73
     1
 44
1.0
  0
ENDBLK
  5
14D
330
14B
100
AcDbEntity
  8
0
100
AcDbBlockEnd
  0
BLOCK
  5
157
330
156
100
AcDbEntity
  8
0
100
AcDbBlockBegin
  2
SW_NOTE_1
 70
     0
 10
0.0
 20
0.0
 30
0.0
  3
SW_NOTE_1
  1

  0
LINE
  5
159
330
156
100
AcDbEntity
  8
SLD-0
 62
     0
100
AcDbLine
 10
-24.4422493728
 20
0.0010947986
 30
0.0
 11
0.0
 21
0.0010947986
 31
0.0
  0
LINE
  5
15A
330
156
100
AcDbEntity
  8
SLD-0
 62
     0
100
AcDbLine
 10
0.0
 20
0.0010947986
 30
0.0
 11
-24.4422493728
 21
0.0010947986
 31
0.0
  0
LINE
  5
15B
330
156
100
AcDbEntity
  8
SLD-0
 62
     0
100
AcDbLine
 10
-24.4422493728
 20
0.0010947986
 30
0.0
 11
0.0
 21
0.0010947986
 31
0.0
  0
LINE
  5
15C
330
156
100
AcDbEntity
  8
SLD-0
 62
     0
100
AcDbLine
 10
0.0
 20
0.0010947986
 30
0.0
 11
-24.4422493728
 21
0.0010947986
 31
0.0
  0
LINE
  5
15D
330
156
100
AcDbEntity
  8
SLD-0
 62
     0
100
AcDbLine
 10
-24.4422493728
 20
0.0010947986
 30
0.0
 11
0.0
 21
0.0010947986
 31
0.0
  0
LINE
  5
15E
330
156
100
AcDbEntity
  8
SLD-0
 62
     0
100
AcDbLine
 10
0.0
 20
0.0010947986
 30
0.0
 11
-24.4422493728
 21
0.0010947986
 31
0.0
  0
MTEXT
  5
15F
330
156
100
AcDbEntity
  8
SLD-0
 62
     0
100
AcDbMText
 10
-24.438416656
 20
4.5143995542
 30
0.0
 40
3.5
 41
0.0
 71
     1
 72
     1
  1
2-M3×0.5深6
  7
SLDTEXTSTYLE0
 73
     1
 44
1.0
  0
ENDBLK
  5
158
330
156
100
AcDbEntity
  8
0
100
AcDbBlockEnd
  0
BLOCK
  5
163
330
162
100
AcDbEntity
  8
0
100
AcDbBlockBegin
  2
SW_CENTERMARKSYMBOL_2
 70
     0
 10
0.0
 20
0.0
 30
0.0
  3
SW_CENTERMARKSYMBOL_2
  1

  0
LINE
  5
165
330
162
100
AcDbEntity
  8
SLD-0
 62
     0
100
AcDbLine
 10
0.0
 20
0.0
 30
0.0
 11
0.0
 21
2.5
 31
0.0
  0
LINE
  5
166
330
162
100
AcDbEntity
  8
SLD-0
 62
     0
100
AcDbLine
 10
0.0
 20
0.0
 30
0.0
 11
-2.5
 21
0.0
 31
0.0
  0
LINE
  5
167
330
162
100
AcDbEntity
  8
SLD-0
 62
     0
100
AcDbLine
 10
0.0
 20
0.0
 30
0.0
 11
0.0
 21
-2.5
 31
0.0
  0
LINE
  5
168
330
162
100
AcDbEntity
  8
SLD-0
 62
     0
100
AcDbLine
 10
0.0
 20
0.0
 30
0.0
 11
2.5
 21
0.0
 31
0.0
  0
LINE
  5
169
330
162
100
AcDbEntity
  8
SLD-0
 62
     0
100
AcDbLine
 10
0.0
 20
2.5
 30
0.0
 11
0.0
 21
3.7424022421
 31
0.0
  0
LINE
  5
16A
330
162
100
AcDbEntity
  8
SLD-0
 62
     0
100
AcDbLine
 10
-2.5
 20
0.0
 30
0.0
 11
-3.7424022421
 21
0.0
 31
0.0
  0
LINE
  5
16B
330
162
100
AcDbEntity
  8
SLD-0
 62
     0
100
AcDbLine
 10
0.0
 20
-2.5
 30
0.0
 11
0.0
 21
-3.7424022421
 31
0.0
  0
LINE
  5
16C
330
162
100
AcDbEntity
  8
SLD-0
 62
     0
100
AcDbLine
 10
2.5
 20
0.0
 30
0.0
 11
3.7424022421
 21
0.0
 31
0.0
  0
ENDBLK
  5
164
330
162
100
AcDbEntity
  8
0
100
AcDbBlockEnd
  0
BLOCK
  5
16F
330
16E
100
AcDbEntity
  8
0
100
AcDbBlockBegin
  2
SW_CENTERMARKSYMBOL_3
 70
     0
 10
0.0
 20
0.0
 30
0.0
  3
SW_CENTERMARKSYMBOL_3
  1

  0
LINE
  5
171
330
16E
100
AcDbEntity
  8
SLD-0
 62
     0
100
AcDbLine
 10
0.0
 20
0.0
 30
0.0
 11
0.0
 21
2.5
 31
0.0
  0
LINE
  5
172
330
16E
100
AcDbEntity
  8
SLD-0
 62
     0
100
AcDbLine
 10
0.0
 20
0.0
 30
0.0
 11
-2.5
 21
0.0
 31
0.0
  0
LINE
  5
173
330
16E
100
AcDbEntity
  8
SLD-0
 62
     0
100
AcDbLine
 10
0.0
 20
0.0
 30
0.0
 11
0.0
 21
-2.5
 31
0.0
  0
LINE
  5
174
330
16E
100
AcDbEntity
  8
SLD-0
 62
     0
100
AcDbLine
 10
0.0
 20
0.0
 30
0.0
 11
2.5
 21
0.0
 31
0.0
  0
LINE
  5
175
330
16E
100
AcDbEntity
  8
SLD-0
 62
     0
100
AcDbLine
 10
0.0
 20
2.5
 30
0.0
 11
0.0
 21
3.7369387057
 31
0.0
  0
LINE
  5
176
330
16E
100
AcDbEntity
  8
SLD-0
 62
     0
100
AcDbLine
 10
-2.5
 20
0.0
 30
0.0
 11
-3.7369387057
 21
0.0
 31
0.0
  0
LINE
  5
177
330
16E
100
AcDbEntity
  8
SLD-0
 62
     0
100
AcDbLine
 10
0.0
 20
-2.5
 30
0.0
 11
0.0
 21
-3.7369387057
 31
0.0
  0
LINE
  5
178
330
16E
100
AcDbEntity
  8
SLD-0
 62
     0
100
AcDbLine
 10
2.5
 20
0.0
 30
0.0
 11
3.7369387057
 21
0.0
 31
0.0
  0
ENDBLK
  5
170
330
16E
100
AcDbEntity
  8
0
100
AcDbBlockEnd
  0
BLOCK
  5
1A1
330
1A0
100
AcDbEntity
  8
0
100
AcDbBlockBegin
  2
*D17
 70
     1
 10
0.0
 20
0.0
 30
0.0
  3
*D17
  1

  0
INSERT
  5
1A3
330
1A0
100
AcDbEntity
  8
SLD-0
100
AcDbBlockReference
  2
_OPEN30
 10
285.0389106479
 20
90.9225720507
 30
0.1
 41
3.0
 42
3.0
 50
360.0
  0
INSERT
  5
1A4
330
1A0
100
AcDbEntity
  8
SLD-0
100
AcDbBlockReference
  2
_OPEN30
 10
296.0389106479
 20
90.9225720507
 30
0.1
 41
3.0
 42
3.0
 50
180.0
  0
LINE
  5
1A5
330
1A0
100
AcDbEntity
  8
SLD-0
100
AcDbLine
 10
285.0389106479
 20
106.8351890948
 30
0.0
 11
285.0389106479
 21
89.9225720507
 31
0.0
  0
LINE
  5
1A6
330
1A0
100
AcDbEntity
  8
SLD-0
100
AcDbLine
 10
296.0389106479
 20
116.8351890948
 30
0.0
 11
296.0389106479
 21
89.9225720507
 31
0.0
  0
LINE
  5
1A7
330
1A0
100
AcDbEntity
  8
SLD-0
100
AcDbLine
 10
285.0389106479
 20
90.9225720507
 30
0.0
 11
280.0389106479
 21
90.9225720507
 31
0.0
  0
LINE
  5
1A8
330
1A0
100
AcDbEntity
  8
SLD-0
100
AcDbLine
 10
285.0389106479
 20
90.9225720507
 30
0.0
 11
296.0389106479
 21
90.9225720507
 31
0.0
  0
LINE
  5
1A9
330
1A0
100
AcDbEntity
  8
SLD-0
100
AcDbLine
 10
296.0389106479
 20
90.9225720507
 30
0.0
 11
301.0389106479
 21
90.9225720507
 31
0.0
  0
MTEXT
  5
1AA
330
1A0
100
AcDbEntity
  8
SLD-0
100
AcDbMText
 10
288.5031016101
 20
95.434308907
 30
0.0
 40
3.5
 41
0.0
 71
     1
 72
     1
  1
11
  7
SLDTEXTSTYLE0
 73
     1
 44
1.0
  0
ENDBLK
  5
1A2
330
1A0
100
AcDbEntity
  8
0
100
AcDbBlockEnd
  0
BLOCK
  5
1AE
330
1AD
100
AcDbEntity
  8
0
100
AcDbBlockBegin
  2
_DOT
 70
     0
 10
0.0
 20
0.0
 30
0.0
  3
_DOT
  1

  0
POLYLINE
  5
1B0
330
1AD
100
AcDbEntity
  8
0
  6
ByBlock
 62
     0
100
AcDb2dPolyline
 66
     1
 10
0.0
 20
0.0
 30
0.0
 70
     1
 40
0.5
 41
0.5
  0
VERTEX
  5
1B2
330
1B0
100
AcDbEntity
  8
0
  6
ByBlock
 62
     0
100
AcDbVertex
100
AcDb2dVertex
 10
-0.25
 20
0.0
 30
0.0
 42
1.0
  0
VERTEX
  5
1B3
330
1B0
100
AcDbEntity
  8
0
  6
ByBlock
 62
     0
100
AcDbVertex
100
AcDb2dVertex
 10
0.25
 20
0.0
 30
0.0
 42
1.0
  0
SEQEND
  5
1B4
330
1B0
100
AcDbEntity
  8
0
  6
ByBlock
 62
     0
  0
LINE
  5
1B1
330
1AD
100
AcDbEntity
  8
0
  6
ByBlock
 62
     0
370
    -2
100
AcDbLine
 10
-0.5
 20
0.0
 30
0.0
 11
-1.0
 21
0.0
 31
0.0
  0
ENDBLK
  5
1AF
330
1AD
100
AcDbEntity
  8
0
100
AcDbBlockEnd
  0
BLOCK
  5
1B6
330
1B5
100
AcDbEntity
  8
0
100
AcDbBlockBegin
  2
*D19
 70
     1
 10
0.0
 20
0.0
 30
0.0
  3
*D19
  1

  0
INSERT
  5
1B8
330
1B5
100
AcDbEntity
  8
SLD-0
100
AcDbBlockReference
  2
_OPEN30
 10
262.5793665853
 20
159.8351890948
 30
0.1
 41
3.0
 42
3.0
 50
270.0
  0
INSERT
  5
1B9
330
1B5
100
AcDbEntity
  8
SLD-0
100
AcDbBlockReference
  2
_DOT
 10
262.5793665853
 20
156.8351890948
 30
0.1
 41
1.5
 42
1.5
 50
90.0
  0
LINE
  5
1BA
330
1B5
100
AcDbEntity
  8
SLD-0
100
AcDbLine
 10
287.0389106479
 20
159.8351890948
 30
0.0
 11
261.5793665853
 21
159.8351890948
 31
0.0
  0
LINE
  5
1BB
330
1B5
100
AcDbEntity
  8
SLD-0
100
AcDbLine
 10
285.7889106479
 20
156.8351890948
 30
0.0
 11
261.5793665853
 21
156.8351890948
 31
0.0
  0
LINE
  5
1BC
330
1B5
100
AcDbEntity
  8
SLD-0
100
AcDbLine
 10
262.5793665853
 20
159.8351890948
 30
0.0
 11
262.5793665853
 21
167.8711218732
 31
0.0
  0
LINE
  5
1BD
330
1B5
100
AcDbEntity
  8
SLD-0
100
AcDbLine
 10
262.5793665853
 20
159.8351890948
 30
0.0
 11
262.5793665853
 21
156.8351890948
 31
0.0
  0
LINE
  5
1BE
330
1B5
100
AcDbEntity
  8
SLD-0
100
AcDbLine
 10
262.5793665853
 20
156.8351890948
 30
0.0
 11
262.5793665853
 21
151.8351890948
 31
0.0
  0
MTEXT
  5
1BF
330
1B5
100
AcDbEntity
  8
SLD-0
100
AcDbMText
 10
258.067629729
 20
164.2478128353
 30
0.0
 40
3.5
 41
0.0
 71
     1
 72
     1
  1
3
  7
SLDTEXTSTYLE0
 11
-7.044195017643634E-15
 21
1.0
 31
0.0
 73
     1
 44
1.0
  0
ENDBLK
  5
1B7
330
1B5
100
AcDbEntity
  8
0
100
AcDbBlockEnd
  0
BLOCK
  5
1C3
330
1C2
100
AcDbEntity
  8
0
100
AcDbBlockBegin
  2
*D20
 70
     1
 10
0.0
 20
0.0
 30
0.0
  3
*D20
  1

  0
INSERT
  5
1C5
330
1C2
100
AcDbEntity
  8
SLD-0
100
AcDbBlockReference
  2
_DOT
 10
262.5793665853
 20
156.8351890948
 30
0.1
 41
1.5
 42
1.5
 50
270.0
  0
INSERT
  5
1C6
330
1C2
100
AcDbEntity
  8
SLD-0
100
AcDbBlockReference
  2
_DOT
 10
262.5793665853
 20
151.1351890948
 30
0.1
 41
1.5
 42
1.5
 50
90.0
  0
LINE
  5
1C7
330
1C2
100
AcDbEntity
  8
SLD-0
100
AcDbLine
 10
285.7889106479
 20
156.8351890948
 30
0.0
 11
261.5793665853
 21
156.8351890948
 31
0.0
  0
LINE
  5
1C8
330
1C2
100
AcDbEntity
  8
SLD-0
100
AcDbLine
 10
285.7889106479
 20
151.1351890948
 30
0.0
 11
261.5793665853
 21
151.1351890948
 31
0.0
  0
LINE
  5
1C9
330
1C2
100
AcDbEntity
  8
SLD-0
100
AcDbLine
 10
262.5793665853
 20
156.8351890948
 30
0.0
 11
262.5793665853
 21
161.8351890948
 31
0.0
  0
LINE
  5
1CA
330
1C2
100
AcDbEntity
  8
SLD-0
100
AcDbLine
 10
262.5793665853
 20
156.8351890948
 30
0.0
 11
262.5793665853
 21
151.1351890948
 31
0.0
  0
LINE
  5
1CB
330
1C2
100
AcDbEntity
  8
SLD-0
100
AcDbLine
 10
262.5793665853
 20
151.1351890948
 30
0.0
 11
262.5793665853
 21
146.1351890948
 31
0.0
  0
LINE
  5
1CC
330
1C2
100
AcDbEntity
  8
SLD-0
100
AcDbLine
 10
262.5793665853
 20
153.9851890948
 30
0.0
 11
260.0184658644
 21
152.2135233578
 31
0.0
  0
LINE
  5
1CD
330
1C2
100
AcDbEntity
  8
SLD-0
100
AcDbLine
 10
260.0184658644
 20
152.2135233578
 30
0.0
 11
250.7360387507
 21
152.2135233578
 31
0.0
  0
MTEXT
  5
1CE
330
1C2
100
AcDbEntity
  8
SLD-0
100
AcDbMText
 10
252.3235387507
 20
156.7252602141
 30
0.0
 40
3.5
 41
0.0
 71
     1
 72
     1
  1
5.7
  7
SLDTEXTSTYLE0
 73
     1
 44
1.0
  0
ENDBLK
  5
1C4
330
1C2
100
AcDbEntity
  8
0
100
AcDbBlockEnd
  0
BLOCK
  5
1D1
330
1D0
100
AcDbEntity
  8
0
100
AcDbBlockBegin
  2
*D21
 70
     1
 10
0.0
 20
0.0
 30
0.0
  3
*D21
  1

  0
INSERT
  5
1D3
330
1D0
100
AcDbEntity
  8
SLD-0
100
AcDbBlockReference
  2
_OPEN30
 10
276.2143625066
 20
111.8351890948
 30
0.1
 41
3.0
 42
3.0
 50
270.0
  0
INSERT
  5
1D4
330
1D0
100
AcDbEntity
  8
SLD-0
100
AcDbBlockReference
  2
_OPEN30
 10
276.2143625066
 20
102.8351890948
 30
0.1
 41
3.0
 42
3.0
 50
90.0
  0
LINE
  5
1D5
330
1D0
100
AcDbEntity
  8
SLD-0
100
AcDbLine
 10
280.0389106479
 20
111.8351890948
 30
0.0
 11
275.2143625066
 21
111.8351890948
 31
0.0
  0
LINE
  5
1D6
330
1D0
100
AcDbEntity
  8
SLD-0
100
AcDbLine
 10
281.3389106479
 20
102.8351890948
 30
0.0
 11
275.2143625066
 21
102.8351890948
 31
0.0
  0
LINE
  5
1D7
330
1D0
100
AcDbEntity
  8
SLD-0
100
AcDbLine
 10
276.2143625066
 20
111.8351890948
 30
0.0
 11
276.2143625066
 21
116.8351890948
 31
0.0
  0
LINE
  5
1D8
330
1D0
100
AcDbEntity
  8
SLD-0
100
AcDbLine
 10
276.2143625066
 20
111.8351890948
 30
0.0
 11
276.2143625066
 21
102.8351890948
 31
0.0
  0
LINE
  5
1D9
330
1D0
100
AcDbEntity
  8
SLD-0
100
AcDbLine
 10
276.2143625066
 20
102.8351890948
 30
0.0
 11
276.2143625066
 21
97.8351890948
 31
0.0
  0
MTEXT
  5
1DA
330
1D0
100
AcDbEntity
  8
SLD-0
100
AcDbMText
 10
271.7026256502
 20
106.3172845759
 30
0.0
 40
3.5
 41
0.0
 71
     1
 72
     1
  1
9
  7
SLDTEXTSTYLE0
 11
-7.044195017643634E-15
 21
1.0
 31
0.0
 73
     1
 44
1.0
  0
ENDBLK
  5
1D2
330
1D0
100
AcDbEntity
  8
0
100
AcDbBlockEnd
  0
BLOCK
  5
1DD
330
1DC
100
AcDbEntity
  8
0
100
AcDbBlockBegin
  2
*D22
 70
     1
 10
0.0
 20
0.0
 30
0.0
  3
*D22
  1

  0
INSERT
  5
1DF
330
1DC
100
AcDbEntity
  8
SLD-0
100
AcDbBlockReference
  2
_OPEN30
 10
268.8919842502
 20
121.8351890948
 30
0.1
 41
3.0
 42
3.0
 50
90.0
  0
INSERT
  5
1E0
330
1DC
100
AcDbEntity
  8
SLD-0
100
AcDbBlockReference
  2
_OPEN30
 10
268.8919842502
 20
102.8351890948
 30
0.1
 41
3.0
 42
3.0
 50
270.0
  0
LINE
  5
1E1
330
1DC
100
AcDbEntity
  8
SLD-0
100
AcDbLine
 10
291.0389106479
 20
121.8351890948
 30
0.0
 11
267.8919842502
 21
121.8351890948
 31
0.0
  0
LINE
  5
1E2
330
1DC
100
AcDbEntity
  8
SLD-0
100
AcDbLine
 10
281.3389106479
 20
102.8351890948
 30
0.0
 11
267.8919842502
 21
102.8351890948
 31
0.0
  0
LINE
  5
1E3
330
1DC
100
AcDbEntity
  8
SLD-0
100
AcDbLine
 10
268.8919842502
 20
121.8351890948
 30
0.0
 11
268.8919842502
 21
102.8351890948
 31
0.0
  0
MTEXT
  5
1E4
330
1DC
100
AcDbEntity
  8
SLD-0
100
AcDbMText
 10
264.3802473938
 20
110.2993800569
 30
0.0
 40
3.5
 41
0.0
 71
     1
 72
     1
  1
19
  7
SLDTEXTSTYLE0
 11
-7.044195017643634E-15
 21
1.0
 31
0.0
 73
     1
 44
1.0
  0
ENDBLK
  5
1DE
330
1DC
100
AcDbEntity
  8
0
100
AcDbBlockEnd
  0
BLOCK
  5
1E8
330
1E7
100
AcDbEntity
  8
0
100
AcDbBlockBegin
  2
*D23
 70
     1
 10
0.0
 20
0.0
 30
0.0
  3
*D23
  1

  0
INSERT
  5
1EA
330
1E7
100
AcDbEntity
  8
SLD-0
100
AcDbBlockReference
  2
_DOT
 10
262.5793665853
 20
151.1351890948
 30
0.1
 41
1.5
 42
1.5
 50
90.0
  0
INSERT
  5
1EB
330
1E7
100
AcDbEntity
  8
SLD-0
100
AcDbBlockReference
  2
_OPEN30
 10
262.5793665853
 20
102.8351890948
 30
0.1
 41
3.0
 42
3.0
 50
270.0
  0
LINE
  5
1EC
330
1E7
100
AcDbEntity
  8
SLD-0
100
AcDbLine
 10
285.7889106479
 20
151.1351890948
 30
0.0
 11
261.5793665853
 21
151.1351890948
 31
0.0
  0
LINE
  5
1ED
330
1E7
100
AcDbEntity
  8
SLD-0
100
AcDbLine
 10
281.3389106479
 20
102.8351890948
 30
0.0
 11
261.5793665853
 21
102.8351890948
 31
0.0
  0
LINE
  5
1EE
330
1E7
100
AcDbEntity
  8
SLD-0
100
AcDbLine
 10
262.5793665853
 20
151.1351890948
 30
0.0
 11
262.5793665853
 21
102.8351890948
 31
0.0
  0
MTEXT
  5
1EF
330
1E7
100
AcDbEntity
  8
SLD-0
100
AcDbMText
 10
258.067629729
 20
122.913571019
 30
0.0
 40
3.5
 41
0.0
 71
     1
 72
     1
  1
48.3
  7
SLDTEXTSTYLE0
 11
-7.044195017643634E-15
 21
1.0
 31
0.0
 73
     1
 44
1.0
  0
ENDBLK
  5
1E9
330
1E7
100
AcDbEntity
  8
0
100
AcDbBlockEnd
  0
BLOCK
  5
1F2
330
1F1
100
AcDbEntity
  8
0
100
AcDbBlockBegin
  2
*D24
 70
     1
 10
0.0
 20
0.0
 30
0.0
  3
*D24
  1

  0
INSERT
  5
1F4
330
1F1
100
AcDbEntity
  8
SLD-0
100
AcDbBlockReference
  2
_OPEN30
 10
288.0389106479
 20
167.8496360664
 30
0.1
 41
3.0
 42
3.0
 50
0.0
  0
INSERT
  5
1F5
330
1F1
100
AcDbEntity
  8
SLD-0
100
AcDbBlockReference
  2
_OPEN30
 10
293.0389106479
 20
167.8496360664
 30
0.1
 41
3.0
 42
3.0
 50
180.0
  0
LINE
  5
1F6
330
1F1
100
AcDbEntity
  8
SLD-0
100
AcDbLine
 10
288.0389106479
 20
160.8351890948
 30
0.0
 11
288.0389106479
 21
168.8496360664
 31
0.0
  0
LINE
  5
1F7
330
1F1
100
AcDbEntity
  8
SLD-0
100
AcDbLine
 10
293.0389106479
 20
160.8351890948
 30
0.0
 11
293.0389106479
 21
168.8496360664
 31
0.0
  0
LINE
  5
1F8
330
1F1
100
AcDbEntity
  8
SLD-0
100
AcDbLine
 10
288.0389106479
 20
167.8496360664
 30
0.0
 11
283.0389106479
 21
167.8496360664
 31
0.0
  0
LINE
  5
1F9
330
1F1
100
AcDbEntity
  8
SLD-0
100
AcDbLine
 10
288.0389106479
 20
167.8496360664
 30
0.0
 11
293.0389106479
 21
167.8496360664
 31
0.0
  0
LINE
  5
1FA
330
1F1
100
AcDbEntity
  8
SLD-0
100
AcDbLine
 10
293.0389106479
 20
167.8496360664
 30
0.0
 11
298.0389106479
 21
167.8496360664
 31
0.0
  0
MTEXT
  5
1FB
330
1F1
100
AcDbEntity
  8
SLD-0
100
AcDbMText
 10
289.521006129
 20
172.3613729228
 30
0.0
 40
3.5
 41
0.0
 71
     1
 72
     1
  1
5
  7
SLDTEXTSTYLE0
 73
     1
 44
1.0
  0
ENDBLK
  5
1F3
330
1F1
100
AcDbEntity
  8
0
100
AcDbBlockEnd
  0
BLOCK
  5
1FE
330
1FD
100
AcDbEntity
  8
0
100
AcDbBlockBegin
  2
*D25
 70
     1
 10
0.0
 20
0.0
 30
0.0
  3
*D25
  1

  0
INSERT
  5
200
330
1FD
100
AcDbEntity
  8
SLD-0
100
AcDbBlockReference
  2
_OPEN30
 10
282.3389106479
 20
175.8351890948
 30
0.1
 41
3.0
 42
3.0
 50
0.0
  0
INSERT
  5
201
330
1FD
100
AcDbEntity
  8
SLD-0
100
AcDbBlockReference
  2
_OPEN30
 10
298.7389106479
 20
175.8351890948
 30
0.1
 41
3.0
 42
3.0
 50
180.0
  0
LINE
  5
202
330
1FD
100
AcDbEntity
  8
SLD-0
100
AcDbLine
 10
282.3389106479
 20
147.6351890948
 30
0.0
 11
282.3389106479
 21
176.8351890948
 31
0.0
  0
LINE
  5
203
330
1FD
100
AcDbEntity
  8
SLD-0
100
AcDbLine
 10
298.7389106479
 20
147.6351890948
 30
0.0
 11
298.7389106479
 21
176.8351890948
 31
0.0
  0
LINE
  5
204
330
1FD
100
AcDbEntity
  8
SLD-0
100
AcDbLine
 10
282.3389106479
 20
175.8351890948
 30
0.0
 11
277.3389106479
 21
175.8351890948
 31
0.0
  0
LINE
  5
205
330
1FD
100
AcDbEntity
  8
SLD-0
100
AcDbLine
 10
282.3389106479
 20
175.8351890948
 30
0.0
 11
298.7389106479
 21
175.8351890948
 31
0.0
  0
LINE
  5
206
330
1FD
100
AcDbEntity
  8
SLD-0
100
AcDbLine
 10
298.7389106479
 20
175.8351890948
 30
0.0
 11
303.7389106479
 21
175.8351890948
 31
0.0
  0
MTEXT
  5
207
330
1FD
100
AcDbEntity
  8
SLD-0
100
AcDbMText
 10
286.4672925722
 20
180.3469259512
 30
0.0
 40
3.5
 41
0.0
 71
     1
 72
     1
  1
16.4
  7
SLDTEXTSTYLE0
 73
     1
 44
1.0
  0
ENDBLK
  5
1FF
330
1FD
100
AcDbEntity
  8
0
100
AcDbBlockEnd
  0
BLOCK
  5
20B
330
20A
100
AcDbEntity
  8
0
100
AcDbBlockBegin
  2
SW_NOTE_2
 70
     0
 10
0.0
 20
0.0
 30
0.0
  3
SW_NOTE_2
  1

  0
LINE
  5
20D
330
20A
100
AcDbEntity
  8
SLD-0
 62
     0
100
AcDbLine
 10
0.0
 20
0.0
 30
0.0
 11
30.5496764865
 21
0.0
 31
0.0
  0
LINE
  5
20E
330
20A
100
AcDbEntity
  8
SLD-0
 62
     0
100
AcDbLine
 10
30.5496764865
 20
0.0
 30
0.0
 11
0.0
 21
0.0
 31
0.0
  0
LINE
  5
20F
330
20A
100
AcDbEntity
  8
SLD-0
 62
     0
100
AcDbLine
 10
0.0
 20
0.0
 30
0.0
 11
30.5496764865
 21
0.0
 31
0.0
  0
LINE
  5
210
330
20A
100
AcDbEntity
  8
SLD-0
 62
     0
100
AcDbLine
 10
30.5496764865
 20
0.0
 30
0.0
 11
0.0
 21
0.0
 31
0.0
  0
LINE
  5
211
330
20A
100
AcDbEntity
  8
SLD-0
 62
     0
100
AcDbLine
 10
0.0
 20
0.0
 30
0.0
 11
30.5496764865
 21
0.0
 31
0.0
  0
LINE
  5
212
330
20A
100
AcDbEntity
  8
SLD-0
 62
     0
100
AcDbLine
 10
30.5496764865
 20
0.0
 30
0.0
 11
0.0
 21
0.0
 31
0.0
  0
MTEXT
  5
213
330
20A
100
AcDbEntity
  8
SLD-0
 62
     0
100
AcDbMText
 10
0.0011153351
 20
4.5138056283
 30
0.0
 40
3.5
 41
0.0
 71
     1
 72
     1
  1
2＊2-M2.5×0.45
  7
SLDTEXTSTYLE0
 73
     1
 44
1.0
  0
ENDBLK
  5
20C
330
20A
100
AcDbEntity
  8
0
100
AcDbBlockEnd
  0
BLOCK
  5
217
330
216
100
AcDbEntity
  8
0
100
AcDbBlockBegin
  2
SW_NOTE_3
 70
     0
 10
0.0
 20
0.0
 30
0.0
  3
SW_NOTE_3
  1

  0
LINE
  5
219
330
216
100
AcDbEntity
  8
SLD-0
 62
     0
100
AcDbLine
 10
0.0
 20
0.0010947986
 30
0.0
 11
10.1874058015
 21
0.0010947986
 31
0.0
  0
LINE
  5
21A
330
216
100
AcDbEntity
  8
SLD-0
 62
     0
100
AcDbLine
 10
10.1874058015
 20
0.0010947986
 30
0.0
 11
0.0
 21
0.0010947986
 31
0.0
  0
LINE
  5
21B
330
216
100
AcDbEntity
  8
SLD-0
 62
     0
100
AcDbLine
 10
0.0
 20
0.0010947986
 30
0.0
 11
10.1874058015
 21
0.0010947986
 31
0.0
  0
LINE
  5
21C
330
216
100
AcDbEntity
  8
SLD-0
 62
     0
100
AcDbLine
 10
10.1874058015
 20
0.0010947986
 30
0.0
 11
0.0
 21
0.0010947986
 31
0.0
  0
LINE
  5
21D
330
216
100
AcDbEntity
  8
SLD-0
 62
     0
100
AcDbLine
 10
0.0
 20
0.0010947986
 30
0.0
 11
10.1874058015
 21
0.0010947986
 31
0.0
  0
LINE
  5
21E
330
216
100
AcDbEntity
  8
SLD-0
 62
     0
100
AcDbLine
 10
10.1874058015
 20
0.0010947986
 30
0.0
 11
0.0
 21
0.0010947986
 31
0.0
  0
MTEXT
  5
21F
330
216
100
AcDbEntity
  8
SLD-0
 62
     0
100
AcDbMText
 10
0.0040778886
 20
4.5148605378
 30
0.0
 40
3.5
 41
0.0
 71
     1
 72
     1
  1
M3   
  7
SLDTEXTSTYLE0
 73
     1
 44
1.0
  0
ENDBLK
  5
218
330
216
100
AcDbEntity
  8
0
100
AcDbBlockEnd
  0
BLOCK
  5
223
330
222
100
AcDbEntity
  8
0
100
AcDbBlockBegin
  2
SW_CENTERMARKSYMBOL_4
 70
     0
 10
0.0
 20
0.0
 30
0.0
  3
SW_CENTERMARKSYMBOL_4
  1

  0
LINE
  5
225
330
222
100
AcDbEntity
  8
SLD-0
 62
     0
100
AcDbLine
 10
0.0
 20
0.0
 30
0.0
 11
0.0
 21
2.5
 31
0.0
  0
LINE
  5
226
330
222
100
AcDbEntity
  8
SLD-0
 62
     0
100
AcDbLine
 10
0.0
 20
0.0
 30
0.0
 11
-2.5
 21
0.0
 31
0.0
  0
LINE
  5
227
330
222
100
AcDbEntity
  8
SLD-0
 62
     0
100
AcDbLine
 10
0.0
 20
0.0
 30
0.0
 11
0.0
 21
-2.5
 31
0.0
  0
LINE
  5
228
330
222
100
AcDbEntity
  8
SLD-0
 62
     0
100
AcDbLine
 10
0.0
 20
0.0
 30
0.0
 11
2.5
 21
0.0
 31
0.0
  0
LINE
  5
229
330
222
100
AcDbEntity
  8
SLD-0
 62
     0
100
AcDbLine
 10
0.0
 20
2.5
 30
0.0
 11
0.0
 21
4.0
 31
0.0
  0
LINE
  5
22A
330
222
100
AcDbEntity
  8
SLD-0
 62
     0
100
AcDbLine
 10
-2.5
 20
0.0
 30
0.0
 11
-4.0
 21
0.0
 31
0.0
  0
LINE
  5
22B
330
222
100
AcDbEntity
  8
SLD-0
 62
     0
100
AcDbLine
 10
0.0
 20
-2.5
 30
0.0
 11
0.0
 21
-4.0
 31
0.0
  0
LINE
  5
22C
330
222
100
AcDbEntity
  8
SLD-0
 62
     0
100
AcDbLine
 10
2.5
 20
0.0
 30
0.0
 11
4.0
 21
0.0
 31
0.0
  0
ENDBLK
  5
224
330
222
100
AcDbEntity
  8
0
100
AcDbBlockEnd
  0
BLOCK
  5
22F
330
22E
100
AcDbEntity
  8
0
100
AcDbBlockBegin
  2
SW_CENTERMARKSYMBOL_5
 70
     0
 10
0.0
 20
0.0
 30
0.0
  3
SW_CENTERMARKSYMBOL_5
  1

  0
LINE
  5
231
330
22E
100
AcDbEntity
  8
SLD-0
 62
     0
100
AcDbLine
 10
0.0
 20
0.0
 30
0.0
 11
0.0
 21
2.5
 31
0.0
  0
LINE
  5
232
330
22E
100
AcDbEntity
  8
SLD-0
 62
     0
100
AcDbLine
 10
0.0
 20
0.0
 30
0.0
 11
-2.5
 21
0.0
 31
0.0
  0
LINE
  5
233
330
22E
100
AcDbEntity
  8
SLD-0
 62
     0
100
AcDbLine
 10
0.0
 20
0.0
 30
0.0
 11
0.0
 21
-2.5
 31
0.0
  0
LINE
  5
234
330
22E
100
AcDbEntity
  8
SLD-0
 62
     0
100
AcDbLine
 10
0.0
 20
0.0
 30
0.0
 11
2.5
 21
0.0
 31
0.0
  0
LINE
  5
235
330
22E
100
AcDbEntity
  8
SLD-0
 62
     0
100
AcDbLine
 10
0.0
 20
2.5
 30
0.0
 11
0.0
 21
4.0
 31
0.0
  0
LINE
  5
236
330
22E
100
AcDbEntity
  8
SLD-0
 62
     0
100
AcDbLine
 10
-2.5
 20
0.0
 30
0.0
 11
-4.0
 21
0.0
 31
0.0
  0
LINE
  5
237
330
22E
100
AcDbEntity
  8
SLD-0
 62
     0
100
AcDbLine
 10
0.0
 20
-2.5
 30
0.0
 11
0.0
 21
-4.0
 31
0.0
  0
LINE
  5
238
330
22E
100
AcDbEntity
  8
SLD-0
 62
     0
100
AcDbLine
 10
2.5
 20
0.0
 30
0.0
 11
4.0
 21
0.0
 31
0.0
  0
ENDBLK
  5
230
330
22E
100
AcDbEntity
  8
0
100
AcDbBlockEnd
  0
BLOCK
  5
23B
330
23A
100
AcDbEntity
  8
0
100
AcDbBlockBegin
  2
SW_CENTERMARKSYMBOL_6
 70
     0
 10
0.0
 20
0.0
 30
0.0
  3
SW_CENTERMARKSYMBOL_6
  1

  0
LINE
  5
23D
330
23A
100
AcDbEntity
  8
SLD-0
 62
     0
100
AcDbLine
 10
0.0
 20
0.0
 30
0.0
 11
0.0
 21
2.5
 31
0.0
  0
LINE
  5
23E
330
23A
100
AcDbEntity
  8
SLD-0
 62
     0
100
AcDbLine
 10
0.0
 20
0.0
 30
0.0
 11
-2.5
 21
0.0
 31
0.0
  0
LINE
  5
23F
330
23A
100
AcDbEntity
  8
SLD-0
 62
     0
100
AcDbLine
 10
0.0
 20
0.0
 30
0.0
 11
0.0
 21
-2.5
 31
0.0
  0
LINE
  5
240
330
23A
100
AcDbEntity
  8
SLD-0
 62
     0
100
AcDbLine
 10
0.0
 20
0.0
 30
0.0
 11
2.5
 21
0.0
 31
0.0
  0
LINE
  5
241
330
23A
100
AcDbEntity
  8
SLD-0
 62
     0
100
AcDbLine
 10
0.0
 20
2.5
 30
0.0
 11
0.0
 21
3.75
 31
0.0
  0
LINE
  5
242
330
23A
100
AcDbEntity
  8
SLD-0
 62
     0
100
AcDbLine
 10
-2.5
 20
0.0
 30
0.0
 11
-3.75
 21
0.0
 31
0.0
  0
LINE
  5
243
330
23A
100
AcDbEntity
  8
SLD-0
 62
     0
100
AcDbLine
 10
0.0
 20
-2.5
 30
0.0
 11
0.0
 21
-3.75
 31
0.0
  0
LINE
  5
244
330
23A
100
AcDbEntity
  8
SLD-0
 62
     0
100
AcDbLine
 10
2.5
 20
0.0
 30
0.0
 11
3.75
 21
0.0
 31
0.0
  0
ENDBLK
  5
23C
330
23A
100
AcDbEntity
  8
0
100
AcDbBlockEnd
  0
BLOCK
  5
247
330
246
100
AcDbEntity
  8
0
100
AcDbBlockBegin
  2
SW_CENTERMARKSYMBOL_7
 70
     0
 10
0.0
 20
0.0
 30
0.0
  3
SW_CENTERMARKSYMBOL_7
  1

  0
LINE
  5
249
330
246
100
AcDbEntity
  8
SLD-0
 62
     0
100
AcDbLine
 10
0.0
 20
0.0
 30
0.0
 11
0.0
 21
2.5
 31
0.0
  0
LINE
  5
24A
330
246
100
AcDbEntity
  8
SLD-0
 62
     0
100
AcDbLine
 10
0.0
 20
0.0
 30
0.0
 11
-2.5
 21
0.0
 31
0.0
  0
LINE
  5
24B
330
246
100
AcDbEntity
  8
SLD-0
 62
     0
100
AcDbLine
 10
0.0
 20
0.0
 30
0.0
 11
0.0
 21
-2.5
 31
0.0
  0
LINE
  5
24C
330
246
100
AcDbEntity
  8
SLD-0
 62
     0
100
AcDbLine
 10
0.0
 20
0.0
 30
0.0
 11
2.5
 21
0.0
 31
0.0
  0
LINE
  5
24D
330
246
100
AcDbEntity
  8
SLD-0
 62
     0
100
AcDbLine
 10
0.0
 20
2.5
 30
0.0
 11
0.0
 21
3.75
 31
0.0
  0
LINE
  5
24E
330
246
100
AcDbEntity
  8
SLD-0
 62
     0
100
AcDbLine
 10
-2.5
 20
0.0
 30
0.0
 11
-3.75
 21
0.0
 31
0.0
  0
LINE
  5
24F
330
246
100
AcDbEntity
  8
SLD-0
 62
     0
100
AcDbLine
 10
0.0
 20
-2.5
 30
0.0
 11
0.0
 21
-52.4964926183
 31
0.0
  0
LINE
  5
250
330
246
100
AcDbEntity
  8
SLD-0
 62
     0
100
AcDbLine
 10
2.5
 20
0.0
 30
0.0
 11
3.75
 21
0.0
 31
0.0
  0
ENDBLK
  5
248
330
246
100
AcDbEntity
  8
0
100
AcDbBlockEnd
  0
BLOCK
  5
280
330
27F
100
AcDbEntity
  8
0
100
AcDbBlockBegin
  2
*D32
 70
     1
 10
0.0
 20
0.0
 30
0.0
  3
*D32
  1

  0
INSERT
  5
282
330
27F
100
AcDbEntity
  8
SLD-0
100
AcDbBlockReference
  2
_OPEN30
 10
194.5156696925
 20
27.9190982818
 30
-9.200075
 41
3.0
 42
3.0
 50
360.0
  0
INSERT
  5
283
330
27F
100
AcDbEntity
  8
SLD-0
100
AcDbBlockReference
  2
_OPEN30
 10
176.5156696925
 20
27.9190982818
 30
-9.200075
 41
3.0
 42
3.0
 50
180.0
  0
LINE
  5
284
330
27F
100
AcDbEntity
  8
SLD-0
100
AcDbLine
 10
194.5156696925
 20
33.2881176161
 30
0.0
 11
194.5156696925
 21
26.9190982818
 31
0.0
  0
LINE
  5
285
330
27F
100
AcDbEntity
  8
SLD-0
100
AcDbLine
 10
176.5156696925
 20
45.3025028894
 30
0.0
 11
176.5156696925
 21
26.9190982818
 31
0.0
  0
LINE
  5
286
330
27F
100
AcDbEntity
  8
SLD-0
100
AcDbLine
 10
194.5156696925
 20
27.9190982818
 30
0.0
 11
176.5156696925
 21
27.9190982818
 31
0.0
  0
MTEXT
  5
287
330
27F
100
AcDbEntity
  8
SLD-0
100
AcDbMText
 10
183.4798606546
 20
32.4308351382
 30
0.0
 40
3.5
 41
0.0
 71
     1
 72
     1
  1
18
  7
SLDTEXTSTYLE0
 73
     1
 44
1.0
  0
ENDBLK
  5
281
330
27F
100
AcDbEntity
  8
0
100
AcDbBlockEnd
  0
BLOCK
  5
28A
330
289
100
AcDbEntity
  8
0
100
AcDbBlockBegin
  2
*D33
 70
     1
 10
0.0
 20
0.0
 30
0.0
  3
*D33
  1

  0
INSERT
  5
28C
330
289
100
AcDbEntity
  8
SLD-0
100
AcDbBlockReference
  2
_OPEN30
 10
161.0156696925
 20
50.3325625123
 30
-9.200075
 41
3.0
 42
3.0
 50
270.0
  0
INSERT
  5
28D
330
289
100
AcDbEntity
  8
SLD-0
100
AcDbBlockReference
  2
_OPEN30
 10
161.0156696925
 20
38.3325625123
 30
-9.200075
 41
3.0
 42
3.0
 50
90.0
  0
LINE
  5
28E
330
289
100
AcDbEntity
  8
SLD-0
100
AcDbLine
 10
171.4856100695
 20
50.3325625123
 30
0.0
 11
160.0156696925
 21
50.3325625123
 31
0.0
  0
LINE
  5
28F
330
289
100
AcDbEntity
  8
SLD-0
100
AcDbLine
 10
189.4712247962
 20
38.3325625123
 30
0.0
 11
160.0156696925
 21
38.3325625123
 31
0.0
  0
LINE
  5
290
330
289
100
AcDbEntity
  8
SLD-0
100
AcDbLine
 10
161.0156696925
 20
50.3325625123
 30
0.0
 11
161.0156696925
 21
55.3325625123
 31
0.0
  0
LINE
  5
291
330
289
100
AcDbEntity
  8
SLD-0
100
AcDbLine
 10
161.0156696925
 20
50.3325625123
 30
0.0
 11
161.0156696925
 21
38.3325625123
 31
0.0
  0
LINE
  5
292
330
289
100
AcDbEntity
  8
SLD-0
100
AcDbLine
 10
161.0156696925
 20
38.3325625123
 30
0.0
 11
161.0156696925
 21
33.3325625123
 31
0.0
  0
MTEXT
  5
293
330
289
100
AcDbEntity
  8
SLD-0
100
AcDbMText
 10
156.5039328361
 20
42.2967534744
 30
0.0
 40
3.5
 41
0.0
 71
     1
 72
     1
  1
12
  7
SLDTEXTSTYLE0
 11
-7.044195017643634E-15
 21
1.0
 31
0.0
 73
     1
 44
1.0
  0
ENDBLK
  5
28B
330
289
100
AcDbEntity
  8
0
100
AcDbBlockEnd
  0
BLOCK
  5
296
330
295
100
AcDbEntity
  8
0
100
AcDbBlockBegin
  2
*D34
 70
     1
 10
0.0
 20
0.0
 30
0.0
  3
*D34
  1

  0
INSERT
  5
298
330
295
100
AcDbEntity
  8
SLD-0
100
AcDbBlockReference
  2
_OPEN30
 10
174.0156696925
 20
20.1324125123
 30
-9.200075
 41
3.0
 42
3.0
 50
180.0
  0
INSERT
  5
299
330
295
100
AcDbEntity
  8
SLD-0
100
AcDbBlockReference
  2
_OPEN30
 10
197.0156696925
 20
20.1324125123
 30
-9.200075
 41
3.0
 42
3.0
 50
360.0
  0
LINE
  5
29A
330
295
100
AcDbEntity
  8
SLD-0
100
AcDbLine
 10
174.0156696925
 20
35.1325625123
 30
0.0
 11
174.0156696925
 21
19.1324125123
 31
0.0
  0
LINE
  5
29B
330
295
100
AcDbEntity
  8
SLD-0
100
AcDbLine
 10
197.0156696925
 20
35.1325625123
 30
0.0
 11
197.0156696925
 21
19.1324125123
 31
0.0
  0
LINE
  5
29C
330
295
100
AcDbEntity
  8
SLD-0
100
AcDbLine
 10
174.0156696925
 20
20.1324125123
 30
0.0
 11
197.0156696925
 21
20.1324125123
 31
0.0
  0
MTEXT
  5
29D
330
295
100
AcDbEntity
  8
SLD-0
100
AcDbMText
 10
183.4798606546
 20
24.6441493687
 30
0.0
 40
3.5
 41
0.0
 71
     1
 72
     1
  1
23
  7
SLDTEXTSTYLE0
 73
     1
 44
1.0
  0
ENDBLK
  5
297
330
295
100
AcDbEntity
  8
0
100
AcDbBlockEnd
  0
BLOCK
  5
2A0
330
29F
100
AcDbEntity
  8
0
100
AcDbBlockBegin
  2
*D35
 70
     1
 10
0.0
 20
0.0
 30
0.0
  3
*D35
  1

  0
INSERT
  5
2A2
330
29F
100
AcDbEntity
  8
SLD-0
100
AcDbBlockReference
  2
_OPEN30
 10
153.6207892425
 20
52.5325625123
 30
-9.200075
 41
3.0
 42
3.0
 50
270.0
  0
INSERT
  5
2A3
330
29F
100
AcDbEntity
  8
SLD-0
100
AcDbBlockReference
  2
_OPEN30
 10
153.6207892425
 20
36.1325625123
 30
-9.200075
 41
3.0
 42
3.0
 50
90.0
  0
LINE
  5
2A4
330
29F
100
AcDbEntity
  8
SLD-0
100
AcDbLine
 10
170.0156696925
 20
52.5325625123
 30
0.0
 11
152.6207892425
 21
52.5325625123
 31
0.0
  0
LINE
  5
2A5
330
29F
100
AcDbEntity
  8
SLD-0
100
AcDbLine
 10
170.0156696925
 20
36.1325625123
 30
0.0
 11
152.6207892425
 21
36.1325625123
 31
0.0
  0
LINE
  5
2A6
330
29F
100
AcDbEntity
  8
SLD-0
100
AcDbLine
 10
153.6207892425
 20
52.5325625123
 30
0.0
 11
153.6207892425
 21
57.5325625123
 31
0.0
  0
LINE
  5
2A7
330
29F
100
AcDbEntity
  8
SLD-0
100
AcDbLine
 10
153.6207892425
 20
52.5325625123
 30
0.0
 11
153.6207892425
 21
36.1325625123
 31
0.0
  0
LINE
  5
2A8
330
29F
100
AcDbEntity
  8
SLD-0
100
AcDbLine
 10
153.6207892425
 20
36.1325625123
 30
0.0
 11
153.6207892425
 21
31.1325625123
 31
0.0
  0
MTEXT
  5
2A9
330
29F
100
AcDbEntity
  8
SLD-0
100
AcDbMText
 10
149.1090523861
 20
40.2609444365
 30
0.0
 40
3.5
 41
0.0
 71
     1
 72
     1
  1
16.4
  7
SLDTEXTSTYLE0
 11
-7.044195017643634E-15
 21
1.0
 31
0.0
 73
     1
 44
1.0
  0
ENDBLK
  5
2A1
330
29F
100
AcDbEntity
  8
0
100
AcDbBlockEnd
  0
BLOCK
  5
2AB
330
2AA
100
AcDbEntity
  8
0
100
AcDbBlockBegin
  2
SW_NOTE_4
 70
     0
 10
0.0
 20
0.0
 30
0.0
  3
SW_NOTE_4
  1

  0
LINE
  5
2AD
330
2AA
100
AcDbEntity
  8
SLD-0
 62
     0
100
AcDbLine
 10
0.0
 20
0.0
 30
0.0
 11
24.4380690668
 21
0.0
 31
0.0
  0
LINE
  5
2AE
330
2AA
100
AcDbEntity
  8
SLD-0
 62
     0
100
AcDbLine
 10
24.4380690668
 20
0.0
 30
0.0
 11
0.0
 21
0.0
 31
0.0
  0
LINE
  5
2AF
330
2AA
100
AcDbEntity
  8
SLD-0
 62
     0
100
AcDbLine
 10
0.0
 20
0.0
 30
0.0
 11
24.4380690668
 21
0.0
 31
0.0
  0
LINE
  5
2B0
330
2AA
100
AcDbEntity
  8
SLD-0
 62
     0
100
AcDbLine
 10
24.4380690668
 20
0.0
 30
0.0
 11
0.0
 21
0.0
 31
0.0
  0
LINE
  5
2B1
330
2AA
100
AcDbEntity
  8
SLD-0
 62
     0
100
AcDbLine
 10
0.0
 20
0.0
 30
0.0
 11
24.4380690668
 21
0.0
 31
0.0
  0
LINE
  5
2B2
330
2AA
100
AcDbEntity
  8
SLD-0
 62
     0
100
AcDbLine
 10
24.4380690668
 20
0.0
 30
0.0
 11
0.0
 21
0.0
 31
0.0
  0
MTEXT
  5
2B3
330
2AA
100
AcDbEntity
  8
SLD-0
 62
     0
100
AcDbMText
 10
0.0003496698
 20
4.5118591458
 30
0.0
 40
3.5
 41
0.0
 71
     1
 72
     1
  1
2-M3×0.5深6
  7
SLDTEXTSTYLE0
 73
     1
 44
1.0
  0
ENDBLK
  5
2AC
330
2AA
100
AcDbEntity
  8
0
100
AcDbBlockEnd
  0
BLOCK
  5
2B7
330
2B6
100
AcDbEntity
  8
0
100
AcDbBlockBegin
  2
SW_CENTERMARKSYMBOL_8
 70
     0
 10
0.0
 20
0.0
 30
0.0
  3
SW_CENTERMARKSYMBOL_8
  1

  0
LINE
  5
2B9
330
2B6
100
AcDbEntity
  8
SLD-0
 62
     0
100
AcDbLine
 10
0.0
 20
0.0
 30
0.0
 11
0.0
 21
2.5
 31
0.0
  0
LINE
  5
2BA
330
2B6
100
AcDbEntity
  8
SLD-0
 62
     0
100
AcDbLine
 10
0.0
 20
0.0
 30
0.0
 11
-2.5
 21
0.0
 31
0.0
  0
LINE
  5
2BB
330
2B6
100
AcDbEntity
  8
SLD-0
 62
     0
100
AcDbLine
 10
0.0
 20
0.0
 30
0.0
 11
0.0
 21
-2.5
 31
0.0
  0
LINE
  5
2BC
330
2B6
100
AcDbEntity
  8
SLD-0
 62
     0
100
AcDbLine
 10
0.0
 20
0.0
 30
0.0
 11
2.5
 21
0.0
 31
0.0
  0
LINE
  5
2BD
330
2B6
100
AcDbEntity
  8
SLD-0
 62
     0
100
AcDbLine
 10
0.0
 20
2.5
 30
0.0
 11
0.0
 21
4.0300596229
 31
0.0
  0
LINE
  5
2BE
330
2B6
100
AcDbEntity
  8
SLD-0
 62
     0
100
AcDbLine
 10
-2.5
 20
0.0
 30
0.0
 11
-4.0300596229
 21
0.0
 31
0.0
  0
LINE
  5
2BF
330
2B6
100
AcDbEntity
  8
SLD-0
 62
     0
100
AcDbLine
 10
0.0
 20
-2.5
 30
0.0
 11
0.0
 21
-4.0300596229
 31
0.0
  0
LINE
  5
2C0
330
2B6
100
AcDbEntity
  8
SLD-0
 62
     0
100
AcDbLine
 10
2.5
 20
0.0
 30
0.0
 11
4.0300596229
 21
0.0
 31
0.0
  0
ENDBLK
  5
2B8
330
2B6
100
AcDbEntity
  8
0
100
AcDbBlockEnd
  0
BLOCK
  5
2C3
330
2C2
100
AcDbEntity
  8
0
100
AcDbBlockBegin
  2
SW_CENTERMARKSYMBOL_9
 70
     0
 10
0.0
 20
0.0
 30
0.0
  3
SW_CENTERMARKSYMBOL_9
  1

  0
LINE
  5
2C5
330
2C2
100
AcDbEntity
  8
SLD-0
 62
     0
100
AcDbLine
 10
0.0
 20
0.0
 30
0.0
 11
0.0
 21
2.5
 31
0.0
  0
LINE
  5
2C6
330
2C2
100
AcDbEntity
  8
SLD-0
 62
     0
100
AcDbLine
 10
0.0
 20
0.0
 30
0.0
 11
-2.5
 21
0.0
 31
0.0
  0
LINE
  5
2C7
330
2C2
100
AcDbEntity
  8
SLD-0
 62
     0
100
AcDbLine
 10
0.0
 20
0.0
 30
0.0
 11
0.0
 21
-2.5
 31
0.0
  0
LINE
  5
2C8
330
2C2
100
AcDbEntity
  8
SLD-0
 62
     0
100
AcDbLine
 10
0.0
 20
0.0
 30
0.0
 11
2.5
 21
0.0
 31
0.0
  0
LINE
  5
2C9
330
2C2
100
AcDbEntity
  8
SLD-0
 62
     0
100
AcDbLine
 10
0.0
 20
2.5
 30
0.0
 11
0.0
 21
4.0444448962
 31
0.0
  0
LINE
  5
2CA
330
2C2
100
AcDbEntity
  8
SLD-0
 62
     0
100
AcDbLine
 10
-2.5
 20
0.0
 30
0.0
 11
-4.0444448962
 21
0.0
 31
0.0
  0
LINE
  5
2CB
330
2C2
100
AcDbEntity
  8
SLD-0
 62
     0
100
AcDbLine
 10
0.0
 20
-2.5
 30
0.0
 11
0.0
 21
-4.0444448962
 31
0.0
  0
LINE
  5
2CC
330
2C2
100
AcDbEntity
  8
SLD-0
 62
     0
100
AcDbLine
 10
2.5
 20
0.0
 30
0.0
 11
4.0444448962
 21
0.0
 31
0.0
  0
ENDBLK
  5
2C4
330
2C2
100
AcDbEntity
  8
0
100
AcDbBlockEnd
  0
ENDSEC
  0
SECTION
  2
ENTITIES
  0
LINE
  5
46
330
1F
100
AcDbEntity
  8
SLD-0
100
AcDbLine
 10
334.4999964925
 20
24.4999957746
 30
0.0
 11
334.4999964925
 21
36.9999957746
 31
0.0
  0
LINE
  5
47
330
1F
100
AcDbEntity
  8
SLD-0
100
AcDbLine
 10
16.9999964925
 20
11.9999957746
 30
0.0
 11
402.9999964925
 21
11.9999957746
 31
0.0
  0
LINE
  5
48
330
1F
100
AcDbEntity
  8
SLD-0
100
AcDbLine
 10
16.9999964925
 20
11.9999957746
 30
0.0
 11
16.9999964925
 21
284.9999957746
 31
0.0
  0
LINE
  5
49
330
1F
100
AcDbEntity
  8
SLD-0
100
AcDbLine
 10
16.9999964925
 20
284.9999957746
 30
0.0
 11
402.9999964925
 21
284.9999957746
 31
0.0
  0
LINE
  5
4A
330
1F
100
AcDbEntity
  8
SLD-0
100
AcDbLine
 10
402.9999964925
 20
11.9999957746
 30
0.0
 11
402.9999964925
 21
284.9999957746
 31
0.0
  0
LINE
  5
4B
330
1F
100
AcDbEntity
  8
SLD-0
100
AcDbLine
 10
402.9999964925
 20
24.4999957746
 30
0.0
 11
334.4999964925
 21
24.4999957746
 31
0.0
  0
LINE
  5
4C
330
1F
100
AcDbEntity
  8
SLD-0
100
AcDbLine
 10
334.4999964925
 20
11.9999957746
 30
0.0
 11
334.4999964925
 21
24.4999957746
 31
0.0
  0
LINE
  5
4D
330
1F
100
AcDbEntity
  8
SLD-0
100
AcDbLine
 10
334.4999964925
 20
36.9999957746
 30
0.0
 11
402.9999964925
 21
36.9999957746
 31
0.0
  0
LINE
  5
4E
330
1F
100
AcDbEntity
  8
SLD-0
100
AcDbLine
 10
334.4999964925
 20
36.9999957746
 30
0.0
 11
334.4999964925
 21
49.4999957746
 31
0.0
  0
LINE
  5
4F
330
1F
100
AcDbEntity
  8
SLD-0
100
AcDbLine
 10
334.4999964925
 20
49.4999957746
 30
0.0
 11
402.9999964925
 21
49.4999957746
 31
0.0
  0
MTEXT
  5
73
330
1F
100
AcDbEntity
  8
SLD-0
100
AcDbMText
 10
311.1736313919
 20
130.7787027854
 30
0.0
 40
3.5
 41
0.0
 71
     1
 72
     1
  1
閉ポート
  7
SLDTEXTSTYLE0
 73
     1
 44
1.0
  0
MTEXT
  5
74
330
1F
100
AcDbEntity
  8
SLD-0
100
AcDbMText
 10
262.2382374038
 20
89.5678806903
 30
0.0
 40
3.5
 41
0.0
 71
     1
 72
     1
  1
開ポート
  7
SLDTEXTSTYLE0
 73
     1
 44
1.0
  0
MTEXT
  5
75
330
1F
100
AcDbEntity
  8
SLD-0
100
AcDbMText
 10
352.5967652447
 20
45.0387955334
 30
0.0
 40
4.2333333333
 41
0.0
 71
     1
 72
     1
  1
平行チャック
  7
SLDTEXTSTYLE0
 73
     1
 44
1.0
  0
MTEXT
  5
76
330
1F
100
AcDbEntity
  8
SLD-0
100
AcDbMText
 10
356.8300985269
 20
32.2855544604
 30
0.0
 40
4.7625
 41
0.0
 71
     1
 72
     1
  1
MHZ2-10S
  7
SLDTEXTSTYLE0
 73
     1
 44
1.0
  0
MTEXT
  5
77
330
1F
100
AcDbEntity
  8
SLD-0
100
AcDbMText
 10
360.0050982557
 20
19.6759033299
 30
0.0
 40
4.7625
 41
0.0
 71
     1
 72
     1
  1
123401
  7
SLDTEXTSTYLE0
 73
     1
 44
1.0
  0
LINE
  5
78
330
1F
100
AcDbEntity
  8
0
  6
Continuous
 62
     7
370
    15
100
AcDbLine
 10
177.9156696925
 20
159.8351890948
 30
0.0
 11
173.9156696925
 21
159.8351890948
 31
0.0
  0
LINE
  5
79
330
1F
100
AcDbEntity
  8
0
  6
Continuous
 62
     7
370
    15
100
AcDbLine
 10
197.1156696925
 20
159.8351890948
 30
0.0
 11
193.1156696925
 21
159.8351890948
 31
0.0
  0
LINE
  5
7A
330
1F
100
AcDbEntity
  8
0
  6
Continuous
 62
     7
370
    15
100
AcDbLine
 10
199.9156696925
 20
146.6351890948
 30
0.0
 11
199.9156696925
 21
147.8351890948
 31
0.0
  0
LINE
  5
7B
330
1F
100
AcDbEntity
  8
0
  6
Continuous
 62
     7
370
    15
100
AcDbLine
 10
171.1156696925
 20
147.8351890948
 30
0.0
 11
171.1156696925
 21
146.6351890948
 31
0.0
  0
LINE
  5
7C
330
1F
100
AcDbEntity
  8
0
  6
Continuous
 62
     7
370
    15
100
AcDbLine
 10
187.6156696925
 20
147.8351890948
 30
0.0
 11
187.6156696925
 21
146.6351890948
 31
0.0
  0
LINE
  5
7D
330
1F
100
AcDbEntity
  8
0
  6
Continuous
 62
     7
370
    15
100
AcDbLine
 10
183.4156696925
 20
146.6351890948
 30
0.0
 11
183.4156696925
 21
147.8351890948
 31
0.0
  0
LINE
  5
7E
330
1F
100
AcDbEntity
  8
0
  6
Continuous
 62
     7
370
    15
100
AcDbLine
 10
193.1156696925
 20
147.8351890948
 30
0.0
 11
187.6156696925
 21
147.8351890948
 31
0.0
  0
LINE
  5
7F
330
1F
100
AcDbEntity
  8
0
  6
Continuous
 62
     7
370
    15
100
AcDbLine
 10
183.4156696925
 20
147.8351890948
 30
0.0
 11
177.9156696925
 21
147.8351890948
 31
0.0
  0
LINE
  5
80
330
1F
100
AcDbEntity
  8
0
  6
Continuous
 62
     7
370
    15
100
AcDbLine
 10
177.9156696925
 20
147.8351890948
 30
0.0
 11
177.9156696925
 21
159.8351890948
 31
0.0
  0
LINE
  5
81
330
1F
100
AcDbEntity
  8
0
  6
Continuous
 62
     7
370
    15
100
AcDbLine
 10
193.1156696925
 20
159.8351890948
 30
0.0
 11
193.1156696925
 21
147.8351890948
 31
0.0
  0
LINE
  5
82
330
1F
100
AcDbEntity
  8
0
  6
Continuous
 62
     7
370
    15
100
AcDbLine
 10
197.1156696925
 20
147.8351890948
 30
0.0
 11
197.1156696925
 21
159.8351890948
 31
0.0
  0
LINE
  5
83
330
1F
100
AcDbEntity
  8
0
  6
Continuous
 62
     7
370
    15
100
AcDbLine
 10
173.9156696925
 20
159.8351890948
 30
0.0
 11
173.9156696925
 21
147.8351890948
 31
0.0
  0
LINE
  5
84
330
1F
100
AcDbEntity
  8
0
  6
Continuous
 62
     7
370
    15
100
AcDbLine
 10
173.9156696925
 20
147.8351890948
 30
0.0
 11
171.1156696925
 21
147.8351890948
 31
0.0
  0
LINE
  5
85
330
1F
100
AcDbEntity
  8
0
  6
Continuous
 62
     7
370
    15
100
AcDbLine
 10
197.1156696925
 20
147.8351890948
 30
0.0
 11
199.9156696925
 21
147.8351890948
 31
0.0
  0
LINE
  5
86
330
1F
100
AcDbEntity
  8
0
  6
Continuous
 62
     7
370
    15
100
AcDbLine
 10
171.0156696925
 20
146.6351890948
 30
0.0
 11
171.0156696925
 21
140.6351890948
 31
0.0
  0
ARC
  5
87
330
1F
100
AcDbEntity
  8
0
  6
Continuous
 62
     7
370
    15
100
AcDbCircle
 10
177.5156696925
 20
125.8351890948
 30
0.0
 40
1.5
100
AcDbArc
 50
90.0
 51
270.0
  0
LINE
  5
88
330
1F
100
AcDbEntity
  8
0
  6
Continuous
 62
     7
370
    15
100
AcDbLine
 10
174.0156696925
 20
102.8351890948
 30
0.0
 11
197.0156696925
 21
102.8351890948
 31
0.0
  0
LINE
  5
89
330
1F
100
AcDbEntity
  8
0
  6
Continuous
 62
     7
370
    15
100
AcDbLine
 10
174.0156696925
 20
140.6351890948
 30
0.0
 11
174.0156696925
 21
102.8351890948
 31
0.0
  0
LINE
  5
8A
330
1F
100
AcDbEntity
  8
0
  6
Continuous
 62
     7
370
    15
100
AcDbLine
 10
197.0156696925
 20
102.8351890948
 30
0.0
 11
197.0156696925
 21
140.6351890948
 31
0.0
  0
SPLINE
  5
8B
330
1F
100
AcDbEntity
  8
0
  6
Continuous
 62
     7
370
    15
100
AcDbSpline
210
0.0
220
0.0
230
1.0
 70
     8
 71
     3
 72
    19
 73
    15
 74
     0
 42
0.00000001
 43
0.00000001
 40
0.0
 40
0.0
 40
0.0
 40
0.0
 40
0.1197214739305885
 40
0.1848036583180078
 40
0.249999948618416
 40
0.3150821843435202
 40
0.3802785260694076
 40
0.4999999999999968
 40
0.6197214739305845
 40
0.6848036583181861
 40
0.7499999486183881
 40
0.8150821843438671
 40
0.8802785260694113
 40
1.0
 40
1.0
 40
1.0
 40
1.0
 10
193.5156696924557
 20
124.3351890947967
 30
0.0
 10
193.3270529136687
 20
124.3553349871588
 30
0.0
 10
193.035901547121
 20
124.386432454358
 30
0.0
 10
192.6862222707235
 20
124.5731638670553
 30
0.0
 10
192.4479263446555
 20
124.7669314857677
 30
0.0
 10
192.2527618133754
 20
125.0056527766922
 30
0.0
 10
192.0719027968099
 20
125.3552090138483
 30
0.0
 10
191.9792627073745
 20
125.8351882248253
 30
0.0
 10
192.0718679151559
 20
126.3149919991587
 30
0.0
 10
192.2526626355402
 20
126.6645678790445
 30
0.0
 10
192.4476743725584
 20
126.9031951499843
 30
0.0
 10
192.6860647153605
 20
127.0971161131463
 30
0.0
 10
193.035724146472
 20
127.2839212588253
 30
0.0
 10
193.3270538765196
 20
127.3150411326082
 30
0.0
 10
193.5156696924557
 20
127.3351890947967
 30
0.0
  0
SPLINE
  5
8C
330
1F
100
AcDbEntity
  8
0
  6
Continuous
 62
     7
370
    15
100
AcDbSpline
210
0.0
220
0.0
230
1.0
 70
     8
 71
     3
 72
    19
 73
    15
 74
     0
 42
0.00000001
 43
0.00000001
 40
0.0
 40
0.0
 40
0.0
 40
0.0
 40
0.119721473930594
 40
0.1848036583180103
 40
0.2499999486183925
 40
0.3150821843431488
 40
0.3802785260694063
 40
0.4999999999999982
 40
0.6197214739305921
 40
0.6848036583175617
 40
0.7499999486184108
 40
0.8150821843427548
 40
0.8802785260694064
 40
1.0
 40
1.0
 40
1.0
 40
1.0
 10
193.5156696924557
 20
127.3351890947967
 30
0.0
 10
193.7042864712428
 20
127.3150432024348
 30
0.0
 10
193.9954378377907
 20
127.2839457352359
 30
0.0
 10
194.3451171141873
 20
127.097214322537
 30
0.0
 10
194.5834130402556
 20
126.9034467038261
 30
0.0
 10
194.7785775715361
 20
126.6647254129018
 30
0.0
 10
194.9594365881012
 20
126.3151691757454
 30
0.0
 10
195.052076677537
 20
125.835189964768
 30
0.0
 10
194.9594714697555
 20
125.3553861904357
 30
0.0
 10
194.7786767493721
 20
125.0058103105495
 30
0.0
 10
194.5836650123551
 20
124.7671830396108
 30
0.0
 10
194.3452746695518
 20
124.573262076449
 30
0.0
 10
193.9956152384414
 20
124.3864569307677
 30
0.0
 10
193.7042855083919
 20
124.355337056985
 30
0.0
 10
193.5156696924557
 20
124.3351890947967
 30
0.0
  0
SPLINE
  5
8D
330
1F
100
AcDbEntity
  8
0
  6
Continuous
 62
     7
370
    15
100
AcDbSpline
210
0.0
220
0.0
230
1.0
 70
     8
 71
     3
 72
    19
 73
    15
 74
     0
 42
0.00000001
 43
0.00000001
 40
0.0
 40
0.0
 40
0.0
 40
0.0
 40
0.1197214739305911
 40
0.1848036583176992
 40
0.2499999486184169
 40
0.3150821843431457
 40
0.3802785260694092
 40
0.4999999999999997
 40
0.6197214739305889
 40
0.684803658317908
 40
0.7499999486183816
 40
0.8150821843433854
 40
0.8802785260694086
 40
1.0
 40
1.0
 40
1.0
 40
1.0
 10
177.5156696924557
 20
124.3351890947967
 30
0.0
 10
177.3270529136687
 20
124.3553349871587
 30
0.0
 10
177.0359015471215
 20
124.3864324543579
 30
0.0
 10
176.686222270724
 20
124.5731638670551
 30
0.0
 10
176.4479263446563
 20
124.7669314857669
 30
0.0
 10
176.2527618133758
 20
125.0056527766917
 30
0.0
 10
176.07190279681
 20
125.3552090138478
 30
0.0
 10
175.9792627073746
 20
125.8351882248253
 30
0.0
 10
176.0718679151557
 20
126.3149919991584
 30
0.0
 10
176.2526626355403
 20
126.6645678790439
 30
0.0
 10
176.4476743725575
 20
126.9031951499835
 30
0.0
 10
176.6860647153599
 20
127.097116113146
 30
0.0
 10
177.0357241464713
 20
127.2839212588251
 30
0.0
 10
177.3270538765196
 20
127.3150411326081
 30
0.0
 10
177.5156696924557
 20
127.3351890947967
 30
0.0
  0
SPLINE
  5
8E
330
1F
100
AcDbEntity
  8
0
  6
Continuous
 62
     7
370
    15
100
AcDbSpline
210
0.0
220
0.0
230
1.0
 70
     8
 71
     3
 72
    19
 73
    15
 74
     0
 42
0.00000001
 43
0.00000001
 40
0.0
 40
0.0
 40
0.0
 40
0.0
 40
0.1197214739305945
 40
0.1848036583182095
 40
0.2499999486183875
 40
0.3150821843431437
 40
0.3802785260694026
 40
0.4999999999999962
 40
0.6197214739305917
 40
0.6848036583178103
 40
0.7499999486184015
 40
0.8150821843429009
 40
0.8802785260694059
 40
1.0
 40
1.0
 40
1.0
 40
1.0
 10
177.5156696924557
 20
127.3351890947967
 30
0.0
 10
177.7042864712429
 20
127.3150432024348
 30
0.0
 10
177.9954378377911
 20
127.283945735236
 30
0.0
 10
178.3451171141874
 20
127.0972143225366
 30
0.0
 10
178.5834130402559
 20
126.9034467038259
 30
0.0
 10
178.7785775715361
 20
126.6647254129018
 30
0.0
 10
178.9594365881012
 20
126.3151691757454
 30
0.0
 10
179.052076677537
 20
125.835189964768
 30
0.0
 10
178.9594714697556
 20
125.3553861904352
 30
0.0
 10
178.7786767493716
 20
125.0058103105494
 30
0.0
 10
178.5836650123547
 20
124.7671830396103
 30
0.0
 10
178.3452746695517
 20
124.5732620764487
 30
0.0
 10
177.9956152384411
 20
124.3864569307677
 30
0.0
 10
177.7042855083919
 20
124.355337056985
 30
0.0
 10
177.5156696924557
 20
124.3351890947967
 30
0.0
  0
LINE
  5
8F
330
1F
100
AcDbEntity
  8
0
  6
Continuous
 62
     7
370
    15
100
AcDbLine
 10
197.0156696925
 20
140.6351890948
 30
0.0
 11
200.0156696925
 21
140.6351890948
 31
0.0
  0
LINE
  5
90
330
1F
100
AcDbEntity
  8
0
  6
Continuous
 62
     7
370
    15
100
AcDbLine
 10
200.0156696925
 20
140.6351890948
 30
0.0
 11
200.0156696925
 21
146.6351890948
 31
0.0
  0
LINE
  5
91
330
1F
100
AcDbEntity
  8
0
  6
Continuous
 62
     7
370
    15
100
AcDbLine
 10
200.0156696925
 20
146.6351890948
 30
0.0
 11
171.0156696925
 21
146.6351890948
 31
0.0
  0
LINE
  5
92
330
1F
100
AcDbEntity
  8
0
  6
Continuous
 62
     7
370
    15
100
AcDbLine
 10
171.0156696925
 20
140.6351890948
 30
0.0
 11
174.0156696925
 21
140.6351890948
 31
0.0
  0
ARC
  5
93
330
1F
100
AcDbEntity
  8
0
  6
Continuous
 62
     7
370
    15
100
AcDbCircle
 10
193.5156696925
 20
125.8351890948
 30
0.0
 40
1.5
100
AcDbArc
 50
270.0
 51
90.0
  0
ARC
  5
94
330
1F
100
AcDbEntity
  8
0
  6
Continuous
 62
     7
370
    15
100
AcDbCircle
 10
193.5156696925
 20
125.8351890948
 30
0.0
 40
1.5
100
AcDbArc
 50
90.0
 51
270.0
  0
ARC
  5
95
330
1F
100
AcDbEntity
  8
0
  6
Continuous
 62
     7
370
    15
100
AcDbCircle
 10
177.5156696925
 20
125.8351890948
 30
0.0
 40
1.5
100
AcDbArc
 50
270.0
 51
90.0
  0
LINE
  5
96
330
1F
100
AcDbEntity
  8
SLD-0
100
AcDbLine
 10
177.9156696925
 20
159.8351890948
 30
0.0
 11
179.9156696925
 21
159.8351890948
 31
0.0
  0
LINE
  5
97
330
1F
100
AcDbEntity
  8
SLD-0
100
AcDbLine
 10
179.9156696925
 20
159.8351890948
 30
0.0
 11
179.9156696925
 21
147.8351890948
 31
0.0
  0
LINE
  5
98
330
1F
100
AcDbEntity
  8
SLD-0
100
AcDbLine
 10
193.1156696925
 20
159.8351890948
 30
0.0
 11
191.1156696925
 21
159.8351890948
 31
0.0
  0
LINE
  5
99
330
1F
100
AcDbEntity
  8
SLD-0
100
AcDbLine
 10
191.1156696925
 20
159.8351890948
 30
0.0
 11
191.1156696925
 21
147.8351890948
 31
0.0
  0
DIMENSION
  5
9A
330
1F
100
AcDbEntity
  8
SLD-0
100
AcDbDimension
  2
*D2
 10
179.9156696925
 20
169.8351890948
 30
0.0
 11
205.5955707832
 21
169.8351890948
 31
0.0
 70
   160
  1
<>(閉時)
 71
     2
 42
-1.0
  3
SLDDIMSTYLE0
100
AcDbAlignedDimension
 13
191.1156696925
 23
159.8351890948
 33
0.0
 14
179.9156696925
 24
159.8351890948
 34
0.0
 50
0.0
100
AcDbRotatedDimension
  0
DIMENSION
  5
AD
330
1F
100
AcDbEntity
  8
SLD-0
100
AcDbDimension
  2
*D3
 10
193.5156696925
 20
90.4060686663
 30
0.0
 11
185.5156696925
 21
90.4060686663
 31
0.0
 70
   160
 71
     2
 42
-1.0
  3
SLDDIMSTYLE1
100
AcDbAlignedDimension
 13
177.5156696925
 23
121.8351890948
 33
0.0
 14
193.5156696925
 24
121.8351890948
 34
0.0
100
AcDbRotatedDimension
  0
DIMENSION
  5
BA
330
1F
100
AcDbEntity
  8
SLD-0
100
AcDbDimension
  2
*D4
 10
193.1156696925
 20
181.8351890948
 30
0.0
 11
205.5955707832
 21
181.8351890948
 31
0.0
 70
   160
  1
<>(開時)
 71
     2
 42
-1.0
  3
SLDDIMSTYLE0
100
AcDbAlignedDimension
 13
177.9156696925
 23
159.8351890948
 33
0.0
 14
193.1156696925
 24
159.8351890948
 34
0.0
 50
0.0
100
AcDbRotatedDimension
  0
DIMENSION
  5
C6
330
1F
100
AcDbEntity
  8
SLD-0
100
AcDbDimension
  2
*D5
 10
205.5955707832
 20
102.8351890948
 30
0.0
 11
205.5955707832
 21
114.3351890948
 31
0.0
 70
   160
 71
     2
 42
-1.0
  3
SLDDIMSTYLE0
100
AcDbAlignedDimension
 13
197.5156696925
 23
125.8351890948
 33
0.0
 14
197.0156696925
 24
102.8351890948
 34
0.0
 50
90.0
100
AcDbRotatedDimension
  0
DIMENSION
  5
D0
330
1F
100
AcDbEntity
  8
SLD-0
100
AcDbDimension
  2
*D6
 10
214.0954197515
 20
140.6351890948
 30
0.0
 11
214.0954197515
 21
143.6351890948
 31
0.0
 70
   160
 71
     2
 42
-1.0
  3
SLDDIMSTYLE1
100
AcDbAlignedDimension
 13
200.0156696925
 23
146.6351890948
 33
0.0
 14
200.0156696925
 24
140.6351890948
 34
0.0
 50
90.0
100
AcDbRotatedDimension
  0
DIMENSION
  5
DC
330
1F
100
AcDbEntity
  8
SLD-0
100
AcDbDimension
  2
*D7
 10
214.0954197515
 20
102.8351890948
 30
0.0
 11
214.0954197515
 21
121.7351890948
 31
0.0
 70
   160
 71
     2
 42
-1.0
  3
SLDDIMSTYLE0
100
AcDbAlignedDimension
 13
200.0156696925
 23
140.6351890948
 33
0.0
 14
197.0156696925
 24
102.8351890948
 34
0.0
 50
90.0
100
AcDbRotatedDimension
  0
DIMENSION
  5
E6
330
1F
100
AcDbEntity
  8
SLD-0
100
AcDbDimension
  2
*D8
 10
200.0156696925
 20
80.8350390948
 30
0.0
 11
185.5156696925
 21
80.8350390948
 31
0.0
 70
   160
 71
     2
 42
-1.0
  3
SLDDIMSTYLE0
100
AcDbAlignedDimension
 13
171.0156696925
 23
140.6351890948
 33
0.0
 14
200.0156696925
 24
140.6351890948
 34
0.0
 50
0.0
100
AcDbRotatedDimension
  0
INSERT
  5
FA
330
1F
100
AcDbEntity
  8
SLD-0
100
AcDbBlockReference
  2
SW_NOTE_0
 10
162.2228410105
 20
143.0586120666
 30
0.0
  0
LEADER
  5
FC
330
1F
100
AcDbEntity
  8
SLD-0
100
AcDbLeader
  3
SLDDIMSTYLE2
 76
     2
 10
176.3064463028
 20
126.7227581309
 30
0.0
 10
162.2228410105
 20
143.0586120666
 30
0.0
  0
INSERT
  5
108
330
1F
100
AcDbEntity
  8
SLD-0
100
AcDbBlockReference
  2
SW_CENTERMARKSYMBOL_0
 10
177.5156696925
 20
125.8351890948
 30
0.0
  0
INSERT
  5
114
330
1F
100
AcDbEntity
  8
SLD-0
100
AcDbBlockReference
  2
SW_CENTERMARKSYMBOL_1
 10
193.5156696925
 20
125.8351890948
 30
0.0
  0
LINE
  5
115
330
1F
100
AcDbEntity
  8
SLD-0
  6
CENTERX2
370
     0
100
AcDbLine
 10
185.5156696925
 20
164.479951523
 30
0.0
 11
185.5156696925
 21
96.2242154891
 31
0.0
  0
LINE
  5
116
330
1F
100
AcDbEntity
  8
0
  6
Continuous
 62
     7
370
    15
100
AcDbLine
 10
110.8080923256
 20
159.8351890948
 30
0.0
 11
105.8080923256
 21
159.8351890948
 31
0.0
  0
LINE
  5
117
330
1F
100
AcDbEntity
  8
0
  6
Continuous
 62
     7
370
    15
100
AcDbLine
 10
105.8080923256
 20
146.6351890948
 30
0.0
 11
105.8080923256
 21
147.8351890948
 31
0.0
  0
LINE
  5
118
330
1F
100
AcDbEntity
  8
0
  6
Continuous
 62
     7
370
    15
100
AcDbLine
 10
105.8080923256
 20
147.8351890948
 30
0.0
 11
110.8080923256
 21
147.8351890948
 31
0.0
  0
LINE
  5
119
330
1F
100
AcDbEntity
  8
0
  6
Continuous
 62
     7
370
    15
100
AcDbLine
 10
110.8080923256
 20
147.8351890948
 30
0.0
 11
110.8080923256
 21
146.6351890948
 31
0.0
  0
SPLINE
  5
11A
330
1F
100
AcDbEntity
  8
0
  6
Continuous
 62
     7
370
    15
100
AcDbSpline
210
0.0
220
0.0
230
1.0
 70
     8
 71
     3
 72
    19
 73
    15
 74
     0
 42
0.00000001
 43
0.00000001
 40
0.0
 40
0.0
 40
0.0
 40
0.0
 40
0.1197214747108656
 40
0.1847922429844851
 40
0.2499999383422241
 40
0.3150707682102171
 40
0.3802785252891325
 40
0.4999999999999971
 40
0.6197214747108617
 40
0.684792242984281
 40
0.7499999383422277
 40
0.815070768210155
 40
0.8802785252891349
 40
1.0
 40
1.0
 40
1.0
 40
1.0
 10
109.558092325624
 20
151.1351890947967
 30
0.0
 10
109.5413042627441
 20
151.2923698289159
 30
0.0
 10
109.5153915866564
 20
151.5349811104925
 30
0.0
 10
109.3597881604649
 20
151.8263821229607
 30
0.0
 10
109.1983279765659
 20
152.0249542344141
 30
0.0
 10
108.9993856915717
 20
152.187604022844
 30
0.0
 10
108.7080905023545
 20
152.3383252905305
 30
0.0
 10
108.3080931955975
 20
152.4155282343674
 30
0.0
 10
107.9082713254769
 20
152.3383601721979
 30
0.0
 10
107.616956493514
 20
152.1877032006705
 30
0.0
 10
107.4181082285209
 20
152.0252062065086
 30
0.0
 10
107.2564947001669
 20
151.8265396783047
 30
0.0
 10
107.1008175410203
 20
151.5351585111393
 30
0.0
 10
107.0748824583413
 20
151.2923688660626
 30
0.0
 10
107.058092325624
 20
151.1351890947967
 30
0.0
  0
SPLINE
  5
11B
330
1F
100
AcDbEntity
  8
0
  6
Continuous
 62
     7
370
    15
100
AcDbSpline
210
0.0
220
0.0
230
1.0
 70
     8
 71
     3
 72
    19
 73
    15
 74
     0
 42
0.00000001
 43
0.00000001
 40
0.0
 40
0.0
 40
0.0
 40
0.0
 40
0.1197214747108655
 40
0.1847922429846934
 40
0.2499999383422288
 40
0.3150707682103073
 40
0.3802785252891331
 40
0.4999999999999998
 40
0.6197214747108664
 40
0.684792242984792
 40
0.7499999383422203
 40
0.8150707682104202
 40
0.8802785252891345
 40
1.0
 40
1.0
 40
1.0
 40
1.0
 10
107.058092325624
 20
151.1351890947967
 30
0.0
 10
107.0748803885038
 20
150.9780083606774
 30
0.0
 10
107.1007930645916
 20
150.7353970791006
 30
0.0
 10
107.2563964907832
 20
150.4439960666324
 30
0.0
 10
107.4178566746823
 20
150.245423955179
 30
0.0
 10
107.6167989596765
 20
150.0827741667494
 30
0.0
 10
107.9080941488936
 20
149.9320528990627
 30
0.0
 10
108.3080914556505
 20
149.8548499552261
 30
0.0
 10
108.7079133257719
 20
149.9320180173954
 30
0.0
 10
108.9992281577343
 20
150.0826749889236
 30
0.0
 10
109.1980764227278
 20
150.2451719830855
 30
0.0
 10
109.3596899510813
 20
150.443838511289
 30
0.0
 10
109.5153671102277
 20
150.7352196784545
 30
0.0
 10
109.5413021929066
 20
150.9780093235308
 30
0.0
 10
109.558092325624
 20
151.1351890947967
 30
0.0
  0
SPLINE
  5
11C
330
1F
100
AcDbEntity
  8
0
  6
Continuous
 62
     7
370
    15
100
AcDbSpline
210
0.0
220
0.0
230
1.0
 70
     8
 71
     3
 72
    19
 73
    15
 74
     0
 42
0.00000001
 43
0.00000001
 40
0.0
 40
0.0
 40
0.0
 40
0.0
 40
0.1197214747108665
 40
0.1847922429842579
 40
0.2499999383422263
 40
0.3150707682098606
 40
0.3802785252891308
 40
0.4999999999999963
 40
0.6197214747108619
 40
0.6847922429842941
 40
0.7499999383422288
 40
0.8150707682100704
 40
0.8802785252891335
 40
1.0
 40
1.0
 40
1.0
 40
1.0
 10
109.558092325624
 20
156.8351890947967
 30
0.0
 10
109.5413042627441
 20
156.9923698289159
 30
0.0
 10
109.5153915866564
 20
157.2349811104922
 30
0.0
 10
109.359788160465
 20
157.5263821229604
 30
0.0
 10
109.1983279765665
 20
157.7249542344135
 30
0.0
 10
108.999385691572
 20
157.8876040228436
 30
0.0
 10
108.708090502355
 20
158.0383252905305
 30
0.0
 10
108.3080931955975
 20
158.1155282343674
 30
0.0
 10
107.9082713254769
 20
158.0383601721979
 30
0.0
 10
107.616956493514
 20
157.8877032006704
 30
0.0
 10
107.418108228521
 20
157.7252062065087
 30
0.0
 10
107.2564947001671
 20
157.5265396783047
 30
0.0
 10
107.1008175410202
 20
157.2351585111394
 30
0.0
 10
107.0748824583413
 20
156.9923688660626
 30
0.0
 10
107.058092325624
 20
156.8351890947967
 30
0.0
  0
SPLINE
  5
11D
330
1F
100
AcDbEntity
  8
0
  6
Continuous
 62
     7
370
    15
100
AcDbSpline
210
0.0
220
0.0
230
1.0
 70
     8
 71
     3
 72
    19
 73
    15
 74
     0
 42
0.00000001
 43
0.00000001
 40
0.0
 40
0.0
 40
0.0
 40
0.0
 40
0.1197214747108657
 40
0.1847922429847899
 40
0.2499999383422302
 40
0.3150707682105168
 40
0.3802785252891356
 40
0.5000000000000016
 40
0.6197214747108674
 40
0.684792242984858
 40
0.7499999383422337
 40
0.8150707682105119
 40
0.8802785252891344
 40
1.0
 40
1.0
 40
1.0
 40
1.0
 10
107.058092325624
 20
156.8351890947967
 30
0.0
 10
107.0748803885039
 20
156.6780083606775
 30
0.0
 10
107.1007930645917
 20
156.4353970791005
 30
0.0
 10
107.2563964907832
 20
156.1439960666322
 30
0.0
 10
107.4178566746826
 20
155.9454239551787
 30
0.0
 10
107.6167989596767
 20
155.7827741667492
 30
0.0
 10
107.9080941488939
 20
155.6320528990627
 30
0.0
 10
108.3080914556505
 20
155.554849955226
 30
0.0
 10
108.7079133257719
 20
155.6320180173956
 30
0.0
 10
108.9992281577346
 20
155.7826749889233
 30
0.0
 10
109.1980764227279
 20
155.9451719830856
 30
0.0
 10
109.3596899510811
 20
156.1438385112893
 30
0.0
 10
109.5153671102279
 20
156.4352196784545
 30
0.0
 10
109.5413021929067
 20
156.6780093235307
 30
0.0
 10
109.558092325624
 20
156.8351890947967
 30
0.0
  0
LINE
  5
11E
330
1F
100
AcDbEntity
  8
0
  6
Continuous
 62
     7
370
    15
100
AcDbLine
 10
105.8080923256
 20
147.8351890948
 30
0.0
 11
105.8080923256
 21
159.8351890948
 31
0.0
  0
LINE
  5
11F
330
1F
100
AcDbEntity
  8
0
  6
Continuous
 62
     7
370
    15
100
AcDbLine
 10
110.8080923256
 20
159.8351890948
 30
0.0
 11
110.8080923256
 21
147.8351890948
 31
0.0
  0
ARC
  5
120
330
1F
100
AcDbEntity
  8
0
  6
Continuous
 62
     7
370
    15
100
AcDbCircle
 10
108.3080923256
 20
156.8351890948
 30
0.0
 40
1.250000000000014
100
AcDbArc
 50
180.0
 51
0.0
  0
ARC
  5
121
330
1F
100
AcDbEntity
  8
0
  6
Continuous
 62
     7
370
    15
100
AcDbCircle
 10
108.3080923256
 20
156.8351890948
 30
0.0
 40
1.250000000000014
100
AcDbArc
 50
0.0
 51
180.0
  0
ARC
  5
122
330
1F
100
AcDbEntity
  8
0
  6
Continuous
 62
     7
370
    15
100
AcDbCircle
 10
108.3080923256
 20
151.1351890948
 30
0.0
 40
1.250000000000014
100
AcDbArc
 50
180.0
 51
0.0
  0
ARC
  5
123
330
1F
100
AcDbEntity
  8
0
  6
Continuous
 62
     7
370
    15
100
AcDbCircle
 10
108.3080923256
 20
151.1351890948
 30
0.0
 40
1.250000000000014
100
AcDbArc
 50
0.0
 51
180.0
  0
LINE
  5
124
330
1F
100
AcDbEntity
  8
0
  6
Continuous
 62
     7
370
    15
100
AcDbLine
 10
105.8080923256
 20
143.5351890948
 30
0.0
 11
110.8080923256
 21
143.5351890948
 31
0.0
  0
LINE
  5
125
330
1F
100
AcDbEntity
  8
0
  6
Continuous
 62
     7
370
    15
100
AcDbLine
 10
105.8080923256
 20
146.6351890948
 30
0.0
 11
105.8080923256
 21
143.5351890948
 31
0.0
  0
LINE
  5
126
330
1F
100
AcDbEntity
  8
0
  6
Continuous
 62
     7
370
    15
100
AcDbLine
 10
100.1080923256
 20
146.6351890948
 30
0.0
 11
105.8080923256
 21
146.6351890948
 31
0.0
  0
LINE
  5
127
330
1F
100
AcDbEntity
  8
0
  6
Continuous
 62
     7
370
    15
100
AcDbLine
 10
100.1080923256
 20
140.6351890948
 30
0.0
 11
100.1080923256
 21
146.6351890948
 31
0.0
  0
LINE
  5
128
330
1F
100
AcDbEntity
  8
0
  6
Continuous
 62
     7
370
    15
100
AcDbLine
 10
116.5080923256
 20
140.6351890948
 30
0.0
 11
100.1080923256
 21
140.6351890948
 31
0.0
  0
LINE
  5
129
330
1F
100
AcDbEntity
  8
0
  6
Continuous
 62
     7
370
    15
100
AcDbLine
 10
116.5080923256
 20
146.6351890948
 30
0.0
 11
116.5080923256
 21
140.6351890948
 31
0.0
  0
LINE
  5
12A
330
1F
100
AcDbEntity
  8
0
  6
Continuous
 62
     7
370
    15
100
AcDbLine
 10
110.8080923256
 20
146.6351890948
 30
0.0
 11
116.5080923256
 21
146.6351890948
 31
0.0
  0
LINE
  5
12B
330
1F
100
AcDbEntity
  8
0
  6
Continuous
 62
     7
370
    15
100
AcDbLine
 10
110.8080923256
 20
143.5351890948
 30
0.0
 11
110.8080923256
 21
146.6351890948
 31
0.0
  0
ARC
  5
12C
330
1F
100
AcDbEntity
  8
0
  6
Continuous
 62
     7
370
    15
100
AcDbCircle
 10
102.6080923256
 20
129.8351890948
 30
0.0
 40
1.500000000000028
100
AcDbArc
 50
90.0
 51
270.0
  0
ARC
  5
12D
330
1F
100
AcDbEntity
  8
0
  6
Continuous
 62
     7
370
    15
100
AcDbCircle
 10
102.6080923256
 20
129.8351890948
 30
0.0
 40
1.500000000000028
100
AcDbArc
 50
270.0
 51
90.0
  0
LINE
  5
12E
330
1F
100
AcDbEntity
  8
0
  6
Continuous
 62
     7
370
    15
100
AcDbLine
 10
110.8080923256
 20
102.8351890948
 30
0.0
 11
116.5080923256
 21
102.8351890948
 31
0.0
  0
LINE
  5
12F
330
1F
100
AcDbEntity
  8
0
  6
Continuous
 62
     7
370
    15
100
AcDbLine
 10
105.8080923256
 20
102.8351890948
 30
0.0
 11
110.8080923256
 21
102.8351890948
 31
0.0
  0
LINE
  5
130
330
1F
100
AcDbEntity
  8
0
  6
Continuous
 62
     7
370
    15
100
AcDbLine
 10
100.1080923256
 20
102.8351890948
 30
0.0
 11
105.8080923256
 21
102.8351890948
 31
0.0
  0
SPLINE
  5
131
330
1F
100
AcDbEntity
  8
0
  6
Continuous
 62
     7
370
    15
100
AcDbSpline
210
0.0
220
0.0
230
1.0
 70
     8
 71
     3
 72
    19
 73
    15
 74
     0
 42
0.00000001
 43
0.00000001
 40
0.0
 40
0.0
 40
0.0
 40
0.0
 40
0.1197214739305934
 40
0.1848036583180492
 40
0.249999948618407
 40
0.3150821843433823
 40
0.3802785260694138
 40
0.5000000000000057
 40
0.6197214739305997
 40
0.6848036583176589
 40
0.7499999486184101
 40
0.8150821843426835
 40
0.8802785260694068
 40
1.0
 40
1.0
 40
1.0
 40
1.0
 10
102.608092325624
 20
131.3351890947967
 30
0.0
 10
102.4194755468369
 20
131.3150432024347
 30
0.0
 10
102.1283241802891
 20
131.2839457352356
 30
0.0
 10
101.778644903892
 20
131.0972143225375
 30
0.0
 10
101.5403489778239
 20
130.9034467038258
 30
0.0
 10
101.3451844465435
 20
130.6647254129014
 30
0.0
 10
101.1643254299784
 20
130.3151691757452
 30
0.0
 10
101.0716853405428
 20
129.835189964768
 30
0.0
 10
101.1642905483241
 20
129.3553861904355
 30
0.0
 10
101.3450852687079
 20
129.0058103105495
 30
0.0
 10
101.5400970057246
 20
128.7671830396108
 30
0.0
 10
101.7784873485278
 20
128.5732620764491
 30
0.0
 10
102.1281467796382
 20
128.3864569307677
 30
0.0
 10
102.4194765096878
 20
128.355337056985
 30
0.0
 10
102.608092325624
 20
128.3351890947967
 30
0.0
  0
SPLINE
  5
132
330
1F
100
AcDbEntity
  8
0
  6
Continuous
 62
     7
370
    15
100
AcDbSpline
210
0.0
220
0.0
230
1.0
 70
     8
 71
     3
 72
    19
 73
    15
 74
     0
 42
0.00000001
 43
0.00000001
 40
0.0
 40
0.0
 40
0.0
 40
0.0
 40
0.1197214739305898
 40
0.1848036583175125
 40
0.2499999486184001
 40
0.315082184343156
 40
0.3802785260694175
 40
0.5000000000000091
 40
0.6197214739305993
 40
0.6848036583185589
 40
0.7499999486184118
 40
0.8150821843438001
 40
0.8802785260694096
 40
1.0
 40
1.0
 40
1.0
 40
1.0
 10
102.608092325624
 20
128.3351890947967
 30
0.0
 10
102.796709104411
 20
128.3553349871586
 30
0.0
 10
103.087860470958
 20
128.3864324543576
 30
0.0
 10
103.4375397473552
 20
128.5731638670554
 30
0.0
 10
103.6758356734232
 20
128.7669314857667
 30
0.0
 10
103.8710002047047
 20
129.0056527766913
 30
0.0
 10
104.0518592212693
 20
129.355209013848
 30
0.0
 10
104.1444993107053
 20
129.8351882248253
 30
0.0
 10
104.0518941029235
 20
130.3149919991592
 30
0.0
 10
103.8710993825394
 20
130.6645678790452
 30
0.0
 10
103.6760876455211
 20
130.9031951499848
 30
0.0
 10
103.4376973027187
 20
131.0971161131454
 30
0.0
 10
103.088037871608
 20
131.2839212588258
 30
0.0
 10
102.7967081415602
 20
131.3150411326084
 30
0.0
 10
102.608092325624
 20
131.3351890947967
 30
0.0
  0
LINE
  5
133
330
1F
100
AcDbEntity
  8
0
  6
Continuous
 62
     7
370
    15
100
AcDbLine
 10
100.1080923256
 20
102.8351890948
 30
0.0
 11
100.1080923256
 21
140.6351890948
 31
0.0
  0
LINE
  5
134
330
1F
100
AcDbEntity
  8
0
  6
Continuous
 62
     7
370
    15
100
AcDbLine
 10
105.8080923256
 20
140.6351890948
 30
0.0
 11
105.8080923256
 21
102.8351890948
 31
0.0
  0
SPLINE
  5
135
330
1F
100
AcDbEntity
  8
0
  6
Continuous
 62
     7
370
    15
100
AcDbSpline
210
0.0
220
0.0
230
1.0
 70
     8
 71
     3
 72
    19
 73
    15
 74
     0
 42
0.00000001
 43
0.00000001
 40
0.0
 40
0.0
 40
0.0
 40
0.0
 40
0.1197214739305915
 40
0.1848036583181937
 40
0.2499999486183985
 40
0.3150821843435937
 40
0.3802785260694126
 40
0.5000000000000046
 40
0.6197214739305972
 40
0.6848036583179872
 40
0.7499999486183959
 40
0.8150821843431519
 40
0.8802785260694083
 40
1.0
 40
1.0
 40
1.0
 40
1.0
 10
114.008092325624
 20
131.3351890947967
 30
0.0
 10
113.8194755468369
 20
131.3150432024347
 30
0.0
 10
113.5283241802888
 20
131.2839457352357
 30
0.0
 10
113.1786449038919
 20
131.0972143225372
 30
0.0
 10
112.9403489778235
 20
130.9034467038254
 30
0.0
 10
112.745184446543
 20
130.6647254129013
 30
0.0
 10
112.5643254299785
 20
130.3151691757447
 30
0.0
 10
112.4716853405427
 20
129.8351899647681
 30
0.0
 10
112.564290548324
 20
129.3553861904349
 30
0.0
 10
112.7450852687085
 20
129.0058103105493
 30
0.0
 10
112.9400970057255
 20
128.7671830396099
 30
0.0
 10
113.1784873485282
 20
128.5732620764481
 30
0.0
 10
113.528146779639
 20
128.3864569307679
 30
0.0
 10
113.8194765096878
 20
128.3553370569851
 30
0.0
 10
114.008092325624
 20
128.3351890947966
 30
0.0
  0
SPLINE
  5
136
330
1F
100
AcDbEntity
  8
0
  6
Continuous
 62
     7
370
    15
100
AcDbSpline
210
0.0
220
0.0
230
1.0
 70
     8
 71
     3
 72
    19
 73
    15
 74
     0
 42
0.00000001
 43
0.00000001
 40
0.0
 40
0.0
 40
0.0
 40
0.0
 40
0.1197214739305914
 40
0.1848036583178566
 40
0.2499999486183948
 40
0.3150821843430477
 40
0.3802785260694012
 40
0.4999999999999927
 40
0.6197214739305836
 40
0.6848036583181724
 40
0.7499999486184137
 40
0.8150821843437256
 40
0.8802785260694084
 40
1.0
 40
1.0
 40
1.0
 40
1.0
 10
114.008092325624
 20
128.3351890947966
 30
0.0
 10
114.1967091044111
 20
128.3553349871586
 30
0.0
 10
114.4878604709587
 20
128.3864324543575
 30
0.0
 10
114.8375397473555
 20
128.573163867056
 30
0.0
 10
115.0758356734236
 20
128.7669314857669
 30
0.0
 10
115.2710002047042
 20
129.0056527766914
 30
0.0
 10
115.4518592212695
 20
129.3552090138477
 30
0.0
 10
115.5444993107053
 20
129.8351882248254
 30
0.0
 10
115.4518941029234
 20
130.3149919991585
 30
0.0
 10
115.2710993825403
 20
130.664567879045
 30
0.0
 10
115.0760876455215
 20
130.9031951499842
 30
0.0
 10
114.8376973027188
 20
131.0971161131453
 30
0.0
 10
114.4880378716081
 20
131.2839212588258
 30
0.0
 10
114.1967081415602
 20
131.3150411326084
 30
0.0
 10
114.008092325624
 20
131.3351890947967
 30
0.0
  0
LINE
  5
137
330
1F
100
AcDbEntity
  8
0
  6
Continuous
 62
     7
370
    15
100
AcDbLine
 10
116.5080923256
 20
140.6351890948
 30
0.0
 11
116.5080923256
 21
102.8351890948
 31
0.0
  0
LINE
  5
138
330
1F
100
AcDbEntity
  8
0
  6
Continuous
 62
     7
370
    15
100
AcDbLine
 10
110.8080923256
 20
102.8351890948
 30
0.0
 11
110.8080923256
 21
140.6351890948
 31
0.0
  0
ARC
  5
139
330
1F
100
AcDbEntity
  8
0
  6
Continuous
 62
     7
370
    15
100
AcDbCircle
 10
114.0080923256
 20
129.8351890948
 30
0.0
 40
1.500000000000028
100
AcDbArc
 50
90.0
 51
270.0
  0
ARC
  5
13A
330
1F
100
AcDbEntity
  8
0
  6
Continuous
 62
     7
370
    15
100
AcDbCircle
 10
114.0080923256
 20
129.8351890948
 30
0.0
 40
1.500000000000028
100
AcDbArc
 50
270.0
 51
90.0
  0
LINE
  5
13B
330
1F
100
AcDbEntity
  8
SLD-0
100
AcDbLine
 10
95.4583848956
 20
129.8351890948
 30
0.0
 11
119.0295515714
 21
129.8351890948
 31
0.0
  0
LINE
  5
13C
330
1F
100
AcDbEntity
  8
SLD-0
100
AcDbLine
 10
102.6023449739
 20
132.6321870088
 30
0.0
 11
102.6023449739
 21
127.5049145343
 31
0.0
  0
LINE
  5
13D
330
1F
100
AcDbEntity
  8
SLD-0
100
AcDbLine
 10
114.0023449739
 20
132.6321870088
 30
0.0
 11
114.0023449739
 21
127.5049145343
 31
0.0
  0
CIRCLE
  5
13E
330
1F
100
AcDbEntity
  8
SLD-0
100
AcDbCircle
 10
108.3080923256
 20
156.8351890948
 30
0.0
 40
1.236938705696232
  0
CIRCLE
  5
13F
330
1F
100
AcDbEntity
  8
SLD-0
100
AcDbCircle
 10
108.3080923256
 20
151.1351890948
 30
0.0
 40
1.242402242120164
  0
DIMENSION
  5
140
330
1F
100
AcDbEntity
  8
SLD-0
100
AcDbDimension
  2
*D12
 10
128.4393316426
 20
102.8351890948
 30
0.0
 11
128.4393316426
 21
116.3351890948
 31
0.0
 70
   160
 71
     2
 42
-1.0
  3
SLDDIMSTYLE0
100
AcDbAlignedDimension
 13
119.0295515714
 23
129.8351890948
 33
0.0
 14
116.5080923256
 24
102.8351890948
 34
0.0
 50
90.0
100
AcDbRotatedDimension
  0
DIMENSION
  5
14A
330
1F
100
AcDbEntity
  8
SLD-0
100
AcDbDimension
  2
*D13
 10
114.0023449739
 20
92.8350390948
 30
0.0
 11
108.3023449739
 21
92.8350390948
 31
0.0
 70
   160
 71
     2
 42
-1.0
  3
SLDDIMSTYLE1
100
AcDbAlignedDimension
 13
102.6023449739
 23
127.5049145343
 33
0.0
 14
114.0023449739
 24
127.5049145343
 34
0.0
100
AcDbRotatedDimension
  0
INSERT
  5
160
330
1F
100
AcDbEntity
  8
SLD-0
100
AcDbBlockReference
  2
SW_NOTE_1
 10
94.5520469542
 20
141.570423119
 30
0.0
  0
LEADER
  5
161
330
1F
100
AcDbEntity
  8
SLD-0
100
AcDbLeader
  3
SLDDIMSTYLE2
 76
     2
 10
101.5342929175
 20
130.8825604741
 30
0.0
 10
94.5520469542
 20
141.570423119
 30
0.0
  0
INSERT
  5
16D
330
1F
100
AcDbEntity
  8
SLD-0
100
AcDbBlockReference
  2
SW_CENTERMARKSYMBOL_2
 10
108.3080923256
 20
151.1351890948
 30
0.0
  0
INSERT
  5
179
330
1F
100
AcDbEntity
  8
SLD-0
100
AcDbBlockReference
  2
SW_CENTERMARKSYMBOL_3
 10
108.3080923256
 20
156.8351890948
 30
0.0
  0
LINE
  5
17A
330
1F
100
AcDbEntity
  8
0
  6
Continuous
 62
     7
370
    15
100
AcDbLine
 10
293.0389106479
 20
159.8351890948
 30
0.0
 11
288.0389106479
 21
159.8351890948
 31
0.0
  0
LINE
  5
17B
330
1F
100
AcDbEntity
  8
0
  6
Continuous
 62
     7
370
    15
100
AcDbLine
 10
288.0389106479
 20
146.6351890948
 30
0.0
 11
288.0389106479
 21
147.8351890948
 31
0.0
  0
LINE
  5
17C
330
1F
100
AcDbEntity
  8
0
  6
Continuous
 62
     7
370
    15
100
AcDbLine
 10
288.0389106479
 20
147.8351890948
 30
0.0
 11
293.0389106479
 21
147.8351890948
 31
0.0
  0
LINE
  5
17D
330
1F
100
AcDbEntity
  8
0
  6
Continuous
 62
     7
370
    15
100
AcDbLine
 10
293.0389106479
 20
147.8351890948
 30
0.0
 11
293.0389106479
 21
146.6351890948
 31
0.0
  0
SPLINE
  5
17E
330
1F
100
AcDbEntity
  8
0
  6
Continuous
 62
     7
370
    15
100
AcDbSpline
210
0.0
220
0.0
230
1.0
 70
     8
 71
     3
 72
    19
 73
    15
 74
     0
 42
0.00000001
 43
0.00000001
 40
0.0
 40
0.0
 40
0.0
 40
0.0
 40
0.1197214747108656
 40
0.1847922429846931
 40
0.2499999383422287
 40
0.3150707682103072
 40
0.3802785252891331
 40
0.4999999999999997
 40
0.6197214747108664
 40
0.6847922429847918
 40
0.74999993834222
 40
0.8150707682104201
 40
0.8802785252891345
 40
1.0
 40
1.0
 40
1.0
 40
1.0
 10
289.2889106479472
 20
151.1351890947967
 30
0.0
 10
289.3056987108271
 20
150.9780083606774
 30
0.0
 10
289.3316113869149
 20
150.7353970791006
 30
0.0
 10
289.4872148131064
 20
150.4439960666324
 30
0.0
 10
289.6486749970055
 20
150.245423955179
 30
0.0
 10
289.8476172819998
 20
150.0827741667494
 30
0.0
 10
290.1389124712168
 20
149.9320528990627
 30
0.0
 10
290.5389097779737
 20
149.8548499552261
 30
0.0
 10
290.9387316480951
 20
149.9320180173954
 30
0.0
 10
291.2300464800576
 20
150.0826749889236
 30
0.0
 10
291.428894745051
 20
150.2451719830855
 30
0.0
 10
291.5905082734046
 20
150.443838511289
 30
0.0
 10
291.7461854325509
 20
150.7352196784545
 30
0.0
 10
291.7721205152298
 20
150.9780093235308
 30
0.0
 10
291.7889106479472
 20
151.1351890947967
 30
0.0
  0
SPLINE
  5
17F
330
1F
100
AcDbEntity
  8
0
  6
Continuous
 62
     7
370
    15
100
AcDbSpline
210
0.0
220
0.0
230
1.0
 70
     8
 71
     3
 72
    19
 73
    15
 74
     0
 42
0.00000001
 43
0.00000001
 40
0.0
 40
0.0
 40
0.0
 40
0.0
 40
0.1197214747108652
 40
0.1847922429844848
 40
0.2499999383422238
 40
0.3150707682102168
 40
0.3802785252891323
 40
0.4999999999999968
 40
0.6197214747108615
 40
0.6847922429842811
 40
0.749999938342227
 40
0.815070768210155
 40
0.8802785252891349
 40
1.0
 40
1.0
 40
1.0
 40
1.0
 10
291.7889106479472
 20
151.1351890947967
 30
0.0
 10
291.7721225850673
 20
151.2923698289159
 30
0.0
 10
291.7462099089797
 20
151.5349811104925
 30
0.0
 10
291.5906064827881
 20
151.8263821229607
 30
0.0
 10
291.4291462988892
 20
152.0249542344141
 30
0.0
 10
291.2302040138949
 20
152.187604022844
 30
0.0
 10
290.9389088246777
 20
152.3383252905305
 30
0.0
 10
290.5389115179207
 20
152.4155282343674
 30
0.0
 10
290.1390896478001
 20
152.3383601721979
 30
0.0
 10
289.8477748158372
 20
152.1877032006705
 30
0.0
 10
289.6489265508442
 20
152.0252062065086
 30
0.0
 10
289.4873130224901
 20
151.8265396783046
 30
0.0
 10
289.3316358633435
 20
151.5351585111393
 30
0.0
 10
289.3057007806646
 20
151.2923688660626
 30
0.0
 10
289.2889106479472
 20
151.1351890947967
 30
0.0
  0
SPLINE
  5
180
330
1F
100
AcDbEntity
  8
0
  6
Continuous
 62
     7
370
    15
100
AcDbSpline
210
0.0
220
0.0
230
1.0
 70
     8
 71
     3
 72
    19
 73
    15
 74
     0
 42
0.00000001
 43
0.00000001
 40
0.0
 40
0.0
 40
0.0
 40
0.0
 40
0.1197214747108649
 40
0.18479224298479
 40
0.2499999383422296
 40
0.315070768210517
 40
0.3802785252891354
 40
0.5000000000000014
 40
0.6197214747108672
 40
0.6847922429848579
 40
0.7499999383422336
 40
0.8150707682105117
 40
0.8802785252891342
 40
1.0
 40
1.0
 40
1.0
 40
1.0
 10
289.2889106479472
 20
156.8351890947967
 30
0.0
 10
289.3056987108271
 20
156.6780083606775
 30
0.0
 10
289.3316113869149
 20
156.4353970791005
 30
0.0
 10
289.4872148131064
 20
156.1439960666322
 30
0.0
 10
289.6486749970058
 20
155.9454239551787
 30
0.0
 10
289.8476172819999
 20
155.7827741667492
 30
0.0
 10
290.1389124712171
 20
155.6320528990627
 30
0.0
 10
290.5389097779737
 20
155.554849955226
 30
0.0
 10
290.9387316480951
 20
155.6320180173956
 30
0.0
 10
291.2300464800579
 20
155.7826749889233
 30
0.0
 10
291.4288947450511
 20
155.9451719830856
 30
0.0
 10
291.5905082734043
 20
156.1438385112893
 30
0.0
 10
291.7461854325511
 20
156.4352196784545
 30
0.0
 10
291.7721205152299
 20
156.6780093235308
 30
0.0
 10
291.7889106479472
 20
156.8351890947967
 30
0.0
  0
SPLINE
  5
181
330
1F
100
AcDbEntity
  8
0
  6
Continuous
 62
     7
370
    15
100
AcDbSpline
210
0.0
220
0.0
230
1.0
 70
     8
 71
     3
 72
    19
 73
    15
 74
     0
 42
0.00000001
 43
0.00000001
 40
0.0
 40
0.0
 40
0.0
 40
0.0
 40
0.1197214747108664
 40
0.1847922429842578
 40
0.2499999383422262
 40
0.3150707682098605
 40
0.3802785252891306
 40
0.4999999999999961
 40
0.6197214747108617
 40
0.6847922429842941
 40
0.7499999383422281
 40
0.8150707682100697
 40
0.8802785252891328
 40
1.0
 40
1.0
 40
1.0
 40
1.0
 10
291.7889106479472
 20
156.8351890947967
 30
0.0
 10
291.7721225850673
 20
156.9923698289159
 30
0.0
 10
291.7462099089797
 20
157.2349811104922
 30
0.0
 10
291.5906064827883
 20
157.5263821229604
 30
0.0
 10
291.4291462988897
 20
157.7249542344136
 30
0.0
 10
291.2302040138952
 20
157.8876040228436
 30
0.0
 10
290.9389088246782
 20
158.0383252905305
 30
0.0
 10
290.5389115179207
 20
158.1155282343674
 30
0.0
 10
290.1390896478001
 20
158.0383601721979
 30
0.0
 10
289.8477748158372
 20
157.8877032006704
 30
0.0
 10
289.6489265508442
 20
157.7252062065087
 30
0.0
 10
289.4873130224903
 20
157.5265396783047
 30
0.0
 10
289.3316358633435
 20
157.2351585111394
 30
0.0
 10
289.3057007806646
 20
156.9923688660626
 30
0.0
 10
289.2889106479472
 20
156.8351890947967
 30
0.0
  0
LINE
  5
182
330
1F
100
AcDbEntity
  8
0
  6
Continuous
 62
     7
370
    15
100
AcDbLine
 10
288.0389106479
 20
147.8351890948
 30
0.0
 11
288.0389106479
 21
159.8351890948
 31
0.0
  0
LINE
  5
183
330
1F
100
AcDbEntity
  8
0
  6
Continuous
 62
     7
370
    15
100
AcDbLine
 10
293.0389106479
 20
159.8351890948
 30
0.0
 11
293.0389106479
 21
147.8351890948
 31
0.0
  0
ARC
  5
184
330
1F
100
AcDbEntity
  8
0
  6
Continuous
 62
     7
370
    15
100
AcDbCircle
 10
290.5389106479
 20
156.8351890948
 30
0.0
 40
1.250000000000057
100
AcDbArc
 50
180.0
 51
0.0
  0
ARC
  5
185
330
1F
100
AcDbEntity
  8
0
  6
Continuous
 62
     7
370
    15
100
AcDbCircle
 10
290.5389106479
 20
156.8351890948
 30
0.0
 40
1.250000000000057
100
AcDbArc
 50
0.0
 51
180.0
  0
ARC
  5
186
330
1F
100
AcDbEntity
  8
0
  6
Continuous
 62
     7
370
    15
100
AcDbCircle
 10
290.5389106479
 20
151.1351890948
 30
0.0
 40
1.250000000000057
100
AcDbArc
 50
180.0
 51
0.0
  0
ARC
  5
187
330
1F
100
AcDbEntity
  8
0
  6
Continuous
 62
     7
370
    15
100
AcDbCircle
 10
290.5389106479
 20
151.1351890948
 30
0.0
 40
1.250000000000057
100
AcDbArc
 50
0.0
 51
180.0
  0
ARC
  5
188
330
1F
100
AcDbEntity
  8
0
  6
Continuous
 62
     7
370
    15
100
AcDbCircle
 10
296.0389106479
 20
121.8351890948
 30
0.0
 40
1.500000000000014
100
AcDbArc
 50
90.0
 51
270.0
  0
ARC
  5
189
330
1F
100
AcDbEntity
  8
0
  6
Continuous
 62
     7
370
    15
100
AcDbCircle
 10
285.0389106479
 20
111.8351890948
 30
0.0
 40
1.5
100
AcDbArc
 50
90.0
 51
270.0
  0
ARC
  5
18A
330
1F
100
AcDbEntity
  8
0
  6
Continuous
 62
     7
370
    15
100
AcDbCircle
 10
285.0389106479
 20
111.8351890948
 30
0.0
 40
1.5
100
AcDbArc
 50
270.0
 51
90.0
  0
ARC
  5
18B
330
1F
100
AcDbEntity
  8
0
  6
Continuous
 62
     7
370
    15
100
AcDbCircle
 10
296.0389106479
 20
121.8351890948
 30
0.0
 40
1.500000000000014
100
AcDbArc
 50
270.0
 51
90.0
  0
LINE
  5
18C
330
1F
100
AcDbEntity
  8
0
  6
Continuous
 62
     7
370
    15
100
AcDbLine
 10
288.0389106479
 20
102.8351890948
 30
0.0
 11
293.0389106479
 21
102.8351890948
 31
0.0
  0
LINE
  5
18D
330
1F
100
AcDbEntity
  8
0
  6
Continuous
 62
     7
370
    15
100
AcDbLine
 10
282.3389106479
 20
102.8351890948
 30
0.0
 11
288.0389106479
 21
102.8351890948
 31
0.0
  0
LINE
  5
18E
330
1F
100
AcDbEntity
  8
0
  6
Continuous
 62
     7
370
    15
100
AcDbLine
 10
293.0389106479
 20
102.8351890948
 30
0.0
 11
298.7389106479
 21
102.8351890948
 31
0.0
  0
SPLINE
  5
18F
330
1F
100
AcDbEntity
  8
0
  6
Continuous
 62
     7
370
    15
100
AcDbSpline
210
0.0
220
0.0
230
1.0
 70
     8
 71
     3
 72
    19
 73
    15
 74
     0
 42
0.00000001
 43
0.00000001
 40
0.0
 40
0.0
 40
0.0
 40
0.0
 40
0.1197214739305939
 40
0.1848036583184401
 40
0.249999948618403
 40
0.3150821843435674
 40
0.3802785260694067
 40
0.5000000000000001
 40
0.6197214739305948
 40
0.6848036583178687
 40
0.7499999486184122
 40
0.81508218434297
 40
0.8802785260694064
 40
1.0
 40
1.0
 40
1.0
 40
1.0
 10
296.0389106479473
 20
123.3351890947967
 30
0.0
 10
295.8502938691602
 20
123.3150432024347
 30
0.0
 10
295.5591425026117
 20
123.2839457352356
 30
0.0
 10
295.2094632262149
 20
123.097214322537
 30
0.0
 10
294.9711673001464
 20
122.9034467038252
 30
0.0
 10
294.7760027688667
 20
122.6647254129011
 30
0.0
 10
294.5951437523015
 20
122.3151691757449
 30
0.0
 10
294.5025036628659
 20
121.835189964768
 30
0.0
 10
294.5951088706475
 20
121.3553861904352
 30
0.0
 10
294.7759035910311
 20
121.0058103105491
 30
0.0
 10
294.9709153280484
 20
120.7671830396102
 30
0.0
 10
295.2093056708516
 20
120.5732620764489
 30
0.0
 10
295.5589651019619
 20
120.3864569307676
 30
0.0
 10
295.850294832011
 20
120.3553370569849
 30
0.0
 10
296.0389106479473
 20
120.3351890947967
 30
0.0
  0
SPLINE
  5
190
330
1F
100
AcDbEntity
  8
0
  6
Continuous
 62
     7
370
    15
100
AcDbSpline
210
0.0
220
0.0
230
1.0
 70
     8
 71
     3
 72
    19
 73
    15
 74
     0
 42
0.00000001
 43
0.00000001
 40
0.0
 40
0.0
 40
0.0
 40
0.0
 40
0.1197214739305903
 40
0.1848036583178192
 40
0.249999948618411
 40
0.3150821843429744
 40
0.3802785260693962
 40
0.4999999999999872
 40
0.6197214739305769
 40
0.6848036583179543
 40
0.7499999486183949
 40
0.8150821843437386
 40
0.8802785260694093
 40
1.0
 40
1.0
 40
1.0
 40
1.0
 10
296.0389106479473
 20
120.3351890947967
 30
0.0
 10
296.2275274267342
 20
120.3553349871587
 30
0.0
 10
296.5186787932817
 20
120.3864324543578
 30
0.0
 10
296.8683580696791
 20
120.5731638670554
 30
0.0
 10
297.1066539957467
 20
120.7669314857668
 30
0.0
 10
297.3018185270268
 20
121.0056527766917
 30
0.0
 10
297.482677543593
 20
121.3552090138474
 30
0.0
 10
297.5753176330284
 20
121.8351882248254
 30
0.0
 10
297.4827124252469
 20
122.3149919991582
 30
0.0
 10
297.3019177048634
 20
122.6645678790445
 30
0.0
 10
297.106905967845
 20
122.9031951499839
 30
0.0
 10
296.8685156250424
 20
123.0971161131459
 30
0.0
 10
296.5188561939311
 20
123.2839212588254
 30
0.0
 10
296.2275264638834
 20
123.3150411326082
 30
0.0
 10
296.0389106479473
 20
123.3351890947967
 30
0.0
  0
LINE
  5
191
330
1F
100
AcDbEntity
  8
0
  6
Continuous
 62
     7
370
    15
100
AcDbLine
 10
298.7389106479
 20
140.6351890948
 30
0.0
 11
298.7389106479
 21
102.8351890948
 31
0.0
  0
LINE
  5
192
330
1F
100
AcDbEntity
  8
0
  6
Continuous
 62
     7
370
    15
100
AcDbLine
 10
293.0389106479
 20
102.8351890948
 30
0.0
 11
293.0389106479
 21
140.6351890948
 31
0.0
  0
LINE
  5
193
330
1F
100
AcDbEntity
  8
0
  6
Continuous
 62
     7
370
    15
100
AcDbLine
 10
288.0389106479
 20
143.5351890948
 30
0.0
 11
288.0389106479
 21
146.6351890948
 31
0.0
  0
SPLINE
  5
194
330
1F
100
AcDbEntity
  8
0
  6
Continuous
 62
     7
370
    15
100
AcDbSpline
210
0.0
220
0.0
230
1.0
 70
     8
 71
     3
 72
    19
 73
    15
 74
     0
 42
0.00000001
 43
0.00000001
 40
0.0
 40
0.0
 40
0.0
 40
0.0
 40
0.1197214739305892
 40
0.1848036583177953
 40
0.2499999486184093
 40
0.315082184343241
 40
0.3802785260694062
 40
0.4999999999999945
 40
0.6197214739305844
 40
0.6848036583172156
 40
0.7499999486183966
 40
0.815082184342919
 40
0.8802785260694109
 40
1.0
 40
1.0
 40
1.0
 40
1.0
 10
285.0389106479472
 20
113.3351890947967
 30
0.0
 10
284.8502938691602
 20
113.3150432024346
 30
0.0
 10
284.5591425026128
 20
113.2839457352355
 30
0.0
 10
284.2094632262154
 20
113.097214322538
 30
0.0
 10
283.9711673001476
 20
112.9034467038262
 30
0.0
 10
283.776002768867
 20
112.6647254129015
 30
0.0
 10
283.5951437523016
 20
112.3151691757454
 30
0.0
 10
283.502503662866
 20
111.835189964768
 30
0.0
 10
283.5951088706473
 20
111.3553861904362
 30
0.0
 10
283.7759035910306
 20
111.0058103105499
 30
0.0
 10
283.9709153280477
 20
110.7671830396111
 30
0.0
 10
284.2093056708509
 20
110.5732620764481
 30
0.0
 10
284.558965101962
 20
110.386456930768
 30
0.0
 10
284.8502948320111
 20
110.3553370569851
 30
0.0
 10
285.0389106479472
 20
110.3351890947967
 30
0.0
  0
SPLINE
  5
195
330
1F
100
AcDbEntity
  8
0
  6
Continuous
 62
     7
370
    15
100
AcDbSpline
210
0.0
220
0.0
230
1.0
 70
     8
 71
     3
 72
    19
 73
    15
 74
     0
 42
0.00000001
 43
0.00000001
 40
0.0
 40
0.0
 40
0.0
 40
0.0
 40
0.1197214739305913
 40
0.1848036583177669
 40
0.2499999486183835
 40
0.3150821843429095
 40
0.3802785260694004
 40
0.4999999999999933
 40
0.6197214739305847
 40
0.6848036583182333
 40
0.7499999486183977
 40
0.815082184343683
 40
0.8802785260694086
 40
1.0
 40
1.0
 40
1.0
 40
1.0
 10
285.0389106479472
 20
110.3351890947967
 30
0.0
 10
285.2275274267344
 20
110.3553349871585
 30
0.0
 10
285.5186787932819
 20
110.3864324543573
 30
0.0
 10
285.8683580696784
 20
110.5731638670562
 30
0.0
 10
286.1066539957466
 20
110.7669314857667
 30
0.0
 10
286.3018185270277
 20
111.0056527766911
 30
0.0
 10
286.4826775435925
 20
111.3552090138476
 30
0.0
 10
286.5753176330286
 20
111.8351882248253
 30
0.0
 10
286.4827124252469
 20
112.3149919991587
 30
0.0
 10
286.3019177048629
 20
112.6645678790447
 30
0.0
 10
286.1069059678448
 20
112.9031951499842
 30
0.0
 10
285.8685156250423
 20
113.0971161131457
 30
0.0
 10
285.5188561939314
 20
113.2839212588256
 30
0.0
 10
285.2275264638834
 20
113.3150411326083
 30
0.0
 10
285.0389106479472
 20
113.3351890947967
 30
0.0
  0
LINE
  5
196
330
1F
100
AcDbEntity
  8
0
  6
Continuous
 62
     7
370
    15
100
AcDbLine
 10
282.3389106479
 20
102.8351890948
 30
0.0
 11
282.3389106479
 21
140.6351890948
 31
0.0
  0
LINE
  5
197
330
1F
100
AcDbEntity
  8
0
  6
Continuous
 62
     7
370
    15
100
AcDbLine
 10
288.0389106479
 20
140.6351890948
 30
0.0
 11
288.0389106479
 21
102.8351890948
 31
0.0
  0
LINE
  5
198
330
1F
100
AcDbEntity
  8
0
  6
Continuous
 62
     7
370
    15
100
AcDbLine
 10
293.0389106479
 20
143.5351890948
 30
0.0
 11
293.0389106479
 21
146.6351890948
 31
0.0
  0
LINE
  5
199
330
1F
100
AcDbEntity
  8
0
  6
Continuous
 62
     7
370
    15
100
AcDbLine
 10
282.3389106479
 20
140.6351890948
 30
0.0
 11
282.3389106479
 21
146.6351890948
 31
0.0
  0
LINE
  5
19A
330
1F
100
AcDbEntity
  8
0
  6
Continuous
 62
     7
370
    15
100
AcDbLine
 10
298.7389106479
 20
140.6351890948
 30
0.0
 11
298.7389106479
 21
146.6351890948
 31
0.0
  0
LINE
  5
19B
330
1F
100
AcDbEntity
  8
0
  6
Continuous
 62
     7
370
    15
100
AcDbLine
 10
293.0389106479
 20
143.5351890948
 30
0.0
 11
288.0389106479
 21
143.5351890948
 31
0.0
  0
LINE
  5
19C
330
1F
100
AcDbEntity
  8
0
  6
Continuous
 62
     7
370
    15
100
AcDbLine
 10
288.0389106479
 20
146.6351890948
 30
0.0
 11
282.3389106479
 21
146.6351890948
 31
0.0
  0
LINE
  5
19D
330
1F
100
AcDbEntity
  8
0
  6
Continuous
 62
     7
370
    15
100
AcDbLine
 10
282.3389106479
 20
140.6351890948
 30
0.0
 11
298.7389106479
 21
140.6351890948
 31
0.0
  0
LINE
  5
19E
330
1F
100
AcDbEntity
  8
0
  6
Continuous
 62
     7
370
    15
100
AcDbLine
 10
298.7389106479
 20
146.6351890948
 30
0.0
 11
293.0389106479
 21
146.6351890948
 31
0.0
  0
DIMENSION
  5
19F
330
1F
100
AcDbEntity
  8
SLD-0
100
AcDbDimension
  2
*D17
 10
296.0389106479
 20
90.9225720507
 30
0.0
 11
290.5389106479
 21
90.9225720507
 31
0.0
 70
   160
 71
     2
 42
-1.0
  3
SLDDIMSTYLE1
100
AcDbAlignedDimension
 13
285.0389106479
 23
107.8351890948
 33
0.0
 14
296.0389106479
 24
117.8351890948
 34
0.0
100
AcDbRotatedDimension
  0
DIMENSION
  5
1AB
330
1F
100
AcDbEntity
  8
SLD-0
100
AcDbDimension
  2
*D19
 10
262.5793665853
 20
156.8351890948
 30
0.0
 11
262.5793665853
 21
165.2657173542
 31
0.0
 70
   160
 71
     2
 42
-1.0
  3
SLDDIMSTYLE3
100
AcDbAlignedDimension
 13
288.0389106479
 23
159.8351890948
 33
0.0
 14
286.7889106479
 24
156.8351890948
 34
0.0
 50
90.0
100
AcDbRotatedDimension
  0
DIMENSION
  5
1C0
330
1F
100
AcDbEntity
  8
SLD-0
100
AcDbDimension
  2
*D20
 10
262.5793665853
 20
151.1351890948
 30
0.0
 11
262.5793665853
 21
153.9851890948
 31
0.0
 70
   160
 71
     2
 42
-1.0
  3
SLDDIMSTYLE4
100
AcDbAlignedDimension
 13
286.7889106479
 23
156.8351890948
 33
0.0
 14
286.7889106479
 24
151.1351890948
 34
0.0
 50
90.0
100
AcDbRotatedDimension
  0
DIMENSION
  5
1CF
330
1F
100
AcDbEntity
  8
SLD-0
100
AcDbDimension
  2
*D21
 10
276.2143625066
 20
102.8351890948
 30
0.0
 11
276.2143625066
 21
107.3351890948
 31
0.0
 70
   160
 71
     2
 42
-1.0
  3
SLDDIMSTYLE1
100
AcDbAlignedDimension
 13
281.0389106479
 23
111.8351890948
 33
0.0
 14
282.3389106479
 24
102.8351890948
 34
0.0
 50
90.0
100
AcDbRotatedDimension
  0
DIMENSION
  5
1DB
330
1F
100
AcDbEntity
  8
SLD-0
100
AcDbDimension
  2
*D22
 10
268.8919842502
 20
102.8351890948
 30
0.0
 11
268.8919842502
 21
112.3351890948
 31
0.0
 70
   160
 71
     2
 42
-1.0
  3
SLDDIMSTYLE0
100
AcDbAlignedDimension
 13
292.0389106479
 23
121.8351890948
 33
0.0
 14
282.3389106479
 24
102.8351890948
 34
0.0
 50
90.0
100
AcDbRotatedDimension
  0
DIMENSION
  5
1E5
330
1F
100
AcDbEntity
  8
SLD-0
100
AcDbDimension
  2
*D23
 10
262.5793665853
 20
102.8351890948
 30
0.0
 11
262.5793665853
 21
126.9851890948
 31
0.0
 70
   160
 71
     2
 42
-1.0
  3
SLDDIMSTYLE5
100
AcDbAlignedDimension
 13
286.7889106479
 23
151.1351890948
 33
0.0
 14
282.3389106479
 24
102.8351890948
 34
0.0
 50
90.0
100
AcDbRotatedDimension
  0
DIMENSION
  5
1F0
330
1F
100
AcDbEntity
  8
SLD-0
100
AcDbDimension
  2
*D24
 10
293.0389106479
 20
167.8496360664
 30
0.0
 11
290.5389106479
 21
167.8496360664
 31
0.0
 70
   160
 71
     2
 42
-1.0
  3
SLDDIMSTYLE1
100
AcDbAlignedDimension
 13
288.0389106479
 23
159.8351890948
 33
0.0
 14
293.0389106479
 24
159.8351890948
 34
0.0
100
AcDbRotatedDimension
  0
DIMENSION
  5
1FC
330
1F
100
AcDbEntity
  8
SLD-0
100
AcDbDimension
  2
*D25
 10
298.7389106479
 20
175.8351890948
 30
0.0
 11
290.5389106479
 21
175.8351890948
 31
0.0
 70
   160
 71
     2
 42
-1.0
  3
SLDDIMSTYLE1
100
AcDbAlignedDimension
 13
282.3389106479
 23
146.6351890948
 33
0.0
 14
298.7389106479
 24
146.6351890948
 34
0.0
100
AcDbRotatedDimension
  0
MTEXT
  5
208
330
1F
100
AcDbEntity
  8
SLD-0
100
AcDbMText
 10
262.5793665853
 20
94.8606980201
 30
0.0
 40
3.5
 41
0.0
 71
     1
 72
     1
  1
M3　　
  7
SLDTEXTSTYLE0
 73
     1
 44
1.0
  0
LEADER
  5
209
330
1F
100
AcDbEntity
  8
SLD-0
100
AcDbLeader
  3
SLDDIMSTYLE2
 76
     3
 10
283.638750326
 20
111.2970959228
 30
0.0
 10
275.2984824693
 20
90.3449529951
 30
0.0
 10
262.5752676298
 20
90.3449529951
 30
0.0
  0
INSERT
  5
214
330
1F
100
AcDbEntity
  8
SLD-0
100
AcDbBlockReference
  2
SW_NOTE_2
 10
309.1229753032
 20
175.259509436
 30
0.0
  0
LEADER
  5
215
330
1F
100
AcDbEntity
  8
SLD-0
100
AcDbLeader
  3
SLDDIMSTYLE2
 76
     2
 10
291.4636830221
 20
157.6762394443
 30
0.0
 10
309.1229753032
 20
175.259509436
 30
0.0
  0
INSERT
  5
220
330
1F
100
AcDbEntity
  8
SLD-0
100
AcDbBlockReference
  2
SW_NOTE_3
 10
311.1546040351
 20
131.3662960933
 30
0.0
  0
LEADER
  5
221
330
1F
100
AcDbEntity
  8
SLD-0
100
AcDbLeader
  3
SLDDIMSTYLE2
 76
     2
 10
297.0573002021
 20
122.9365731077
 30
0.0
 10
311.1546040351
 20
131.3662960933
 30
0.0
  0
INSERT
  5
22D
330
1F
100
AcDbEntity
  8
SLD-0
100
AcDbBlockReference
  2
SW_CENTERMARKSYMBOL_4
 10
285.0389106479
 20
111.8351890948
 30
0.0
  0
INSERT
  5
239
330
1F
100
AcDbEntity
  8
SLD-0
100
AcDbBlockReference
  2
SW_CENTERMARKSYMBOL_5
 10
296.0389106479
 20
121.8351890948
 30
0.0
  0
INSERT
  5
245
330
1F
100
AcDbEntity
  8
SLD-0
100
AcDbBlockReference
  2
SW_CENTERMARKSYMBOL_6
 10
290.5389106479
 20
156.8351890948
 30
0.0
  0
INSERT
  5
251
330
1F
100
AcDbEntity
  8
SLD-0
100
AcDbBlockReference
  2
SW_CENTERMARKSYMBOL_7
 10
290.5389106479
 20
151.1351890948
 30
0.0
  0
LINE
  5
252
330
1F
100
AcDbEntity
  8
0
  6
Continuous
 62
     7
370
    15
100
AcDbLine
 10
171.0156696925
 20
52.5325625123
 30
0.0
 11
171.0156696925
 21
36.1325625123
 31
0.0
  0
LINE
  5
253
330
1F
100
AcDbEntity
  8
0
  6
Continuous
 62
     7
370
    15
100
AcDbLine
 10
195.6358850976
 20
47.4325625123
 30
0.0
 11
195.9156696925
 21
46.8325625123
 31
0.0
  0
LINE
  5
254
330
1F
100
AcDbEntity
  8
0
  6
Continuous
 62
     7
370
    15
100
AcDbLine
 10
175.1156696925
 20
46.8325625123
 30
0.0
 11
175.3954542873
 21
47.4325625123
 31
0.0
  0
LINE
  5
255
330
1F
100
AcDbEntity
  8
0
  6
Continuous
 62
     7
370
    15
100
AcDbLine
 10
195.6358850976
 20
41.2325625123
 30
0.0
 11
195.9156696925
 21
41.8325625123
 31
0.0
  0
LINE
  5
256
330
1F
100
AcDbEntity
  8
0
  6
Continuous
 62
     7
370
    15
100
AcDbLine
 10
191.6156696925
 20
41.2325625123
 30
0.0
 11
195.6358850976
 21
41.2325625123
 31
0.0
  0
LINE
  5
257
330
1F
100
AcDbEntity
  8
0
  6
Continuous
 62
     7
370
    15
100
AcDbLine
 10
191.6156696925
 20
47.4325625123
 30
0.0
 11
191.6156696925
 21
41.2325625123
 31
0.0
  0
LINE
  5
258
330
1F
100
AcDbEntity
  8
0
  6
Continuous
 62
     7
370
    15
100
AcDbLine
 10
195.6358850976
 20
47.4325625123
 30
0.0
 11
191.6156696925
 21
47.4325625123
 31
0.0
  0
LINE
  5
259
330
1F
100
AcDbEntity
  8
0
  6
Continuous
 62
     7
370
    15
100
AcDbLine
 10
197.0156696925
 20
46.8325625123
 30
0.0
 11
195.9156696925
 21
46.8325625123
 31
0.0
  0
LINE
  5
25A
330
1F
100
AcDbEntity
  8
0
  6
Continuous
 62
     7
370
    15
100
AcDbLine
 10
197.0156696925
 20
52.5325625123
 30
0.0
 11
197.0156696925
 21
46.8325625123
 31
0.0
  0
LINE
  5
25B
330
1F
100
AcDbEntity
  8
0
  6
Continuous
 62
     7
370
    15
100
AcDbLine
 10
174.0156696925
 20
52.5325625123
 30
0.0
 11
197.0156696925
 21
52.5325625123
 31
0.0
  0
LINE
  5
25C
330
1F
100
AcDbEntity
  8
0
  6
Continuous
 62
     7
370
    15
100
AcDbLine
 10
174.0156696925
 20
46.8325625123
 30
0.0
 11
174.0156696925
 21
52.5325625123
 31
0.0
  0
LINE
  5
25D
330
1F
100
AcDbEntity
  8
0
  6
Continuous
 62
     7
370
    15
100
AcDbLine
 10
175.1156696925
 20
46.8325625123
 30
0.0
 11
174.0156696925
 21
46.8325625123
 31
0.0
  0
LINE
  5
25E
330
1F
100
AcDbEntity
  8
0
  6
Continuous
 62
     7
370
    15
100
AcDbLine
 10
179.4156696925
 20
47.4325625123
 30
0.0
 11
175.3954542873
 21
47.4325625123
 31
0.0
  0
LINE
  5
25F
330
1F
100
AcDbEntity
  8
0
  6
Continuous
 62
     7
370
    15
100
AcDbLine
 10
179.4156696925
 20
41.2325625123
 30
0.0
 11
179.4156696925
 21
47.4325625123
 31
0.0
  0
LINE
  5
260
330
1F
100
AcDbEntity
  8
0
  6
Continuous
 62
     7
370
    15
100
AcDbLine
 10
175.3954542873
 20
41.2325625123
 30
0.0
 11
179.4156696925
 21
41.2325625123
 31
0.0
  0
LINE
  5
261
330
1F
100
AcDbEntity
  8
0
  6
Continuous
 62
     7
370
    15
100
AcDbLine
 10
175.1156696925
 20
41.8325625123
 30
0.0
 11
175.3954542873
 21
41.2325625123
 31
0.0
  0
LINE
  5
262
330
1F
100
AcDbEntity
  8
0
  6
Continuous
 62
     7
370
    15
100
AcDbLine
 10
174.0156696925
 20
41.8325625123
 30
0.0
 11
175.1156696925
 21
41.8325625123
 31
0.0
  0
LINE
  5
263
330
1F
100
AcDbEntity
  8
0
  6
Continuous
 62
     7
370
    15
100
AcDbLine
 10
174.0156696925
 20
36.1325625123
 30
0.0
 11
174.0156696925
 21
41.8325625123
 31
0.0
  0
LINE
  5
264
330
1F
100
AcDbEntity
  8
0
  6
Continuous
 62
     7
370
    15
100
AcDbLine
 10
197.0156696925
 20
36.1325625123
 30
0.0
 11
174.0156696925
 21
36.1325625123
 31
0.0
  0
LINE
  5
265
330
1F
100
AcDbEntity
  8
0
  6
Continuous
 62
     7
370
    15
100
AcDbLine
 10
197.0156696925
 20
41.8325625123
 30
0.0
 11
197.0156696925
 21
36.1325625123
 31
0.0
  0
LINE
  5
266
330
1F
100
AcDbEntity
  8
0
  6
Continuous
 62
     7
370
    15
100
AcDbLine
 10
195.9156696925
 20
41.8325625123
 30
0.0
 11
197.0156696925
 21
41.8325625123
 31
0.0
  0
SPLINE
  5
267
330
1F
100
AcDbEntity
  8
0
  6
Continuous
 62
     7
370
    15
100
AcDbSpline
210
0.0
220
0.0
230
1.0
 70
     8
 71
     3
 72
    19
 73
    15
 74
     0
 42
0.00000001
 43
0.00000001
 40
0.0
 40
0.0
 40
0.0
 40
0.0
 40
0.1197214739305907
 40
0.1848036583181885
 40
0.2499999486184031
 40
0.3150821843434829
 40
0.3802785260694033
 40
0.4999999999999951
 40
0.6197214739305855
 40
0.6848036583181308
 40
0.7499999486184086
 40
0.8150821843436812
 40
0.8802785260694093
 40
1.0
 40
1.0
 40
1.0
 40
1.0
 10
175.0156696924557
 20
50.33256251228264
 30
0.0
 10
175.0358155848177
 20
50.14394573349559
 30
0.0
 10
175.0669130520168
 20
49.85279436694754
 30
0.0
 10
175.253644464715
 20
49.50311509055048
 30
0.0
 10
175.4474120834269
 20
49.26481916448223
 30
0.0
 10
175.6861333743512
 20
49.06965463320218
 30
0.0
 10
176.0356896115074
 20
48.88879561663694
 30
0.0
 10
176.5156688224844
 20
48.79615552720134
 30
0.0
 10
176.9954725968175
 20
48.88876073498314
 30
0.0
 10
177.3450484767038
 20
49.0695554553665
 30
0.0
 10
177.5836757476431
 20
49.26456719238499
 30
0.0
 10
177.7775967108044
 20
49.50295753518768
 30
0.0
 10
177.9644018564847
 20
49.85261696629848
 30
0.0
 10
177.9955217302674
 20
50.14394669634648
 30
0.0
 10
178.0156696924557
 20
50.33256251228264
 30
0.0
  0
SPLINE
  5
268
330
1F
100
AcDbEntity
  8
0
  6
Continuous
 62
     7
370
    15
100
AcDbSpline
210
0.0
220
0.0
230
1.0
 70
     8
 71
     3
 72
    19
 73
    15
 74
     0
 42
0.00000001
 43
0.00000001
 40
0.0
 40
0.0
 40
0.0
 40
0.0
 40
0.1197214739305909
 40
0.1848036583180459
 40
0.2499999486184024
 40
0.3150821843432355
 40
0.3802785260694003
 40
0.4999999999999907
 40
0.6197214739305825
 40
0.6848036583175021
 40
0.7499999486184007
 40
0.8150821843431048
 40
0.8802785260694093
 40
1.0
 40
1.0
 40
1.0
 40
1.0
 10
178.0156696924557
 20
50.33256251228264
 30
0.0
 10
177.9955238000937
 20
50.52117929106969
 30
0.0
 10
177.9644263328947
 20
50.81233065761754
 30
0.0
 10
177.7776949201965
 20
51.16200993401456
 30
0.0
 10
177.583927301485
 20
51.40030586008265
 30
0.0
 10
177.3452060105605
 20
51.59547039136281
 30
0.0
 10
176.9956497734044
 20
51.77632940792832
 30
0.0
 10
176.515670562427
 20
51.8689694973639
 30
0.0
 10
176.0358667880949
 20
51.77636428958241
 30
0.0
 10
175.6862909082085
 20
51.5955695691992
 30
0.0
 10
175.4476636372696
 20
51.4005578321816
 30
0.0
 10
175.2537426741072
 20
51.16216748937852
 30
0.0
 10
175.0669375284269
 20
50.81250805826765
 30
0.0
 10
175.0358176546441
 20
50.52117832821877
 30
0.0
 10
175.0156696924557
 20
50.33256251228264
 30
0.0
  0
SPLINE
  5
269
330
1F
100
AcDbEntity
  8
0
  6
Continuous
 62
     7
370
    15
100
AcDbSpline
210
0.0
220
0.0
230
1.0
 70
     8
 71
     3
 72
    19
 73
    15
 74
     0
 42
0.00000001
 43
0.00000001
 40
0.0
 40
0.0
 40
0.0
 40
0.0
 40
0.1197214739305941
 40
0.1848036583180278
 40
0.2499999486184052
 40
0.3150821843431679
 40
0.3802785260694079
 40
0.5000000000000013
 40
0.6197214739305952
 40
0.6848036583181019
 40
0.7499999486184035
 40
0.8150821843431678
 40
0.880278526069406
 40
1.0
 40
1.0
 40
1.0
 40
1.0
 10
193.0156696924557
 20
38.33256251228265
 30
0.0
 10
193.0358155848177
 20
38.14394573349558
 30
0.0
 10
193.0669130520167
 20
37.85279436694776
 30
0.0
 10
193.253644464715
 20
37.50311509055081
 30
0.0
 10
193.4474120834263
 20
37.26481916448273
 30
0.0
 10
193.6861333743508
 20
37.06965463320252
 30
0.0
 10
194.0356896115069
 20
36.88879561663699
 30
0.0
 10
194.5156688224844
 20
36.79615552720146
 30
0.0
 10
194.9954725968176
 20
36.8887607349828
 30
0.0
 10
195.3450484767034
 20
37.06955545536706
 30
0.0
 10
195.5836757476426
 20
37.26456719238429
 30
0.0
 10
195.7775967108039
 20
37.50295753518708
 30
0.0
 10
195.9644018564846
 20
37.85261696629764
 30
0.0
 10
195.9955217302674
 20
38.14394669634647
 30
0.0
 10
196.0156696924557
 20
38.33256251228264
 30
0.0
  0
SPLINE
  5
26A
330
1F
100
AcDbEntity
  8
0
  6
Continuous
 62
     7
370
    15
100
AcDbSpline
210
0.0
220
0.0
230
1.0
 70
     8
 71
     3
 72
    19
 73
    15
 74
     0
 42
0.00000001
 43
0.00000001
 40
0.0
 40
0.0
 40
0.0
 40
0.0
 40
0.1197214739305918
 40
0.1848036583180196
 40
0.2499999486184104
 40
0.3150821843434187
 40
0.380278526069413
 40
0.5000000000000057
 40
0.6197214739305975
 40
0.684803658318275
 40
0.7499999486184009
 40
0.815082184343415
 40
0.880278526069408
 40
1.0
 40
1.0
 40
1.0
 40
1.0
 10
196.0156696924557
 20
38.33256251228265
 30
0.0
 10
195.9955238000937
 20
38.52117929106968
 30
0.0
 10
195.9644263328946
 20
38.81233065761744
 30
0.0
 10
195.7776949201967
 20
39.16200993401464
 30
0.0
 10
195.5839273014848
 20
39.40030586008277
 30
0.0
 10
195.3452060105604
 20
39.59547039136307
 30
0.0
 10
194.9956497734041
 20
39.77632940792832
 30
0.0
 10
194.5156705624271
 20
39.86896949736383
 30
0.0
 10
194.0358667880935
 20
39.77636428958248
 30
0.0
 10
193.6862909082078
 20
39.59556956919796
 30
0.0
 10
193.4476636372683
 20
39.40055783218052
 30
0.0
 10
193.2537426741071
 20
39.162167489378
 30
0.0
 10
193.0669375284268
 20
38.81250805826721
 30
0.0
 10
193.0358176546441
 20
38.5211783282188
 30
0.0
 10
193.0156696924557
 20
38.33256251228265
 30
0.0
  0
SPLINE
  5
26B
330
1F
100
AcDbEntity
  8
0
  6
Continuous
 62
     7
370
    15
100
AcDbSpline
210
0.0
220
0.0
230
1.0
 70
     8
 71
     3
 72
    19
 73
    15
 74
     0
 42
0.00000001
 43
0.00000001
 40
0.0
 40
0.0
 40
0.0
 40
0.0
 40
0.119721476147279
 40
0.1847751201214521
 40
0.249999922928114
 40
0.3150536438748249
 40
0.3802785238527135
 40
0.4999999999999934
 40
0.619721476147271
 40
0.6847751201213961
 40
0.7499999229281092
 40
0.8150536438751026
 40
0.8802785238527211
 40
1.0
 40
1.0
 40
1.0
 40
1.0
 10
176.9156696924557
 20
39.13256251228263
 30
0.0
 10
176.9290999235949
 20
39.00681782149624
 30
0.0
 10
176.9498278051067
 20
38.81274662314158
 30
0.0
 10
177.0743032611699
 20
38.57962388504385
 30
0.0
 10
177.203455995803
 20
38.42077557699398
 30
0.0
 10
177.362619286024
 20
38.29064054609348
 30
0.0
 10
177.595653416883
 20
38.17005701023673
 30
0.0
 10
177.9156688224782
 20
38.10829122222179
 30
0.0
 10
178.2355087914526
 20
38.17002212854511
 30
0.0
 10
178.4685625650864
 20
38.29054136828422
 30
0.0
 10
178.6276318352771
 20
38.4205236049077
 30
0.0
 10
178.7569379143736
 20
38.57946632973697
 30
0.0
 10
178.881487103342
 20
38.81256922250135
 30
0.0
 10
178.9022373914585
 20
39.006818784354
 30
0.0
 10
178.9156696924557
 20
39.13256251228263
 30
0.0
  0
SPLINE
  5
26C
330
1F
100
AcDbEntity
  8
0
  6
Continuous
 62
     7
370
    15
100
AcDbSpline
210
0.0
220
0.0
230
1.0
 70
     8
 71
     3
 72
    19
 73
    15
 74
     0
 42
0.00000001
 43
0.00000001
 40
0.0
 40
0.0
 40
0.0
 40
0.0
 40
0.1197214761472777
 40
0.1847751201214767
 40
0.2499999229281109
 40
0.3150536438752852
 40
0.3802785238527313
 40
0.5000000000000087
 40
0.6197214761472881
 40
0.6847751201217089
 40
0.7499999229281308
 40
0.8150536438750908
 40
0.8802785238527226
 40
1.0
 40
1.0
 40
1.0
 40
1.0
 10
178.9156696924557
 20
39.13256251228263
 30
0.0
 10
178.9022394613165
 20
39.25830720306903
 30
0.0
 10
178.8815115798047
 20
39.45237840142372
 30
0.0
 10
178.7570361237415
 20
39.68550113952146
 30
0.0
 10
178.6278833891081
 20
39.84434944757158
 30
0.0
 10
178.4687200988872
 20
39.97448447847248
 30
0.0
 10
178.2356859680279
 20
40.09506801432838
 30
0.0
 10
177.9156705624333
 20
40.15683380234359
 30
0.0
 10
177.5958305934586
 20
40.09510289602003
 30
0.0
 10
177.3627768198247
 20
39.97458365628101
 30
0.0
 10
177.203707549634
 20
39.8446014196574
 30
0.0
 10
177.0744014705382
 20
39.68565869482805
 30
0.0
 10
176.9498522815692
 20
39.45255580206405
 30
0.0
 10
176.9291019934528
 20
39.25830624021132
 30
0.0
 10
176.9156696924557
 20
39.13256251228263
 30
0.0
  0
SPLINE
  5
26D
330
1F
100
AcDbEntity
  8
0
  6
Continuous
 62
     7
370
    15
100
AcDbSpline
210
0.0
220
0.0
230
1.0
 70
     8
 71
     3
 72
    33
 73
    29
 74
     0
 42
0.00000001
 43
0.00000001
 40
0.0
 40
0.0
 40
0.0
 40
0.0
 40
0.040115171479952
 40
0.0799033563702084
 40
0.120004366287377
 40
0.1521583818030248
 40
0.1843428931862145
 40
0.249962530025377
 40
0.2828007256993871
 40
0.3156700661662986
 40
0.3478240841354949
 40
0.3800085979749809
 40
0.4211442328953988
 40
0.4611692883468843
 40
0.5000043364541473
 40
0.5388120187659701
 40
0.5788374291121505
 40
0.6200000811796218
 40
0.6521540966951146
 40
0.6843386080784576
 40
0.7499582449176203
 40
0.7827964405916108
 40
0.8156657810585408
 40
0.8478197990276802
 40
0.8800043128672238
 40
0.9211399477876786
 40
0.9611581093178775
 40
1.0
 40
1.0
 40
1.0
 40
1.0
 10
180.0156696924557
 20
44.33256251228264
 30
0.0
 10
180.0238415112264
 20
44.10151469559185
 30
0.0
 10
180.0401185386785
 20
43.64130237804437
 30
0.0
 10
180.1746893046741
 20
42.96100609269875
 30
0.0
 10
180.3741173271696
 20
42.34634062503343
 30
0.0
 10
180.6236992233302
 20
41.79825029432087
 30
0.0
 10
181.0013803580748
 20
41.15153495365855
 30
0.0
 10
181.4795138758764
 20
40.5629619813797
 30
0.0
 10
182.0415101425546
 20
40.05598764357705
 30
0.0
 10
182.4973790653574
 20
39.7233792937628
 30
0.0
 10
182.9812383379878
 20
39.44061011930622
 30
0.0
 10
183.5346423931977
 20
39.18867474227618
 30
0.0
 10
184.1571945439869
 20
38.98750926929227
 30
0.0
 10
184.837851643109
 20
38.86024082279683
 30
0.0
 10
185.5155133990573
 20
38.81893492769524
 30
0.0
 10
186.1931692678497
 20
38.86023972555449
 30
0.0
 10
186.873852947859
 20
38.98739411635217
 30
0.0
 10
187.496377671184
 20
39.18854602837673
 30
0.0
 10
188.0499684661733
 20
39.44057492128998
 30
0.0
 10
188.6967049728764
 20
39.81828340596329
 30
0.0
 10
189.2852711441616
 20
40.29640504879497
 30
0.0
 10
189.792241004789
 20
40.85840327146316
 30
0.0
 10
190.1248672188361
 20
41.31427181151405
 30
0.0
 10
190.4075696669086
 20
41.79813115131923
 30
0.0
 10
190.6597765638229
 20
42.35153532218689
 30
0.0
 10
190.8596486979538
 20
42.97404893517032
 30
0.0
 10
190.9917524267933
 20
43.65470647945419
 30
0.0
 10
191.0077769440827
 20
44.10886858440116
 30
0.0
 10
191.0156696924557
 20
44.33256251228264
 30
0.0
  0
SPLINE
  5
26E
330
1F
100
AcDbEntity
  8
0
  6
Continuous
 62
     7
370
    15
100
AcDbSpline
210
0.0
220
0.0
230
1.0
 70
     8
 71
     3
 72
    33
 73
    29
 74
     0
 42
0.00000001
 43
0.00000001
 40
0.0
 40
0.0
 40
0.0
 40
0.0
 40
0.0401151714799894
 40
0.0799033563702457
 40
0.1200043662873788
 40
0.1521583818029131
 40
0.1843428931862143
 40
0.2499625300253772
 40
0.2828007256993318
 40
0.3156700661662974
 40
0.3478240841354015
 40
0.3800085979749808
 40
0.4211442328954252
 40
0.4611692883469035
 40
0.5000043364541474
 40
0.5388120187660452
 40
0.5788374291124302
 40
0.620000081179624
 40
0.6521540966952898
 40
0.6843386080784569
 40
0.7499582449176196
 40
0.7827964405915746
 40
0.8156657810585398
 40
0.8478197990275687
 40
0.8800043128672227
 40
0.921139947787715
 40
0.961158109317982
 40
1.0
 40
1.0
 40
1.0
 40
1.0
 10
191.0156696924557
 20
44.33256251228264
 30
0.0
 10
191.007497873685
 20
44.56361032897365
 30
0.0
 10
190.9912208462329
 20
45.02382264652133
 30
0.0
 10
190.8566500802374
 20
45.70411893186697
 30
0.0
 10
190.657222057742
 20
46.31878439953147
 30
0.0
 10
190.407640161581
 20
46.86687473024357
 30
0.0
 10
190.0299590268373
 20
47.51359007090636
 30
0.0
 10
189.5518255090354
 20
48.10216304318548
 30
0.0
 10
188.9898292423568
 20
48.6091373809877
 30
0.0
 10
188.5339603195548
 20
48.94174573080202
 30
0.0
 10
188.0501010469242
 20
49.22451490525907
 30
0.0
 10
187.496696991714
 20
49.47645028228887
 30
0.0
 10
186.8741448409242
 20
49.67761575527317
 30
0.0
 10
186.1934877418022
 20
49.80488420176839
 30
0.0
 10
185.5158259858536
 20
49.84619009687001
 30
0.0
 10
184.8381701170596
 20
49.8048852990109
 30
0.0
 10
184.1574864370504
 20
49.67773090821252
 30
0.0
 10
183.5349617137248
 20
49.47657899618783
 30
0.0
 10
182.9813709187376
 20
49.22455010327409
 30
0.0
 10
182.334634412034
 20
48.84684161860178
 30
0.0
 10
181.74606824075
 20
48.3687199757704
 30
0.0
 10
181.2390983801227
 20
47.80672175310222
 30
0.0
 10
180.9064721660758
 20
47.35085321305193
 30
0.0
 10
180.6237697180032
 20
46.86699387324658
 30
0.0
 10
180.3715628210887
 20
46.31358970237878
 30
0.0
 10
180.1716906869568
 20
45.69107608939431
 30
0.0
 10
180.0395869581185
 20
45.01041854511021
 30
0.0
 10
180.0235624408288
 20
44.55625644016349
 30
0.0
 10
180.0156696924557
 20
44.33256251228264
 30
0.0
  0
ARC
  5
26F
330
1F
100
AcDbEntity
  8
0
  6
Continuous
 62
     7
370
    15
100
AcDbCircle
 10
185.5156696925
 20
44.3325625123
 30
0.0
 40
5.5
100
AcDbArc
 50
180.0
 51
0.0
  0
ARC
  5
270
330
1F
100
AcDbEntity
  8
0
  6
Continuous
 62
     7
370
    15
100
AcDbCircle
 10
185.5156696925
 20
44.3325625123
 30
0.0
 40
5.5
100
AcDbArc
 50
0.0
 51
180.0
  0
LINE
  5
271
330
1F
100
AcDbEntity
  8
0
  6
Continuous
 62
     7
370
    15
100
AcDbLine
 10
171.0156696925
 20
52.5325625123
 30
0.0
 11
174.0156696925
 21
52.5325625123
 31
0.0
  0
LINE
  5
272
330
1F
100
AcDbEntity
  8
0
  6
Continuous
 62
     7
370
    15
100
AcDbLine
 10
197.0156696925
 20
52.5325625123
 30
0.0
 11
200.0156696925
 21
52.5325625123
 31
0.0
  0
ARC
  5
273
330
1F
100
AcDbEntity
  8
0
  6
Continuous
 62
     7
370
    15
100
AcDbCircle
 10
176.5156696925
 20
50.3325625123
 30
0.0
 40
1.5
100
AcDbArc
 50
180.0
 51
0.0
  0
LINE
  5
274
330
1F
100
AcDbEntity
  8
0
  6
Continuous
 62
     7
370
    15
100
AcDbLine
 10
171.0156696925
 20
36.1325625123
 30
0.0
 11
174.0156696925
 21
36.1325625123
 31
0.0
  0
LINE
  5
275
330
1F
100
AcDbEntity
  8
0
  6
Continuous
 62
     7
370
    15
100
AcDbLine
 10
197.0156696925
 20
36.1325625123
 30
0.0
 11
200.0156696925
 21
36.1325625123
 31
0.0
  0
ARC
  5
276
330
1F
100
AcDbEntity
  8
0
  6
Continuous
 62
     7
370
    15
100
AcDbCircle
 10
194.5156696925
 20
38.3325625123
 30
0.0
 40
1.5
100
AcDbArc
 50
180.0
 51
0.0
  0
ARC
  5
277
330
1F
100
AcDbEntity
  8
0
  6
Continuous
 62
     7
370
    15
100
AcDbCircle
 10
194.5156696925
 20
38.3325625123
 30
0.0
 40
1.5
100
AcDbArc
 50
0.0
 51
180.0
  0
LINE
  5
278
330
1F
100
AcDbEntity
  8
0
  6
Continuous
 62
     7
370
    15
100
AcDbLine
 10
200.0156696925
 20
52.5325625123
 30
0.0
 11
200.0156696925
 21
36.1325625123
 31
0.0
  0
ARC
  5
279
330
1F
100
AcDbEntity
  8
0
  6
Continuous
 62
     7
370
    15
100
AcDbCircle
 10
176.5156696925
 20
50.3325625123
 30
0.0
 40
1.5
100
AcDbArc
 50
0.0
 51
180.0
  0
ARC
  5
27A
330
1F
100
AcDbEntity
  8
0
  6
Continuous
 62
     7
370
    15
100
AcDbCircle
 10
177.9156696925
 20
39.1325625123
 30
0.0
 40
1.0
100
AcDbArc
 50
180.0
 51
0.0
  0
ARC
  5
27B
330
1F
100
AcDbEntity
  8
0
  6
Continuous
 62
     7
370
    15
100
AcDbCircle
 10
177.9156696925
 20
39.1325625123
 30
0.0
 40
1.0
100
AcDbArc
 50
0.0
 51
180.0
  0
CIRCLE
  5
27C
330
1F
100
AcDbEntity
  8
SLD-0
100
AcDbCircle
 10
176.5156696925
 20
50.3325625123
 30
0.0
 40
1.530059622917231
  0
CIRCLE
  5
27D
330
1F
100
AcDbEntity
  8
SLD-0
100
AcDbCircle
 10
194.5156696925
 20
38.3325625123
 30
0.0
 40
1.544444896207865
  0
DIMENSION
  5
27E
330
1F
100
AcDbEntity
  8
SLD-0
100
AcDbDimension
  2
*D32
 10
176.5156696925
 20
27.9190982818
 30
0.0
 11
185.5156696925
 21
27.9190982818
 31
0.0
 70
   160
 71
     2
 42
-1.0
  3
SLDDIMSTYLE0
100
AcDbAlignedDimension
 13
194.5156696925
 23
34.2881176161
 33
0.0
 14
176.5156696925
 24
46.3025028894
 34
0.0
100
AcDbRotatedDimension
  0
DIMENSION
  5
288
330
1F
100
AcDbEntity
  8
SLD-0
100
AcDbDimension
  2
*D33
 10
161.0156696925
 20
38.3325625123
 30
0.0
 11
161.0156696925
 21
44.3325625123
 31
0.0
 70
   160
 71
     2
 42
-1.0
  3
SLDDIMSTYLE1
100
AcDbAlignedDimension
 13
172.4856100695
 23
50.3325625123
 33
0.0
 14
190.4712247962
 24
38.3325625123
 34
0.0
 50
90.0
100
AcDbRotatedDimension
  0
DIMENSION
  5
294
330
1F
100
AcDbEntity
  8
SLD-0
100
AcDbDimension
  2
*D34
 10
197.0156696925
 20
20.1324125123
 30
0.0
 11
185.5156696925
 21
20.1324125123
 31
0.0
 70
   160
 71
     2
 42
-1.0
  3
SLDDIMSTYLE0
100
AcDbAlignedDimension
 13
174.0156696925
 23
36.1325625123
 33
0.0
 14
197.0156696925
 24
36.1325625123
 34
0.0
100
AcDbRotatedDimension
  0
DIMENSION
  5
29E
330
1F
100
AcDbEntity
  8
SLD-0
100
AcDbDimension
  2
*D35
 10
153.6207892425
 20
36.1325625123
 30
0.0
 11
153.6207892425
 21
44.3325625123
 31
0.0
 70
   160
 71
     2
 42
-1.0
  3
SLDDIMSTYLE1
100
AcDbAlignedDimension
 13
171.0156696925
 23
52.5325625123
 33
0.0
 14
171.0156696925
 24
36.1325625123
 34
0.0
 50
90.0
100
AcDbRotatedDimension
  0
INSERT
  5
2B4
330
1F
100
AcDbEntity
  8
SLD-0
100
AcDbBlockReference
  2
SW_NOTE_4
 10
205.7022040559
 20
52.9521155332
 30
0.0
  0
LEADER
  5
2B5
330
1F
100
AcDbEntity
  8
SLD-0
100
AcDbLeader
  3
SLDDIMSTYLE2
 76
     2
 10
195.8739007137
 20
39.0677621656
 30
0.0
 10
205.7022040559
 20
52.9521155332
 30
0.0
  0
INSERT
  5
2C1
330
1F
100
AcDbEntity
  8
SLD-0
100
AcDbBlockReference
  2
SW_CENTERMARKSYMBOL_8
 10
176.5156696925
 20
50.3325625123
 30
0.0
  0
INSERT
  5
2CD
330
1F
100
AcDbEntity
  8
SLD-0
100
AcDbBlockReference
  2
SW_CENTERMARKSYMBOL_9
 10
194.5156696925
 20
38.3325625123
 30
0.0
  0
LINE
  5
2CE
330
1F
100
AcDbEntity
  8
SLD-0
  6
CENTERX2
370
     0
100
AcDbLine
 10
185.5156696925
 20
34.1325625123
 30
0.0
 11
185.5156696925
 21
54.5325625123
 31
0.0
  0
ENDSEC
  0
SECTION
  2
OBJECTS
  0
DICTIONARY
  5
C
330
0
100
AcDbDictionary
281
     1
  3
ACAD_GROUP
350
D
  3
ACAD_LAYOUT
350
1A
  3
ACAD_MLINESTYLE
350
17
  3
ACAD_PLOTSETTINGS
350
19
  3
ACAD_PLOTSTYLENAME
350
E
  3
ACAD_SCALELIST
350
51
  3
AcDbVariableDictionary
350
2CF
  0
DICTIONARY
  5
D
102
{ACAD_REACTORS
330
C
102
}
330
C
100
AcDbDictionary
281
     1
  0
DICTIONARY
  5
1A
102
{ACAD_REACTORS
330
C
102
}
330
C
100
AcDbDictionary
281
     1
  3
Layout1
350
1E
  3
Layout2
350
26
  3
Model
350
22
  0
DICTIONARY
  5
17
102
{ACAD_REACTORS
330
C
102
}
330
C
100
AcDbDictionary
281
     1
  3
Standard
350
18
  0
DICTIONARY
  5
19
102
{ACAD_REACTORS
330
C
102
}
330
C
100
AcDbDictionary
281
     1
  0
ACDBDICTIONARYWDFLT
  5
E
102
{ACAD_REACTORS
330
C
102
}
330
C
100
AcDbDictionary
281
     1
  3
Normal
350
F
100
AcDbDictionaryWithDefault
340
F
  0
DICTIONARY
  5
51
102
{ACAD_REACTORS
330
C
102
}
330
C
100
AcDbDictionary
281
     1
  3
A0
350
52
  3
A1
350
53
  3
A2
350
54
  3
A3
350
55
  3
A4
350
56
  3
A5
350
57
  3
A6
350
58
  3
A7
350
59
  3
A8
350
5A
  3
A9
350
5B
  3
B0
350
5C
  3
B1
350
5D
  3
B2
350
5E
  3
B3
350
5F
  3
B4
350
60
  3
B5
350
61
  3
B6
350
62
  3
B7
350
63
  3
B8
350
64
  3
B9
350
65
  3
C0
350
66
  3
C1
350
67
  3
C2
350
68
  3
C3
350
69
  3
C4
350
6A
  3
C5
350
6B
  3
C6
350
6C
  3
C7
350
6D
  3
C8
350
6E
  3
C9
350
6F
  3
D0
350
70
  3
D1
350
71
  3
D2
350
72
  0
DICTIONARY
  5
2CF
102
{ACAD_REACTORS
330
C
102
}
330
C
100
AcDbDictionary
281
     1
  3
CANNOSCALE
350
2D0
  0
LAYOUT
  5
1E
102
{ACAD_REACTORS
330
1A
102
}
330
1A
100
AcDbPlotSettings
  1

  2
none_device
  4

  6

 40
0.0
 41
0.0
 42
0.0
 43
0.0
 44
0.0
 45
0.0
 46
0.0
 47
0.0
 48
0.0
 49
0.0
140
0.0
141
0.0
142
1.0
143
1.0
 70
   688
 72
     0
 73
     0
 74
     5
  7

 75
    16
147
1.0
148
0.0
149
0.0
100
AcDbLayout
  1
Layout1
 70
     1
 71
     1
 10
0.0
 20
0.0
 11
420.0
 21
297.0
 12
0.0
 22
0.0
 32
0.0
 14
1.0000000000E+20
 24
1.0000000000E+20
 34
1.0000000000E+20
 15
-1.0000000000E+20
 25
-1.0000000000E+20
 35
-1.0000000000E+20
146
0.0
 13
0.0
 23
0.0
 33
0.0
 16
1.0
 26
0.0
 36
0.0
 17
0.0
 27
1.0
 37
0.0
 76
     0
330
1B
  0
LAYOUT
  5
26
102
{ACAD_REACTORS
330
1A
102
}
330
1A
100
AcDbPlotSettings
  1

  2
none_device
  4

  6

 40
0.0
 41
0.0
 42
0.0
 43
0.0
 44
0.0
 45
0.0
 46
0.0
 47
0.0
 48
0.0
 49
0.0
140
0.0
141
0.0
142
1.0
143
1.0
 70
   688
 72
     0
 73
     0
 74
     5
  7

 75
    16
147
1.0
148
0.0
149
0.0
100
AcDbLayout
  1
Layout2
 70
     1
 71
     2
 10
0.0
 20
0.0
 11
0.0
 21
0.0
 12
0.0
 22
0.0
 32
0.0
 14
0.0
 24
0.0
 34
0.0
 15
0.0
 25
0.0
 35
0.0
146
0.0
 13
0.0
 23
0.0
 33
0.0
 16
1.0
 26
0.0
 36
0.0
 17
0.0
 27
1.0
 37
0.0
 76
     0
330
23
  0
LAYOUT
  5
22
102
{ACAD_REACTORS
330
1A
102
}
330
1A
100
AcDbPlotSettings
  1

  2
none_device
  4

  6

 40
0.0
 41
0.0
 42
0.0
 43
0.0
 44
0.0
 45
0.0
 46
0.0
 47
0.0
 48
0.0
 49
0.0
140
0.0
141
0.0
142
1.0
143
1.0
 70
  1712
 72
     0
 73
     0
 74
     0
  7

 75
     0
147
1.0
148
0.0
149
0.0
100
AcDbLayout
  1
Model
 70
     1
 71
     0
 10
0.0
 20
0.0
 11
420.0
 21
297.0
 12
0.0
 22
0.0
 32
0.0
 14
0.0
 24
0.0
 34
0.0
 15
420.0
 25
297.0
 35
0.0
146
0.0
 13
0.0
 23
0.0
 33
0.0
 16
1.0
 26
0.0
 36
0.0
 17
0.0
 27
1.0
 37
0.0
 76
     0
330
1F
331
29
  0
MLINESTYLE
  5
18
102
{ACAD_REACTORS
330
17
102
}
330
17
100
AcDbMlineStyle
  2
Standard
 70
     0
  3

 62
   256
 51
90.0
 52
90.0
 71
     2
 49
0.5
 62
   256
  6
BYLAYER
 49
-0.5
 62
   256
  6
BYLAYER
  0
ACDBPLACEHOLDER
  5
F
102
{ACAD_REACTORS
330
E
102
}
330
E
  0
SCALE
  5
52
102
{ACAD_REACTORS
330
51
102
}
330
51
100
AcDbScale
 70
     0
300
1:1
140
1.0
141
1.0
290
     1
  0
SCALE
  5
53
102
{ACAD_REACTORS
330
51
102
}
330
51
100
AcDbScale
 70
     0
300
1:2
140
1.0
141
2.0
290
     0
  0
SCALE
  5
54
102
{ACAD_REACTORS
330
51
102
}
330
51
100
AcDbScale
 70
     0
300
1:4
140
1.0
141
4.0
290
     0
  0
SCALE
  5
55
102
{ACAD_REACTORS
330
51
102
}
330
51
100
AcDbScale
 70
     0
300
1:5
140
1.0
141
5.0
290
     0
  0
SCALE
  5
56
102
{ACAD_REACTORS
330
51
102
}
330
51
100
AcDbScale
 70
     0
300
1:8
140
1.0
141
8.0
290
     0
  0
SCALE
  5
57
102
{ACAD_REACTORS
330
51
102
}
330
51
100
AcDbScale
 70
     0
300
1:10
140
1.0
141
10.0
290
     0
  0
SCALE
  5
58
102
{ACAD_REACTORS
330
51
102
}
330
51
100
AcDbScale
 70
     0
300
1:16
140
1.0
141
16.0
290
     0
  0
SCALE
  5
59
102
{ACAD_REACTORS
330
51
102
}
330
51
100
AcDbScale
 70
     0
300
1:20
140
1.0
141
20.0
290
     0
  0
SCALE
  5
5A
102
{ACAD_REACTORS
330
51
102
}
330
51
100
AcDbScale
 70
     0
300
1:30
140
1.0
141
30.0
290
     0
  0
SCALE
  5
5B
102
{ACAD_REACTORS
330
51
102
}
330
51
100
AcDbScale
 70
     0
300
1:40
140
1.0
141
40.0
290
     0
  0
SCALE
  5
5C
102
{ACAD_REACTORS
330
51
102
}
330
51
100
AcDbScale
 70
     0
300
1:50
140
1.0
141
50.0
290
     0
  0
SCALE
  5
5D
102
{ACAD_REACTORS
330
51
102
}
330
51
100
AcDbScale
 70
     0
300
1:100
140
1.0
141
100.0
290
     0
  0
SCALE
  5
5E
102
{ACAD_REACTORS
330
51
102
}
330
51
100
AcDbScale
 70
     0
300
2:1
140
2.0
141
1.0
290
     0
  0
SCALE
  5
5F
102
{ACAD_REACTORS
330
51
102
}
330
51
100
AcDbScale
 70
     0
300
4:1
140
4.0
141
1.0
290
     0
  0
SCALE
  5
60
102
{ACAD_REACTORS
330
51
102
}
330
51
100
AcDbScale
 70
     0
300
8:1
140
8.0
141
1.0
290
     0
  0
SCALE
  5
61
102
{ACAD_REACTORS
330
51
102
}
330
51
100
AcDbScale
 70
     0
300
10:1
140
10.0
141
1.0
290
     0
  0
SCALE
  5
62
102
{ACAD_REACTORS
330
51
102
}
330
51
100
AcDbScale
 70
     0
300
100:1
140
100.0
141
1.0
290
     0
  0
SCALE
  5
63
102
{ACAD_REACTORS
330
51
102
}
330
51
100
AcDbScale
 70
     0
300
1/128" = 1'-0"
140
0.0078125
141
12.0
290
     0
  0
SCALE
  5
64
102
{ACAD_REACTORS
330
51
102
}
330
51
100
AcDbScale
 70
     0
300
1/64" = 1'-0"
140
0.015625
141
12.0
290
     0
  0
SCALE
  5
65
102
{ACAD_REACTORS
330
51
102
}
330
51
100
AcDbScale
 70
     0
300
1/32" = 1'-0"
140
0.03125
141
12.0
290
     0
  0
SCALE
  5
66
102
{ACAD_REACTORS
330
51
102
}
330
51
100
AcDbScale
 70
     0
300
1/16" = 1'-0"
140
0.0625
141
12.0
290
     0
  0
SCALE
  5
67
102
{ACAD_REACTORS
330
51
102
}
330
51
100
AcDbScale
 70
     0
300
3/32" = 1'-0"
140
0.09375
141
12.0
290
     0
  0
SCALE
  5
68
102
{ACAD_REACTORS
330
51
102
}
330
51
100
AcDbScale
 70
     0
300
1/8" = 1'-0"
140
0.125
141
12.0
290
     0
  0
SCALE
  5
69
102
{ACAD_REACTORS
330
51
102
}
330
51
100
AcDbScale
 70
     0
300
3/16" = 1'-0"
140
0.1875
141
12.0
290
     0
  0
SCALE
  5
6A
102
{ACAD_REACTORS
330
51
102
}
330
51
100
AcDbScale
 70
     0
300
1/4" = 1'-0"
140
0.25
141
12.0
290
     0
  0
SCALE
  5
6B
102
{ACAD_REACTORS
330
51
102
}
330
51
100
AcDbScale
 70
     0
300
3/8" = 1'-0"
140
0.375
141
12.0
290
     0
  0
SCALE
  5
6C
102
{ACAD_REACTORS
330
51
102
}
330
51
100
AcDbScale
 70
     0
300
1/2" = 1'-0"
140
0.5
141
12.0
290
     0
  0
SCALE
  5
6D
102
{ACAD_REACTORS
330
51
102
}
330
51
100
AcDbScale
 70
     0
300
3/4" = 1'-0"
140
0.75
141
12.0
290
     0
  0
SCALE
  5
6E
102
{ACAD_REACTORS
330
51
102
}
330
51
100
AcDbScale
 70
     0
300
1" = 1'-0"
140
1.0
141
12.0
290
     0
  0
SCALE
  5
6F
102
{ACAD_REACTORS
330
51
102
}
330
51
100
AcDbScale
 70
     0
300
1-1/2" = 1'-0"
140
1.5
141
12.0
290
     0
  0
SCALE
  5
70
102
{ACAD_REACTORS
330
51
102
}
330
51
100
AcDbScale
 70
     0
300
3" = 1'-0"
140
3.0
141
12.0
290
     0
  0
SCALE
  5
71
102
{ACAD_REACTORS
330
51
102
}
330
51
100
AcDbScale
 70
     0
300
6" = 1'-0"
140
6.0
141
12.0
290
     0
  0
SCALE
  5
72
102
{ACAD_REACTORS
330
51
102
}
330
51
100
AcDbScale
 70
     0
300
1'-0" = 1'-0"
140
12.0
141
12.0
290
     0
  0
DICTIONARYVAR
  5
2D0
102
{ACAD_REACTORS
330
2CF
102
}
330
2CF
100
DictionaryVariables
280
     0
  1
1:1
  0
ENDSEC
  0
EOF
