  0
SECTION
  2
HEADER
  9
$ACADVER
  1
AC1015
  9
$ACADMAINTVER
 70
     6
  9
$DWGCODEPAGE
  3
DOS932
  9
$INSBASE
 10
0.0
 20
0.0
 30
0.0
  9
$EXTMIN
 10
0.0
 20
0.0
 30
0.0
  9
$EXTMAX
 10
210.0
 20
297.0
 30
0.0
  9
$LIMMIN
 10
0.0
 20
0.0
  9
$LIMMAX
 10
210.0
 20
297.0
  9
$ORTHOMODE
 70
     0
  9
$REGENMODE
 70
     1
  9
$FILLMODE
 70
     1
  9
$QTEXTMODE
 70
     0
  9
$MIRRTEXT
 70
     1
  9
$LTSCALE
 40
1.0
  9
$ATTMODE
 70
     1
  9
$TEXTSIZE
 40
3.5
  9
$TRACEWID
 40
1.0
  9
$TEXTSTYLE
  7
Standard
  9
$CLAYER
  8
0
  9
$CELTYPE
  6
ByLayer
  9
$CECOLOR
 62
   256
  9
$CELTSCALE
 40
1.0
  9
$DISPSILH
 70
     0
  9
$DIMSCALE
 40
1.0
  9
$DIMASZ
 40
2.0
  9
$DIMEXO
 40
1.0
  9
$DIMDLI
 40
3.75
  9
$DIMRND
 40
0.0
  9
$DIMDLE
 40
0.0
  9
$DIMEXE
 40
1.0
  9
$DIMTP
 40
0.0
  9
$DIMTM
 40
0.0
  9
$DIMTXT
 40
3.5
  9
$DIMCEN
 40
2.5
  9
$DIMTSZ
 40
0.0
  9
$DIMTOL
 70
     0
  9
$DIMLIM
 70
     0
  9
$DIMTIH
 70
     1
  9
$DIMTOH
 70
     1
  9
$DIMSE1
 70
     0
  9
$DIMSE2
 70
     0
  9
$DIMTAD
 70
     1
  9
$DIMZIN
 70
     0
  9
$DIMBLK
  1

  9
$DIMASO
 70
     1
  9
$DIMSHO
 70
     1
  9
$DIMPOST
  1

  9
$DIMAPOST
  1

  9
$DIMALT
 70
     0
  9
$DIMALTD
 70
     3
  9
$DIMALTF
 40
0.0393700787
  9
$DIMLFAC
 40
1.0
  9
$DIMTOFL
 70
     1
  9
$DIMTVP
 40
0.0
  9
$DIMTIX
 70
     0
  9
$DIMSOXD
 70
     0
  9
$DIMSAH
 70
     0
  9
$DIMBLK1
  1

  9
$DIMBLK2
  1

  9
$DIMSTYLE
  2
ISO-25
  9
$DIMCLRD
 70
     0
  9
$DIMCLRE
 70
     0
  9
$DIMCLRT
 70
     0
  9
$DIMTFAC
 40
1.0
  9
$DIMGAP
 40
1.524
  9
$DIMJUST
 70
     0
  9
$DIMSD1
 70
     0
  9
$DIMSD2
 70
     0
  9
$DIMTOLJ
 70
     0
  9
$DIMTZIN
 70
     0
  9
$DIMALTZ
 70
     0
  9
$DIMALTTZ
 70
     0
  9
$DIMUPT
 70
     0
  9
$DIMDEC
 70
     2
  9
$DIMTDEC
 70
     2
  9
$DIMALTU
 70
     2
  9
$DIMALTTD
 70
     3
  9
$DIMTXSTY
  7
Standard
  9
$DIMAUNIT
 70
     0
  9
$DIMADEC
 70
     2
  9
$DIMALTRND
 40
0.0
  9
$DIMAZIN
 70
     0
  9
$DIMDSEP
 70
    44
  9
$DIMATFIT
 70
     3
  9
$DIMFRAC
 70
     0
  9
$DIMLDRBLK
  1

  9
$DIMLUNIT
 70
     2
  9
$DIMLWD
 70
    -2
  9
$DIMLWE
 70
    -2
  9
$DIMTMOVE
 70
     0
  9
$LUNITS
 70
     2
  9
$LUPREC
 70
     2
  9
$SKETCHINC
 40
1.0
  9
$FILLETRAD
 40
10.0
  9
$AUNITS
 70
     0
  9
$AUPREC
 70
     2
  9
$MENU
  1
.
  9
$ELEVATION
 40
0.0
  9
$PELEVATION
 40
0.0
  9
$THICKNESS
 40
0.0
  9
$LIMCHECK
 70
     0
  9
$CHAMFERA
 40
10.0
  9
$CHAMFERB
 40
10.0
  9
$CHAMFERC
 40
20.0
  9
$CHAMFERD
 40
0.0
  9
$SKPOLY
 70
     0
  9
$TDCREATE
 40
2456911.670032222
  9
$TDUCREATE
 40
2456911.295032222
  9
$TDUPDATE
 40
2456911.670036736
  9
$TDUUPDATE
 40
2456911.295036736
  9
$TDINDWG
 40
0.0000000116
  9
$TDUSRTIMER
 40
0.0000000116
  9
$USRTIMER
 70
     1
  9
$ANGBASE
 50
0.0
  9
$ANGDIR
 70
     0
  9
$PDMODE
 70
     0
  9
$PDSIZE
 40
-1.0
  9
$PLINEWID
 40
0.0
  9
$SPLFRAME
 70
     0
  9
$SPLINETYPE
 70
     6
  9
$SPLINESEGS
 70
     8
  9
$HANDSEED
  5
4B0
  9
$SURFTAB1
 70
     6
  9
$SURFTAB2
 70
     6
  9
$SURFTYPE
 70
     6
  9
$SURFU
 70
     6
  9
$SURFV
 70
     6
  9
$UCSBASE
  2

  9
$UCSNAME
  2

  9
$UCSORG
 10
0.0
 20
0.0
 30
0.0
  9
$UCSXDIR
 10
1.0
 20
0.0
 30
0.0
  9
$UCSYDIR
 10
0.0
 20
1.0
 30
0.0
  9
$UCSORTHOREF
  2

  9
$UCSORTHOVIEW
 70
     0
  9
$UCSORGTOP
 10
0.0
 20
0.0
 30
0.0
  9
$UCSORGBOTTOM
 10
0.0
 20
0.0
 30
0.0
  9
$UCSORGLEFT
 10
0.0
 20
0.0
 30
0.0
  9
$UCSORGRIGHT
 10
0.0
 20
0.0
 30
0.0
  9
$UCSORGFRONT
 10
0.0
 20
0.0
 30
0.0
  9
$UCSORGBACK
 10
0.0
 20
0.0
 30
0.0
  9
$PUCSBASE
  2

  9
$PUCSNAME
  2

  9
$PUCSORG
 10
0.0
 20
0.0
 30
0.0
  9
$PUCSXDIR
 10
1.0
 20
0.0
 30
0.0
  9
$PUCSYDIR
 10
0.0
 20
1.0
 30
0.0
  9
$PUCSORTHOREF
  2

  9
$PUCSORTHOVIEW
 70
     0
  9
$PUCSORGTOP
 10
0.0
 20
0.0
 30
0.0
  9
$PUCSORGBOTTOM
 10
0.0
 20
0.0
 30
0.0
  9
$PUCSORGLEFT
 10
0.0
 20
0.0
 30
0.0
  9
$PUCSORGRIGHT
 10
0.0
 20
0.0
 30
0.0
  9
$PUCSORGFRONT
 10
0.0
 20
0.0
 30
0.0
  9
$PUCSORGBACK
 10
0.0
 20
0.0
 30
0.0
  9
$USERI1
 70
     0
  9
$USERI2
 70
     0
  9
$USERI3
 70
     0
  9
$USERI4
 70
     0
  9
$USERI5
 70
     0
  9
$USERR1
 40
0.0
  9
$USERR2
 40
0.0
  9
$USERR3
 40
0.0
  9
$USERR4
 40
0.0
  9
$USERR5
 40
0.0
  9
$WORLDVIEW
 70
     1
  9
$SHADEDGE
 70
     3
  9
$SHADEDIF
 70
    70
  9
$TILEMODE
 70
     1
  9
$MAXACTVP
 70
    64
  9
$PINSBASE
 10
0.0
 20
0.0
 30
0.0
  9
$PLIMCHECK
 70
     0
  9
$PEXTMIN
 10
1.0000000000E+20
 20
1.0000000000E+20
 30
1.0000000000E+20
  9
$PEXTMAX
 10
-1.0000000000E+20
 20
-1.0000000000E+20
 30
-1.0000000000E+20
  9
$PLIMMIN
 10
0.0
 20
0.0
  9
$PLIMMAX
 10
420.0
 20
297.0
  9
$UNITMODE
 70
     0
  9
$VISRETAIN
 70
     1
  9
$PLINEGEN
 70
     0
  9
$PSLTSCALE
 70
     1
  9
$TREEDEPTH
 70
  3020
  9
$CMLSTYLE
  2
Standard
  9
$CMLJUST
 70
     0
  9
$CMLSCALE
 40
20.0
  9
$PROXYGRAPHICS
 70
     1
  9
$MEASUREMENT
 70
     1
  9
$CELWEIGHT
370
    -1
  9
$ENDCAPS
280
     0
  9
$JOINSTYLE
280
     0
  9
$LWDISPLAY
290
     1
  9
$INSUNITS
 70
     4
  9
$HYPERLINKBASE
  1

  9
$STYLESHEET
  1

  9
$XEDIT
290
     1
  9
$CEPSNTYPE
380
     0
  9
$PSTYLEMODE
290
     1
  9
$FINGERPRINTGUID
  2
{323A789A-8BBF-4C82-9ACE-2839BF271F41}
  9
$VERSIONGUID
  2
{FAEB1C32-E019-11D5-929B-00C0DF256EC4}
  9
$EXTNAMES
290
     1
  9
$PSVPSCALE
 40
0.0
  9
$OLESTARTUP
290
     0
  0
ENDSEC
  0
SECTION
  2
CLASSES
  0
CLASS
  1
ACDBDICTIONARYWDFLT
  2
AcDbDictionaryWithDefault
  3
ObjectDBX Classes
 90
        0
280
     0
281
     0
  0
CLASS
  1
VISUALSTYLE
  2
AcDbVisualStyle
  3
ObjectDBX Classes
 90
     4095
280
     0
281
     0
  0
CLASS
  1
MATERIAL
  2
AcDbMaterial
  3
ObjectDBX Classes
 90
     1153
280
     0
281
     0
  0
CLASS
  1
ACDBPLACEHOLDER
  2
AcDbPlaceHolder
  3
ObjectDBX Classes
 90
        0
280
     0
281
     0
  0
CLASS
  1
LAYOUT
  2
AcDbLayout
  3
ObjectDBX Classes
 90
        0
280
     0
281
     0
  0
ENDSEC
  0
SECTION
  2
TABLES
  0
TABLE
  2
VPORT
  5
8
330
0
100
AcDbSymbolTable
 70
     1
  0
VPORT
  5
29
330
8
100
AcDbSymbolTableRecord
100
AcDbViewportTableRecord
  2
*Active
 70
     0
 10
0.0
 20
0.0
 11
1.0
 21
1.0
 12
105.0
 22
148.5
 13
0.0
 23
0.0
 14
10.0
 24
10.0
 15
10.0
 25
10.0
 16
0.0
 26
0.0
 36
1.0
 17
0.0
 27
0.0
 37
0.0
 40
297.0
 41
0.7070707071
 42
50.0
 43
0.0
 44
0.0
 50
0.0
 51
0.0
 71
     0
 72
  2000
 73
     1
 74
     3
 75
     0
 76
     0
 77
     0
 78
     0
281
     0
 65
     1
110
0.0
120
0.0
130
0.0
111
1.0
121
0.0
131
0.0
112
0.0
122
1.0
132
0.0
 79
     0
146
0.0
  0
ENDTAB
  0
TABLE
  2
LTYPE
  5
5
330
0
100
AcDbSymbolTable
 70
     6
  0
LTYPE
  5
14
330
5
100
AcDbSymbolTableRecord
100
AcDbLinetypeTableRecord
  2
ByBlock
 70
     0
  3

 72
    65
 73
     0
 40
0.0
  0
LTYPE
  5
15
330
5
100
AcDbSymbolTableRecord
100
AcDbLinetypeTableRecord
  2
ByLayer
 70
     0
  3

 72
    65
 73
     0
 40
0.0
  0
LTYPE
  5
16
330
5
100
AcDbSymbolTableRecord
100
AcDbLinetypeTableRecord
  2
Continuous
 70
     0
  3
Solid line
 72
    65
 73
     0
 40
0.0
  0
LTYPE
  5
3F
330
5
100
AcDbSymbolTableRecord
100
AcDbLinetypeTableRecord
  2
HIDDEN
 70
     0
  3
Hidden __ __ __ __ __ __ __ __ __ __ __ __ __ __
 72
    65
 73
     2
 40
1.905
 49
1.27
 74
     0
 49
-0.635
 74
     0
  0
LTYPE
  5
40
330
5
100
AcDbSymbolTableRecord
100
AcDbLinetypeTableRecord
  2
PHANTOM
 70
     0
  3
Phantom ______  __  __  ______  __  __  ______
 72
    65
 73
     6
 40
12.7
 49
6.35
 74
     0
 49
-1.27
 74
     0
 49
1.27
 74
     0
 49
-1.27
 74
     0
 49
1.27
 74
     0
 49
-1.27
 74
     0
  0
LTYPE
  5
41
330
5
100
AcDbSymbolTableRecord
100
AcDbLinetypeTableRecord
  2
CENTER
 70
     0
  3
Center ____ _ ____ _ ____ _ ____ _ ____ _ ____
 72
    65
 73
     4
 40
10.16
 49
6.35
 74
     0
 49
-1.27
 74
     0
 49
1.27
 74
     0
 49
-1.27
 74
     0
  0
LTYPE
  5
42
330
5
100
AcDbSymbolTableRecord
100
AcDbLinetypeTableRecord
  2
CENTERX2
 70
     0
  3
Center (2x) ________  __  ________  __  _____
 72
    65
 73
     4
 40
20.32
 49
12.7
 74
     0
 49
-2.54
 74
     0
 49
2.54
 74
     0
 49
-2.54
 74
     0
  0
LTYPE
  5
43
330
5
100
AcDbSymbolTableRecord
100
AcDbLinetypeTableRecord
  2
DOT2
 70
     0
  3
Dot (.5x) ........................................
 72
    65
 73
     2
 40
0.635
 49
0.0
 74
     0
 49
-0.635
 74
     0
  0
ENDTAB
  0
TABLE
  2
LAYER
  5
2
330
0
100
AcDbSymbolTable
 70
     1
  0
LAYER
  5
10
330
2
100
AcDbSymbolTableRecord
100
AcDbLayerTableRecord
  2
0
 70
     0
 62
     7
  6
Continuous
370
    -3
390
F
  0
ENDTAB
  0
TABLE
  2
STYLE
  5
3
330
0
100
AcDbSymbolTable
 70
     3
  0
STYLE
  5
11
330
3
100
AcDbSymbolTableRecord
100
AcDbTextStyleTableRecord
  2
Standard
 70
     0
 40
0.0
 41
1.0
 50
0.0
 71
     0
 42
3.5
  3
txt
  4
bigfont
  0
STYLE
  5
4C
330
3
100
AcDbSymbolTableRecord
100
AcDbTextStyleTableRecord
  2
SLDTEXTSTYLE0
 70
     0
 40
0.0
 41
0.7
 50
0.0
 71
     0
 42
0.2
  3
TXT
  4
bigfont
  0
STYLE
  5
1C0
330
3
100
AcDbSymbolTableRecord
100
AcDbTextStyleTableRecord
  2
SLDTEXTSTYLE1
 70
     0
 40
0.0
 41
0.75
 50
0.0
 71
     0
 42
0.2
  3
TXT
  4
bigfont
  0
ENDTAB
  0
TABLE
  2
VIEW
  5
6
330
0
100
AcDbSymbolTable
 70
     0
  0
ENDTAB
  0
TABLE
  2
UCS
  5
7
330
0
100
AcDbSymbolTable
 70
     0
  0
ENDTAB
  0
TABLE
  2
APPID
  5
9
330
0
100
AcDbSymbolTable
 70
     1
  0
APPID
  5
12
330
9
100
AcDbSymbolTableRecord
100
AcDbRegAppTableRecord
  2
ACAD
 70
     0
  0
ENDTAB
  0
TABLE
  2
DIMSTYLE
  5
A
330
0
100
AcDbSymbolTable
 70
     8
100
AcDbDimStyleTable
  0
DIMSTYLE
105
27
330
A
100
AcDbSymbolTableRecord
100
AcDbDimStyleTableRecord
  2
ISO-25
 70
     0
 41
2.5
 42
0.625
 43
3.75
 44
1.25
 73
     0
 74
     0
 77
     1
 78
     8
140
2.5
141
2.5
143
0.0393700787
147
0.625
171
     3
172
     1
178
     0
271
     2
272
     2
274
     3
278
    44
283
     0
284
     8
340
11
  0
DIMSTYLE
105
1C1
102
{ACAD_REACTORS
330
1BF
330
1CB
330
204
330
20E
330
361
330
376
330
485
330
48F
330
499
102
}
330
A
100
AcDbSymbolTableRecord
100
AcDbDimStyleTableRecord
  2
SLDDIMSTYLE0
 70
     0
 41
2.0
 44
0.0
 45
0.000000001
 73
     0
 74
     0
 77
     3
 78
    12
 79
     3
140
3.5
147
0.875
173
     1
178
     0
271
     2
272
     2
276
     2
284
    12
340
1C0
  0
DIMSTYLE
105
1D6
102
{ACAD_REACTORS
330
1D5
102
}
330
A
100
AcDbSymbolTableRecord
100
AcDbDimStyleTableRecord
  2
SLDDIMSTYLE1
 70
     0
 41
1.5
 44
0.0
 45
0.000000001
 73
     0
 74
     0
 77
     3
 78
    12
 79
     3
140
3.5
147
0.875
172
     1
173
     1
178
     0
271
     1
272
     1
276
     2
284
    12
289
     0
340
1C0
341
1D7
343
1D7
  0
DIMSTYLE
105
1EB
102
{ACAD_REACTORS
330
1EA
102
}
330
A
100
AcDbSymbolTableRecord
100
AcDbDimStyleTableRecord
  2
SLDDIMSTYLE2
 70
     0
 41
2.0
 44
0.0
 45
0.000000001
 73
     0
 74
     0
 77
     3
 78
    12
 79
     3
140
3.5
147
0.875
172
     1
173
     1
178
     0
271
     2
272
     2
276
     2
284
    12
289
     0
340
1C0
344
1D7
  0
DIMSTYLE
105
1F8
102
{ACAD_REACTORS
330
1F7
102
}
330
A
100
AcDbSymbolTableRecord
100
AcDbDimStyleTableRecord
  2
SLDDIMSTYLE3
 70
     0
 41
2.0
 44
0.0
 45
0.000000001
 73
     0
 74
     0
 77
     3
 78
    12
 79
     3
140
3.5
147
0.875
172
     1
173
     1
178
     0
271
     1
272
     1
276
     2
284
    12
289
     0
340
1C0
  0
DIMSTYLE
105
219
330
A
100
AcDbSymbolTableRecord
100
AcDbDimStyleTableRecord
  2
SLDDIMSTYLE4
 70
     0
 41
2.0
 44
0.0
 45
0.000000001
140
0.0
146
2.0
147
0.0
173
     1
178
     0
271
     0
272
     0
276
     2
340
11
  0
DIMSTYLE
105
36C
102
{ACAD_REACTORS
330
36B
102
}
330
A
100
AcDbSymbolTableRecord
100
AcDbDimStyleTableRecord
  2
SLDDIMSTYLE5
 70
     0
 41
2.0
 44
0.0
 45
0.000000001
 73
     0
 74
     0
 77
     3
 78
    12
 79
     3
140
3.5
147
0.875
173
     1
178
     0
271
     1
272
     2
276
     2
284
    12
340
1C0
  0
DIMSTYLE
105
478
102
{ACAD_REACTORS
330
477
102
}
330
A
100
AcDbSymbolTableRecord
100
AcDbDimStyleTableRecord
  2
SLDDIMSTYLE6
 70
     0
 41
2.0
 44
0.0
 45
0.000000001
 73
     0
 74
     0
 77
     3
 78
    12
 79
     3
140
3.5
147
0.875
172
     1
173
     1
178
     0
271
     2
272
     2
276
     2
284
    12
289
     0
340
1C0
  0
ENDTAB
  0
TABLE
  2
BLOCK_RECORD
  5
1
330
0
100
AcDbSymbolTable
 70
    24
  0
BLOCK_RECORD
  5
1F
330
1
100
AcDbSymbolTableRecord
100
AcDbBlockTableRecord
  2
*Model_Space
340
22
  0
BLOCK_RECORD
  5
1B
330
1
100
AcDbSymbolTableRecord
100
AcDbBlockTableRecord
  2
*Paper_Space
340
1E
  0
BLOCK_RECORD
  5
23
330
1
100
AcDbSymbolTableRecord
100
AcDbBlockTableRecord
  2
*Paper_Space0
340
26
  0
BLOCK_RECORD
  5
1C2
330
1
100
AcDbSymbolTableRecord
100
AcDbBlockTableRecord
  2
_D
340
0
  0
BLOCK_RECORD
  5
1CC
330
1
100
AcDbSymbolTableRecord
100
AcDbBlockTableRecord
  2
_D_1
340
0
  0
BLOCK_RECORD
  5
1D7
330
1
100
AcDbSymbolTableRecord
100
AcDbBlockTableRecord
  2
_DOT
340
0
102
{BLKREFS
331
1E2
331
1F0
102
}
  0
BLOCK_RECORD
  5
1DF
330
1
100
AcDbSymbolTableRecord
100
AcDbBlockTableRecord
  2
_D_2
340
0
  0
BLOCK_RECORD
  5
1EC
330
1
100
AcDbSymbolTableRecord
100
AcDbBlockTableRecord
  2
_D_3
340
0
  0
BLOCK_RECORD
  5
1F9
330
1
100
AcDbSymbolTableRecord
100
AcDbBlockTableRecord
  2
_D_4
340
0
  0
BLOCK_RECORD
  5
205
330
1
100
AcDbSymbolTableRecord
100
AcDbBlockTableRecord
  2
_D_5
340
0
  0
BLOCK_RECORD
  5
20F
330
1
100
AcDbSymbolTableRecord
100
AcDbBlockTableRecord
  2
_D_6
340
0
  0
BLOCK_RECORD
  5
21D
330
1
100
AcDbSymbolTableRecord
100
AcDbBlockTableRecord
  2
SW_CENTERMARKSYMBOL_0
340
0
102
{BLKREFS
331
228
102
}
  0
BLOCK_RECORD
  5
229
330
1
100
AcDbSymbolTableRecord
100
AcDbBlockTableRecord
  2
SW_CENTERMARKSYMBOL_1
340
0
102
{BLKREFS
331
234
102
}
  0
BLOCK_RECORD
  5
362
330
1
100
AcDbSymbolTableRecord
100
AcDbBlockTableRecord
  2
_D_7
340
0
  0
BLOCK_RECORD
  5
36D
330
1
100
AcDbSymbolTableRecord
100
AcDbBlockTableRecord
  2
_D_8
340
0
  0
BLOCK_RECORD
  5
377
330
1
100
AcDbSymbolTableRecord
100
AcDbBlockTableRecord
  2
_D_9
340
0
  0
BLOCK_RECORD
  5
380
330
1
100
AcDbSymbolTableRecord
100
AcDbBlockTableRecord
  2
SW_CENTERMARKSYMBOL_2
340
0
102
{BLKREFS
331
38B
102
}
  0
BLOCK_RECORD
  5
38C
330
1
100
AcDbSymbolTableRecord
100
AcDbBlockTableRecord
  2
SW_CENTERMARKSYMBOL_3
340
0
102
{BLKREFS
331
397
102
}
  0
BLOCK_RECORD
  5
398
330
1
100
AcDbSymbolTableRecord
100
AcDbBlockTableRecord
  2
SW_CENTERMARKSYMBOL_4
340
0
102
{BLKREFS
331
3A3
102
}
  0
BLOCK_RECORD
  5
3A4
330
1
100
AcDbSymbolTableRecord
100
AcDbBlockTableRecord
  2
SW_CENTERMARKSYMBOL_5
340
0
102
{BLKREFS
331
3AF
102
}
  0
BLOCK_RECORD
  5
3B0
330
1
100
AcDbSymbolTableRecord
100
AcDbBlockTableRecord
  2
SW_CENTERMARKSYMBOL_6
340
0
102
{BLKREFS
331
3BB
102
}
  0
BLOCK_RECORD
  5
479
330
1
100
AcDbSymbolTableRecord
100
AcDbBlockTableRecord
  2
_D_10
340
0
  0
BLOCK_RECORD
  5
486
330
1
100
AcDbSymbolTableRecord
100
AcDbBlockTableRecord
  2
_D_11
340
0
  0
BLOCK_RECORD
  5
490
330
1
100
AcDbSymbolTableRecord
100
AcDbBlockTableRecord
  2
_D_12
340
0
  0
BLOCK_RECORD
  5
49A
330
1
100
AcDbSymbolTableRecord
100
AcDbBlockTableRecord
  2
_D_13
340
0
  0
BLOCK_RECORD
  5
4A3
330
1
100
AcDbSymbolTableRecord
100
AcDbBlockTableRecord
  2
SW_CENTERMARKSYMBOL_7
340
0
102
{BLKREFS
331
4AE
102
}
  0
ENDTAB
  0
ENDSEC
  0
SECTION
  2
BLOCKS
  0
BLOCK
  5
20
330
1F
100
AcDbEntity
  8
0
100
AcDbBlockBegin
  2
*Model_Space
 70
     0
 10
0.0
 20
0.0
 30
0.0
  3
*Model_Space
  1

  0
ENDBLK
  5
21
330
1F
100
AcDbEntity
  8
0
100
AcDbBlockEnd
  0
BLOCK
  5
1C
330
1B
100
AcDbEntity
 67
     1
  8
0
100
AcDbBlockBegin
  2
*Paper_Space
 70
     0
 10
0.0
 20
0.0
 30
0.0
  3
*Paper_Space
  1

  0
ENDBLK
  5
1D
330
1B
100
AcDbEntity
 67
     1
  8
0
100
AcDbBlockEnd
  0
BLOCK
  5
24
330
23
100
AcDbEntity
  8
0
100
AcDbBlockBegin
  2
*Paper_Space0
 70
     0
 10
0.0
 20
0.0
 30
0.0
  3
*Paper_Space0
  1

  0
ENDBLK
  5
25
330
23
100
AcDbEntity
  8
0
100
AcDbBlockEnd
  0
BLOCK
  5
1C3
330
1C2
100
AcDbEntity
  8
0
100
AcDbBlockBegin
  2
_D
 70
     0
 10
0.0
 20
0.0
 30
0.0
  3
_D
  1

  0
SOLID
  5
1C5
330
1C2
100
AcDbEntity
  8
0
  6
Continuous
 62
     7
370
     0
100
AcDbTrace
 10
99.2829147666
 20
176.7556811372
 30
0.0
 11
100.0329147666
 21
178.7556811372
 31
0.0
 12
98.5329147666
 22
178.7556811372
 32
0.0
 13
98.5329147666
 23
178.7556811372
 33
0.0
  0
SOLID
  5
1C6
330
1C2
100
AcDbEntity
  8
0
  6
Continuous
 62
     7
370
     0
100
AcDbTrace
 10
99.2829147666
 20
207.7556811372
 30
0.0
 11
98.5329147666
 21
205.7556811372
 31
0.0
 12
100.0329147666
 22
205.7556811372
 32
0.0
 13
100.0329147666
 23
205.7556811372
 33
0.0
  0
LINE
  5
1C7
330
1C2
100
AcDbEntity
  8
0
  6
Continuous
 62
     7
370
     0
100
AcDbLine
 10
133.9303988394
 20
176.7556811372
 30
0.0
 11
98.2829147666
 21
176.7556811372
 31
0.0
  0
LINE
  5
1C8
330
1C2
100
AcDbEntity
  8
0
  6
Continuous
 62
     7
370
     0
100
AcDbLine
 10
114.6541828894
 20
207.7556811372
 30
0.0
 11
98.2829147666
 21
207.7556811372
 31
0.0
  0
LINE
  5
1C9
330
1C2
100
AcDbEntity
  8
0
  6
Continuous
 62
     7
370
     0
100
AcDbLine
 10
99.2829147666
 20
176.7556811372
 30
0.0
 11
99.2829147666
 21
207.7556811372
 31
0.0
  0
MTEXT
  5
1CA
330
1C2
100
AcDbEntity
  8
0
  6
Continuous
 62
     7
370
     0
100
AcDbMText
 10
94.771177852
 20
190.6649106557
 30
0.1
 40
3.5
 41
0.0
 71
     1
 72
     1
  1
31
  7
SLDTEXTSTYLE1
 11
6.123233995736766E-17
 21
1.0
 31
0.0
 73
     1
 44
1.0
  0
ENDBLK
  5
1C4
330
1C2
100
AcDbEntity
  8
0
100
AcDbBlockEnd
  0
BLOCK
  5
1CD
330
1CC
100
AcDbEntity
  8
0
100
AcDbBlockBegin
  2
_D_1
 70
     0
 10
0.0
 20
0.0
 30
0.0
  3
_D_1
  1

  0
SOLID
  5
1CF
330
1CC
100
AcDbEntity
  8
0
  6
Continuous
 62
     7
370
     0
100
AcDbTrace
 10
118.9303988394
 20
167.3076945263
 30
0.0
 11
120.9303988394
 21
166.5576945263
 31
0.0
 12
120.9303988394
 22
168.0576945263
 32
0.0
 13
120.9303988394
 23
168.0576945263
 33
0.0
  0
SOLID
  5
1D0
330
1CC
100
AcDbEntity
  8
0
  6
Continuous
 62
     7
370
     0
100
AcDbTrace
 10
156.9303988394
 20
167.3076945263
 30
0.0
 11
154.9303988394
 21
168.0576945263
 31
0.0
 12
154.9303988394
 22
166.5576945263
 32
0.0
 13
154.9303988394
 23
166.5576945263
 33
0.0
  0
LINE
  5
1D1
330
1CC
100
AcDbEntity
  8
0
  6
Continuous
 62
     7
370
     0
100
AcDbLine
 10
118.9303988394
 20
201.2687347706
 30
0.0
 11
118.9303988394
 21
166.3076945263
 31
0.0
  0
LINE
  5
1D2
330
1CC
100
AcDbEntity
  8
0
  6
Continuous
 62
     7
370
     0
100
AcDbLine
 10
156.9303988394
 20
199.5056811372
 30
0.0
 11
156.9303988394
 21
166.3076945263
 31
0.0
  0
LINE
  5
1D3
330
1CC
100
AcDbEntity
  8
0
  6
Continuous
 62
     7
370
     0
100
AcDbLine
 10
118.9303988394
 20
167.3076945263
 30
0.0
 11
156.9303988394
 21
167.3076945263
 31
0.0
  0
MTEXT
  5
1D4
330
1CC
100
AcDbEntity
  8
0
  6
Continuous
 62
     7
370
     0
100
AcDbMText
 10
135.3442876459
 20
171.8194314409
 30
0.1
 40
3.5
 41
0.0
 71
     1
 72
     1
  1
38
  7
SLDTEXTSTYLE1
 73
     1
 44
1.0
  0
ENDBLK
  5
1CE
330
1CC
100
AcDbEntity
  8
0
100
AcDbBlockEnd
  0
BLOCK
  5
1D8
330
1D7
100
AcDbEntity
  8
0
100
AcDbBlockBegin
  2
_DOT
 70
     0
 10
0.0
 20
0.0
 30
0.0
  3
_DOT
  1

  0
POLYLINE
  5
1DA
330
1D7
100
AcDbEntity
  8
0
  6
ByBlock
 62
     0
100
AcDb2dPolyline
 66
     1
 10
0.0
 20
0.0
 30
0.0
 70
     1
 40
0.5
 41
0.5
  0
VERTEX
  5
1DC
330
1DA
100
AcDbEntity
  8
0
  6
ByBlock
 62
     0
100
AcDbVertex
100
AcDb2dVertex
 10
-0.25
 20
0.0
 30
0.0
 42
1.0
  0
VERTEX
  5
1DD
330
1DA
100
AcDbEntity
  8
0
  6
ByBlock
 62
     0
100
AcDbVertex
100
AcDb2dVertex
 10
0.25
 20
0.0
 30
0.0
 42
1.0
  0
SEQEND
  5
1DE
330
1DA
100
AcDbEntity
  8
0
  6
ByBlock
 62
     0
  0
LINE
  5
1DB
330
1D7
100
AcDbEntity
  8
0
  6
ByBlock
 62
     0
370
    -2
100
AcDbLine
 10
-0.5
 20
0.0
 30
0.0
 11
-1.0
 21
0.0
 31
0.0
  0
ENDBLK
  5
1D9
330
1D7
100
AcDbEntity
  8
0
100
AcDbBlockEnd
  0
BLOCK
  5
1E0
330
1DF
100
AcDbEntity
  8
0
100
AcDbBlockBegin
  2
_D_2
 70
     0
 10
0.0
 20
0.0
 30
0.0
  3
_D_2
  1

  0
INSERT
  5
1E2
330
1DF
100
AcDbEntity
  8
0
  6
Continuous
 62
     7
370
     0
100
AcDbBlockReference
  2
_DOT
 10
171.9303988394
 20
205.2556811372
 30
-6.860690685
 41
1.5
 42
1.5
 50
270.0
  0
SOLID
  5
1E3
330
1DF
100
AcDbEntity
  8
0
  6
Continuous
 62
     7
370
     0
100
AcDbTrace
 10
171.9303988394
 20
192.7556811372
 30
0.0
 11
171.1803988394
 21
190.7556811372
 31
0.0
 12
172.6803988394
 22
190.7556811372
 32
0.0
 13
172.6803988394
 23
190.7556811372
 33
0.0
  0
LINE
  5
1E4
330
1DF
100
AcDbEntity
  8
0
  6
Continuous
 62
     7
370
     0
100
AcDbLine
 10
160.1803988394
 20
205.2556811372
 30
0.0
 11
172.9303988394
 21
205.2556811372
 31
0.0
  0
LINE
  5
1E5
330
1DF
100
AcDbEntity
  8
0
  6
Continuous
 62
     7
370
     0
100
AcDbLine
 10
160.9303988394
 20
192.7556811372
 30
0.0
 11
172.9303988394
 21
192.7556811372
 31
0.0
  0
LINE
  5
1E6
330
1DF
100
AcDbEntity
  8
0
  6
Continuous
 62
     7
370
     0
100
AcDbLine
 10
171.9303988394
 20
205.2556811372
 30
0.0
 11
171.9303988394
 21
210.2556811372
 31
0.0
  0
LINE
  5
1E7
330
1DF
100
AcDbEntity
  8
0
  6
Continuous
 62
     7
370
     0
100
AcDbLine
 10
171.9303988394
 20
205.2556811372
 30
0.0
 11
171.9303988394
 21
192.7556811372
 31
0.0
  0
LINE
  5
1E8
330
1DF
100
AcDbEntity
  8
0
  6
Continuous
 62
     7
370
     0
100
AcDbLine
 10
171.9303988394
 20
192.7556811372
 30
0.0
 11
171.9303988394
 21
187.7556811372
 31
0.0
  0
MTEXT
  5
1E9
330
1DF
100
AcDbEntity
  8
0
  6
Continuous
 62
     7
370
     0
100
AcDbMText
 10
167.4186619248
 20
194.4799866068
 30
-6.860690685
 40
3.5
 41
0.0
 71
     1
 72
     1
  1
12.5
  7
SLDTEXTSTYLE1
 11
-7.044195017643634E-15
 21
1.0
 31
0.0
 73
     1
 44
1.0
  0
ENDBLK
  5
1E1
330
1DF
100
AcDbEntity
  8
0
100
AcDbBlockEnd
  0
BLOCK
  5
1ED
330
1EC
100
AcDbEntity
  8
0
100
AcDbBlockBegin
  2
_D_3
 70
     0
 10
0.0
 20
0.0
 30
0.0
  3
_D_3
  1

  0
SOLID
  5
1EF
330
1EC
100
AcDbEntity
  8
0
  6
Continuous
 62
     7
370
     0
100
AcDbTrace
 10
171.9303988394
 20
210.2556811372
 30
0.0
 11
172.6803988394
 21
212.2556811372
 31
0.0
 12
171.1803988394
 22
212.2556811372
 32
0.0
 13
171.1803988394
 23
212.2556811372
 33
0.0
  0
INSERT
  5
1F0
330
1EC
100
AcDbEntity
  8
0
  6
Continuous
 62
     7
370
     0
100
AcDbBlockReference
  2
_DOT
 10
171.9303988394
 20
205.2556811372
 30
-6.860690685
 41
1.5
 42
1.5
 50
90.0
  0
LINE
  5
1F1
330
1EC
100
AcDbEntity
  8
0
  6
Continuous
 62
     7
370
     0
100
AcDbLine
 10
162.6803988394
 20
210.2556811372
 30
0.0
 11
172.9303988394
 21
210.2556811372
 31
0.0
  0
LINE
  5
1F2
330
1EC
100
AcDbEntity
  8
0
  6
Continuous
 62
     7
370
     0
100
AcDbLine
 10
162.6803988394
 20
205.2556811372
 30
0.0
 11
172.9303988394
 21
205.2556811372
 31
0.0
  0
LINE
  5
1F3
330
1EC
100
AcDbEntity
  8
0
  6
Continuous
 62
     7
370
     0
100
AcDbLine
 10
171.9303988394
 20
210.2556811372
 30
0.0
 11
171.9303988394
 21
215.2556811372
 31
0.0
  0
LINE
  5
1F4
330
1EC
100
AcDbEntity
  8
0
  6
Continuous
 62
     7
370
     0
100
AcDbLine
 10
171.9303988394
 20
210.2556811372
 30
0.0
 11
171.9303988394
 21
205.2556811372
 31
0.0
  0
LINE
  5
1F5
330
1EC
100
AcDbEntity
  8
0
  6
Continuous
 62
     7
370
     0
100
AcDbLine
 10
171.9303988394
 20
205.2556811372
 30
0.0
 11
171.9303988394
 21
200.2556811372
 31
0.0
  0
MTEXT
  5
1F6
330
1EC
100
AcDbEntity
  8
0
  6
Continuous
 62
     7
370
     0
100
AcDbMText
 10
167.4186619248
 20
206.5213685147
 30
-6.860690685
 40
3.5
 41
0.0
 71
     1
 72
     1
  1
5
  7
SLDTEXTSTYLE1
 11
-7.044195017643634E-15
 21
1.0
 31
0.0
 73
     1
 44
1.0
  0
ENDBLK
  5
1EE
330
1EC
100
AcDbEntity
  8
0
100
AcDbBlockEnd
  0
BLOCK
  5
1FA
330
1F9
100
AcDbEntity
  8
0
100
AcDbBlockBegin
  2
_D_4
 70
     0
 10
0.0
 20
0.0
 30
0.0
  3
_D_4
  1

  0
SOLID
  5
1FC
330
1F9
100
AcDbEntity
  8
0
  6
Continuous
 62
     7
370
     0
100
AcDbTrace
 10
154.6803988394
 20
178.6972944653
 30
0.0
 11
152.6803988394
 21
179.4472944653
 31
0.0
 12
152.6803988394
 22
177.9472944653
 32
0.0
 13
152.6803988394
 23
177.9472944653
 33
0.0
  0
SOLID
  5
1FD
330
1F9
100
AcDbEntity
  8
0
  6
Continuous
 62
     7
370
     0
100
AcDbTrace
 10
159.1803988394
 20
178.6972944653
 30
0.0
 11
161.1803988394
 21
177.9472944653
 31
0.0
 12
161.1803988394
 22
179.4472944653
 32
0.0
 13
161.1803988394
 23
179.4472944653
 33
0.0
  0
LINE
  5
1FE
330
1F9
100
AcDbEntity
  8
0
  6
Continuous
 62
     7
370
     0
100
AcDbLine
 10
154.6803988394
 20
204.2556811372
 30
0.0
 11
154.6803988394
 21
177.6972944653
 31
0.0
  0
LINE
  5
1FF
330
1F9
100
AcDbEntity
  8
0
  6
Continuous
 62
     7
370
     0
100
AcDbLine
 10
159.1803988394
 20
204.2556811372
 30
0.0
 11
159.1803988394
 21
177.6972944653
 31
0.0
  0
LINE
  5
200
330
1F9
100
AcDbEntity
  8
0
  6
Continuous
 62
     7
370
     0
100
AcDbLine
 10
154.6803988394
 20
178.6972944653
 30
0.0
 11
144.4455845803
 21
178.6972944653
 31
0.0
  0
LINE
  5
201
330
1F9
100
AcDbEntity
  8
0
  6
Continuous
 62
     7
370
     0
100
AcDbLine
 10
154.6803988394
 20
178.6972944653
 30
0.0
 11
159.1803988394
 21
178.6972944653
 31
0.0
  0
LINE
  5
202
330
1F9
100
AcDbEntity
  8
0
  6
Continuous
 62
     7
370
     0
100
AcDbLine
 10
159.1803988394
 20
178.6972944653
 30
0.0
 11
164.1803988394
 21
178.6972944653
 31
0.0
  0
MTEXT
  5
203
330
1F9
100
AcDbEntity
  8
0
  6
Continuous
 62
     7
370
     0
100
AcDbMText
 10
144.4455845803
 20
183.2090313799
 30
-6.860690685
 40
3.5
 41
0.0
 71
     1
 72
     1
  1
4.5
  7
SLDTEXTSTYLE1
 73
     1
 44
1.0
  0
ENDBLK
  5
1FB
330
1F9
100
AcDbEntity
  8
0
100
AcDbBlockEnd
  0
BLOCK
  5
206
330
205
100
AcDbEntity
  8
0
100
AcDbBlockBegin
  2
_D_5
 70
     0
 10
0.0
 20
0.0
 30
0.0
  3
_D_5
  1

  0
SOLID
  5
208
330
205
100
AcDbEntity
  8
0
  6
Continuous
 62
     7
370
     0
100
AcDbTrace
 10
161.9303988394
 20
156.2206908421
 30
0.0
 11
159.9303988394
 21
156.9706908421
 31
0.0
 12
159.9303988394
 22
155.4706908421
 32
0.0
 13
159.9303988394
 23
155.4706908421
 33
0.0
  0
SOLID
  5
209
330
205
100
AcDbEntity
  8
0
  6
Continuous
 62
     7
370
     0
100
AcDbTrace
 10
113.9303988394
 20
156.2206908421
 30
0.0
 11
115.9303988394
 21
155.4706908421
 31
0.0
 12
115.9303988394
 22
156.9706908421
 32
0.0
 13
115.9303988394
 23
156.9706908421
 33
0.0
  0
LINE
  5
20A
330
205
100
AcDbEntity
  8
0
  6
Continuous
 62
     7
370
     0
100
AcDbLine
 10
161.9303988394
 20
193.7556811372
 30
0.0
 11
161.9303988394
 21
155.2206908421
 31
0.0
  0
LINE
  5
20B
330
205
100
AcDbEntity
  8
0
  6
Continuous
 62
     7
370
     0
100
AcDbLine
 10
113.9303988394
 20
193.7556811372
 30
0.0
 11
113.9303988394
 21
155.2206908421
 31
0.0
  0
LINE
  5
20C
330
205
100
AcDbEntity
  8
0
  6
Continuous
 62
     7
370
     0
100
AcDbLine
 10
161.9303988394
 20
156.2206908421
 30
0.0
 11
113.9303988394
 21
156.2206908421
 31
0.0
  0
MTEXT
  5
20D
330
205
100
AcDbEntity
  8
0
  6
Continuous
 62
     7
370
     0
100
AcDbMText
 10
135.3442876459
 20
160.7324277567
 30
-6.860690685
 40
3.5
 41
0.0
 71
     1
 72
     1
  1
48
  7
SLDTEXTSTYLE1
 73
     1
 44
1.0
  0
ENDBLK
  5
207
330
205
100
AcDbEntity
  8
0
100
AcDbBlockEnd
  0
BLOCK
  5
210
330
20F
100
AcDbEntity
  8
0
100
AcDbBlockBegin
  2
_D_6
 70
     0
 10
0.0
 20
0.0
 30
0.0
  3
_D_6
  1

  0
SOLID
  5
212
330
20F
100
AcDbEntity
  8
0
  6
Continuous
 62
     7
370
     0
100
AcDbTrace
 10
106.9701109356
 20
214.7556811372
 30
0.0
 11
106.2201109356
 21
212.7556811372
 31
0.0
 12
107.7201109356
 22
212.7556811372
 32
0.0
 13
107.7201109356
 23
212.7556811372
 33
0.0
  0
SOLID
  5
213
330
20F
100
AcDbEntity
  8
0
  6
Continuous
 62
     7
370
     0
100
AcDbTrace
 10
106.9701109356
 20
192.7556811372
 30
0.0
 11
107.7201109356
 21
194.7556811372
 31
0.0
 12
106.2201109356
 22
194.7556811372
 32
0.0
 13
106.2201109356
 23
194.7556811372
 33
0.0
  0
LINE
  5
214
330
20F
100
AcDbEntity
  8
0
  6
Continuous
 62
     7
370
     0
100
AcDbLine
 10
114.9303988394
 20
214.7556811372
 30
0.0
 11
105.9701109356
 21
214.7556811372
 31
0.0
  0
LINE
  5
215
330
20F
100
AcDbEntity
  8
0
  6
Continuous
 62
     7
370
     0
100
AcDbLine
 10
114.9303988394
 20
192.7556811372
 30
0.0
 11
105.9701109356
 21
192.7556811372
 31
0.0
  0
LINE
  5
216
330
20F
100
AcDbEntity
  8
0
  6
Continuous
 62
     7
370
     0
100
AcDbLine
 10
106.9701109356
 20
214.7556811372
 30
0.0
 11
106.9701109356
 21
192.7556811372
 31
0.0
  0
MTEXT
  5
217
330
20F
100
AcDbEntity
  8
0
  6
Continuous
 62
     7
370
     0
100
AcDbMText
 10
102.458374021
 20
200.2031932707
 30
-6.860690685
 40
3.5
 41
0.0
 71
     1
 72
     1
  1
22
  7
SLDTEXTSTYLE1
 11
-7.044195017643634E-15
 21
1.0
 31
0.0
 73
     1
 44
1.0
  0
ENDBLK
  5
211
330
20F
100
AcDbEntity
  8
0
100
AcDbBlockEnd
  0
BLOCK
  5
21E
330
21D
100
AcDbEntity
  8
0
100
AcDbBlockBegin
  2
SW_CENTERMARKSYMBOL_0
 70
     0
 10
0.0
 20
0.0
 30
0.0
  3
SW_CENTERMARKSYMBOL_0
  1

  0
LINE
  5
220
330
21D
100
AcDbEntity
  8
0
  6
Continuous
 62
     0
370
     0
100
AcDbLine
 10
0.0
 20
0.0
 30
0.0
 11
0.0
 21
2.5
 31
0.0
  0
LINE
  5
221
330
21D
100
AcDbEntity
  8
0
  6
Continuous
 62
     0
370
     0
100
AcDbLine
 10
0.0
 20
0.0
 30
0.0
 11
-2.5
 21
0.0
 31
0.0
  0
LINE
  5
222
330
21D
100
AcDbEntity
  8
0
  6
Continuous
 62
     0
370
     0
100
AcDbLine
 10
0.0
 20
0.0
 30
0.0
 11
0.0
 21
-2.5
 31
0.0
  0
LINE
  5
223
330
21D
100
AcDbEntity
  8
0
  6
Continuous
 62
     0
370
     0
100
AcDbLine
 10
0.0
 20
0.0
 30
0.0
 11
2.5
 21
0.0
 31
0.0
  0
LINE
  5
224
330
21D
100
AcDbEntity
  8
0
  6
Continuous
 62
     0
370
     0
100
AcDbLine
 10
0.0
 20
2.5
 30
0.0
 11
0.0
 21
4.75
 31
0.0
  0
LINE
  5
225
330
21D
100
AcDbEntity
  8
0
  6
Continuous
 62
     0
370
     0
100
AcDbLine
 10
-2.5
 20
0.0
 30
0.0
 11
-4.75
 21
0.0
 31
0.0
  0
LINE
  5
226
330
21D
100
AcDbEntity
  8
0
  6
Continuous
 62
     0
370
     0
100
AcDbLine
 10
0.0
 20
-2.5
 30
0.0
 11
0.0
 21
-4.75
 31
0.0
  0
LINE
  5
227
330
21D
100
AcDbEntity
  8
0
  6
Continuous
 62
     0
370
     0
100
AcDbLine
 10
2.5
 20
0.0
 30
0.0
 11
4.75
 21
0.0
 31
0.0
  0
ENDBLK
  5
21F
330
21D
100
AcDbEntity
  8
0
100
AcDbBlockEnd
  0
BLOCK
  5
22A
330
229
100
AcDbEntity
  8
0
100
AcDbBlockBegin
  2
SW_CENTERMARKSYMBOL_1
 70
     0
 10
0.0
 20
0.0
 30
0.0
  3
SW_CENTERMARKSYMBOL_1
  1

  0
LINE
  5
22C
330
229
100
AcDbEntity
  8
0
  6
Continuous
 62
     0
370
     0
100
AcDbLine
 10
0.0
 20
0.0
 30
0.0
 11
0.0
 21
2.5
 31
0.0
  0
LINE
  5
22D
330
229
100
AcDbEntity
  8
0
  6
Continuous
 62
     0
370
     0
100
AcDbLine
 10
0.0
 20
0.0
 30
0.0
 11
-2.5
 21
0.0
 31
0.0
  0
LINE
  5
22E
330
229
100
AcDbEntity
  8
0
  6
Continuous
 62
     0
370
     0
100
AcDbLine
 10
0.0
 20
0.0
 30
0.0
 11
0.0
 21
-2.5
 31
0.0
  0
LINE
  5
22F
330
229
100
AcDbEntity
  8
0
  6
Continuous
 62
     0
370
     0
100
AcDbLine
 10
0.0
 20
0.0
 30
0.0
 11
2.5
 21
0.0
 31
0.0
  0
LINE
  5
230
330
229
100
AcDbEntity
  8
0
  6
Continuous
 62
     0
370
     0
100
AcDbLine
 10
0.0
 20
2.5
 30
0.0
 11
0.0
 21
4.75
 31
0.0
  0
LINE
  5
231
330
229
100
AcDbEntity
  8
0
  6
Continuous
 62
     0
370
     0
100
AcDbLine
 10
-2.5
 20
0.0
 30
0.0
 11
-4.75
 21
0.0
 31
0.0
  0
LINE
  5
232
330
229
100
AcDbEntity
  8
0
  6
Continuous
 62
     0
370
     0
100
AcDbLine
 10
0.0
 20
-2.5
 30
0.0
 11
0.0
 21
-4.75
 31
0.0
  0
LINE
  5
233
330
229
100
AcDbEntity
  8
0
  6
Continuous
 62
     0
370
     0
100
AcDbLine
 10
2.5
 20
0.0
 30
0.0
 11
4.75
 21
0.0
 31
0.0
  0
ENDBLK
  5
22B
330
229
100
AcDbEntity
  8
0
100
AcDbBlockEnd
  0
BLOCK
  5
363
330
362
100
AcDbEntity
  8
0
100
AcDbBlockBegin
  2
_D_7
 70
     0
 10
0.0
 20
0.0
 30
0.0
  3
_D_7
  1

  0
SOLID
  5
365
330
362
100
AcDbEntity
  8
0
  6
Continuous
 62
     7
370
     0
100
AcDbTrace
 10
144.4303988394
 20
118.8370664009
 30
0.0
 11
142.4303988394
 21
119.5870664009
 31
0.0
 12
142.4303988394
 22
118.0870664009
 32
0.0
 13
142.4303988394
 23
118.0870664009
 33
0.0
  0
SOLID
  5
366
330
362
100
AcDbEntity
  8
0
  6
Continuous
 62
     7
370
     0
100
AcDbTrace
 10
131.4303988394
 20
118.8370664009
 30
0.0
 11
133.4303988394
 21
118.0870664009
 31
0.0
 12
133.4303988394
 22
119.5870664009
 32
0.0
 13
133.4303988394
 23
119.5870664009
 33
0.0
  0
LINE
  5
367
330
362
100
AcDbEntity
  8
0
  6
Continuous
 62
     7
370
     0
100
AcDbLine
 10
144.4303988394
 20
116.8474945975
 30
0.0
 11
144.4303988394
 21
119.8370664009
 31
0.0
  0
LINE
  5
368
330
362
100
AcDbEntity
  8
0
  6
Continuous
 62
     7
370
     0
100
AcDbLine
 10
131.4303988394
 20
116.8474945975
 30
0.0
 11
131.4303988394
 21
119.8370664009
 31
0.0
  0
LINE
  5
369
330
362
100
AcDbEntity
  8
0
  6
Continuous
 62
     7
370
     0
100
AcDbLine
 10
144.4303988394
 20
118.8370664009
 30
0.0
 11
131.4303988394
 21
118.8370664009
 31
0.0
  0
MTEXT
  5
36A
330
362
100
AcDbEntity
  8
0
  6
Continuous
 62
     7
370
     0
100
AcDbMText
 10
135.3442876459
 20
123.3488033155
 30
-11.5600465905
 40
3.5
 41
0.0
 71
     1
 72
     1
  1
13
  7
SLDTEXTSTYLE1
 73
     1
 44
1.0
  0
ENDBLK
  5
364
330
362
100
AcDbEntity
  8
0
100
AcDbBlockEnd
  0
BLOCK
  5
36E
330
36D
100
AcDbEntity
  8
0
100
AcDbBlockBegin
  2
_D_8
 70
     0
 10
0.0
 20
0.0
 30
0.0
  3
_D_8
  1

  0
SOLID
  5
370
330
36D
100
AcDbEntity
  8
0
  6
Continuous
 62
     7
370
     0
100
AcDbTrace
 10
123.7303988394
 20
127.1533340452
 30
0.0
 11
125.7303988394
 21
126.4033340452
 31
0.0
 12
125.7303988394
 22
127.9033340452
 32
0.0
 13
125.7303988394
 23
127.9033340452
 33
0.0
  0
SOLID
  5
371
330
36D
100
AcDbEntity
  8
0
  6
Continuous
 62
     7
370
     0
100
AcDbTrace
 10
152.1303988394
 20
127.1533340452
 30
0.0
 11
150.1303988394
 21
127.9033340452
 31
0.0
 12
150.1303988394
 22
126.4033340452
 32
0.0
 13
150.1303988394
 23
126.4033340452
 33
0.0
  0
LINE
  5
372
330
36D
100
AcDbEntity
  8
0
  6
Continuous
 62
     7
370
     0
100
AcDbLine
 10
123.7303988394
 20
110.8318543088
 30
0.0
 11
123.7303988394
 21
128.1533340452
 31
0.0
  0
LINE
  5
373
330
36D
100
AcDbEntity
  8
0
  6
Continuous
 62
     7
370
     0
100
AcDbLine
 10
152.1303988394
 20
110.8318543088
 30
0.0
 11
152.1303988394
 21
128.1533340452
 31
0.0
  0
LINE
  5
374
330
36D
100
AcDbEntity
  8
0
  6
Continuous
 62
     7
370
     0
100
AcDbLine
 10
123.7303988394
 20
127.1533340452
 30
0.0
 11
152.1303988394
 21
127.1533340452
 31
0.0
  0
MTEXT
  5
375
330
36D
100
AcDbEntity
  8
0
  6
Continuous
 62
     7
370
     0
100
AcDbMText
 10
133.4047043089
 20
131.6650709598
 30
-11.5600465905
 40
3.5
 41
0.0
 71
     1
 72
     1
  1
28.4
  7
SLDTEXTSTYLE1
 73
     1
 44
1.0
  0
ENDBLK
  5
36F
330
36D
100
AcDbEntity
  8
0
100
AcDbBlockEnd
  0
BLOCK
  5
378
330
377
100
AcDbEntity
  8
0
100
AcDbBlockBegin
  2
_D_9
 70
     0
 10
0.0
 20
0.0
 30
0.0
  3
_D_9
  1

  0
SOLID
  5
37A
330
377
100
AcDbEntity
  8
0
  6
Continuous
 62
     7
370
     0
100
AcDbTrace
 10
168.1378129329
 20
113.3474945975
 30
0.0
 11
167.3878129329
 21
111.3474945975
 31
0.0
 12
168.8878129329
 22
111.3474945975
 32
0.0
 13
168.8878129329
 23
111.3474945975
 33
0.0
  0
SOLID
  5
37B
330
377
100
AcDbEntity
  8
0
  6
Continuous
 62
     7
370
     0
100
AcDbTrace
 10
168.1378129329
 20
85.3474945975
 30
0.0
 11
168.8878129329
 21
87.3474945975
 31
0.0
 12
167.3878129329
 22
87.3474945975
 32
0.0
 13
167.3878129329
 23
87.3474945975
 33
0.0
  0
LINE
  5
37C
330
377
100
AcDbEntity
  8
0
  6
Continuous
 62
     7
370
     0
100
AcDbLine
 10
149.6147585507
 20
113.3474945975
 30
0.0
 11
169.1378129329
 21
113.3474945975
 31
0.0
  0
LINE
  5
37D
330
377
100
AcDbEntity
  8
0
  6
Continuous
 62
     7
370
     0
100
AcDbLine
 10
162.9303988394
 20
85.3474945975
 30
0.0
 11
169.1378129329
 21
85.3474945975
 31
0.0
  0
LINE
  5
37E
330
377
100
AcDbEntity
  8
0
  6
Continuous
 62
     7
370
     0
100
AcDbLine
 10
168.1378129329
 20
113.3474945975
 30
0.0
 11
168.1378129329
 21
85.3474945975
 31
0.0
  0
MTEXT
  5
37F
330
377
100
AcDbEntity
  8
0
  6
Continuous
 62
     7
370
     0
100
AcDbMText
 10
163.6260760183
 20
97.7921435711
 30
-11.5600465905
 40
3.5
 41
0.0
 71
     1
 72
     1
  1
28
  7
SLDTEXTSTYLE1
 11
-7.044195017643634E-15
 21
1.0
 31
0.0
 73
     1
 44
1.0
  0
ENDBLK
  5
379
330
377
100
AcDbEntity
  8
0
100
AcDbBlockEnd
  0
BLOCK
  5
381
330
380
100
AcDbEntity
  8
0
100
AcDbBlockBegin
  2
SW_CENTERMARKSYMBOL_2
 70
     0
 10
0.0
 20
0.0
 30
0.0
  3
SW_CENTERMARKSYMBOL_2
  1

  0
LINE
  5
383
330
380
100
AcDbEntity
  8
0
  6
Continuous
 62
     0
370
     0
100
AcDbLine
 10
0.0
 20
0.0
 30
0.0
 11
0.0
 21
2.5
 31
0.0
  0
LINE
  5
384
330
380
100
AcDbEntity
  8
0
  6
Continuous
 62
     0
370
     0
100
AcDbLine
 10
0.0
 20
0.0
 30
0.0
 11
-2.5
 21
0.0
 31
0.0
  0
LINE
  5
385
330
380
100
AcDbEntity
  8
0
  6
Continuous
 62
     0
370
     0
100
AcDbLine
 10
0.0
 20
0.0
 30
0.0
 11
0.0
 21
-2.5
 31
0.0
  0
LINE
  5
386
330
380
100
AcDbEntity
  8
0
  6
Continuous
 62
     0
370
     0
100
AcDbLine
 10
0.0
 20
0.0
 30
0.0
 11
2.5
 21
0.0
 31
0.0
  0
LINE
  5
387
330
380
100
AcDbEntity
  8
0
  6
Continuous
 62
     0
370
     0
100
AcDbLine
 10
0.0
 20
2.5
 30
0.0
 11
0.0
 21
4.75
 31
0.0
  0
LINE
  5
388
330
380
100
AcDbEntity
  8
0
  6
Continuous
 62
     0
370
     0
100
AcDbLine
 10
-2.5
 20
0.0
 30
0.0
 11
-4.75
 21
0.0
 31
0.0
  0
LINE
  5
389
330
380
100
AcDbEntity
  8
0
  6
Continuous
 62
     0
370
     0
100
AcDbLine
 10
0.0
 20
-2.5
 30
0.0
 11
0.0
 21
-4.75
 31
0.0
  0
LINE
  5
38A
330
380
100
AcDbEntity
  8
0
  6
Continuous
 62
     0
370
     0
100
AcDbLine
 10
2.5
 20
0.0
 30
0.0
 11
4.75
 21
0.0
 31
0.0
  0
ENDBLK
  5
382
330
380
100
AcDbEntity
  8
0
100
AcDbBlockEnd
  0
BLOCK
  5
38D
330
38C
100
AcDbEntity
  8
0
100
AcDbBlockBegin
  2
SW_CENTERMARKSYMBOL_3
 70
     0
 10
0.0
 20
0.0
 30
0.0
  3
SW_CENTERMARKSYMBOL_3
  1

  0
LINE
  5
38F
330
38C
100
AcDbEntity
  8
0
  6
Continuous
 62
     0
370
     0
100
AcDbLine
 10
0.0
 20
0.0
 30
0.0
 11
0.0
 21
2.5
 31
0.0
  0
LINE
  5
390
330
38C
100
AcDbEntity
  8
0
  6
Continuous
 62
     0
370
     0
100
AcDbLine
 10
0.0
 20
0.0
 30
0.0
 11
-2.5
 21
0.0
 31
0.0
  0
LINE
  5
391
330
38C
100
AcDbEntity
  8
0
  6
Continuous
 62
     0
370
     0
100
AcDbLine
 10
0.0
 20
0.0
 30
0.0
 11
0.0
 21
-2.5
 31
0.0
  0
LINE
  5
392
330
38C
100
AcDbEntity
  8
0
  6
Continuous
 62
     0
370
     0
100
AcDbLine
 10
0.0
 20
0.0
 30
0.0
 11
2.5
 21
0.0
 31
0.0
  0
LINE
  5
393
330
38C
100
AcDbEntity
  8
0
  6
Continuous
 62
     0
370
     0
100
AcDbLine
 10
0.0
 20
2.5
 30
0.0
 11
0.0
 21
4.75
 31
0.0
  0
LINE
  5
394
330
38C
100
AcDbEntity
  8
0
  6
Continuous
 62
     0
370
     0
100
AcDbLine
 10
-2.5
 20
0.0
 30
0.0
 11
-4.75
 21
0.0
 31
0.0
  0
LINE
  5
395
330
38C
100
AcDbEntity
  8
0
  6
Continuous
 62
     0
370
     0
100
AcDbLine
 10
0.0
 20
-2.5
 30
0.0
 11
0.0
 21
-4.75
 31
0.0
  0
LINE
  5
396
330
38C
100
AcDbEntity
  8
0
  6
Continuous
 62
     0
370
     0
100
AcDbLine
 10
2.5
 20
0.0
 30
0.0
 11
4.75
 21
0.0
 31
0.0
  0
ENDBLK
  5
38E
330
38C
100
AcDbEntity
  8
0
100
AcDbBlockEnd
  0
BLOCK
  5
399
330
398
100
AcDbEntity
  8
0
100
AcDbBlockBegin
  2
SW_CENTERMARKSYMBOL_4
 70
     0
 10
0.0
 20
0.0
 30
0.0
  3
SW_CENTERMARKSYMBOL_4
  1

  0
LINE
  5
39B
330
398
100
AcDbEntity
  8
0
  6
Continuous
 62
     0
370
     0
100
AcDbLine
 10
0.0
 20
0.0
 30
0.0
 11
0.0
 21
2.5
 31
0.0
  0
LINE
  5
39C
330
398
100
AcDbEntity
  8
0
  6
Continuous
 62
     0
370
     0
100
AcDbLine
 10
0.0
 20
0.0
 30
0.0
 11
-2.5
 21
0.0
 31
0.0
  0
LINE
  5
39D
330
398
100
AcDbEntity
  8
0
  6
Continuous
 62
     0
370
     0
100
AcDbLine
 10
0.0
 20
0.0
 30
0.0
 11
0.0
 21
-2.5
 31
0.0
  0
LINE
  5
39E
330
398
100
AcDbEntity
  8
0
  6
Continuous
 62
     0
370
     0
100
AcDbLine
 10
0.0
 20
0.0
 30
0.0
 11
2.5
 21
0.0
 31
0.0
  0
LINE
  5
39F
330
398
100
AcDbEntity
  8
0
  6
Continuous
 62
     0
370
     0
100
AcDbLine
 10
0.0
 20
5.0
 30
0.0
 11
0.0
 21
10.0
 31
0.0
  0
LINE
  5
3A0
330
398
100
AcDbEntity
  8
0
  6
Continuous
 62
     0
370
     0
100
AcDbLine
 10
-5.0
 20
0.0
 30
0.0
 11
-10.0
 21
0.0
 31
0.0
  0
LINE
  5
3A1
330
398
100
AcDbEntity
  8
0
  6
Continuous
 62
     0
370
     0
100
AcDbLine
 10
0.0
 20
-5.0
 30
0.0
 11
0.0
 21
-10.0
 31
0.0
  0
LINE
  5
3A2
330
398
100
AcDbEntity
  8
0
  6
Continuous
 62
     0
370
     0
100
AcDbLine
 10
5.0
 20
0.0
 30
0.0
 11
10.0
 21
0.0
 31
0.0
  0
ENDBLK
  5
39A
330
398
100
AcDbEntity
  8
0
100
AcDbBlockEnd
  0
BLOCK
  5
3A5
330
3A4
100
AcDbEntity
  8
0
100
AcDbBlockBegin
  2
SW_CENTERMARKSYMBOL_5
 70
     0
 10
0.0
 20
0.0
 30
0.0
  3
SW_CENTERMARKSYMBOL_5
  1

  0
LINE
  5
3A7
330
3A4
100
AcDbEntity
  8
0
  6
Continuous
 62
     0
370
     0
100
AcDbLine
 10
0.0
 20
0.0
 30
0.0
 11
0.0
 21
2.5
 31
0.0
  0
LINE
  5
3A8
330
3A4
100
AcDbEntity
  8
0
  6
Continuous
 62
     0
370
     0
100
AcDbLine
 10
0.0
 20
0.0
 30
0.0
 11
-2.5
 21
0.0
 31
0.0
  0
LINE
  5
3A9
330
3A4
100
AcDbEntity
  8
0
  6
Continuous
 62
     0
370
     0
100
AcDbLine
 10
0.0
 20
0.0
 30
0.0
 11
0.0
 21
-2.5
 31
0.0
  0
LINE
  5
3AA
330
3A4
100
AcDbEntity
  8
0
  6
Continuous
 62
     0
370
     0
100
AcDbLine
 10
0.0
 20
0.0
 30
0.0
 11
2.5
 21
0.0
 31
0.0
  0
LINE
  5
3AB
330
3A4
100
AcDbEntity
  8
0
  6
Continuous
 62
     0
370
     0
100
AcDbLine
 10
0.0
 20
2.5
 30
0.0
 11
0.0
 21
4.75
 31
0.0
  0
LINE
  5
3AC
330
3A4
100
AcDbEntity
  8
0
  6
Continuous
 62
     0
370
     0
100
AcDbLine
 10
-2.5
 20
0.0
 30
0.0
 11
-4.75
 21
0.0
 31
0.0
  0
LINE
  5
3AD
330
3A4
100
AcDbEntity
  8
0
  6
Continuous
 62
     0
370
     0
100
AcDbLine
 10
0.0
 20
-2.5
 30
0.0
 11
0.0
 21
-4.75
 31
0.0
  0
LINE
  5
3AE
330
3A4
100
AcDbEntity
  8
0
  6
Continuous
 62
     0
370
     0
100
AcDbLine
 10
2.5
 20
0.0
 30
0.0
 11
4.75
 21
0.0
 31
0.0
  0
ENDBLK
  5
3A6
330
3A4
100
AcDbEntity
  8
0
100
AcDbBlockEnd
  0
BLOCK
  5
3B1
330
3B0
100
AcDbEntity
  8
0
100
AcDbBlockBegin
  2
SW_CENTERMARKSYMBOL_6
 70
     0
 10
0.0
 20
0.0
 30
0.0
  3
SW_CENTERMARKSYMBOL_6
  1

  0
LINE
  5
3B3
330
3B0
100
AcDbEntity
  8
0
  6
Continuous
 62
     0
370
     0
100
AcDbLine
 10
0.0
 20
0.0
 30
0.0
 11
0.0
 21
2.5
 31
0.0
  0
LINE
  5
3B4
330
3B0
100
AcDbEntity
  8
0
  6
Continuous
 62
     0
370
     0
100
AcDbLine
 10
0.0
 20
0.0
 30
0.0
 11
-2.5
 21
0.0
 31
0.0
  0
LINE
  5
3B5
330
3B0
100
AcDbEntity
  8
0
  6
Continuous
 62
     0
370
     0
100
AcDbLine
 10
0.0
 20
0.0
 30
0.0
 11
0.0
 21
-2.5
 31
0.0
  0
LINE
  5
3B6
330
3B0
100
AcDbEntity
  8
0
  6
Continuous
 62
     0
370
     0
100
AcDbLine
 10
0.0
 20
0.0
 30
0.0
 11
2.5
 21
0.0
 31
0.0
  0
LINE
  5
3B7
330
3B0
100
AcDbEntity
  8
0
  6
Continuous
 62
     0
370
     0
100
AcDbLine
 10
0.0
 20
2.5
 30
0.0
 11
0.0
 21
4.75
 31
0.0
  0
LINE
  5
3B8
330
3B0
100
AcDbEntity
  8
0
  6
Continuous
 62
     0
370
     0
100
AcDbLine
 10
-2.5
 20
0.0
 30
0.0
 11
-4.75
 21
0.0
 31
0.0
  0
LINE
  5
3B9
330
3B0
100
AcDbEntity
  8
0
  6
Continuous
 62
     0
370
     0
100
AcDbLine
 10
0.0
 20
-2.5
 30
0.0
 11
0.0
 21
-4.75
 31
0.0
  0
LINE
  5
3BA
330
3B0
100
AcDbEntity
  8
0
  6
Continuous
 62
     0
370
     0
100
AcDbLine
 10
2.5
 20
0.0
 30
0.0
 11
4.75
 21
0.0
 31
0.0
  0
ENDBLK
  5
3B2
330
3B0
100
AcDbEntity
  8
0
100
AcDbBlockEnd
  0
BLOCK
  5
47A
330
479
100
AcDbEntity
  8
0
100
AcDbBlockBegin
  2
_D_10
 70
     0
 10
0.0
 20
0.0
 30
0.0
  3
_D_10
  1

  0
SOLID
  5
47C
330
479
100
AcDbEntity
  8
0
  6
Continuous
 62
     7
370
     0
100
AcDbTrace
 10
95.9822324791
 20
117.6439849769
 30
0.0
 11
97.9822324791
 21
116.8939849769
 31
0.0
 12
97.9822324791
 22
118.3939849769
 32
0.0
 13
97.9822324791
 23
118.3939849769
 33
0.0
  0
SOLID
  5
47D
330
479
100
AcDbEntity
  8
0
  6
Continuous
 62
     7
370
     0
100
AcDbTrace
 10
85.9822324791
 20
117.6439849769
 30
0.0
 11
83.9822324791
 21
118.3939849769
 31
0.0
 12
83.9822324791
 22
116.8939849769
 32
0.0
 13
83.9822324791
 23
116.8939849769
 33
0.0
  0
LINE
  5
47E
330
479
100
AcDbEntity
  8
0
  6
Continuous
 62
     7
370
     0
100
AcDbLine
 10
95.9822324791
 20
105.8474945975
 30
0.0
 11
95.9822324791
 21
118.6439849769
 31
0.0
  0
LINE
  5
47F
330
479
100
AcDbEntity
  8
0
  6
Continuous
 62
     7
370
     0
100
AcDbLine
 10
85.9822324791
 20
106.0471170717
 30
0.0
 11
85.9822324791
 21
118.6439849769
 31
0.0
  0
LINE
  5
480
330
479
100
AcDbEntity
  8
0
  6
Continuous
 62
     7
370
     0
100
AcDbLine
 10
95.9822324791
 20
117.6439849769
 30
0.0
 11
100.9822324791
 21
117.6439849769
 31
0.0
  0
LINE
  5
481
330
479
100
AcDbEntity
  8
0
  6
Continuous
 62
     7
370
     0
100
AcDbLine
 10
95.9822324791
 20
117.6439849769
 30
0.0
 11
85.9822324791
 21
117.6439849769
 31
0.0
  0
LINE
  5
482
330
479
100
AcDbEntity
  8
0
  6
Continuous
 62
     7
370
     0
100
AcDbLine
 10
85.9822324791
 20
117.6439849769
 30
0.0
 11
80.9822324791
 21
117.6439849769
 31
0.0
  0
MTEXT
  5
483
330
479
100
AcDbEntity
  8
0
  6
Continuous
 62
     7
370
     0
100
AcDbMText
 10
86.6995935829
 20
122.1557218914
 30
0.1
 40
3.5
 41
0.0
 71
     1
 72
     1
  1
10
  7
SLDTEXTSTYLE1
 73
     1
 44
1.0
  0
MTEXT
  5
484
330
479
100
AcDbEntity
  8
0
  6
Continuous
 62
     7
370
     0
100
AcDbMText
 10
91.8718159699
 20
122.1557218914
 30
0.1
 40
3.5
 41
0.0
 71
     1
 72
     1
  1
st
  7
SLDTEXTSTYLE1
 73
     1
 44
1.0
  0
ENDBLK
  5
47B
330
479
100
AcDbEntity
  8
0
100
AcDbBlockEnd
  0
BLOCK
  5
487
330
486
100
AcDbEntity
  8
0
100
AcDbBlockBegin
  2
_D_11
 70
     0
 10
0.0
 20
0.0
 30
0.0
  3
_D_11
  1

  0
SOLID
  5
489
330
486
100
AcDbEntity
  8
0
  6
Continuous
 62
     7
370
     0
100
AcDbTrace
 10
37.9822324791
 20
133.1533340452
 30
0.0
 11
39.9822324791
 21
132.4033340452
 31
0.0
 12
39.9822324791
 22
133.9033340452
 32
0.0
 13
39.9822324791
 23
133.9033340452
 33
0.0
  0
SOLID
  5
48A
330
486
100
AcDbEntity
  8
0
  6
Continuous
 62
     7
370
     0
100
AcDbTrace
 10
95.9822324791
 20
133.1533340452
 30
0.0
 11
93.9822324791
 21
133.9033340452
 31
0.0
 12
93.9822324791
 22
132.4033340452
 32
0.0
 13
93.9822324791
 23
132.4033340452
 33
0.0
  0
LINE
  5
48B
330
486
100
AcDbEntity
  8
0
  6
Continuous
 62
     7
370
     0
100
AcDbLine
 10
37.9822324791
 20
111.1124809859
 30
0.0
 11
37.9822324791
 21
134.1533340452
 31
0.0
  0
LINE
  5
48C
330
486
100
AcDbEntity
  8
0
  6
Continuous
 62
     7
370
     0
100
AcDbLine
 10
95.9822324791
 20
105.8474945975
 30
0.0
 11
95.9822324791
 21
134.1533340452
 31
0.0
  0
LINE
  5
48D
330
486
100
AcDbEntity
  8
0
  6
Continuous
 62
     7
370
     0
100
AcDbLine
 10
37.9822324791
 20
133.1533340452
 30
0.0
 11
95.9822324791
 21
133.1533340452
 31
0.0
  0
MTEXT
  5
48E
330
486
100
AcDbEntity
  8
0
  6
Continuous
 62
     7
370
     0
100
AcDbMText
 10
64.3961212856
 20
137.6650709598
 30
-9.2024880709
 40
3.5
 41
0.0
 71
     1
 72
     1
  1
58
  7
SLDTEXTSTYLE1
 73
     1
 44
1.0
  0
ENDBLK
  5
488
330
486
100
AcDbEntity
  8
0
100
AcDbBlockEnd
  0
BLOCK
  5
491
330
490
100
AcDbEntity
  8
0
100
AcDbBlockBegin
  2
_D_12
 70
     0
 10
0.0
 20
0.0
 30
0.0
  3
_D_12
  1

  0
SOLID
  5
493
330
490
100
AcDbEntity
  8
0
  6
Continuous
 62
     7
370
     0
100
AcDbTrace
 10
79.9822324791
 20
124.0588631655
 30
0.0
 11
77.9822324791
 21
124.8088631655
 31
0.0
 12
77.9822324791
 22
123.3088631655
 32
0.0
 13
77.9822324791
 23
123.3088631655
 33
0.0
  0
SOLID
  5
494
330
490
100
AcDbEntity
  8
0
  6
Continuous
 62
     7
370
     0
100
AcDbTrace
 10
37.9822324791
 20
124.0588631655
 30
0.0
 11
39.9822324791
 21
123.3088631655
 31
0.0
 12
39.9822324791
 22
124.8088631655
 32
0.0
 13
39.9822324791
 23
124.8088631655
 33
0.0
  0
LINE
  5
495
330
490
100
AcDbEntity
  8
0
  6
Continuous
 62
     7
370
     0
100
AcDbLine
 10
79.9822324791
 20
114.3474945975
 30
0.0
 11
79.9822324791
 21
125.0588631655
 31
0.0
  0
LINE
  5
496
330
490
100
AcDbEntity
  8
0
  6
Continuous
 62
     7
370
     0
100
AcDbLine
 10
37.9822324791
 20
111.1124809859
 30
0.0
 11
37.9822324791
 21
125.0588631655
 31
0.0
  0
LINE
  5
497
330
490
100
AcDbEntity
  8
0
  6
Continuous
 62
     7
370
     0
100
AcDbLine
 10
79.9822324791
 20
124.0588631655
 30
0.0
 11
37.9822324791
 21
124.0588631655
 31
0.0
  0
MTEXT
  5
498
330
490
100
AcDbEntity
  8
0
  6
Continuous
 62
     7
370
     0
100
AcDbMText
 10
56.3961212856
 20
128.5706000801
 30
-9.2024880709
 40
3.5
 41
0.0
 71
     1
 72
     1
  1
42
  7
SLDTEXTSTYLE1
 73
     1
 44
1.0
  0
ENDBLK
  5
492
330
490
100
AcDbEntity
  8
0
100
AcDbBlockEnd
  0
BLOCK
  5
49B
330
49A
100
AcDbEntity
  8
0
100
AcDbBlockBegin
  2
_D_13
 70
     0
 10
0.0
 20
0.0
 30
0.0
  3
_D_13
  1

  0
SOLID
  5
49D
330
49A
100
AcDbEntity
  8
0
  6
Continuous
 62
     7
370
     0
100
AcDbTrace
 10
37.9822324791
 20
75.3474945975
 30
0.0
 11
39.9822324791
 21
74.5974945975
 31
0.0
 12
39.9822324791
 22
76.0974945975
 32
0.0
 13
39.9822324791
 23
76.0974945975
 33
0.0
  0
SOLID
  5
49E
330
49A
100
AcDbEntity
  8
0
  6
Continuous
 62
     7
370
     0
100
AcDbTrace
 10
72.9822324791
 20
75.3474945975
 30
0.0
 11
70.9822324791
 21
76.0974945975
 31
0.0
 12
70.9822324791
 22
74.5974945975
 32
0.0
 13
70.9822324791
 23
74.5974945975
 33
0.0
  0
LINE
  5
49F
330
49A
100
AcDbEntity
  8
0
  6
Continuous
 62
     7
370
     0
100
AcDbLine
 10
37.9822324791
 20
90.4618105776
 30
0.0
 11
37.9822324791
 21
74.3474945975
 31
0.0
  0
LINE
  5
4A0
330
49A
100
AcDbEntity
  8
0
  6
Continuous
 62
     7
370
     0
100
AcDbLine
 10
72.9822324791
 20
94.3474945975
 30
0.0
 11
72.9822324791
 21
74.3474945975
 31
0.0
  0
LINE
  5
4A1
330
49A
100
AcDbEntity
  8
0
  6
Continuous
 62
     7
370
     0
100
AcDbLine
 10
37.9822324791
 20
75.3474945975
 30
0.0
 11
72.9822324791
 21
75.3474945975
 31
0.0
  0
MTEXT
  5
4A2
330
49A
100
AcDbEntity
  8
0
  6
Continuous
 62
     7
370
     0
100
AcDbMText
 10
52.8961212856
 20
79.8592315121
 30
-9.2024880709
 40
3.5
 41
0.0
 71
     1
 72
     1
  1
35
  7
SLDTEXTSTYLE1
 73
     1
 44
1.0
  0
ENDBLK
  5
49C
330
49A
100
AcDbEntity
  8
0
100
AcDbBlockEnd
  0
BLOCK
  5
4A4
330
4A3
100
AcDbEntity
  8
0
100
AcDbBlockBegin
  2
SW_CENTERMARKSYMBOL_7
 70
     0
 10
0.0
 20
0.0
 30
0.0
  3
SW_CENTERMARKSYMBOL_7
  1

  0
LINE
  5
4A6
330
4A3
100
AcDbEntity
  8
0
  6
Continuous
 62
     0
370
     0
100
AcDbLine
 10
0.0
 20
0.0
 30
0.0
 11
0.0
 21
2.5
 31
0.0
  0
LINE
  5
4A7
330
4A3
100
AcDbEntity
  8
0
  6
Continuous
 62
     0
370
     0
100
AcDbLine
 10
0.0
 20
0.0
 30
0.0
 11
-2.5
 21
0.0
 31
0.0
  0
LINE
  5
4A8
330
4A3
100
AcDbEntity
  8
0
  6
Continuous
 62
     0
370
     0
100
AcDbLine
 10
0.0
 20
0.0
 30
0.0
 11
0.0
 21
-2.5
 31
0.0
  0
LINE
  5
4A9
330
4A3
100
AcDbEntity
  8
0
  6
Continuous
 62
     0
370
     0
100
AcDbLine
 10
0.0
 20
0.0
 30
0.0
 11
2.5
 21
0.0
 31
0.0
  0
LINE
  5
4AA
330
4A3
100
AcDbEntity
  8
0
  6
Continuous
 62
     0
370
     0
100
AcDbLine
 10
0.0
 20
5.0
 30
0.0
 11
0.0
 21
6.5
 31
0.0
  0
LINE
  5
4AB
330
4A3
100
AcDbEntity
  8
0
  6
Continuous
 62
     0
370
     0
100
AcDbLine
 10
-5.0
 20
0.0
 30
0.0
 11
-6.5
 21
0.0
 31
0.0
  0
LINE
  5
4AC
330
4A3
100
AcDbEntity
  8
0
  6
Continuous
 62
     0
370
     0
100
AcDbLine
 10
0.0
 20
-5.0
 30
0.0
 11
0.0
 21
-6.5
 31
0.0
  0
LINE
  5
4AD
330
4A3
100
AcDbEntity
  8
0
  6
Continuous
 62
     0
370
     0
100
AcDbLine
 10
5.0
 20
0.0
 30
0.0
 11
6.5
 21
0.0
 31
0.0
  0
ENDBLK
  5
4A5
330
4A3
100
AcDbEntity
  8
0
100
AcDbBlockEnd
  0
ENDSEC
  0
SECTION
  2
ENTITIES
  0
LINE
  5
44
330
1F
100
AcDbEntity
  8
0
  6
Continuous
 62
     7
370
     0
100
AcDbLine
 10
20.2604743903
 20
285.0
 30
0.0
 11
196.7604743903
 21
285.0
 31
0.0
  0
LINE
  5
45
330
1F
100
AcDbEntity
  8
0
  6
Continuous
 62
     7
370
     0
100
AcDbLine
 10
20.2604743903
 20
285.0
 30
0.0
 11
20.2604743903
 21
10.0
 31
0.0
  0
LINE
  5
46
330
1F
100
AcDbEntity
  8
0
  6
Continuous
 62
     7
370
     0
100
AcDbLine
 10
20.2604743903
 20
10.0
 30
0.0
 11
196.7604743903
 21
10.0
 31
0.0
  0
LINE
  5
47
330
1F
100
AcDbEntity
  8
0
  6
Continuous
 62
     7
370
     0
100
AcDbLine
 10
196.7604743903
 20
285.0
 30
0.0
 11
196.7604743903
 21
10.0
 31
0.0
  0
LINE
  5
48
330
1F
100
AcDbEntity
  8
0
  6
Continuous
 62
     7
370
     0
100
AcDbLine
 10
127.0104743903
 20
50.75
 30
0.0
 11
196.7604743903
 21
50.75
 31
0.0
  0
LINE
  5
49
330
1F
100
AcDbEntity
  8
0
  6
Continuous
 62
     7
370
     0
100
AcDbLine
 10
127.0104743903
 20
50.75
 30
0.0
 11
127.0104743903
 21
10.0
 31
0.0
  0
LINE
  5
4A
330
1F
100
AcDbEntity
  8
0
  6
Continuous
 62
     7
370
     0
100
AcDbLine
 10
127.0104743903
 20
22.75
 30
0.0
 11
196.7604743903
 21
22.75
 31
0.0
  0
LINE
  5
4B
330
1F
100
AcDbEntity
  8
0
  6
Continuous
 62
     7
370
     0
100
AcDbLine
 10
127.0104743903
 20
36.75
 30
0.0
 11
196.7604743903
 21
36.75
 31
0.0
  0
MTEXT
  5
4D
330
1F
100
AcDbEntity
  8
0
  6
Continuous
 62
     7
370
     0
100
AcDbMText
 10
162.4151277024
 20
30.4171582345
 30
0.0
 40
4.2333333333
 41
0.0
 71
     2
 72
     1
  1
MCE-10T
  7
SLDTEXTSTYLE0
 73
     1
 44
1.0
  0
MTEXT
  5
4E
330
1F
100
AcDbEntity
  8
0
  6
Continuous
 62
     7
370
     0
100
AcDbMText
 10
157.984485657
 20
44.6643209235
 30
0.0
 40
3.7041666667
 41
0.0
 71
     2
 72
     1
  1
ミニシリンダー・MCE10st(引込)
  7
SLDTEXTSTYLE0
 73
     1
 44
1.0
  0
MTEXT
  5
4F
330
1F
100
AcDbEntity
  8
0
  6
Continuous
 62
     7
370
     0
100
AcDbMText
 10
162.5824548104
 20
16.8228189052
 30
0.0
 40
4.2333333333
 41
0.0
 71
     2
 72
     1
  1
123505
  7
SLDTEXTSTYLE0
 73
     1
 44
1.0
  0
LINE
  5
50
330
1F
100
AcDbEntity
  8
0
  6
Continuous
 62
     7
370
    15
100
AcDbLine
 10
149.2609915676
 20
231.7556811372
 30
0.0
 11
149.2609915676
 21
233.2556811503
 31
0.0
  0
LINE
  5
51
330
1F
100
AcDbEntity
  8
0
  6
Continuous
 62
     7
370
    15
100
AcDbLine
 10
126.5998064427
 20
233.2556811503
 30
0.0
 11
126.5998064427
 21
231.7556811372
 31
0.0
  0
LINE
  5
52
330
1F
100
AcDbEntity
  8
0
  6
Continuous
 62
     7
370
    15
100
AcDbLine
 10
149.3120666946
 20
192.7556803326
 30
0.0
 11
149.3120666946
 21
231.7556811372
 31
0.0
  0
LINE
  5
53
330
1F
100
AcDbEntity
  8
0
  6
Continuous
 62
     7
370
    15
100
AcDbLine
 10
126.5487308501
 20
231.7556811372
 30
0.0
 11
126.5487308501
 21
192.7556803326
 31
0.0
  0
LINE
  5
54
330
1F
100
AcDbEntity
  8
0
  6
Continuous
 62
     7
370
    15
100
AcDbLine
 10
151.3007148987
 20
197.7084500591
 30
0.0
 11
151.3238713032
 21
197.668526123
 31
0.0
  0
LINE
  5
55
330
1F
100
AcDbEntity
  8
0
  6
Continuous
 62
     7
370
    15
100
AcDbLine
 10
151.1178702003
 20
197.6891195277
 30
0.0
 11
151.3215942195
 21
197.6891195277
 31
0.0
  0
LINE
  5
56
330
1F
100
AcDbEntity
  8
0
  6
Continuous
 62
     7
370
    15
100
AcDbLine
 10
129.1803988515
 20
191.255681018
 30
0.0
 11
129.1803988515
 21
190.9609882037
 31
0.0
  0
LINE
  5
57
330
1F
100
AcDbEntity
  8
0
  6
Continuous
 62
     7
370
    15
100
AcDbLine
 10
133.6803986578
 20
190.9609882037
 30
0.0
 11
133.6803986578
 21
191.255681018
 31
0.0
  0
ARC
  5
58
330
1F
100
AcDbEntity
  8
0
  6
Continuous
 62
     7
370
    15
100
AcDbCircle
 10
132.6803988394
 20
190.9609888973
 30
0.0
 40
1.000000000000018
100
AcDbArc
 50
306.3843518158
 51
0.0
  0
ARC
  5
59
330
1F
100
AcDbEntity
  8
0
  6
Continuous
 62
     7
370
    15
100
AcDbCircle
 10
130.1803988394
 20
190.9609888973
 30
0.0
 40
1.000000000000035
100
AcDbArc
 50
180.0
 51
233.6156481842
  0
LINE
  5
5A
330
1F
100
AcDbEntity
  8
0
  6
Continuous
 62
     7
370
    15
100
AcDbLine
 10
129.5872005521
 20
190.1559343437
 30
0.0
 11
129.9981149732
 21
189.8531539241
 31
0.0
  0
LINE
  5
5B
330
1F
100
AcDbEntity
  8
0
  6
Continuous
 62
     7
370
    15
100
AcDbLine
 10
132.8626825361
 20
189.8531539241
 30
0.0
 11
133.2735978885
 21
190.1559343437
 31
0.0
  0
ARC
  5
5C
330
1F
100
AcDbEntity
  8
0
  6
Continuous
 62
     7
370
    15
100
AcDbCircle
 10
130.2947148195
 20
190.2556811372
 30
0.0
 40
0.5000000000000342
100
AcDbArc
 50
233.6156481842
 51
270.0
  0
ARC
  5
5D
330
1F
100
AcDbEntity
  8
0
  6
Continuous
 62
     7
370
    15
100
AcDbCircle
 10
132.5660828593
 20
190.2556811372
 30
0.0
 40
0.5000000000000006
100
AcDbArc
 50
270.0
 51
306.3843518158
  0
LINE
  5
5E
330
1F
100
AcDbEntity
  8
0
  6
Continuous
 62
     7
370
    15
100
AcDbLine
 10
141.9303986131
 20
180.7556820909
 30
0.0
 11
141.9303986131
 21
189.7556817035
 31
0.0
  0
LINE
  5
5F
330
1F
100
AcDbEntity
  8
0
  6
Continuous
 62
     7
370
    15
100
AcDbLine
 10
133.9303991644
 20
189.7556817035
 30
0.0
 11
133.9303991644
 21
180.7556820909
 31
0.0
  0
ARC
  5
60
330
1F
100
AcDbEntity
  8
0
  6
Continuous
 62
     7
370
    15
100
AcDbCircle
 10
145.6803988394
 20
190.9609888973
 30
0.0
 40
1.000000000000018
100
AcDbArc
 50
306.3843518158
 51
0.0
  0
ARC
  5
61
330
1F
100
AcDbEntity
  8
0
  6
Continuous
 62
     7
370
    15
100
AcDbCircle
 10
143.1803988394
 20
190.9609888973
 30
0.0
 40
1.000000000000018
100
AcDbArc
 50
180.0
 51
233.6156481842
  0
LINE
  5
62
330
1F
100
AcDbEntity
  8
0
  6
Continuous
 62
     7
370
    15
100
AcDbLine
 10
142.180398654
 20
191.255681018
 30
0.0
 11
142.180398654
 21
190.9609882037
 31
0.0
  0
LINE
  5
63
330
1F
100
AcDbEntity
  8
0
  6
Continuous
 62
     7
370
    15
100
AcDbLine
 10
146.6803988387
 20
190.9609882037
 30
0.0
 11
146.6803988387
 21
191.255681018
 31
0.0
  0
LINE
  5
64
330
1F
100
AcDbEntity
  8
0
  6
Continuous
 62
     7
370
    15
100
AcDbLine
 10
142.587199889
 20
190.1559343437
 30
0.0
 11
142.9981152414
 21
189.8531539241
 31
0.0
  0
LINE
  5
65
330
1F
100
AcDbEntity
  8
0
  6
Continuous
 62
     7
370
    15
100
AcDbLine
 10
145.8626823386
 20
189.8531539241
 30
0.0
 11
146.2735978657
 21
190.1559343437
 31
0.0
  0
ARC
  5
66
330
1F
100
AcDbEntity
  8
0
  6
Continuous
 62
     7
370
    15
100
AcDbCircle
 10
143.2947148195
 20
190.2556811372
 30
0.0
 40
0.5000000000000006
100
AcDbArc
 50
233.6156481842
 51
270.0
  0
ARC
  5
67
330
1F
100
AcDbEntity
  8
0
  6
Continuous
 62
     7
370
    15
100
AcDbCircle
 10
145.5660828593
 20
190.2556811372
 30
0.0
 40
0.5000000000000342
100
AcDbArc
 50
270.0
 51
306.3843518158
  0
ARC
  5
68
330
1F
100
AcDbEntity
  8
0
  6
Continuous
 62
     7
370
    15
100
AcDbCircle
 10
143.1803988394
 20
233.5503733771
 30
0.0
 40
1.0
100
AcDbArc
 50
126.3843518158
 51
180.0
  0
ARC
  5
69
330
1F
100
AcDbEntity
  8
0
  6
Continuous
 62
     7
370
    15
100
AcDbCircle
 10
145.6803988394
 20
233.5503733771
 30
0.0
 40
1.000000000000012
100
AcDbArc
 50
0.0
 51
53.6156481842
  0
LINE
  5
6A
330
1F
100
AcDbEntity
  8
0
  6
Continuous
 62
     7
370
    15
100
AcDbLine
 10
146.6803988387
 20
233.2556811503
 30
0.0
 11
146.6803988387
 21
233.5503733826
 31
0.0
  0
LINE
  5
6B
330
1F
100
AcDbEntity
  8
0
  6
Continuous
 62
     7
370
    15
100
AcDbLine
 10
142.180398654
 20
233.5503733826
 30
0.0
 11
142.180398654
 21
233.2556811503
 31
0.0
  0
LINE
  5
6C
330
1F
100
AcDbEntity
  8
0
  6
Continuous
 62
     7
370
    15
100
AcDbLine
 10
146.2735978657
 20
234.3554292216
 30
0.0
 11
145.8626823386
 21
234.6582089427
 31
0.0
  0
LINE
  5
6D
330
1F
100
AcDbEntity
  8
0
  6
Continuous
 62
     7
370
    15
100
AcDbLine
 10
142.9981152414
 20
234.6582089427
 30
0.0
 11
142.587199889
 21
234.3554292216
 31
0.0
  0
ARC
  5
6E
330
1F
100
AcDbEntity
  8
0
  6
Continuous
 62
     7
370
    15
100
AcDbCircle
 10
145.5660828593
 20
234.2556811372
 30
0.0
 40
0.5000000000000113
100
AcDbArc
 50
53.6156481842
 51
90.0
  0
ARC
  5
6F
330
1F
100
AcDbEntity
  8
0
  6
Continuous
 62
     7
370
    15
100
AcDbCircle
 10
143.2947148195
 20
234.2556811372
 30
0.0
 40
0.5
100
AcDbArc
 50
90.0
 51
126.3843518158
  0
ARC
  5
70
330
1F
100
AcDbEntity
  8
0
  6
Continuous
 62
     7
370
    15
100
AcDbCircle
 10
130.1803988394
 20
233.5503733771
 30
0.0
 40
1.0
100
AcDbArc
 50
126.3843518158
 51
180.0
  0
ARC
  5
71
330
1F
100
AcDbEntity
  8
0
  6
Continuous
 62
     7
370
    15
100
AcDbCircle
 10
132.6803988394
 20
233.5503733771
 30
0.0
 40
1.0
100
AcDbArc
 50
0.0
 51
53.6156481842
  0
LINE
  5
72
330
1F
100
AcDbEntity
  8
0
  6
Continuous
 62
     7
370
    15
100
AcDbLine
 10
133.6803986578
 20
233.2556811503
 30
0.0
 11
133.6803986578
 21
233.5503733826
 31
0.0
  0
LINE
  5
73
330
1F
100
AcDbEntity
  8
0
  6
Continuous
 62
     7
370
    15
100
AcDbLine
 10
129.1803988515
 20
233.5503733826
 30
0.0
 11
129.1803988515
 21
233.2556811503
 31
0.0
  0
LINE
  5
74
330
1F
100
AcDbEntity
  8
0
  6
Continuous
 62
     7
370
    15
100
AcDbLine
 10
133.2735978885
 20
234.3554292216
 30
0.0
 11
132.8626825361
 21
234.6582089427
 31
0.0
  0
LINE
  5
75
330
1F
100
AcDbEntity
  8
0
  6
Continuous
 62
     7
370
    15
100
AcDbLine
 10
129.9981149732
 20
234.6582089427
 30
0.0
 11
129.5872005521
 21
234.3554292216
 31
0.0
  0
ARC
  5
76
330
1F
100
AcDbEntity
  8
0
  6
Continuous
 62
     7
370
    15
100
AcDbCircle
 10
132.5660828593
 20
234.2556811372
 30
0.0
 40
0.5
100
AcDbArc
 50
53.6156481842
 51
90.0
  0
ARC
  5
77
330
1F
100
AcDbEntity
  8
0
  6
Continuous
 62
     7
370
    15
100
AcDbCircle
 10
130.2947148195
 20
234.2556811372
 30
0.0
 40
0.5000000000000113
100
AcDbArc
 50
90.0
 51
126.3843518158
  0
LINE
  5
78
330
1F
100
AcDbEntity
  8
0
  6
Continuous
 62
     7
370
    15
100
AcDbLine
 10
118.4303994177
 20
201.5056813012
 30
0.0
 11
115.9303980766
 21
201.2556807945
 31
0.0
  0
LINE
  5
79
330
1F
100
AcDbEntity
  8
0
  6
Continuous
 62
     7
370
    15
100
AcDbLine
 10
115.9303980766
 20
198.2556803028
 30
0.0
 11
118.4303994177
 21
198.0056797961
 31
0.0
  0
LINE
  5
7A
330
1F
100
AcDbEntity
  8
0
  6
Continuous
 62
     7
370
    15
100
AcDbLine
 10
115.9303980766
 20
201.5056813012
 30
0.0
 11
113.4304004608
 21
201.2556807945
 31
0.0
  0
LINE
  5
7B
330
1F
100
AcDbEntity
  8
0
  6
Continuous
 62
     7
370
    15
100
AcDbLine
 10
113.4304004608
 20
198.2556803028
 30
0.0
 11
115.9303980766
 21
198.0056797961
 31
0.0
  0
LINE
  5
7C
330
1F
100
AcDbEntity
  8
0
  6
Continuous
 62
     7
370
    15
100
AcDbLine
 10
118.4303994177
 20
198.1556823353
 30
0.0
 11
120.4303997455
 21
198.1556823353
 31
0.0
  0
LINE
  5
7D
330
1F
100
AcDbEntity
  8
0
  6
Continuous
 62
     7
370
    15
100
AcDbLine
 10
120.4303997455
 20
201.3556806246
 30
0.0
 11
118.4303994177
 21
201.3556806246
 31
0.0
  0
LINE
  5
7E
330
1F
100
AcDbEntity
  8
0
  6
Continuous
 62
     7
370
    15
100
AcDbLine
 10
123.7303997277
 20
203.755680273
 30
0.0
 11
122.930399224
 21
203.755680273
 31
0.0
  0
LINE
  5
7F
330
1F
100
AcDbEntity
  8
0
  6
Continuous
 62
     7
370
    15
100
AcDbLine
 10
122.930399224
 20
195.755682687
 30
0.0
 11
123.7303997277
 21
195.755682687
 31
0.0
  0
LINE
  5
80
330
1F
100
AcDbEntity
  8
0
  6
Continuous
 62
     7
370
    15
100
AcDbLine
 10
152.9303990191
 20
203.755680273
 30
0.0
 11
152.1303989811
 21
203.755680273
 31
0.0
  0
LINE
  5
81
330
1F
100
AcDbEntity
  8
0
  6
Continuous
 62
     7
370
    15
100
AcDbLine
 10
152.1303989811
 20
195.755682687
 30
0.0
 11
152.9303990191
 21
195.755682687
 31
0.0
  0
LINE
  5
82
330
1F
100
AcDbEntity
  8
0
  6
Continuous
 62
     7
370
    15
100
AcDbLine
 10
148.614758591
 20
233.2556811503
 30
0.0
 11
148.614758591
 21
231.7556811372
 31
0.0
  0
LINE
  5
83
330
1F
100
AcDbEntity
  8
0
  6
Continuous
 62
     7
370
    15
100
AcDbLine
 10
143.8668904247
 20
231.7556811372
 30
0.0
 11
148.614758591
 21
231.7556811372
 31
0.0
  0
LINE
  5
84
330
1F
100
AcDbEntity
  8
0
  6
Continuous
 62
     7
370
    15
100
AcDbLine
 10
143.8668904247
 20
233.2556811503
 30
0.0
 11
143.8668904247
 21
231.7556811372
 31
0.0
  0
LINE
  5
85
330
1F
100
AcDbEntity
  8
0
  6
Continuous
 62
     7
370
    15
100
AcDbLine
 10
143.8668904247
 20
233.2556811503
 30
0.0
 11
148.614758591
 21
233.2556811503
 31
0.0
  0
LINE
  5
86
330
1F
100
AcDbEntity
  8
0
  6
Continuous
 62
     7
370
    15
100
AcDbLine
 10
148.614758591
 20
233.2556811503
 30
0.0
 11
149.1434132567
 21
233.2556811503
 31
0.0
  0
LINE
  5
87
330
1F
100
AcDbEntity
  8
0
  6
Continuous
 62
     7
370
    15
100
AcDbLine
 10
149.1434132567
 20
231.7556811372
 30
0.0
 11
149.1434132567
 21
233.2556811503
 31
0.0
  0
LINE
  5
88
330
1F
100
AcDbEntity
  8
0
  6
Continuous
 62
     7
370
    15
100
AcDbLine
 10
149.1434132567
 20
231.7556811372
 30
0.0
 11
148.614758591
 21
231.7556811372
 31
0.0
  0
LINE
  5
89
330
1F
100
AcDbEntity
  8
0
  6
Continuous
 62
     7
370
    15
100
AcDbLine
 10
142.3056410512
 20
233.2556811503
 30
0.0
 11
142.3056410512
 21
231.7556811372
 31
0.0
  0
LINE
  5
8A
330
1F
100
AcDbEntity
  8
0
  6
Continuous
 62
     7
370
    15
100
AcDbLine
 10
142.3056410512
 20
233.2556811503
 30
0.0
 11
143.8668904247
 21
233.2556811503
 31
0.0
  0
LINE
  5
8B
330
1F
100
AcDbEntity
  8
0
  6
Continuous
 62
     7
370
    15
100
AcDbLine
 10
143.8668904247
 20
231.7556811372
 30
0.0
 11
142.3056410512
 21
231.7556811372
 31
0.0
  0
LINE
  5
8C
330
1F
100
AcDbEntity
  8
0
  6
Continuous
 62
     7
370
    15
100
AcDbLine
 10
127.2460400014
 20
233.2556811503
 30
0.0
 11
127.2460400014
 21
231.7556811372
 31
0.0
  0
LINE
  5
8D
330
1F
100
AcDbEntity
  8
0
  6
Continuous
 62
     7
370
    15
100
AcDbLine
 10
126.7173840551
 20
233.2556811503
 30
0.0
 11
126.7173840551
 21
231.7556811372
 31
0.0
  0
LINE
  5
8E
330
1F
100
AcDbEntity
  8
0
  6
Continuous
 62
     7
370
    15
100
AcDbLine
 10
127.2460400014
 20
233.2556811503
 30
0.0
 11
126.7173840551
 21
233.2556811503
 31
0.0
  0
LINE
  5
8F
330
1F
100
AcDbEntity
  8
0
  6
Continuous
 62
     7
370
    15
100
AcDbLine
 10
127.2460400014
 20
231.7556811372
 30
0.0
 11
126.7173840551
 21
231.7556811372
 31
0.0
  0
LINE
  5
90
330
1F
100
AcDbEntity
  8
0
  6
Continuous
 62
     7
370
    15
100
AcDbLine
 10
127.2460400014
 20
233.2556811503
 30
0.0
 11
131.9939075856
 21
233.2556811503
 31
0.0
  0
LINE
  5
91
330
1F
100
AcDbEntity
  8
0
  6
Continuous
 62
     7
370
    15
100
AcDbLine
 10
131.9939075856
 20
231.7556811372
 30
0.0
 11
131.9939075856
 21
233.2556811503
 31
0.0
  0
LINE
  5
92
330
1F
100
AcDbEntity
  8
0
  6
Continuous
 62
     7
370
    15
100
AcDbLine
 10
127.2460400014
 20
231.7556811372
 30
0.0
 11
131.9939075856
 21
231.7556811372
 31
0.0
  0
LINE
  5
93
330
1F
100
AcDbEntity
  8
0
  6
Continuous
 62
     7
370
    15
100
AcDbLine
 10
133.5551562606
 20
231.7556811372
 30
0.0
 11
133.5551562606
 21
233.2556811503
 31
0.0
  0
LINE
  5
94
330
1F
100
AcDbEntity
  8
0
  6
Continuous
 62
     7
370
    15
100
AcDbLine
 10
131.9939075856
 20
233.2556811503
 30
0.0
 11
133.5551562606
 21
233.2556811503
 31
0.0
  0
LINE
  5
95
330
1F
100
AcDbEntity
  8
0
  6
Continuous
 62
     7
370
    15
100
AcDbLine
 10
133.5551562606
 20
231.7556811372
 30
0.0
 11
131.9939075856
 21
231.7556811372
 31
0.0
  0
LINE
  5
96
330
1F
100
AcDbEntity
  8
0
  6
Continuous
 62
     7
370
    15
100
AcDbLine
 10
149.1434132567
 20
233.2556811503
 30
0.0
 11
149.2609915676
 21
233.2556811503
 31
0.0
  0
LINE
  5
97
330
1F
100
AcDbEntity
  8
0
  6
Continuous
 62
     7
370
    15
100
AcDbLine
 10
126.5998064427
 20
233.2556811503
 30
0.0
 11
126.7173840551
 21
233.2556811503
 31
0.0
  0
LINE
  5
98
330
1F
100
AcDbEntity
  8
0
  6
Continuous
 62
     7
370
    15
100
AcDbLine
 10
140.7443914449
 20
231.7556811372
 30
0.0
 11
140.7443914449
 21
234.7556811633
 31
0.0
  0
LINE
  5
99
330
1F
100
AcDbEntity
  8
0
  6
Continuous
 62
     7
370
    15
100
AcDbLine
 10
140.7443914449
 20
234.7556811633
 30
0.0
 11
141.0931973605
 21
234.7556811633
 31
0.0
  0
LINE
  5
9A
330
1F
100
AcDbEntity
  8
0
  6
Continuous
 62
     7
370
    15
100
AcDbLine
 10
141.0931973605
 20
233.2556811503
 30
0.0
 11
141.0931973605
 21
234.7556811633
 31
0.0
  0
LINE
  5
9B
330
1F
100
AcDbEntity
  8
0
  6
Continuous
 62
     7
370
    15
100
AcDbLine
 10
141.0931973605
 20
233.2556811503
 30
0.0
 11
142.3056410512
 21
233.2556811503
 31
0.0
  0
LINE
  5
9C
330
1F
100
AcDbEntity
  8
0
  6
Continuous
 62
     7
370
    15
100
AcDbLine
 10
142.3056410512
 20
231.7556811372
 30
0.0
 11
140.7443914449
 21
231.7556811372
 31
0.0
  0
LINE
  5
9D
330
1F
100
AcDbEntity
  8
0
  6
Continuous
 62
     7
370
    15
100
AcDbLine
 10
135.1164058669
 20
234.7556811633
 30
0.0
 11
135.1164058669
 21
231.7556811372
 31
0.0
  0
LINE
  5
9E
330
1F
100
AcDbEntity
  8
0
  6
Continuous
 62
     7
370
    15
100
AcDbLine
 10
134.767600417
 20
234.7556811633
 30
0.0
 11
134.767600417
 21
233.2556811503
 31
0.0
  0
LINE
  5
9F
330
1F
100
AcDbEntity
  8
0
  6
Continuous
 62
     7
370
    15
100
AcDbLine
 10
134.767600417
 20
234.7556811633
 30
0.0
 11
135.1164058669
 21
234.7556811633
 31
0.0
  0
LINE
  5
A0
330
1F
100
AcDbEntity
  8
0
  6
Continuous
 62
     7
370
    15
100
AcDbLine
 10
133.5551562606
 20
233.2556811503
 30
0.0
 11
134.767600417
 21
233.2556811503
 31
0.0
  0
LINE
  5
A1
330
1F
100
AcDbEntity
  8
0
  6
Continuous
 62
     7
370
    15
100
AcDbLine
 10
135.1164058669
 20
231.7556811372
 30
0.0
 11
133.5551562606
 21
231.7556811372
 31
0.0
  0
LINE
  5
A2
330
1F
100
AcDbEntity
  8
0
  6
Continuous
 62
     7
370
    15
100
AcDbLine
 10
150.7802101204
 20
231.7556811372
 30
0.0
 11
150.7802101204
 21
234.7556811633
 31
0.0
  0
LINE
  5
A3
330
1F
100
AcDbEntity
  8
0
  6
Continuous
 62
     7
370
    15
100
AcDbLine
 10
148.305030505
 20
233.2556811503
 30
0.0
 11
148.305030505
 21
234.7556811633
 31
0.0
  0
LINE
  5
A4
330
1F
100
AcDbEntity
  8
0
  6
Continuous
 62
     7
370
    15
100
AcDbLine
 10
150.7802101204
 20
234.7556811633
 30
0.0
 11
148.305030505
 21
234.7556811633
 31
0.0
  0
LINE
  5
A5
330
1F
100
AcDbEntity
  8
0
  6
Continuous
 62
     7
370
    15
100
AcDbLine
 10
125.0805883555
 20
231.7556811372
 30
0.0
 11
125.0805883555
 21
234.7556811633
 31
0.0
  0
LINE
  5
A6
330
1F
100
AcDbEntity
  8
0
  6
Continuous
 62
     7
370
    15
100
AcDbLine
 10
127.5557680874
 20
234.7556811633
 30
0.0
 11
125.0805883555
 21
234.7556811633
 31
0.0
  0
LINE
  5
A7
330
1F
100
AcDbEntity
  8
0
  6
Continuous
 62
     7
370
    15
100
AcDbLine
 10
127.5557680874
 20
233.2556811503
 30
0.0
 11
127.5557680874
 21
234.7556811633
 31
0.0
  0
LINE
  5
A8
330
1F
100
AcDbEntity
  8
0
  6
Continuous
 62
     7
370
    15
100
AcDbLine
 10
134.1803987397
 20
233.2556811503
 30
0.0
 11
134.1803987397
 21
234.7556811633
 31
0.0
  0
LINE
  5
A9
330
1F
100
AcDbEntity
  8
0
  6
Continuous
 62
     7
370
    15
100
AcDbLine
 10
134.1803987397
 20
234.7556811633
 30
0.0
 11
134.767600417
 21
234.7556811633
 31
0.0
  0
LINE
  5
AA
330
1F
100
AcDbEntity
  8
0
  6
Continuous
 62
     7
370
    15
100
AcDbLine
 10
141.6803990377
 20
234.7556811633
 30
0.0
 11
141.6803990377
 21
233.2556811503
 31
0.0
  0
LINE
  5
AB
330
1F
100
AcDbEntity
  8
0
  6
Continuous
 62
     7
370
    15
100
AcDbLine
 10
141.0931973605
 20
234.7556811633
 30
0.0
 11
141.6803990377
 21
234.7556811633
 31
0.0
  0
LINE
  5
AC
330
1F
100
AcDbEntity
  8
0
  6
Continuous
 62
     7
370
    15
100
AcDbLine
 10
140.7443914449
 20
234.7556811633
 30
0.0
 11
135.1164058669
 21
234.7556811633
 31
0.0
  0
LINE
  5
AD
330
1F
100
AcDbEntity
  8
0
  6
Continuous
 62
     7
370
    15
100
AcDbLine
 10
140.7443914449
 20
231.7556811372
 30
0.0
 11
135.1164058669
 21
231.7556811372
 31
0.0
  0
LINE
  5
AE
330
1F
100
AcDbEntity
  8
0
  6
Continuous
 62
     7
370
    15
100
AcDbLine
 10
143.2947147059
 20
234.7556811633
 30
0.0
 11
141.6803990377
 21
234.7556811633
 31
0.0
  0
LINE
  5
AF
330
1F
100
AcDbEntity
  8
0
  6
Continuous
 62
     7
370
    15
100
AcDbLine
 10
134.1803987397
 20
234.7556811633
 30
0.0
 11
132.5660833044
 21
234.7556811633
 31
0.0
  0
LINE
  5
B0
330
1F
100
AcDbEntity
  8
0
  6
Continuous
 62
     7
370
    15
100
AcDbLine
 10
124.566353008
 20
234.7556811633
 30
0.0
 11
124.566353008
 21
231.7556811372
 31
0.0
  0
LINE
  5
B1
330
1F
100
AcDbEntity
  8
0
  6
Continuous
 62
     7
370
    15
100
AcDbLine
 10
124.1160566805
 20
231.7556811372
 30
0.0
 11
124.1160566805
 21
234.7556811633
 31
0.0
  0
LINE
  5
B2
330
1F
100
AcDbEntity
  8
0
  6
Continuous
 62
     7
370
    15
100
AcDbLine
 10
124.1160566805
 20
234.7556811633
 30
0.0
 11
124.566353008
 21
234.7556811633
 31
0.0
  0
LINE
  5
B3
330
1F
100
AcDbEntity
  8
0
  6
Continuous
 62
     7
370
    15
100
AcDbLine
 10
151.2944438381
 20
231.7556811372
 30
0.0
 11
151.2944438381
 21
234.7556811633
 31
0.0
  0
LINE
  5
B4
330
1F
100
AcDbEntity
  8
0
  6
Continuous
 62
     7
370
    15
100
AcDbLine
 10
151.7447401656
 20
234.7556811633
 30
0.0
 11
151.7447401656
 21
231.7556811372
 31
0.0
  0
LINE
  5
B5
330
1F
100
AcDbEntity
  8
0
  6
Continuous
 62
     7
370
    15
100
AcDbLine
 10
151.2944438381
 20
234.7556811633
 30
0.0
 11
151.7447401656
 21
234.7556811633
 31
0.0
  0
LINE
  5
B6
330
1F
100
AcDbEntity
  8
0
  6
Continuous
 62
     7
370
    15
100
AcDbLine
 10
151.2944438381
 20
234.7556811633
 30
0.0
 11
150.7802101204
 21
234.7556811633
 31
0.0
  0
LINE
  5
B7
330
1F
100
AcDbEntity
  8
0
  6
Continuous
 62
     7
370
    15
100
AcDbLine
 10
151.2944438381
 20
231.7556811372
 30
0.0
 11
150.7802101204
 21
231.7556811372
 31
0.0
  0
LINE
  5
B8
330
1F
100
AcDbEntity
  8
0
  6
Continuous
 62
     7
370
    15
100
AcDbLine
 10
125.0805883555
 20
234.7556811633
 30
0.0
 11
124.566353008
 21
234.7556811633
 31
0.0
  0
LINE
  5
B9
330
1F
100
AcDbEntity
  8
0
  6
Continuous
 62
     7
370
    15
100
AcDbLine
 10
125.0805883555
 20
231.7556811372
 30
0.0
 11
124.566353008
 21
231.7556811372
 31
0.0
  0
LINE
  5
BA
330
1F
100
AcDbEntity
  8
0
  6
Continuous
 62
     7
370
    15
100
AcDbLine
 10
152.1303989811
 20
234.5556810374
 30
0.0
 11
151.9303988552
 21
234.7556811633
 31
0.0
  0
LINE
  5
BB
330
1F
100
AcDbEntity
  8
0
  6
Continuous
 62
     7
370
    15
100
AcDbLine
 10
152.1303989811
 20
234.5556810374
 30
0.0
 11
152.1303989811
 21
231.7556811372
 31
0.0
  0
LINE
  5
BC
330
1F
100
AcDbEntity
  8
0
  6
Continuous
 62
     7
370
    15
100
AcDbLine
 10
151.9303988552
 20
234.7556811633
 30
0.0
 11
151.7447401656
 21
234.7556811633
 31
0.0
  0
LINE
  5
BD
330
1F
100
AcDbEntity
  8
0
  6
Continuous
 62
     7
370
    15
100
AcDbLine
 10
152.1303989811
 20
231.7556811372
 30
0.0
 11
151.7447401656
 21
231.7556811372
 31
0.0
  0
LINE
  5
BE
330
1F
100
AcDbEntity
  8
0
  6
Continuous
 62
     7
370
    15
100
AcDbLine
 10
123.7303997277
 20
234.5556810374
 30
0.0
 11
123.7303997277
 21
231.7556811372
 31
0.0
  0
LINE
  5
BF
330
1F
100
AcDbEntity
  8
0
  6
Continuous
 62
     7
370
    15
100
AcDbLine
 10
123.9303993879
 20
234.7556811633
 30
0.0
 11
123.7303997277
 21
234.5556810374
 31
0.0
  0
LINE
  5
C0
330
1F
100
AcDbEntity
  8
0
  6
Continuous
 62
     7
370
    15
100
AcDbLine
 10
124.1160566805
 20
234.7556811633
 30
0.0
 11
123.9303993879
 21
234.7556811633
 31
0.0
  0
LINE
  5
C1
330
1F
100
AcDbEntity
  8
0
  6
Continuous
 62
     7
370
    15
100
AcDbLine
 10
124.1160566805
 20
231.7556811372
 30
0.0
 11
123.7303997277
 21
231.7556811372
 31
0.0
  0
LINE
  5
C2
330
1F
100
AcDbEntity
  8
0
  6
Continuous
 62
     7
370
    15
100
AcDbLine
 10
148.305030505
 20
234.7556811633
 30
0.0
 11
145.5660828742
 21
234.7556811633
 31
0.0
  0
LINE
  5
C3
330
1F
100
AcDbEntity
  8
0
  6
Continuous
 62
     7
370
    15
100
AcDbLine
 10
130.2947151361
 20
234.7556811633
 30
0.0
 11
127.5557680874
 21
234.7556811633
 31
0.0
  0
LINE
  5
C4
330
1F
100
AcDbEntity
  8
0
  6
Continuous
 62
     7
370
    15
100
AcDbLine
 10
148.614758591
 20
231.7556811372
 30
0.0
 11
148.614758591
 21
192.7556803326
 31
0.0
  0
LINE
  5
C5
330
1F
100
AcDbEntity
  8
0
  6
Continuous
 62
     7
370
    15
100
AcDbLine
 10
148.614758591
 20
192.7556803326
 30
0.0
 11
145.600286627
 21
192.7556803326
 31
0.0
  0
LINE
  5
C6
330
1F
100
AcDbEntity
  8
0
  6
Continuous
 62
     7
370
    15
100
AcDbLine
 10
145.600286627
 20
231.7556811372
 30
0.0
 11
145.600286627
 21
192.7556803326
 31
0.0
  0
LINE
  5
C7
330
1F
100
AcDbEntity
  8
0
  6
Continuous
 62
     7
370
    15
100
AcDbLine
 10
148.614758591
 20
231.7556811372
 30
0.0
 11
145.600286627
 21
231.7556811372
 31
0.0
  0
LINE
  5
C8
330
1F
100
AcDbEntity
  8
0
  6
Continuous
 62
     7
370
    15
100
AcDbLine
 10
148.614758591
 20
231.7556811372
 30
0.0
 11
149.2349892741
 21
231.7556811372
 31
0.0
  0
LINE
  5
C9
330
1F
100
AcDbEntity
  8
0
  6
Continuous
 62
     7
370
    15
100
AcDbLine
 10
149.2349892741
 20
192.7556803326
 30
0.0
 11
149.2349892741
 21
231.7556811372
 31
0.0
  0
LINE
  5
CA
330
1F
100
AcDbEntity
  8
0
  6
Continuous
 62
     7
370
    15
100
AcDbLine
 10
148.614758591
 20
192.7556803326
 30
0.0
 11
149.2349892741
 21
192.7556803326
 31
0.0
  0
LINE
  5
CB
330
1F
100
AcDbEntity
  8
0
  6
Continuous
 62
     7
370
    15
100
AcDbLine
 10
127.2460400014
 20
231.7556811372
 30
0.0
 11
127.2460400014
 21
192.7556803326
 31
0.0
  0
LINE
  5
CC
330
1F
100
AcDbEntity
  8
0
  6
Continuous
 62
     7
370
    15
100
AcDbLine
 10
126.625808969
 20
192.7556803326
 30
0.0
 11
127.2460400014
 21
192.7556803326
 31
0.0
  0
LINE
  5
CD
330
1F
100
AcDbEntity
  8
0
  6
Continuous
 62
     7
370
    15
100
AcDbLine
 10
126.625808969
 20
231.7556811372
 30
0.0
 11
126.625808969
 21
192.7556803326
 31
0.0
  0
LINE
  5
CE
330
1F
100
AcDbEntity
  8
0
  6
Continuous
 62
     7
370
    15
100
AcDbLine
 10
126.625808969
 20
231.7556811372
 30
0.0
 11
127.2460400014
 21
231.7556811372
 31
0.0
  0
LINE
  5
CF
330
1F
100
AcDbEntity
  8
0
  6
Continuous
 62
     7
370
    15
100
AcDbLine
 10
144.8429758547
 20
199.2556823293
 30
0.0
 11
144.8429758547
 21
203.0556814621
 31
0.0
  0
LINE
  5
D0
330
1F
100
AcDbEntity
  8
0
  6
Continuous
 62
     7
370
    15
100
AcDbLine
 10
144.8429758547
 20
203.0556814621
 30
0.0
 11
144.830398809
 21
203.0707018326
 31
0.0
  0
LINE
  5
D1
330
1F
100
AcDbEntity
  8
0
  6
Continuous
 62
     7
370
    15
100
AcDbLine
 10
144.830398809
 20
221.4406596372
 30
0.0
 11
144.830398809
 21
203.0707018326
 31
0.0
  0
LINE
  5
D2
330
1F
100
AcDbEntity
  8
0
  6
Continuous
 62
     7
370
    15
100
AcDbLine
 10
144.830398809
 20
221.4406596372
 30
0.0
 11
144.8429758547
 21
221.4556809391
 31
0.0
  0
LINE
  5
D3
330
1F
100
AcDbEntity
  8
0
  6
Continuous
 62
     7
370
    15
100
AcDbLine
 10
144.8429758547
 20
221.4556809391
 30
0.0
 11
144.8429758547
 21
225.2556810031
 31
0.0
  0
LINE
  5
D4
330
1F
100
AcDbEntity
  8
0
  6
Continuous
 62
     7
370
    15
100
AcDbLine
 10
131.0178219227
 20
203.0556814621
 30
0.0
 11
131.0178219227
 21
199.2556823293
 31
0.0
  0
LINE
  5
D5
330
1F
100
AcDbEntity
  8
0
  6
Continuous
 62
     7
370
    15
100
AcDbLine
 10
130.2605113833
 20
231.7556811372
 30
0.0
 11
130.2605113833
 21
192.7556803326
 31
0.0
  0
LINE
  5
D6
330
1F
100
AcDbEntity
  8
0
  6
Continuous
 62
     7
370
    15
100
AcDbLine
 10
131.0178219227
 20
225.2556810031
 30
0.0
 11
131.0178219227
 21
221.4556809391
 31
0.0
  0
LINE
  5
D7
330
1F
100
AcDbEntity
  8
0
  6
Continuous
 62
     7
370
    15
100
AcDbLine
 10
131.0178219227
 20
221.4556809391
 30
0.0
 11
131.0303985028
 21
221.4406596372
 31
0.0
  0
LINE
  5
D8
330
1F
100
AcDbEntity
  8
0
  6
Continuous
 62
     7
370
    15
100
AcDbLine
 10
131.0303985028
 20
221.4406596372
 30
0.0
 11
131.0303985028
 21
203.0707018326
 31
0.0
  0
LINE
  5
D9
330
1F
100
AcDbEntity
  8
0
  6
Continuous
 62
     7
370
    15
100
AcDbLine
 10
131.0303985028
 20
203.0707018326
 30
0.0
 11
131.0178219227
 21
203.0556814621
 31
0.0
  0
LINE
  5
DA
330
1F
100
AcDbEntity
  8
0
  6
Continuous
 62
     7
370
    15
100
AcDbLine
 10
130.2605113833
 20
192.7556803326
 30
0.0
 11
127.2460400014
 21
192.7556803326
 31
0.0
  0
LINE
  5
DB
330
1F
100
AcDbEntity
  8
0
  6
Continuous
 62
     7
370
    15
100
AcDbLine
 10
130.2605113833
 20
231.7556811372
 30
0.0
 11
127.2460400014
 21
231.7556811372
 31
0.0
  0
LINE
  5
DC
330
1F
100
AcDbEntity
  8
0
  6
Continuous
 62
     7
370
    15
100
AcDbLine
 10
144.0178219581
 20
203.0556814621
 30
0.0
 11
144.0178219581
 21
199.2556823293
 31
0.0
  0
LINE
  5
DD
330
1F
100
AcDbEntity
  8
0
  6
Continuous
 62
     7
370
    15
100
AcDbLine
 10
143.3067266716
 20
231.7556811372
 30
0.0
 11
143.3067266716
 21
192.7556803326
 31
0.0
  0
LINE
  5
DE
330
1F
100
AcDbEntity
  8
0
  6
Continuous
 62
     7
370
    15
100
AcDbLine
 10
144.0178219581
 20
225.2556810031
 30
0.0
 11
144.0178219581
 21
221.4556809391
 31
0.0
  0
LINE
  5
DF
330
1F
100
AcDbEntity
  8
0
  6
Continuous
 62
     7
370
    15
100
AcDbLine
 10
144.0178219581
 20
221.4556809391
 30
0.0
 11
144.030398771
 21
221.4406596372
 31
0.0
  0
LINE
  5
E0
330
1F
100
AcDbEntity
  8
0
  6
Continuous
 62
     7
370
    15
100
AcDbLine
 10
144.030398771
 20
221.4406596372
 30
0.0
 11
144.030398771
 21
203.0707018326
 31
0.0
  0
LINE
  5
E1
330
1F
100
AcDbEntity
  8
0
  6
Continuous
 62
     7
370
    15
100
AcDbLine
 10
144.030398771
 20
203.0707018326
 30
0.0
 11
144.0178219581
 21
203.0556814621
 31
0.0
  0
LINE
  5
E2
330
1F
100
AcDbEntity
  8
0
  6
Continuous
 62
     7
370
    15
100
AcDbLine
 10
133.5551562606
 20
192.7556803326
 30
0.0
 11
133.5551562606
 21
231.7556811372
 31
0.0
  0
LINE
  5
E3
330
1F
100
AcDbEntity
  8
0
  6
Continuous
 62
     7
370
    15
100
AcDbLine
 10
132.5540711059
 20
231.7556811372
 30
0.0
 11
132.5540711059
 21
192.7556803326
 31
0.0
  0
LINE
  5
E4
330
1F
100
AcDbEntity
  8
0
  6
Continuous
 62
     7
370
    15
100
AcDbLine
 10
133.5551562606
 20
192.7556803326
 30
0.0
 11
132.5540711059
 21
192.7556803326
 31
0.0
  0
LINE
  5
E5
330
1F
100
AcDbEntity
  8
0
  6
Continuous
 62
     7
370
    15
100
AcDbLine
 10
132.5540711059
 20
231.7556811372
 30
0.0
 11
133.5551562606
 21
231.7556811372
 31
0.0
  0
LINE
  5
E6
330
1F
100
AcDbEntity
  8
0
  6
Continuous
 62
     7
370
    15
100
AcDbLine
 10
142.3056410512
 20
231.7556811372
 30
0.0
 11
142.3056410512
 21
192.7556803326
 31
0.0
  0
LINE
  5
E7
330
1F
100
AcDbEntity
  8
0
  6
Continuous
 62
     7
370
    15
100
AcDbLine
 10
143.3067266716
 20
192.7556803326
 30
0.0
 11
142.3056410512
 21
192.7556803326
 31
0.0
  0
LINE
  5
E8
330
1F
100
AcDbEntity
  8
0
  6
Continuous
 62
     7
370
    15
100
AcDbLine
 10
142.3056410512
 20
231.7556811372
 30
0.0
 11
143.3067266716
 21
231.7556811372
 31
0.0
  0
LINE
  5
E9
330
1F
100
AcDbEntity
  8
0
  6
Continuous
 62
     7
370
    15
100
AcDbLine
 10
131.8429755865
 20
199.2556823293
 30
0.0
 11
131.8429755865
 21
203.0556814621
 31
0.0
  0
LINE
  5
EA
330
1F
100
AcDbEntity
  8
0
  6
Continuous
 62
     7
370
    15
100
AcDbLine
 10
131.8429755865
 20
203.0556814621
 30
0.0
 11
131.8303990065
 21
203.0707018326
 31
0.0
  0
LINE
  5
EB
330
1F
100
AcDbEntity
  8
0
  6
Continuous
 62
     7
370
    15
100
AcDbLine
 10
131.8303990065
 20
221.4406596372
 30
0.0
 11
131.8303990065
 21
203.0707018326
 31
0.0
  0
LINE
  5
EC
330
1F
100
AcDbEntity
  8
0
  6
Continuous
 62
     7
370
    15
100
AcDbLine
 10
131.8303990065
 20
221.4406596372
 30
0.0
 11
131.8429755865
 21
221.4556809391
 31
0.0
  0
LINE
  5
ED
330
1F
100
AcDbEntity
  8
0
  6
Continuous
 62
     7
370
    15
100
AcDbLine
 10
131.8429755865
 20
221.4556809391
 30
0.0
 11
131.8429755865
 21
225.2556810031
 31
0.0
  0
LINE
  5
EE
330
1F
100
AcDbEntity
  8
0
  6
Continuous
 62
     7
370
    15
100
AcDbLine
 10
149.2349892741
 20
231.7556811372
 30
0.0
 11
149.3120666946
 21
231.7556811372
 31
0.0
  0
LINE
  5
EF
330
1F
100
AcDbEntity
  8
0
  6
Continuous
 62
     7
370
    15
100
AcDbLine
 10
126.5487308501
 20
231.7556811372
 30
0.0
 11
126.625808969
 21
231.7556811372
 31
0.0
  0
LINE
  5
F0
330
1F
100
AcDbEntity
  8
0
  6
Continuous
 62
     7
370
    15
100
AcDbLine
 10
135.1164058669
 20
231.7556811372
 30
0.0
 11
135.1164058669
 21
192.7556803326
 31
0.0
  0
LINE
  5
F1
330
1F
100
AcDbEntity
  8
0
  6
Continuous
 62
     7
370
    15
100
AcDbLine
 10
135.1164058669
 20
192.7556803326
 30
0.0
 11
133.5551562606
 21
192.7556803326
 31
0.0
  0
LINE
  5
F2
330
1F
100
AcDbEntity
  8
0
  6
Continuous
 62
     7
370
    15
100
AcDbLine
 10
140.7443914449
 20
192.7556803326
 30
0.0
 11
140.7443914449
 21
231.7556811372
 31
0.0
  0
LINE
  5
F3
330
1F
100
AcDbEntity
  8
0
  6
Continuous
 62
     7
370
    15
100
AcDbLine
 10
142.3056410512
 20
192.7556803326
 30
0.0
 11
140.7443914449
 21
192.7556803326
 31
0.0
  0
LINE
  5
F4
330
1F
100
AcDbEntity
  8
0
  6
Continuous
 62
     7
370
    15
100
AcDbLine
 10
131.0106693654
 20
203.0556814621
 30
0.0
 11
131.846311584
 21
203.0556814621
 31
0.0
  0
LINE
  5
F5
330
1F
100
AcDbEntity
  8
0
  6
Continuous
 62
     7
370
    15
100
AcDbLine
 10
131.0303985028
 20
221.4406596372
 30
0.0
 11
131.8303990065
 21
221.4406596372
 31
0.0
  0
LINE
  5
F6
330
1F
100
AcDbEntity
  8
0
  6
Continuous
 62
     7
370
    15
100
AcDbLine
 10
131.8501290752
 20
221.4556809391
 30
0.0
 11
131.0144859253
 21
221.4556809391
 31
0.0
  0
LINE
  5
F7
330
1F
100
AcDbEntity
  8
0
  6
Continuous
 62
     7
370
    15
100
AcDbLine
 10
144.0106691679
 20
203.0556814621
 30
0.0
 11
144.8463118522
 21
203.0556814621
 31
0.0
  0
LINE
  5
F8
330
1F
100
AcDbEntity
  8
0
  6
Continuous
 62
     7
370
    15
100
AcDbLine
 10
144.8371027017
 20
203.0707018326
 30
0.0
 11
144.030398771
 21
203.0707018326
 31
0.0
  0
LINE
  5
F9
330
1F
100
AcDbEntity
  8
0
  6
Continuous
 62
     7
370
    15
100
AcDbLine
 10
144.8501286449
 20
221.4556809391
 30
0.0
 11
144.0144857278
 21
221.4556809391
 31
0.0
  0
LINE
  5
FA
330
1F
100
AcDbEntity
  8
0
  6
Continuous
 62
     7
370
    15
100
AcDbLine
 10
144.030398771
 20
221.4406596372
 30
0.0
 11
144.830398809
 21
221.4406596372
 31
0.0
  0
LINE
  5
FB
330
1F
100
AcDbEntity
  8
0
  6
Continuous
 62
     7
370
    15
100
AcDbLine
 10
131.8371026663
 20
203.0707018326
 30
0.0
 11
131.0303985028
 21
203.0707018326
 31
0.0
  0
LINE
  5
FC
330
1F
100
AcDbEntity
  8
0
  6
Continuous
 62
     7
370
    15
100
AcDbLine
 10
150.6791127267
 20
231.7556811372
 30
0.0
 11
150.6791127267
 21
192.7556803326
 31
0.0
  0
LINE
  5
FD
330
1F
100
AcDbEntity
  8
0
  6
Continuous
 62
     7
370
    15
100
AcDbLine
 10
150.6791127267
 20
231.7556811372
 30
0.0
 11
149.3120666946
 21
231.7556811372
 31
0.0
  0
LINE
  5
FE
330
1F
100
AcDbEntity
  8
0
  6
Continuous
 62
     7
370
    15
100
AcDbLine
 10
125.1816852836
 20
231.7556811372
 30
0.0
 11
125.1816852836
 21
192.7556803326
 31
0.0
  0
LINE
  5
FF
330
1F
100
AcDbEntity
  8
0
  6
Continuous
 62
     7
370
    15
100
AcDbLine
 10
126.5487308501
 20
231.7556811372
 30
0.0
 11
125.1816852836
 21
231.7556811372
 31
0.0
  0
LINE
  5
100
330
1F
100
AcDbEntity
  8
0
  6
Continuous
 62
     7
370
    15
100
AcDbLine
 10
135.1164058669
 20
192.7556803326
 30
0.0
 11
140.7443914449
 21
192.7556803326
 31
0.0
  0
LINE
  5
101
330
1F
100
AcDbEntity
  8
0
  6
Continuous
 62
     7
370
    15
100
AcDbLine
 10
151.6739955059
 20
231.7556811372
 30
0.0
 11
151.6739955059
 21
192.7556803326
 31
0.0
  0
LINE
  5
102
330
1F
100
AcDbEntity
  8
0
  6
Continuous
 62
     7
370
    15
100
AcDbLine
 10
151.3748081288
 20
192.7556803326
 30
0.0
 11
151.3748081288
 21
231.7556811372
 31
0.0
  0
LINE
  5
103
330
1F
100
AcDbEntity
  8
0
  6
Continuous
 62
     7
370
    15
100
AcDbLine
 10
151.3748081288
 20
231.7556811372
 30
0.0
 11
151.6739955059
 21
231.7556811372
 31
0.0
  0
LINE
  5
104
330
1F
100
AcDbEntity
  8
0
  6
Continuous
 62
     7
370
    15
100
AcDbLine
 10
124.485989183
 20
231.7556811372
 30
0.0
 11
124.485989183
 21
192.7556803326
 31
0.0
  0
LINE
  5
105
330
1F
100
AcDbEntity
  8
0
  6
Continuous
 62
     7
370
    15
100
AcDbLine
 10
124.1868018059
 20
192.7556803326
 30
0.0
 11
124.1868018059
 21
231.7556811372
 31
0.0
  0
LINE
  5
106
330
1F
100
AcDbEntity
  8
0
  6
Continuous
 62
     7
370
    15
100
AcDbLine
 10
124.1868018059
 20
231.7556811372
 30
0.0
 11
124.485989183
 21
231.7556811372
 31
0.0
  0
LINE
  5
107
330
1F
100
AcDbEntity
  8
0
  6
Continuous
 62
     7
370
    15
100
AcDbLine
 10
151.3748081288
 20
231.7556811372
 30
0.0
 11
150.6791127267
 21
231.7556811372
 31
0.0
  0
LINE
  5
108
330
1F
100
AcDbEntity
  8
0
  6
Continuous
 62
     7
370
    15
100
AcDbLine
 10
125.1816852836
 20
231.7556811372
 30
0.0
 11
124.485989183
 21
231.7556811372
 31
0.0
  0
LINE
  5
109
330
1F
100
AcDbEntity
  8
0
  6
Continuous
 62
     7
370
    15
100
AcDbLine
 10
152.1303989811
 20
231.7556811372
 30
0.0
 11
152.1303989811
 21
192.7556803326
 31
0.0
  0
LINE
  5
10A
330
1F
100
AcDbEntity
  8
0
  6
Continuous
 62
     7
370
    15
100
AcDbLine
 10
151.6739955059
 20
192.7556803326
 30
0.0
 11
152.1303989811
 21
192.7556803326
 31
0.0
  0
LINE
  5
10B
330
1F
100
AcDbEntity
  8
0
  6
Continuous
 62
     7
370
    15
100
AcDbLine
 10
151.6739955059
 20
231.7556811372
 30
0.0
 11
152.1303989811
 21
231.7556811372
 31
0.0
  0
LINE
  5
10C
330
1F
100
AcDbEntity
  8
0
  6
Continuous
 62
     7
370
    15
100
AcDbLine
 10
123.7303997277
 20
231.7556811372
 30
0.0
 11
123.7303997277
 21
192.7556803326
 31
0.0
  0
LINE
  5
10D
330
1F
100
AcDbEntity
  8
0
  6
Continuous
 62
     7
370
    15
100
AcDbLine
 10
123.7303997277
 20
192.7556803326
 30
0.0
 11
124.1868018059
 21
192.7556803326
 31
0.0
  0
LINE
  5
10E
330
1F
100
AcDbEntity
  8
0
  6
Continuous
 62
     7
370
    15
100
AcDbLine
 10
123.7303997277
 20
231.7556811372
 30
0.0
 11
124.1868018059
 21
231.7556811372
 31
0.0
  0
LINE
  5
10F
330
1F
100
AcDbEntity
  8
0
  6
Continuous
 62
     7
370
    15
100
AcDbLine
 10
123.7303997277
 20
214.7556802134
 30
0.0
 11
123.4746529607
 21
214.7556802134
 31
0.0
  0
LINE
  5
110
330
1F
100
AcDbEntity
  8
0
  6
Continuous
 62
     7
370
    15
100
AcDbLine
 10
123.7303997277
 20
192.7556803326
 30
0.0
 11
123.4746529607
 21
192.7556803326
 31
0.0
  0
LINE
  5
111
330
1F
100
AcDbEntity
  8
0
  6
Continuous
 62
     7
370
    15
100
AcDbLine
 10
152.3861443511
 20
214.7556802134
 30
0.0
 11
152.1303989811
 21
214.7556802134
 31
0.0
  0
LINE
  5
112
330
1F
100
AcDbEntity
  8
0
  6
Continuous
 62
     7
370
    15
100
AcDbLine
 10
152.3861443511
 20
192.7556803326
 30
0.0
 11
152.1303989811
 21
192.7556803326
 31
0.0
  0
LINE
  5
113
330
1F
100
AcDbEntity
  8
0
  6
Continuous
 62
     7
370
    15
100
AcDbLine
 10
160.9303989334
 20
213.7556819121
 30
0.0
 11
159.9303987695
 21
214.7556802134
 31
0.0
  0
LINE
  5
114
330
1F
100
AcDbEntity
  8
0
  6
Continuous
 62
     7
370
    15
100
AcDbLine
 10
160.9303989334
 20
193.7556823591
 30
0.0
 11
160.9303989334
 21
213.7556819121
 31
0.0
  0
LINE
  5
115
330
1F
100
AcDbEntity
  8
0
  6
Continuous
 62
     7
370
    15
100
AcDbLine
 10
159.9303987695
 20
192.7556803326
 30
0.0
 11
160.9303989334
 21
193.7556823591
 31
0.0
  0
LINE
  5
116
330
1F
100
AcDbEntity
  8
0
  6
Continuous
 62
     7
370
    15
100
AcDbLine
 10
159.1803991122
 20
210.2556804071
 30
0.0
 11
159.1803991122
 21
205.2556814502
 31
0.0
  0
ARC
  5
117
330
1F
100
AcDbEntity
  8
0
  6
Continuous
 62
     7
370
    15
100
AcDbCircle
 10
156.9303988394
 20
210.2556811372
 30
0.0
 40
2.25
100
AcDbArc
 50
0.0
 51
180.0
  0
LINE
  5
118
330
1F
100
AcDbEntity
  8
0
  6
Continuous
 62
     7
370
    15
100
AcDbLine
 10
154.6803988403
 20
205.2556814502
 30
0.0
 11
154.6803988403
 21
210.2556804071
 31
0.0
  0
ARC
  5
119
330
1F
100
AcDbEntity
  8
0
  6
Continuous
 62
     7
370
    15
100
AcDbCircle
 10
156.9303988394
 20
205.2556811372
 30
0.0
 40
2.25
100
AcDbArc
 50
180.0
 51
0.0
  0
LINE
  5
11A
330
1F
100
AcDbEntity
  8
0
  6
Continuous
 62
     7
370
    15
100
AcDbLine
 10
152.3861443511
 20
214.7556802134
 30
0.0
 11
159.9303987695
 21
214.7556802134
 31
0.0
  0
LINE
  5
11B
330
1F
100
AcDbEntity
  8
0
  6
Continuous
 62
     7
370
    15
100
AcDbLine
 10
159.9303987695
 20
192.7556803326
 30
0.0
 11
152.3861443511
 21
192.7556803326
 31
0.0
  0
LINE
  5
11C
330
1F
100
AcDbEntity
  8
0
  6
Continuous
 62
     7
370
    15
100
AcDbLine
 10
115.9303980766
 20
214.7556802134
 30
0.0
 11
114.9303997754
 21
213.7556819121
 31
0.0
  0
ARC
  5
11D
330
1F
100
AcDbEntity
  8
0
  6
Continuous
 62
     7
370
    15
100
AcDbCircle
 10
118.9303988394
 20
205.2556811372
 30
0.0
 40
2.25
100
AcDbArc
 50
180.0
 51
0.0
  0
LINE
  5
11E
330
1F
100
AcDbEntity
  8
0
  6
Continuous
 62
     7
370
    15
100
AcDbLine
 10
114.9303997754
 20
193.7556823591
 30
0.0
 11
115.9303980766
 21
192.7556803326
 31
0.0
  0
ARC
  5
11F
330
1F
100
AcDbEntity
  8
0
  6
Continuous
 62
     7
370
    15
100
AcDbCircle
 10
118.9303988394
 20
210.2556811372
 30
0.0
 40
2.25
100
AcDbArc
 50
0.0
 51
180.0
  0
LINE
  5
120
330
1F
100
AcDbEntity
  8
0
  6
Continuous
 62
     7
370
    15
100
AcDbLine
 10
121.1803994028
 20
210.2556804071
 30
0.0
 11
121.1803994028
 21
205.2556814502
 31
0.0
  0
LINE
  5
121
330
1F
100
AcDbEntity
  8
0
  6
Continuous
 62
     7
370
    15
100
AcDbLine
 10
116.6803995965
 20
205.2556814502
 30
0.0
 11
116.6803995965
 21
210.2556804071
 31
0.0
  0
LINE
  5
122
330
1F
100
AcDbEntity
  8
0
  6
Continuous
 62
     7
370
    15
100
AcDbLine
 10
115.9303980766
 20
214.7556802134
 30
0.0
 11
123.4746529607
 21
214.7556802134
 31
0.0
  0
LINE
  5
123
330
1F
100
AcDbEntity
  8
0
  6
Continuous
 62
     7
370
    15
100
AcDbLine
 10
123.4746529607
 20
192.7556803326
 30
0.0
 11
115.9303980766
 21
192.7556803326
 31
0.0
  0
LWPOLYLINE
  5
124
330
1F
100
AcDbEntity
  8
0
  6
Continuous
 62
     7
370
    15
100
AcDbPolyline
 90
        9
 70
   128
 43
0.0
 10
161.9303990973
 20
212.7556817482
 10
161.91118405
 20
212.7748949329
 10
161.854278378
 20
212.8318024675
 10
161.7618688269
 20
212.9242120186
 10
161.6375055982
 20
213.0485752473
 10
161.4859691708
 20
213.2001107434
 10
161.3130821733
 20
213.3729977409
 10
161.1254895924
 20
213.5605903218
 10
160.9303989334
 20
213.7556819121
  0
LINE
  5
125
330
1F
100
AcDbEntity
  8
0
  6
Continuous
 62
     7
370
    15
100
AcDbLine
 10
161.9303990973
 20
212.7556817482
 30
0.0
 11
161.9303990973
 21
194.7556806604
 31
0.0
  0
LWPOLYLINE
  5
126
330
1F
100
AcDbEntity
  8
0
  6
Continuous
 62
     7
370
    15
100
AcDbPolyline
 90
        9
 70
   128
 43
0.0
 10
160.9303989334
 20
193.7556823591
 10
161.1254895924
 20
193.9507720868
 10
161.3130821733
 20
194.138362805
 10
161.4859691708
 20
194.3112498025
 10
161.6375055982
 20
194.4627871613
 10
161.7618688269
 20
194.5871522526
 10
161.854278378
 20
194.6795618037
 10
161.91118405
 20
194.736465613
 10
161.9303990973
 20
194.7556806604
  0
LWPOLYLINE
  5
127
330
1F
100
AcDbEntity
  8
0
  6
Continuous
 62
     7
370
    15
100
AcDbPolyline
 90
        9
 70
   128
 43
0.0
 10
114.9303997754
 20
213.7556819121
 10
114.7353100477
 20
213.5605903218
 10
114.5477156042
 20
213.3729977409
 10
114.3748286067
 20
213.2001107434
 10
114.2232912479
 20
213.0485752473
 10
114.0989298819
 20
212.9242120186
 10
114.0065203308
 20
212.8318024675
 10
113.9496127962
 20
212.7748949329
 10
113.9303977488
 20
212.7556817482
  0
LINE
  5
128
330
1F
100
AcDbEntity
  8
0
  6
Continuous
 62
     7
370
    15
100
AcDbLine
 10
113.9303977488
 20
194.7556806604
 30
0.0
 11
113.9303977488
 21
198.2056794564
 31
0.0
  0
LINE
  5
129
330
1F
100
AcDbEntity
  8
0
  6
Continuous
 62
     7
370
    15
100
AcDbLine
 10
113.9303977488
 20
201.3056816409
 30
0.0
 11
113.9303977488
 21
212.7556817482
 31
0.0
  0
LWPOLYLINE
  5
12A
330
1F
100
AcDbEntity
  8
0
  6
Continuous
 62
     7
370
    15
100
AcDbPolyline
 90
       10
 70
   128
 43
0.0
 10
113.9303977488
 20
194.7556806604
 10
113.9455894826
 20
194.7404889266
 10
113.9907064734
 20
194.6953719358
 10
114.0643740891
 20
194.6217080454
 10
114.1643534301
 20
194.5217249791
 10
114.2876121102
 20
194.3984700243
 10
114.4303987621
 20
194.2556796471
 10
114.5883771478
 20
194.0977012614
 10
114.7567490934
 20
193.9293293158
 10
114.9303997754
 20
193.7556823591
  0
LINE
  5
12B
330
1F
100
AcDbEntity
  8
0
  6
Continuous
 62
     7
370
    15
100
AcDbLine
 10
152.9303990191
 20
199.3811240296
 30
0.0
 11
155.4303989632
 21
199.3811240296
 31
0.0
  0
LINE
  5
12C
330
1F
100
AcDbEntity
  8
0
  6
Continuous
 62
     7
370
    15
100
AcDbLine
 10
152.9303990191
 20
203.0607720713
 30
0.0
 11
152.9303990191
 21
202.9681464533
 31
0.0
  0
LINE
  5
12D
330
1F
100
AcDbEntity
  8
0
  6
Continuous
 62
     7
370
    15
100
AcDbLine
 10
152.9303990191
 20
199.4737496475
 30
0.0
 11
152.9303990191
 21
199.3811240296
 31
0.0
  0
LINE
  5
12E
330
1F
100
AcDbEntity
  8
0
  6
Continuous
 62
     7
370
    15
100
AcDbLine
 10
155.4303989632
 20
203.0607720713
 30
0.0
 11
152.9303990191
 21
203.0607720713
 31
0.0
  0
LINE
  5
12F
330
1F
100
AcDbEntity
  8
0
  6
Continuous
 62
     7
370
    15
100
AcDbLine
 10
155.4303989632
 20
203.0607720713
 30
0.0
 11
155.4303989632
 21
199.3811240296
 31
0.0
  0
LINE
  5
130
330
1F
100
AcDbEntity
  8
0
  6
Continuous
 62
     7
370
    15
100
AcDbLine
 10
152.9303990191
 20
196.0760315756
 30
0.0
 11
155.4303989632
 21
196.0760315756
 31
0.0
  0
LINE
  5
131
330
1F
100
AcDbEntity
  8
0
  6
Continuous
 62
     7
370
    15
100
AcDbLine
 10
155.4303989632
 20
199.3811240296
 30
0.0
 11
155.4303989632
 21
196.0760315756
 31
0.0
  0
LINE
  5
132
330
1F
100
AcDbEntity
  8
0
  6
Continuous
 62
     7
370
    15
100
AcDbLine
 10
152.9303990191
 20
199.3811240296
 30
0.0
 11
152.9303990191
 21
199.297923396
 31
0.0
  0
LINE
  5
133
330
1F
100
AcDbEntity
  8
0
  6
Continuous
 62
     7
370
    15
100
AcDbLine
 10
152.9303990191
 20
196.1592284838
 30
0.0
 11
152.9303990191
 21
196.0760315756
 31
0.0
  0
LINE
  5
134
330
1F
100
AcDbEntity
  8
0
  6
Continuous
 62
     7
370
    15
100
AcDbLine
 10
152.9303990191
 20
203.4353313843
 30
0.0
 11
155.4303989632
 21
203.4353313843
 31
0.0
  0
LINE
  5
135
330
1F
100
AcDbEntity
  8
0
  6
Continuous
 62
     7
370
    15
100
AcDbLine
 10
155.4303989632
 20
203.4353313843
 30
0.0
 11
155.4303989632
 21
203.0607720713
 31
0.0
  0
LINE
  5
136
330
1F
100
AcDbEntity
  8
0
  6
Continuous
 62
     7
370
    15
100
AcDbLine
 10
152.9303990191
 20
203.070200781
 30
0.0
 11
152.9303990191
 21
203.0607720713
 31
0.0
  0
LINE
  5
137
330
1F
100
AcDbEntity
  8
0
  6
Continuous
 62
     7
370
    15
100
AcDbLine
 10
132.5660833044
 20
189.7556817035
 30
0.0
 11
130.2947151361
 21
189.7556817035
 31
0.0
  0
LINE
  5
138
330
1F
100
AcDbEntity
  8
0
  6
Continuous
 62
     7
370
    15
100
AcDbLine
 10
131.9560288338
 20
199.0556826691
 30
0.0
 11
130.9047686754
 21
199.0556826691
 31
0.0
  0
LINE
  5
139
330
1F
100
AcDbEntity
  8
0
  6
Continuous
 62
     7
370
    15
100
AcDbLine
 10
131.0178219227
 20
199.2556823293
 30
0.0
 11
131.8429755865
 21
199.2556823293
 31
0.0
  0
ARC
  5
13A
330
1F
100
AcDbEntity
  8
0
  6
Continuous
 62
     7
370
    15
100
AcDbCircle
 10
137.9303988394
 20
176.7556811372
 30
0.0
 40
3.999999999999985
100
AcDbArc
 50
48.5903778907
 51
131.4096221093
  0
LINE
  5
13B
330
1F
100
AcDbEntity
  8
0
  6
Continuous
 62
     7
370
    15
100
AcDbLine
 10
140.5761503501
 20
179.7556800644
 30
0.0
 11
135.2846474273
 21
179.7556800644
 31
0.0
  0
LWPOLYLINE
  5
13C
330
1F
100
AcDbEntity
  8
0
  6
Continuous
 62
     7
370
    15
100
AcDbPolyline
 90
        8
 70
   128
 43
0.0
 10
140.9303989148
 20
179.7556800644
 10
141.1871058753
 20
180.0123898188
 10
141.4091266578
 20
180.23440967
 10
141.5940966344
 20
180.4193777839
 10
141.7400460577
 20
180.5653272072
 10
141.8454205504
 20
180.6707044939
 10
141.9090974031
 20
180.734380881
 10
141.9303986131
 20
180.7556820909
  0
LINE
  5
13D
330
1F
100
AcDbEntity
  8
0
  6
Continuous
 62
     7
370
    15
100
AcDbLine
 10
140.9303989148
 20
179.7556800644
 30
0.0
 11
140.9303989148
 21
177.2556824485
 31
0.0
  0
LINE
  5
13E
330
1F
100
AcDbEntity
  8
0
  6
Continuous
 62
     7
370
    15
100
AcDbLine
 10
140.5761503501
 20
177.2556824485
 30
0.0
 11
140.9303989148
 21
177.2556824485
 31
0.0
  0
LINE
  5
13F
330
1F
100
AcDbEntity
  8
0
  6
Continuous
 62
     7
370
    15
100
AcDbLine
 10
140.5761503501
 20
179.7556800644
 30
0.0
 11
140.5761503501
 21
177.2556824485
 31
0.0
  0
LINE
  5
140
330
1F
100
AcDbEntity
  8
0
  6
Continuous
 62
     7
370
    15
100
AcDbLine
 10
135.2846474273
 20
179.7556800644
 30
0.0
 11
135.2846474273
 21
177.2556824485
 31
0.0
  0
LINE
  5
141
330
1F
100
AcDbEntity
  8
0
  6
Continuous
 62
     7
370
    15
100
AcDbLine
 10
134.930398397
 20
177.2556824485
 30
0.0
 11
135.2846474273
 21
177.2556824485
 31
0.0
  0
LINE
  5
142
330
1F
100
AcDbEntity
  8
0
  6
Continuous
 62
     7
370
    15
100
AcDbLine
 10
134.930398397
 20
179.7556800644
 30
0.0
 11
134.930398397
 21
177.2556824485
 31
0.0
  0
LWPOLYLINE
  5
143
330
1F
100
AcDbEntity
  8
0
  6
Continuous
 62
     7
370
    15
100
AcDbPolyline
 90
        8
 70
   128
 43
0.0
 10
133.9303991644
 20
180.7556820909
 10
133.9517003743
 20
180.734380881
 10
134.0153767614
 20
180.6707044939
 10
134.1207512541
 20
180.5653272072
 10
134.2667006774
 20
180.4193777839
 10
134.4516715853
 20
180.23440967
 10
134.6736923678
 20
180.0123898188
 10
134.930398397
 20
179.7556800644
  0
SPLINE
  5
144
330
1F
100
AcDbEntity
  8
0
  6
Continuous
 62
     7
370
    15
100
AcDbSpline
210
0.0
220
0.0
230
1.0
 70
     8
 71
     3
 72
     8
 73
     4
 74
     0
 42
0.00000001
 43
0.00000001
 12
1.0
 22
0.0
 32
0.0
 13
1.0
 23
0.0
 33
0.0
 40
0.0
 40
0.0
 40
0.0
 40
0.0
 40
1.0
 40
1.0
 40
1.0
 40
1.0
 10
135.2846475283261
 20
177.2556811372168
 30
0.0
 10
135.557463527847
 20
177.0752303151139
 30
0.0
 10
135.8366661067062
 20
176.905546955047
 30
0.0
 10
136.1276232016587
 20
176.7556811372168
 30
0.0
  0
LINE
  5
145
330
1F
100
AcDbEntity
  8
0
  6
Continuous
 62
     7
370
    15
100
AcDbLine
 10
136.1276228799
 20
176.7556814353
 30
0.0
 11
134.930398397
 21
176.7556814353
 31
0.0
  0
SPLINE
  5
146
330
1F
100
AcDbEntity
  8
0
  6
Continuous
 62
     7
370
    15
100
AcDbSpline
210
0.0
220
0.0
230
1.0
 70
    24
 71
     3
 72
     8
 73
     4
 74
     0
 42
0.00000001
 43
0.00000001
 12
1.0
 22
0.0
 32
0.0
 13
1.0
 23
0.0
 33
0.0
 40
0.0
 40
0.0
 40
0.0
 40
0.0
 40
1.0
 40
1.0
 40
1.0
 40
1.0
 10
134.9303988393907
 20
176.7556811372168
 30
0.0
 10
134.9303988393907
 20
176.905546955047
 30
0.0
 10
134.9303988393907
 20
177.0752303151139
 30
0.0
 10
134.9303988393907
 20
177.2556811372168
 30
0.0
  0
SPLINE
  5
147
330
1F
100
AcDbEntity
  8
0
  6
Continuous
 62
     7
370
    15
100
AcDbSpline
210
0.0
220
0.0
230
1.0
 70
     8
 71
     3
 72
     8
 73
     4
 74
     0
 42
0.00000001
 43
0.00000001
 12
1.0
 22
0.0
 32
0.0
 13
1.0
 23
0.0
 33
0.0
 40
0.0
 40
0.0
 40
0.0
 40
0.0
 40
1.0
 40
1.0
 40
1.0
 40
1.0
 10
139.7331744771227
 20
176.7556811372168
 30
0.0
 10
140.0241315720752
 20
176.905546955047
 30
0.0
 10
140.3033341509344
 20
177.0752303151139
 30
0.0
 10
140.5761501504553
 20
177.2556811372168
 30
0.0
  0
LINE
  5
148
330
1F
100
AcDbEntity
  8
0
  6
Continuous
 62
     7
370
    15
100
AcDbLine
 10
139.7331744319
 20
176.7556814353
 30
0.0
 11
136.1276228799
 21
176.7556814353
 31
0.0
  0
SPLINE
  5
149
330
1F
100
AcDbEntity
  8
0
  6
Continuous
 62
     7
370
    15
100
AcDbSpline
210
0.0
220
0.0
230
1.0
 70
    24
 71
     3
 72
     8
 73
     4
 74
     0
 42
0.00000001
 43
0.00000001
 12
1.0
 22
0.0
 32
0.0
 13
1.0
 23
0.0
 33
0.0
 40
0.0
 40
0.0
 40
0.0
 40
0.0
 40
1.0
 40
1.0
 40
1.0
 40
1.0
 10
140.9303988393907
 20
177.2556811372168
 30
0.0
 10
140.9303988393907
 20
177.0752303151139
 30
0.0
 10
140.9303988393907
 20
176.905546955047
 30
0.0
 10
140.9303988393907
 20
176.7556811372168
 30
0.0
  0
LINE
  5
14A
330
1F
100
AcDbEntity
  8
0
  6
Continuous
 62
     7
370
    15
100
AcDbLine
 10
140.9303989148
 20
176.7556814353
 30
0.0
 11
139.7331744319
 21
176.7556814353
 31
0.0
  0
LINE
  5
14B
330
1F
100
AcDbEntity
  8
0
  6
Continuous
 62
     7
370
    15
100
AcDbLine
 10
145.5660828742
 20
189.7556817035
 30
0.0
 11
143.2947147059
 21
189.7556817035
 31
0.0
  0
LINE
  5
14C
330
1F
100
AcDbEntity
  8
0
  6
Continuous
 62
     7
370
    15
100
AcDbLine
 10
144.9560291021
 20
199.0556826691
 30
0.0
 11
143.904768478
 21
199.0556826691
 31
0.0
  0
LINE
  5
14D
330
1F
100
AcDbEntity
  8
0
  6
Continuous
 62
     7
370
    15
100
AcDbLine
 10
144.0178219581
 20
199.2556823293
 30
0.0
 11
144.8429758547
 21
199.2556823293
 31
0.0
  0
LINE
  5
14E
330
1F
100
AcDbEntity
  8
0
  6
Continuous
 62
     7
370
    15
100
AcDbLine
 10
128.6803997008
 20
189.7556817035
 30
0.0
 11
126.9654120205
 21
189.7556817035
 31
0.0
  0
ARC
  5
14F
330
1F
100
AcDbEntity
  8
0
  6
Continuous
 62
     7
370
    15
100
AcDbCircle
 10
135.2303988394
 20
178.4556811372
 30
0.0
 40
13.99999999999983
100
AcDbArc
 50
124.7719440319
 51
126.1822872212
  0
LINE
  5
150
330
1F
100
AcDbEntity
  8
0
  6
Continuous
 62
     7
370
    15
100
AcDbLine
 10
127.2460400014
 20
189.9556813637
 30
0.0
 11
128.6803997008
 21
189.9556813637
 31
0.0
  0
LINE
  5
151
330
1F
100
AcDbEntity
  8
0
  6
Continuous
 62
     7
370
    15
100
AcDbLine
 10
128.6803997008
 20
189.9556813637
 30
0.0
 11
128.6803997008
 21
189.7556817035
 31
0.0
  0
LINE
  5
152
330
1F
100
AcDbEntity
  8
0
  6
Continuous
 62
     7
370
    15
100
AcDbLine
 10
131.9939075856
 20
191.255681018
 30
0.0
 11
131.9939075856
 21
192.7556803326
 31
0.0
  0
LINE
  5
153
330
1F
100
AcDbEntity
  8
0
  6
Continuous
 62
     7
370
    15
100
AcDbLine
 10
131.9939075856
 20
192.7556803326
 30
0.0
 11
133.5551562606
 21
192.7556803326
 31
0.0
  0
LINE
  5
154
330
1F
100
AcDbEntity
  8
0
  6
Continuous
 62
     7
370
    15
100
AcDbLine
 10
133.5551562606
 20
191.255681018
 30
0.0
 11
133.5551562606
 21
192.7556803326
 31
0.0
  0
LINE
  5
155
330
1F
100
AcDbEntity
  8
0
  6
Continuous
 62
     7
370
    15
100
AcDbLine
 10
133.5551562606
 20
191.255681018
 30
0.0
 11
131.9939075856
 21
191.255681018
 31
0.0
  0
LINE
  5
156
330
1F
100
AcDbEntity
  8
0
  6
Continuous
 62
     7
370
    15
100
AcDbLine
 10
148.614758591
 20
189.9556813637
 30
0.0
 11
148.614758591
 21
192.7556803326
 31
0.0
  0
LINE
  5
157
330
1F
100
AcDbEntity
  8
0
  6
Continuous
 62
     7
370
    15
100
AcDbLine
 10
147.1803988333
 20
189.9556813637
 30
0.0
 11
148.614758591
 21
189.9556813637
 31
0.0
  0
LINE
  5
158
330
1F
100
AcDbEntity
  8
0
  6
Continuous
 62
     7
370
    15
100
AcDbLine
 10
147.1803988333
 20
191.255681018
 30
0.0
 11
147.1803988333
 21
189.9556813637
 31
0.0
  0
LINE
  5
159
330
1F
100
AcDbEntity
  8
0
  6
Continuous
 62
     7
370
    15
100
AcDbLine
 10
147.1803988333
 20
191.255681018
 30
0.0
 11
143.8668904247
 21
191.255681018
 31
0.0
  0
LINE
  5
15A
330
1F
100
AcDbEntity
  8
0
  6
Continuous
 62
     7
370
    15
100
AcDbLine
 10
143.8668904247
 20
192.7556803326
 30
0.0
 11
143.8668904247
 21
191.255681018
 31
0.0
  0
LINE
  5
15B
330
1F
100
AcDbEntity
  8
0
  6
Continuous
 62
     7
370
    15
100
AcDbLine
 10
148.614758591
 20
192.7556803326
 30
0.0
 11
143.8668904247
 21
192.7556803326
 31
0.0
  0
ARC
  5
15C
330
1F
100
AcDbEntity
  8
0
  6
Continuous
 62
     7
370
    15
100
AcDbCircle
 10
140.6303988394
 20
178.4556811372
 30
0.0
 40
13.99999999999984
100
AcDbArc
 50
53.8177127788
 51
55.2280559681
  0
LINE
  5
15D
330
1F
100
AcDbEntity
  8
0
  6
Continuous
 62
     7
370
    15
100
AcDbLine
 10
148.8953851749
 20
189.7556817035
 30
0.0
 11
147.1803988333
 21
189.7556817035
 31
0.0
  0
LINE
  5
15E
330
1F
100
AcDbEntity
  8
0
  6
Continuous
 62
     7
370
    15
100
AcDbLine
 10
147.1803988333
 20
189.7556817035
 30
0.0
 11
147.1803988333
 21
189.9556813637
 31
0.0
  0
LINE
  5
15F
330
1F
100
AcDbEntity
  8
0
  6
Continuous
 62
     7
370
    15
100
AcDbLine
 10
142.3056410512
 20
192.7556803326
 30
0.0
 11
142.3056410512
 21
191.255681018
 31
0.0
  0
LINE
  5
160
330
1F
100
AcDbEntity
  8
0
  6
Continuous
 62
     7
370
    15
100
AcDbLine
 10
142.3056410512
 20
192.7556803326
 30
0.0
 11
143.8668904247
 21
192.7556803326
 31
0.0
  0
LINE
  5
161
330
1F
100
AcDbEntity
  8
0
  6
Continuous
 62
     7
370
    15
100
AcDbLine
 10
143.8668904247
 20
191.255681018
 30
0.0
 11
142.3056410512
 21
191.255681018
 31
0.0
  0
LINE
  5
162
330
1F
100
AcDbEntity
  8
0
  6
Continuous
 62
     7
370
    15
100
AcDbLine
 10
127.2460400014
 20
189.9556813637
 30
0.0
 11
127.2460400014
 21
192.7556803326
 31
0.0
  0
LINE
  5
163
330
1F
100
AcDbEntity
  8
0
  6
Continuous
 62
     7
370
    15
100
AcDbLine
 10
123.9303993879
 20
189.7556817035
 30
0.0
 11
126.9654120205
 21
189.7556817035
 31
0.0
  0
LINE
  5
164
330
1F
100
AcDbEntity
  8
0
  6
Continuous
 62
     7
370
    15
100
AcDbLine
 10
123.7303997277
 20
189.9556813637
 30
0.0
 11
123.9303993879
 21
189.7556817035
 31
0.0
  0
LINE
  5
165
330
1F
100
AcDbEntity
  8
0
  6
Continuous
 62
     7
370
    15
100
AcDbLine
 10
123.7303997277
 20
189.9556813637
 30
0.0
 11
123.7303997277
 21
192.7556803326
 31
0.0
  0
LINE
  5
166
330
1F
100
AcDbEntity
  8
0
  6
Continuous
 62
     7
370
    15
100
AcDbLine
 10
123.7303997277
 20
192.7556803326
 30
0.0
 11
127.2460400014
 21
192.7556803326
 31
0.0
  0
LINE
  5
167
330
1F
100
AcDbEntity
  8
0
  6
Continuous
 62
     7
370
    15
100
AcDbLine
 10
128.6803997008
 20
191.255681018
 30
0.0
 11
128.6803997008
 21
189.9556813637
 31
0.0
  0
LINE
  5
168
330
1F
100
AcDbEntity
  8
0
  6
Continuous
 62
     7
370
    15
100
AcDbLine
 10
131.9939075856
 20
192.7556803326
 30
0.0
 11
127.2460400014
 21
192.7556803326
 31
0.0
  0
LINE
  5
169
330
1F
100
AcDbEntity
  8
0
  6
Continuous
 62
     7
370
    15
100
AcDbLine
 10
131.9939075856
 20
191.255681018
 30
0.0
 11
128.6803997008
 21
191.255681018
 31
0.0
  0
LINE
  5
16A
330
1F
100
AcDbEntity
  8
0
  6
Continuous
 62
     7
370
    15
100
AcDbLine
 10
152.1303989811
 20
189.9556813637
 30
0.0
 11
152.1303989811
 21
192.7556803326
 31
0.0
  0
LINE
  5
16B
330
1F
100
AcDbEntity
  8
0
  6
Continuous
 62
     7
370
    15
100
AcDbLine
 10
151.9303988552
 20
189.7556817035
 30
0.0
 11
152.1303989811
 21
189.9556813637
 31
0.0
  0
LINE
  5
16C
330
1F
100
AcDbEntity
  8
0
  6
Continuous
 62
     7
370
    15
100
AcDbLine
 10
148.8953851749
 20
189.7556817035
 30
0.0
 11
151.9303988552
 21
189.7556817035
 31
0.0
  0
LINE
  5
16D
330
1F
100
AcDbEntity
  8
0
  6
Continuous
 62
     7
370
    15
100
AcDbLine
 10
148.614758591
 20
192.7556803326
 30
0.0
 11
152.1303989811
 21
192.7556803326
 31
0.0
  0
LINE
  5
16E
330
1F
100
AcDbEntity
  8
0
  6
Continuous
 62
     7
370
    15
100
AcDbLine
 10
135.1164058669
 20
192.7556803326
 30
0.0
 11
135.1164058669
 21
191.255681018
 31
0.0
  0
LINE
  5
16F
330
1F
100
AcDbEntity
  8
0
  6
Continuous
 62
     7
370
    15
100
AcDbLine
 10
135.1164058669
 20
191.255681018
 30
0.0
 11
133.5551562606
 21
191.255681018
 31
0.0
  0
LINE
  5
170
330
1F
100
AcDbEntity
  8
0
  6
Continuous
 62
     7
370
    15
100
AcDbLine
 10
140.7443914449
 20
191.255681018
 30
0.0
 11
140.7443914449
 21
192.7556803326
 31
0.0
  0
LINE
  5
171
330
1F
100
AcDbEntity
  8
0
  6
Continuous
 62
     7
370
    15
100
AcDbLine
 10
142.3056410512
 20
191.255681018
 30
0.0
 11
140.7443914449
 21
191.255681018
 31
0.0
  0
LINE
  5
172
330
1F
100
AcDbEntity
  8
0
  6
Continuous
 62
     7
370
    15
100
AcDbLine
 10
134.1742808817
 20
189.7556817035
 30
0.0
 11
134.1742808817
 21
191.255681018
 31
0.0
  0
LINE
  5
173
330
1F
100
AcDbEntity
  8
0
  6
Continuous
 62
     7
370
    15
100
AcDbLine
 10
135.172056116
 20
191.255681018
 30
0.0
 11
135.172056116
 21
189.7556817035
 31
0.0
  0
LINE
  5
174
330
1F
100
AcDbEntity
  8
0
  6
Continuous
 62
     7
370
    15
100
AcDbLine
 10
135.172056116
 20
189.7556817035
 30
0.0
 11
134.1742808817
 21
189.7556817035
 31
0.0
  0
LINE
  5
175
330
1F
100
AcDbEntity
  8
0
  6
Continuous
 62
     7
370
    15
100
AcDbLine
 10
141.6865168957
 20
191.255681018
 30
0.0
 11
141.6865168957
 21
189.7556817035
 31
0.0
  0
LINE
  5
176
330
1F
100
AcDbEntity
  8
0
  6
Continuous
 62
     7
370
    15
100
AcDbLine
 10
140.6887416615
 20
189.7556817035
 30
0.0
 11
140.6887416615
 21
191.255681018
 31
0.0
  0
LINE
  5
177
330
1F
100
AcDbEntity
  8
0
  6
Continuous
 62
     7
370
    15
100
AcDbLine
 10
141.6865168957
 20
189.7556817035
 30
0.0
 11
140.6887416615
 21
189.7556817035
 31
0.0
  0
LINE
  5
178
330
1F
100
AcDbEntity
  8
0
  6
Continuous
 62
     7
370
    15
100
AcDbLine
 10
135.172056116
 20
189.7556817035
 30
0.0
 11
140.6887416615
 21
189.7556817035
 31
0.0
  0
LINE
  5
179
330
1F
100
AcDbEntity
  8
0
  6
Continuous
 62
     7
370
    15
100
AcDbLine
 10
140.6887416615
 20
191.255681018
 30
0.0
 11
140.7443914449
 21
191.255681018
 31
0.0
  0
LINE
  5
17A
330
1F
100
AcDbEntity
  8
0
  6
Continuous
 62
     7
370
    15
100
AcDbLine
 10
135.1164058669
 20
191.255681018
 30
0.0
 11
135.172056116
 21
191.255681018
 31
0.0
  0
LINE
  5
17B
330
1F
100
AcDbEntity
  8
0
  6
Continuous
 62
     7
370
    15
100
AcDbLine
 10
141.6865168957
 20
189.7556817035
 30
0.0
 11
143.2947147059
 21
189.7556817035
 31
0.0
  0
LINE
  5
17C
330
1F
100
AcDbEntity
  8
0
  6
Continuous
 62
     7
370
    15
100
AcDbLine
 10
145.5660828742
 20
189.7556817035
 30
0.0
 11
147.1803988333
 21
189.7556817035
 31
0.0
  0
LINE
  5
17D
330
1F
100
AcDbEntity
  8
0
  6
Continuous
 62
     7
370
    15
100
AcDbLine
 10
128.6803997008
 20
189.7556817035
 30
0.0
 11
130.2947151361
 21
189.7556817035
 31
0.0
  0
LINE
  5
17E
330
1F
100
AcDbEntity
  8
0
  6
Continuous
 62
     7
370
    15
100
AcDbLine
 10
132.5660833044
 20
189.7556817035
 30
0.0
 11
134.1742808817
 21
189.7556817035
 31
0.0
  0
LINE
  5
17F
330
1F
100
AcDbEntity
  8
0
  6
Continuous
 62
     7
370
    15
100
AcDbLine
 10
144.3148170019
 20
234.7556811633
 30
0.0
 11
145.5660828742
 21
234.7556811633
 31
0.0
  0
LINE
  5
180
330
1F
100
AcDbEntity
  8
0
  6
Continuous
 62
     7
370
    15
100
AcDbLine
 10
143.2947147059
 20
234.7556811633
 30
0.0
 11
144.3148170019
 21
234.7556811633
 31
0.0
  0
LINE
  5
181
330
1F
100
AcDbEntity
  8
0
  6
Continuous
 62
     7
370
    15
100
AcDbLine
 10
144.3031829203
 20
225.455681129
 30
0.0
 11
145.6803988785
 21
225.455681129
 31
0.0
  0
LINE
  5
182
330
1F
100
AcDbEntity
  8
0
  6
Continuous
 62
     7
370
    15
100
AcDbLine
 10
143.904768478
 20
225.455681129
 30
0.0
 11
144.3031829203
 21
225.455681129
 31
0.0
  0
LINE
  5
183
330
1F
100
AcDbEntity
  8
0
  6
Continuous
 62
     7
370
    15
100
AcDbLine
 10
144.3235374408
 20
225.2556810031
 30
0.0
 11
144.0178219581
 21
225.2556810031
 31
0.0
  0
LINE
  5
184
330
1F
100
AcDbEntity
  8
0
  6
Continuous
 62
     7
370
    15
100
AcDbLine
 10
144.8429758547
 20
225.2556810031
 30
0.0
 11
144.3235374408
 21
225.2556810031
 31
0.0
  0
LINE
  5
185
330
1F
100
AcDbEntity
  8
0
  6
Continuous
 62
     7
370
    15
100
AcDbLine
 10
131.3148169665
 20
234.7556811633
 30
0.0
 11
132.5660833044
 21
234.7556811633
 31
0.0
  0
LINE
  5
186
330
1F
100
AcDbEntity
  8
0
  6
Continuous
 62
     7
370
    15
100
AcDbLine
 10
130.2947151361
 20
234.7556811633
 30
0.0
 11
131.3148169665
 21
234.7556811633
 31
0.0
  0
LINE
  5
187
330
1F
100
AcDbEntity
  8
0
  6
Continuous
 62
     7
370
    15
100
AcDbLine
 10
131.3235378711
 20
225.2556810031
 30
0.0
 11
131.0178219227
 21
225.2556810031
 31
0.0
  0
LINE
  5
188
330
1F
100
AcDbEntity
  8
0
  6
Continuous
 62
     7
370
    15
100
AcDbLine
 10
131.8429755865
 20
225.2556810031
 30
0.0
 11
131.3235378711
 21
225.2556810031
 31
0.0
  0
LINE
  5
189
330
1F
100
AcDbEntity
  8
0
  6
Continuous
 62
     7
370
    15
100
AcDbLine
 10
131.3031828849
 20
225.455681129
 30
0.0
 11
132.6803984939
 21
225.455681129
 31
0.0
  0
LINE
  5
18A
330
1F
100
AcDbEntity
  8
0
  6
Continuous
 62
     7
370
    15
100
AcDbLine
 10
130.9047686754
 20
225.455681129
 30
0.0
 11
131.3031828849
 21
225.455681129
 31
0.0
  0
LINE
  5
18B
330
1F
100
AcDbEntity
  8
0
  6
Continuous
 62
     7
370
    15
100
AcDbLine
 10
120.4303997455
 20
199.7535003225
 30
0.0
 11
122.930399224
 21
199.7535003225
 31
0.0
  0
LINE
  5
18C
330
1F
100
AcDbEntity
  8
0
  6
Continuous
 62
     7
370
    15
100
AcDbLine
 10
120.4303997455
 20
199.7535003225
 30
0.0
 11
120.4303997455
 21
203.2619936267
 31
0.0
  0
LINE
  5
18D
330
1F
100
AcDbEntity
  8
0
  6
Continuous
 62
     7
370
    15
100
AcDbLine
 10
122.930399224
 20
203.2619936267
 30
0.0
 11
120.4303997455
 21
203.2619936267
 31
0.0
  0
LINE
  5
18E
330
1F
100
AcDbEntity
  8
0
  6
Continuous
 62
     7
370
    15
100
AcDbLine
 10
122.930399224
 20
199.7535003225
 30
0.0
 11
122.930399224
 21
199.8418195049
 31
0.0
  0
LINE
  5
18F
330
1F
100
AcDbEntity
  8
0
  6
Continuous
 62
     7
370
    15
100
AcDbLine
 10
122.930399224
 20
203.1736744444
 30
0.0
 11
122.930399224
 21
203.2619936267
 31
0.0
  0
LINE
  5
190
330
1F
100
AcDbEntity
  8
0
  6
Continuous
 62
     7
370
    15
100
AcDbLine
 10
122.930399224
 20
196.2471900384
 30
0.0
 11
120.4303997455
 21
196.2471900384
 31
0.0
  0
LINE
  5
191
330
1F
100
AcDbEntity
  8
0
  6
Continuous
 62
     7
370
    15
100
AcDbLine
 10
120.4303997455
 20
196.2471900384
 30
0.0
 11
120.4303997455
 21
199.7535003225
 31
0.0
  0
LINE
  5
192
330
1F
100
AcDbEntity
  8
0
  6
Continuous
 62
     7
370
    15
100
AcDbLine
 10
122.930399224
 20
196.2471900384
 30
0.0
 11
122.930399224
 21
196.3354496161
 31
0.0
  0
LINE
  5
193
330
1F
100
AcDbEntity
  8
0
  6
Continuous
 62
     7
370
    15
100
AcDbLine
 10
122.930399224
 20
199.6652370195
 30
0.0
 11
122.930399224
 21
199.7535003225
 31
0.0
  0
LINE
  5
194
330
1F
100
AcDbEntity
  8
0
  6
Continuous
 62
     7
370
    15
100
AcDbLine
 10
122.930399224
 20
203.2641729216
 30
0.0
 11
120.4303997455
 21
203.2641729216
 31
0.0
  0
LINE
  5
195
330
1F
100
AcDbEntity
  8
0
  6
Continuous
 62
     7
370
    15
100
AcDbLine
 10
120.4303997455
 20
203.2619936267
 30
0.0
 11
120.4303997455
 21
203.2641729216
 31
0.0
  0
LINE
  5
196
330
1F
100
AcDbEntity
  8
0
  6
Continuous
 62
     7
370
    15
100
AcDbLine
 10
122.930399224
 20
203.2619936267
 30
0.0
 11
122.930399224
 21
203.2620476435
 31
0.0
  0
LINE
  5
197
330
1F
100
AcDbEntity
  8
0
  6
Continuous
 62
     7
370
    15
100
AcDbLine
 10
118.4303994177
 20
198.2396652798
 30
0.0
 11
118.4303994177
 21
201.5056813012
 31
0.0
  0
LINE
  5
198
330
1F
100
AcDbEntity
  8
0
  6
Continuous
 62
     7
370
    15
100
AcDbLine
 10
118.4303994177
 20
198.0056797961
 30
0.0
 11
118.4303994177
 21
198.2396652798
 31
0.0
  0
LINE
  5
199
330
1F
100
AcDbEntity
  8
0
  6
Continuous
 62
     7
370
    15
100
AcDbLine
 10
113.4304004608
 20
200.5049807827
 30
0.0
 11
113.4304004608
 21
201.2556807945
 31
0.0
  0
LINE
  5
19A
330
1F
100
AcDbEntity
  8
0
  6
Continuous
 62
     7
370
    15
100
AcDbLine
 10
113.4304004608
 20
198.2556803028
 30
0.0
 11
113.4304004608
 21
200.5049807827
 31
0.0
  0
LINE
  5
19B
330
1F
100
AcDbEntity
  8
0
  6
Continuous
 62
     7
370
    15
100
AcDbLine
 10
115.9303980766
 20
198.2396652798
 30
0.0
 11
115.9303980766
 21
201.5056813012
 31
0.0
  0
LINE
  5
19C
330
1F
100
AcDbEntity
  8
0
  6
Continuous
 62
     7
370
    15
100
AcDbLine
 10
115.9303980766
 20
198.0056797961
 30
0.0
 11
115.9303980766
 21
198.2396652798
 31
0.0
  0
LINE
  5
19D
330
1F
100
AcDbEntity
  8
0
  6
Continuous
 62
     7
370
    15
100
AcDbLine
 10
122.930399224
 20
195.755682687
 30
0.0
 11
122.930399224
 21
196.2471900384
 31
0.0
  0
LINE
  5
19E
330
1F
100
AcDbEntity
  8
0
  6
Continuous
 62
     7
370
    15
100
AcDbLine
 10
122.930399224
 20
196.3354496161
 30
0.0
 11
122.930399224
 21
199.6652370195
 31
0.0
  0
LINE
  5
19F
330
1F
100
AcDbEntity
  8
0
  6
Continuous
 62
     7
370
    15
100
AcDbLine
 10
122.930399224
 20
199.8418195049
 30
0.0
 11
122.930399224
 21
203.1736744444
 31
0.0
  0
LINE
  5
1A0
330
1F
100
AcDbEntity
  8
0
  6
Continuous
 62
     7
370
    15
100
AcDbLine
 10
122.930399224
 20
203.2641729216
 30
0.0
 11
122.930399224
 21
203.755680273
 31
0.0
  0
LINE
  5
1A1
330
1F
100
AcDbEntity
  8
0
  6
Continuous
 62
     7
370
    15
100
AcDbLine
 10
152.9303990191
 20
195.755682687
 30
0.0
 11
152.9303990191
 21
196.0760315756
 31
0.0
  0
LINE
  5
1A2
330
1F
100
AcDbEntity
  8
0
  6
Continuous
 62
     7
370
    15
100
AcDbLine
 10
152.9303990191
 20
196.1592284838
 30
0.0
 11
152.9303990191
 21
199.297923396
 31
0.0
  0
LINE
  5
1A3
330
1F
100
AcDbEntity
  8
0
  6
Continuous
 62
     7
370
    15
100
AcDbLine
 10
152.9303990191
 20
199.4737496475
 30
0.0
 11
152.9303990191
 21
202.9681464533
 31
0.0
  0
LINE
  5
1A4
330
1F
100
AcDbEntity
  8
0
  6
Continuous
 62
     7
370
    15
100
AcDbLine
 10
152.9303990191
 20
203.0607720713
 30
0.0
 11
152.9303990191
 21
203.755680273
 31
0.0
  0
LINE
  5
1A5
330
1F
100
AcDbEntity
  8
0
  6
Continuous
 62
     8
370
    15
100
AcDbLine
 10
123.4746529607
 20
192.7556803326
 30
0.0
 11
123.4746529607
 21
195.755682687
 31
0.0
  0
LINE
  5
1A6
330
1F
100
AcDbEntity
  8
0
  6
Continuous
 62
     8
370
    15
100
AcDbLine
 10
123.4746529607
 20
203.755680273
 30
0.0
 11
123.4746529607
 21
214.7556802134
 31
0.0
  0
LINE
  5
1A7
330
1F
100
AcDbEntity
  8
0
  6
Continuous
 62
     8
370
    15
100
AcDbLine
 10
152.3861443511
 20
214.7556802134
 30
0.0
 11
152.3861443511
 21
203.755680273
 31
0.0
  0
LINE
  5
1A8
330
1F
100
AcDbEntity
  8
0
  6
Continuous
 62
     8
370
    15
100
AcDbLine
 10
152.3861443511
 20
195.755682687
 30
0.0
 11
152.3861443511
 21
192.7556803326
 31
0.0
  0
LINE
  5
1A9
330
1F
100
AcDbEntity
  8
0
  6
Continuous
 62
     8
370
    15
100
AcDbLine
 10
114.9303997754
 20
213.7556819121
 30
0.0
 11
114.9303997754
 21
201.405681471
 31
0.0
  0
LINE
  5
1AA
330
1F
100
AcDbEntity
  8
0
  6
Continuous
 62
     8
370
    15
100
AcDbLine
 10
114.9303997754
 20
198.1056814889
 30
0.0
 11
114.9303997754
 21
193.7556823591
 31
0.0
  0
LINE
  5
1AB
330
1F
100
AcDbEntity
  8
0
  6
Continuous
 62
     8
370
    15
100
AcDbLine
 10
133.4964857323
 20
190.9609882037
 30
0.0
 11
133.6803986578
 21
190.9609882037
 31
0.0
  0
LINE
  5
1AC
330
1F
100
AcDbEntity
  8
0
  6
Continuous
 62
     8
370
    15
100
AcDbLine
 10
129.1803988515
 20
190.9609882037
 30
0.0
 11
133.4964857323
 21
190.9609882037
 31
0.0
  0
LINE
  5
1AD
330
1F
100
AcDbEntity
  8
0
  6
Continuous
 62
     8
370
    15
100
AcDbLine
 10
133.2735978885
 20
190.1559343437
 30
0.0
 11
129.5872005521
 21
190.1559343437
 31
0.0
  0
LINE
  5
1AE
330
1F
100
AcDbEntity
  8
0
  6
Continuous
 62
     8
370
    15
100
AcDbLine
 10
132.7456087692
 20
189.8531539241
 30
0.0
 11
132.8626825361
 21
189.8531539241
 31
0.0
  0
LINE
  5
1AF
330
1F
100
AcDbEntity
  8
0
  6
Continuous
 62
     8
370
    15
100
AcDbLine
 10
129.9981149732
 20
189.8531539241
 30
0.0
 11
132.7456087692
 21
189.8531539241
 31
0.0
  0
LINE
  5
1B0
330
1F
100
AcDbEntity
  8
0
  6
Continuous
 62
     8
370
    15
100
AcDbLine
 10
146.4964860006
 20
190.9609882037
 30
0.0
 11
146.6803988387
 21
190.9609882037
 31
0.0
  0
LINE
  5
1B1
330
1F
100
AcDbEntity
  8
0
  6
Continuous
 62
     8
370
    15
100
AcDbLine
 10
142.180398654
 20
190.9609882037
 30
0.0
 11
146.4964860006
 21
190.9609882037
 31
0.0
  0
LINE
  5
1B2
330
1F
100
AcDbEntity
  8
0
  6
Continuous
 62
     8
370
    15
100
AcDbLine
 10
146.2735978657
 20
190.1559343437
 30
0.0
 11
142.587199889
 21
190.1559343437
 31
0.0
  0
LINE
  5
1B3
330
1F
100
AcDbEntity
  8
0
  6
Continuous
 62
     8
370
    15
100
AcDbLine
 10
145.745608921
 20
189.8531539241
 30
0.0
 11
145.8626823386
 21
189.8531539241
 31
0.0
  0
LINE
  5
1B4
330
1F
100
AcDbEntity
  8
0
  6
Continuous
 62
     8
370
    15
100
AcDbLine
 10
142.9981152414
 20
189.8531539241
 30
0.0
 11
145.745608921
 21
189.8531539241
 31
0.0
  0
LINE
  5
1B5
330
1F
100
AcDbEntity
  8
0
  6
Continuous
 62
     8
370
    15
100
AcDbLine
 10
146.6803988387
 20
233.5503733826
 30
0.0
 11
142.180398654
 21
233.5503733826
 31
0.0
  0
LINE
  5
1B6
330
1F
100
AcDbEntity
  8
0
  6
Continuous
 62
     8
370
    15
100
AcDbLine
 10
144.2428113314
 20
234.3554292216
 30
0.0
 11
146.2735978657
 21
234.3554292216
 31
0.0
  0
LINE
  5
1B7
330
1F
100
AcDbEntity
  8
0
  6
Continuous
 62
     8
370
    15
100
AcDbLine
 10
142.587199889
 20
234.3554292216
 30
0.0
 11
144.2428113314
 21
234.3554292216
 31
0.0
  0
LINE
  5
1B8
330
1F
100
AcDbEntity
  8
0
  6
Continuous
 62
     8
370
    15
100
AcDbLine
 10
145.8626823386
 20
234.6582089427
 30
0.0
 11
142.9981152414
 21
234.6582089427
 31
0.0
  0
LINE
  5
1B9
330
1F
100
AcDbEntity
  8
0
  6
Continuous
 62
     8
370
    15
100
AcDbLine
 10
133.6803986578
 20
233.5503733826
 30
0.0
 11
129.1803988515
 21
233.5503733826
 31
0.0
  0
LINE
  5
1BA
330
1F
100
AcDbEntity
  8
0
  6
Continuous
 62
     8
370
    15
100
AcDbLine
 10
131.2428108303
 20
234.3554292216
 30
0.0
 11
133.2735978885
 21
234.3554292216
 31
0.0
  0
LINE
  5
1BB
330
1F
100
AcDbEntity
  8
0
  6
Continuous
 62
     8
370
    15
100
AcDbLine
 10
129.5872005521
 20
234.3554292216
 30
0.0
 11
131.2428108303
 21
234.3554292216
 31
0.0
  0
LINE
  5
1BC
330
1F
100
AcDbEntity
  8
0
  6
Continuous
 62
     8
370
    15
100
AcDbLine
 10
132.8626825361
 20
234.6582089427
 30
0.0
 11
129.9981149732
 21
234.6582089427
 31
0.0
  0
LINE
  5
1BD
330
1F
100
AcDbEntity
  8
0
  6
CENTERX2
 62
     7
370
     0
100
AcDbLine
 10
115.6541828894
 20
207.7556811372
 30
0.0
 11
122.8358212024
 21
207.7556811372
 31
0.0
  0
LINE
  5
1BE
330
1F
100
AcDbEntity
  8
0
  6
CENTERX2
 62
     7
370
     0
100
AcDbLine
 10
118.9303988394
 20
213.747834804
 30
0.0
 11
118.9303988394
 21
202.2687347706
 31
0.0
  0
DIMENSION
  5
1BF
330
1F
100
AcDbEntity
  8
0
  6
Continuous
 62
     7
370
     0
100
AcDbDimension
  2
_D
 10
99.2829147666
 20
207.7556811372
 30
0.0
 11
99.2829147666
 21
193.2510218492
 31
0.0
 70
   160
  1
<>
 71
     2
 42
-1.0
  3
SLDDIMSTYLE0
100
AcDbAlignedDimension
 13
134.9303988394
 23
176.7556811372
 33
0.0
 14
115.6541828894
 24
207.7556811372
 34
0.0
 50
90.0
100
AcDbRotatedDimension
  0
DIMENSION
  5
1CB
330
1F
100
AcDbEntity
  8
0
  6
Continuous
 62
     7
370
     0
100
AcDbDimension
  2
_D_1
 10
156.9303988394
 20
167.3076945263
 30
0.0
 11
137.9303988394
 21
167.3076945263
 31
0.0
 70
   160
  1
<>
 71
     2
 42
-1.0
  3
SLDDIMSTYLE0
100
AcDbAlignedDimension
 13
118.9303988394
 23
202.2687347706
 33
0.0
 14
156.9303988394
 24
200.5056811372
 34
0.0
100
AcDbRotatedDimension
  0
DIMENSION
  5
1D5
330
1F
100
AcDbEntity
  8
0
  6
Continuous
 62
     7
370
     0
100
AcDbDimension
  2
_D_2
 10
171.9303988394
 20
192.7556811372
 30
0.0
 11
171.9303988394
 21
199.0056811372
 31
0.0
 70
   160
  1
<>
 71
     2
 42
-1.0
  3
SLDDIMSTYLE1
100
AcDbAlignedDimension
 13
159.1803988394
 23
205.2556811372
 33
0.0
 14
159.9303988394
 24
192.7556811372
 34
0.0
 50
90.0
100
AcDbRotatedDimension
  0
DIMENSION
  5
1EA
330
1F
100
AcDbEntity
  8
0
  6
Continuous
 62
     7
370
     0
100
AcDbDimension
  2
_D_3
 10
171.9303988394
 20
205.2556811372
 30
0.0
 11
171.9303988394
 21
207.8144241115
 31
0.0
 70
   160
  1
<>
 71
     2
 42
-1.0
  3
SLDDIMSTYLE2
100
AcDbAlignedDimension
 13
161.6803988394
 23
210.2556811372
 33
0.0
 14
161.6803988394
 24
205.2556811372
 34
0.0
 50
90.0
100
AcDbRotatedDimension
  0
DIMENSION
  5
1F7
330
1F
100
AcDbEntity
  8
0
  6
Continuous
 62
     7
370
     0
100
AcDbDimension
  2
_D_4
 10
159.1803988394
 20
178.6972944653
 30
0.0
 11
147.6782233976
 21
178.6972944653
 31
0.0
 70
   160
  1
<>
 71
     2
 42
-1.0
  3
SLDDIMSTYLE3
100
AcDbAlignedDimension
 13
154.6803988394
 23
205.2556811372
 33
0.0
 14
159.1803988394
 24
205.2556811372
 34
0.0
100
AcDbRotatedDimension
  0
DIMENSION
  5
204
330
1F
100
AcDbEntity
  8
0
  6
Continuous
 62
     7
370
     0
100
AcDbDimension
  2
_D_5
 10
113.9303988394
 20
156.2206908421
 30
0.0
 11
137.9303988394
 21
156.2206908421
 31
0.0
 70
   160
  1
<>
 71
     2
 42
-1.0
  3
SLDDIMSTYLE0
100
AcDbAlignedDimension
 13
161.9303988394
 23
194.7556811372
 33
0.0
 14
113.9303988394
 24
194.7556811372
 34
0.0
100
AcDbRotatedDimension
  0
DIMENSION
  5
20E
330
1F
100
AcDbEntity
  8
0
  6
Continuous
 62
     7
370
     0
100
AcDbDimension
  2
_D_6
 10
106.9701109356
 20
192.7556811372
 30
0.0
 11
106.9701109356
 21
202.7893044642
 31
0.0
 70
   160
  1
<>
 71
     2
 42
-1.0
  3
SLDDIMSTYLE0
100
AcDbAlignedDimension
 13
115.9303988394
 23
214.7556811372
 33
0.0
 14
115.9303988394
 24
192.7556811372
 34
0.0
 50
90.0
100
AcDbRotatedDimension
  0
MTEXT
  5
218
330
1F
100
AcDbEntity
  8
0
  6
Continuous
 62
     7
370
     0
100
AcDbMText
 10
96.6241491328
 20
228.2695733156
 30
0.0
 40
3.5
 41
0.0
 71
     1
 72
     1
  1
BF-5
  7
SLDTEXTSTYLE1
 73
     1
 44
1.0
  0
LEADER
  5
21A
330
1F
100
AcDbEntity
  8
0
  6
Continuous
 62
     7
370
     0
100
AcDbLeader
  3
SLDDIMSTYLE4
 76
     3
 10
114.6365790676
 20
199.2831260999
 30
0.0
 10
106.1569343066
 20
223.6313868613
 30
0.0
 10
96.5328467153
 20
223.6313868613
 30
0.0
  0
MTEXT
  5
21B
330
1F
100
AcDbEntity
  8
0
  6
Continuous
 62
     7
370
     0
100
AcDbMText
 10
166.9088709642
 20
231.5991906681
 30
0.0
 40
3.5
 41
0.0
 71
     1
 72
     1
  1
PF
  7
SLDTEXTSTYLE1
 73
     1
 44
1.0
  0
LEADER
  5
21C
330
1F
100
AcDbEntity
  8
0
  6
Continuous
 62
     7
370
     0
100
AcDbLeader
  3
SLDDIMSTYLE4
 76
     3
 10
153.706513564
 20
201.04083418
 30
0.0
 10
166.2883211679
 20
226.9160583942
 30
0.0
 10
171.897810219
 20
226.9160583942
 30
0.0
  0
INSERT
  5
228
330
1F
100
AcDbEntity
  8
0
  6
Continuous
 62
     7
370
     0
100
AcDbBlockReference
  2
SW_CENTERMARKSYMBOL_0
 10
156.9303988394
 20
210.2556811372
 30
0.0
  0
INSERT
  5
234
330
1F
100
AcDbEntity
  8
0
  6
Continuous
 62
     7
370
     0
100
AcDbBlockReference
  2
SW_CENTERMARKSYMBOL_1
 10
156.9303988394
 20
205.2556811372
 30
0.0
  0
LINE
  5
235
330
1F
100
AcDbEntity
  8
0
  6
Continuous
 62
     7
370
    15
100
AcDbLine
 10
115.9303980766
 20
103.5974946262
 30
0.0
 11
113.4304004608
 21
103.3474950509
 31
0.0
  0
LINE
  5
236
330
1F
100
AcDbEntity
  8
0
  6
Continuous
 62
     7
370
    15
100
AcDbLine
 10
113.4304004608
 20
100.3474945591
 30
0.0
 11
115.9303980766
 21
100.0974945182
 31
0.0
  0
LINE
  5
237
330
1F
100
AcDbEntity
  8
0
  6
Continuous
 62
     7
370
    15
100
AcDbLine
 10
118.4303994177
 20
103.5974946262
 30
0.0
 11
115.9303980766
 21
103.3474950509
 31
0.0
  0
LINE
  5
238
330
1F
100
AcDbEntity
  8
0
  6
Continuous
 62
     7
370
    15
100
AcDbLine
 10
115.9303980766
 20
100.3474945591
 30
0.0
 11
118.4303994177
 21
100.0974945182
 31
0.0
  0
LINE
  5
239
330
1F
100
AcDbEntity
  8
0
  6
Continuous
 62
     7
370
    15
100
AcDbLine
 10
118.4303994177
 20
100.247494729
 30
0.0
 11
120.4303997455
 21
100.247494729
 31
0.0
  0
LINE
  5
23A
330
1F
100
AcDbEntity
  8
0
  6
Continuous
 62
     7
370
    15
100
AcDbLine
 10
120.4303997455
 20
103.447494881
 30
0.0
 11
118.4303994177
 21
103.447494881
 31
0.0
  0
LINE
  5
23B
330
1F
100
AcDbEntity
  8
0
  6
Continuous
 62
     7
370
    15
100
AcDbLine
 10
123.7303997277
 20
105.8474945293
 30
0.0
 11
122.930399224
 21
105.8474945293
 31
0.0
  0
LINE
  5
23C
330
1F
100
AcDbEntity
  8
0
  6
Continuous
 62
     7
370
    15
100
AcDbLine
 10
122.930399224
 20
97.847494615
 30
0.0
 11
123.7303997277
 21
97.847494615
 31
0.0
  0
LINE
  5
23D
330
1F
100
AcDbEntity
  8
0
  6
Continuous
 62
     7
370
    15
100
AcDbLine
 10
152.9303990191
 20
105.8474945293
 30
0.0
 11
152.1303989811
 21
105.8474945293
 31
0.0
  0
LINE
  5
23E
330
1F
100
AcDbEntity
  8
0
  6
Continuous
 62
     7
370
    15
100
AcDbLine
 10
152.1303989811
 20
97.847494615
 30
0.0
 11
152.9303990191
 21
97.847494615
 31
0.0
  0
CIRCLE
  5
23F
330
1F
100
AcDbEntity
  8
0
  6
Continuous
 62
     7
370
    15
100
AcDbCircle
 10
144.4303988394
 20
92.5974945975
 30
0.0
 40
1.432283538938782
  0
CIRCLE
  5
240
330
1F
100
AcDbEntity
  8
0
  6
Continuous
 62
     7
370
    15
100
AcDbCircle
 10
144.4303988394
 20
92.5974945975
 30
0.0
 40
1.135684019913869
  0
LINE
  5
241
330
1F
100
AcDbEntity
  8
0
  6
Continuous
 62
     7
370
    15
100
AcDbLine
 10
144.7733238692
 20
91.8022571986
 30
0.0
 11
143.913165748
 21
91.9028940534
 31
0.0
  0
LINE
  5
242
330
1F
100
AcDbEntity
  8
0
  6
Continuous
 62
     7
370
    15
100
AcDbLine
 10
145.2905571441
 20
92.4968577146
 30
0.0
 11
144.7733238692
 21
91.8022571986
 31
0.0
  0
LINE
  5
243
330
1F
100
AcDbEntity
  8
0
  6
Continuous
 62
     7
370
    15
100
AcDbLine
 10
144.9476320649
 20
93.2920950854
 30
0.0
 11
145.2905571441
 21
92.4968577146
 31
0.0
  0
LINE
  5
244
330
1F
100
AcDbEntity
  8
0
  6
Continuous
 62
     7
370
    15
100
AcDbLine
 10
144.0874737108
 20
93.3927319401
 30
0.0
 11
144.9476320649
 21
93.2920950854
 31
0.0
  0
LINE
  5
245
330
1F
100
AcDbEntity
  8
0
  6
Continuous
 62
     7
370
    15
100
AcDbLine
 10
143.5702406688
 20
92.6981314241
 30
0.0
 11
144.0874737108
 21
93.3927319401
 31
0.0
  0
LINE
  5
246
330
1F
100
AcDbEntity
  8
0
  6
Continuous
 62
     7
370
    15
100
AcDbLine
 10
143.913165748
 20
91.9028940534
 30
0.0
 11
143.5702406688
 21
92.6981314241
 31
0.0
  0
CIRCLE
  5
247
330
1F
100
AcDbEntity
  8
0
  6
Continuous
 62
     7
370
    15
100
AcDbCircle
 10
144.4303988394
 20
92.5974945975
 30
0.0
 40
1.843199038049854
  0
CIRCLE
  5
248
330
1F
100
AcDbEntity
  8
0
  6
Continuous
 62
     7
370
    15
100
AcDbCircle
 10
144.4303988394
 20
92.5974945975
 30
0.0
 40
2.250000000000015
  0
ARC
  5
249
330
1F
100
AcDbEntity
  8
0
  6
Continuous
 62
     7
370
    15
100
AcDbCircle
 10
144.4303988394
 20
92.5974945975
 30
0.0
 40
0.7500000000000089
100
AcDbArc
 50
203.3268446696
 51
263.3268446696
  0
ARC
  5
24A
330
1F
100
AcDbEntity
  8
0
  6
Continuous
 62
     7
370
    15
100
AcDbCircle
 10
144.4303988394
 20
92.5974945975
 30
0.0
 40
0.7500000000000112
100
AcDbArc
 50
263.3268446696
 51
323.3268446696
  0
ARC
  5
24B
330
1F
100
AcDbEntity
  8
0
  6
Continuous
 62
     7
370
    15
100
AcDbCircle
 10
144.4303988394
 20
92.5974945975
 30
0.0
 40
0.749999999999998
100
AcDbArc
 50
23.3268446696
 51
83.3268446696
  0
ARC
  5
24C
330
1F
100
AcDbEntity
  8
0
  6
Continuous
 62
     7
370
    15
100
AcDbCircle
 10
144.4303988394
 20
92.5974945975
 30
0.0
 40
0.7500000000000112
100
AcDbArc
 50
323.3268446696
 51
23.3268446696
  0
ARC
  5
24D
330
1F
100
AcDbEntity
  8
0
  6
Continuous
 62
     7
370
    15
100
AcDbCircle
 10
144.4303988394
 20
92.5974945975
 30
0.0
 40
0.7499999999999912
100
AcDbArc
 50
143.3268446696
 51
203.3268446696
  0
ARC
  5
24E
330
1F
100
AcDbEntity
  8
0
  6
Continuous
 62
     7
370
    15
100
AcDbCircle
 10
144.4303988394
 20
92.5974945975
 30
0.0
 40
0.749999999999998
100
AcDbArc
 50
83.3268446696
 51
143.3268446696
  0
ARC
  5
24F
330
1F
100
AcDbEntity
  8
0
  6
Continuous
 62
     7
370
    15
100
AcDbCircle
 10
152.2037523786
 20
93.1059440424
 30
0.0
 40
2.999999999999971
100
AcDbArc
 50
190.7803039923
 51
220.9981734199
  0
LINE
  5
250
330
1F
100
AcDbEntity
  8
0
  6
Continuous
 62
     7
370
    15
100
AcDbLine
 10
151.6314140408
 20
89.1914594376
 30
0.0
 11
149.9395608789
 21
91.137839101
 31
0.0
  0
ARC
  5
251
330
1F
100
AcDbEntity
  8
0
  6
Continuous
 62
     7
370
    15
100
AcDbCircle
 10
152.3861443455
 20
89.8474945975
 30
0.0
 40
1.000000000000026
100
AcDbArc
 50
220.9981734199
 51
270.0
  0
LINE
  5
252
330
1F
100
AcDbEntity
  8
0
  6
Continuous
 62
     7
370
    15
100
AcDbLine
 10
159.9303987695
 20
88.8474945368
 30
0.0
 11
152.3861443511
 21
88.8474945368
 31
0.0
  0
LINE
  5
253
330
1F
100
AcDbEntity
  8
0
  6
Continuous
 62
     7
370
    15
100
AcDbLine
 10
159.9303987695
 20
85.3474948944
 30
0.0
 11
159.9303987695
 21
88.8474945368
 31
0.0
  0
LINE
  5
254
330
1F
100
AcDbEntity
  8
0
  6
Continuous
 62
     7
370
    15
100
AcDbLine
 10
151.7025261073
 20
85.3474948944
 30
0.0
 11
159.9303987695
 21
85.3474948944
 31
0.0
  0
ARC
  5
255
330
1F
100
AcDbEntity
  8
0
  6
Continuous
 62
     7
370
    15
100
AcDbCircle
 10
151.7025260863
 20
88.3474945975
 30
0.0
 40
3.0
100
AcDbArc
 50
220.9981734199
 51
270.0
  0
LINE
  5
256
330
1F
100
AcDbEntity
  8
0
  6
Continuous
 62
     7
370
    15
100
AcDbLine
 10
146.2881207353
 20
90.0035294162
 30
0.0
 11
149.4383347107
 21
86.3793900625
 31
0.0
  0
ARC
  5
257
330
1F
100
AcDbEntity
  8
0
  6
Continuous
 62
     7
370
    15
100
AcDbCircle
 10
145.5333902158
 20
89.3474945975
 30
0.0
 40
1.00000000000001
100
AcDbArc
 50
40.9981734199
 51
86.0869570946
  0
LINE
  5
258
330
1F
100
AcDbEntity
  8
0
  6
Continuous
 62
     7
370
    15
100
AcDbLine
 10
145.601632621
 20
90.3451632166
 30
0.0
 11
145.600286627
 21
90.3474947827
 31
0.0
  0
LINE
  5
259
330
1F
100
AcDbEntity
  8
0
  6
Continuous
 62
     7
370
    15
100
AcDbLine
 10
130.2605113833
 20
90.3474947827
 30
0.0
 11
130.2591646908
 21
90.3451632166
 31
0.0
  0
ARC
  5
25A
330
1F
100
AcDbEntity
  8
0
  6
Continuous
 62
     7
370
    15
100
AcDbCircle
 10
130.327407463
 20
89.3474945975
 30
0.0
 40
1.00000000000001
100
AcDbArc
 50
93.9130429054
 51
139.0018265801
  0
LINE
  5
25B
330
1F
100
AcDbEntity
  8
0
  6
Continuous
 62
     7
370
    15
100
AcDbLine
 10
126.422463998
 20
86.3793900625
 30
0.0
 11
129.5726775078
 21
90.0035294162
 31
0.0
  0
ARC
  5
25C
330
1F
100
AcDbEntity
  8
0
  6
Continuous
 62
     7
370
    15
100
AcDbCircle
 10
124.1582715924
 20
88.3474945975
 30
0.0
 40
3.000000000000004
100
AcDbArc
 50
270.0
 51
319.0018265801
  0
LINE
  5
25D
330
1F
100
AcDbEntity
  8
0
  6
Continuous
 62
     7
370
    15
100
AcDbLine
 10
115.9303980766
 20
85.3474948944
 30
0.0
 11
124.1582716702
 21
85.3474948944
 31
0.0
  0
LINE
  5
25E
330
1F
100
AcDbEntity
  8
0
  6
Continuous
 62
     7
370
    15
100
AcDbLine
 10
115.9303980766
 20
88.8474945368
 30
0.0
 11
115.9303980766
 21
85.3474948944
 31
0.0
  0
LINE
  5
25F
330
1F
100
AcDbEntity
  8
0
  6
Continuous
 62
     7
370
    15
100
AcDbLine
 10
123.4746529607
 20
88.8474945368
 30
0.0
 11
115.9303980766
 21
88.8474945368
 31
0.0
  0
ARC
  5
260
330
1F
100
AcDbEntity
  8
0
  6
Continuous
 62
     7
370
    15
100
AcDbCircle
 10
123.4746533333
 20
89.8474945975
 30
0.0
 40
1.000000000000005
100
AcDbArc
 50
270.0
 51
319.0018265801
  0
LINE
  5
261
330
1F
100
AcDbEntity
  8
0
  6
Continuous
 62
     7
370
    15
100
AcDbLine
 10
125.9212373643
 20
91.137839101
 30
0.0
 11
124.2293837367
 21
89.1914594376
 31
0.0
  0
ARC
  5
262
330
1F
100
AcDbEntity
  8
0
  6
Continuous
 62
     7
370
    15
100
AcDbCircle
 10
123.6570453002
 20
93.1059440424
 30
0.0
 40
3.000000000000004
100
AcDbArc
 50
319.0018265801
 51
349.2196960077
  0
LINE
  5
263
330
1F
100
AcDbEntity
  8
0
  6
Continuous
 62
     7
370
    15
100
AcDbLine
 10
159.9303987695
 20
88.8474945368
 30
0.0
 11
160.9303989334
 21
88.8474945368
 31
0.0
  0
ARC
  5
264
330
1F
100
AcDbEntity
  8
0
  6
Continuous
 62
     7
370
    15
100
AcDbCircle
 10
160.9303988394
 20
87.8474945975
 30
0.0
 40
1.0
100
AcDbArc
 50
0.0
 51
90.0
  0
LINE
  5
265
330
1F
100
AcDbEntity
  8
0
  6
Continuous
 62
     7
370
    15
100
AcDbLine
 10
161.9303990973
 20
87.8474943729
 30
0.0
 11
161.9303990973
 21
85.3474948944
 31
0.0
  0
LINE
  5
266
330
1F
100
AcDbEntity
  8
0
  6
Continuous
 62
     7
370
    15
100
AcDbLine
 10
161.9303990973
 20
85.3474948944
 30
0.0
 11
159.9303987695
 21
85.3474948944
 31
0.0
  0
LINE
  5
267
330
1F
100
AcDbEntity
  8
0
  6
Continuous
 62
     7
370
    15
100
AcDbLine
 10
114.9303997754
 20
88.8474945368
 30
0.0
 11
115.9303980766
 21
88.8474945368
 31
0.0
  0
LINE
  5
268
330
1F
100
AcDbEntity
  8
0
  6
Continuous
 62
     7
370
    15
100
AcDbLine
 10
113.9303977488
 20
85.3474948944
 30
0.0
 11
113.9303977488
 21
87.8474943729
 31
0.0
  0
ARC
  5
269
330
1F
100
AcDbEntity
  8
0
  6
Continuous
 62
     7
370
    15
100
AcDbCircle
 10
114.9303988394
 20
87.8474945975
 30
0.0
 40
1.000000000000014
100
AcDbArc
 50
90.0
 51
180.0
  0
LINE
  5
26A
330
1F
100
AcDbEntity
  8
0
  6
Continuous
 62
     7
370
    15
100
AcDbLine
 10
115.9303980766
 20
85.3474948944
 30
0.0
 11
113.9303977488
 21
85.3474948944
 31
0.0
  0
LINE
  5
26B
330
1F
100
AcDbEntity
  8
0
  6
Continuous
 62
     7
370
    15
100
AcDbLine
 10
152.9303990191
 20
103.5394387709
 30
0.0
 11
155.4303989632
 21
103.5394387709
 31
0.0
  0
LINE
  5
26C
330
1F
100
AcDbEntity
  8
0
  6
Continuous
 62
     7
370
    15
100
AcDbLine
 10
152.9303990191
 20
105.8801373856
 30
0.0
 11
152.9303990191
 21
105.8212154002
 31
0.0
  0
LINE
  5
26D
330
1F
100
AcDbEntity
  8
0
  6
Continuous
 62
     7
370
    15
100
AcDbLine
 10
152.9303990191
 20
103.5983607562
 30
0.0
 11
152.9303990191
 21
103.5394387709
 31
0.0
  0
LINE
  5
26E
330
1F
100
AcDbEntity
  8
0
  6
Continuous
 62
     7
370
    15
100
AcDbLine
 10
152.9303990191
 20
105.8801373856
 30
0.0
 11
155.4303989632
 21
105.8801373856
 31
0.0
  0
LINE
  5
26F
330
1F
100
AcDbEntity
  8
0
  6
Continuous
 62
     7
370
    15
100
AcDbLine
 10
155.4303989632
 20
105.8801373856
 30
0.0
 11
155.4303989632
 21
103.5394387709
 31
0.0
  0
LINE
  5
270
330
1F
100
AcDbEntity
  8
0
  6
Continuous
 62
     7
370
    15
100
AcDbLine
 10
152.9303990191
 20
99.5067961903
 30
0.0
 11
155.4303989632
 21
99.5067961903
 31
0.0
  0
LINE
  5
271
330
1F
100
AcDbEntity
  8
0
  6
Continuous
 62
     7
370
    15
100
AcDbLine
 10
152.9303990191
 20
103.5394387709
 30
0.0
 11
152.9303990191
 21
103.4379264729
 31
0.0
  0
LINE
  5
272
330
1F
100
AcDbEntity
  8
0
  6
Continuous
 62
     7
370
    15
100
AcDbLine
 10
152.9303990191
 20
99.6083084883
 30
0.0
 11
152.9303990191
 21
99.5067961903
 31
0.0
  0
LINE
  5
273
330
1F
100
AcDbEntity
  8
0
  6
Continuous
 62
     7
370
    15
100
AcDbLine
 10
155.4303989632
 20
103.5394387709
 30
0.0
 11
155.4303989632
 21
99.5067961903
 31
0.0
  0
LINE
  5
274
330
1F
100
AcDbEntity
  8
0
  6
Continuous
 62
     7
370
    15
100
AcDbLine
 10
152.9303990191
 20
97.8148519916
 30
0.0
 11
155.4303989632
 21
97.8148519916
 31
0.0
  0
LINE
  5
275
330
1F
100
AcDbEntity
  8
0
  6
Continuous
 62
     7
370
    15
100
AcDbLine
 10
152.9303990191
 20
99.5067961903
 30
0.0
 11
152.9303990191
 21
99.4642058776
 31
0.0
  0
LINE
  5
276
330
1F
100
AcDbEntity
  8
0
  6
Continuous
 62
     7
370
    15
100
AcDbLine
 10
152.9303990191
 20
97.847494615
 30
0.0
 11
152.9303990191
 21
97.8148519916
 31
0.0
  0
LINE
  5
277
330
1F
100
AcDbEntity
  8
0
  6
Continuous
 62
     7
370
    15
100
AcDbLine
 10
155.4303989632
 20
99.5067961903
 30
0.0
 11
155.4303989632
 21
97.8148519916
 31
0.0
  0
CIRCLE
  5
278
330
1F
100
AcDbEntity
  8
0
  6
Continuous
 62
     7
370
    15
100
AcDbCircle
 10
131.4303988394
 20
111.0974945975
 30
0.0
 40
1.432283538938782
  0
CIRCLE
  5
279
330
1F
100
AcDbEntity
  8
0
  6
Continuous
 62
     7
370
    15
100
AcDbCircle
 10
131.4303988394
 20
111.0974945975
 30
0.0
 40
1.135684019913869
  0
LINE
  5
27A
330
1F
100
AcDbEntity
  8
0
  6
Continuous
 62
     7
370
    15
100
AcDbLine
 10
130.5702413319
 20
111.1981308477
 30
0.0
 11
131.0874736755
 21
111.8927317129
 31
0.0
  0
LINE
  5
27B
330
1F
100
AcDbEntity
  8
0
  6
Continuous
 62
     7
370
    15
100
AcDbLine
 10
130.9131654797
 20
110.4028949903
 30
0.0
 11
130.5702413319
 21
111.1981308477
 31
0.0
  0
LINE
  5
27C
330
1F
100
AcDbEntity
  8
0
  6
Continuous
 62
     7
370
    15
100
AcDbLine
 10
131.7733238338
 20
110.3022581355
 30
0.0
 11
130.9131654797
 21
110.4028949903
 31
0.0
  0
LINE
  5
27D
330
1F
100
AcDbEntity
  8
0
  6
Continuous
 62
     7
370
    15
100
AcDbLine
 10
132.2905571087
 20
110.9968571381
 30
0.0
 11
131.7733238338
 21
110.3022581355
 31
0.0
  0
LINE
  5
27E
330
1F
100
AcDbEntity
  8
0
  6
Continuous
 62
     7
370
    15
100
AcDbLine
 10
131.9476320295
 20
111.7920948581
 30
0.0
 11
132.2905571087
 21
110.9968571381
 31
0.0
  0
LINE
  5
27F
330
1F
100
AcDbEntity
  8
0
  6
Continuous
 62
     7
370
    15
100
AcDbLine
 10
131.0874736755
 20
111.8927317129
 30
0.0
 11
131.9476320295
 21
111.7920948581
 31
0.0
  0
CIRCLE
  5
280
330
1F
100
AcDbEntity
  8
0
  6
Continuous
 62
     7
370
    15
100
AcDbCircle
 10
131.4303988394
 20
111.0974945975
 30
0.0
 40
1.84319903804988
  0
CIRCLE
  5
281
330
1F
100
AcDbEntity
  8
0
  6
Continuous
 62
     7
370
    15
100
AcDbCircle
 10
131.4303988394
 20
111.0974945975
 30
0.0
 40
2.249999999999988
  0
ARC
  5
282
330
1F
100
AcDbEntity
  8
0
  6
Continuous
 62
     7
370
    15
100
AcDbCircle
 10
131.4303988394
 20
111.0974945975
 30
0.0
 40
0.7500000000000027
100
AcDbArc
 50
83.3268446696
 51
143.3268446696
  0
ARC
  5
283
330
1F
100
AcDbEntity
  8
0
  6
Continuous
 62
     7
370
    15
100
AcDbCircle
 10
131.4303988394
 20
111.0974945975
 30
0.0
 40
0.7499999999999807
100
AcDbArc
 50
23.3268446696
 51
83.3268446696
  0
ARC
  5
284
330
1F
100
AcDbEntity
  8
0
  6
Continuous
 62
     7
370
    15
100
AcDbCircle
 10
131.4303988394
 20
111.0974945975
 30
0.0
 40
0.7500000000000027
100
AcDbArc
 50
143.3268446696
 51
203.3268446696
  0
ARC
  5
285
330
1F
100
AcDbEntity
  8
0
  6
Continuous
 62
     7
370
    15
100
AcDbCircle
 10
131.4303988394
 20
111.0974945975
 30
0.0
 40
0.7500000000000121
100
AcDbArc
 50
263.3268446696
 51
323.3268446696
  0
ARC
  5
286
330
1F
100
AcDbEntity
  8
0
  6
Continuous
 62
     7
370
    15
100
AcDbCircle
 10
131.4303988394
 20
111.0974945975
 30
0.0
 40
0.7499999999999883
100
AcDbArc
 50
323.3268446696
 51
23.3268446696
  0
ARC
  5
287
330
1F
100
AcDbEntity
  8
0
  6
Continuous
 62
     7
370
    15
100
AcDbCircle
 10
131.4303988394
 20
111.0974945975
 30
0.0
 40
0.7500000000000121
100
AcDbArc
 50
203.3268446696
 51
263.3268446696
  0
ARC
  5
288
330
1F
100
AcDbEntity
  8
0
  6
Continuous
 62
     7
370
    15
100
AcDbCircle
 10
137.9303988394
 20
101.8474945975
 30
0.0
 40
3.500000000000001
100
AcDbArc
 50
211.0027191339
 51
238.9972808661
  0
ARC
  5
289
330
1F
100
AcDbEntity
  8
0
  6
Continuous
 62
     7
370
    15
100
AcDbCircle
 10
137.9303988394
 20
101.8474945975
 30
0.0
 40
3.500000000000016
100
AcDbArc
 50
121.0027191339
 51
148.9972808661
  0
LINE
  5
28A
330
1F
100
AcDbEntity
  8
0
  6
Continuous
 62
     7
370
    15
100
AcDbLine
 10
139.7331744319
 20
104.8474943654
 30
0.0
 11
136.1276228799
 21
104.8474943654
 31
0.0
  0
ARC
  5
28B
330
1F
100
AcDbEntity
  8
0
  6
Continuous
 62
     7
370
    15
100
AcDbCircle
 10
137.9303988394
 20
101.8474945975
 30
0.0
 40
3.500000000000016
100
AcDbArc
 50
31.0027191339
 51
58.9972808661
  0
LINE
  5
28C
330
1F
100
AcDbEntity
  8
0
  6
Continuous
 62
     7
370
    15
100
AcDbLine
 10
140.9303989148
 20
100.0447187962
 30
0.0
 11
140.9303989148
 21
103.6502698825
 31
0.0
  0
ARC
  5
28D
330
1F
100
AcDbEntity
  8
0
  6
Continuous
 62
     7
370
    15
100
AcDbCircle
 10
137.9303988394
 20
101.8474945975
 30
0.0
 40
3.500000000000001
100
AcDbArc
 50
301.0027191339
 51
328.9972808661
  0
LINE
  5
28E
330
1F
100
AcDbEntity
  8
0
  6
Continuous
 62
     7
370
    15
100
AcDbLine
 10
136.1276228799
 20
98.8474947789
 30
0.0
 11
139.7331744319
 21
98.8474947789
 31
0.0
  0
CIRCLE
  5
28F
330
1F
100
AcDbEntity
  8
0
  6
Continuous
 62
     7
370
    15
100
AcDbCircle
 10
137.9303988394
 20
101.8474945975
 30
0.0
 40
1.649999999999977
  0
LINE
  5
290
330
1F
100
AcDbEntity
  8
0
  6
Continuous
 62
     7
370
    15
100
AcDbLine
 10
134.930398397
 20
103.6502698825
 30
0.0
 11
134.930398397
 21
100.0447187962
 31
0.0
  0
ARC
  5
291
330
1F
100
AcDbEntity
  8
0
  6
Continuous
 62
     7
370
    15
100
AcDbCircle
 10
137.9303988394
 20
101.8474945975
 30
0.0
 40
4.000000000000006
100
AcDbArc
 50
311.4096221093
 51
318.5903778907
  0
SPLINE
  5
292
330
1F
100
AcDbEntity
  8
0
  6
Continuous
 62
     7
370
    15
100
AcDbSpline
210
0.0
220
0.0
230
1.0
 70
    24
 71
     3
 72
     8
 73
     4
 74
     0
 42
0.00000001
 43
0.00000001
 12
1.0
 22
0.0
 32
0.0
 13
1.0
 23
0.0
 33
0.0
 40
0.0
 40
0.0
 40
0.0
 40
0.0
 40
1.0
 40
1.0
 40
1.0
 40
1.0
 10
140.5761501504553
 20
98.8474945975012
 30
0.0
 10
140.3033341509344
 20
98.8474945975012
 30
0.0
 10
140.0241315720752
 20
98.8474945975012
 30
0.0
 10
139.7331744771227
 20
98.8474945975012
 30
0.0
  0
SPLINE
  5
293
330
1F
100
AcDbEntity
  8
0
  6
Continuous
 62
     7
370
    15
100
AcDbSpline
210
0.0
220
0.0
230
1.0
 70
    24
 71
     3
 72
     8
 73
     4
 74
     0
 42
0.00000001
 43
0.00000001
 12
1.0
 22
0.0
 32
0.0
 13
1.0
 23
0.0
 33
0.0
 40
0.0
 40
0.0
 40
0.0
 40
0.0
 40
1.0
 40
1.0
 40
1.0
 40
1.0
 10
140.9303988393907
 20
100.0447189597692
 30
0.0
 10
140.9303988393907
 20
99.75376186481675
 30
0.0
 10
140.9303988393907
 20
99.47455928595751
 30
0.0
 10
140.9303988393907
 20
99.20174328643661
 30
0.0
  0
ARC
  5
294
330
1F
100
AcDbEntity
  8
0
  6
Continuous
 62
     7
370
    15
100
AcDbCircle
 10
137.9303988394
 20
101.8474945975
 30
0.0
 40
4.000000000000006
100
AcDbArc
 50
131.4096221093
 51
138.5903778907
  0
SPLINE
  5
295
330
1F
100
AcDbEntity
  8
0
  6
Continuous
 62
     7
370
    15
100
AcDbSpline
210
0.0
220
0.0
230
1.0
 70
    24
 71
     3
 72
     8
 73
     4
 74
     0
 42
0.00000001
 43
0.00000001
 12
1.0
 22
0.0
 32
0.0
 13
1.0
 23
0.0
 33
0.0
 40
0.0
 40
0.0
 40
0.0
 40
0.0
 40
1.0
 40
1.0
 40
1.0
 40
1.0
 10
135.2846475283261
 20
104.8474945975012
 30
0.0
 10
135.557463527847
 20
104.8474945975012
 30
0.0
 10
135.8366661067063
 20
104.8474945975012
 30
0.0
 10
136.1276232016587
 20
104.8474945975012
 30
0.0
  0
SPLINE
  5
296
330
1F
100
AcDbEntity
  8
0
  6
Continuous
 62
     7
370
    15
100
AcDbSpline
210
0.0
220
0.0
230
1.0
 70
    24
 71
     3
 72
     8
 73
     4
 74
     0
 42
0.00000001
 43
0.00000001
 12
1.0
 22
0.0
 32
0.0
 13
1.0
 23
0.0
 33
0.0
 40
0.0
 40
0.0
 40
0.0
 40
0.0
 40
1.0
 40
1.0
 40
1.0
 40
1.0
 10
134.9303988393907
 20
103.6502702352332
 30
0.0
 10
134.9303988393907
 20
103.9412273301857
 30
0.0
 10
134.9303988393907
 20
104.2204299090449
 30
0.0
 10
134.9303988393907
 20
104.4932459085658
 30
0.0
  0
ARC
  5
297
330
1F
100
AcDbEntity
  8
0
  6
Continuous
 62
     7
370
    15
100
AcDbCircle
 10
137.9303988394
 20
101.8474945975
 30
0.0
 40
4.000000000000006
100
AcDbArc
 50
221.4096221093
 51
228.5903778907
  0
SPLINE
  5
298
330
1F
100
AcDbEntity
  8
0
  6
Continuous
 62
     7
370
    15
100
AcDbSpline
210
0.0
220
0.0
230
1.0
 70
    24
 71
     3
 72
     8
 73
     4
 74
     0
 42
0.00000001
 43
0.00000001
 12
1.0
 22
0.0
 32
0.0
 13
1.0
 23
0.0
 33
0.0
 40
0.0
 40
0.0
 40
0.0
 40
0.0
 40
1.0
 40
1.0
 40
1.0
 40
1.0
 10
136.1276232016587
 20
98.8474945975012
 30
0.0
 10
135.8366661067063
 20
98.8474945975012
 30
0.0
 10
135.557463527847
 20
98.8474945975012
 30
0.0
 10
135.2846475283261
 20
98.8474945975012
 30
0.0
  0
SPLINE
  5
299
330
1F
100
AcDbEntity
  8
0
  6
Continuous
 62
     7
370
    15
100
AcDbSpline
210
0.0
220
0.0
230
1.0
 70
    24
 71
     3
 72
     8
 73
     4
 74
     0
 42
0.00000001
 43
0.00000001
 12
1.0
 22
0.0
 32
0.0
 13
1.0
 23
0.0
 33
0.0
 40
0.0
 40
0.0
 40
0.0
 40
0.0
 40
1.0
 40
1.0
 40
1.0
 40
1.0
 10
134.9303988393907
 20
99.20174328643661
 30
0.0
 10
134.9303988393907
 20
99.47455928595751
 30
0.0
 10
134.9303988393907
 20
99.75376186481675
 30
0.0
 10
134.9303988393907
 20
100.0447189597692
 30
0.0
  0
ARC
  5
29A
330
1F
100
AcDbEntity
  8
0
  6
Continuous
 62
     7
370
    15
100
AcDbCircle
 10
137.9303988394
 20
101.8474945975
 30
0.0
 40
4.000000000000006
100
AcDbArc
 50
41.4096221093
 51
48.5903778907
  0
SPLINE
  5
29B
330
1F
100
AcDbEntity
  8
0
  6
Continuous
 62
     7
370
    15
100
AcDbSpline
210
0.0
220
0.0
230
1.0
 70
    24
 71
     3
 72
     8
 73
     4
 74
     0
 42
0.00000001
 43
0.00000001
 12
1.0
 22
0.0
 32
0.0
 13
1.0
 23
0.0
 33
0.0
 40
0.0
 40
0.0
 40
0.0
 40
0.0
 40
1.0
 40
1.0
 40
1.0
 40
1.0
 10
140.9303988393907
 20
104.4932459085658
 30
0.0
 10
140.9303988393907
 20
104.2204299090449
 30
0.0
 10
140.9303988393907
 20
103.9412273301857
 30
0.0
 10
140.9303988393907
 20
103.6502702352332
 30
0.0
  0
SPLINE
  5
29C
330
1F
100
AcDbEntity
  8
0
  6
Continuous
 62
     7
370
    15
100
AcDbSpline
210
0.0
220
0.0
230
1.0
 70
    24
 71
     3
 72
     8
 73
     4
 74
     0
 42
0.00000001
 43
0.00000001
 12
1.0
 22
0.0
 32
0.0
 13
1.0
 23
0.0
 33
0.0
 40
0.0
 40
0.0
 40
0.0
 40
0.0
 40
1.0
 40
1.0
 40
1.0
 40
1.0
 10
139.7331744771228
 20
104.8474945975012
 30
0.0
 10
140.0241315720752
 20
104.8474945975012
 30
0.0
 10
140.3033341509344
 20
104.8474945975012
 30
0.0
 10
140.5761501504553
 20
104.8474945975012
 30
0.0
  0
ARC
  5
29D
330
1F
100
AcDbEntity
  8
0
  6
Continuous
 62
     7
370
    15
100
AcDbCircle
 10
137.9303988394
 20
101.8474945975
 30
0.0
 40
4.000000000000006
100
AcDbArc
 50
228.5903778907
 51
311.4096221093
  0
ARC
  5
29E
330
1F
100
AcDbEntity
  8
0
  6
Continuous
 62
     7
370
    15
100
AcDbCircle
 10
137.9303988394
 20
101.8474945975
 30
0.0
 40
4.000000000000006
100
AcDbArc
 50
138.5903778907
 51
221.4096221093
  0
ARC
  5
29F
330
1F
100
AcDbEntity
  8
0
  6
Continuous
 62
     7
370
    15
100
AcDbCircle
 10
137.9303988394
 20
101.8474945975
 30
0.0
 40
4.000000000000006
100
AcDbArc
 50
48.5903778907
 51
131.4096221093
  0
ARC
  5
2A0
330
1F
100
AcDbEntity
  8
0
  6
Continuous
 62
     7
370
    15
100
AcDbCircle
 10
137.9303988394
 20
101.8474945975
 30
0.0
 40
4.000000000000006
100
AcDbArc
 50
318.5903778907
 51
41.4096221093
  0
LINE
  5
2A1
330
1F
100
AcDbEntity
  8
0
  6
Continuous
 62
     7
370
    15
100
AcDbLine
 10
143.5702406688
 20
111.1981308477
 30
0.0
 11
144.0874737108
 21
111.8927317129
 31
0.0
  0
LINE
  5
2A2
330
1F
100
AcDbEntity
  8
0
  6
Continuous
 62
     7
370
    15
100
AcDbLine
 10
143.913165748
 20
110.4028949903
 30
0.0
 11
143.5702406688
 21
111.1981308477
 31
0.0
  0
LINE
  5
2A3
330
1F
100
AcDbEntity
  8
0
  6
Continuous
 62
     7
370
    15
100
AcDbLine
 10
144.7733238692
 20
110.3022581355
 30
0.0
 11
143.913165748
 21
110.4028949903
 31
0.0
  0
LINE
  5
2A4
330
1F
100
AcDbEntity
  8
0
  6
Continuous
 62
     7
370
    15
100
AcDbLine
 10
144.0874737108
 20
111.8927317129
 30
0.0
 11
144.9476320649
 21
111.7920948581
 31
0.0
  0
CIRCLE
  5
2A5
330
1F
100
AcDbEntity
  8
0
  6
Continuous
 62
     7
370
    15
100
AcDbCircle
 10
144.4303988394
 20
111.0974945975
 30
0.0
 40
1.135684019913869
  0
LINE
  5
2A6
330
1F
100
AcDbEntity
  8
0
  6
Continuous
 62
     7
370
    15
100
AcDbLine
 10
145.2905571441
 20
110.9968571381
 30
0.0
 11
144.7733238692
 21
110.3022581355
 31
0.0
  0
LINE
  5
2A7
330
1F
100
AcDbEntity
  8
0
  6
Continuous
 62
     7
370
    15
100
AcDbLine
 10
144.9476320649
 20
111.7920948581
 30
0.0
 11
145.2905571441
 21
110.9968571381
 31
0.0
  0
CIRCLE
  5
2A8
330
1F
100
AcDbEntity
  8
0
  6
Continuous
 62
     7
370
    15
100
AcDbCircle
 10
144.4303988394
 20
111.0974945975
 30
0.0
 40
1.432283538938782
  0
CIRCLE
  5
2A9
330
1F
100
AcDbEntity
  8
0
  6
Continuous
 62
     7
370
    15
100
AcDbCircle
 10
144.4303988394
 20
111.0974945975
 30
0.0
 40
1.843199038049854
  0
CIRCLE
  5
2AA
330
1F
100
AcDbEntity
  8
0
  6
Continuous
 62
     7
370
    15
100
AcDbCircle
 10
144.4303988394
 20
111.0974945975
 30
0.0
 40
2.249999999999988
  0
ARC
  5
2AB
330
1F
100
AcDbEntity
  8
0
  6
Continuous
 62
     7
370
    15
100
AcDbCircle
 10
144.4303988394
 20
111.0974945975
 30
0.0
 40
0.7499999999999839
100
AcDbArc
 50
23.3268446696
 51
83.3268446696
  0
ARC
  5
2AC
330
1F
100
AcDbEntity
  8
0
  6
Continuous
 62
     7
370
    15
100
AcDbCircle
 10
144.4303988394
 20
111.0974945975
 30
0.0
 40
0.7500000000000112
100
AcDbArc
 50
263.3268446696
 51
323.3268446696
  0
ARC
  5
2AD
330
1F
100
AcDbEntity
  8
0
  6
Continuous
 62
     7
370
    15
100
AcDbCircle
 10
144.4303988394
 20
111.0974945975
 30
0.0
 40
0.7500000000000112
100
AcDbArc
 50
323.3268446696
 51
23.3268446696
  0
ARC
  5
2AE
330
1F
100
AcDbEntity
  8
0
  6
Continuous
 62
     7
370
    15
100
AcDbCircle
 10
144.4303988394
 20
111.0974945975
 30
0.0
 40
0.7500000000000173
100
AcDbArc
 50
203.3268446696
 51
263.3268446696
  0
ARC
  5
2AF
330
1F
100
AcDbEntity
  8
0
  6
Continuous
 62
     7
370
    15
100
AcDbCircle
 10
144.4303988394
 20
111.0974945975
 30
0.0
 40
0.7500000000000173
100
AcDbArc
 50
143.3268446696
 51
203.3268446696
  0
ARC
  5
2B0
330
1F
100
AcDbEntity
  8
0
  6
Continuous
 62
     7
370
    15
100
AcDbCircle
 10
144.4303988394
 20
111.0974945975
 30
0.0
 40
0.7500000000000027
100
AcDbArc
 50
83.3268446696
 51
143.3268446696
  0
ARC
  5
2B1
330
1F
100
AcDbEntity
  8
0
  6
Continuous
 62
     7
370
    15
100
AcDbCircle
 10
137.9303988394
 20
101.8474945975
 30
0.0
 40
10.50000000000001
100
AcDbArc
 50
335.1642486217
 51
24.8357513783
  0
LWPOLYLINE
  5
2B2
330
1F
100
AcDbEntity
  8
0
  6
Continuous
 62
     7
370
    15
100
AcDbPolyline
 90
        9
 70
   128
 43
0.0
 10
147.4593123366
 20
97.4373010376
 10
147.3707885834
 20
97.4782717803
 10
147.2856667769
 20
97.5176681222
 10
147.2072180276
 20
97.5539759656
 10
147.1384571432
 20
97.5857999565
 10
147.0820265403
 20
97.6119172683
 10
147.0400948182
 20
97.6313241681
 10
147.0142733905
 20
97.6432748993
 10
147.0055545632
 20
97.6473103201
  0
ARC
  5
2B3
330
1F
100
AcDbEntity
  8
0
  6
Continuous
 62
     7
370
    15
100
AcDbCircle
 10
137.9303988394
 20
101.8474945975
 30
0.0
 40
10.00000000000001
100
AcDbArc
 50
335.1642486217
 51
24.8357513783
  0
LWPOLYLINE
  5
2B4
330
1F
100
AcDbEntity
  8
0
  6
Continuous
 62
     7
370
    15
100
AcDbPolyline
 90
        9
 70
   128
 43
0.0
 10
147.4593123366
 20
106.2576881067
 10
147.3707885834
 20
106.216717364
 10
147.2856667769
 20
106.1773214878
 10
147.2072180276
 20
106.1410129459
 10
147.1384571432
 20
106.1091896535
 10
147.0820265403
 20
106.0830716433
 10
147.0400948182
 20
106.0636647435
 10
147.0142733905
 20
106.0517140122
 10
147.0055545632
 20
106.0476785915
  0
LINE
  5
2B5
330
1F
100
AcDbEntity
  8
0
  6
Continuous
 62
     7
370
    15
100
AcDbLine
 10
147.1803988333
 20
113.3474948274
 30
0.0
 11
148.614758591
 21
113.3474948274
 31
0.0
  0
ARC
  5
2B6
330
1F
100
AcDbEntity
  8
0
  6
Continuous
 62
     7
370
    15
100
AcDbCircle
 10
140.6303988394
 20
101.8474945975
 30
0.0
 40
14.0
100
AcDbArc
 50
53.8177127788
 51
55.2280559681
  0
LINE
  5
2B7
330
1F
100
AcDbEntity
  8
0
  6
Continuous
 62
     7
370
    15
100
AcDbLine
 10
148.8953851749
 20
113.1474951671
 30
0.0
 11
147.1803988333
 21
113.1474951671
 31
0.0
  0
LINE
  5
2B8
330
1F
100
AcDbEntity
  8
0
  6
Continuous
 62
     7
370
    15
100
AcDbLine
 10
147.1803988333
 20
113.1474951671
 30
0.0
 11
147.1803988333
 21
113.3474948274
 31
0.0
  0
LINE
  5
2B9
330
1F
100
AcDbEntity
  8
0
  6
Continuous
 62
     7
370
    15
100
AcDbLine
 10
143.7323960362
 20
106.5204840542
 30
0.0
 11
144.4971282853
 21
107.0559554191
 31
0.0
  0
LWPOLYLINE
  5
2BA
330
1F
100
AcDbEntity
  8
0
  6
Continuous
 62
     7
370
    15
100
AcDbPolyline
 90
        9
 70
   128
 43
0.0
 10
144.4971282853
 20
107.0559554191
 10
144.5530779546
 20
106.9760507362
 10
144.606877433
 20
106.8992175551
 10
144.656459417
 20
106.8284072371
 10
144.699918188
 20
106.7663411067
 10
144.7355841173
 20
106.7154052125
 10
144.7620860653
 20
106.6775562631
 10
144.7784060965
 20
106.6542489843
 10
144.7839164993
 20
106.6463793085
  0
LINE
  5
2BB
330
1F
100
AcDbEntity
  8
0
  6
Continuous
 62
     7
370
    15
100
AcDbLine
 10
144.7839164993
 20
106.6463793085
 30
0.0
 11
144.0191842502
 21
106.1109079437
 31
0.0
  0
LWPOLYLINE
  5
2BC
330
1F
100
AcDbEntity
  8
0
  6
Continuous
 62
     7
370
    15
100
AcDbPolyline
 90
        9
 70
   128
 43
0.0
 10
143.7323960362
 20
106.5204840542
 10
143.7883454727
 20
106.4405793713
 10
143.8421449511
 20
106.3637461902
 10
143.8917269351
 20
106.2929358722
 10
143.9351857061
 20
106.2308697419
 10
143.9708516354
 20
106.1799338476
 10
143.9973535834
 20
106.1420848982
 10
144.0136736146
 20
106.1187776194
 10
144.0191842502
 20
106.1109079437
  0
ARC
  5
2BD
330
1F
100
AcDbEntity
  8
0
  6
Continuous
 62
     7
370
    15
100
AcDbCircle
 10
145.644281205
 20
105.4176512956
 30
0.0
 40
2.000000000000031
100
AcDbArc
 50
24.8357513783
 51
125.0
  0
ARC
  5
2BE
330
1F
100
AcDbEntity
  8
0
  6
Continuous
 62
     7
370
    15
100
AcDbCircle
 10
145.644281205
 20
105.4176512956
 30
0.0
 40
1.50000000000003
100
AcDbArc
 50
24.8357513783
 51
125.0
  0
LINE
  5
2BF
330
1F
100
AcDbEntity
  8
0
  6
Continuous
 62
     7
370
    15
100
AcDbLine
 10
144.0191842502
 20
97.5840812007
 30
0.0
 11
144.7839164993
 21
97.0486098358
 31
0.0
  0
LWPOLYLINE
  5
2C0
330
1F
100
AcDbEntity
  8
0
  6
Continuous
 62
     7
370
    15
100
AcDbPolyline
 90
        9
 70
   128
 43
0.0
 10
144.7839164993
 20
97.0486098358
 10
144.7784060965
 20
97.0407399272
 10
144.7620860653
 20
97.0174326485
 10
144.7355841173
 20
96.9795839319
 10
144.699918188
 20
96.9286478048
 10
144.656459417
 20
96.8665821401
 10
144.606877433
 20
96.7957718221
 10
144.5530779546
 20
96.7189381754
 10
144.4971282853
 20
96.6390337253
  0
LINE
  5
2C1
330
1F
100
AcDbEntity
  8
0
  6
Continuous
 62
     7
370
    15
100
AcDbLine
 10
144.4971282853
 20
96.6390337253
 30
0.0
 11
143.7323960362
 21
97.1745053229
 31
0.0
  0
LWPOLYLINE
  5
2C2
330
1F
100
AcDbEntity
  8
0
  6
Continuous
 62
     7
370
    15
100
AcDbPolyline
 90
        9
 70
   128
 43
0.0
 10
144.0191842502
 20
97.5840812007
 10
144.0136736146
 20
97.5762112921
 10
143.9973535834
 20
97.5529040133
 10
143.9708516354
 20
97.5150552967
 10
143.9351857061
 20
97.4641191696
 10
143.8917269351
 20
97.402053505
 10
143.8421449511
 20
97.331243187
 10
143.7883454727
 20
97.2544095402
 10
143.7323960362
 20
97.1745053229
  0
ARC
  5
2C3
330
1F
100
AcDbEntity
  8
0
  6
Continuous
 62
     7
370
    15
100
AcDbCircle
 10
131.2680371006
 20
105.2917559205
 30
0.0
 40
0.999999999999998
100
AcDbArc
 50
332.6622556608
 51
55.0
  0
LWPOLYLINE
  5
2C4
330
1F
100
AcDbEntity
  8
0
  6
Continuous
 62
     7
370
    15
100
AcDbPolyline
 90
        9
 70
   128
 43
0.0
 10
131.8416139929
 20
106.1109079437
 10
131.8471236972
 20
106.1187776194
 10
131.863444194
 20
106.1420848982
 10
131.8899459092
 20
106.1799338476
 10
131.9256118385
 20
106.2308697419
 10
131.9690710752
 20
106.2929358722
 10
132.0186528264
 20
106.3637461902
 10
132.0724525376
 20
106.4405793713
 10
132.1284017412
 20
106.5204840542
  0
ARC
  5
2C5
330
1F
100
AcDbEntity
  8
0
  6
Continuous
 62
     7
370
    15
100
AcDbCircle
 10
131.2680371006
 20
105.2917559205
 30
0.0
 40
1.499999999999994
100
AcDbArc
 50
332.6622556608
 51
55.0
  0
LWPOLYLINE
  5
2C6
330
1F
100
AcDbEntity
  8
0
  6
Continuous
 62
     7
370
    15
100
AcDbPolyline
 90
        9
 70
   128
 43
0.0
 10
132.156351663
 20
104.8325214924
 10
132.1648863031
 20
104.828108886
 10
132.1901614664
 20
104.8150424303
 10
132.2312057836
 20
104.7938231768
 10
132.2864425255
 20
104.7652678953
 10
132.353749208
 20
104.7304718213
 10
132.4305376856
 20
104.6907741965
 10
132.5138584597
 20
104.6476995961
 10
132.6005096434
 20
104.6029039116
  0
ARC
  5
2C7
330
1F
100
AcDbEntity
  8
0
  6
Continuous
 62
     7
370
    15
100
AcDbCircle
 10
131.4303988394
 20
92.5974945975
 30
0.0
 40
2.750000000000024
100
AcDbArc
 50
3.8225537293
 51
90.0
  0
LINE
  5
2C8
330
1F
100
AcDbEntity
  8
0
  6
Continuous
 62
     7
370
    15
100
AcDbLine
 10
131.4303987546
 20
95.3474945545
 30
0.0
 11
125.7088939546
 21
95.3474945545
 31
0.0
  0
LINE
  5
2C9
330
1F
100
AcDbEntity
  8
0
  6
Continuous
 62
     7
370
    15
100
AcDbLine
 10
123.9303993879
 20
110.1124806718
 30
0.0
 11
123.9303993879
 21
97.5947772076
 31
0.0
  0
LINE
  5
2CA
330
1F
100
AcDbEntity
  8
0
  6
Continuous
 62
     7
370
    15
100
AcDbLine
 10
128.6803997008
 20
113.1474951671
 30
0.0
 11
126.9654120205
 21
113.1474951671
 31
0.0
  0
LINE
  5
2CB
330
1F
100
AcDbEntity
  8
0
  6
Continuous
 62
     7
370
    15
100
AcDbLine
 10
147.1803988333
 20
111.0974939929
 30
0.0
 11
147.1803988333
 21
113.1474951671
 31
0.0
  0
ARC
  5
2CC
330
1F
100
AcDbEntity
  8
0
  6
Continuous
 62
     7
370
    15
100
AcDbCircle
 10
140.6303988394
 20
101.8474945975
 30
0.0
 40
14.0
100
AcDbArc
 50
36.1822872212
 51
53.8177127788
  0
LINE
  5
2CD
330
1F
100
AcDbEntity
  8
0
  6
Continuous
 62
     7
370
    15
100
AcDbLine
 10
151.9303988552
 20
97.5947772076
 30
0.0
 11
151.9303988552
 21
110.1124806718
 31
0.0
  0
LINE
  5
2CE
330
1F
100
AcDbEntity
  8
0
  6
Continuous
 62
     7
370
    15
100
AcDbLine
 10
150.1519042885
 20
95.3474945545
 30
0.0
 11
144.43039879
 21
95.3474945545
 31
0.0
  0
ARC
  5
2CF
330
1F
100
AcDbEntity
  8
0
  6
Continuous
 62
     7
370
    15
100
AcDbCircle
 10
130.2165164738
 20
98.2773378994
 30
0.0
 40
2.000000000000037
100
AcDbArc
 50
204.8357513783
 51
305.0
  0
LINE
  5
2D0
330
1F
100
AcDbEntity
  8
0
  6
Continuous
 62
     7
370
    15
100
AcDbLine
 10
132.1284017412
 20
97.1745053229
 30
0.0
 11
131.3636694921
 21
96.6390337253
 31
0.0
  0
ARC
  5
2D1
330
1F
100
AcDbEntity
  8
0
  6
Continuous
 62
     7
370
    15
100
AcDbCircle
 10
131.2680371006
 20
98.4032332745
 30
0.0
 40
1.499999999999999
100
AcDbArc
 50
305.0
 51
27.3377443392
  0
ARC
  5
2D2
330
1F
100
AcDbEntity
  8
0
  6
Continuous
 62
     7
370
    15
100
AcDbCircle
 10
137.9303988394
 20
101.8474945975
 30
0.0
 40
6.000000000000008
100
AcDbArc
 50
152.6622556608
 51
207.3377443392
  0
LINE
  5
2D3
330
1F
100
AcDbEntity
  8
0
  6
Continuous
 62
     7
370
    15
100
AcDbLine
 10
131.3636694921
 20
107.0559554191
 30
0.0
 11
132.1284017412
 21
106.5204840542
 31
0.0
  0
ARC
  5
2D4
330
1F
100
AcDbEntity
  8
0
  6
Continuous
 62
     7
370
    15
100
AcDbCircle
 10
130.2165164738
 20
105.4176512956
 30
0.0
 40
2.000000000000011
100
AcDbArc
 50
55.0
 51
155.1642486217
  0
ARC
  5
2D5
330
1F
100
AcDbEntity
  8
0
  6
Continuous
 62
     7
370
    15
100
AcDbCircle
 10
137.9303988394
 20
101.8474945975
 30
0.0
 40
10.50000000000002
100
AcDbArc
 50
155.1642486217
 51
204.8357513783
  0
ARC
  5
2D6
330
1F
100
AcDbEntity
  8
0
  6
Continuous
 62
     7
370
    15
100
AcDbCircle
 10
144.5927605782
 20
105.2917559205
 30
0.0
 40
1.5
100
AcDbArc
 50
125.0
 51
207.3377443392
  0
ARC
  5
2D7
330
1F
100
AcDbEntity
  8
0
  6
Continuous
 62
     7
370
    15
100
AcDbCircle
 10
137.9303988394
 20
101.8474945975
 30
0.0
 40
6.000000000000001
100
AcDbArc
 50
332.6622556608
 51
27.3377443392
  0
ARC
  5
2D8
330
1F
100
AcDbEntity
  8
0
  6
Continuous
 62
     7
370
    15
100
AcDbCircle
 10
144.5927605782
 20
98.4032332745
 30
0.0
 40
1.50000000000001
100
AcDbArc
 50
152.6622556608
 51
235.0
  0
ARC
  5
2D9
330
1F
100
AcDbEntity
  8
0
  6
Continuous
 62
     7
370
    15
100
AcDbCircle
 10
145.644281205
 20
98.2773378994
 30
0.0
 40
2.000000000000025
100
AcDbArc
 50
235.0
 51
335.1642486217
  0
LINE
  5
2DA
330
1F
100
AcDbEntity
  8
0
  6
Continuous
 62
     7
370
    15
100
AcDbLine
 10
140.6887416615
 20
91.8474945629
 30
0.0
 11
135.172056116
 21
91.8474945629
 31
0.0
  0
LINE
  5
2DB
330
1F
100
AcDbEntity
  8
0
  6
Continuous
 62
     7
370
    15
100
AcDbLine
 10
135.172056116
 20
111.8474955128
 30
0.0
 11
140.6887416615
 21
111.8474955128
 31
0.0
  0
LINE
  5
2DC
330
1F
100
AcDbEntity
  8
0
  6
Continuous
 62
     7
370
    15
100
AcDbLine
 10
128.6803997008
 20
113.1474951671
 30
0.0
 11
128.6803997008
 21
111.0974939929
 31
0.0
  0
ARC
  5
2DD
330
1F
100
AcDbEntity
  8
0
  6
Continuous
 62
     7
370
    15
100
AcDbCircle
 10
135.2303988394
 20
101.8474945975
 30
0.0
 40
13.99999999999999
100
AcDbArc
 50
126.1822872212
 51
143.8177127788
  0
ARC
  5
2DE
330
1F
100
AcDbEntity
  8
0
  6
Continuous
 62
     7
370
    15
100
AcDbCircle
 10
144.4303988394
 20
111.0974945975
 30
0.0
 40
2.750000000000024
100
AcDbArc
 50
183.8225537293
 51
0.0
  0
ARC
  5
2DF
330
1F
100
AcDbEntity
  8
0
  6
Continuous
 62
     7
370
    15
100
AcDbCircle
 10
131.4303988394
 20
111.0974945975
 30
0.0
 40
2.75
100
AcDbArc
 50
180.0
 51
356.1774462707
  0
ARC
  5
2E0
330
1F
100
AcDbEntity
  8
0
  6
Continuous
 62
     7
370
    15
100
AcDbCircle
 10
144.4303988394
 20
92.5974945975
 30
0.0
 40
2.750000000000024
100
AcDbArc
 50
90.0
 51
176.1774462707
  0
ARC
  5
2E1
330
1F
100
AcDbEntity
  8
0
  6
Continuous
 62
     7
370
    15
100
AcDbCircle
 10
135.1720562262
 20
110.8474945975
 30
0.0
 40
0.9999999999999996
100
AcDbArc
 50
90.0
 51
176.1774462707
  0
ARC
  5
2E2
330
1F
100
AcDbEntity
  8
0
  6
Continuous
 62
     7
370
    15
100
AcDbCircle
 10
140.6887414526
 20
110.8474945975
 30
0.0
 40
0.9999999999999858
100
AcDbArc
 50
3.8225537293
 51
90.0
  0
ARC
  5
2E3
330
1F
100
AcDbEntity
  8
0
  6
Continuous
 62
     7
370
    15
100
AcDbCircle
 10
135.1720562262
 20
92.8474945975
 30
0.0
 40
1.0
100
AcDbArc
 50
183.8225537293
 51
270.0
  0
LINE
  5
2E4
330
1F
100
AcDbEntity
  8
0
  6
Continuous
 62
     7
370
    15
100
AcDbLine
 10
151.9303988552
 20
97.5947772076
 30
0.0
 11
150.1519042885
 21
95.3474945545
 31
0.0
  0
LINE
  5
2E5
330
1F
100
AcDbEntity
  8
0
  6
Continuous
 62
     7
370
    15
100
AcDbLine
 10
125.7088939546
 20
95.3474945545
 30
0.0
 11
123.9303993879
 21
97.5947772076
 31
0.0
  0
ARC
  5
2E6
330
1F
100
AcDbEntity
  8
0
  6
Continuous
 62
     7
370
    15
100
AcDbCircle
 10
140.6887414526
 20
92.8474945975
 30
0.0
 40
1.0
100
AcDbArc
 50
270.0
 51
356.1774462707
  0
ARC
  5
2E7
330
1F
100
AcDbEntity
  8
0
  6
Continuous
 62
     7
370
    15
100
AcDbCircle
 10
144.5927605782
 20
105.2917559205
 30
0.0
 40
1.000000000000002
100
AcDbArc
 50
125.0
 51
207.3377443392
  0
LWPOLYLINE
  5
2E8
330
1F
100
AcDbEntity
  8
0
  6
Continuous
 62
     7
370
    15
100
AcDbPolyline
 90
        9
 70
   128
 43
0.0
 10
143.7044456488
 20
104.8325214924
 10
143.6959112415
 20
104.828108886
 10
143.670636311
 20
104.8150424303
 10
143.629591761
 20
104.7938231768
 10
143.5743550191
 20
104.7652678953
 10
143.5070488023
 20
104.7304718213
 10
143.430259859
 20
104.6907741965
 10
143.3469390849
 20
104.6476995961
 10
143.2602881341
 20
104.6029039116
  0
ARC
  5
2E9
330
1F
100
AcDbEntity
  8
0
  6
Continuous
 62
     7
370
    15
100
AcDbCircle
 10
137.9303988394
 20
101.8474945975
 30
0.0
 40
6.499999999999991
100
AcDbArc
 50
332.6622556608
 51
27.3377443392
  0
LWPOLYLINE
  5
2EA
330
1F
100
AcDbEntity
  8
0
  6
Continuous
 62
     7
370
    15
100
AcDbPolyline
 90
        9
 70
   128
 43
0.0
 10
143.7044456488
 20
98.8624681176
 10
143.6959112415
 20
98.8668802583
 10
143.670636311
 20
98.879946714
 10
143.629591761
 20
98.9011655019
 10
143.5743550191
 20
98.9297217147
 10
143.5070488023
 20
98.9645168574
 10
143.430259859
 20
99.0042149478
 10
143.3469390849
 20
99.0472895482
 10
143.2602881341
 20
99.0920856984
  0
ARC
  5
2EB
330
1F
100
AcDbEntity
  8
0
  6
Continuous
 62
     7
370
    15
100
AcDbCircle
 10
130.2165164738
 20
105.4176512956
 30
0.0
 40
1.499999999999999
100
AcDbArc
 50
55.0
 51
155.1642486217
  0
LWPOLYLINE
  5
2EC
330
1F
100
AcDbEntity
  8
0
  6
Continuous
 62
     7
370
    15
100
AcDbPolyline
 90
        9
 70
   128
 43
0.0
 10
128.4014853536
 20
106.2576881067
 10
128.4900094269
 20
106.216717364
 10
128.5751304476
 20
106.1773214878
 10
128.6535794733
 20
106.1410129459
 10
128.7223408817
 20
106.1091896535
 10
128.7787715791
 20
106.0830716433
 10
128.8207034467
 20
106.0636647435
 10
128.8465234338
 20
106.0517140122
 10
128.8552424757
 20
106.0476785915
  0
LWPOLYLINE
  5
2ED
330
1F
100
AcDbEntity
  8
0
  6
Continuous
 62
     7
370
    15
100
AcDbPolyline
 90
        9
 70
   128
 43
0.0
 10
131.0768808125
 20
106.6463793085
 10
131.0823923795
 20
106.6542489843
 10
131.0987110136
 20
106.6775562631
 10
131.1252127288
 20
106.7154052125
 10
131.1608786581
 20
106.7663411067
 10
131.2043378948
 20
106.8284072371
 10
131.253919646
 20
106.8992175551
 10
131.3077202885
 20
106.9760507362
 10
131.3636694921
 20
107.0559554191
  0
ARC
  5
2EE
330
1F
100
AcDbEntity
  8
0
  6
Continuous
 62
     7
370
    15
100
AcDbCircle
 10
144.5927605782
 20
98.4032332745
 30
0.0
 40
0.999999999999998
100
AcDbArc
 50
152.6622556608
 51
235.0
  0
ARC
  5
2EF
330
1F
100
AcDbEntity
  8
0
  6
Continuous
 62
     7
370
    15
100
AcDbCircle
 10
145.644281205
 20
98.2773378994
 30
0.0
 40
1.500000000000024
100
AcDbArc
 50
235.0
 51
335.1642486217
  0
ARC
  5
2F0
330
1F
100
AcDbEntity
  8
0
  6
Continuous
 62
     7
370
    15
100
AcDbCircle
 10
131.2680371006
 20
98.4032332745
 30
0.0
 40
1.000000000000004
100
AcDbArc
 50
305.0
 51
27.3377443392
  0
LWPOLYLINE
  5
2F1
330
1F
100
AcDbEntity
  8
0
  6
Continuous
 62
     7
370
    15
100
AcDbPolyline
 90
        9
 70
   128
 43
0.0
 10
132.156351663
 20
98.8624681176
 10
132.1648863031
 20
98.8668802583
 10
132.1901614664
 20
98.879946714
 10
132.2312057836
 20
98.9011655019
 10
132.2864425255
 20
98.9297217147
 10
132.353749208
 20
98.9645168574
 10
132.4305376856
 20
99.0042149478
 10
132.5138584597
 20
99.0472895482
 10
132.6005096434
 20
99.0920856984
  0
LWPOLYLINE
  5
2F2
330
1F
100
AcDbEntity
  8
0
  6
Continuous
 62
     7
370
    15
100
AcDbPolyline
 90
        9
 70
   128
 43
0.0
 10
132.1284017412
 20
97.1745053229
 10
132.0724525376
 20
97.2544095402
 10
132.0186528264
 20
97.331243187
 10
131.9690710752
 20
97.402053505
 10
131.9256118385
 20
97.4641191696
 10
131.8899459092
 20
97.5150552967
 10
131.863444194
 20
97.5529040133
 10
131.8471236972
 20
97.5762112921
 10
131.8416139929
 20
97.5840812007
  0
LWPOLYLINE
  5
2F3
330
1F
100
AcDbEntity
  8
0
  6
Continuous
 62
     7
370
    15
100
AcDbPolyline
 90
        9
 70
   128
 43
0.0
 10
131.3636694921
 20
96.6390337253
 10
131.3077202885
 20
96.7189381754
 10
131.253919646
 20
96.7957718221
 10
131.2043378948
 20
96.8665821401
 10
131.1608786581
 20
96.9286478048
 10
131.1252127288
 20
96.9795839319
 10
131.0987110136
 20
97.0174326485
 10
131.0823923795
 20
97.0407399272
 10
131.0768808125
 20
97.0486098358
  0
LINE
  5
2F4
330
1F
100
AcDbEntity
  8
0
  6
Continuous
 62
     7
370
    15
100
AcDbLine
 10
131.0768808125
 20
97.0486098358
 30
0.0
 11
131.8416139929
 21
97.5840812007
 31
0.0
  0
LINE
  5
2F5
330
1F
100
AcDbEntity
  8
0
  6
Continuous
 62
     7
370
    15
100
AcDbLine
 10
123.7303997277
 20
97.847494615
 30
0.0
 11
123.7303997277
 21
109.8318545537
 31
0.0
  0
ARC
  5
2F6
330
1F
100
AcDbEntity
  8
0
  6
Continuous
 62
     7
370
    15
100
AcDbCircle
 10
135.2303988394
 20
101.8474945975
 30
0.0
 40
13.99999999999999
100
AcDbArc
 50
143.8177127788
 51
145.2280559681
  0
LINE
  5
2F7
330
1F
100
AcDbEntity
  8
0
  6
Continuous
 62
     7
370
    15
100
AcDbLine
 10
123.9303993879
 20
97.5947772076
 30
0.0
 11
123.7303997277
 21
97.847494615
 31
0.0
  0
LINE
  5
2F8
330
1F
100
AcDbEntity
  8
0
  6
Continuous
 62
     7
370
    15
100
AcDbLine
 10
152.1303989811
 20
109.8318545537
 30
0.0
 11
152.1303989811
 21
97.847494615
 31
0.0
  0
ARC
  5
2F9
330
1F
100
AcDbEntity
  8
0
  6
Continuous
 62
     7
370
    15
100
AcDbCircle
 10
140.6303988394
 20
101.8474945975
 30
0.0
 40
13.99999999999998
100
AcDbArc
 50
34.7719440319
 51
36.1822872212
  0
LINE
  5
2FA
330
1F
100
AcDbEntity
  8
0
  6
Continuous
 62
     7
370
    15
100
AcDbLine
 10
152.1303989811
 20
97.847494615
 30
0.0
 11
151.9303988552
 21
97.5947772076
 31
0.0
  0
ARC
  5
2FB
330
1F
100
AcDbEntity
  8
0
  6
Continuous
 62
     7
370
    15
100
AcDbCircle
 10
137.9303988394
 20
101.8474945975
 30
0.0
 40
10.00000000000002
100
AcDbArc
 50
155.1642486217
 51
204.8357513783
  0
LWPOLYLINE
  5
2FC
330
1F
100
AcDbEntity
  8
0
  6
Continuous
 62
     7
370
    15
100
AcDbPolyline
 90
        9
 70
   128
 43
0.0
 10
128.4014853536
 20
97.4373010376
 10
128.4900094269
 20
97.4782717803
 10
128.5751304476
 20
97.5176681222
 10
128.6535794733
 20
97.5539759656
 10
128.7223408817
 20
97.5857999565
 10
128.7787715791
 20
97.6119172683
 10
128.8207034467
 20
97.6313241681
 10
128.8465234338
 20
97.6432748993
 10
128.8552424757
 20
97.6473103201
  0
ARC
  5
2FD
330
1F
100
AcDbEntity
  8
0
  6
Continuous
 62
     7
370
    15
100
AcDbCircle
 10
130.2165164738
 20
98.2773378994
 30
0.0
 40
1.500000000000036
100
AcDbArc
 50
204.8357513783
 51
305.0
  0
ARC
  5
2FE
330
1F
100
AcDbEntity
  8
0
  6
Continuous
 62
     7
370
    15
100
AcDbCircle
 10
137.9303988394
 20
101.8474945975
 30
0.0
 40
6.499999999999996
100
AcDbArc
 50
152.6622556608
 51
207.3377443392
  0
LINE
  5
2FF
330
1F
100
AcDbEntity
  8
0
  6
Continuous
 62
     7
370
    15
100
AcDbLine
 10
131.8416139929
 20
106.1109079437
 30
0.0
 11
131.0768808125
 21
106.6463793085
 31
0.0
  0
LINE
  5
300
330
1F
100
AcDbEntity
  8
0
  6
Continuous
 62
     7
370
    15
100
AcDbLine
 10
127.2460400014
 20
113.3474948274
 30
0.0
 11
128.6803997008
 21
113.3474948274
 31
0.0
  0
LINE
  5
301
330
1F
100
AcDbEntity
  8
0
  6
Continuous
 62
     7
370
    15
100
AcDbLine
 10
128.6803997008
 20
113.3474948274
 30
0.0
 11
128.6803997008
 21
113.1474951671
 31
0.0
  0
ARC
  5
302
330
1F
100
AcDbEntity
  8
0
  6
Continuous
 62
     7
370
    15
100
AcDbCircle
 10
135.2303988394
 20
101.8474945975
 30
0.0
 40
13.99999999999999
100
AcDbArc
 50
124.7719440319
 51
126.1822872212
  0
ARC
  5
303
330
1F
100
AcDbEntity
  8
0
  6
Continuous
 62
     7
370
    15
100
AcDbCircle
 10
137.9303988394
 20
101.8474945975
 30
0.0
 40
7.000000000000019
100
AcDbArc
 50
332.6622556608
 51
27.3377443392
  0
LWPOLYLINE
  5
304
330
1F
100
AcDbEntity
  8
0
  6
Continuous
 62
     7
370
    15
100
AcDbPolyline
 90
        9
 70
   128
 43
0.0
 10
144.1486031635
 20
98.6328505369
 10
144.0619522127
 20
98.677646687
 10
143.9786314385
 20
98.7207212874
 10
143.9018424953
 20
98.7604193778
 10
143.8345362785
 20
98.7952145205
 10
143.7792997694
 20
98.8237707333
 10
143.7382552194
 20
98.8449895212
 10
143.712980056
 20
98.8580559769
 10
143.7044456488
 20
98.8624681176
  0
LWPOLYLINE
  5
305
330
1F
100
AcDbEntity
  8
0
  6
Continuous
 62
     7
370
    15
100
AcDbPolyline
 90
        9
 70
   128
 43
0.0
 10
144.1486031635
 20
105.0621381418
 10
144.0619522127
 20
105.0173424573
 10
143.9786314385
 20
104.9742678569
 10
143.9018424953
 20
104.9345702322
 10
143.8345362785
 20
104.8997741581
 10
143.7792997694
 20
104.8712188767
 10
143.7382552194
 20
104.8499996231
 10
143.712980056
 20
104.8369331674
 10
143.7044456488
 20
104.8325214924
  0
LINE
  5
306
330
1F
100
AcDbEntity
  8
0
  6
Continuous
 62
     7
370
    15
100
AcDbLine
 10
144.3059724642
 20
97.9936573112
 30
0.0
 11
145.0707047133
 21
97.4581859463
 31
0.0
  0
LWPOLYLINE
  5
307
330
1F
100
AcDbEntity
  8
0
  6
Continuous
 62
     7
370
    15
100
AcDbPolyline
 90
        9
 70
   128
 43
0.0
 10
145.0707047133
 20
97.4581859463
 10
145.0147552768
 20
97.3782814962
 10
144.9609555656
 20
97.3014478495
 10
144.9113738144
 20
97.2306375315
 10
144.8679148106
 20
97.1685718668
 10
144.8322491141
 20
97.1176357397
 10
144.8057469333
 20
97.0797870231
 10
144.789427135
 20
97.0564797444
 10
144.7839164993
 20
97.0486098358
  0
LWPOLYLINE
  5
308
330
1F
100
AcDbEntity
  8
0
  6
Continuous
 62
     7
370
    15
100
AcDbPolyline
 90
        9
 70
   128
 43
0.0
 10
144.3059724642
 20
97.9936573112
 10
144.2500227949
 20
97.9137528611
 10
144.1962233166
 20
97.8369192143
 10
144.1466413325
 20
97.7661088964
 10
144.1031825615
 20
97.7040432317
 10
144.0675166322
 20
97.6531073374
 10
144.0410146842
 20
97.615258388
 10
144.0246946531
 20
97.5919511092
 10
144.0191842502
 20
97.5840812007
  0
LWPOLYLINE
  5
309
330
1F
100
AcDbEntity
  8
0
  6
Continuous
 62
     7
370
    15
100
AcDbPolyline
 90
        9
 70
   128
 43
0.0
 10
144.7839164993
 20
106.6463793085
 10
144.789427135
 20
106.6385096328
 10
144.8057469333
 20
106.615202354
 10
144.8322491141
 20
106.5773534046
 10
144.8679148106
 20
106.5264175104
 10
144.9113738144
 20
106.46435138
 10
144.9609555656
 20
106.393541062
 10
145.0147552768
 20
106.3167078809
 10
145.0707047133
 20
106.236803198
  0
LINE
  5
30A
330
1F
100
AcDbEntity
  8
0
  6
Continuous
 62
     7
370
    15
100
AcDbLine
 10
145.0707047133
 20
106.236803198
 30
0.0
 11
144.3059724642
 21
105.7013318332
 31
0.0
  0
LWPOLYLINE
  5
30B
330
1F
100
AcDbEntity
  8
0
  6
Continuous
 62
     7
370
    15
100
AcDbPolyline
 90
        9
 70
   128
 43
0.0
 10
144.0191842502
 20
106.1109079437
 10
144.0246946531
 20
106.1030382679
 10
144.0410146842
 20
106.0797309892
 10
144.0675166322
 20
106.0418820398
 10
144.1031825615
 20
105.9909461455
 10
144.1466413325
 20
105.9288800152
 10
144.1962233166
 20
105.8580696972
 10
144.2500227949
 20
105.7812365161
 10
144.3059724642
 20
105.7013318332
  0
LWPOLYLINE
  5
30C
330
1F
100
AcDbEntity
  8
0
  6
Continuous
 62
     7
370
    15
100
AcDbPolyline
 90
        9
 70
   128
 43
0.0
 10
128.8552424757
 20
106.0476785915
 10
128.8639615177
 20
106.0436441021
 10
128.8897833674
 20
106.0316933708
 10
128.931715235
 20
106.012286471
 10
128.9881459324
 20
105.9861684607
 10
129.0569073407
 20
105.954344237
 10
129.1353545038
 20
105.9180366264
 10
129.2204773872
 20
105.8786407502
 10
129.3090014605
 20
105.8376700075
  0
ARC
  5
30D
330
1F
100
AcDbEntity
  8
0
  6
Continuous
 62
     7
370
    15
100
AcDbCircle
 10
137.9303988394
 20
101.8474945975
 30
0.0
 40
9.500000000000012
100
AcDbArc
 50
155.1642486217
 51
204.8357513783
  0
LWPOLYLINE
  5
30E
330
1F
100
AcDbEntity
  8
0
  6
Continuous
 62
     7
370
    15
100
AcDbPolyline
 90
        9
 70
   128
 43
0.0
 10
128.8552424757
 20
97.6473103201
 10
128.8639615177
 20
97.6513455079
 10
128.8897833674
 20
97.6632962392
 10
128.931715235
 20
97.682703139
 10
128.9881459324
 20
97.7088204508
 10
129.0569073407
 20
97.7406446745
 10
129.1353545038
 20
97.7769525179
 10
129.2204773872
 20
97.816348627
 10
129.3090014605
 20
97.8573193697
  0
LWPOLYLINE
  5
30F
330
1F
100
AcDbEntity
  8
0
  6
Continuous
 62
     7
370
    15
100
AcDbPolyline
 90
        9
 70
   128
 43
0.0
 10
147.0055545632
 20
106.0476785915
 10
146.996835735
 20
106.0436441021
 10
146.9710143091
 20
106.0316933708
 10
146.9290825898
 20
106.012286471
 10
146.8726519833
 20
105.9861684607
 10
146.8038910916
 20
105.954344237
 10
146.7254423714
 20
105.9180366264
 10
146.6403205358
 20
105.8786407502
 10
146.5517967826
 20
105.8376700075
  0
ARC
  5
310
330
1F
100
AcDbEntity
  8
0
  6
Continuous
 62
     7
370
    15
100
AcDbCircle
 10
145.644281205
 20
105.4176512956
 30
0.0
 40
1.000000000000003
100
AcDbArc
 50
24.8357513783
 51
125.0
  0
ARC
  5
311
330
1F
100
AcDbEntity
  8
0
  6
Continuous
 62
     7
370
    15
100
AcDbCircle
 10
130.2165164738
 20
105.4176512956
 30
0.0
 40
1.000000000000002
100
AcDbArc
 50
55.0
 51
155.1642486217
  0
LWPOLYLINE
  5
312
330
1F
100
AcDbEntity
  8
0
  6
Continuous
 62
     7
370
    15
100
AcDbPolyline
 90
        9
 70
   128
 43
0.0
 10
130.7900930642
 20
106.236803198
 10
130.8460431991
 20
106.3167078809
 10
130.899841979
 20
106.393541062
 10
130.9494237302
 20
106.46435138
 10
130.9928829668
 20
106.5264175104
 10
131.0285488962
 20
106.5773534046
 10
131.0550506113
 20
106.615202354
 10
131.0713711081
 20
106.6385096328
 10
131.0768808125
 20
106.6463793085
  0
LWPOLYLINE
  5
313
330
1F
100
AcDbEntity
  8
0
  6
Continuous
 62
     7
370
    15
100
AcDbPolyline
 90
        9
 70
   128
 43
0.0
 10
131.0768808125
 20
97.0486098358
 10
131.0713711081
 20
97.0564797444
 10
131.0550506113
 20
97.0797870231
 10
131.0285488962
 20
97.1176357397
 10
130.9928829668
 20
97.1685718668
 10
130.9494237302
 20
97.2306375315
 10
130.899841979
 20
97.3014478495
 10
130.8460431991
 20
97.3782814962
 10
130.7900930642
 20
97.4581859463
  0
LINE
  5
314
330
1F
100
AcDbEntity
  8
0
  6
Continuous
 62
     7
370
    15
100
AcDbLine
 10
130.7900930642
 20
97.4581859463
 30
0.0
 11
131.5548253132
 21
97.9936573112
 31
0.0
  0
LWPOLYLINE
  5
315
330
1F
100
AcDbEntity
  8
0
  6
Continuous
 62
     7
370
    15
100
AcDbPolyline
 90
        9
 70
   128
 43
0.0
 10
131.8416139929
 20
97.5840812007
 10
131.8361033572
 20
97.5919511092
 10
131.8197828604
 20
97.615258388
 10
131.7932811452
 20
97.6531073374
 10
131.7576152159
 20
97.7040432317
 10
131.7141559793
 20
97.7661088964
 10
131.6645742281
 20
97.8369192143
 10
131.6107745169
 20
97.9137528611
 10
131.5548253132
 20
97.9936573112
  0
ARC
  5
316
330
1F
100
AcDbEntity
  8
0
  6
Continuous
 62
     7
370
    15
100
AcDbCircle
 10
130.2165164738
 20
98.2773378994
 30
0.0
 40
1.000000000000028
100
AcDbArc
 50
204.8357513783
 51
305.0
  0
ARC
  5
317
330
1F
100
AcDbEntity
  8
0
  6
Continuous
 62
     7
370
    15
100
AcDbCircle
 10
144.5927605782
 20
105.2917559205
 30
0.0
 40
0.4999999999999848
100
AcDbArc
 50
125.0
 51
207.3377443392
  0
LINE
  5
318
330
1F
100
AcDbEntity
  8
0
  6
Continuous
 62
     7
370
    15
100
AcDbLine
 10
131.5548253132
 20
105.7013318332
 30
0.0
 11
130.7900930642
 21
106.236803198
 31
0.0
  0
LWPOLYLINE
  5
319
330
1F
100
AcDbEntity
  8
0
  6
Continuous
 62
     7
370
    15
100
AcDbPolyline
 90
        9
 70
   128
 43
0.0
 10
131.5548253132
 20
105.7013318332
 10
131.6107745169
 20
105.7812365161
 10
131.6645742281
 20
105.8580696972
 10
131.7141559793
 20
105.9288800152
 10
131.7576152159
 20
105.9909461455
 10
131.7932811452
 20
106.0418820398
 10
131.8197828604
 20
106.0797309892
 10
131.8361033572
 20
106.1030382679
 10
131.8416139929
 20
106.1109079437
  0
LWPOLYLINE
  5
31A
330
1F
100
AcDbEntity
  8
0
  6
Continuous
 62
     7
370
    15
100
AcDbPolyline
 90
        9
 70
   128
 43
0.0
 10
147.0055545632
 20
97.6473103201
 10
146.996835735
 20
97.6513455079
 10
146.9710143091
 20
97.6632962392
 10
146.9290825898
 20
97.682703139
 10
146.8726519833
 20
97.7088204508
 10
146.8038910916
 20
97.7406446745
 10
146.7254423714
 20
97.7769525179
 10
146.6403205358
 20
97.816348627
 10
146.5517967826
 20
97.8573193697
  0
ARC
  5
31B
330
1F
100
AcDbEntity
  8
0
  6
Continuous
 62
     7
370
    15
100
AcDbCircle
 10
137.9303988394
 20
101.8474945975
 30
0.0
 40
9.500000000000009
100
AcDbArc
 50
335.1642486217
 51
24.8357513783
  0
ARC
  5
31C
330
1F
100
AcDbEntity
  8
0
  6
Continuous
 62
     7
370
    15
100
AcDbCircle
 10
137.9303988394
 20
101.8474945975
 30
0.0
 40
7.000000000000024
100
AcDbArc
 50
152.6622556608
 51
207.3377443392
  0
LWPOLYLINE
  5
31D
330
1F
100
AcDbEntity
  8
0
  6
Continuous
 62
     7
370
    15
100
AcDbPolyline
 90
        9
 70
   128
 43
0.0
 10
131.712194614
 20
105.0621381418
 10
131.7988457976
 20
105.0173424573
 10
131.8821665718
 20
104.9742678569
 10
131.9589550494
 20
104.9345702322
 10
132.0262617318
 20
104.8997741581
 10
132.0814975424
 20
104.8712188767
 10
132.1225427909
 20
104.8499996231
 10
132.1478179543
 20
104.8369331674
 10
132.156351663
 20
104.8325214924
  0
LWPOLYLINE
  5
31E
330
1F
100
AcDbEntity
  8
0
  6
Continuous
 62
     7
370
    15
100
AcDbPolyline
 90
        9
 70
   128
 43
0.0
 10
131.712194614
 20
98.6328505369
 10
131.7988457976
 20
98.677646687
 10
131.8821665718
 20
98.7207212874
 10
131.9589550494
 20
98.7604193778
 10
132.0262617318
 20
98.7952145205
 10
132.0814975424
 20
98.8237707333
 10
132.1225427909
 20
98.8449895212
 10
132.1478179543
 20
98.8580559769
 10
132.156351663
 20
98.8624681176
  0
ARC
  5
31F
330
1F
100
AcDbEntity
  8
0
  6
Continuous
 62
     7
370
    15
100
AcDbCircle
 10
144.5927605782
 20
98.4032332745
 30
0.0
 40
0.4999999999999964
100
AcDbArc
 50
152.6622556608
 51
235.0
  0
ARC
  5
320
330
1F
100
AcDbEntity
  8
0
  6
Continuous
 62
     7
370
    15
100
AcDbCircle
 10
131.2680371006
 20
105.2917559205
 30
0.0
 40
0.4999999999999848
100
AcDbArc
 50
332.6622556608
 51
55.0
  0
ARC
  5
321
330
1F
100
AcDbEntity
  8
0
  6
Continuous
 62
     7
370
    15
100
AcDbCircle
 10
145.644281205
 20
98.2773378994
 30
0.0
 40
1.000000000000028
100
AcDbArc
 50
235.0
 51
335.1642486217
  0
ARC
  5
322
330
1F
100
AcDbEntity
  8
0
  6
Continuous
 62
     7
370
    15
100
AcDbCircle
 10
131.2680371006
 20
98.4032332745
 30
0.0
 40
0.4999999999999848
100
AcDbArc
 50
305.0
 51
27.3377443392
  0
ARC
  5
323
330
1F
100
AcDbEntity
  8
0
  6
Continuous
 62
     7
370
    15
100
AcDbCircle
 10
140.7443915133
 20
113.8474945975
 30
0.0
 40
2.0
100
AcDbArc
 50
270.0
 51
321.3178125465
  0
ARC
  5
324
330
1F
100
AcDbEntity
  8
0
  6
Continuous
 62
     7
370
    15
100
AcDbCircle
 10
143.8668905125
 20
111.3474945975
 30
0.0
 40
2.0
100
AcDbArc
 50
90.0
 51
141.3178125465
  0
LINE
  5
325
330
1F
100
AcDbEntity
  8
0
  6
Continuous
 62
     7
370
    15
100
AcDbLine
 10
147.1803988333
 20
113.3474948274
 30
0.0
 11
143.8668904247
 21
113.3474948274
 31
0.0
  0
LINE
  5
326
330
1F
100
AcDbEntity
  8
0
  6
Continuous
 62
     7
370
    15
100
AcDbLine
 10
140.6887416615
 20
111.8474955128
 30
0.0
 11
140.7443914449
 21
111.8474955128
 31
0.0
  0
ARC
  5
327
330
1F
100
AcDbEntity
  8
0
  6
Continuous
 62
     7
370
    15
100
AcDbCircle
 10
146.3660743574
 20
93.3474945975
 30
0.0
 40
3.000000000000014
100
AcDbArc
 50
270.0
 51
359.845992817
  0
LINE
  5
328
330
1F
100
AcDbEntity
  8
0
  6
Continuous
 62
     7
370
    15
100
AcDbLine
 10
143.8668904247
 20
90.3474947827
 30
0.0
 11
146.3660743556
 21
90.3474947827
 31
0.0
  0
ARC
  5
329
330
1F
100
AcDbEntity
  8
0
  6
Continuous
 62
     7
370
    15
100
AcDbCircle
 10
143.8668905125
 20
92.3474945975
 30
0.0
 40
2.000000000000014
100
AcDbArc
 50
218.6821874535
 51
270.0
  0
ARC
  5
32A
330
1F
100
AcDbEntity
  8
0
  6
Continuous
 62
     7
370
    15
100
AcDbCircle
 10
152.3660526825
 20
93.3313670224
 30
0.0
 40
2.999999999999995
100
AcDbArc
 50
146.900066766
 51
179.845992817
  0
ARC
  5
32B
330
1F
100
AcDbEntity
  8
0
  6
Continuous
 62
     7
370
    15
100
AcDbCircle
 10
140.7443915133
 20
89.8474945975
 30
0.0
 40
2.000000000000014
100
AcDbArc
 50
38.6821874535
 51
90.0
  0
LINE
  5
32C
330
1F
100
AcDbEntity
  8
0
  6
Continuous
 62
     7
370
    15
100
AcDbLine
 10
149.8528945612
 20
94.9696699663
 30
0.0
 11
150.1519042885
 21
95.3474945545
 31
0.0
  0
ARC
  5
32D
330
1F
100
AcDbEntity
  8
0
  6
Continuous
 62
     7
370
    15
100
AcDbCircle
 10
123.4947449963
 20
93.3313670224
 30
0.0
 40
2.999999999999975
100
AcDbArc
 50
0.154007183
 51
33.099933234
  0
LINE
  5
32E
330
1F
100
AcDbEntity
  8
0
  6
Continuous
 62
     7
370
    15
100
AcDbLine
 10
129.4947239457
 20
90.3474947827
 30
0.0
 11
131.9939075856
 21
90.3474947827
 31
0.0
  0
ARC
  5
32F
330
1F
100
AcDbEntity
  8
0
  6
Continuous
 62
     7
370
    15
100
AcDbCircle
 10
129.4947233214
 20
93.3474945975
 30
0.0
 40
3.0
100
AcDbArc
 50
180.154007183
 51
270.0
  0
ARC
  5
330
330
1F
100
AcDbEntity
  8
0
  6
Continuous
 62
     7
370
    15
100
AcDbCircle
 10
131.9939071663
 20
92.3474945975
 30
0.0
 40
2.000000000000007
100
AcDbArc
 50
270.0
 51
321.3178125465
  0
ARC
  5
331
330
1F
100
AcDbEntity
  8
0
  6
Continuous
 62
     7
370
    15
100
AcDbCircle
 10
135.1164061655
 20
89.8474945975
 30
0.0
 40
2.000000000000014
100
AcDbArc
 50
90.0
 51
141.3178125465
  0
LINE
  5
332
330
1F
100
AcDbEntity
  8
0
  6
Continuous
 62
     7
370
    15
100
AcDbLine
 10
126.0079025178
 20
94.9696699663
 30
0.0
 11
125.7088939546
 21
95.3474945545
 31
0.0
  0
ARC
  5
333
330
1F
100
AcDbEntity
  8
0
  6
Continuous
 62
     7
370
    15
100
AcDbCircle
 10
135.1164061655
 20
113.8474945975
 30
0.0
 40
2.0
100
AcDbArc
 50
218.6821874535
 51
270.0
  0
ARC
  5
334
330
1F
100
AcDbEntity
  8
0
  6
Continuous
 62
     7
370
    15
100
AcDbCircle
 10
131.9939071663
 20
111.3474945975
 30
0.0
 40
2.00000000000002
100
AcDbArc
 50
38.6821874535
 51
90.0
  0
LINE
  5
335
330
1F
100
AcDbEntity
  8
0
  6
Continuous
 62
     7
370
    15
100
AcDbLine
 10
131.9939075856
 20
113.3474948274
 30
0.0
 11
128.6803997008
 21
113.3474948274
 31
0.0
  0
LINE
  5
336
330
1F
100
AcDbEntity
  8
0
  6
Continuous
 62
     7
370
    15
100
AcDbLine
 10
135.1164058669
 20
111.8474955128
 30
0.0
 11
135.172056116
 21
111.8474955128
 31
0.0
  0
CIRCLE
  5
337
330
1F
100
AcDbEntity
  8
0
  6
Continuous
 62
     7
370
    15
100
AcDbCircle
 10
131.4303988394
 20
92.5974945975
 30
0.0
 40
1.432283538938782
  0
CIRCLE
  5
338
330
1F
100
AcDbEntity
  8
0
  6
Continuous
 62
     7
370
    15
100
AcDbCircle
 10
131.4303988394
 20
92.5974945975
 30
0.0
 40
1.135684019913869
  0
LINE
  5
339
330
1F
100
AcDbEntity
  8
0
  6
Continuous
 62
     7
370
    15
100
AcDbLine
 10
130.5702413319
 20
92.6981314241
 30
0.0
 11
131.0874736755
 21
93.3927319401
 31
0.0
  0
LINE
  5
33A
330
1F
100
AcDbEntity
  8
0
  6
Continuous
 62
     7
370
    15
100
AcDbLine
 10
130.9131654797
 20
91.9028940534
 30
0.0
 11
130.5702413319
 21
92.6981314241
 31
0.0
  0
LINE
  5
33B
330
1F
100
AcDbEntity
  8
0
  6
Continuous
 62
     7
370
    15
100
AcDbLine
 10
131.7733238338
 20
91.8022571986
 30
0.0
 11
130.9131654797
 21
91.9028940534
 31
0.0
  0
LINE
  5
33C
330
1F
100
AcDbEntity
  8
0
  6
Continuous
 62
     7
370
    15
100
AcDbLine
 10
132.2905571087
 20
92.4968577146
 30
0.0
 11
131.7733238338
 21
91.8022571986
 31
0.0
  0
LINE
  5
33D
330
1F
100
AcDbEntity
  8
0
  6
Continuous
 62
     7
370
    15
100
AcDbLine
 10
131.9476320295
 20
93.2920950854
 30
0.0
 11
132.2905571087
 21
92.4968577146
 31
0.0
  0
LINE
  5
33E
330
1F
100
AcDbEntity
  8
0
  6
Continuous
 62
     7
370
    15
100
AcDbLine
 10
131.0874736755
 20
93.3927319401
 30
0.0
 11
131.9476320295
 21
93.2920950854
 31
0.0
  0
CIRCLE
  5
33F
330
1F
100
AcDbEntity
  8
0
  6
Continuous
 62
     7
370
    15
100
AcDbCircle
 10
131.4303988394
 20
92.5974945975
 30
0.0
 40
1.843199038049854
  0
CIRCLE
  5
340
330
1F
100
AcDbEntity
  8
0
  6
Continuous
 62
     7
370
    15
100
AcDbCircle
 10
131.4303988394
 20
92.5974945975
 30
0.0
 40
2.249999999999988
  0
ARC
  5
341
330
1F
100
AcDbEntity
  8
0
  6
Continuous
 62
     7
370
    15
100
AcDbCircle
 10
131.4303988394
 20
92.5974945975
 30
0.0
 40
0.7500000000000027
100
AcDbArc
 50
83.3268446696
 51
143.3268446696
  0
ARC
  5
342
330
1F
100
AcDbEntity
  8
0
  6
Continuous
 62
     7
370
    15
100
AcDbCircle
 10
131.4303988394
 20
92.5974945975
 30
0.0
 40
0.7500000000000027
100
AcDbArc
 50
143.3268446696
 51
203.3268446696
  0
ARC
  5
343
330
1F
100
AcDbEntity
  8
0
  6
Continuous
 62
     7
370
    15
100
AcDbCircle
 10
131.4303988394
 20
92.5974945975
 30
0.0
 40
0.7500000000000121
100
AcDbArc
 50
203.3268446696
 51
263.3268446696
  0
ARC
  5
344
330
1F
100
AcDbEntity
  8
0
  6
Continuous
 62
     7
370
    15
100
AcDbCircle
 10
131.4303988394
 20
92.5974945975
 30
0.0
 40
0.7499999999999883
100
AcDbArc
 50
323.3268446696
 51
23.3268446696
  0
ARC
  5
345
330
1F
100
AcDbEntity
  8
0
  6
Continuous
 62
     7
370
    15
100
AcDbCircle
 10
131.4303988394
 20
92.5974945975
 30
0.0
 40
0.7500000000000121
100
AcDbArc
 50
263.3268446696
 51
323.3268446696
  0
ARC
  5
346
330
1F
100
AcDbEntity
  8
0
  6
Continuous
 62
     7
370
    15
100
AcDbCircle
 10
131.4303988394
 20
92.5974945975
 30
0.0
 40
0.7499999999999948
100
AcDbArc
 50
23.3268446696
 51
83.3268446696
  0
LINE
  5
347
330
1F
100
AcDbEntity
  8
0
  6
Continuous
 62
     7
370
    15
100
AcDbLine
 10
122.930399224
 20
99.8206062631
 30
0.0
 11
120.4303997455
 21
99.8206062631
 31
0.0
  0
LINE
  5
348
330
1F
100
AcDbEntity
  8
0
  6
Continuous
 62
     7
370
    15
100
AcDbLine
 10
122.930399224
 20
103.8706059025
 30
0.0
 11
120.4303997455
 21
103.8706059025
 31
0.0
  0
LINE
  5
349
330
1F
100
AcDbEntity
  8
0
  6
Continuous
 62
     7
370
    15
100
AcDbLine
 10
122.930399224
 20
99.8206062631
 30
0.0
 11
122.930399224
 21
99.9225553514
 31
0.0
  0
LINE
  5
34A
330
1F
100
AcDbEntity
  8
0
  6
Continuous
 62
     7
370
    15
100
AcDbLine
 10
122.930399224
 20
103.7686568142
 30
0.0
 11
122.930399224
 21
103.8706059025
 31
0.0
  0
LINE
  5
34B
330
1F
100
AcDbEntity
  8
0
  6
Continuous
 62
     7
370
    15
100
AcDbLine
 10
120.4303997455
 20
99.8206062631
 30
0.0
 11
120.4303997455
 21
103.8706059025
 31
0.0
  0
LINE
  5
34C
330
1F
100
AcDbEntity
  8
0
  6
Continuous
 62
     7
370
    15
100
AcDbLine
 10
120.4303997455
 20
105.8974944444
 30
0.0
 11
122.930399224
 21
105.8974944444
 31
0.0
  0
LINE
  5
34D
330
1F
100
AcDbEntity
  8
0
  6
Continuous
 62
     7
370
    15
100
AcDbLine
 10
122.930399224
 20
103.8706059025
 30
0.0
 11
122.930399224
 21
103.9216274784
 31
0.0
  0
LINE
  5
34E
330
1F
100
AcDbEntity
  8
0
  6
Continuous
 62
     7
370
    15
100
AcDbLine
 10
122.930399224
 20
105.8464719371
 30
0.0
 11
122.930399224
 21
105.8974944444
 31
0.0
  0
LINE
  5
34F
330
1F
100
AcDbEntity
  8
0
  6
Continuous
 62
     7
370
    15
100
AcDbLine
 10
120.4303997455
 20
103.8706059025
 30
0.0
 11
120.4303997455
 21
105.8974944444
 31
0.0
  0
LINE
  5
350
330
1F
100
AcDbEntity
  8
0
  6
Continuous
 62
     7
370
    15
100
AcDbLine
 10
122.930399224
 20
97.7974951656
 30
0.0
 11
120.4303997455
 21
97.7974951656
 31
0.0
  0
LINE
  5
351
330
1F
100
AcDbEntity
  8
0
  6
Continuous
 62
     7
370
    15
100
AcDbLine
 10
122.930399224
 20
97.7974951656
 30
0.0
 11
122.930399224
 21
97.8484222123
 31
0.0
  0
LINE
  5
352
330
1F
100
AcDbEntity
  8
0
  6
Continuous
 62
     7
370
    15
100
AcDbLine
 10
122.930399224
 20
99.7696796821
 30
0.0
 11
122.930399224
 21
99.8206062631
 31
0.0
  0
LINE
  5
353
330
1F
100
AcDbEntity
  8
0
  6
Continuous
 62
     7
370
    15
100
AcDbLine
 10
120.4303997455
 20
97.7974951656
 30
0.0
 11
120.4303997455
 21
99.8206062631
 31
0.0
  0
LINE
  5
354
330
1F
100
AcDbEntity
  8
0
  6
Continuous
 62
     7
370
    15
100
AcDbLine
 10
115.9303980766
 20
102.721678877
 30
0.0
 11
115.9303980766
 21
103.5974946262
 31
0.0
  0
LINE
  5
355
330
1F
100
AcDbEntity
  8
0
  6
Continuous
 62
     7
370
    15
100
AcDbLine
 10
115.9303980766
 20
100.0974945182
 30
0.0
 11
115.9303980766
 21
102.721678877
 31
0.0
  0
LINE
  5
356
330
1F
100
AcDbEntity
  8
0
  6
Continuous
 62
     7
370
    15
100
AcDbLine
 10
113.4304004608
 20
100.3474945591
 30
0.0
 11
113.4304004608
 21
103.3474950509
 31
0.0
  0
LINE
  5
357
330
1F
100
AcDbEntity
  8
0
  6
Continuous
 62
     7
370
    15
100
AcDbLine
 10
118.4303994177
 20
102.721678877
 30
0.0
 11
118.4303994177
 21
103.5974946262
 31
0.0
  0
LINE
  5
358
330
1F
100
AcDbEntity
  8
0
  6
Continuous
 62
     7
370
    15
100
AcDbLine
 10
118.4303994177
 20
100.0974945182
 30
0.0
 11
118.4303994177
 21
102.721678877
 31
0.0
  0
LINE
  5
359
330
1F
100
AcDbEntity
  8
0
  6
Continuous
 62
     7
370
    15
100
AcDbLine
 10
122.930399224
 20
101.847494805
 30
0.0
 11
122.930399224
 21
103.7686568142
 31
0.0
  0
LINE
  5
35A
330
1F
100
AcDbEntity
  8
0
  6
Continuous
 62
     7
370
    15
100
AcDbLine
 10
122.930399224
 20
103.9216274784
 30
0.0
 11
122.930399224
 21
105.8464719371
 31
0.0
  0
LINE
  5
35B
330
1F
100
AcDbEntity
  8
0
  6
Continuous
 62
     7
370
    15
100
AcDbLine
 10
122.930399224
 20
97.8484222123
 30
0.0
 11
122.930399224
 21
99.7696796821
 31
0.0
  0
LINE
  5
35C
330
1F
100
AcDbEntity
  8
0
  6
Continuous
 62
     7
370
    15
100
AcDbLine
 10
122.930399224
 20
99.9225553514
 30
0.0
 11
122.930399224
 21
101.847494805
 31
0.0
  0
LINE
  5
35D
330
1F
100
AcDbEntity
  8
0
  6
Continuous
 62
     7
370
    15
100
AcDbLine
 10
152.9303990191
 20
101.847494805
 30
0.0
 11
152.9303990191
 21
103.4379264729
 31
0.0
  0
LINE
  5
35E
330
1F
100
AcDbEntity
  8
0
  6
Continuous
 62
     7
370
    15
100
AcDbLine
 10
152.9303990191
 20
103.5983607562
 30
0.0
 11
152.9303990191
 21
105.8212154002
 31
0.0
  0
LINE
  5
35F
330
1F
100
AcDbEntity
  8
0
  6
Continuous
 62
     7
370
    15
100
AcDbLine
 10
152.9303990191
 20
97.847494615
 30
0.0
 11
152.9303990191
 21
99.4642058776
 31
0.0
  0
LINE
  5
360
330
1F
100
AcDbEntity
  8
0
  6
Continuous
 62
     7
370
    15
100
AcDbLine
 10
152.9303990191
 20
99.6083084883
 30
0.0
 11
152.9303990191
 21
101.847494805
 31
0.0
  0
DIMENSION
  5
361
330
1F
100
AcDbEntity
  8
0
  6
Continuous
 62
     7
370
     0
100
AcDbDimension
  2
_D_7
 10
131.4303988394
 20
118.8370664009
 30
0.0
 11
137.9303988394
 21
118.8370664009
 31
0.0
 70
   160
  1
<>
 71
     2
 42
-1.0
  3
SLDDIMSTYLE0
100
AcDbAlignedDimension
 13
144.4303988394
 23
115.8474945975
 33
0.0
 14
131.4303988394
 24
115.8474945975
 34
0.0
100
AcDbRotatedDimension
  0
DIMENSION
  5
36B
330
1F
100
AcDbEntity
  8
0
  6
Continuous
 62
     7
370
     0
100
AcDbDimension
  2
_D_8
 10
152.1303988394
 20
127.1533340452
 30
0.0
 11
137.9303988394
 21
127.1533340452
 31
0.0
 70
   160
  1
<>
 71
     2
 42
-1.0
  3
SLDDIMSTYLE5
100
AcDbAlignedDimension
 13
123.7303988394
 23
109.8318543088
 33
0.0
 14
152.1303988394
 24
109.8318543088
 34
0.0
100
AcDbRotatedDimension
  0
DIMENSION
  5
376
330
1F
100
AcDbEntity
  8
0
  6
Continuous
 62
     7
370
     0
100
AcDbDimension
  2
_D_9
 10
168.1378129329
 20
85.3474945975
 30
0.0
 11
168.1378129329
 21
100.3782547646
 31
0.0
 70
   160
  1
<>
 71
     2
 42
-1.0
  3
SLDDIMSTYLE0
100
AcDbAlignedDimension
 13
148.6147585507
 23
113.3474945975
 33
0.0
 14
161.9303988394
 24
85.3474945975
 34
0.0
 50
90.0
100
AcDbRotatedDimension
  0
INSERT
  5
38B
330
1F
100
AcDbEntity
  8
0
  6
Continuous
 62
     7
370
     0
100
AcDbBlockReference
  2
SW_CENTERMARKSYMBOL_2
 10
144.4303988394
 20
92.5974945975
 30
0.0
  0
INSERT
  5
397
330
1F
100
AcDbEntity
  8
0
  6
Continuous
 62
     7
370
     0
100
AcDbBlockReference
  2
SW_CENTERMARKSYMBOL_3
 10
131.4303988394
 20
92.5974945975
 30
0.0
  0
INSERT
  5
3A3
330
1F
100
AcDbEntity
  8
0
  6
Continuous
 62
     7
370
     0
100
AcDbBlockReference
  2
SW_CENTERMARKSYMBOL_4
 10
137.9303988394
 20
101.8474945975
 30
0.0
  0
INSERT
  5
3AF
330
1F
100
AcDbEntity
  8
0
  6
Continuous
 62
     7
370
     0
100
AcDbBlockReference
  2
SW_CENTERMARKSYMBOL_5
 10
144.4303988394
 20
111.0974945975
 30
0.0
  0
INSERT
  5
3BB
330
1F
100
AcDbEntity
  8
0
  6
Continuous
 62
     7
370
     0
100
AcDbBlockReference
  2
SW_CENTERMARKSYMBOL_6
 10
131.4303988394
 20
111.0974945975
 30
0.0
  0
LINE
  5
3BC
330
1F
100
AcDbEntity
  8
0
  6
Continuous
 62
     7
370
    15
100
AcDbLine
 10
40.9822324791
 20
110.4780881123
 30
0.0
 11
37.982232453
 21
110.4780881123
 31
0.0
  0
LINE
  5
3BD
330
1F
100
AcDbEntity
  8
0
  6
Continuous
 62
     7
370
    15
100
AcDbLine
 10
79.9822332838
 20
110.5291618423
 30
0.0
 11
40.9822324791
 21
110.5291618423
 31
0.0
  0
LINE
  5
3BE
330
1F
100
AcDbEntity
  8
0
  6
Continuous
 62
     7
370
    15
100
AcDbLine
 10
91.9822315255
 20
105.8474945293
 30
0.0
 11
82.9822319129
 21
105.8474945293
 31
0.0
  0
LINE
  5
3BF
330
1F
100
AcDbEntity
  8
0
  6
Continuous
 62
     7
370
    15
100
AcDbLine
 10
82.9822319129
 20
97.847494615
 30
0.0
 11
91.9822315255
 21
97.847494615
 31
0.0
  0
ARC
  5
3C0
330
1F
100
AcDbEntity
  8
0
  6
Continuous
 62
     7
370
    15
100
AcDbCircle
 10
39.1875402393
 20
91.3474945975
 30
0.0
 40
1.0
100
AcDbArc
 50
216.3843518158
 51
270.0
  0
ARC
  5
3C1
330
1F
100
AcDbEntity
  8
0
  6
Continuous
 62
     7
370
    15
100
AcDbCircle
 10
39.1875402393
 20
93.8474945975
 30
0.0
 40
1.0
100
AcDbArc
 50
90.0
 51
143.6156481842
  0
LINE
  5
3C2
330
1F
100
AcDbEntity
  8
0
  6
Continuous
 62
     7
370
    15
100
AcDbLine
 10
39.4822324661
 20
94.8474945889
 30
0.0
 11
39.1875402338
 21
94.8474945889
 31
0.0
  0
LINE
  5
3C3
330
1F
100
AcDbEntity
  8
0
  6
Continuous
 62
     7
370
    15
100
AcDbLine
 10
39.1875402338
 20
90.3474947827
 30
0.0
 11
39.4822324661
 21
90.3474947827
 31
0.0
  0
LINE
  5
3C4
330
1F
100
AcDbEntity
  8
0
  6
Continuous
 62
     7
370
    15
100
AcDbLine
 10
38.3824843948
 20
94.4406936305
 30
0.0
 11
38.0797046737
 21
94.0297781471
 31
0.0
  0
LINE
  5
3C5
330
1F
100
AcDbEntity
  8
0
  6
Continuous
 62
     7
370
    15
100
AcDbLine
 10
38.0797046737
 20
91.1652111372
 30
0.0
 11
38.3824843948
 21
90.7542955519
 31
0.0
  0
ARC
  5
3C6
330
1F
100
AcDbEntity
  8
0
  6
Continuous
 62
     7
370
    15
100
AcDbCircle
 10
38.4822324791
 20
93.7331786174
 30
0.0
 40
0.5
100
AcDbArc
 50
143.6156481842
 51
180.0
  0
ARC
  5
3C7
330
1F
100
AcDbEntity
  8
0
  6
Continuous
 62
     7
370
    15
100
AcDbCircle
 10
38.4822324791
 20
91.4618105776
 30
0.0
 40
0.5
100
AcDbArc
 50
180.0
 51
216.3843518158
  0
LINE
  5
3C8
330
1F
100
AcDbEntity
  8
0
  6
Continuous
 62
     7
370
    15
100
AcDbLine
 10
81.4822325983
 20
90.3474947827
 30
0.0
 11
81.7769254127
 21
90.3474947827
 31
0.0
  0
LINE
  5
3C9
330
1F
100
AcDbEntity
  8
0
  6
Continuous
 62
     7
370
    15
100
AcDbLine
 10
81.7769254127
 20
94.8474945889
 30
0.0
 11
81.4822325983
 21
94.8474945889
 31
0.0
  0
ARC
  5
3CA
330
1F
100
AcDbEntity
  8
0
  6
Continuous
 62
     7
370
    15
100
AcDbCircle
 10
81.776924719
 20
93.8474945975
 30
0.0
 40
1.0
100
AcDbArc
 50
36.3843518158
 51
90.0
  0
ARC
  5
3CB
330
1F
100
AcDbEntity
  8
0
  6
Continuous
 62
     7
370
    15
100
AcDbCircle
 10
81.776924719
 20
91.3474945975
 30
0.0
 40
1.0
100
AcDbArc
 50
270.0
 51
323.6156481842
  0
LINE
  5
3CC
330
1F
100
AcDbEntity
  8
0
  6
Continuous
 62
     7
370
    15
100
AcDbLine
 10
82.5819792726
 20
90.7542955519
 30
0.0
 11
82.8847596922
 21
91.1652111372
 31
0.0
  0
LINE
  5
3CD
330
1F
100
AcDbEntity
  8
0
  6
Continuous
 62
     7
370
    15
100
AcDbLine
 10
82.8847596922
 20
94.0297781471
 30
0.0
 11
82.5819792726
 21
94.4406936305
 31
0.0
  0
ARC
  5
3CE
330
1F
100
AcDbEntity
  8
0
  6
Continuous
 62
     7
370
    15
100
AcDbCircle
 10
82.4822324791
 20
91.4618105776
 30
0.0
 40
0.5000000000000089
100
AcDbArc
 50
323.6156481842
 51
0.0
  0
ARC
  5
3CF
330
1F
100
AcDbEntity
  8
0
  6
Continuous
 62
     7
370
    15
100
AcDbCircle
 10
82.4822324791
 20
93.7331786174
 30
0.0
 40
0.5000000000000006
100
AcDbArc
 50
0.0
 51
36.3843518158
  0
ARC
  5
3D0
330
1F
100
AcDbEntity
  8
0
  6
Continuous
 62
     7
370
    15
100
AcDbCircle
 10
39.1875402393
 20
112.3474945975
 30
0.0
 40
1.0
100
AcDbArc
 50
90.0
 51
143.6156481842
  0
LINE
  5
3D1
330
1F
100
AcDbEntity
  8
0
  6
Continuous
 62
     7
370
    15
100
AcDbLine
 10
39.4822324661
 20
113.3474948274
 30
0.0
 11
39.1875402338
 21
113.3474948274
 31
0.0
  0
LINE
  5
3D2
330
1F
100
AcDbEntity
  8
0
  6
Continuous
 62
     7
370
    15
100
AcDbLine
 10
38.3824843948
 20
112.9406931268
 30
0.0
 11
38.0797046737
 21
112.5297787057
 31
0.0
  0
ARC
  5
3D3
330
1F
100
AcDbEntity
  8
0
  6
Continuous
 62
     7
370
    15
100
AcDbCircle
 10
38.4822324791
 20
112.2331786174
 30
0.0
 40
0.5000000000000002
100
AcDbArc
 50
143.6156481842
 51
180.0
  0
LINE
  5
3D4
330
1F
100
AcDbEntity
  8
0
  6
Continuous
 62
     7
370
    15
100
AcDbLine
 10
40.9822324791
 20
110.3605086373
 30
0.0
 11
37.982232453
 21
110.3605086373
 31
0.0
  0
LINE
  5
3D5
330
1F
100
AcDbEntity
  8
0
  6
Continuous
 62
     7
370
    15
100
AcDbLine
 10
40.9822324791
 20
110.3605086373
 30
0.0
 11
40.9822324791
 21
109.8318545537
 31
0.0
  0
LINE
  5
3D6
330
1F
100
AcDbEntity
  8
0
  6
Continuous
 62
     7
370
    15
100
AcDbLine
 10
38.182232579
 20
109.8318545537
 30
0.0
 11
40.9822324791
 21
109.8318545537
 31
0.0
  0
ARC
  5
3D7
330
1F
100
AcDbEntity
  8
0
  6
Continuous
 62
     7
370
    15
100
AcDbCircle
 10
26.6822324791
 20
101.8474945975
 30
0.0
 40
13.99999999999985
100
AcDbArc
 50
34.7719440319
 51
36.1822872212
  0
LINE
  5
3D8
330
1F
100
AcDbEntity
  8
0
  6
Continuous
 62
     7
370
    15
100
AcDbLine
 10
37.982232453
 20
110.3605086373
 30
0.0
 11
37.982232453
 21
110.1124806718
 31
0.0
  0
LINE
  5
3D9
330
1F
100
AcDbEntity
  8
0
  6
Continuous
 62
     7
370
    15
100
AcDbLine
 10
38.182232579
 20
109.8318545537
 30
0.0
 11
38.182232579
 21
97.847494615
 31
0.0
  0
LINE
  5
3DA
330
1F
100
AcDbEntity
  8
0
  6
Continuous
 62
     7
370
    15
100
AcDbLine
 10
38.182232579
 20
97.847494615
 30
0.0
 11
37.982232453
 21
97.5947772076
 31
0.0
  0
LINE
  5
3DB
330
1F
100
AcDbEntity
  8
0
  6
Continuous
 62
     7
370
    15
100
AcDbLine
 10
37.982232453
 20
97.5947772076
 30
0.0
 11
37.982232453
 21
110.1124806718
 31
0.0
  0
LINE
  5
3DC
330
1F
100
AcDbEntity
  8
0
  6
Continuous
 62
     7
370
    15
100
AcDbLine
 10
40.9822324791
 20
109.8318545537
 30
0.0
 11
40.9822324791
 21
97.847494615
 31
0.0
  0
LINE
  5
3DD
330
1F
100
AcDbEntity
  8
0
  6
Continuous
 62
     7
370
    15
100
AcDbLine
 10
38.182232579
 20
97.847494615
 30
0.0
 11
40.9822324791
 21
97.847494615
 31
0.0
  0
LINE
  5
3DE
330
1F
100
AcDbEntity
  8
0
  6
Continuous
 62
     7
370
    15
100
AcDbLine
 10
40.9822324791
 20
97.847494615
 30
0.0
 11
40.9822324791
 21
94.968025076
 31
0.0
  0
LINE
  5
3DF
330
1F
100
AcDbEntity
  8
0
  6
Continuous
 62
     7
370
    15
100
AcDbLine
 10
39.4822324661
 20
94.968025076
 30
0.0
 11
40.9822324791
 21
94.968025076
 31
0.0
  0
LINE
  5
3E0
330
1F
100
AcDbEntity
  8
0
  6
Continuous
 62
     7
370
    15
100
AcDbLine
 10
39.4822324661
 20
95.3474945545
 30
0.0
 11
39.4822324661
 21
94.968025076
 31
0.0
  0
LINE
  5
3E1
330
1F
100
AcDbEntity
  8
0
  6
Continuous
 62
     7
370
    15
100
AcDbLine
 10
39.4822324661
 20
95.3474945545
 30
0.0
 11
37.982232453
 21
95.3474945545
 31
0.0
  0
LINE
  5
3E2
330
1F
100
AcDbEntity
  8
0
  6
Continuous
 62
     7
370
    15
100
AcDbLine
 10
37.982232453
 20
97.5947772076
 30
0.0
 11
37.982232453
 21
95.3474945545
 31
0.0
  0
LINE
  5
3E3
330
1F
100
AcDbEntity
  8
0
  6
Continuous
 62
     7
370
    15
100
AcDbLine
 10
37.982232453
 20
110.3605086373
 30
0.0
 11
37.982232453
 21
110.4780881123
 31
0.0
  0
LINE
  5
3E4
330
1F
100
AcDbEntity
  8
0
  6
Continuous
 62
     7
370
    15
100
AcDbLine
 10
39.4822324661
 20
111.9973061995
 30
0.0
 11
39.4822324661
 21
110.6483115272
 31
0.0
  0
LINE
  5
3E5
330
1F
100
AcDbEntity
  8
0
  6
Continuous
 62
     7
370
    15
100
AcDbLine
 10
40.9822324791
 20
111.9973061995
 30
0.0
 11
39.4822324661
 21
111.9973061995
 31
0.0
  0
LINE
  5
3E6
330
1F
100
AcDbEntity
  8
0
  6
Continuous
 62
     7
370
    15
100
AcDbLine
 10
39.4822324661
 20
93.6382434138
 30
0.0
 11
40.9822324791
 21
93.6382434138
 31
0.0
  0
LINE
  5
3E7
330
1F
100
AcDbEntity
  8
0
  6
Continuous
 62
     7
370
    15
100
AcDbLine
 10
39.4822324661
 20
94.968025076
 30
0.0
 11
39.4822324661
 21
93.6382434138
 31
0.0
  0
LINE
  5
3E8
330
1F
100
AcDbEntity
  8
0
  6
Continuous
 62
     7
370
    15
100
AcDbLine
 10
40.9822324791
 20
94.968025076
 30
0.0
 11
40.9822324791
 21
93.6382434138
 31
0.0
  0
LINE
  5
3E9
330
1F
100
AcDbEntity
  8
0
  6
Continuous
 62
     7
370
    15
100
AcDbLine
 10
40.9822324791
 20
112.5115396844
 30
0.0
 11
39.4822324661
 21
112.5115396844
 31
0.0
  0
LINE
  5
3EA
330
1F
100
AcDbEntity
  8
0
  6
Continuous
 62
     7
370
    15
100
AcDbLine
 10
39.4822324661
 20
112.9618360119
 30
0.0
 11
40.9822324791
 21
112.9618360119
 31
0.0
  0
LINE
  5
3EB
330
1F
100
AcDbEntity
  8
0
  6
Continuous
 62
     7
370
    15
100
AcDbLine
 10
39.4822324661
 20
112.5115396844
 30
0.0
 11
39.4822324661
 21
112.9618360119
 31
0.0
  0
LINE
  5
3EC
330
1F
100
AcDbEntity
  8
0
  6
Continuous
 62
     7
370
    15
100
AcDbLine
 10
40.9822324791
 20
90.3474947827
 30
0.0
 11
39.4822324661
 21
90.3474947827
 31
0.0
  0
LINE
  5
3ED
330
1F
100
AcDbEntity
  8
0
  6
Continuous
 62
     7
370
    15
100
AcDbLine
 10
39.4822324661
 20
93.6382434138
 30
0.0
 11
39.4822324661
 21
90.3474947827
 31
0.0
  0
LINE
  5
3EE
330
1F
100
AcDbEntity
  8
0
  6
Continuous
 62
     7
370
    15
100
AcDbLine
 10
40.9822324791
 20
93.6382434138
 30
0.0
 11
40.9822324791
 21
93.611181217
 31
0.0
  0
LINE
  5
3EF
330
1F
100
AcDbEntity
  8
0
  6
Continuous
 62
     7
370
    15
100
AcDbLine
 10
40.9822324791
 20
93.205058567
 30
0.0
 11
40.9822324791
 21
91.6384508291
 31
0.0
  0
LINE
  5
3F0
330
1F
100
AcDbEntity
  8
0
  6
Continuous
 62
     7
370
    15
100
AcDbLine
 10
40.9822324791
 20
91.1510508431
 30
0.0
 11
40.9822324791
 21
90.5094156896
 31
0.0
  0
LINE
  5
3F1
330
1F
100
AcDbEntity
  8
0
  6
Continuous
 62
     7
370
    15
100
AcDbLine
 10
39.4822324661
 20
111.9973061995
 30
0.0
 11
39.4822324661
 21
112.5115396844
 31
0.0
  0
LINE
  5
3F2
330
1F
100
AcDbEntity
  8
0
  6
Continuous
 62
     7
370
    15
100
AcDbLine
 10
40.9822324791
 20
112.5115396844
 30
0.0
 11
40.9822324791
 21
111.9973061995
 31
0.0
  0
LINE
  5
3F3
330
1F
100
AcDbEntity
  8
0
  6
Continuous
 62
     7
370
    15
100
AcDbLine
 10
39.4822324661
 20
113.3474948274
 30
0.0
 11
40.9822324791
 21
113.3474948274
 31
0.0
  0
LINE
  5
3F4
330
1F
100
AcDbEntity
  8
0
  6
Continuous
 62
     7
370
    15
100
AcDbLine
 10
39.4822324661
 20
113.3474948274
 30
0.0
 11
39.4822324661
 21
112.9618360119
 31
0.0
  0
LINE
  5
3F5
330
1F
100
AcDbEntity
  8
0
  6
Continuous
 62
     7
370
    15
100
AcDbLine
 10
40.9822324791
 20
113.3474948274
 30
0.0
 11
40.9822324791
 21
112.9618360119
 31
0.0
  0
LINE
  5
3F6
330
1F
100
AcDbEntity
  8
0
  6
Continuous
 62
     7
370
    15
100
AcDbLine
 10
37.982232453
 20
95.3474945545
 30
0.0
 11
37.982232453
 21
93.7331785953
 31
0.0
  0
ARC
  5
3F7
330
1F
100
AcDbEntity
  8
0
  6
Continuous
 62
     7
370
    15
100
AcDbCircle
 10
58.9822324791
 20
87.8474945975
 30
0.0
 40
1.0
100
AcDbArc
 50
0.0
 51
90.0
  0
LINE
  5
3F8
330
1F
100
AcDbEntity
  8
0
  6
Continuous
 62
     7
370
    15
100
AcDbLine
 10
58.9822317043
 20
88.8474945368
 30
0.0
 11
78.9822312572
 21
88.8474945368
 31
0.0
  0
ARC
  5
3F9
330
1F
100
AcDbEntity
  8
0
  6
Continuous
 62
     7
370
    15
100
AcDbCircle
 10
78.9822324791
 20
87.8474945975
 30
0.0
 40
1.0
100
AcDbArc
 50
90.0
 51
180.0
  0
LINE
  5
3FA
330
1F
100
AcDbEntity
  8
0
  6
Continuous
 62
     7
370
    15
100
AcDbLine
 10
77.982232956
 20
87.8474943729
 30
0.0
 11
59.9822318682
 21
87.8474943729
 31
0.0
  0
LINE
  5
3FB
330
1F
100
AcDbEntity
  8
0
  6
Continuous
 62
     7
370
    15
100
AcDbLine
 10
59.9822318682
 20
87.8474943729
 30
0.0
 11
59.9822318682
 21
85.3474948944
 31
0.0
  0
LINE
  5
3FC
330
1F
100
AcDbEntity
  8
0
  6
Continuous
 62
     7
370
    15
100
AcDbLine
 10
57.982233403
 20
85.3474948944
 30
0.0
 11
57.982233403
 21
88.8474945368
 31
0.0
  0
LINE
  5
3FD
330
1F
100
AcDbEntity
  8
0
  6
Continuous
 62
     7
370
    15
100
AcDbLine
 10
57.982233403
 20
88.8474945368
 30
0.0
 11
58.9822317043
 21
88.8474945368
 31
0.0
  0
LINE
  5
3FE
330
1F
100
AcDbEntity
  8
0
  6
Continuous
 62
     7
370
    15
100
AcDbLine
 10
59.9822318682
 20
85.3474948944
 30
0.0
 11
57.982233403
 21
85.3474948944
 31
0.0
  0
LINE
  5
3FF
330
1F
100
AcDbEntity
  8
0
  6
Continuous
 62
     7
370
    15
100
AcDbLine
 10
77.982232956
 20
85.3474948944
 30
0.0
 11
77.982232956
 21
87.8474943729
 31
0.0
  0
LINE
  5
400
330
1F
100
AcDbEntity
  8
0
  6
Continuous
 62
     7
370
    15
100
AcDbLine
 10
59.9822318682
 20
85.3474948944
 30
0.0
 11
77.982232956
 21
85.3474948944
 31
0.0
  0
LINE
  5
401
330
1F
100
AcDbEntity
  8
0
  6
Continuous
 62
     7
370
    15
100
AcDbLine
 10
78.9822312572
 20
88.8474945368
 30
0.0
 11
79.9822332838
 21
88.8474945368
 31
0.0
  0
LINE
  5
402
330
1F
100
AcDbEntity
  8
0
  6
Continuous
 62
     7
370
    15
100
AcDbLine
 10
79.9822332838
 20
88.8474945368
 30
0.0
 11
79.9822332838
 21
85.3474948944
 31
0.0
  0
LINE
  5
403
330
1F
100
AcDbEntity
  8
0
  6
Continuous
 62
     7
370
    15
100
AcDbLine
 10
79.9822332838
 20
85.3474948944
 30
0.0
 11
77.982232956
 21
85.3474948944
 31
0.0
  0
LINE
  5
404
330
1F
100
AcDbEntity
  8
0
  6
Continuous
 62
     7
370
    15
100
AcDbLine
 10
57.982233403
 20
89.1914594376
 30
0.0
 11
79.9822332838
 21
89.1914594376
 31
0.0
  0
LINE
  5
405
330
1F
100
AcDbEntity
  8
0
  6
Continuous
 62
     7
370
    15
100
AcDbLine
 10
79.9822332838
 20
89.1914594376
 30
0.0
 11
79.9822332838
 21
88.8474945368
 31
0.0
  0
LINE
  5
406
330
1F
100
AcDbEntity
  8
0
  6
Continuous
 62
     7
370
    15
100
AcDbLine
 10
57.982233403
 20
89.1914594376
 30
0.0
 11
57.982233403
 21
88.8474945368
 31
0.0
  0
LINE
  5
407
330
1F
100
AcDbEntity
  8
0
  6
Continuous
 62
     7
370
    15
100
AcDbLine
 10
40.9822324791
 20
109.8318545537
 30
0.0
 11
79.9822332838
 21
109.8318545537
 31
0.0
  0
LINE
  5
408
330
1F
100
AcDbEntity
  8
0
  6
Continuous
 62
     7
370
    15
100
AcDbLine
 10
40.9822324791
 20
109.8318545537
 30
0.0
 11
40.9822324791
 21
110.452085586
 31
0.0
  0
LINE
  5
409
330
1F
100
AcDbEntity
  8
0
  6
Continuous
 62
     7
370
    15
100
AcDbLine
 10
79.9822332838
 20
110.452085586
 30
0.0
 11
40.9822324791
 21
110.452085586
 31
0.0
  0
LINE
  5
40A
330
1F
100
AcDbEntity
  8
0
  6
Continuous
 62
     7
370
    15
100
AcDbLine
 10
79.9822332838
 20
109.8318545537
 30
0.0
 11
79.9822332838
 21
110.452085586
 31
0.0
  0
LINE
  5
40B
330
1F
100
AcDbEntity
  8
0
  6
Continuous
 62
     7
370
    15
100
AcDbLine
 10
40.9822324791
 20
97.847494615
 30
0.0
 11
72.8935571888
 21
97.847494615
 31
0.0
  0
LINE
  5
40C
330
1F
100
AcDbEntity
  8
0
  6
Continuous
 62
     7
370
    15
100
AcDbLine
 10
73.0667608359
 20
97.847494615
 30
0.0
 11
79.9822332838
 21
97.847494615
 31
0.0
  0
LINE
  5
40D
330
1F
100
AcDbEntity
  8
0
  6
Continuous
 62
     7
370
    15
100
AcDbLine
 10
79.9822332838
 20
97.847494615
 30
0.0
 11
79.9822332838
 21
109.8318545537
 31
0.0
  0
LINE
  5
40E
330
1F
100
AcDbEntity
  8
0
  6
Continuous
 62
     7
370
    15
100
AcDbLine
 10
40.9822324791
 20
94.9676641303
 30
0.0
 11
79.9822332838
 21
94.9676641303
 31
0.0
  0
LINE
  5
40F
330
1F
100
AcDbEntity
  8
0
  6
Continuous
 62
     7
370
    15
100
AcDbLine
 10
40.9822324791
 20
97.847494615
 30
0.0
 11
40.9822324791
 21
94.9676641303
 31
0.0
  0
LINE
  5
410
330
1F
100
AcDbEntity
  8
0
  6
Continuous
 62
     7
370
    15
100
AcDbLine
 10
79.9822332838
 20
97.847494615
 30
0.0
 11
79.9822332838
 21
94.9696699663
 31
0.0
  0
LINE
  5
411
330
1F
100
AcDbEntity
  8
0
  6
Continuous
 62
     7
370
    15
100
AcDbLine
 10
40.9822324791
 20
110.452085586
 30
0.0
 11
40.9822324791
 21
110.5291618423
 31
0.0
  0
LINE
  5
412
330
1F
100
AcDbEntity
  8
0
  6
Continuous
 62
     7
370
    15
100
AcDbLine
 10
79.9822332838
 20
91.137839101
 30
0.0
 11
57.982233403
 21
91.137839101
 31
0.0
  0
LINE
  5
413
330
1F
100
AcDbEntity
  8
0
  6
Continuous
 62
     7
370
    15
100
AcDbLine
 10
79.9822332838
 20
91.137839101
 30
0.0
 11
79.9822332838
 21
89.1914594376
 31
0.0
  0
LINE
  5
414
330
1F
100
AcDbEntity
  8
0
  6
Continuous
 62
     7
370
    15
100
AcDbLine
 10
57.982233403
 20
89.1914594376
 30
0.0
 11
57.982233403
 21
91.137839101
 31
0.0
  0
LINE
  5
415
330
1F
100
AcDbEntity
  8
0
  6
Continuous
 62
     7
370
    15
100
AcDbLine
 10
40.9822324791
 20
111.8962092714
 30
0.0
 11
79.9822332838
 21
111.8962092714
 31
0.0
  0
LINE
  5
416
330
1F
100
AcDbEntity
  8
0
  6
Continuous
 62
     7
370
    15
100
AcDbLine
 10
40.9822324791
 20
111.8962092714
 30
0.0
 11
40.9822324791
 21
110.5291618423
 31
0.0
  0
LINE
  5
417
330
1F
100
AcDbEntity
  8
0
  6
Continuous
 62
     7
370
    15
100
AcDbLine
 10
40.9822324791
 20
93.315434844
 30
0.0
 11
57.982233403
 21
93.315434844
 31
0.0
  0
LINE
  5
418
330
1F
100
AcDbEntity
  8
0
  6
Continuous
 62
     7
370
    15
100
AcDbLine
 10
40.9822324791
 20
93.315434844
 30
0.0
 11
40.9822324791
 21
93.6224945744
 31
0.0
  0
LINE
  5
419
330
1F
100
AcDbEntity
  8
0
  6
Continuous
 62
     7
370
    15
100
AcDbLine
 10
79.9822332838
 20
92.5448131438
 30
0.0
 11
79.9822332838
 21
91.137839101
 31
0.0
  0
LINE
  5
41A
330
1F
100
AcDbEntity
  8
0
  6
Continuous
 62
     7
370
    15
100
AcDbLine
 10
57.982233403
 20
93.315434844
 30
0.0
 11
57.982233403
 21
91.137839101
 31
0.0
  0
LINE
  5
41B
330
1F
100
AcDbEntity
  8
0
  6
Continuous
 62
     7
370
    15
100
AcDbLine
 10
40.9822324791
 20
112.8910908864
 30
0.0
 11
79.9822332838
 21
112.8910908864
 31
0.0
  0
LINE
  5
41C
330
1F
100
AcDbEntity
  8
0
  6
Continuous
 62
     7
370
    15
100
AcDbLine
 10
79.9822332838
 20
112.5919035093
 30
0.0
 11
40.9822324791
 21
112.5919035093
 31
0.0
  0
LINE
  5
41D
330
1F
100
AcDbEntity
  8
0
  6
Continuous
 62
     7
370
    15
100
AcDbLine
 10
40.9822324791
 20
112.5919035093
 30
0.0
 11
40.9822324791
 21
112.8910908864
 31
0.0
  0
LINE
  5
41E
330
1F
100
AcDbEntity
  8
0
  6
Continuous
 62
     7
370
    15
100
AcDbLine
 10
40.9822324791
 20
112.5919035093
 30
0.0
 11
40.9822324791
 21
111.8962092714
 31
0.0
  0
LINE
  5
41F
330
1F
100
AcDbEntity
  8
0
  6
Continuous
 62
     7
370
    15
100
AcDbLine
 10
40.9822324791
 20
113.3474948274
 30
0.0
 11
79.9822332838
 21
113.3474948274
 31
0.0
  0
LINE
  5
420
330
1F
100
AcDbEntity
  8
0
  6
Continuous
 62
     7
370
    15
100
AcDbLine
 10
40.9822324791
 20
112.8910908864
 30
0.0
 11
40.9822324791
 21
113.3474948274
 31
0.0
  0
LINE
  5
421
330
1F
100
AcDbEntity
  8
0
  6
Continuous
 62
     7
370
    15
100
AcDbLine
 10
79.9822332838
 20
112.8910908864
 30
0.0
 11
79.9822332838
 21
113.3474948274
 31
0.0
  0
LINE
  5
422
330
1F
100
AcDbEntity
  8
0
  6
Continuous
 62
     7
370
    15
100
AcDbLine
 10
57.982233403
 20
91.3345288409
 30
0.0
 11
40.9822324791
 21
91.3345288409
 31
0.0
  0
LINE
  5
423
330
1F
100
AcDbEntity
  8
0
  6
Continuous
 62
     7
370
    15
100
AcDbLine
 10
40.9822324791
 20
91.3345288409
 30
0.0
 11
40.9822324791
 21
91.6384508291
 31
0.0
  0
LINE
  5
424
330
1F
100
AcDbEntity
  8
0
  6
Continuous
 62
     7
370
    15
100
AcDbLine
 10
40.9822324791
 20
93.205058567
 30
0.0
 11
40.9822324791
 21
93.315434844
 31
0.0
  0
LINE
  5
425
330
1F
100
AcDbEntity
  8
0
  6
Continuous
 62
     7
370
    15
100
AcDbLine
 10
57.982233403
 20
90.3474947827
 30
0.0
 11
40.9822324791
 21
90.3474947827
 31
0.0
  0
LINE
  5
426
330
1F
100
AcDbEntity
  8
0
  6
Continuous
 62
     7
370
    15
100
AcDbLine
 10
40.9822324791
 20
90.3474947827
 30
0.0
 11
40.9822324791
 21
90.5094156896
 31
0.0
  0
LINE
  5
427
330
1F
100
AcDbEntity
  8
0
  6
Continuous
 62
     7
370
    15
100
AcDbLine
 10
40.9822324791
 20
91.1510508431
 30
0.0
 11
40.9822324791
 21
91.3345288409
 31
0.0
  0
LINE
  5
428
330
1F
100
AcDbEntity
  8
0
  6
Continuous
 62
     7
370
    15
100
AcDbLine
 10
95.4822311678
 20
98.8474947789
 30
0.0
 11
95.4822311678
 21
99.2017433436
 31
0.0
  0
LINE
  5
429
330
1F
100
AcDbEntity
  8
0
  6
Continuous
 62
     7
370
    15
100
AcDbLine
 10
92.982233552
 20
98.8474947789
 30
0.0
 11
95.4822311678
 21
98.8474947789
 31
0.0
  0
LWPOLYLINE
  5
42A
330
1F
100
AcDbEntity
  8
0
  6
Continuous
 62
     7
370
    15
100
AcDbPolyline
 90
        8
 70
   128
 43
0.0
 10
91.9822315255
 20
97.847494615
 10
92.0035327354
 20
97.8687958249
 10
92.0672091224
 20
97.9324726777
 10
92.1725864091
 20
98.0378471704
 10
92.3185358324
 20
98.1837965937
 10
92.5035039463
 20
98.3687670359
 10
92.7255237975
 20
98.5907878184
 10
92.982233552
 20
98.8474947789
  0
LWPOLYLINE
  5
42B
330
1F
100
AcDbEntity
  8
0
  6
Continuous
 62
     7
370
    15
100
AcDbPolyline
 90
        8
 70
   128
 43
0.0
 10
92.982233552
 20
104.8474943654
 10
92.7255237975
 20
105.1042013259
 10
92.5035039463
 20
105.3262221085
 10
92.3185358324
 20
105.511192085
 10
92.1725864091
 20
105.6571424396
 10
92.0672091224
 20
105.762516001
 10
92.0035327354
 20
105.8261933194
 10
91.9822315255
 20
105.8474945293
  0
LINE
  5
42C
330
1F
100
AcDbEntity
  8
0
  6
Continuous
 62
     7
370
    15
100
AcDbLine
 10
92.982233552
 20
104.8474943654
 30
0.0
 11
95.4822311678
 21
104.8474943654
 31
0.0
  0
LINE
  5
42D
330
1F
100
AcDbEntity
  8
0
  6
Continuous
 62
     7
370
    15
100
AcDbLine
 10
95.4822311678
 20
104.4932462664
 30
0.0
 11
95.4822311678
 21
104.8474943654
 31
0.0
  0
LINE
  5
42E
330
1F
100
AcDbEntity
  8
0
  6
Continuous
 62
     7
370
    15
100
AcDbLine
 10
92.982233552
 20
104.4932462664
 30
0.0
 11
95.4822311678
 21
104.4932462664
 31
0.0
  0
ARC
  5
42F
330
1F
100
AcDbEntity
  8
0
  6
Continuous
 62
     7
370
    15
100
AcDbCircle
 10
95.9822324791
 20
101.8474945975
 30
0.0
 40
4.000000000000006
100
AcDbArc
 50
138.5903778907
 51
221.4096221093
  0
LINE
  5
430
330
1F
100
AcDbEntity
  8
0
  6
Continuous
 62
     7
370
    15
100
AcDbLine
 10
92.982233552
 20
99.2017433436
 30
0.0
 11
95.4822311678
 21
99.2017433436
 31
0.0
  0
LINE
  5
431
330
1F
100
AcDbEntity
  8
0
  6
Continuous
 62
     7
370
    15
100
AcDbLine
 10
92.982233552
 20
104.4932462664
 30
0.0
 11
92.982233552
 21
99.2017433436
 31
0.0
  0
SPLINE
  5
432
330
1F
100
AcDbEntity
  8
0
  6
Continuous
 62
     7
370
    15
100
AcDbSpline
210
0.0
220
0.0
230
1.0
 70
     8
 71
     3
 72
     8
 73
     4
 74
     0
 42
0.00000001
 43
0.00000001
 12
1.0
 22
0.0
 32
0.0
 13
1.0
 23
0.0
 33
0.0
 40
0.0
 40
0.0
 40
0.0
 40
0.0
 40
1.0
 40
1.0
 40
1.0
 40
1.0
 10
95.48223247914756
 20
99.20174328643661
 30
0.0
 10
95.66268330125051
 20
99.47455928595751
 30
0.0
 10
95.8323666613174
 20
99.75376186481675
 30
0.0
 10
95.98223247914756
 20
100.0447189597692
 30
0.0
  0
SPLINE
  5
433
330
1F
100
AcDbEntity
  8
0
  6
Continuous
 62
     7
370
    15
100
AcDbSpline
210
0.0
220
0.0
230
1.0
 70
     8
 71
     3
 72
     8
 73
     4
 74
     0
 42
0.00000001
 43
0.00000001
 12
1.0
 22
0.0
 32
0.0
 13
1.0
 23
0.0
 33
0.0
 40
0.0
 40
0.0
 40
0.0
 40
0.0
 40
1.0
 40
1.0
 40
1.0
 40
1.0
 10
95.98223247914756
 20
103.6502702352332
 30
0.0
 10
95.8323666613174
 20
103.9412273301857
 30
0.0
 10
95.66268330125051
 20
104.2204299090449
 30
0.0
 10
95.48223247914756
 20
104.4932459085658
 30
0.0
  0
LINE
  5
434
330
1F
100
AcDbEntity
  8
0
  6
Continuous
 62
     7
370
    15
100
AcDbLine
 10
95.9822321811
 20
103.6502698825
 30
0.0
 11
95.9822321811
 21
100.0447187962
 31
0.0
  0
LINE
  5
435
330
1F
100
AcDbEntity
  8
0
  6
Continuous
 62
     7
370
    15
100
AcDbLine
 10
95.9822321811
 20
100.0447187962
 30
0.0
 11
95.9822321811
 21
98.8474947789
 31
0.0
  0
SPLINE
  5
436
330
1F
100
AcDbEntity
  8
0
  6
Continuous
 62
     7
370
    15
100
AcDbSpline
210
0.0
220
0.0
230
1.0
 70
    24
 71
     3
 72
     8
 73
     4
 74
     0
 42
0.00000001
 43
0.00000001
 12
1.0
 22
0.0
 32
0.0
 13
1.0
 23
0.0
 33
0.0
 40
0.0
 40
0.0
 40
0.0
 40
0.0
 40
1.0
 40
1.0
 40
1.0
 40
1.0
 10
95.98223247914756
 20
98.8474945975012
 30
0.0
 10
95.8323666613174
 20
98.8474945975012
 30
0.0
 10
95.66268330125051
 20
98.8474945975012
 30
0.0
 10
95.48223247914756
 20
98.8474945975012
 30
0.0
  0
SPLINE
  5
437
330
1F
100
AcDbEntity
  8
0
  6
Continuous
 62
     7
370
    15
100
AcDbSpline
210
0.0
220
0.0
230
1.0
 70
    24
 71
     3
 72
     8
 73
     4
 74
     0
 42
0.00000001
 43
0.00000001
 12
1.0
 22
0.0
 32
0.0
 13
1.0
 23
0.0
 33
0.0
 40
0.0
 40
0.0
 40
0.0
 40
0.0
 40
1.0
 40
1.0
 40
1.0
 40
1.0
 10
95.48223247914756
 20
104.8474945975012
 30
0.0
 10
95.66268330125051
 20
104.8474945975012
 30
0.0
 10
95.8323666613174
 20
104.8474945975012
 30
0.0
 10
95.98223247914756
 20
104.8474945975012
 30
0.0
  0
LINE
  5
438
330
1F
100
AcDbEntity
  8
0
  6
Continuous
 62
     7
370
    15
100
AcDbLine
 10
95.9822321811
 20
104.8474943654
 30
0.0
 11
95.9822321811
 21
103.6502698825
 31
0.0
  0
LINE
  5
439
330
1F
100
AcDbEntity
  8
0
  6
Continuous
 62
     7
370
    15
100
AcDbLine
 10
79.9822332838
 20
109.8318545537
 30
0.0
 11
79.9822332838
 21
113.3474948274
 31
0.0
  0
LINE
  5
43A
330
1F
100
AcDbEntity
  8
0
  6
Continuous
 62
     7
370
    15
100
AcDbLine
 10
82.7822322526
 20
113.3474948274
 30
0.0
 11
79.9822332838
 21
113.3474948274
 31
0.0
  0
LINE
  5
43B
330
1F
100
AcDbEntity
  8
0
  6
Continuous
 62
     7
370
    15
100
AcDbLine
 10
82.9822319129
 20
113.1474951671
 30
0.0
 11
82.7822322526
 21
113.3474948274
 31
0.0
  0
LINE
  5
43C
330
1F
100
AcDbEntity
  8
0
  6
Continuous
 62
     7
370
    15
100
AcDbLine
 10
82.9822319129
 20
110.1124806718
 30
0.0
 11
82.9822319129
 21
113.1474951671
 31
0.0
  0
ARC
  5
43D
330
1F
100
AcDbEntity
  8
0
  6
Continuous
 62
     7
370
    15
100
AcDbCircle
 10
94.2822324791
 20
101.8474945975
 30
0.0
 40
14.00000000000002
100
AcDbArc
 50
143.8177127788
 51
145.2280559681
  0
LINE
  5
43E
330
1F
100
AcDbEntity
  8
0
  6
Continuous
 62
     7
370
    15
100
AcDbLine
 10
82.7822322526
 20
109.8318545537
 30
0.0
 11
79.9822332838
 21
109.8318545537
 31
0.0
  0
LINE
  5
43F
330
1F
100
AcDbEntity
  8
0
  6
Continuous
 62
     7
370
    15
100
AcDbLine
 10
82.7822322526
 20
97.847494615
 30
0.0
 11
82.7822322526
 21
109.8318545537
 31
0.0
  0
LINE
  5
440
330
1F
100
AcDbEntity
  8
0
  6
Continuous
 62
     7
370
    15
100
AcDbLine
 10
82.7822322526
 20
97.847494615
 30
0.0
 11
79.9822332838
 21
97.847494615
 31
0.0
  0
LINE
  5
441
330
1F
100
AcDbEntity
  8
0
  6
Continuous
 62
     7
370
    15
100
AcDbLine
 10
81.4822325983
 20
94.9696699663
 30
0.0
 11
81.4822325983
 21
95.3474945545
 31
0.0
  0
LINE
  5
442
330
1F
100
AcDbEntity
  8
0
  6
Continuous
 62
     7
370
    15
100
AcDbLine
 10
81.4822325983
 20
94.9696699663
 30
0.0
 11
79.9822332838
 21
94.9696699663
 31
0.0
  0
LINE
  5
443
330
1F
100
AcDbEntity
  8
0
  6
Continuous
 62
     7
370
    15
100
AcDbLine
 10
82.9822319129
 20
97.5947772076
 30
0.0
 11
82.7822322526
 21
97.847494615
 31
0.0
  0
LINE
  5
444
330
1F
100
AcDbEntity
  8
0
  6
Continuous
 62
     7
370
    15
100
AcDbLine
 10
82.9822319129
 20
95.3474945545
 30
0.0
 11
82.9822319129
 21
97.5947772076
 31
0.0
  0
LINE
  5
445
330
1F
100
AcDbEntity
  8
0
  6
Continuous
 62
     7
370
    15
100
AcDbLine
 10
82.9822319129
 20
95.3474945545
 30
0.0
 11
81.4822325983
 21
95.3474945545
 31
0.0
  0
LINE
  5
446
330
1F
100
AcDbEntity
  8
0
  6
Continuous
 62
     7
370
    15
100
AcDbLine
 10
82.9822319129
 20
110.1124806718
 30
0.0
 11
82.9822319129
 21
97.5947772076
 31
0.0
  0
LINE
  5
447
330
1F
100
AcDbEntity
  8
0
  6
Continuous
 62
     7
370
    15
100
AcDbLine
 10
79.9822332838
 20
93.3394308358
 30
0.0
 11
81.4822325983
 21
93.3394308358
 31
0.0
  0
LINE
  5
448
330
1F
100
AcDbEntity
  8
0
  6
Continuous
 62
     7
370
    15
100
AcDbLine
 10
81.4822325983
 20
93.3394308358
 30
0.0
 11
81.4822325983
 21
94.9696699663
 31
0.0
  0
LINE
  5
449
330
1F
100
AcDbEntity
  8
0
  6
Continuous
 62
     7
370
    15
100
AcDbLine
 10
79.9822332838
 20
93.3394308358
 30
0.0
 11
79.9822332838
 21
94.9696699663
 31
0.0
  0
LINE
  5
44A
330
1F
100
AcDbEntity
  8
0
  6
Continuous
 62
     7
370
    15
100
AcDbLine
 10
81.4822325983
 20
90.3474947827
 30
0.0
 11
79.9822332838
 21
90.3474947827
 31
0.0
  0
LINE
  5
44B
330
1F
100
AcDbEntity
  8
0
  6
Continuous
 62
     7
370
    15
100
AcDbLine
 10
81.4822325983
 20
93.3394308358
 30
0.0
 11
81.4822325983
 21
90.3474947827
 31
0.0
  0
LINE
  5
44C
330
1F
100
AcDbEntity
  8
0
  6
Continuous
 62
     7
370
    15
100
AcDbLine
 10
79.9822332838
 20
92.5448131438
 30
0.0
 11
79.9822332838
 21
93.3394308358
 31
0.0
  0
LINE
  5
44D
330
1F
100
AcDbEntity
  8
0
  6
Continuous
 62
     7
370
    15
100
AcDbLine
 10
82.9822319129
 20
93.7331785953
 30
0.0
 11
82.9822319129
 21
95.3474945545
 31
0.0
  0
LINE
  5
44E
330
1F
100
AcDbEntity
  8
0
  6
Continuous
 62
     7
370
    15
100
AcDbLine
 10
37.982232453
 20
93.7272817518
 30
0.0
 11
37.982232453
 21
93.7331785953
 31
0.0
  0
LINE
  5
44F
330
1F
100
AcDbEntity
  8
0
  6
Continuous
 62
     7
370
    15
100
AcDbLine
 10
37.982232453
 20
91.4618106016
 30
0.0
 11
37.982232453
 21
93.7272817518
 31
0.0
  0
LINE
  5
450
330
1F
100
AcDbEntity
  8
0
  6
Continuous
 62
     7
370
    15
100
AcDbLine
 10
72.4822329858
 20
102.7135195599
 30
0.0
 11
72.4822329858
 21
100.9814691187
 31
0.0
  0
LINE
  5
451
330
1F
100
AcDbEntity
  8
0
  6
Continuous
 62
     7
370
    15
100
AcDbLine
 10
82.9822319129
 20
92.1477911451
 30
0.0
 11
82.9822319129
 21
91.4618106016
 31
0.0
  0
LINE
  5
452
330
1F
100
AcDbEntity
  8
0
  6
Continuous
 62
     7
370
    15
100
AcDbLine
 10
82.9822319129
 20
93.7331785953
 30
0.0
 11
82.9822319129
 21
92.1477911451
 31
0.0
  0
LINE
  5
453
330
1F
100
AcDbEntity
  8
0
  6
Continuous
 62
     7
370
    15
100
AcDbLine
 10
39.4822324661
 20
110.6483115272
 30
0.0
 11
39.4822324661
 21
110.4780881123
 31
0.0
  0
LINE
  5
454
330
1F
100
AcDbEntity
  8
0
  6
Continuous
 62
     7
370
    15
100
AcDbLine
 10
37.982232453
 20
112.2272814082
 30
0.0
 11
37.982232453
 21
112.2331785427
 31
0.0
  0
LINE
  5
455
330
1F
100
AcDbEntity
  8
0
  6
Continuous
 62
     7
370
    15
100
AcDbLine
 10
37.982232453
 20
110.4780881123
 30
0.0
 11
37.982232453
 21
112.2272814082
 31
0.0
  0
ARC
  5
456
330
1F
100
AcDbEntity
  8
0
  6
Continuous
 62
     7
370
    15
100
AcDbCircle
 10
72.9822324791
 20
101.8474945975
 30
0.0
 40
1.749999999999826
100
AcDbArc
 50
29.9691511071
 51
209.9691511071
  0
ARC
  5
457
330
1F
100
AcDbEntity
  8
0
  6
Continuous
 62
     7
370
    15
100
AcDbCircle
 10
72.9822324791
 20
101.8474945975
 30
0.0
 40
1.749999999999826
100
AcDbArc
 50
209.9691511071
 51
29.9691511071
  0
CIRCLE
  5
458
330
1F
100
AcDbEntity
  8
0
  6
Continuous
 62
     7
370
    15
100
AcDbCircle
 10
72.9822324791
 20
101.8474945975
 30
0.0
 40
1.500000000000412
  0
CIRCLE
  5
459
330
1F
100
AcDbEntity
  8
0
  6
Continuous
 62
     7
370
    15
100
AcDbCircle
 10
72.9822324791
 20
101.8474945975
 30
0.0
 40
1.000000000000176
  0
LINE
  5
45A
330
1F
100
AcDbEntity
  8
0
  6
Continuous
 62
     7
370
    15
100
AcDbLine
 10
72.9800509789
 20
97.7974951656
 30
0.0
 11
76.4885442832
 21
99.8206062631
 31
0.0
  0
LINE
  5
45B
330
1F
100
AcDbEntity
  8
0
  6
Continuous
 62
     7
370
    15
100
AcDbLine
 10
69.4737406948
 20
99.8243832418
 30
0.0
 11
72.9800509789
 21
97.7974951656
 31
0.0
  0
LINE
  5
45C
330
1F
100
AcDbEntity
  8
0
  6
Continuous
 62
     7
370
    15
100
AcDbLine
 10
69.4759199896
 20
103.8743824156
 30
0.0
 11
69.4737406948
 21
99.8243832418
 31
0.0
  0
LINE
  5
45D
330
1F
100
AcDbEntity
  8
0
  6
Continuous
 62
     7
370
    15
100
AcDbLine
 10
72.9844132939
 20
105.8974944444
 30
0.0
 11
69.4759199896
 21
103.8743824156
 31
0.0
  0
LINE
  5
45E
330
1F
100
AcDbEntity
  8
0
  6
Continuous
 62
     7
370
    15
100
AcDbLine
 10
76.490723578
 20
103.8706059025
 30
0.0
 11
72.9844132939
 21
105.8974944444
 31
0.0
  0
LINE
  5
45F
330
1F
100
AcDbEntity
  8
0
  6
Continuous
 62
     7
370
    15
100
AcDbLine
 10
76.4885442832
 20
99.8206062631
 30
0.0
 11
76.490723578
 21
103.8706059025
 31
0.0
  0
ARC
  5
460
330
1F
100
AcDbEntity
  8
0
  6
Continuous
 62
     7
370
    15
100
AcDbCircle
 10
72.9822324791
 20
101.8474945975
 30
0.0
 40
4.0
100
AcDbArc
 50
0.0
 51
28.9550243719
  0
ARC
  5
461
330
1F
100
AcDbEntity
  8
0
  6
Continuous
 62
     7
370
    15
100
AcDbCircle
 10
72.9822324791
 20
101.8474945975
 30
0.0
 40
3.999999999999996
100
AcDbArc
 50
31.2339214651
 51
88.7043807492
  0
ARC
  5
462
330
1F
100
AcDbEntity
  8
0
  6
Continuous
 62
     7
370
    15
100
AcDbCircle
 10
72.9822324791
 20
101.8474945975
 30
0.0
 40
4.000000000000022
100
AcDbArc
 50
91.2339214651
 51
148.7043807492
  0
ARC
  5
463
330
1F
100
AcDbEntity
  8
0
  6
Continuous
 62
     7
370
    15
100
AcDbCircle
 10
72.9822324791
 20
101.8474945975
 30
0.0
 40
4.00000000000001
100
AcDbArc
 50
151.0449756281
 51
208.9550243719
  0
ARC
  5
464
330
1F
100
AcDbEntity
  8
0
  6
Continuous
 62
     7
370
    15
100
AcDbCircle
 10
72.9822324791
 20
101.8474945975
 30
0.0
 40
4.000000000000013
100
AcDbArc
 50
211.2339214651
 51
268.7043807491
  0
ARC
  5
465
330
1F
100
AcDbEntity
  8
0
  6
Continuous
 62
     7
370
    15
100
AcDbCircle
 10
72.9822324791
 20
101.8474945975
 30
0.0
 40
4.000000000000002
100
AcDbArc
 50
271.2339214651
 51
328.7043807491
  0
ARC
  5
466
330
1F
100
AcDbEntity
  8
0
  6
Continuous
 62
     7
370
    15
100
AcDbCircle
 10
72.9822324791
 20
101.8474945975
 30
0.0
 40
4.0
100
AcDbArc
 50
331.0449756281
 51
0.0
  0
LINE
  5
467
330
1F
100
AcDbEntity
  8
0
  6
Continuous
 62
     8
370
    15
100
AcDbLine
 10
39.1875402338
 20
94.8474945889
 30
0.0
 11
39.1875402338
 21
90.3474947827
 31
0.0
  0
LINE
  5
468
330
1F
100
AcDbEntity
  8
0
  6
Continuous
 62
     8
370
    15
100
AcDbLine
 10
38.3824843948
 20
94.4311231414
 30
0.0
 11
38.3824843948
 21
94.4406936305
 31
0.0
  0
LINE
  5
469
330
1F
100
AcDbEntity
  8
0
  6
Continuous
 62
     8
370
    15
100
AcDbLine
 10
38.3824843948
 20
90.7542955519
 30
0.0
 11
38.3824843948
 21
94.4311231414
 31
0.0
  0
LINE
  5
46A
330
1F
100
AcDbEntity
  8
0
  6
Continuous
 62
     8
370
    15
100
AcDbLine
 10
38.0797046737
 20
94.0297781471
 30
0.0
 11
38.0797046737
 21
91.1652111372
 31
0.0
  0
LINE
  5
46B
330
1F
100
AcDbEntity
  8
0
  6
Continuous
 62
     8
370
    15
100
AcDbLine
 10
81.7769254127
 20
90.3474947827
 30
0.0
 11
81.7769254127
 21
94.8474945889
 31
0.0
  0
LINE
  5
46C
330
1F
100
AcDbEntity
  8
0
  6
Continuous
 62
     8
370
    15
100
AcDbLine
 10
82.5819792726
 20
91.8676323181
 30
0.0
 11
82.5819792726
 21
90.7542955519
 31
0.0
  0
LINE
  5
46D
330
1F
100
AcDbEntity
  8
0
  6
Continuous
 62
     8
370
    15
100
AcDbLine
 10
82.5819792726
 20
94.4406936305
 30
0.0
 11
82.5819792726
 21
91.8676323181
 31
0.0
  0
LINE
  5
46E
330
1F
100
AcDbEntity
  8
0
  6
Continuous
 62
     8
370
    15
100
AcDbLine
 10
82.8847596922
 20
91.1652111372
 30
0.0
 11
82.8847596922
 21
94.0297781471
 31
0.0
  0
LINE
  5
46F
330
1F
100
AcDbEntity
  8
0
  6
Continuous
 62
     8
370
    15
100
AcDbLine
 10
39.1875402338
 20
113.3474948274
 30
0.0
 11
39.1875402338
 21
110.4780881123
 31
0.0
  0
LINE
  5
470
330
1F
100
AcDbEntity
  8
0
  6
Continuous
 62
     8
370
    15
100
AcDbLine
 10
38.3824843948
 20
112.931122856
 30
0.0
 11
38.3824843948
 21
112.9406931268
 31
0.0
  0
LINE
  5
471
330
1F
100
AcDbEntity
  8
0
  6
Continuous
 62
     8
370
    15
100
AcDbLine
 10
38.3824843948
 20
110.4780881123
 30
0.0
 11
38.3824843948
 21
112.931122856
 31
0.0
  0
LINE
  5
472
330
1F
100
AcDbEntity
  8
0
  6
Continuous
 62
     8
370
    15
100
AcDbLine
 10
38.0797046737
 20
112.5297787057
 30
0.0
 11
38.0797046737
 21
110.4780881123
 31
0.0
  0
LINE
  5
473
330
1F
100
AcDbEntity
  8
0
  6
CENTERX2
 62
     7
370
     0
100
AcDbLine
 10
85.9822324791
 20
105.0471170717
 30
0.0
 11
85.9822324791
 21
98.7925805804
 31
0.0
  0
LINE
  5
474
330
1F
100
AcDbEntity
  8
0
  6
CENTERX2
 62
     7
370
     0
100
AcDbLine
 10
85.9822324791
 20
98.7925805804
 30
0.0
 11
82.9822324791
 21
98.7925805804
 31
0.0
  0
LINE
  5
475
330
1F
100
AcDbEntity
  8
0
  6
CENTERX2
 62
     7
370
     0
100
AcDbLine
 10
85.9822324791
 20
105.0471170717
 30
0.0
 11
82.9822324791
 21
105.0471170717
 31
0.0
  0
LINE
  5
476
330
1F
100
AcDbEntity
  8
0
  6
Continuous
 62
     7
370
     0
100
AcDbLine
 10
84.8549010155
 20
102.2888680177
 30
0.0
 11
84.6988167549
 21
102.382518574
 31
0.0
  0
DIMENSION
  5
477
330
1F
100
AcDbEntity
  8
0
  6
Continuous
 62
     7
370
     0
100
AcDbDimension
  2
_D_10
 10
85.9822324791
 20
117.6439849769
 30
0.0
 11
90.9822324791
 21
117.6439849769
 31
0.0
 70
   160
  1
<>st
 71
     2
 42
-1.0
  3
SLDDIMSTYLE6
100
AcDbAlignedDimension
 13
95.9822324791
 23
104.8474945975
 33
0.0
 14
85.9822324791
 24
105.0471170717
 34
0.0
100
AcDbRotatedDimension
  0
DIMENSION
  5
485
330
1F
100
AcDbEntity
  8
0
  6
Continuous
 62
     7
370
     0
100
AcDbDimension
  2
_D_11
 10
95.9822324791
 20
133.1533340452
 30
0.0
 11
66.9822324791
 21
133.1533340452
 31
0.0
 70
   160
  1
<>
 71
     2
 42
-1.0
  3
SLDDIMSTYLE0
100
AcDbAlignedDimension
 13
37.9822324791
 23
110.1124809859
 33
0.0
 14
95.9822324791
 24
104.8474945975
 34
0.0
 50
0.0
100
AcDbRotatedDimension
  0
DIMENSION
  5
48F
330
1F
100
AcDbEntity
  8
0
  6
Continuous
 62
     7
370
     0
100
AcDbDimension
  2
_D_12
 10
37.9822324791
 20
124.0588631655
 30
0.0
 11
58.9822324791
 21
124.0588631655
 31
0.0
 70
   160
  1
<>
 71
     2
 42
-1.0
  3
SLDDIMSTYLE0
100
AcDbAlignedDimension
 13
79.9822324791
 23
113.3474945975
 33
0.0
 14
37.9822324791
 24
110.1124809859
 34
0.0
 50
0.0
100
AcDbRotatedDimension
  0
DIMENSION
  5
499
330
1F
100
AcDbEntity
  8
0
  6
Continuous
 62
     7
370
     0
100
AcDbDimension
  2
_D_13
 10
72.9822324791
 20
75.3474945975
 30
0.0
 11
55.4822324791
 21
75.3474945975
 31
0.0
 70
   160
  1
<>
 71
     2
 42
-1.0
  3
SLDDIMSTYLE0
100
AcDbAlignedDimension
 13
37.9822324791
 23
91.4618105776
 33
0.0
 14
72.9822324791
 24
95.3474945975
 34
0.0
100
AcDbRotatedDimension
  0
INSERT
  5
4AE
330
1F
100
AcDbEntity
  8
0
  6
Continuous
 62
     7
370
     0
100
AcDbBlockReference
  2
SW_CENTERMARKSYMBOL_7
 10
72.9822324791
 20
101.8474945975
 30
0.0
  0
LINE
  5
4AF
330
1F
100
AcDbEntity
  8
0
  6
CENTERX2
 62
     7
370
     0
100
AcDbLine
 10
37.158463069
 20
101.8474945975
 30
0.0
 11
98.7553778184
 21
101.8474945975
 31
0.0
  0
ENDSEC
  0
SECTION
  2
OBJECTS
  0
DICTIONARY
  5
C
330
0
100
AcDbDictionary
281
     1
  3
ACAD_GROUP
350
D
  3
ACAD_LAYOUT
350
1A
  3
ACAD_MLINESTYLE
350
17
  3
ACAD_PLOTSETTINGS
350
19
  3
ACAD_PLOTSTYLENAME
350
E
  0
DICTIONARY
  5
D
102
{ACAD_REACTORS
330
C
102
}
330
C
100
AcDbDictionary
281
     1
  0
DICTIONARY
  5
1A
102
{ACAD_REACTORS
330
C
102
}
330
C
100
AcDbDictionary
281
     1
  3
Layout1
350
1E
  3
Layout2
350
26
  3
Model
350
22
  0
DICTIONARY
  5
17
102
{ACAD_REACTORS
330
C
102
}
330
C
100
AcDbDictionary
281
     1
  3
Standard
350
18
  0
DICTIONARY
  5
19
102
{ACAD_REACTORS
330
C
102
}
330
C
100
AcDbDictionary
281
     1
  0
ACDBDICTIONARYWDFLT
  5
E
102
{ACAD_REACTORS
330
C
102
}
330
C
100
AcDbDictionary
281
     1
  3
Normal
350
F
100
AcDbDictionaryWithDefault
340
F
  0
LAYOUT
  5
1E
102
{ACAD_REACTORS
330
1A
102
}
330
1A
100
AcDbPlotSettings
  1

  2
none_device
  4

  6

 40
0.0
 41
0.0
 42
0.0
 43
0.0
 44
0.0
 45
0.0
 46
0.0
 47
0.0
 48
0.0
 49
0.0
140
0.0
141
0.0
142
1.0
143
1.0
 70
   688
 72
     0
 73
     0
 74
     5
  7

 75
    16
147
1.0
148
0.0
149
0.0
100
AcDbLayout
  1
Layout1
 70
     1
 71
     1
 10
0.0
 20
0.0
 11
420.0
 21
297.0
 12
0.0
 22
0.0
 32
0.0
 14
1.0000000000E+20
 24
1.0000000000E+20
 34
1.0000000000E+20
 15
-1.0000000000E+20
 25
-1.0000000000E+20
 35
-1.0000000000E+20
146
0.0
 13
0.0
 23
0.0
 33
0.0
 16
1.0
 26
0.0
 36
0.0
 17
0.0
 27
1.0
 37
0.0
 76
     0
330
1B
  0
LAYOUT
  5
26
102
{ACAD_REACTORS
330
1A
102
}
330
1A
100
AcDbPlotSettings
  1

  2
none_device
  4

  6

 40
0.0
 41
0.0
 42
0.0
 43
0.0
 44
0.0
 45
0.0
 46
0.0
 47
0.0
 48
0.0
 49
0.0
140
0.0
141
0.0
142
1.0
143
1.0
 70
   688
 72
     0
 73
     0
 74
     5
  7

 75
    16
147
1.0
148
0.0
149
0.0
100
AcDbLayout
  1
Layout2
 70
     1
 71
     2
 10
0.0
 20
0.0
 11
0.0
 21
0.0
 12
0.0
 22
0.0
 32
0.0
 14
0.0
 24
0.0
 34
0.0
 15
0.0
 25
0.0
 35
0.0
146
0.0
 13
0.0
 23
0.0
 33
0.0
 16
1.0
 26
0.0
 36
0.0
 17
0.0
 27
1.0
 37
0.0
 76
     0
330
23
  0
LAYOUT
  5
22
102
{ACAD_REACTORS
330
1A
102
}
330
1A
100
AcDbPlotSettings
  1

  2
none_device
  4

  6

 40
0.0
 41
0.0
 42
0.0
 43
0.0
 44
0.0
 45
0.0
 46
0.0
 47
0.0
 48
0.0
 49
0.0
140
0.0
141
0.0
142
1.0
143
1.0
 70
  1712
 72
     0
 73
     0
 74
     0
  7

 75
     0
147
1.0
148
0.0
149
0.0
100
AcDbLayout
  1
Model
 70
     1
 71
     0
 10
0.0
 20
0.0
 11
210.0
 21
297.0
 12
0.0
 22
0.0
 32
0.0
 14
0.0
 24
0.0
 34
0.0
 15
210.0
 25
297.0
 35
0.0
146
0.0
 13
0.0
 23
0.0
 33
0.0
 16
1.0
 26
0.0
 36
0.0
 17
0.0
 27
1.0
 37
0.0
 76
     0
330
1F
331
29
  0
MLINESTYLE
  5
18
102
{ACAD_REACTORS
330
17
102
}
330
17
100
AcDbMlineStyle
  2
Standard
 70
     0
  3

 62
   256
 51
90.0
 52
90.0
 71
     2
 49
0.5
 62
   256
  6
BYLAYER
 49
-0.5
 62
   256
  6
BYLAYER
  0
ACDBPLACEHOLDER
  5
F
102
{ACAD_REACTORS
330
E
102
}
330
E
  0
ENDSEC
  0
EOF
