  0
SECTION
  2
HEADER
  9
$ACADVER
  1
AC1015
  9
$ACADMAINTVER
 70
     6
  9
$DWGCODEPAGE
  3
DOS932
  9
$INSBASE
 10
0.0
 20
0.0
 30
0.0
  9
$EXTMIN
 10
0.0
 20
0.0
 30
0.0
  9
$EXTMAX
 10
210.0
 20
297.0
 30
0.0
  9
$LIMMIN
 10
0.0
 20
0.0
  9
$LIMMAX
 10
210.0
 20
297.0
  9
$ORTHOMODE
 70
     0
  9
$REGENMODE
 70
     1
  9
$FILLMODE
 70
     1
  9
$QTEXTMODE
 70
     0
  9
$MIRRTEXT
 70
     1
  9
$LTSCALE
 40
1.0
  9
$ATTMODE
 70
     1
  9
$TEXTSIZE
 40
3.5
  9
$TRACEWID
 40
1.0
  9
$TEXTSTYLE
  7
Standard
  9
$CLAYER
  8
0
  9
$CELTYPE
  6
ByLayer
  9
$CECOLOR
 62
   256
  9
$CELTSCALE
 40
1.0
  9
$DISPSILH
 70
     0
  9
$DIMSCALE
 40
1.0
  9
$DIMASZ
 40
2.0
  9
$DIMEXO
 40
1.0
  9
$DIMDLI
 40
3.75
  9
$DIMRND
 40
0.0
  9
$DIMDLE
 40
0.0
  9
$DIMEXE
 40
1.0
  9
$DIMTP
 40
0.0
  9
$DIMTM
 40
0.0
  9
$DIMTXT
 40
3.5
  9
$DIMCEN
 40
2.5
  9
$DIMTSZ
 40
0.0
  9
$DIMTOL
 70
     0
  9
$DIMLIM
 70
     0
  9
$DIMTIH
 70
     1
  9
$DIMTOH
 70
     1
  9
$DIMSE1
 70
     0
  9
$DIMSE2
 70
     0
  9
$DIMTAD
 70
     1
  9
$DIMZIN
 70
     0
  9
$DIMBLK
  1

  9
$DIMASO
 70
     1
  9
$DIMSHO
 70
     1
  9
$DIMPOST
  1

  9
$DIMAPOST
  1

  9
$DIMALT
 70
     0
  9
$DIMALTD
 70
     3
  9
$DIMALTF
 40
0.0393700787
  9
$DIMLFAC
 40
1.0
  9
$DIMTOFL
 70
     1
  9
$DIMTVP
 40
0.0
  9
$DIMTIX
 70
     0
  9
$DIMSOXD
 70
     0
  9
$DIMSAH
 70
     0
  9
$DIMBLK1
  1

  9
$DIMBLK2
  1

  9
$DIMSTYLE
  2
ISO-25
  9
$DIMCLRD
 70
     0
  9
$DIMCLRE
 70
     0
  9
$DIMCLRT
 70
     0
  9
$DIMTFAC
 40
1.0
  9
$DIMGAP
 40
1.524
  9
$DIMJUST
 70
     0
  9
$DIMSD1
 70
     0
  9
$DIMSD2
 70
     0
  9
$DIMTOLJ
 70
     0
  9
$DIMTZIN
 70
     0
  9
$DIMALTZ
 70
     0
  9
$DIMALTTZ
 70
     0
  9
$DIMUPT
 70
     0
  9
$DIMDEC
 70
     2
  9
$DIMTDEC
 70
     2
  9
$DIMALTU
 70
     2
  9
$DIMALTTD
 70
     3
  9
$DIMTXSTY
  7
Standard
  9
$DIMAUNIT
 70
     0
  9
$DIMADEC
 70
     2
  9
$DIMALTRND
 40
0.0
  9
$DIMAZIN
 70
     0
  9
$DIMDSEP
 70
    44
  9
$DIMATFIT
 70
     3
  9
$DIMFRAC
 70
     0
  9
$DIMLDRBLK
  1

  9
$DIMLUNIT
 70
     2
  9
$DIMLWD
 70
    -2
  9
$DIMLWE
 70
    -2
  9
$DIMTMOVE
 70
     0
  9
$LUNITS
 70
     2
  9
$LUPREC
 70
     2
  9
$SKETCHINC
 40
1.0
  9
$FILLETRAD
 40
10.0
  9
$AUNITS
 70
     0
  9
$AUPREC
 70
     2
  9
$MENU
  1
.
  9
$ELEVATION
 40
0.0
  9
$PELEVATION
 40
0.0
  9
$THICKNESS
 40
0.0
  9
$LIMCHECK
 70
     0
  9
$CHAMFERA
 40
10.0
  9
$CHAMFERB
 40
10.0
  9
$CHAMFERC
 40
20.0
  9
$CHAMFERD
 40
0.0
  9
$SKPOLY
 70
     0
  9
$TDCREATE
 40
2456911.816039236
  9
$TDUCREATE
 40
2456911.441039236
  9
$TDUPDATE
 40
2456911.816041227
  9
$TDUUPDATE
 40
2456911.441041227
  9
$TDINDWG
 40
0.0000000116
  9
$TDUSRTIMER
 40
0.0000000116
  9
$USRTIMER
 70
     1
  9
$ANGBASE
 50
0.0
  9
$ANGDIR
 70
     0
  9
$PDMODE
 70
     0
  9
$PDSIZE
 40
-1.0
  9
$PLINEWID
 40
0.0
  9
$SPLFRAME
 70
     0
  9
$SPLINETYPE
 70
     6
  9
$SPLINESEGS
 70
     8
  9
$HANDSEED
  5
500
  9
$SURFTAB1
 70
     6
  9
$SURFTAB2
 70
     6
  9
$SURFTYPE
 70
     6
  9
$SURFU
 70
     6
  9
$SURFV
 70
     6
  9
$UCSBASE
  2

  9
$UCSNAME
  2

  9
$UCSORG
 10
0.0
 20
0.0
 30
0.0
  9
$UCSXDIR
 10
1.0
 20
0.0
 30
0.0
  9
$UCSYDIR
 10
0.0
 20
1.0
 30
0.0
  9
$UCSORTHOREF
  2

  9
$UCSORTHOVIEW
 70
     0
  9
$UCSORGTOP
 10
0.0
 20
0.0
 30
0.0
  9
$UCSORGBOTTOM
 10
0.0
 20
0.0
 30
0.0
  9
$UCSORGLEFT
 10
0.0
 20
0.0
 30
0.0
  9
$UCSORGRIGHT
 10
0.0
 20
0.0
 30
0.0
  9
$UCSORGFRONT
 10
0.0
 20
0.0
 30
0.0
  9
$UCSORGBACK
 10
0.0
 20
0.0
 30
0.0
  9
$PUCSBASE
  2

  9
$PUCSNAME
  2

  9
$PUCSORG
 10
0.0
 20
0.0
 30
0.0
  9
$PUCSXDIR
 10
1.0
 20
0.0
 30
0.0
  9
$PUCSYDIR
 10
0.0
 20
1.0
 30
0.0
  9
$PUCSORTHOREF
  2

  9
$PUCSORTHOVIEW
 70
     0
  9
$PUCSORGTOP
 10
0.0
 20
0.0
 30
0.0
  9
$PUCSORGBOTTOM
 10
0.0
 20
0.0
 30
0.0
  9
$PUCSORGLEFT
 10
0.0
 20
0.0
 30
0.0
  9
$PUCSORGRIGHT
 10
0.0
 20
0.0
 30
0.0
  9
$PUCSORGFRONT
 10
0.0
 20
0.0
 30
0.0
  9
$PUCSORGBACK
 10
0.0
 20
0.0
 30
0.0
  9
$USERI1
 70
     0
  9
$USERI2
 70
     0
  9
$USERI3
 70
     0
  9
$USERI4
 70
     0
  9
$USERI5
 70
     0
  9
$USERR1
 40
0.0
  9
$USERR2
 40
0.0
  9
$USERR3
 40
0.0
  9
$USERR4
 40
0.0
  9
$USERR5
 40
0.0
  9
$WORLDVIEW
 70
     1
  9
$SHADEDGE
 70
     3
  9
$SHADEDIF
 70
    70
  9
$TILEMODE
 70
     1
  9
$MAXACTVP
 70
    64
  9
$PINSBASE
 10
0.0
 20
0.0
 30
0.0
  9
$PLIMCHECK
 70
     0
  9
$PEXTMIN
 10
1.0000000000E+20
 20
1.0000000000E+20
 30
1.0000000000E+20
  9
$PEXTMAX
 10
-1.0000000000E+20
 20
-1.0000000000E+20
 30
-1.0000000000E+20
  9
$PLIMMIN
 10
0.0
 20
0.0
  9
$PLIMMAX
 10
420.0
 20
297.0
  9
$UNITMODE
 70
     0
  9
$VISRETAIN
 70
     1
  9
$PLINEGEN
 70
     0
  9
$PSLTSCALE
 70
     1
  9
$TREEDEPTH
 70
  3020
  9
$CMLSTYLE
  2
Standard
  9
$CMLJUST
 70
     0
  9
$CMLSCALE
 40
20.0
  9
$PROXYGRAPHICS
 70
     1
  9
$MEASUREMENT
 70
     1
  9
$CELWEIGHT
370
    -1
  9
$ENDCAPS
280
     0
  9
$JOINSTYLE
280
     0
  9
$LWDISPLAY
290
     1
  9
$INSUNITS
 70
     4
  9
$HYPERLINKBASE
  1

  9
$STYLESHEET
  1

  9
$XEDIT
290
     1
  9
$CEPSNTYPE
380
     0
  9
$PSTYLEMODE
290
     1
  9
$FINGERPRINTGUID
  2
{6B9A40F6-CF80-4C46-AD61-9112A4A6F9AA}
  9
$VERSIONGUID
  2
{FAEB1C32-E019-11D5-929B-00C0DF256EC4}
  9
$EXTNAMES
290
     1
  9
$PSVPSCALE
 40
0.0
  9
$OLESTARTUP
290
     0
  0
ENDSEC
  0
SECTION
  2
CLASSES
  0
CLASS
  1
ACDBDICTIONARYWDFLT
  2
AcDbDictionaryWithDefault
  3
ObjectDBX Classes
 90
        0
280
     0
281
     0
  0
CLASS
  1
VISUALSTYLE
  2
AcDbVisualStyle
  3
ObjectDBX Classes
 90
     4095
280
     0
281
     0
  0
CLASS
  1
MATERIAL
  2
AcDbMaterial
  3
ObjectDBX Classes
 90
     1153
280
     0
281
     0
  0
CLASS
  1
ACDBPLACEHOLDER
  2
AcDbPlaceHolder
  3
ObjectDBX Classes
 90
        0
280
     0
281
     0
  0
CLASS
  1
LAYOUT
  2
AcDbLayout
  3
ObjectDBX Classes
 90
        0
280
     0
281
     0
  0
ENDSEC
  0
SECTION
  2
TABLES
  0
TABLE
  2
VPORT
  5
8
330
0
100
AcDbSymbolTable
 70
     1
  0
VPORT
  5
29
330
8
100
AcDbSymbolTableRecord
100
AcDbViewportTableRecord
  2
*Active
 70
     0
 10
0.0
 20
0.0
 11
1.0
 21
1.0
 12
105.0
 22
148.5
 13
0.0
 23
0.0
 14
10.0
 24
10.0
 15
10.0
 25
10.0
 16
0.0
 26
0.0
 36
1.0
 17
0.0
 27
0.0
 37
0.0
 40
297.0
 41
0.7070707071
 42
50.0
 43
0.0
 44
0.0
 50
0.0
 51
0.0
 71
     0
 72
  2000
 73
     1
 74
     3
 75
     0
 76
     0
 77
     0
 78
     0
281
     0
 65
     1
110
0.0
120
0.0
130
0.0
111
1.0
121
0.0
131
0.0
112
0.0
122
1.0
132
0.0
 79
     0
146
0.0
  0
ENDTAB
  0
TABLE
  2
LTYPE
  5
5
330
0
100
AcDbSymbolTable
 70
     6
  0
LTYPE
  5
14
330
5
100
AcDbSymbolTableRecord
100
AcDbLinetypeTableRecord
  2
ByBlock
 70
     0
  3

 72
    65
 73
     0
 40
0.0
  0
LTYPE
  5
15
330
5
100
AcDbSymbolTableRecord
100
AcDbLinetypeTableRecord
  2
ByLayer
 70
     0
  3

 72
    65
 73
     0
 40
0.0
  0
LTYPE
  5
16
330
5
100
AcDbSymbolTableRecord
100
AcDbLinetypeTableRecord
  2
Continuous
 70
     0
  3
Solid line
 72
    65
 73
     0
 40
0.0
  0
LTYPE
  5
3F
330
5
100
AcDbSymbolTableRecord
100
AcDbLinetypeTableRecord
  2
HIDDEN
 70
     0
  3
Hidden __ __ __ __ __ __ __ __ __ __ __ __ __ __
 72
    65
 73
     2
 40
1.905
 49
1.27
 74
     0
 49
-0.635
 74
     0
  0
LTYPE
  5
40
330
5
100
AcDbSymbolTableRecord
100
AcDbLinetypeTableRecord
  2
PHANTOM
 70
     0
  3
Phantom ______  __  __  ______  __  __  ______
 72
    65
 73
     6
 40
12.7
 49
6.35
 74
     0
 49
-1.27
 74
     0
 49
1.27
 74
     0
 49
-1.27
 74
     0
 49
1.27
 74
     0
 49
-1.27
 74
     0
  0
LTYPE
  5
41
330
5
100
AcDbSymbolTableRecord
100
AcDbLinetypeTableRecord
  2
CENTER
 70
     0
  3
Center ____ _ ____ _ ____ _ ____ _ ____ _ ____
 72
    65
 73
     4
 40
10.16
 49
6.35
 74
     0
 49
-1.27
 74
     0
 49
1.27
 74
     0
 49
-1.27
 74
     0
  0
LTYPE
  5
42
330
5
100
AcDbSymbolTableRecord
100
AcDbLinetypeTableRecord
  2
CENTERX2
 70
     0
  3
Center (2x) ________  __  ________  __  _____
 72
    65
 73
     4
 40
20.32
 49
12.7
 74
     0
 49
-2.54
 74
     0
 49
2.54
 74
     0
 49
-2.54
 74
     0
  0
LTYPE
  5
43
330
5
100
AcDbSymbolTableRecord
100
AcDbLinetypeTableRecord
  2
DOT2
 70
     0
  3
Dot (.5x) ........................................
 72
    65
 73
     2
 40
0.635
 49
0.0
 74
     0
 49
-0.635
 74
     0
  0
ENDTAB
  0
TABLE
  2
LAYER
  5
2
330
0
100
AcDbSymbolTable
 70
     1
  0
LAYER
  5
10
330
2
100
AcDbSymbolTableRecord
100
AcDbLayerTableRecord
  2
0
 70
     0
 62
     7
  6
Continuous
370
    -3
390
F
  0
ENDTAB
  0
TABLE
  2
STYLE
  5
3
330
0
100
AcDbSymbolTable
 70
     3
  0
STYLE
  5
11
330
3
100
AcDbSymbolTableRecord
100
AcDbTextStyleTableRecord
  2
Standard
 70
     0
 40
0.0
 41
1.0
 50
0.0
 71
     0
 42
3.5
  3
txt
  4
bigfont
  0
STYLE
  5
4C
330
3
100
AcDbSymbolTableRecord
100
AcDbTextStyleTableRecord
  2
SLDTEXTSTYLE0
 70
     0
 40
0.0
 41
0.7
 50
0.0
 71
     0
 42
0.2
  3
TXT
  4
bigfont
  0
STYLE
  5
1E9
330
3
100
AcDbSymbolTableRecord
100
AcDbTextStyleTableRecord
  2
SLDTEXTSTYLE1
 70
     0
 40
0.0
 41
0.75
 50
0.0
 71
     0
 42
0.2
  3
TXT
  4
bigfont
  0
ENDTAB
  0
TABLE
  2
VIEW
  5
6
330
0
100
AcDbSymbolTable
 70
     0
  0
ENDTAB
  0
TABLE
  2
UCS
  5
7
330
0
100
AcDbSymbolTable
 70
     0
  0
ENDTAB
  0
TABLE
  2
APPID
  5
9
330
0
100
AcDbSymbolTable
 70
     1
  0
APPID
  5
12
330
9
100
AcDbSymbolTableRecord
100
AcDbRegAppTableRecord
  2
ACAD
 70
     0
  0
ENDTAB
  0
TABLE
  2
DIMSTYLE
  5
A
330
0
100
AcDbSymbolTable
 70
     8
100
AcDbDimStyleTable
  0
DIMSTYLE
105
27
330
A
100
AcDbSymbolTableRecord
100
AcDbDimStyleTableRecord
  2
ISO-25
 70
     0
 41
2.5
 42
0.625
 43
3.75
 44
1.25
 73
     0
 74
     0
 77
     1
 78
     8
140
2.5
141
2.5
143
0.0393700787
147
0.625
171
     3
172
     1
178
     0
271
     2
272
     2
274
     3
278
    44
283
     0
284
     8
340
11
  0
DIMSTYLE
105
1EA
102
{ACAD_REACTORS
330
1E8
330
1F4
330
1FE
330
208
330
38E
330
3A3
330
4B2
330
4CA
330
4D4
330
4DE
102
}
330
A
100
AcDbSymbolTableRecord
100
AcDbDimStyleTableRecord
  2
SLDDIMSTYLE0
 70
     0
 41
2.0
 44
0.0
 45
0.000000001
 73
     0
 74
     0
 77
     3
 78
    12
 79
     3
140
3.5
147
0.875
173
     1
178
     0
271
     2
272
     2
276
     2
284
    12
340
1E9
  0
DIMSTYLE
105
213
102
{ACAD_REACTORS
330
212
102
}
330
A
100
AcDbSymbolTableRecord
100
AcDbDimStyleTableRecord
  2
SLDDIMSTYLE1
 70
     0
 41
2.0
 44
0.0
 45
0.000000001
 73
     0
 74
     0
 77
     3
 78
    12
 79
     3
140
3.5
147
0.875
172
     1
173
     1
178
     0
271
     2
272
     2
276
     2
284
    12
289
     0
340
1E9
344
214
  0
DIMSTYLE
105
228
102
{ACAD_REACTORS
330
227
102
}
330
A
100
AcDbSymbolTableRecord
100
AcDbDimStyleTableRecord
  2
SLDDIMSTYLE2
 70
     0
 41
1.5
 44
0.0
 45
0.000000001
 73
     0
 74
     0
 77
     3
 78
    12
 79
     3
140
3.5
147
0.875
172
     1
173
     1
178
     0
271
     1
272
     2
276
     2
284
    12
289
     0
340
1E9
341
214
343
214
  0
DIMSTYLE
105
235
102
{ACAD_REACTORS
330
234
102
}
330
A
100
AcDbSymbolTableRecord
100
AcDbDimStyleTableRecord
  2
SLDDIMSTYLE3
 70
     0
 41
2.0
 44
0.0
 45
0.000000001
 73
     0
 74
     0
 77
     3
 78
    12
 79
     3
140
3.5
147
0.875
172
     1
173
     1
178
     0
271
     1
272
     1
276
     2
284
    12
289
     0
340
1E9
  0
DIMSTYLE
105
242
330
A
100
AcDbSymbolTableRecord
100
AcDbDimStyleTableRecord
  2
SLDDIMSTYLE4
 70
     0
 41
2.0
 44
0.0
 45
0.000000001
140
0.0
146
2.0
147
0.0
173
     1
178
     0
271
     0
272
     0
276
     2
340
11
  0
DIMSTYLE
105
399
102
{ACAD_REACTORS
330
398
102
}
330
A
100
AcDbSymbolTableRecord
100
AcDbDimStyleTableRecord
  2
SLDDIMSTYLE5
 70
     0
 41
2.0
 44
0.0
 45
0.000000001
 73
     0
 74
     0
 77
     3
 78
    12
 79
     3
140
3.5
147
0.875
173
     1
178
     0
271
     1
272
     2
276
     2
284
    12
340
1E9
  0
DIMSTYLE
105
4BE
102
{ACAD_REACTORS
330
4BD
102
}
330
A
100
AcDbSymbolTableRecord
100
AcDbDimStyleTableRecord
  2
SLDDIMSTYLE6
 70
     0
 41
2.0
 44
0.0
 45
0.000000001
 73
     0
 74
     0
 77
     3
 78
    12
 79
     3
140
3.5
147
0.875
172
     1
173
     1
178
     0
271
     2
272
     2
276
     2
284
    12
289
     0
340
1E9
  0
ENDTAB
  0
TABLE
  2
BLOCK_RECORD
  5
1
330
0
100
AcDbSymbolTable
 70
    26
  0
BLOCK_RECORD
  5
1F
330
1
100
AcDbSymbolTableRecord
100
AcDbBlockTableRecord
  2
*Model_Space
340
22
  0
BLOCK_RECORD
  5
1B
330
1
100
AcDbSymbolTableRecord
100
AcDbBlockTableRecord
  2
*Paper_Space
340
1E
  0
BLOCK_RECORD
  5
23
330
1
100
AcDbSymbolTableRecord
100
AcDbBlockTableRecord
  2
*Paper_Space0
340
26
  0
BLOCK_RECORD
  5
1EB
330
1
100
AcDbSymbolTableRecord
100
AcDbBlockTableRecord
  2
_D
340
0
  0
BLOCK_RECORD
  5
1F5
330
1
100
AcDbSymbolTableRecord
100
AcDbBlockTableRecord
  2
_D_1
340
0
  0
BLOCK_RECORD
  5
1FF
330
1
100
AcDbSymbolTableRecord
100
AcDbBlockTableRecord
  2
_D_2
340
0
  0
BLOCK_RECORD
  5
209
330
1
100
AcDbSymbolTableRecord
100
AcDbBlockTableRecord
  2
_D_3
340
0
  0
BLOCK_RECORD
  5
214
330
1
100
AcDbSymbolTableRecord
100
AcDbBlockTableRecord
  2
_DOT
340
0
102
{BLKREFS
331
220
331
22C
102
}
  0
BLOCK_RECORD
  5
21C
330
1
100
AcDbSymbolTableRecord
100
AcDbBlockTableRecord
  2
_D_4
340
0
  0
BLOCK_RECORD
  5
229
330
1
100
AcDbSymbolTableRecord
100
AcDbBlockTableRecord
  2
_D_5
340
0
  0
BLOCK_RECORD
  5
236
330
1
100
AcDbSymbolTableRecord
100
AcDbBlockTableRecord
  2
_D_6
340
0
  0
BLOCK_RECORD
  5
248
330
1
100
AcDbSymbolTableRecord
100
AcDbBlockTableRecord
  2
SW_CENTERMARKSYMBOL_0
340
0
102
{BLKREFS
331
253
102
}
  0
BLOCK_RECORD
  5
254
330
1
100
AcDbSymbolTableRecord
100
AcDbBlockTableRecord
  2
SW_CENTERMARKSYMBOL_1
340
0
102
{BLKREFS
331
25F
102
}
  0
BLOCK_RECORD
  5
38F
330
1
100
AcDbSymbolTableRecord
100
AcDbBlockTableRecord
  2
_D_7
340
0
  0
BLOCK_RECORD
  5
39A
330
1
100
AcDbSymbolTableRecord
100
AcDbBlockTableRecord
  2
_D_8
340
0
  0
BLOCK_RECORD
  5
3A4
330
1
100
AcDbSymbolTableRecord
100
AcDbBlockTableRecord
  2
_D_9
340
0
  0
BLOCK_RECORD
  5
3AD
330
1
100
AcDbSymbolTableRecord
100
AcDbBlockTableRecord
  2
SW_CENTERMARKSYMBOL_2
340
0
102
{BLKREFS
331
3B8
102
}
  0
BLOCK_RECORD
  5
3B9
330
1
100
AcDbSymbolTableRecord
100
AcDbBlockTableRecord
  2
SW_CENTERMARKSYMBOL_3
340
0
102
{BLKREFS
331
3C4
102
}
  0
BLOCK_RECORD
  5
3C5
330
1
100
AcDbSymbolTableRecord
100
AcDbBlockTableRecord
  2
SW_CENTERMARKSYMBOL_4
340
0
102
{BLKREFS
331
3D0
102
}
  0
BLOCK_RECORD
  5
3D1
330
1
100
AcDbSymbolTableRecord
100
AcDbBlockTableRecord
  2
SW_CENTERMARKSYMBOL_5
340
0
102
{BLKREFS
331
3DC
102
}
  0
BLOCK_RECORD
  5
3DD
330
1
100
AcDbSymbolTableRecord
100
AcDbBlockTableRecord
  2
SW_CENTERMARKSYMBOL_6
340
0
102
{BLKREFS
331
3E8
102
}
  0
BLOCK_RECORD
  5
4B3
330
1
100
AcDbSymbolTableRecord
100
AcDbBlockTableRecord
  2
_D_10
340
0
  0
BLOCK_RECORD
  5
4BF
330
1
100
AcDbSymbolTableRecord
100
AcDbBlockTableRecord
  2
_D_11
340
0
  0
BLOCK_RECORD
  5
4CB
330
1
100
AcDbSymbolTableRecord
100
AcDbBlockTableRecord
  2
_D_12
340
0
  0
BLOCK_RECORD
  5
4D5
330
1
100
AcDbSymbolTableRecord
100
AcDbBlockTableRecord
  2
_D_13
340
0
  0
BLOCK_RECORD
  5
4DF
330
1
100
AcDbSymbolTableRecord
100
AcDbBlockTableRecord
  2
_D_14
340
0
  0
BLOCK_RECORD
  5
4E8
330
1
100
AcDbSymbolTableRecord
100
AcDbBlockTableRecord
  2
SW_CENTERMARKSYMBOL_7
340
0
102
{BLKREFS
331
4F3
102
}
  0
BLOCK_RECORD
  5
4F4
330
1
100
AcDbSymbolTableRecord
100
AcDbBlockTableRecord
  2
SW_CENTERMARKSYMBOL_8
340
0
102
{BLKREFS
331
4FF
102
}
  0
ENDTAB
  0
ENDSEC
  0
SECTION
  2
BLOCKS
  0
BLOCK
  5
20
330
1F
100
AcDbEntity
  8
0
100
AcDbBlockBegin
  2
*Model_Space
 70
     0
 10
0.0
 20
0.0
 30
0.0
  3
*Model_Space
  1

  0
ENDBLK
  5
21
330
1F
100
AcDbEntity
  8
0
100
AcDbBlockEnd
  0
BLOCK
  5
1C
330
1B
100
AcDbEntity
 67
     1
  8
0
100
AcDbBlockBegin
  2
*Paper_Space
 70
     0
 10
0.0
 20
0.0
 30
0.0
  3
*Paper_Space
  1

  0
ENDBLK
  5
1D
330
1B
100
AcDbEntity
 67
     1
  8
0
100
AcDbBlockEnd
  0
BLOCK
  5
24
330
23
100
AcDbEntity
  8
0
100
AcDbBlockBegin
  2
*Paper_Space0
 70
     0
 10
0.0
 20
0.0
 30
0.0
  3
*Paper_Space0
  1

  0
ENDBLK
  5
25
330
23
100
AcDbEntity
  8
0
100
AcDbBlockEnd
  0
BLOCK
  5
1EC
330
1EB
100
AcDbEntity
  8
0
100
AcDbBlockBegin
  2
_D
 70
     0
 10
0.0
 20
0.0
 30
0.0
  3
_D
  1

  0
SOLID
  5
1EE
330
1EB
100
AcDbEntity
  8
0
  6
Continuous
 62
     7
370
     0
100
AcDbTrace
 10
103.9471326799
 20
182.3262826806
 30
0.0
 11
103.1971326799
 21
180.3262826806
 31
0.0
 12
104.6971326799
 22
180.3262826806
 32
0.0
 13
104.6971326799
 23
180.3262826806
 33
0.0
  0
SOLID
  5
1EF
330
1EB
100
AcDbEntity
  8
0
  6
Continuous
 62
     7
370
     0
100
AcDbTrace
 10
103.9471326799
 20
161.3262826806
 30
0.0
 11
104.6971326799
 21
163.3262826806
 31
0.0
 12
103.1971326799
 22
163.3262826806
 32
0.0
 13
103.1971326799
 23
163.3262826806
 33
0.0
  0
LINE
  5
1F0
330
1EB
100
AcDbEntity
  8
0
  6
Continuous
 62
     7
370
     0
100
AcDbLine
 10
121.0098453624
 20
182.3262826806
 30
0.0
 11
102.9471326799
 21
182.3262826806
 31
0.0
  0
LINE
  5
1F1
330
1EB
100
AcDbEntity
  8
0
  6
Continuous
 62
     7
370
     0
100
AcDbLine
 10
140.4471326799
 20
161.3262826806
 30
0.0
 11
102.9471326799
 21
161.3262826806
 31
0.0
  0
LINE
  5
1F2
330
1EB
100
AcDbEntity
  8
0
  6
Continuous
 62
     7
370
     0
100
AcDbLine
 10
103.9471326799
 20
182.3262826806
 30
0.0
 11
103.9471326799
 21
161.3262826806
 31
0.0
  0
MTEXT
  5
1F3
330
1EB
100
AcDbEntity
  8
0
  6
Continuous
 62
     7
370
     0
100
AcDbMText
 10
99.4353957653
 20
169.0853542014
 30
0.1
 40
3.5
 41
0.0
 71
     1
 72
     1
  1
21
  7
SLDTEXTSTYLE1
 11
-7.044195017643634E-15
 21
1.0
 31
0.0
 73
     1
 44
1.0
  0
ENDBLK
  5
1ED
330
1EB
100
AcDbEntity
  8
0
100
AcDbBlockEnd
  0
BLOCK
  5
1F6
330
1F5
100
AcDbEntity
  8
0
100
AcDbBlockBegin
  2
_D_1
 70
     0
 10
0.0
 20
0.0
 30
0.0
  3
_D_1
  1

  0
SOLID
  5
1F8
330
1F5
100
AcDbEntity
  8
0
  6
Continuous
 62
     7
370
     0
100
AcDbTrace
 10
125.4471326799
 20
148.3170266093
 30
0.0
 11
127.4471326799
 21
147.5670266093
 31
0.0
 12
127.4471326799
 22
149.0670266093
 32
0.0
 13
127.4471326799
 23
149.0670266093
 33
0.0
  0
SOLID
  5
1F9
330
1F5
100
AcDbEntity
  8
0
  6
Continuous
 62
     7
370
     0
100
AcDbTrace
 10
163.4471326799
 20
148.3170266093
 30
0.0
 11
161.4471326799
 21
149.0670266093
 31
0.0
 12
161.4471326799
 22
147.5670266093
 32
0.0
 13
161.4471326799
 23
147.5670266093
 33
0.0
  0
LINE
  5
1FA
330
1F5
100
AcDbEntity
  8
0
  6
Continuous
 62
     7
370
     0
100
AcDbLine
 10
125.4471326799
 20
176.8262826806
 30
0.0
 11
125.4471326799
 21
147.3170266093
 31
0.0
  0
LINE
  5
1FB
330
1F5
100
AcDbEntity
  8
0
  6
Continuous
 62
     7
370
     0
100
AcDbLine
 10
163.4471326799
 20
179.0762826806
 30
0.0
 11
163.4471326799
 21
147.3170266093
 31
0.0
  0
LINE
  5
1FC
330
1F5
100
AcDbEntity
  8
0
  6
Continuous
 62
     7
370
     0
100
AcDbLine
 10
125.4471326799
 20
148.3170266093
 30
0.0
 11
163.4471326799
 21
148.3170266093
 31
0.0
  0
MTEXT
  5
1FD
330
1F5
100
AcDbEntity
  8
0
  6
Continuous
 62
     7
370
     0
100
AcDbMText
 10
142.5643812645
 20
152.8287635238
 30
-6.860690685
 40
3.5
 41
0.0
 71
     1
 72
     1
  1
38
  7
SLDTEXTSTYLE1
 73
     1
 44
1.0
  0
ENDBLK
  5
1F7
330
1F5
100
AcDbEntity
  8
0
100
AcDbBlockEnd
  0
BLOCK
  5
200
330
1FF
100
AcDbEntity
  8
0
100
AcDbBlockBegin
  2
_D_2
 70
     0
 10
0.0
 20
0.0
 30
0.0
  3
_D_2
  1

  0
SOLID
  5
202
330
1FF
100
AcDbEntity
  8
0
  6
Continuous
 62
     7
370
     0
100
AcDbTrace
 10
120.4471326799
 20
137.652433323
 30
0.0
 11
122.4471326799
 21
136.902433323
 31
0.0
 12
122.4471326799
 22
138.402433323
 32
0.0
 13
122.4471326799
 23
138.402433323
 33
0.0
  0
SOLID
  5
203
330
1FF
100
AcDbEntity
  8
0
  6
Continuous
 62
     7
370
     0
100
AcDbTrace
 10
168.4471326799
 20
137.652433323
 30
0.0
 11
166.4471326799
 21
138.402433323
 31
0.0
 12
166.4471326799
 22
136.902433323
 32
0.0
 13
166.4471326799
 23
136.902433323
 33
0.0
  0
LINE
  5
204
330
1FF
100
AcDbEntity
  8
0
  6
Continuous
 62
     7
370
     0
100
AcDbLine
 10
120.4471326799
 20
168.3262826806
 30
0.0
 11
120.4471326799
 21
136.652433323
 31
0.0
  0
LINE
  5
205
330
1FF
100
AcDbEntity
  8
0
  6
Continuous
 62
     7
370
     0
100
AcDbLine
 10
168.4471326799
 20
168.3262826806
 30
0.0
 11
168.4471326799
 21
136.652433323
 31
0.0
  0
LINE
  5
206
330
1FF
100
AcDbEntity
  8
0
  6
Continuous
 62
     7
370
     0
100
AcDbLine
 10
120.4471326799
 20
137.652433323
 30
0.0
 11
168.4471326799
 21
137.652433323
 31
0.0
  0
MTEXT
  5
207
330
1FF
100
AcDbEntity
  8
0
  6
Continuous
 62
     7
370
     0
100
AcDbMText
 10
142.5643812645
 20
142.1641702376
 30
-6.860690685
 40
3.5
 41
0.0
 71
     1
 72
     1
  1
48
  7
SLDTEXTSTYLE1
 73
     1
 44
1.0
  0
ENDBLK
  5
201
330
1FF
100
AcDbEntity
  8
0
100
AcDbBlockEnd
  0
BLOCK
  5
20A
330
209
100
AcDbEntity
  8
0
100
AcDbBlockBegin
  2
_D_3
 70
     0
 10
0.0
 20
0.0
 30
0.0
  3
_D_3
  1

  0
SOLID
  5
20C
330
209
100
AcDbEntity
  8
0
  6
Continuous
 62
     7
370
     0
100
AcDbTrace
 10
112.4823335447
 20
189.3262826806
 30
0.0
 11
111.7323335447
 21
187.3262826806
 31
0.0
 12
113.2323335447
 22
187.3262826806
 32
0.0
 13
113.2323335447
 23
187.3262826806
 33
0.0
  0
SOLID
  5
20D
330
209
100
AcDbEntity
  8
0
  6
Continuous
 62
     7
370
     0
100
AcDbTrace
 10
112.4823335447
 20
167.3262826806
 30
0.0
 11
113.2323335447
 21
169.3262826806
 31
0.0
 12
111.7323335447
 22
169.3262826806
 32
0.0
 13
111.7323335447
 23
169.3262826806
 33
0.0
  0
LINE
  5
20E
330
209
100
AcDbEntity
  8
0
  6
Continuous
 62
     7
370
     0
100
AcDbLine
 10
121.4471326799
 20
189.3262826806
 30
0.0
 11
111.4823335447
 21
189.3262826806
 31
0.0
  0
LINE
  5
20F
330
209
100
AcDbEntity
  8
0
  6
Continuous
 62
     7
370
     0
100
AcDbLine
 10
121.4471326799
 20
167.3262826806
 30
0.0
 11
111.4823335447
 21
167.3262826806
 31
0.0
  0
LINE
  5
210
330
209
100
AcDbEntity
  8
0
  6
Continuous
 62
     7
370
     0
100
AcDbLine
 10
112.4823335447
 20
189.3262826806
 30
0.0
 11
112.4823335447
 21
167.3262826806
 31
0.0
  0
MTEXT
  5
211
330
209
100
AcDbEntity
  8
0
  6
Continuous
 62
     7
370
     0
100
AcDbMText
 10
107.9705966302
 20
174.1945478767
 30
-6.860690685
 40
3.5
 41
0.0
 71
     1
 72
     1
  1
22
  7
SLDTEXTSTYLE1
 11
-7.044195017643634E-15
 21
1.0
 31
0.0
 73
     1
 44
1.0
  0
ENDBLK
  5
20B
330
209
100
AcDbEntity
  8
0
100
AcDbBlockEnd
  0
BLOCK
  5
215
330
214
100
AcDbEntity
  8
0
100
AcDbBlockBegin
  2
_DOT
 70
     0
 10
0.0
 20
0.0
 30
0.0
  3
_DOT
  1

  0
POLYLINE
  5
217
330
214
100
AcDbEntity
  8
0
  6
ByBlock
 62
     0
100
AcDb2dPolyline
 66
     1
 10
0.0
 20
0.0
 30
0.0
 70
     1
 40
0.5
 41
0.5
  0
VERTEX
  5
219
330
217
100
AcDbEntity
  8
0
  6
ByBlock
 62
     0
100
AcDbVertex
100
AcDb2dVertex
 10
-0.25
 20
0.0
 30
0.0
 42
1.0
  0
VERTEX
  5
21A
330
217
100
AcDbEntity
  8
0
  6
ByBlock
 62
     0
100
AcDbVertex
100
AcDb2dVertex
 10
0.25
 20
0.0
 30
0.0
 42
1.0
  0
SEQEND
  5
21B
330
217
100
AcDbEntity
  8
0
  6
ByBlock
 62
     0
  0
LINE
  5
218
330
214
100
AcDbEntity
  8
0
  6
ByBlock
 62
     0
370
    -2
100
AcDbLine
 10
-0.5
 20
0.0
 30
0.0
 11
-1.0
 21
0.0
 31
0.0
  0
ENDBLK
  5
216
330
214
100
AcDbEntity
  8
0
100
AcDbBlockEnd
  0
BLOCK
  5
21D
330
21C
100
AcDbEntity
  8
0
100
AcDbBlockBegin
  2
_D_4
 70
     0
 10
0.0
 20
0.0
 30
0.0
  3
_D_4
  1

  0
SOLID
  5
21F
330
21C
100
AcDbEntity
  8
0
  6
Continuous
 62
     7
370
     0
100
AcDbTrace
 10
178.4471326799
 20
184.8262826806
 30
0.0
 11
179.1971326799
 21
186.8262826806
 31
0.0
 12
177.6971326799
 22
186.8262826806
 32
0.0
 13
177.6971326799
 23
186.8262826806
 33
0.0
  0
INSERT
  5
220
330
21C
100
AcDbEntity
  8
0
  6
Continuous
 62
     7
370
     0
100
AcDbBlockReference
  2
_DOT
 10
178.4471326799
 20
179.8262826806
 30
-6.860690685
 41
1.5
 42
1.5
 50
90.0
  0
LINE
  5
221
330
21C
100
AcDbEntity
  8
0
  6
Continuous
 62
     7
370
     0
100
AcDbLine
 10
169.1971326799
 20
184.8262826806
 30
0.0
 11
179.4471326799
 21
184.8262826806
 31
0.0
  0
LINE
  5
222
330
21C
100
AcDbEntity
  8
0
  6
Continuous
 62
     7
370
     0
100
AcDbLine
 10
169.1971326799
 20
179.8262826806
 30
0.0
 11
179.4471326799
 21
179.8262826806
 31
0.0
  0
LINE
  5
223
330
21C
100
AcDbEntity
  8
0
  6
Continuous
 62
     7
370
     0
100
AcDbLine
 10
178.4471326799
 20
184.8262826806
 30
0.0
 11
178.4471326799
 21
189.8262826806
 31
0.0
  0
LINE
  5
224
330
21C
100
AcDbEntity
  8
0
  6
Continuous
 62
     7
370
     0
100
AcDbLine
 10
178.4471326799
 20
184.8262826806
 30
0.0
 11
178.4471326799
 21
179.8262826806
 31
0.0
  0
LINE
  5
225
330
21C
100
AcDbEntity
  8
0
  6
Continuous
 62
     7
370
     0
100
AcDbLine
 10
178.4471326799
 20
179.8262826806
 30
0.0
 11
178.4471326799
 21
174.8262826806
 31
0.0
  0
MTEXT
  5
226
330
21C
100
AcDbEntity
  8
0
  6
Continuous
 62
     7
370
     0
100
AcDbMText
 10
173.9353957653
 20
181.2646490258
 30
-6.860690685
 40
3.5
 41
0.0
 71
     1
 72
     1
  1
5
  7
SLDTEXTSTYLE1
 11
-7.044195017643634E-15
 21
1.0
 31
0.0
 73
     1
 44
1.0
  0
ENDBLK
  5
21E
330
21C
100
AcDbEntity
  8
0
100
AcDbBlockEnd
  0
BLOCK
  5
22A
330
229
100
AcDbEntity
  8
0
100
AcDbBlockBegin
  2
_D_5
 70
     0
 10
0.0
 20
0.0
 30
0.0
  3
_D_5
  1

  0
INSERT
  5
22C
330
229
100
AcDbEntity
  8
0
  6
Continuous
 62
     7
370
     0
100
AcDbBlockReference
  2
_DOT
 10
178.4471326799
 20
179.8262826806
 30
-6.860690685
 41
1.5
 42
1.5
 50
270.0
  0
SOLID
  5
22D
330
229
100
AcDbEntity
  8
0
  6
Continuous
 62
     7
370
     0
100
AcDbTrace
 10
178.4471326799
 20
167.3262826806
 30
0.0
 11
177.6971326799
 21
165.3262826806
 31
0.0
 12
179.1971326799
 22
165.3262826806
 32
0.0
 13
179.1971326799
 23
165.3262826806
 33
0.0
  0
LINE
  5
22E
330
229
100
AcDbEntity
  8
0
  6
Continuous
 62
     7
370
     0
100
AcDbLine
 10
169.1971326799
 20
179.8262826806
 30
0.0
 11
179.4471326799
 21
179.8262826806
 31
0.0
  0
LINE
  5
22F
330
229
100
AcDbEntity
  8
0
  6
Continuous
 62
     7
370
     0
100
AcDbLine
 10
167.4471326799
 20
167.3262826806
 30
0.0
 11
179.4471326799
 21
167.3262826806
 31
0.0
  0
LINE
  5
230
330
229
100
AcDbEntity
  8
0
  6
Continuous
 62
     7
370
     0
100
AcDbLine
 10
178.4471326799
 20
179.8262826806
 30
0.0
 11
178.4471326799
 21
184.8262826806
 31
0.0
  0
LINE
  5
231
330
229
100
AcDbEntity
  8
0
  6
Continuous
 62
     7
370
     0
100
AcDbLine
 10
178.4471326799
 20
179.8262826806
 30
0.0
 11
178.4471326799
 21
167.3262826806
 31
0.0
  0
LINE
  5
232
330
229
100
AcDbEntity
  8
0
  6
Continuous
 62
     7
370
     0
100
AcDbLine
 10
178.4471326799
 20
167.3262826806
 30
0.0
 11
178.4471326799
 21
162.3262826806
 31
0.0
  0
MTEXT
  5
233
330
229
100
AcDbEntity
  8
0
  6
Continuous
 62
     7
370
     0
100
AcDbMText
 10
173.9353957653
 20
169.0505881501
 30
-6.860690685
 40
3.5
 41
0.0
 71
     1
 72
     1
  1
12.5
  7
SLDTEXTSTYLE1
 11
-7.044195017643634E-15
 21
1.0
 31
0.0
 73
     1
 44
1.0
  0
ENDBLK
  5
22B
330
229
100
AcDbEntity
  8
0
100
AcDbBlockEnd
  0
BLOCK
  5
237
330
236
100
AcDbEntity
  8
0
100
AcDbBlockBegin
  2
_D_6
 70
     0
 10
0.0
 20
0.0
 30
0.0
  3
_D_6
  1

  0
SOLID
  5
239
330
236
100
AcDbEntity
  8
0
  6
Continuous
 62
     7
370
     0
100
AcDbTrace
 10
161.1971326799
 20
157.2053761889
 30
0.0
 11
159.1971326799
 21
157.9553761889
 31
0.0
 12
159.1971326799
 22
156.4553761889
 32
0.0
 13
159.1971326799
 23
156.4553761889
 33
0.0
  0
SOLID
  5
23A
330
236
100
AcDbEntity
  8
0
  6
Continuous
 62
     7
370
     0
100
AcDbTrace
 10
165.6971326799
 20
157.2053761889
 30
0.0
 11
167.6971326799
 21
156.4553761889
 31
0.0
 12
167.6971326799
 22
157.9553761889
 32
0.0
 13
167.6971326799
 23
157.9553761889
 33
0.0
  0
LINE
  5
23B
330
236
100
AcDbEntity
  8
0
  6
Continuous
 62
     7
370
     0
100
AcDbLine
 10
161.1971326799
 20
178.8262826806
 30
0.0
 11
161.1971326799
 21
156.2053761889
 31
0.0
  0
LINE
  5
23C
330
236
100
AcDbEntity
  8
0
  6
Continuous
 62
     7
370
     0
100
AcDbLine
 10
165.6971326799
 20
178.8262826806
 30
0.0
 11
165.6971326799
 21
156.2053761889
 31
0.0
  0
LINE
  5
23D
330
236
100
AcDbEntity
  8
0
  6
Continuous
 62
     7
370
     0
100
AcDbLine
 10
161.1971326799
 20
157.2053761889
 30
0.0
 11
151.6613844782
 21
157.2053761889
 31
0.0
  0
LINE
  5
23E
330
236
100
AcDbEntity
  8
0
  6
Continuous
 62
     7
370
     0
100
AcDbLine
 10
161.1971326799
 20
157.2053761889
 30
0.0
 11
165.6971326799
 21
157.2053761889
 31
0.0
  0
LINE
  5
23F
330
236
100
AcDbEntity
  8
0
  6
Continuous
 62
     7
370
     0
100
AcDbLine
 10
165.6971326799
 20
157.2053761889
 30
0.0
 11
170.6971326799
 21
157.2053761889
 31
0.0
  0
MTEXT
  5
240
330
236
100
AcDbEntity
  8
0
  6
Continuous
 62
     7
370
     0
100
AcDbMText
 10
151.6613844782
 20
161.7171131035
 30
-6.860690685
 40
3.5
 41
0.0
 71
     1
 72
     1
  1
4.5
  7
SLDTEXTSTYLE1
 73
     1
 44
1.0
  0
ENDBLK
  5
238
330
236
100
AcDbEntity
  8
0
100
AcDbBlockEnd
  0
BLOCK
  5
249
330
248
100
AcDbEntity
  8
0
100
AcDbBlockBegin
  2
SW_CENTERMARKSYMBOL_0
 70
     0
 10
0.0
 20
0.0
 30
0.0
  3
SW_CENTERMARKSYMBOL_0
  1

  0
LINE
  5
24B
330
248
100
AcDbEntity
  8
0
  6
Continuous
 62
     0
370
     0
100
AcDbLine
 10
0.0
 20
0.0
 30
0.0
 11
0.0
 21
2.5
 31
0.0
  0
LINE
  5
24C
330
248
100
AcDbEntity
  8
0
  6
Continuous
 62
     0
370
     0
100
AcDbLine
 10
0.0
 20
0.0
 30
0.0
 11
-2.5
 21
0.0
 31
0.0
  0
LINE
  5
24D
330
248
100
AcDbEntity
  8
0
  6
Continuous
 62
     0
370
     0
100
AcDbLine
 10
0.0
 20
0.0
 30
0.0
 11
0.0
 21
-2.5
 31
0.0
  0
LINE
  5
24E
330
248
100
AcDbEntity
  8
0
  6
Continuous
 62
     0
370
     0
100
AcDbLine
 10
0.0
 20
0.0
 30
0.0
 11
2.5
 21
0.0
 31
0.0
  0
LINE
  5
24F
330
248
100
AcDbEntity
  8
0
  6
Continuous
 62
     0
370
     0
100
AcDbLine
 10
0.0
 20
2.5
 30
0.0
 11
0.0
 21
4.75
 31
0.0
  0
LINE
  5
250
330
248
100
AcDbEntity
  8
0
  6
Continuous
 62
     0
370
     0
100
AcDbLine
 10
-2.5
 20
0.0
 30
0.0
 11
-4.75
 21
0.0
 31
0.0
  0
LINE
  5
251
330
248
100
AcDbEntity
  8
0
  6
Continuous
 62
     0
370
     0
100
AcDbLine
 10
0.0
 20
-2.5
 30
0.0
 11
0.0
 21
-4.75
 31
0.0
  0
LINE
  5
252
330
248
100
AcDbEntity
  8
0
  6
Continuous
 62
     0
370
     0
100
AcDbLine
 10
2.5
 20
0.0
 30
0.0
 11
4.75
 21
0.0
 31
0.0
  0
ENDBLK
  5
24A
330
248
100
AcDbEntity
  8
0
100
AcDbBlockEnd
  0
BLOCK
  5
255
330
254
100
AcDbEntity
  8
0
100
AcDbBlockBegin
  2
SW_CENTERMARKSYMBOL_1
 70
     0
 10
0.0
 20
0.0
 30
0.0
  3
SW_CENTERMARKSYMBOL_1
  1

  0
LINE
  5
257
330
254
100
AcDbEntity
  8
0
  6
Continuous
 62
     0
370
     0
100
AcDbLine
 10
0.0
 20
0.0
 30
0.0
 11
0.0
 21
2.5
 31
0.0
  0
LINE
  5
258
330
254
100
AcDbEntity
  8
0
  6
Continuous
 62
     0
370
     0
100
AcDbLine
 10
0.0
 20
0.0
 30
0.0
 11
-2.5
 21
0.0
 31
0.0
  0
LINE
  5
259
330
254
100
AcDbEntity
  8
0
  6
Continuous
 62
     0
370
     0
100
AcDbLine
 10
0.0
 20
0.0
 30
0.0
 11
0.0
 21
-2.5
 31
0.0
  0
LINE
  5
25A
330
254
100
AcDbEntity
  8
0
  6
Continuous
 62
     0
370
     0
100
AcDbLine
 10
0.0
 20
0.0
 30
0.0
 11
2.5
 21
0.0
 31
0.0
  0
LINE
  5
25B
330
254
100
AcDbEntity
  8
0
  6
Continuous
 62
     0
370
     0
100
AcDbLine
 10
0.0
 20
2.5
 30
0.0
 11
0.0
 21
4.75
 31
0.0
  0
LINE
  5
25C
330
254
100
AcDbEntity
  8
0
  6
Continuous
 62
     0
370
     0
100
AcDbLine
 10
-2.5
 20
0.0
 30
0.0
 11
-4.75
 21
0.0
 31
0.0
  0
LINE
  5
25D
330
254
100
AcDbEntity
  8
0
  6
Continuous
 62
     0
370
     0
100
AcDbLine
 10
0.0
 20
-2.5
 30
0.0
 11
0.0
 21
-4.75
 31
0.0
  0
LINE
  5
25E
330
254
100
AcDbEntity
  8
0
  6
Continuous
 62
     0
370
     0
100
AcDbLine
 10
2.5
 20
0.0
 30
0.0
 11
4.75
 21
0.0
 31
0.0
  0
ENDBLK
  5
256
330
254
100
AcDbEntity
  8
0
100
AcDbBlockEnd
  0
BLOCK
  5
390
330
38F
100
AcDbEntity
  8
0
100
AcDbBlockBegin
  2
_D_7
 70
     0
 10
0.0
 20
0.0
 30
0.0
  3
_D_7
  1

  0
SOLID
  5
392
330
38F
100
AcDbEntity
  8
0
  6
Continuous
 62
     7
370
     0
100
AcDbTrace
 10
137.9471326799
 20
116.9229913987
 30
0.0
 11
139.9471326799
 21
116.1729913987
 31
0.0
 12
139.9471326799
 22
117.6729913987
 32
0.0
 13
139.9471326799
 23
117.6729913987
 33
0.0
  0
SOLID
  5
393
330
38F
100
AcDbEntity
  8
0
  6
Continuous
 62
     7
370
     0
100
AcDbTrace
 10
150.9471326799
 20
116.9229913987
 30
0.0
 11
148.9471326799
 21
117.6729913987
 31
0.0
 12
148.9471326799
 22
116.1729913987
 32
0.0
 13
148.9471326799
 23
116.1729913987
 33
0.0
  0
LINE
  5
394
330
38F
100
AcDbEntity
  8
0
  6
Continuous
 62
     7
370
     0
100
AcDbLine
 10
137.9471326799
 20
113.1831059867
 30
0.0
 11
137.9471326799
 21
117.9229913987
 31
0.0
  0
LINE
  5
395
330
38F
100
AcDbEntity
  8
0
  6
Continuous
 62
     7
370
     0
100
AcDbLine
 10
150.9471326799
 20
113.1831059867
 30
0.0
 11
150.9471326799
 21
117.9229913987
 31
0.0
  0
LINE
  5
396
330
38F
100
AcDbEntity
  8
0
  6
Continuous
 62
     7
370
     0
100
AcDbLine
 10
137.9471326799
 20
116.9229913987
 30
0.0
 11
150.9471326799
 21
116.9229913987
 31
0.0
  0
MTEXT
  5
397
330
38F
100
AcDbEntity
  8
0
  6
Continuous
 62
     7
370
     0
100
AcDbMText
 10
142.0228321994
 20
121.4347283133
 30
-15.3013600821
 40
3.5
 41
0.0
 71
     1
 72
     1
  1
13
  7
SLDTEXTSTYLE1
 73
     1
 44
1.0
  0
ENDBLK
  5
391
330
38F
100
AcDbEntity
  8
0
100
AcDbBlockEnd
  0
BLOCK
  5
39B
330
39A
100
AcDbEntity
  8
0
100
AcDbBlockBegin
  2
_D_8
 70
     0
 10
0.0
 20
0.0
 30
0.0
  3
_D_8
  1

  0
SOLID
  5
39D
330
39A
100
AcDbEntity
  8
0
  6
Continuous
 62
     7
370
     0
100
AcDbTrace
 10
130.2471326799
 20
124.4738239329
 30
0.0
 11
132.2471326799
 21
123.7238239329
 31
0.0
 12
132.2471326799
 22
125.2238239329
 32
0.0
 13
132.2471326799
 23
125.2238239329
 33
0.0
  0
SOLID
  5
39E
330
39A
100
AcDbEntity
  8
0
  6
Continuous
 62
     7
370
     0
100
AcDbTrace
 10
158.6471326799
 20
124.4738239329
 30
0.0
 11
156.6471326799
 21
125.2238239329
 31
0.0
 12
156.6471326799
 22
123.7238239329
 32
0.0
 13
156.6471326799
 23
123.7238239329
 33
0.0
  0
LINE
  5
39F
330
39A
100
AcDbEntity
  8
0
  6
Continuous
 62
     7
370
     0
100
AcDbLine
 10
130.2471326799
 20
107.167465698
 30
0.0
 11
130.2471326799
 21
125.4738239329
 31
0.0
  0
LINE
  5
3A0
330
39A
100
AcDbEntity
  8
0
  6
Continuous
 62
     7
370
     0
100
AcDbLine
 10
158.6471326799
 20
107.167465698
 30
0.0
 11
158.6471326799
 21
125.4738239329
 31
0.0
  0
LINE
  5
3A1
330
39A
100
AcDbEntity
  8
0
  6
Continuous
 62
     7
370
     0
100
AcDbLine
 10
130.2471326799
 20
124.4738239329
 30
0.0
 11
158.6471326799
 21
124.4738239329
 31
0.0
  0
MTEXT
  5
3A2
330
39A
100
AcDbEntity
  8
0
  6
Continuous
 62
     7
370
     0
100
AcDbMText
 10
140.0832488625
 20
128.9855608474
 30
-15.3013600821
 40
3.5
 41
0.0
 71
     1
 72
     1
  1
28.4
  7
SLDTEXTSTYLE1
 73
     1
 44
1.0
  0
ENDBLK
  5
39C
330
39A
100
AcDbEntity
  8
0
100
AcDbBlockEnd
  0
BLOCK
  5
3A5
330
3A4
100
AcDbEntity
  8
0
100
AcDbBlockBegin
  2
_D_9
 70
     0
 10
0.0
 20
0.0
 30
0.0
  3
_D_9
  1

  0
SOLID
  5
3A7
330
3A4
100
AcDbEntity
  8
0
  6
Continuous
 62
     7
370
     0
100
AcDbTrace
 10
178.4471326799
 20
109.6831059867
 30
0.0
 11
177.6971326799
 21
107.6831059867
 31
0.0
 12
179.1971326799
 22
107.6831059867
 32
0.0
 13
179.1971326799
 23
107.6831059867
 33
0.0
  0
SOLID
  5
3A8
330
3A4
100
AcDbEntity
  8
0
  6
Continuous
 62
     7
370
     0
100
AcDbTrace
 10
178.4471326799
 20
81.6831059867
 30
0.0
 11
179.1971326799
 21
83.6831059867
 31
0.0
 12
177.6971326799
 22
83.6831059867
 32
0.0
 13
177.6971326799
 23
83.6831059867
 33
0.0
  0
LINE
  5
3A9
330
3A4
100
AcDbEntity
  8
0
  6
Continuous
 62
     7
370
     0
100
AcDbLine
 10
156.1314923912
 20
109.6831059867
 30
0.0
 11
179.4471326799
 21
109.6831059867
 31
0.0
  0
LINE
  5
3AA
330
3A4
100
AcDbEntity
  8
0
  6
Continuous
 62
     7
370
     0
100
AcDbLine
 10
169.4471326799
 20
81.6831059867
 30
0.0
 11
179.4471326799
 21
81.6831059867
 31
0.0
  0
LINE
  5
3AB
330
3A4
100
AcDbEntity
  8
0
  6
Continuous
 62
     7
370
     0
100
AcDbLine
 10
178.4471326799
 20
109.6831059867
 30
0.0
 11
178.4471326799
 21
81.6831059867
 31
0.0
  0
MTEXT
  5
3AC
330
3A4
100
AcDbEntity
  8
0
  6
Continuous
 62
     7
370
     0
100
AcDbMText
 10
173.9353957653
 20
92.5650883897
 30
-15.3013600821
 40
3.5
 41
0.0
 71
     1
 72
     1
  1
28
  7
SLDTEXTSTYLE1
 11
-7.044195017643634E-15
 21
1.0
 31
0.0
 73
     1
 44
1.0
  0
ENDBLK
  5
3A6
330
3A4
100
AcDbEntity
  8
0
100
AcDbBlockEnd
  0
BLOCK
  5
3AE
330
3AD
100
AcDbEntity
  8
0
100
AcDbBlockBegin
  2
SW_CENTERMARKSYMBOL_2
 70
     0
 10
0.0
 20
0.0
 30
0.0
  3
SW_CENTERMARKSYMBOL_2
  1

  0
LINE
  5
3B0
330
3AD
100
AcDbEntity
  8
0
  6
Continuous
 62
     0
370
     0
100
AcDbLine
 10
0.0
 20
0.0
 30
0.0
 11
0.0
 21
2.5
 31
0.0
  0
LINE
  5
3B1
330
3AD
100
AcDbEntity
  8
0
  6
Continuous
 62
     0
370
     0
100
AcDbLine
 10
0.0
 20
0.0
 30
0.0
 11
-2.5
 21
0.0
 31
0.0
  0
LINE
  5
3B2
330
3AD
100
AcDbEntity
  8
0
  6
Continuous
 62
     0
370
     0
100
AcDbLine
 10
0.0
 20
0.0
 30
0.0
 11
0.0
 21
-2.5
 31
0.0
  0
LINE
  5
3B3
330
3AD
100
AcDbEntity
  8
0
  6
Continuous
 62
     0
370
     0
100
AcDbLine
 10
0.0
 20
0.0
 30
0.0
 11
2.5
 21
0.0
 31
0.0
  0
LINE
  5
3B4
330
3AD
100
AcDbEntity
  8
0
  6
Continuous
 62
     0
370
     0
100
AcDbLine
 10
0.0
 20
5.0
 30
0.0
 11
0.0
 21
10.0
 31
0.0
  0
LINE
  5
3B5
330
3AD
100
AcDbEntity
  8
0
  6
Continuous
 62
     0
370
     0
100
AcDbLine
 10
-5.0
 20
0.0
 30
0.0
 11
-10.0
 21
0.0
 31
0.0
  0
LINE
  5
3B6
330
3AD
100
AcDbEntity
  8
0
  6
Continuous
 62
     0
370
     0
100
AcDbLine
 10
0.0
 20
-5.0
 30
0.0
 11
0.0
 21
-10.0
 31
0.0
  0
LINE
  5
3B7
330
3AD
100
AcDbEntity
  8
0
  6
Continuous
 62
     0
370
     0
100
AcDbLine
 10
5.0
 20
0.0
 30
0.0
 11
10.0
 21
0.0
 31
0.0
  0
ENDBLK
  5
3AF
330
3AD
100
AcDbEntity
  8
0
100
AcDbBlockEnd
  0
BLOCK
  5
3BA
330
3B9
100
AcDbEntity
  8
0
100
AcDbBlockBegin
  2
SW_CENTERMARKSYMBOL_3
 70
     0
 10
0.0
 20
0.0
 30
0.0
  3
SW_CENTERMARKSYMBOL_3
  1

  0
LINE
  5
3BC
330
3B9
100
AcDbEntity
  8
0
  6
Continuous
 62
     0
370
     0
100
AcDbLine
 10
0.0
 20
0.0
 30
0.0
 11
0.0
 21
2.5
 31
0.0
  0
LINE
  5
3BD
330
3B9
100
AcDbEntity
  8
0
  6
Continuous
 62
     0
370
     0
100
AcDbLine
 10
0.0
 20
0.0
 30
0.0
 11
-2.5
 21
0.0
 31
0.0
  0
LINE
  5
3BE
330
3B9
100
AcDbEntity
  8
0
  6
Continuous
 62
     0
370
     0
100
AcDbLine
 10
0.0
 20
0.0
 30
0.0
 11
0.0
 21
-2.5
 31
0.0
  0
LINE
  5
3BF
330
3B9
100
AcDbEntity
  8
0
  6
Continuous
 62
     0
370
     0
100
AcDbLine
 10
0.0
 20
0.0
 30
0.0
 11
2.5
 21
0.0
 31
0.0
  0
LINE
  5
3C0
330
3B9
100
AcDbEntity
  8
0
  6
Continuous
 62
     0
370
     0
100
AcDbLine
 10
0.0
 20
2.5
 30
0.0
 11
0.0
 21
4.75
 31
0.0
  0
LINE
  5
3C1
330
3B9
100
AcDbEntity
  8
0
  6
Continuous
 62
     0
370
     0
100
AcDbLine
 10
-2.5
 20
0.0
 30
0.0
 11
-4.75
 21
0.0
 31
0.0
  0
LINE
  5
3C2
330
3B9
100
AcDbEntity
  8
0
  6
Continuous
 62
     0
370
     0
100
AcDbLine
 10
0.0
 20
-2.5
 30
0.0
 11
0.0
 21
-4.75
 31
0.0
  0
LINE
  5
3C3
330
3B9
100
AcDbEntity
  8
0
  6
Continuous
 62
     0
370
     0
100
AcDbLine
 10
2.5
 20
0.0
 30
0.0
 11
4.75
 21
0.0
 31
0.0
  0
ENDBLK
  5
3BB
330
3B9
100
AcDbEntity
  8
0
100
AcDbBlockEnd
  0
BLOCK
  5
3C6
330
3C5
100
AcDbEntity
  8
0
100
AcDbBlockBegin
  2
SW_CENTERMARKSYMBOL_4
 70
     0
 10
0.0
 20
0.0
 30
0.0
  3
SW_CENTERMARKSYMBOL_4
  1

  0
LINE
  5
3C8
330
3C5
100
AcDbEntity
  8
0
  6
Continuous
 62
     0
370
     0
100
AcDbLine
 10
0.0
 20
0.0
 30
0.0
 11
0.0
 21
2.5
 31
0.0
  0
LINE
  5
3C9
330
3C5
100
AcDbEntity
  8
0
  6
Continuous
 62
     0
370
     0
100
AcDbLine
 10
0.0
 20
0.0
 30
0.0
 11
-2.5
 21
0.0
 31
0.0
  0
LINE
  5
3CA
330
3C5
100
AcDbEntity
  8
0
  6
Continuous
 62
     0
370
     0
100
AcDbLine
 10
0.0
 20
0.0
 30
0.0
 11
0.0
 21
-2.5
 31
0.0
  0
LINE
  5
3CB
330
3C5
100
AcDbEntity
  8
0
  6
Continuous
 62
     0
370
     0
100
AcDbLine
 10
0.0
 20
0.0
 30
0.0
 11
2.5
 21
0.0
 31
0.0
  0
LINE
  5
3CC
330
3C5
100
AcDbEntity
  8
0
  6
Continuous
 62
     0
370
     0
100
AcDbLine
 10
0.0
 20
2.5
 30
0.0
 11
0.0
 21
4.75
 31
0.0
  0
LINE
  5
3CD
330
3C5
100
AcDbEntity
  8
0
  6
Continuous
 62
     0
370
     0
100
AcDbLine
 10
-2.5
 20
0.0
 30
0.0
 11
-4.75
 21
0.0
 31
0.0
  0
LINE
  5
3CE
330
3C5
100
AcDbEntity
  8
0
  6
Continuous
 62
     0
370
     0
100
AcDbLine
 10
0.0
 20
-2.5
 30
0.0
 11
0.0
 21
-4.75
 31
0.0
  0
LINE
  5
3CF
330
3C5
100
AcDbEntity
  8
0
  6
Continuous
 62
     0
370
     0
100
AcDbLine
 10
2.5
 20
0.0
 30
0.0
 11
4.75
 21
0.0
 31
0.0
  0
ENDBLK
  5
3C7
330
3C5
100
AcDbEntity
  8
0
100
AcDbBlockEnd
  0
BLOCK
  5
3D2
330
3D1
100
AcDbEntity
  8
0
100
AcDbBlockBegin
  2
SW_CENTERMARKSYMBOL_5
 70
     0
 10
0.0
 20
0.0
 30
0.0
  3
SW_CENTERMARKSYMBOL_5
  1

  0
LINE
  5
3D4
330
3D1
100
AcDbEntity
  8
0
  6
Continuous
 62
     0
370
     0
100
AcDbLine
 10
0.0
 20
0.0
 30
0.0
 11
0.0
 21
2.5
 31
0.0
  0
LINE
  5
3D5
330
3D1
100
AcDbEntity
  8
0
  6
Continuous
 62
     0
370
     0
100
AcDbLine
 10
0.0
 20
0.0
 30
0.0
 11
-2.5
 21
0.0
 31
0.0
  0
LINE
  5
3D6
330
3D1
100
AcDbEntity
  8
0
  6
Continuous
 62
     0
370
     0
100
AcDbLine
 10
0.0
 20
0.0
 30
0.0
 11
0.0
 21
-2.5
 31
0.0
  0
LINE
  5
3D7
330
3D1
100
AcDbEntity
  8
0
  6
Continuous
 62
     0
370
     0
100
AcDbLine
 10
0.0
 20
0.0
 30
0.0
 11
2.5
 21
0.0
 31
0.0
  0
LINE
  5
3D8
330
3D1
100
AcDbEntity
  8
0
  6
Continuous
 62
     0
370
     0
100
AcDbLine
 10
0.0
 20
2.5
 30
0.0
 11
0.0
 21
4.75
 31
0.0
  0
LINE
  5
3D9
330
3D1
100
AcDbEntity
  8
0
  6
Continuous
 62
     0
370
     0
100
AcDbLine
 10
-2.5
 20
0.0
 30
0.0
 11
-4.75
 21
0.0
 31
0.0
  0
LINE
  5
3DA
330
3D1
100
AcDbEntity
  8
0
  6
Continuous
 62
     0
370
     0
100
AcDbLine
 10
0.0
 20
-2.5
 30
0.0
 11
0.0
 21
-4.75
 31
0.0
  0
LINE
  5
3DB
330
3D1
100
AcDbEntity
  8
0
  6
Continuous
 62
     0
370
     0
100
AcDbLine
 10
2.5
 20
0.0
 30
0.0
 11
4.75
 21
0.0
 31
0.0
  0
ENDBLK
  5
3D3
330
3D1
100
AcDbEntity
  8
0
100
AcDbBlockEnd
  0
BLOCK
  5
3DE
330
3DD
100
AcDbEntity
  8
0
100
AcDbBlockBegin
  2
SW_CENTERMARKSYMBOL_6
 70
     0
 10
0.0
 20
0.0
 30
0.0
  3
SW_CENTERMARKSYMBOL_6
  1

  0
LINE
  5
3E0
330
3DD
100
AcDbEntity
  8
0
  6
Continuous
 62
     0
370
     0
100
AcDbLine
 10
0.0
 20
0.0
 30
0.0
 11
0.0
 21
2.5
 31
0.0
  0
LINE
  5
3E1
330
3DD
100
AcDbEntity
  8
0
  6
Continuous
 62
     0
370
     0
100
AcDbLine
 10
0.0
 20
0.0
 30
0.0
 11
-2.5
 21
0.0
 31
0.0
  0
LINE
  5
3E2
330
3DD
100
AcDbEntity
  8
0
  6
Continuous
 62
     0
370
     0
100
AcDbLine
 10
0.0
 20
0.0
 30
0.0
 11
0.0
 21
-2.5
 31
0.0
  0
LINE
  5
3E3
330
3DD
100
AcDbEntity
  8
0
  6
Continuous
 62
     0
370
     0
100
AcDbLine
 10
0.0
 20
0.0
 30
0.0
 11
2.5
 21
0.0
 31
0.0
  0
LINE
  5
3E4
330
3DD
100
AcDbEntity
  8
0
  6
Continuous
 62
     0
370
     0
100
AcDbLine
 10
0.0
 20
2.5
 30
0.0
 11
0.0
 21
4.75
 31
0.0
  0
LINE
  5
3E5
330
3DD
100
AcDbEntity
  8
0
  6
Continuous
 62
     0
370
     0
100
AcDbLine
 10
-2.5
 20
0.0
 30
0.0
 11
-4.75
 21
0.0
 31
0.0
  0
LINE
  5
3E6
330
3DD
100
AcDbEntity
  8
0
  6
Continuous
 62
     0
370
     0
100
AcDbLine
 10
0.0
 20
-2.5
 30
0.0
 11
0.0
 21
-4.75
 31
0.0
  0
LINE
  5
3E7
330
3DD
100
AcDbEntity
  8
0
  6
Continuous
 62
     0
370
     0
100
AcDbLine
 10
2.5
 20
0.0
 30
0.0
 11
4.75
 21
0.0
 31
0.0
  0
ENDBLK
  5
3DF
330
3DD
100
AcDbEntity
  8
0
100
AcDbBlockEnd
  0
BLOCK
  5
4B4
330
4B3
100
AcDbEntity
  8
0
100
AcDbBlockBegin
  2
_D_10
 70
     0
 10
0.0
 20
0.0
 30
0.0
  3
_D_10
  1

  0
SOLID
  5
4B6
330
4B3
100
AcDbEntity
  8
0
  6
Continuous
 62
     7
370
     0
100
AcDbTrace
 10
90.5404010113
 20
110.5210339059
 30
0.0
 11
92.5404010113
 21
109.7710339059
 31
0.0
 12
92.5404010113
 22
111.2710339059
 32
0.0
 13
92.5404010113
 23
111.2710339059
 33
0.0
  0
SOLID
  5
4B7
330
4B3
100
AcDbEntity
  8
0
  6
Continuous
 62
     7
370
     0
100
AcDbTrace
 10
110.5404010113
 20
110.5210339059
 30
0.0
 11
108.5404010113
 21
111.2710339059
 31
0.0
 12
108.5404010113
 22
109.7710339059
 32
0.0
 13
108.5404010113
 23
109.7710339059
 33
0.0
  0
LINE
  5
4B8
330
4B3
100
AcDbEntity
  8
0
  6
Continuous
 62
     7
370
     0
100
AcDbLine
 10
90.5404010113
 20
102.1831059867
 30
0.0
 11
90.5404010113
 21
111.5210339059
 31
0.0
  0
LINE
  5
4B9
330
4B3
100
AcDbEntity
  8
0
  6
Continuous
 62
     7
370
     0
100
AcDbLine
 10
110.5404010113
 20
102.1831059867
 30
0.0
 11
110.5404010113
 21
111.5210339059
 31
0.0
  0
LINE
  5
4BA
330
4B3
100
AcDbEntity
  8
0
  6
Continuous
 62
     7
370
     0
100
AcDbLine
 10
90.5404010113
 20
110.5210339059
 30
0.0
 11
110.5404010113
 21
110.5210339059
 31
0.0
  0
MTEXT
  5
4BB
330
4B3
100
AcDbEntity
  8
0
  6
Continuous
 62
     7
370
     0
100
AcDbMText
 10
96.2577621151
 20
115.0327708205
 30
0.1
 40
3.5
 41
0.0
 71
     1
 72
     1
  1
20
  7
SLDTEXTSTYLE1
 73
     1
 44
1.0
  0
MTEXT
  5
4BC
330
4B3
100
AcDbEntity
  8
0
  6
Continuous
 62
     7
370
     0
100
AcDbMText
 10
101.4299845021
 20
115.0327708205
 30
0.1
 40
3.5
 41
0.0
 71
     1
 72
     1
  1
st
  7
SLDTEXTSTYLE1
 73
     1
 44
1.0
  0
ENDBLK
  5
4B5
330
4B3
100
AcDbEntity
  8
0
100
AcDbBlockEnd
  0
BLOCK
  5
4C0
330
4BF
100
AcDbEntity
  8
0
100
AcDbBlockBegin
  2
_D_11
 70
     0
 10
0.0
 20
0.0
 30
0.0
  3
_D_11
  1

  0
SOLID
  5
4C2
330
4BF
100
AcDbEntity
  8
0
  6
Continuous
 62
     7
370
     0
100
AcDbTrace
 10
32.5404010113
 20
68.4243927166
 30
0.0
 11
30.5404010113
 21
69.1743927166
 31
0.0
 12
30.5404010113
 22
67.6743927166
 32
0.0
 13
30.5404010113
 23
67.6743927166
 33
0.0
  0
SOLID
  5
4C3
330
4BF
100
AcDbEntity
  8
0
  6
Continuous
 62
     7
370
     0
100
AcDbTrace
 10
39.5404010113
 20
68.4243927166
 30
0.0
 11
41.5404010113
 21
67.6743927166
 31
0.0
 12
41.5404010113
 22
69.1743927166
 32
0.0
 13
41.5404010113
 23
69.1743927166
 33
0.0
  0
LINE
  5
4C4
330
4BF
100
AcDbEntity
  8
0
  6
Continuous
 62
     7
370
     0
100
AcDbLine
 10
32.5404010113
 20
86.7974219667
 30
0.0
 11
32.5404010113
 21
67.4243927166
 31
0.0
  0
LINE
  5
4C5
330
4BF
100
AcDbEntity
  8
0
  6
Continuous
 62
     7
370
     0
100
AcDbLine
 10
39.5404010113
 20
90.6831059867
 30
0.0
 11
39.5404010113
 21
67.4243927166
 31
0.0
  0
LINE
  5
4C6
330
4BF
100
AcDbEntity
  8
0
  6
Continuous
 62
     7
370
     0
100
AcDbLine
 10
32.5404010113
 20
68.4243927166
 30
0.0
 11
27.5404010113
 21
68.4243927166
 31
0.0
  0
LINE
  5
4C7
330
4BF
100
AcDbEntity
  8
0
  6
Continuous
 62
     7
370
     0
100
AcDbLine
 10
32.5404010113
 20
68.4243927166
 30
0.0
 11
39.5404010113
 21
68.4243927166
 31
0.0
  0
LINE
  5
4C8
330
4BF
100
AcDbEntity
  8
0
  6
Continuous
 62
     7
370
     0
100
AcDbLine
 10
39.5404010113
 20
68.4243927166
 30
0.0
 11
44.5404010113
 21
68.4243927166
 31
0.0
  0
MTEXT
  5
4C9
330
4BF
100
AcDbEntity
  8
0
  6
Continuous
 62
     7
370
     0
100
AcDbMText
 10
35.4175311935
 20
72.9361296312
 30
-9.2024880709
 40
3.5
 41
0.0
 71
     1
 72
     1
  1
7
  7
SLDTEXTSTYLE1
 73
     1
 44
1.0
  0
ENDBLK
  5
4C1
330
4BF
100
AcDbEntity
  8
0
100
AcDbBlockEnd
  0
BLOCK
  5
4CC
330
4CB
100
AcDbEntity
  8
0
100
AcDbBlockBegin
  2
_D_12
 70
     0
 10
0.0
 20
0.0
 30
0.0
  3
_D_12
  1

  0
SOLID
  5
4CE
330
4CB
100
AcDbEntity
  8
0
  6
Continuous
 62
     7
370
     0
100
AcDbTrace
 10
39.5404010113
 20
68.4243927166
 30
0.0
 11
41.5404010113
 21
67.6743927166
 31
0.0
 12
41.5404010113
 22
69.1743927166
 32
0.0
 13
41.5404010113
 23
69.1743927166
 33
0.0
  0
SOLID
  5
4CF
330
4CB
100
AcDbEntity
  8
0
  6
Continuous
 62
     7
370
     0
100
AcDbTrace
 10
77.5404010113
 20
68.4243927166
 30
0.0
 11
75.5404010113
 21
69.1743927166
 31
0.0
 12
75.5404010113
 22
67.6743927166
 32
0.0
 13
75.5404010113
 23
67.6743927166
 33
0.0
  0
LINE
  5
4D0
330
4CB
100
AcDbEntity
  8
0
  6
Continuous
 62
     7
370
     0
100
AcDbLine
 10
39.5404010113
 20
90.6831059867
 30
0.0
 11
39.5404010113
 21
67.4243927166
 31
0.0
  0
LINE
  5
4D1
330
4CB
100
AcDbEntity
  8
0
  6
Continuous
 62
     7
370
     0
100
AcDbLine
 10
77.5404010113
 20
90.6831059867
 30
0.0
 11
77.5404010113
 21
67.4243927166
 31
0.0
  0
LINE
  5
4D2
330
4CB
100
AcDbEntity
  8
0
  6
Continuous
 62
     7
370
     0
100
AcDbLine
 10
39.5404010113
 20
68.4243927166
 30
0.0
 11
77.5404010113
 21
68.4243927166
 31
0.0
  0
MTEXT
  5
4D3
330
4CB
100
AcDbEntity
  8
0
  6
Continuous
 62
     7
370
     0
100
AcDbMText
 10
55.9542898178
 20
72.9361296312
 30
-9.2024880709
 40
3.5
 41
0.0
 71
     1
 72
     1
  1
38
  7
SLDTEXTSTYLE1
 73
     1
 44
1.0
  0
ENDBLK
  5
4CD
330
4CB
100
AcDbEntity
  8
0
100
AcDbBlockEnd
  0
BLOCK
  5
4D6
330
4D5
100
AcDbEntity
  8
0
100
AcDbBlockBegin
  2
_D_13
 70
     0
 10
0.0
 20
0.0
 30
0.0
  3
_D_13
  1

  0
SOLID
  5
4D8
330
4D5
100
AcDbEntity
  8
0
  6
Continuous
 62
     7
370
     0
100
AcDbTrace
 10
32.5404010113
 20
123.4889454343
 30
0.0
 11
34.5404010113
 21
122.7389454343
 31
0.0
 12
34.5404010113
 22
124.2389454343
 32
0.0
 13
34.5404010113
 23
124.2389454343
 33
0.0
  0
SOLID
  5
4D9
330
4D5
100
AcDbEntity
  8
0
  6
Continuous
 62
     7
370
     0
100
AcDbTrace
 10
84.5404010113
 20
123.4889454343
 30
0.0
 11
82.5404010113
 21
124.2389454343
 31
0.0
 12
82.5404010113
 22
122.7389454343
 32
0.0
 13
82.5404010113
 23
122.7389454343
 33
0.0
  0
LINE
  5
4DA
330
4D5
100
AcDbEntity
  8
0
  6
Continuous
 62
     7
370
     0
100
AcDbLine
 10
32.5404010113
 20
107.448092375
 30
0.0
 11
32.5404010113
 21
124.4889454343
 31
0.0
  0
LINE
  5
4DB
330
4D5
100
AcDbEntity
  8
0
  6
Continuous
 62
     7
370
     0
100
AcDbLine
 10
84.5404010113
 20
110.6831059867
 30
0.0
 11
84.5404010113
 21
124.4889454343
 31
0.0
  0
LINE
  5
4DC
330
4D5
100
AcDbEntity
  8
0
  6
Continuous
 62
     7
370
     0
100
AcDbLine
 10
32.5404010113
 20
123.4889454343
 30
0.0
 11
84.5404010113
 21
123.4889454343
 31
0.0
  0
MTEXT
  5
4DD
330
4D5
100
AcDbEntity
  8
0
  6
Continuous
 62
     7
370
     0
100
AcDbMText
 10
55.9542898178
 20
128.0006823489
 30
-9.2024880709
 40
3.5
 41
0.0
 71
     1
 72
     1
  1
52
  7
SLDTEXTSTYLE1
 73
     1
 44
1.0
  0
ENDBLK
  5
4D7
330
4D5
100
AcDbEntity
  8
0
100
AcDbBlockEnd
  0
BLOCK
  5
4E0
330
4DF
100
AcDbEntity
  8
0
100
AcDbBlockBegin
  2
_D_14
 70
     0
 10
0.0
 20
0.0
 30
0.0
  3
_D_14
  1

  0
SOLID
  5
4E2
330
4DF
100
AcDbEntity
  8
0
  6
Continuous
 62
     7
370
     0
100
AcDbTrace
 10
90.5404010113
 20
138.0199402097
 30
0.0
 11
88.5404010113
 21
138.7699402097
 31
0.0
 12
88.5404010113
 22
137.2699402097
 32
0.0
 13
88.5404010113
 23
137.2699402097
 33
0.0
  0
SOLID
  5
4E3
330
4DF
100
AcDbEntity
  8
0
  6
Continuous
 62
     7
370
     0
100
AcDbTrace
 10
32.5404010113
 20
138.0199402097
 30
0.0
 11
34.5404010113
 21
137.2699402097
 31
0.0
 12
34.5404010113
 22
138.7699402097
 32
0.0
 13
34.5404010113
 23
138.7699402097
 33
0.0
  0
LINE
  5
4E4
330
4DF
100
AcDbEntity
  8
0
  6
Continuous
 62
     7
370
     0
100
AcDbLine
 10
90.5404010113
 20
102.1831059867
 30
0.0
 11
90.5404010113
 21
139.0199402097
 31
0.0
  0
LINE
  5
4E5
330
4DF
100
AcDbEntity
  8
0
  6
Continuous
 62
     7
370
     0
100
AcDbLine
 10
32.5404010113
 20
107.448092375
 30
0.0
 11
32.5404010113
 21
139.0199402097
 31
0.0
  0
LINE
  5
4E6
330
4DF
100
AcDbEntity
  8
0
  6
Continuous
 62
     7
370
     0
100
AcDbLine
 10
90.5404010113
 20
138.0199402097
 30
0.0
 11
32.5404010113
 21
138.0199402097
 31
0.0
  0
MTEXT
  5
4E7
330
4DF
100
AcDbEntity
  8
0
  6
Continuous
 62
     7
370
     0
100
AcDbMText
 10
58.9542898178
 20
142.5316771242
 30
-9.2024880709
 40
3.5
 41
0.0
 71
     1
 72
     1
  1
58
  7
SLDTEXTSTYLE1
 73
     1
 44
1.0
  0
ENDBLK
  5
4E1
330
4DF
100
AcDbEntity
  8
0
100
AcDbBlockEnd
  0
BLOCK
  5
4E9
330
4E8
100
AcDbEntity
  8
0
100
AcDbBlockBegin
  2
SW_CENTERMARKSYMBOL_7
 70
     0
 10
0.0
 20
0.0
 30
0.0
  3
SW_CENTERMARKSYMBOL_7
  1

  0
LINE
  5
4EB
330
4E8
100
AcDbEntity
  8
0
  6
Continuous
 62
     0
370
     0
100
AcDbLine
 10
0.0
 20
0.0
 30
0.0
 11
0.0
 21
2.5
 31
0.0
  0
LINE
  5
4EC
330
4E8
100
AcDbEntity
  8
0
  6
Continuous
 62
     0
370
     0
100
AcDbLine
 10
0.0
 20
0.0
 30
0.0
 11
-2.5
 21
0.0
 31
0.0
  0
LINE
  5
4ED
330
4E8
100
AcDbEntity
  8
0
  6
Continuous
 62
     0
370
     0
100
AcDbLine
 10
0.0
 20
0.0
 30
0.0
 11
0.0
 21
-2.5
 31
0.0
  0
LINE
  5
4EE
330
4E8
100
AcDbEntity
  8
0
  6
Continuous
 62
     0
370
     0
100
AcDbLine
 10
0.0
 20
0.0
 30
0.0
 11
2.5
 21
0.0
 31
0.0
  0
LINE
  5
4EF
330
4E8
100
AcDbEntity
  8
0
  6
Continuous
 62
     0
370
     0
100
AcDbLine
 10
0.0
 20
5.0
 30
0.0
 11
0.0
 21
6.5
 31
0.0
  0
LINE
  5
4F0
330
4E8
100
AcDbEntity
  8
0
  6
Continuous
 62
     0
370
     0
100
AcDbLine
 10
-5.0
 20
0.0
 30
0.0
 11
-30.4157494882
 21
0.0
 31
0.0
  0
LINE
  5
4F1
330
4E8
100
AcDbEntity
  8
0
  6
Continuous
 62
     0
370
     0
100
AcDbLine
 10
0.0
 20
-5.0
 30
0.0
 11
0.0
 21
-6.5
 31
0.0
  0
LINE
  5
4F2
330
4E8
100
AcDbEntity
  8
0
  6
Continuous
 62
     0
370
     0
100
AcDbLine
 10
5.0
 20
0.0
 30
0.0
 11
17.485471245
 21
0.0
 31
0.0
  0
ENDBLK
  5
4EA
330
4E8
100
AcDbEntity
  8
0
100
AcDbBlockEnd
  0
BLOCK
  5
4F5
330
4F4
100
AcDbEntity
  8
0
100
AcDbBlockBegin
  2
SW_CENTERMARKSYMBOL_8
 70
     0
 10
0.0
 20
0.0
 30
0.0
  3
SW_CENTERMARKSYMBOL_8
  1

  0
LINE
  5
4F7
330
4F4
100
AcDbEntity
  8
0
  6
Continuous
 62
     0
370
     0
100
AcDbLine
 10
0.0
 20
0.0
 30
0.0
 11
0.0
 21
2.5
 31
0.0
  0
LINE
  5
4F8
330
4F4
100
AcDbEntity
  8
0
  6
Continuous
 62
     0
370
     0
100
AcDbLine
 10
0.0
 20
0.0
 30
0.0
 11
-2.5
 21
0.0
 31
0.0
  0
LINE
  5
4F9
330
4F4
100
AcDbEntity
  8
0
  6
Continuous
 62
     0
370
     0
100
AcDbLine
 10
0.0
 20
0.0
 30
0.0
 11
0.0
 21
-2.5
 31
0.0
  0
LINE
  5
4FA
330
4F4
100
AcDbEntity
  8
0
  6
Continuous
 62
     0
370
     0
100
AcDbLine
 10
0.0
 20
0.0
 30
0.0
 11
2.5
 21
0.0
 31
0.0
  0
LINE
  5
4FB
330
4F4
100
AcDbEntity
  8
0
  6
Continuous
 62
     0
370
     0
100
AcDbLine
 10
0.0
 20
5.0
 30
0.0
 11
0.0
 21
6.5
 31
0.0
  0
LINE
  5
4FC
330
4F4
100
AcDbEntity
  8
0
  6
Continuous
 62
     0
370
     0
100
AcDbLine
 10
-5.0
 20
0.0
 30
0.0
 11
-6.5
 21
0.0
 31
0.0
  0
LINE
  5
4FD
330
4F4
100
AcDbEntity
  8
0
  6
Continuous
 62
     0
370
     0
100
AcDbLine
 10
0.0
 20
-5.0
 30
0.0
 11
0.0
 21
-6.5
 31
0.0
  0
LINE
  5
4FE
330
4F4
100
AcDbEntity
  8
0
  6
Continuous
 62
     0
370
     0
100
AcDbLine
 10
5.0
 20
0.0
 30
0.0
 11
6.5
 21
0.0
 31
0.0
  0
ENDBLK
  5
4F6
330
4F4
100
AcDbEntity
  8
0
100
AcDbBlockEnd
  0
ENDSEC
  0
SECTION
  2
ENTITIES
  0
LINE
  5
44
330
1F
100
AcDbEntity
  8
0
  6
Continuous
 62
     7
370
     0
100
AcDbLine
 10
20.2604743903
 20
285.0
 30
0.0
 11
196.7604743903
 21
285.0
 31
0.0
  0
LINE
  5
45
330
1F
100
AcDbEntity
  8
0
  6
Continuous
 62
     7
370
     0
100
AcDbLine
 10
20.2604743903
 20
285.0
 30
0.0
 11
20.2604743903
 21
10.0
 31
0.0
  0
LINE
  5
46
330
1F
100
AcDbEntity
  8
0
  6
Continuous
 62
     7
370
     0
100
AcDbLine
 10
20.2604743903
 20
10.0
 30
0.0
 11
196.7604743903
 21
10.0
 31
0.0
  0
LINE
  5
47
330
1F
100
AcDbEntity
  8
0
  6
Continuous
 62
     7
370
     0
100
AcDbLine
 10
196.7604743903
 20
285.0
 30
0.0
 11
196.7604743903
 21
10.0
 31
0.0
  0
LINE
  5
48
330
1F
100
AcDbEntity
  8
0
  6
Continuous
 62
     7
370
     0
100
AcDbLine
 10
127.0104743903
 20
50.75
 30
0.0
 11
196.7604743903
 21
50.75
 31
0.0
  0
LINE
  5
49
330
1F
100
AcDbEntity
  8
0
  6
Continuous
 62
     7
370
     0
100
AcDbLine
 10
127.0104743903
 20
50.75
 30
0.0
 11
127.0104743903
 21
10.0
 31
0.0
  0
LINE
  5
4A
330
1F
100
AcDbEntity
  8
0
  6
Continuous
 62
     7
370
     0
100
AcDbLine
 10
127.0104743903
 20
22.75
 30
0.0
 11
196.7604743903
 21
22.75
 31
0.0
  0
LINE
  5
4B
330
1F
100
AcDbEntity
  8
0
  6
Continuous
 62
     7
370
     0
100
AcDbLine
 10
127.0104743903
 20
36.75
 30
0.0
 11
196.7604743903
 21
36.75
 31
0.0
  0
MTEXT
  5
4D
330
1F
100
AcDbEntity
  8
0
  6
Continuous
 62
     7
370
     0
100
AcDbMText
 10
162.3210538778
 20
30.4171582345
 30
0.0
 40
4.2333333333
 41
0.0
 71
     2
 72
     1
  1
MCE-20W
  7
SLDTEXTSTYLE0
 73
     1
 44
1.0
  0
MTEXT
  5
4E
330
1F
100
AcDbEntity
  8
0
  6
Continuous
 62
     7
370
     0
100
AcDbMText
 10
159.9843657473
 20
43.9643957194
 30
0.0
 40
3.7041666667
 41
0.0
 71
     2
 72
     1
  1
ミニシリンダー・MCE20st(複動)
  7
SLDTEXTSTYLE0
 73
     1
 44
1.0
  0
MTEXT
  5
4F
330
1F
100
AcDbEntity
  8
0
  6
Continuous
 62
     7
370
     0
100
AcDbMText
 10
162.5853949957
 20
16.8228189052
 30
0.0
 40
4.2333333333
 41
0.0
 71
     2
 72
     1
  1
123509
  7
SLDTEXTSTYLE0
 73
     1
 44
1.0
  0
LINE
  5
50
330
1F
100
AcDbEntity
  8
0
  6
Continuous
 62
     7
370
    15
100
AcDbLine
 10
133.1165400661
 20
217.8262826806
 30
0.0
 11
133.1165400661
 21
216.3262826806
 31
0.0
  0
LINE
  5
51
330
1F
100
AcDbEntity
  8
0
  6
Continuous
 62
     7
370
    15
100
AcDbLine
 10
155.7777252937
 20
216.3262826806
 30
0.0
 11
155.7777252937
 21
217.8262826806
 31
0.0
  0
LINE
  5
52
330
1F
100
AcDbEntity
  8
0
  6
Continuous
 62
     7
370
    15
100
AcDbLine
 10
155.8288004258
 20
167.3262826806
 30
0.0
 11
155.8288004258
 21
216.3262826806
 31
0.0
  0
LINE
  5
53
330
1F
100
AcDbEntity
  8
0
  6
Continuous
 62
     7
370
    15
100
AcDbLine
 10
133.065464934
 20
216.3262826806
 30
0.0
 11
133.065464934
 21
167.3262826806
 31
0.0
  0
LINE
  5
54
330
1F
100
AcDbEntity
  8
0
  6
Continuous
 62
     7
370
    15
100
AcDbLine
 10
157.8174487246
 20
172.2790509555
 30
0.0
 11
157.840605376
 21
172.2391272295
 31
0.0
  0
LINE
  5
55
330
1F
100
AcDbEntity
  8
0
  6
Continuous
 62
     7
370
    15
100
AcDbLine
 10
157.6346040448
 20
172.25972234
 30
0.0
 11
157.838327894
 21
172.25972234
 31
0.0
  0
LINE
  5
56
330
1F
100
AcDbEntity
  8
0
  6
Continuous
 62
     7
370
    15
100
AcDbLine
 10
135.6971326799
 20
165.8262826806
 30
0.0
 11
135.6971326799
 21
165.5315904407
 31
0.0
  0
LINE
  5
57
330
1F
100
AcDbEntity
  8
0
  6
Continuous
 62
     7
370
    15
100
AcDbLine
 10
140.1971326799
 20
165.5315904407
 30
0.0
 11
140.1971326799
 21
165.8262826806
 31
0.0
  0
ARC
  5
58
330
1F
100
AcDbEntity
  8
0
  6
Continuous
 62
     7
370
    15
100
AcDbCircle
 10
139.1971326799
 20
165.5315904407
 30
0.0
 40
1.000000000000012
100
AcDbArc
 50
306.3843518158
 51
0.0
  0
ARC
  5
59
330
1F
100
AcDbEntity
  8
0
  6
Continuous
 62
     7
370
    15
100
AcDbCircle
 10
136.6971326799
 20
165.5315904407
 30
0.0
 40
1.0
100
AcDbArc
 50
180.0
 51
233.6156481842
  0
LINE
  5
5A
330
1F
100
AcDbEntity
  8
0
  6
Continuous
 62
     7
370
    15
100
AcDbLine
 10
136.1039336418
 20
164.7265346034
 30
0.0
 11
136.5148491409
 21
164.4237547619
 31
0.0
  0
LINE
  5
5B
330
1F
100
AcDbEntity
  8
0
  6
Continuous
 62
     7
370
    15
100
AcDbLine
 10
139.3794162188
 20
164.4237547619
 30
0.0
 11
139.7903317179
 21
164.7265346034
 31
0.0
  0
ARC
  5
5C
330
1F
100
AcDbEntity
  8
0
  6
Continuous
 62
     7
370
    15
100
AcDbCircle
 10
136.81144866
 20
164.8262826806
 30
0.0
 40
0.5
100
AcDbArc
 50
233.6156481842
 51
270.0
  0
ARC
  5
5D
330
1F
100
AcDbEntity
  8
0
  6
Continuous
 62
     7
370
    15
100
AcDbCircle
 10
139.0828166998
 20
164.8262826806
 30
0.0
 40
0.5
100
AcDbArc
 50
270.0
 51
306.3843518158
  0
ARC
  5
5E
330
1F
100
AcDbEntity
  8
0
  6
Continuous
 62
     7
370
    15
100
AcDbCircle
 10
152.1971326799
 20
165.5315904407
 30
0.0
 40
1.0
100
AcDbArc
 50
306.3843518158
 51
0.0
  0
ARC
  5
5F
330
1F
100
AcDbEntity
  8
0
  6
Continuous
 62
     7
370
    15
100
AcDbCircle
 10
149.6971326799
 20
165.5315904407
 30
0.0
 40
1.000000000000012
100
AcDbArc
 50
180.0
 51
233.6156481842
  0
LINE
  5
60
330
1F
100
AcDbEntity
  8
0
  6
Continuous
 62
     7
370
    15
100
AcDbLine
 10
148.6971326799
 20
165.8262826806
 30
0.0
 11
148.6971326799
 21
165.5315904407
 31
0.0
  0
LINE
  5
61
330
1F
100
AcDbEntity
  8
0
  6
Continuous
 62
     7
370
    15
100
AcDbLine
 10
153.1971326799
 20
165.5315904407
 30
0.0
 11
153.1971326799
 21
165.8262826806
 31
0.0
  0
LINE
  5
62
330
1F
100
AcDbEntity
  8
0
  6
Continuous
 62
     7
370
    15
100
AcDbLine
 10
149.1039336418
 20
164.7265346034
 30
0.0
 11
149.5148491409
 21
164.4237547619
 31
0.0
  0
LINE
  5
63
330
1F
100
AcDbEntity
  8
0
  6
Continuous
 62
     7
370
    15
100
AcDbLine
 10
152.3794162188
 20
164.4237547619
 30
0.0
 11
152.7903317179
 21
164.7265346034
 31
0.0
  0
ARC
  5
64
330
1F
100
AcDbEntity
  8
0
  6
Continuous
 62
     7
370
    15
100
AcDbCircle
 10
149.81144866
 20
164.8262826806
 30
0.0
 40
0.5
100
AcDbArc
 50
233.6156481842
 51
270.0
  0
ARC
  5
65
330
1F
100
AcDbEntity
  8
0
  6
Continuous
 62
     7
370
    15
100
AcDbCircle
 10
152.0828166998
 20
164.8262826806
 30
0.0
 40
0.5
100
AcDbArc
 50
270.0
 51
306.3843518158
  0
LINE
  5
66
330
1F
100
AcDbEntity
  8
0
  6
Continuous
 62
     7
370
    15
100
AcDbLine
 10
153.1971326799
 20
217.8262826806
 30
0.0
 11
153.1971326799
 21
218.1209749205
 31
0.0
  0
LINE
  5
67
330
1F
100
AcDbEntity
  8
0
  6
Continuous
 62
     7
370
    15
100
AcDbLine
 10
148.6971326799
 20
218.1209749205
 30
0.0
 11
148.6971326799
 21
217.8262826806
 31
0.0
  0
ARC
  5
68
330
1F
100
AcDbEntity
  8
0
  6
Continuous
 62
     7
370
    15
100
AcDbCircle
 10
149.6971326799
 20
218.1209749205
 30
0.0
 40
1.000000000000012
100
AcDbArc
 50
126.3843518158
 51
180.0
  0
ARC
  5
69
330
1F
100
AcDbEntity
  8
0
  6
Continuous
 62
     7
370
    15
100
AcDbCircle
 10
152.1971326799
 20
218.1209749205
 30
0.0
 40
1.0
100
AcDbArc
 50
0.0
 51
53.6156481842
  0
LINE
  5
6A
330
1F
100
AcDbEntity
  8
0
  6
Continuous
 62
     7
370
    15
100
AcDbLine
 10
152.7903317179
 20
218.9260307578
 30
0.0
 11
152.3794162188
 21
219.2288105993
 31
0.0
  0
LINE
  5
6B
330
1F
100
AcDbEntity
  8
0
  6
Continuous
 62
     7
370
    15
100
AcDbLine
 10
149.5148491409
 20
219.2288105993
 30
0.0
 11
149.1039336418
 21
218.9260307578
 31
0.0
  0
ARC
  5
6C
330
1F
100
AcDbEntity
  8
0
  6
Continuous
 62
     7
370
    15
100
AcDbCircle
 10
152.0828166998
 20
218.8262826806
 30
0.0
 40
0.5
100
AcDbArc
 50
53.6156481842
 51
90.0
  0
ARC
  5
6D
330
1F
100
AcDbEntity
  8
0
  6
Continuous
 62
     7
370
    15
100
AcDbCircle
 10
149.81144866
 20
218.8262826806
 30
0.0
 40
0.5
100
AcDbArc
 50
90.0
 51
126.3843518158
  0
LINE
  5
6E
330
1F
100
AcDbEntity
  8
0
  6
Continuous
 62
     7
370
    15
100
AcDbLine
 10
140.1971326799
 20
217.8262826806
 30
0.0
 11
140.1971326799
 21
218.1209749205
 31
0.0
  0
LINE
  5
6F
330
1F
100
AcDbEntity
  8
0
  6
Continuous
 62
     7
370
    15
100
AcDbLine
 10
135.6971326799
 20
218.1209749205
 30
0.0
 11
135.6971326799
 21
217.8262826806
 31
0.0
  0
ARC
  5
70
330
1F
100
AcDbEntity
  8
0
  6
Continuous
 62
     7
370
    15
100
AcDbCircle
 10
136.6971326799
 20
218.1209749205
 30
0.0
 40
0.9999999999999781
100
AcDbArc
 50
126.3843518158
 51
180.0
  0
ARC
  5
71
330
1F
100
AcDbEntity
  8
0
  6
Continuous
 62
     7
370
    15
100
AcDbCircle
 10
139.1971326799
 20
218.1209749205
 30
0.0
 40
1.000000000000012
100
AcDbArc
 50
0.0
 51
53.6156481842
  0
LINE
  5
72
330
1F
100
AcDbEntity
  8
0
  6
Continuous
 62
     7
370
    15
100
AcDbLine
 10
139.7903317179
 20
218.9260307578
 30
0.0
 11
139.3794162188
 21
219.2288105993
 31
0.0
  0
LINE
  5
73
330
1F
100
AcDbEntity
  8
0
  6
Continuous
 62
     7
370
    15
100
AcDbLine
 10
136.5148491409
 20
219.2288105993
 30
0.0
 11
136.1039336418
 21
218.9260307578
 31
0.0
  0
ARC
  5
74
330
1F
100
AcDbEntity
  8
0
  6
Continuous
 62
     7
370
    15
100
AcDbCircle
 10
139.0828166998
 20
218.8262826806
 30
0.0
 40
0.5
100
AcDbArc
 50
53.6156481842
 51
90.0
  0
ARC
  5
75
330
1F
100
AcDbEntity
  8
0
  6
Continuous
 62
     7
370
    15
100
AcDbCircle
 10
136.81144866
 20
218.8262826806
 30
0.0
 40
0.5
100
AcDbArc
 50
90.0
 51
126.3843518158
  0
LINE
  5
76
330
1F
100
AcDbEntity
  8
0
  6
Continuous
 62
     7
370
    15
100
AcDbLine
 10
124.9471326799
 20
214.0762826806
 30
0.0
 11
122.4471326799
 21
213.8262826806
 31
0.0
  0
LINE
  5
77
330
1F
100
AcDbEntity
  8
0
  6
Continuous
 62
     7
370
    15
100
AcDbLine
 10
122.4471326799
 20
210.8262826806
 30
0.0
 11
124.9471326799
 21
210.5762826806
 31
0.0
  0
LINE
  5
78
330
1F
100
AcDbEntity
  8
0
  6
Continuous
 62
     7
370
    15
100
AcDbLine
 10
122.4471326799
 20
214.0762826806
 30
0.0
 11
119.9471326799
 21
213.8262826806
 31
0.0
  0
LINE
  5
79
330
1F
100
AcDbEntity
  8
0
  6
Continuous
 62
     7
370
    15
100
AcDbLine
 10
119.9471326799
 20
210.8262826806
 30
0.0
 11
122.4471326799
 21
210.5762826806
 31
0.0
  0
LINE
  5
7A
330
1F
100
AcDbEntity
  8
0
  6
Continuous
 62
     7
370
    15
100
AcDbLine
 10
124.9471326799
 20
210.7262826806
 30
0.0
 11
126.9471326799
 21
210.7262826806
 31
0.0
  0
LINE
  5
7B
330
1F
100
AcDbEntity
  8
0
  6
Continuous
 62
     7
370
    15
100
AcDbLine
 10
126.9471326799
 20
213.9262826806
 30
0.0
 11
124.9471326799
 21
213.9262826806
 31
0.0
  0
LINE
  5
7C
330
1F
100
AcDbEntity
  8
0
  6
Continuous
 62
     7
370
    15
100
AcDbLine
 10
124.9471326799
 20
176.0762826806
 30
0.0
 11
122.4471326799
 21
175.8262826806
 31
0.0
  0
LINE
  5
7D
330
1F
100
AcDbEntity
  8
0
  6
Continuous
 62
     7
370
    15
100
AcDbLine
 10
122.4471326799
 20
172.8262826806
 30
0.0
 11
124.9471326799
 21
172.5762826806
 31
0.0
  0
LINE
  5
7E
330
1F
100
AcDbEntity
  8
0
  6
Continuous
 62
     7
370
    15
100
AcDbLine
 10
122.4471326799
 20
176.0762826806
 30
0.0
 11
119.9471326799
 21
175.8262826806
 31
0.0
  0
LINE
  5
7F
330
1F
100
AcDbEntity
  8
0
  6
Continuous
 62
     7
370
    15
100
AcDbLine
 10
119.9471326799
 20
172.8262826806
 30
0.0
 11
122.4471326799
 21
172.5762826806
 31
0.0
  0
LINE
  5
80
330
1F
100
AcDbEntity
  8
0
  6
Continuous
 62
     7
370
    15
100
AcDbLine
 10
124.9471326799
 20
172.7262826806
 30
0.0
 11
126.9471326799
 21
172.7262826806
 31
0.0
  0
LINE
  5
81
330
1F
100
AcDbEntity
  8
0
  6
Continuous
 62
     7
370
    15
100
AcDbLine
 10
126.9471326799
 20
175.9262826806
 30
0.0
 11
124.9471326799
 21
175.9262826806
 31
0.0
  0
LINE
  5
82
330
1F
100
AcDbEntity
  8
0
  6
Continuous
 62
     7
370
    15
100
AcDbLine
 10
130.2471326799
 20
216.3262826806
 30
0.0
 11
129.4471326799
 21
216.3262826806
 31
0.0
  0
LINE
  5
83
330
1F
100
AcDbEntity
  8
0
  6
Continuous
 62
     7
370
    15
100
AcDbLine
 10
129.4471326799
 20
208.3262826806
 30
0.0
 11
130.2471326799
 21
208.3262826806
 31
0.0
  0
LINE
  5
84
330
1F
100
AcDbEntity
  8
0
  6
Continuous
 62
     7
370
    15
100
AcDbLine
 10
130.2471326799
 20
178.3262826806
 30
0.0
 11
129.4471326799
 21
178.3262826806
 31
0.0
  0
LINE
  5
85
330
1F
100
AcDbEntity
  8
0
  6
Continuous
 62
     7
370
    15
100
AcDbLine
 10
129.4471326799
 20
170.3262826806
 30
0.0
 11
130.2471326799
 21
170.3262826806
 31
0.0
  0
LINE
  5
86
330
1F
100
AcDbEntity
  8
0
  6
Continuous
 62
     7
370
    15
100
AcDbLine
 10
159.4471326799
 20
216.3262826806
 30
0.0
 11
158.6471326799
 21
216.3262826806
 31
0.0
  0
LINE
  5
87
330
1F
100
AcDbEntity
  8
0
  6
Continuous
 62
     7
370
    15
100
AcDbLine
 10
158.6471326799
 20
208.3262826806
 30
0.0
 11
159.4471326799
 21
208.3262826806
 31
0.0
  0
LINE
  5
88
330
1F
100
AcDbEntity
  8
0
  6
Continuous
 62
     7
370
    15
100
AcDbLine
 10
159.4471326799
 20
178.3262826806
 30
0.0
 11
158.6471326799
 21
178.3262826806
 31
0.0
  0
LINE
  5
89
330
1F
100
AcDbEntity
  8
0
  6
Continuous
 62
     7
370
    15
100
AcDbLine
 10
158.6471326799
 20
170.3262826806
 30
0.0
 11
159.4471326799
 21
170.3262826806
 31
0.0
  0
LINE
  5
8A
330
1F
100
AcDbEntity
  8
0
  6
Continuous
 62
     7
370
    15
100
AcDbLine
 10
147.4471326799
 20
164.3262826806
 30
0.0
 11
147.4471326799
 21
161.8262826806
 31
0.0
  0
LINE
  5
8B
330
1F
100
AcDbEntity
  8
0
  6
Continuous
 62
     7
370
    15
100
AcDbLine
 10
147.0928839909
 20
161.8262826806
 30
0.0
 11
147.4471326799
 21
161.8262826806
 31
0.0
  0
LINE
  5
8C
330
1F
100
AcDbEntity
  8
0
  6
Continuous
 62
     7
370
    15
100
AcDbLine
 10
147.0928839909
 20
164.3262826806
 30
0.0
 11
147.0928839909
 21
161.8262826806
 31
0.0
  0
LINE
  5
8D
330
1F
100
AcDbEntity
  8
0
  6
Continuous
 62
     7
370
    15
100
AcDbLine
 10
141.8013813688
 20
164.3262826806
 30
0.0
 11
141.8013813688
 21
161.8262826806
 31
0.0
  0
LINE
  5
8E
330
1F
100
AcDbEntity
  8
0
  6
Continuous
 62
     7
370
    15
100
AcDbLine
 10
141.4471326799
 20
161.8262826806
 30
0.0
 11
141.8013813688
 21
161.8262826806
 31
0.0
  0
LINE
  5
8F
330
1F
100
AcDbEntity
  8
0
  6
Continuous
 62
     7
370
    15
100
AcDbLine
 10
141.4471326799
 20
164.3262826806
 30
0.0
 11
141.4471326799
 21
161.8262826806
 31
0.0
  0
SPLINE
  5
90
330
1F
100
AcDbEntity
  8
0
  6
Continuous
 62
     7
370
    15
100
AcDbSpline
210
0.0
220
0.0
230
1.0
 70
     8
 71
     3
 72
     8
 73
     4
 74
     0
 42
0.00000001
 43
0.00000001
 12
1.0
 22
0.0
 32
0.0
 13
1.0
 23
0.0
 33
0.0
 40
0.0
 40
0.0
 40
0.0
 40
0.0
 40
1.0
 40
1.0
 40
1.0
 40
1.0
 10
146.2499083176118
 20
161.3262826805814
 30
0.0
 10
146.5408654125642
 20
161.4761484984115
 30
0.0
 10
146.8200679914235
 20
161.6458318584784
 30
0.0
 10
147.0928839909444
 20
161.8262826805814
 30
0.0
  0
LINE
  5
91
330
1F
100
AcDbEntity
  8
0
  6
Continuous
 62
     7
370
    15
100
AcDbLine
 10
146.2499083176
 20
161.3262826806
 30
0.0
 11
142.6443570421
 21
161.3262826806
 31
0.0
  0
SPLINE
  5
92
330
1F
100
AcDbEntity
  8
0
  6
Continuous
 62
     7
370
    15
100
AcDbSpline
210
0.0
220
0.0
230
1.0
 70
     8
 71
     3
 72
     8
 73
     4
 74
     0
 42
0.00000001
 43
0.00000001
 12
1.0
 22
0.0
 32
0.0
 13
1.0
 23
0.0
 33
0.0
 40
0.0
 40
0.0
 40
0.0
 40
0.0
 40
1.0
 40
1.0
 40
1.0
 40
1.0
 10
141.8013813688152
 20
161.8262826805814
 30
0.0
 10
142.0741973683361
 20
161.6458318584784
 30
0.0
 10
142.3533999471954
 20
161.4761484984115
 30
0.0
 10
142.6443570421478
 20
161.3262826805814
 30
0.0
  0
LINE
  5
93
330
1F
100
AcDbEntity
  8
0
  6
Continuous
 62
     7
370
    15
100
AcDbLine
 10
142.6443570421
 20
161.3262826806
 30
0.0
 11
141.4471326799
 21
161.3262826806
 31
0.0
  0
SPLINE
  5
94
330
1F
100
AcDbEntity
  8
0
  6
Continuous
 62
     7
370
    15
100
AcDbSpline
210
0.0
220
0.0
230
1.0
 70
    24
 71
     3
 72
     8
 73
     4
 74
     0
 42
0.00000001
 43
0.00000001
 12
1.0
 22
0.0
 32
0.0
 13
1.0
 23
0.0
 33
0.0
 40
0.0
 40
0.0
 40
0.0
 40
0.0
 40
1.0
 40
1.0
 40
1.0
 40
1.0
 10
141.4471326798798
 20
161.3262826805814
 30
0.0
 10
141.4471326798798
 20
161.4761484984115
 30
0.0
 10
141.4471326798798
 20
161.6458318584784
 30
0.0
 10
141.4471326798798
 20
161.8262826805814
 30
0.0
  0
SPLINE
  5
95
330
1F
100
AcDbEntity
  8
0
  6
Continuous
 62
     7
370
    15
100
AcDbSpline
210
0.0
220
0.0
230
1.0
 70
    24
 71
     3
 72
     8
 73
     4
 74
     0
 42
0.00000001
 43
0.00000001
 12
1.0
 22
0.0
 32
0.0
 13
1.0
 23
0.0
 33
0.0
 40
0.0
 40
0.0
 40
0.0
 40
0.0
 40
1.0
 40
1.0
 40
1.0
 40
1.0
 10
147.4471326798798
 20
161.8262826805814
 30
0.0
 10
147.4471326798798
 20
161.6458318584784
 30
0.0
 10
147.4471326798798
 20
161.4761484984115
 30
0.0
 10
147.4471326798798
 20
161.3262826805814
 30
0.0
  0
LINE
  5
96
330
1F
100
AcDbEntity
  8
0
  6
Continuous
 62
     7
370
    15
100
AcDbLine
 10
147.4471326799
 20
161.3262826806
 30
0.0
 11
146.2499083176
 21
161.3262826806
 31
0.0
  0
LINE
  5
97
330
1F
100
AcDbEntity
  8
0
  6
Continuous
 62
     7
370
    15
100
AcDbLine
 10
133.7627729685
 20
217.8262826806
 30
0.0
 11
133.7627729685
 21
216.3262826806
 31
0.0
  0
LINE
  5
98
330
1F
100
AcDbEntity
  8
0
  6
Continuous
 62
     7
370
    15
100
AcDbLine
 10
133.7627729685
 20
216.3262826806
 30
0.0
 11
133.23411833
 21
216.3262826806
 31
0.0
  0
LINE
  5
99
330
1F
100
AcDbEntity
  8
0
  6
Continuous
 62
     7
370
    15
100
AcDbLine
 10
133.23411833
 20
217.8262826806
 30
0.0
 11
133.23411833
 21
216.3262826806
 31
0.0
  0
LINE
  5
9A
330
1F
100
AcDbEntity
  8
0
  6
Continuous
 62
     7
370
    15
100
AcDbLine
 10
133.7627729685
 20
217.8262826806
 30
0.0
 11
133.23411833
 21
217.8262826806
 31
0.0
  0
LINE
  5
9B
330
1F
100
AcDbEntity
  8
0
  6
Continuous
 62
     7
370
    15
100
AcDbLine
 10
138.5106410068
 20
216.3262826806
 30
0.0
 11
138.5106410068
 21
217.8262826806
 31
0.0
  0
LINE
  5
9C
330
1F
100
AcDbEntity
  8
0
  6
Continuous
 62
     7
370
    15
100
AcDbLine
 10
138.5106410068
 20
217.8262826806
 30
0.0
 11
140.0718905064
 21
217.8262826806
 31
0.0
  0
LINE
  5
9D
330
1F
100
AcDbEntity
  8
0
  6
Continuous
 62
     7
370
    15
100
AcDbLine
 10
140.0718905064
 20
216.3262826806
 30
0.0
 11
140.0718905064
 21
217.8262826806
 31
0.0
  0
LINE
  5
9E
330
1F
100
AcDbEntity
  8
0
  6
Continuous
 62
     7
370
    15
100
AcDbLine
 10
140.0718905064
 20
216.3262826806
 30
0.0
 11
138.5106410068
 21
216.3262826806
 31
0.0
  0
LINE
  5
9F
330
1F
100
AcDbEntity
  8
0
  6
Continuous
 62
     7
370
    15
100
AcDbLine
 10
155.1314923912
 20
217.8262826806
 30
0.0
 11
155.1314923912
 21
216.3262826806
 31
0.0
  0
LINE
  5
A0
330
1F
100
AcDbEntity
  8
0
  6
Continuous
 62
     7
370
    15
100
AcDbLine
 10
155.1314923912
 20
217.8262826806
 30
0.0
 11
155.6601470298
 21
217.8262826806
 31
0.0
  0
LINE
  5
A1
330
1F
100
AcDbEntity
  8
0
  6
Continuous
 62
     7
370
    15
100
AcDbLine
 10
155.6601470298
 20
216.3262826806
 30
0.0
 11
155.6601470298
 21
217.8262826806
 31
0.0
  0
LINE
  5
A2
330
1F
100
AcDbEntity
  8
0
  6
Continuous
 62
     7
370
    15
100
AcDbLine
 10
155.6601470298
 20
216.3262826806
 30
0.0
 11
155.1314923912
 21
216.3262826806
 31
0.0
  0
LINE
  5
A3
330
1F
100
AcDbEntity
  8
0
  6
Continuous
 62
     7
370
    15
100
AcDbLine
 10
150.383624353
 20
216.3262826806
 30
0.0
 11
155.1314923912
 21
216.3262826806
 31
0.0
  0
LINE
  5
A4
330
1F
100
AcDbEntity
  8
0
  6
Continuous
 62
     7
370
    15
100
AcDbLine
 10
150.383624353
 20
217.8262826806
 30
0.0
 11
150.383624353
 21
216.3262826806
 31
0.0
  0
LINE
  5
A5
330
1F
100
AcDbEntity
  8
0
  6
Continuous
 62
     7
370
    15
100
AcDbLine
 10
150.383624353
 20
217.8262826806
 30
0.0
 11
155.1314923912
 21
217.8262826806
 31
0.0
  0
LINE
  5
A6
330
1F
100
AcDbEntity
  8
0
  6
Continuous
 62
     7
370
    15
100
AcDbLine
 10
150.383624353
 20
216.3262826806
 30
0.0
 11
148.8223748534
 21
216.3262826806
 31
0.0
  0
LINE
  5
A7
330
1F
100
AcDbEntity
  8
0
  6
Continuous
 62
     7
370
    15
100
AcDbLine
 10
148.8223748534
 20
217.8262826806
 30
0.0
 11
148.8223748534
 21
216.3262826806
 31
0.0
  0
LINE
  5
A8
330
1F
100
AcDbEntity
  8
0
  6
Continuous
 62
     7
370
    15
100
AcDbLine
 10
148.8223748534
 20
217.8262826806
 30
0.0
 11
150.383624353
 21
217.8262826806
 31
0.0
  0
LINE
  5
A9
330
1F
100
AcDbEntity
  8
0
  6
Continuous
 62
     7
370
    15
100
AcDbLine
 10
133.7627729685
 20
216.3262826806
 30
0.0
 11
138.5106410068
 21
216.3262826806
 31
0.0
  0
LINE
  5
AA
330
1F
100
AcDbEntity
  8
0
  6
Continuous
 62
     7
370
    15
100
AcDbLine
 10
133.7627729685
 20
217.8262826806
 30
0.0
 11
138.5106410068
 21
217.8262826806
 31
0.0
  0
LINE
  5
AB
330
1F
100
AcDbEntity
  8
0
  6
Continuous
 62
     7
370
    15
100
AcDbLine
 10
133.1165400661
 20
217.8262826806
 30
0.0
 11
133.23411833
 21
217.8262826806
 31
0.0
  0
LINE
  5
AC
330
1F
100
AcDbEntity
  8
0
  6
Continuous
 62
     7
370
    15
100
AcDbLine
 10
155.6601470298
 20
217.8262826806
 30
0.0
 11
155.7777252937
 21
217.8262826806
 31
0.0
  0
LINE
  5
AD
330
1F
100
AcDbEntity
  8
0
  6
Continuous
 62
     7
370
    15
100
AcDbLine
 10
141.633140006
 20
219.3262826806
 30
0.0
 11
141.633140006
 21
216.3262826806
 31
0.0
  0
LINE
  5
AE
330
1F
100
AcDbEntity
  8
0
  6
Continuous
 62
     7
370
    15
100
AcDbLine
 10
141.2843341451
 20
219.3262826806
 30
0.0
 11
141.2843341451
 21
217.8262826806
 31
0.0
  0
LINE
  5
AF
330
1F
100
AcDbEntity
  8
0
  6
Continuous
 62
     7
370
    15
100
AcDbLine
 10
141.2843341451
 20
219.3262826806
 30
0.0
 11
141.633140006
 21
219.3262826806
 31
0.0
  0
LINE
  5
B0
330
1F
100
AcDbEntity
  8
0
  6
Continuous
 62
     7
370
    15
100
AcDbLine
 10
141.633140006
 20
216.3262826806
 30
0.0
 11
140.0718905064
 21
216.3262826806
 31
0.0
  0
LINE
  5
B1
330
1F
100
AcDbEntity
  8
0
  6
Continuous
 62
     7
370
    15
100
AcDbLine
 10
140.0718905064
 20
217.8262826806
 30
0.0
 11
141.2843341451
 21
217.8262826806
 31
0.0
  0
LINE
  5
B2
330
1F
100
AcDbEntity
  8
0
  6
Continuous
 62
     7
370
    15
100
AcDbLine
 10
147.2611253538
 20
216.3262826806
 30
0.0
 11
147.2611253538
 21
219.3262826806
 31
0.0
  0
LINE
  5
B3
330
1F
100
AcDbEntity
  8
0
  6
Continuous
 62
     7
370
    15
100
AcDbLine
 10
147.2611253538
 20
219.3262826806
 30
0.0
 11
147.6099312147
 21
219.3262826806
 31
0.0
  0
LINE
  5
B4
330
1F
100
AcDbEntity
  8
0
  6
Continuous
 62
     7
370
    15
100
AcDbLine
 10
147.6099312147
 20
217.8262826806
 30
0.0
 11
147.6099312147
 21
219.3262826806
 31
0.0
  0
LINE
  5
B5
330
1F
100
AcDbEntity
  8
0
  6
Continuous
 62
     7
370
    15
100
AcDbLine
 10
147.6099312147
 20
217.8262826806
 30
0.0
 11
148.8223748534
 21
217.8262826806
 31
0.0
  0
LINE
  5
B6
330
1F
100
AcDbEntity
  8
0
  6
Continuous
 62
     7
370
    15
100
AcDbLine
 10
148.8223748534
 20
216.3262826806
 30
0.0
 11
147.2611253538
 21
216.3262826806
 31
0.0
  0
LINE
  5
B7
330
1F
100
AcDbEntity
  8
0
  6
Continuous
 62
     7
370
    15
100
AcDbLine
 10
131.5973214626
 20
216.3262826806
 30
0.0
 11
131.5973214626
 21
219.3262826806
 31
0.0
  0
LINE
  5
B8
330
1F
100
AcDbEntity
  8
0
  6
Continuous
 62
     7
370
    15
100
AcDbLine
 10
134.0725010528
 20
219.3262826806
 30
0.0
 11
131.5973214626
 21
219.3262826806
 31
0.0
  0
LINE
  5
B9
330
1F
100
AcDbEntity
  8
0
  6
Continuous
 62
     7
370
    15
100
AcDbLine
 10
134.0725010528
 20
217.8262826806
 30
0.0
 11
134.0725010528
 21
219.3262826806
 31
0.0
  0
LINE
  5
BA
330
1F
100
AcDbEntity
  8
0
  6
Continuous
 62
     7
370
    15
100
AcDbLine
 10
157.2969438972
 20
216.3262826806
 30
0.0
 11
157.2969438972
 21
219.3262826806
 31
0.0
  0
LINE
  5
BB
330
1F
100
AcDbEntity
  8
0
  6
Continuous
 62
     7
370
    15
100
AcDbLine
 10
154.821764307
 20
217.8262826806
 30
0.0
 11
154.821764307
 21
219.3262826806
 31
0.0
  0
LINE
  5
BC
330
1F
100
AcDbEntity
  8
0
  6
Continuous
 62
     7
370
    15
100
AcDbLine
 10
157.2969438972
 20
219.3262826806
 30
0.0
 11
154.821764307
 21
219.3262826806
 31
0.0
  0
LINE
  5
BD
330
1F
100
AcDbEntity
  8
0
  6
Continuous
 62
     7
370
    15
100
AcDbLine
 10
140.6971326799
 20
217.8262826806
 30
0.0
 11
140.6971326799
 21
219.3262826806
 31
0.0
  0
LINE
  5
BE
330
1F
100
AcDbEntity
  8
0
  6
Continuous
 62
     7
370
    15
100
AcDbLine
 10
140.6971326799
 20
219.3262826806
 30
0.0
 11
141.2843341451
 21
219.3262826806
 31
0.0
  0
LINE
  5
BF
330
1F
100
AcDbEntity
  8
0
  6
Continuous
 62
     7
370
    15
100
AcDbLine
 10
148.1971326799
 20
219.3262826806
 30
0.0
 11
148.1971326799
 21
217.8262826806
 31
0.0
  0
LINE
  5
C0
330
1F
100
AcDbEntity
  8
0
  6
Continuous
 62
     7
370
    15
100
AcDbLine
 10
147.6099312147
 20
219.3262826806
 30
0.0
 11
148.1971326799
 21
219.3262826806
 31
0.0
  0
LINE
  5
C1
330
1F
100
AcDbEntity
  8
0
  6
Continuous
 62
     7
370
    15
100
AcDbLine
 10
147.2611253538
 20
219.3262826806
 30
0.0
 11
141.633140006
 21
219.3262826806
 31
0.0
  0
LINE
  5
C2
330
1F
100
AcDbEntity
  8
0
  6
Continuous
 62
     7
370
    15
100
AcDbLine
 10
147.2611253538
 20
216.3262826806
 30
0.0
 11
141.633140006
 21
216.3262826806
 31
0.0
  0
LINE
  5
C3
330
1F
100
AcDbEntity
  8
0
  6
Continuous
 62
     7
370
    15
100
AcDbLine
 10
149.81144866
 20
219.3262826806
 30
0.0
 11
148.1971326799
 21
219.3262826806
 31
0.0
  0
LINE
  5
C4
330
1F
100
AcDbEntity
  8
0
  6
Continuous
 62
     7
370
    15
100
AcDbLine
 10
140.6971326799
 20
219.3262826806
 30
0.0
 11
139.0828166998
 21
219.3262826806
 31
0.0
  0
LINE
  5
C5
330
1F
100
AcDbEntity
  8
0
  6
Continuous
 62
     7
370
    15
100
AcDbLine
 10
131.0830876882
 20
219.3262826806
 30
0.0
 11
131.0830876882
 21
216.3262826806
 31
0.0
  0
LINE
  5
C6
330
1F
100
AcDbEntity
  8
0
  6
Continuous
 62
     7
370
    15
100
AcDbLine
 10
130.6327911934
 20
216.3262826806
 30
0.0
 11
130.6327911934
 21
219.3262826806
 31
0.0
  0
LINE
  5
C7
330
1F
100
AcDbEntity
  8
0
  6
Continuous
 62
     7
370
    15
100
AcDbLine
 10
130.6327911934
 20
219.3262826806
 30
0.0
 11
131.0830876882
 21
219.3262826806
 31
0.0
  0
LINE
  5
C8
330
1F
100
AcDbEntity
  8
0
  6
Continuous
 62
     7
370
    15
100
AcDbLine
 10
157.8111776716
 20
216.3262826806
 30
0.0
 11
157.8111776716
 21
219.3262826806
 31
0.0
  0
LINE
  5
C9
330
1F
100
AcDbEntity
  8
0
  6
Continuous
 62
     7
370
    15
100
AcDbLine
 10
158.2614741664
 20
219.3262826806
 30
0.0
 11
158.2614741664
 21
216.3262826806
 31
0.0
  0
LINE
  5
CA
330
1F
100
AcDbEntity
  8
0
  6
Continuous
 62
     7
370
    15
100
AcDbLine
 10
157.8111776716
 20
219.3262826806
 30
0.0
 11
158.2614741664
 21
219.3262826806
 31
0.0
  0
LINE
  5
CB
330
1F
100
AcDbEntity
  8
0
  6
Continuous
 62
     7
370
    15
100
AcDbLine
 10
131.5973214626
 20
219.3262826806
 30
0.0
 11
131.0830876882
 21
219.3262826806
 31
0.0
  0
LINE
  5
CC
330
1F
100
AcDbEntity
  8
0
  6
Continuous
 62
     7
370
    15
100
AcDbLine
 10
131.5973214626
 20
216.3262826806
 30
0.0
 11
131.0830876882
 21
216.3262826806
 31
0.0
  0
LINE
  5
CD
330
1F
100
AcDbEntity
  8
0
  6
Continuous
 62
     7
370
    15
100
AcDbLine
 10
157.8111776716
 20
219.3262826806
 30
0.0
 11
157.2969438972
 21
219.3262826806
 31
0.0
  0
LINE
  5
CE
330
1F
100
AcDbEntity
  8
0
  6
Continuous
 62
     7
370
    15
100
AcDbLine
 10
157.8111776716
 20
216.3262826806
 30
0.0
 11
157.2969438972
 21
216.3262826806
 31
0.0
  0
LINE
  5
CF
330
1F
100
AcDbEntity
  8
0
  6
Continuous
 62
     7
370
    15
100
AcDbLine
 10
158.6471326799
 20
219.1262826806
 30
0.0
 11
158.4471326799
 21
219.3262826806
 31
0.0
  0
LINE
  5
D0
330
1F
100
AcDbEntity
  8
0
  6
Continuous
 62
     7
370
    15
100
AcDbLine
 10
158.6471326799
 20
219.1262826806
 30
0.0
 11
158.6471326799
 21
216.3262826806
 31
0.0
  0
LINE
  5
D1
330
1F
100
AcDbEntity
  8
0
  6
Continuous
 62
     7
370
    15
100
AcDbLine
 10
158.4471326799
 20
219.3262826806
 30
0.0
 11
158.2614741664
 21
219.3262826806
 31
0.0
  0
LINE
  5
D2
330
1F
100
AcDbEntity
  8
0
  6
Continuous
 62
     7
370
    15
100
AcDbLine
 10
158.6471326799
 20
216.3262826806
 30
0.0
 11
158.2614741664
 21
216.3262826806
 31
0.0
  0
LINE
  5
D3
330
1F
100
AcDbEntity
  8
0
  6
Continuous
 62
     7
370
    15
100
AcDbLine
 10
130.2471326799
 20
219.1262826806
 30
0.0
 11
130.2471326799
 21
216.3262826806
 31
0.0
  0
LINE
  5
D4
330
1F
100
AcDbEntity
  8
0
  6
Continuous
 62
     7
370
    15
100
AcDbLine
 10
130.4471326799
 20
219.3262826806
 30
0.0
 11
130.2471326799
 21
219.1262826806
 31
0.0
  0
LINE
  5
D5
330
1F
100
AcDbEntity
  8
0
  6
Continuous
 62
     7
370
    15
100
AcDbLine
 10
130.6327911934
 20
219.3262826806
 30
0.0
 11
130.4471326799
 21
219.3262826806
 31
0.0
  0
LINE
  5
D6
330
1F
100
AcDbEntity
  8
0
  6
Continuous
 62
     7
370
    15
100
AcDbLine
 10
130.6327911934
 20
216.3262826806
 30
0.0
 11
130.2471326799
 21
216.3262826806
 31
0.0
  0
LINE
  5
D7
330
1F
100
AcDbEntity
  8
0
  6
Continuous
 62
     7
370
    15
100
AcDbLine
 10
154.821764307
 20
219.3262826806
 30
0.0
 11
152.0828166998
 21
219.3262826806
 31
0.0
  0
LINE
  5
D8
330
1F
100
AcDbEntity
  8
0
  6
Continuous
 62
     7
370
    15
100
AcDbLine
 10
136.81144866
 20
219.3262826806
 30
0.0
 11
134.0725010528
 21
219.3262826806
 31
0.0
  0
LINE
  5
D9
330
1F
100
AcDbEntity
  8
0
  6
Continuous
 62
     7
370
    15
100
AcDbLine
 10
155.1314923912
 20
216.3262826806
 30
0.0
 11
155.1314923912
 21
167.3262826806
 31
0.0
  0
LINE
  5
DA
330
1F
100
AcDbEntity
  8
0
  6
Continuous
 62
     7
370
    15
100
AcDbLine
 10
155.1314923912
 20
167.3262826806
 30
0.0
 11
152.1170205233
 21
167.3262826806
 31
0.0
  0
LINE
  5
DB
330
1F
100
AcDbEntity
  8
0
  6
Continuous
 62
     7
370
    15
100
AcDbLine
 10
152.1170205233
 20
216.3262826806
 30
0.0
 11
152.1170205233
 21
167.3262826806
 31
0.0
  0
LINE
  5
DC
330
1F
100
AcDbEntity
  8
0
  6
Continuous
 62
     7
370
    15
100
AcDbLine
 10
155.1314923912
 20
216.3262826806
 30
0.0
 11
152.1170205233
 21
216.3262826806
 31
0.0
  0
LINE
  5
DD
330
1F
100
AcDbEntity
  8
0
  6
Continuous
 62
     7
370
    15
100
AcDbLine
 10
155.7517231467
 20
167.3262826806
 30
0.0
 11
155.7517231467
 21
216.3262826806
 31
0.0
  0
LINE
  5
DE
330
1F
100
AcDbEntity
  8
0
  6
Continuous
 62
     7
370
    15
100
AcDbLine
 10
155.1314923912
 20
167.3262826806
 30
0.0
 11
155.7517231467
 21
167.3262826806
 31
0.0
  0
LINE
  5
DF
330
1F
100
AcDbEntity
  8
0
  6
Continuous
 62
     7
370
    15
100
AcDbLine
 10
155.1314923912
 20
216.3262826806
 30
0.0
 11
155.7517231467
 21
216.3262826806
 31
0.0
  0
LINE
  5
E0
330
1F
100
AcDbEntity
  8
0
  6
Continuous
 62
     7
370
    15
100
AcDbLine
 10
137.5345556948
 20
177.6262826806
 30
0.0
 11
137.5345556948
 21
173.8262826806
 31
0.0
  0
LINE
  5
E1
330
1F
100
AcDbEntity
  8
0
  6
Continuous
 62
     7
370
    15
100
AcDbLine
 10
136.7772448364
 20
216.3262826806
 30
0.0
 11
136.7772448364
 21
167.3262826806
 31
0.0
  0
LINE
  5
E2
330
1F
100
AcDbEntity
  8
0
  6
Continuous
 62
     7
370
    15
100
AcDbLine
 10
137.5345556948
 20
209.8262826806
 30
0.0
 11
137.5345556948
 21
206.0262826806
 31
0.0
  0
LINE
  5
E3
330
1F
100
AcDbEntity
  8
0
  6
Continuous
 62
     7
370
    15
100
AcDbLine
 10
137.5345556948
 20
206.0262826806
 30
0.0
 11
137.5471326799
 21
206.0112611651
 31
0.0
  0
LINE
  5
E4
330
1F
100
AcDbEntity
  8
0
  6
Continuous
 62
     7
370
    15
100
AcDbLine
 10
137.5471326799
 20
206.0112611651
 30
0.0
 11
137.5471326799
 21
177.6413041961
 31
0.0
  0
LINE
  5
E5
330
1F
100
AcDbEntity
  8
0
  6
Continuous
 62
     7
370
    15
100
AcDbLine
 10
137.5471326799
 20
177.6413041961
 30
0.0
 11
137.5345556948
 21
177.6262826806
 31
0.0
  0
LINE
  5
E6
330
1F
100
AcDbEntity
  8
0
  6
Continuous
 62
     7
370
    15
100
AcDbLine
 10
133.7627729685
 20
216.3262826806
 30
0.0
 11
133.7627729685
 21
167.3262826806
 31
0.0
  0
LINE
  5
E7
330
1F
100
AcDbEntity
  8
0
  6
Continuous
 62
     7
370
    15
100
AcDbLine
 10
133.142542213
 20
167.3262826806
 30
0.0
 11
133.7627729685
 21
167.3262826806
 31
0.0
  0
LINE
  5
E8
330
1F
100
AcDbEntity
  8
0
  6
Continuous
 62
     7
370
    15
100
AcDbLine
 10
133.142542213
 20
216.3262826806
 30
0.0
 11
133.142542213
 21
167.3262826806
 31
0.0
  0
LINE
  5
E9
330
1F
100
AcDbEntity
  8
0
  6
Continuous
 62
     7
370
    15
100
AcDbLine
 10
133.142542213
 20
216.3262826806
 30
0.0
 11
133.7627729685
 21
216.3262826806
 31
0.0
  0
LINE
  5
EA
330
1F
100
AcDbEntity
  8
0
  6
Continuous
 62
     7
370
    15
100
AcDbLine
 10
151.359709665
 20
173.8262826806
 30
0.0
 11
151.359709665
 21
177.6262826806
 31
0.0
  0
LINE
  5
EB
330
1F
100
AcDbEntity
  8
0
  6
Continuous
 62
     7
370
    15
100
AcDbLine
 10
151.359709665
 20
177.6262826806
 30
0.0
 11
151.3471326799
 21
177.6413041961
 31
0.0
  0
LINE
  5
EC
330
1F
100
AcDbEntity
  8
0
  6
Continuous
 62
     7
370
    15
100
AcDbLine
 10
151.3471326799
 20
206.0112611651
 30
0.0
 11
151.3471326799
 21
177.6413041961
 31
0.0
  0
LINE
  5
ED
330
1F
100
AcDbEntity
  8
0
  6
Continuous
 62
     7
370
    15
100
AcDbLine
 10
151.3471326799
 20
206.0112611651
 30
0.0
 11
151.359709665
 21
206.0262826806
 31
0.0
  0
LINE
  5
EE
330
1F
100
AcDbEntity
  8
0
  6
Continuous
 62
     7
370
    15
100
AcDbLine
 10
151.359709665
 20
206.0262826806
 30
0.0
 11
151.359709665
 21
209.8262826806
 31
0.0
  0
LINE
  5
EF
330
1F
100
AcDbEntity
  8
0
  6
Continuous
 62
     7
370
    15
100
AcDbLine
 10
136.7772448364
 20
167.3262826806
 30
0.0
 11
133.7627729685
 21
167.3262826806
 31
0.0
  0
LINE
  5
F0
330
1F
100
AcDbEntity
  8
0
  6
Continuous
 62
     7
370
    15
100
AcDbLine
 10
136.7772448364
 20
216.3262826806
 30
0.0
 11
133.7627729685
 21
216.3262826806
 31
0.0
  0
LINE
  5
F1
330
1F
100
AcDbEntity
  8
0
  6
Continuous
 62
     7
370
    15
100
AcDbLine
 10
138.359709665
 20
173.8262826806
 30
0.0
 11
138.359709665
 21
177.6262826806
 31
0.0
  0
LINE
  5
F2
330
1F
100
AcDbEntity
  8
0
  6
Continuous
 62
     7
370
    15
100
AcDbLine
 10
138.359709665
 20
177.6262826806
 30
0.0
 11
138.3471326799
 21
177.6413041961
 31
0.0
  0
LINE
  5
F3
330
1F
100
AcDbEntity
  8
0
  6
Continuous
 62
     7
370
    15
100
AcDbLine
 10
138.3471326799
 20
206.0112611651
 30
0.0
 11
138.3471326799
 21
177.6413041961
 31
0.0
  0
LINE
  5
F4
330
1F
100
AcDbEntity
  8
0
  6
Continuous
 62
     7
370
    15
100
AcDbLine
 10
138.3471326799
 20
206.0112611651
 30
0.0
 11
138.359709665
 21
206.0262826806
 31
0.0
  0
LINE
  5
F5
330
1F
100
AcDbEntity
  8
0
  6
Continuous
 62
     7
370
    15
100
AcDbLine
 10
138.359709665
 20
206.0262826806
 30
0.0
 11
138.359709665
 21
209.8262826806
 31
0.0
  0
LINE
  5
F6
330
1F
100
AcDbEntity
  8
0
  6
Continuous
 62
     7
370
    15
100
AcDbLine
 10
139.070804899
 20
216.3262826806
 30
0.0
 11
139.070804899
 21
167.3262826806
 31
0.0
  0
LINE
  5
F7
330
1F
100
AcDbEntity
  8
0
  6
Continuous
 62
     7
370
    15
100
AcDbLine
 10
150.5345556948
 20
177.6262826806
 30
0.0
 11
150.5345556948
 21
173.8262826806
 31
0.0
  0
LINE
  5
F8
330
1F
100
AcDbEntity
  8
0
  6
Continuous
 62
     7
370
    15
100
AcDbLine
 10
149.8234604608
 20
216.3262826806
 30
0.0
 11
149.8234604608
 21
167.3262826806
 31
0.0
  0
LINE
  5
F9
330
1F
100
AcDbEntity
  8
0
  6
Continuous
 62
     7
370
    15
100
AcDbLine
 10
150.5345556948
 20
209.8262826806
 30
0.0
 11
150.5345556948
 21
206.0262826806
 31
0.0
  0
LINE
  5
FA
330
1F
100
AcDbEntity
  8
0
  6
Continuous
 62
     7
370
    15
100
AcDbLine
 10
150.5345556948
 20
206.0262826806
 30
0.0
 11
150.5471326799
 21
206.0112611651
 31
0.0
  0
LINE
  5
FB
330
1F
100
AcDbEntity
  8
0
  6
Continuous
 62
     7
370
    15
100
AcDbLine
 10
150.5471326799
 20
206.0112611651
 30
0.0
 11
150.5471326799
 21
177.6413041961
 31
0.0
  0
LINE
  5
FC
330
1F
100
AcDbEntity
  8
0
  6
Continuous
 62
     7
370
    15
100
AcDbLine
 10
150.5471326799
 20
177.6413041961
 30
0.0
 11
150.5345556948
 21
177.6262826806
 31
0.0
  0
LINE
  5
FD
330
1F
100
AcDbEntity
  8
0
  6
Continuous
 62
     7
370
    15
100
AcDbLine
 10
140.0718905064
 20
167.3262826806
 30
0.0
 11
140.0718905064
 21
216.3262826806
 31
0.0
  0
LINE
  5
FE
330
1F
100
AcDbEntity
  8
0
  6
Continuous
 62
     7
370
    15
100
AcDbLine
 10
140.0718905064
 20
167.3262826806
 30
0.0
 11
139.070804899
 21
167.3262826806
 31
0.0
  0
LINE
  5
FF
330
1F
100
AcDbEntity
  8
0
  6
Continuous
 62
     7
370
    15
100
AcDbLine
 10
139.070804899
 20
216.3262826806
 30
0.0
 11
140.0718905064
 21
216.3262826806
 31
0.0
  0
LINE
  5
100
330
1F
100
AcDbEntity
  8
0
  6
Continuous
 62
     7
370
    15
100
AcDbLine
 10
148.8223748534
 20
216.3262826806
 30
0.0
 11
148.8223748534
 21
167.3262826806
 31
0.0
  0
LINE
  5
101
330
1F
100
AcDbEntity
  8
0
  6
Continuous
 62
     7
370
    15
100
AcDbLine
 10
149.8234604608
 20
167.3262826806
 30
0.0
 11
148.8223748534
 21
167.3262826806
 31
0.0
  0
LINE
  5
102
330
1F
100
AcDbEntity
  8
0
  6
Continuous
 62
     7
370
    15
100
AcDbLine
 10
148.8223748534
 20
216.3262826806
 30
0.0
 11
149.8234604608
 21
216.3262826806
 31
0.0
  0
LINE
  5
103
330
1F
100
AcDbEntity
  8
0
  6
Continuous
 62
     7
370
    15
100
AcDbLine
 10
155.7517231467
 20
216.3262826806
 30
0.0
 11
155.8288004258
 21
216.3262826806
 31
0.0
  0
LINE
  5
104
330
1F
100
AcDbEntity
  8
0
  6
Continuous
 62
     7
370
    15
100
AcDbLine
 10
133.065464934
 20
216.3262826806
 30
0.0
 11
133.142542213
 21
216.3262826806
 31
0.0
  0
LINE
  5
105
330
1F
100
AcDbEntity
  8
0
  6
Continuous
 62
     7
370
    15
100
AcDbLine
 10
141.633140006
 20
216.3262826806
 30
0.0
 11
141.633140006
 21
167.3262826806
 31
0.0
  0
LINE
  5
106
330
1F
100
AcDbEntity
  8
0
  6
Continuous
 62
     7
370
    15
100
AcDbLine
 10
141.633140006
 20
167.3262826806
 30
0.0
 11
140.0718905064
 21
167.3262826806
 31
0.0
  0
LINE
  5
107
330
1F
100
AcDbEntity
  8
0
  6
Continuous
 62
     7
370
    15
100
AcDbLine
 10
147.2611253538
 20
167.3262826806
 30
0.0
 11
147.2611253538
 21
216.3262826806
 31
0.0
  0
LINE
  5
108
330
1F
100
AcDbEntity
  8
0
  6
Continuous
 62
     7
370
    15
100
AcDbLine
 10
148.8223748534
 20
167.3262826806
 30
0.0
 11
147.2611253538
 21
167.3262826806
 31
0.0
  0
LINE
  5
109
330
1F
100
AcDbEntity
  8
0
  6
Continuous
 62
     7
370
    15
100
AcDbLine
 10
138.3668624563
 20
206.0262826806
 30
0.0
 11
137.5312196449
 21
206.0262826806
 31
0.0
  0
LINE
  5
10A
330
1F
100
AcDbEntity
  8
0
  6
Continuous
 62
     7
370
    15
100
AcDbLine
 10
137.5471326799
 20
206.0112611651
 30
0.0
 11
138.3471326799
 21
206.0112611651
 31
0.0
  0
LINE
  5
10B
330
1F
100
AcDbEntity
  8
0
  6
Continuous
 62
     7
370
    15
100
AcDbLine
 10
150.5274029035
 20
177.6262826806
 30
0.0
 11
151.3630457149
 21
177.6262826806
 31
0.0
  0
LINE
  5
10C
330
1F
100
AcDbEntity
  8
0
  6
Continuous
 62
     7
370
    15
100
AcDbLine
 10
151.3538365292
 20
177.6413041961
 30
0.0
 11
150.5471326799
 21
177.6413041961
 31
0.0
  0
LINE
  5
10D
330
1F
100
AcDbEntity
  8
0
  6
Continuous
 62
     7
370
    15
100
AcDbLine
 10
137.5274029035
 20
177.6262826806
 30
0.0
 11
138.3630457149
 21
177.6262826806
 31
0.0
  0
LINE
  5
10E
330
1F
100
AcDbEntity
  8
0
  6
Continuous
 62
     7
370
    15
100
AcDbLine
 10
151.3668624563
 20
206.0262826806
 30
0.0
 11
150.5312196449
 21
206.0262826806
 31
0.0
  0
LINE
  5
10F
330
1F
100
AcDbEntity
  8
0
  6
Continuous
 62
     7
370
    15
100
AcDbLine
 10
138.3538365292
 20
177.6413041961
 30
0.0
 11
137.5471326799
 21
177.6413041961
 31
0.0
  0
LINE
  5
110
330
1F
100
AcDbEntity
  8
0
  6
Continuous
 62
     7
370
    15
100
AcDbLine
 10
150.5471326799
 20
206.0112611651
 30
0.0
 11
151.3471326799
 21
206.0112611651
 31
0.0
  0
LINE
  5
111
330
1F
100
AcDbEntity
  8
0
  6
Continuous
 62
     7
370
    15
100
AcDbLine
 10
157.1958464939
 20
216.3262826806
 30
0.0
 11
157.1958464939
 21
167.3262826806
 31
0.0
  0
LINE
  5
112
330
1F
100
AcDbEntity
  8
0
  6
Continuous
 62
     7
370
    15
100
AcDbLine
 10
157.1958464939
 20
216.3262826806
 30
0.0
 11
155.8288004258
 21
216.3262826806
 31
0.0
  0
LINE
  5
113
330
1F
100
AcDbEntity
  8
0
  6
Continuous
 62
     7
370
    15
100
AcDbLine
 10
131.6984188658
 20
216.3262826806
 30
0.0
 11
131.6984188658
 21
167.3262826806
 31
0.0
  0
LINE
  5
114
330
1F
100
AcDbEntity
  8
0
  6
Continuous
 62
     7
370
    15
100
AcDbLine
 10
133.065464934
 20
216.3262826806
 30
0.0
 11
131.6984188658
 21
216.3262826806
 31
0.0
  0
LINE
  5
115
330
1F
100
AcDbEntity
  8
0
  6
Continuous
 62
     7
370
    15
100
AcDbLine
 10
141.633140006
 20
167.3262826806
 30
0.0
 11
147.2611253538
 21
167.3262826806
 31
0.0
  0
LINE
  5
116
330
1F
100
AcDbEntity
  8
0
  6
Continuous
 62
     7
370
    15
100
AcDbLine
 10
158.1907291456
 20
216.3262826806
 30
0.0
 11
158.1907291456
 21
167.3262826806
 31
0.0
  0
LINE
  5
117
330
1F
100
AcDbEntity
  8
0
  6
Continuous
 62
     7
370
    15
100
AcDbLine
 10
157.8915421256
 20
167.3262826806
 30
0.0
 11
157.8915421256
 21
216.3262826806
 31
0.0
  0
LINE
  5
118
330
1F
100
AcDbEntity
  8
0
  6
Continuous
 62
     7
370
    15
100
AcDbLine
 10
157.8915421256
 20
216.3262826806
 30
0.0
 11
158.1907291456
 21
216.3262826806
 31
0.0
  0
LINE
  5
119
330
1F
100
AcDbEntity
  8
0
  6
Continuous
 62
     7
370
    15
100
AcDbLine
 10
131.0027232342
 20
216.3262826806
 30
0.0
 11
131.0027232342
 21
167.3262826806
 31
0.0
  0
LINE
  5
11A
330
1F
100
AcDbEntity
  8
0
  6
Continuous
 62
     7
370
    15
100
AcDbLine
 10
130.7035362142
 20
167.3262826806
 30
0.0
 11
130.7035362142
 21
216.3262826806
 31
0.0
  0
LINE
  5
11B
330
1F
100
AcDbEntity
  8
0
  6
Continuous
 62
     7
370
    15
100
AcDbLine
 10
130.7035362142
 20
216.3262826806
 30
0.0
 11
131.0027232342
 21
216.3262826806
 31
0.0
  0
LINE
  5
11C
330
1F
100
AcDbEntity
  8
0
  6
Continuous
 62
     7
370
    15
100
AcDbLine
 10
157.8915421256
 20
216.3262826806
 30
0.0
 11
157.1958464939
 21
216.3262826806
 31
0.0
  0
LINE
  5
11D
330
1F
100
AcDbEntity
  8
0
  6
Continuous
 62
     7
370
    15
100
AcDbLine
 10
131.6984188658
 20
216.3262826806
 30
0.0
 11
131.0027232342
 21
216.3262826806
 31
0.0
  0
LINE
  5
11E
330
1F
100
AcDbEntity
  8
0
  6
Continuous
 62
     7
370
    15
100
AcDbLine
 10
130.2471326799
 20
216.3262826806
 30
0.0
 11
130.2471326799
 21
167.3262826806
 31
0.0
  0
LINE
  5
11F
330
1F
100
AcDbEntity
  8
0
  6
Continuous
 62
     7
370
    15
100
AcDbLine
 10
130.2471326799
 20
167.3262826806
 30
0.0
 11
130.7035362142
 21
167.3262826806
 31
0.0
  0
LINE
  5
120
330
1F
100
AcDbEntity
  8
0
  6
Continuous
 62
     7
370
    15
100
AcDbLine
 10
130.2471326799
 20
216.3262826806
 30
0.0
 11
130.7035362142
 21
216.3262826806
 31
0.0
  0
LINE
  5
121
330
1F
100
AcDbEntity
  8
0
  6
Continuous
 62
     7
370
    15
100
AcDbLine
 10
158.6471326799
 20
216.3262826806
 30
0.0
 11
158.6471326799
 21
167.3262826806
 31
0.0
  0
LINE
  5
122
330
1F
100
AcDbEntity
  8
0
  6
Continuous
 62
     7
370
    15
100
AcDbLine
 10
158.1907291456
 20
167.3262826806
 30
0.0
 11
158.6471326799
 21
167.3262826806
 31
0.0
  0
LINE
  5
123
330
1F
100
AcDbEntity
  8
0
  6
Continuous
 62
     7
370
    15
100
AcDbLine
 10
158.1907291456
 20
216.3262826806
 30
0.0
 11
158.6471326799
 21
216.3262826806
 31
0.0
  0
LINE
  5
124
330
1F
100
AcDbEntity
  8
0
  6
Continuous
 62
     7
370
    15
100
AcDbLine
 10
130.2471326799
 20
189.3262826806
 30
0.0
 11
129.9913871738
 21
189.3262826806
 31
0.0
  0
LINE
  5
125
330
1F
100
AcDbEntity
  8
0
  6
Continuous
 62
     7
370
    15
100
AcDbLine
 10
130.2471326799
 20
167.3262826806
 30
0.0
 11
129.9913871738
 21
167.3262826806
 31
0.0
  0
LINE
  5
126
330
1F
100
AcDbEntity
  8
0
  6
Continuous
 62
     7
370
    15
100
AcDbLine
 10
158.902878186
 20
189.3262826806
 30
0.0
 11
158.6471326799
 21
189.3262826806
 31
0.0
  0
LINE
  5
127
330
1F
100
AcDbEntity
  8
0
  6
Continuous
 62
     7
370
    15
100
AcDbLine
 10
158.902878186
 20
167.3262826806
 30
0.0
 11
158.6471326799
 21
167.3262826806
 31
0.0
  0
LINE
  5
128
330
1F
100
AcDbEntity
  8
0
  6
Continuous
 62
     7
370
    15
100
AcDbLine
 10
167.4471326799
 20
188.3262826806
 30
0.0
 11
166.4471326799
 21
189.3262826806
 31
0.0
  0
LINE
  5
129
330
1F
100
AcDbEntity
  8
0
  6
Continuous
 62
     7
370
    15
100
AcDbLine
 10
167.4471326799
 20
168.3262826806
 30
0.0
 11
167.4471326799
 21
188.3262826806
 31
0.0
  0
LINE
  5
12A
330
1F
100
AcDbEntity
  8
0
  6
Continuous
 62
     7
370
    15
100
AcDbLine
 10
166.4471326799
 20
167.3262826806
 30
0.0
 11
167.4471326799
 21
168.3262826806
 31
0.0
  0
LINE
  5
12B
330
1F
100
AcDbEntity
  8
0
  6
Continuous
 62
     7
370
    15
100
AcDbLine
 10
165.6971326799
 20
184.8262826806
 30
0.0
 11
165.6971326799
 21
179.8262826806
 31
0.0
  0
ARC
  5
12C
330
1F
100
AcDbEntity
  8
0
  6
Continuous
 62
     7
370
    15
100
AcDbCircle
 10
163.4471326799
 20
184.8262826806
 30
0.0
 40
2.25
100
AcDbArc
 50
0.0
 51
180.0
  0
LINE
  5
12D
330
1F
100
AcDbEntity
  8
0
  6
Continuous
 62
     7
370
    15
100
AcDbLine
 10
161.1971326799
 20
179.8262826806
 30
0.0
 11
161.1971326799
 21
184.8262826806
 31
0.0
  0
ARC
  5
12E
330
1F
100
AcDbEntity
  8
0
  6
Continuous
 62
     7
370
    15
100
AcDbCircle
 10
163.4471326799
 20
179.8262826806
 30
0.0
 40
2.25
100
AcDbArc
 50
180.0
 51
0.0
  0
LINE
  5
12F
330
1F
100
AcDbEntity
  8
0
  6
Continuous
 62
     7
370
    15
100
AcDbLine
 10
158.902878186
 20
189.3262826806
 30
0.0
 11
166.4471326799
 21
189.3262826806
 31
0.0
  0
LINE
  5
130
330
1F
100
AcDbEntity
  8
0
  6
Continuous
 62
     7
370
    15
100
AcDbLine
 10
166.4471326799
 20
167.3262826806
 30
0.0
 11
158.902878186
 21
167.3262826806
 31
0.0
  0
LINE
  5
131
330
1F
100
AcDbEntity
  8
0
  6
Continuous
 62
     7
370
    15
100
AcDbLine
 10
122.4471326799
 20
189.3262826806
 30
0.0
 11
121.4471326799
 21
188.3262826806
 31
0.0
  0
LINE
  5
132
330
1F
100
AcDbEntity
  8
0
  6
Continuous
 62
     7
370
    15
100
AcDbLine
 10
121.4471326799
 20
168.3262826806
 30
0.0
 11
122.4471326799
 21
167.3262826806
 31
0.0
  0
LINE
  5
133
330
1F
100
AcDbEntity
  8
0
  6
Continuous
 62
     7
370
    15
100
AcDbLine
 10
123.1971326799
 20
179.8262826806
 30
0.0
 11
123.1971326799
 21
184.8262826806
 31
0.0
  0
ARC
  5
134
330
1F
100
AcDbEntity
  8
0
  6
Continuous
 62
     7
370
    15
100
AcDbCircle
 10
125.4471326799
 20
184.8262826806
 30
0.0
 40
2.250000000000028
100
AcDbArc
 50
0.0
 51
180.0
  0
ARC
  5
135
330
1F
100
AcDbEntity
  8
0
  6
Continuous
 62
     7
370
    15
100
AcDbCircle
 10
125.4471326799
 20
179.8262826806
 30
0.0
 40
2.250000000000028
100
AcDbArc
 50
180.0
 51
0.0
  0
LINE
  5
136
330
1F
100
AcDbEntity
  8
0
  6
Continuous
 62
     7
370
    15
100
AcDbLine
 10
127.6971326799
 20
184.8262826806
 30
0.0
 11
127.6971326799
 21
179.8262826806
 31
0.0
  0
LINE
  5
137
330
1F
100
AcDbEntity
  8
0
  6
Continuous
 62
     7
370
    15
100
AcDbLine
 10
122.4471326799
 20
189.3262826806
 30
0.0
 11
129.9913871738
 21
189.3262826806
 31
0.0
  0
LINE
  5
138
330
1F
100
AcDbEntity
  8
0
  6
Continuous
 62
     7
370
    15
100
AcDbLine
 10
129.9913871738
 20
167.3262826806
 30
0.0
 11
122.4471326799
 21
167.3262826806
 31
0.0
  0
LINE
  5
139
330
1F
100
AcDbEntity
  8
0
  6
Continuous
 62
     7
370
    15
100
AcDbLine
 10
121.4471326799
 20
188.3262826806
 30
0.0
 11
120.4471326799
 21
187.3262826806
 31
0.0
  0
LINE
  5
13A
330
1F
100
AcDbEntity
  8
0
  6
Continuous
 62
     7
370
    15
100
AcDbLine
 10
120.4471326799
 20
169.3262826806
 30
0.0
 11
121.4471326799
 21
168.3262826806
 31
0.0
  0
LINE
  5
13B
330
1F
100
AcDbEntity
  8
0
  6
Continuous
 62
     7
370
    15
100
AcDbLine
 10
120.4471326799
 20
169.3262826806
 30
0.0
 11
120.4471326799
 21
172.7762826806
 31
0.0
  0
LINE
  5
13C
330
1F
100
AcDbEntity
  8
0
  6
Continuous
 62
     7
370
    15
100
AcDbLine
 10
120.4471326799
 20
175.8762826806
 30
0.0
 11
120.4471326799
 21
187.3262826806
 31
0.0
  0
LINE
  5
13D
330
1F
100
AcDbEntity
  8
0
  6
Continuous
 62
     7
370
    15
100
AcDbLine
 10
168.4471326799
 20
187.3262826806
 30
0.0
 11
167.4471326799
 21
188.3262826806
 31
0.0
  0
LINE
  5
13E
330
1F
100
AcDbEntity
  8
0
  6
Continuous
 62
     7
370
    15
100
AcDbLine
 10
168.4471326799
 20
187.3262826806
 30
0.0
 11
168.4471326799
 21
169.3262826806
 31
0.0
  0
LINE
  5
13F
330
1F
100
AcDbEntity
  8
0
  6
Continuous
 62
     7
370
    15
100
AcDbLine
 10
167.4471326799
 20
168.3262826806
 30
0.0
 11
168.4471326799
 21
169.3262826806
 31
0.0
  0
LINE
  5
140
330
1F
100
AcDbEntity
  8
0
  6
Continuous
 62
     7
370
    15
100
AcDbLine
 10
159.4471326799
 20
170.6466326296
 30
0.0
 11
161.9471326799
 21
170.6466326296
 31
0.0
  0
LINE
  5
141
330
1F
100
AcDbEntity
  8
0
  6
Continuous
 62
     7
370
    15
100
AcDbLine
 10
159.4471326799
 20
173.9517243976
 30
0.0
 11
159.4471326799
 21
173.8685266375
 31
0.0
  0
LINE
  5
142
330
1F
100
AcDbEntity
  8
0
  6
Continuous
 62
     7
370
    15
100
AcDbLine
 10
159.4471326799
 20
170.7298303897
 30
0.0
 11
159.4471326799
 21
170.6466326296
 31
0.0
  0
LINE
  5
143
330
1F
100
AcDbEntity
  8
0
  6
Continuous
 62
     7
370
    15
100
AcDbLine
 10
159.4471326799
 20
173.9517243976
 30
0.0
 11
161.9471326799
 21
173.9517243977
 31
0.0
  0
LINE
  5
144
330
1F
100
AcDbEntity
  8
0
  6
Continuous
 62
     7
370
    15
100
AcDbLine
 10
161.9471326799
 20
173.9517243977
 30
0.0
 11
161.9471326799
 21
170.6466326296
 31
0.0
  0
LINE
  5
145
330
1F
100
AcDbEntity
  8
0
  6
Continuous
 62
     7
370
    15
100
AcDbLine
 10
159.4471326799
 20
177.6313744486
 30
0.0
 11
159.4471326799
 21
177.5387480819
 31
0.0
  0
LINE
  5
146
330
1F
100
AcDbEntity
  8
0
  6
Continuous
 62
     7
370
    15
100
AcDbLine
 10
159.4471326799
 20
174.0443507643
 30
0.0
 11
159.4471326799
 21
173.9517243976
 31
0.0
  0
LINE
  5
147
330
1F
100
AcDbEntity
  8
0
  6
Continuous
 62
     7
370
    15
100
AcDbLine
 10
161.9471326799
 20
177.6313744486
 30
0.0
 11
159.4471326799
 21
177.6313744486
 31
0.0
  0
LINE
  5
148
330
1F
100
AcDbEntity
  8
0
  6
Continuous
 62
     7
370
    15
100
AcDbLine
 10
161.9471326799
 20
177.6313744486
 30
0.0
 11
161.9471326799
 21
173.9517243977
 31
0.0
  0
LINE
  5
149
330
1F
100
AcDbEntity
  8
0
  6
Continuous
 62
     7
370
    15
100
AcDbLine
 10
159.4471326799
 20
178.0059327316
 30
0.0
 11
161.9471326799
 21
178.0059327316
 31
0.0
  0
LINE
  5
14A
330
1F
100
AcDbEntity
  8
0
  6
Continuous
 62
     7
370
    15
100
AcDbLine
 10
161.9471326799
 20
178.0059327316
 30
0.0
 11
161.9471326799
 21
177.6313744486
 31
0.0
  0
LINE
  5
14B
330
1F
100
AcDbEntity
  8
0
  6
Continuous
 62
     7
370
    15
100
AcDbLine
 10
159.4471326799
 20
177.6408030552
 30
0.0
 11
159.4471326799
 21
177.6313744486
 31
0.0
  0
LINE
  5
14C
330
1F
100
AcDbEntity
  8
0
  6
Continuous
 62
     7
370
    15
100
AcDbLine
 10
139.0828166998
 20
164.3262826806
 30
0.0
 11
136.81144866
 21
164.3262826806
 31
0.0
  0
LINE
  5
14D
330
1F
100
AcDbEntity
  8
0
  6
Continuous
 62
     7
370
    15
100
AcDbLine
 10
138.4727629867
 20
173.6262826806
 30
0.0
 11
137.4215023731
 21
173.6262826806
 31
0.0
  0
LINE
  5
14E
330
1F
100
AcDbEntity
  8
0
  6
Continuous
 62
     7
370
    15
100
AcDbLine
 10
137.5345556948
 20
173.8262826806
 30
0.0
 11
138.359709665
 21
173.8262826806
 31
0.0
  0
LINE
  5
14F
330
1F
100
AcDbEntity
  8
0
  6
Continuous
 62
     7
370
    15
100
AcDbLine
 10
152.0828166998
 20
164.3262826806
 30
0.0
 11
149.81144866
 21
164.3262826806
 31
0.0
  0
LINE
  5
150
330
1F
100
AcDbEntity
  8
0
  6
Continuous
 62
     7
370
    15
100
AcDbLine
 10
151.4727629867
 20
173.6262826806
 30
0.0
 11
150.4215023731
 21
173.6262826806
 31
0.0
  0
LINE
  5
151
330
1F
100
AcDbEntity
  8
0
  6
Continuous
 62
     7
370
    15
100
AcDbLine
 10
150.5345556948
 20
173.8262826806
 30
0.0
 11
151.359709665
 21
173.8262826806
 31
0.0
  0
LINE
  5
152
330
1F
100
AcDbEntity
  8
0
  6
Continuous
 62
     7
370
    15
100
AcDbLine
 10
135.1971326799
 20
165.8262826806
 30
0.0
 11
135.1971326799
 21
164.5262826806
 31
0.0
  0
LINE
  5
153
330
1F
100
AcDbEntity
  8
0
  6
Continuous
 62
     7
370
    15
100
AcDbLine
 10
133.7627729685
 20
164.5262826806
 30
0.0
 11
135.1971326799
 21
164.5262826806
 31
0.0
  0
LINE
  5
154
330
1F
100
AcDbEntity
  8
0
  6
Continuous
 62
     7
370
    15
100
AcDbLine
 10
133.7627729685
 20
164.5262826806
 30
0.0
 11
133.7627729685
 21
167.3262826806
 31
0.0
  0
LINE
  5
155
330
1F
100
AcDbEntity
  8
0
  6
Continuous
 62
     7
370
    15
100
AcDbLine
 10
138.5106410068
 20
167.3262826806
 30
0.0
 11
133.7627729685
 21
167.3262826806
 31
0.0
  0
LINE
  5
156
330
1F
100
AcDbEntity
  8
0
  6
Continuous
 62
     7
370
    15
100
AcDbLine
 10
138.5106410068
 20
165.8262826806
 30
0.0
 11
138.5106410068
 21
167.3262826806
 31
0.0
  0
LINE
  5
157
330
1F
100
AcDbEntity
  8
0
  6
Continuous
 62
     7
370
    15
100
AcDbLine
 10
138.5106410068
 20
165.8262826806
 30
0.0
 11
135.1971326799
 21
165.8262826806
 31
0.0
  0
LINE
  5
158
330
1F
100
AcDbEntity
  8
0
  6
Continuous
 62
     7
370
    15
100
AcDbLine
 10
135.1971326799
 20
164.3262826806
 30
0.0
 11
133.4821462915
 21
164.3262826806
 31
0.0
  0
ARC
  5
159
330
1F
100
AcDbEntity
  8
0
  6
Continuous
 62
     7
370
    15
100
AcDbCircle
 10
141.7471326799
 20
153.0262826806
 30
0.0
 40
13.99999999999984
100
AcDbArc
 50
124.7719440319
 51
126.1822872212
  0
LINE
  5
15A
330
1F
100
AcDbEntity
  8
0
  6
Continuous
 62
     7
370
    15
100
AcDbLine
 10
135.1971326799
 20
164.5262826806
 30
0.0
 11
135.1971326799
 21
164.3262826806
 31
0.0
  0
LINE
  5
15B
330
1F
100
AcDbEntity
  8
0
  6
Continuous
 62
     7
370
    15
100
AcDbLine
 10
138.5106410068
 20
167.3262826806
 30
0.0
 11
140.0718905064
 21
167.3262826806
 31
0.0
  0
LINE
  5
15C
330
1F
100
AcDbEntity
  8
0
  6
Continuous
 62
     7
370
    15
100
AcDbLine
 10
140.0718905064
 20
165.8262826806
 30
0.0
 11
140.0718905064
 21
167.3262826806
 31
0.0
  0
LINE
  5
15D
330
1F
100
AcDbEntity
  8
0
  6
Continuous
 62
     7
370
    15
100
AcDbLine
 10
140.0718905064
 20
165.8262826806
 30
0.0
 11
138.5106410068
 21
165.8262826806
 31
0.0
  0
ARC
  5
15E
330
1F
100
AcDbEntity
  8
0
  6
Continuous
 62
     7
370
    15
100
AcDbCircle
 10
147.1471326799
 20
153.0262826806
 30
0.0
 40
13.99999999999984
100
AcDbArc
 50
53.8177127788
 51
55.2280559681
  0
LINE
  5
15F
330
1F
100
AcDbEntity
  8
0
  6
Continuous
 62
     7
370
    15
100
AcDbLine
 10
155.1314923912
 20
164.5262826806
 30
0.0
 11
155.1314923912
 21
167.3262826806
 31
0.0
  0
LINE
  5
160
330
1F
100
AcDbEntity
  8
0
  6
Continuous
 62
     7
370
    15
100
AcDbLine
 10
158.6471326799
 20
164.5262826806
 30
0.0
 11
158.6471326799
 21
167.3262826806
 31
0.0
  0
LINE
  5
161
330
1F
100
AcDbEntity
  8
0
  6
Continuous
 62
     7
370
    15
100
AcDbLine
 10
158.4471326799
 20
164.3262826806
 30
0.0
 11
158.6471326799
 21
164.5262826806
 31
0.0
  0
LINE
  5
162
330
1F
100
AcDbEntity
  8
0
  6
Continuous
 62
     7
370
    15
100
AcDbLine
 10
155.4121190683
 20
164.3262826806
 30
0.0
 11
158.4471326799
 21
164.3262826806
 31
0.0
  0
LINE
  5
163
330
1F
100
AcDbEntity
  8
0
  6
Continuous
 62
     7
370
    15
100
AcDbLine
 10
155.1314923912
 20
167.3262826806
 30
0.0
 11
158.6471326799
 21
167.3262826806
 31
0.0
  0
LINE
  5
164
330
1F
100
AcDbEntity
  8
0
  6
Continuous
 62
     7
370
    15
100
AcDbLine
 10
150.383624353
 20
167.3262826806
 30
0.0
 11
150.383624353
 21
165.8262826806
 31
0.0
  0
LINE
  5
165
330
1F
100
AcDbEntity
  8
0
  6
Continuous
 62
     7
370
    15
100
AcDbLine
 10
150.383624353
 20
165.8262826806
 30
0.0
 11
148.8223748534
 21
165.8262826806
 31
0.0
  0
LINE
  5
166
330
1F
100
AcDbEntity
  8
0
  6
Continuous
 62
     7
370
    15
100
AcDbLine
 10
148.8223748534
 20
167.3262826806
 30
0.0
 11
148.8223748534
 21
165.8262826806
 31
0.0
  0
LINE
  5
167
330
1F
100
AcDbEntity
  8
0
  6
Continuous
 62
     7
370
    15
100
AcDbLine
 10
148.8223748534
 20
167.3262826806
 30
0.0
 11
150.383624353
 21
167.3262826806
 31
0.0
  0
LINE
  5
168
330
1F
100
AcDbEntity
  8
0
  6
Continuous
 62
     7
370
    15
100
AcDbLine
 10
130.4471326799
 20
164.3262826806
 30
0.0
 11
133.4821462915
 21
164.3262826806
 31
0.0
  0
LINE
  5
169
330
1F
100
AcDbEntity
  8
0
  6
Continuous
 62
     7
370
    15
100
AcDbLine
 10
130.2471326799
 20
164.5262826806
 30
0.0
 11
130.4471326799
 21
164.3262826806
 31
0.0
  0
LINE
  5
16A
330
1F
100
AcDbEntity
  8
0
  6
Continuous
 62
     7
370
    15
100
AcDbLine
 10
130.2471326799
 20
164.5262826806
 30
0.0
 11
130.2471326799
 21
167.3262826806
 31
0.0
  0
LINE
  5
16B
330
1F
100
AcDbEntity
  8
0
  6
Continuous
 62
     7
370
    15
100
AcDbLine
 10
130.2471326799
 20
167.3262826806
 30
0.0
 11
133.7627729685
 21
167.3262826806
 31
0.0
  0
LINE
  5
16C
330
1F
100
AcDbEntity
  8
0
  6
Continuous
 62
     7
370
    15
100
AcDbLine
 10
153.6971326799
 20
164.5262826806
 30
0.0
 11
155.1314923912
 21
164.5262826806
 31
0.0
  0
LINE
  5
16D
330
1F
100
AcDbEntity
  8
0
  6
Continuous
 62
     7
370
    15
100
AcDbLine
 10
153.6971326799
 20
165.8262826806
 30
0.0
 11
150.383624353
 21
165.8262826806
 31
0.0
  0
LINE
  5
16E
330
1F
100
AcDbEntity
  8
0
  6
Continuous
 62
     7
370
    15
100
AcDbLine
 10
153.6971326799
 20
165.8262826806
 30
0.0
 11
153.6971326799
 21
164.5262826806
 31
0.0
  0
LINE
  5
16F
330
1F
100
AcDbEntity
  8
0
  6
Continuous
 62
     7
370
    15
100
AcDbLine
 10
155.1314923912
 20
167.3262826806
 30
0.0
 11
150.383624353
 21
167.3262826806
 31
0.0
  0
LINE
  5
170
330
1F
100
AcDbEntity
  8
0
  6
Continuous
 62
     7
370
    15
100
AcDbLine
 10
155.4121190683
 20
164.3262826806
 30
0.0
 11
153.6971326799
 21
164.3262826806
 31
0.0
  0
LINE
  5
171
330
1F
100
AcDbEntity
  8
0
  6
Continuous
 62
     7
370
    15
100
AcDbLine
 10
153.6971326799
 20
164.3262826806
 30
0.0
 11
153.6971326799
 21
164.5262826806
 31
0.0
  0
LINE
  5
172
330
1F
100
AcDbEntity
  8
0
  6
Continuous
 62
     7
370
    15
100
AcDbLine
 10
141.633140006
 20
167.3262826806
 30
0.0
 11
141.633140006
 21
165.8262826806
 31
0.0
  0
LINE
  5
173
330
1F
100
AcDbEntity
  8
0
  6
Continuous
 62
     7
370
    15
100
AcDbLine
 10
141.633140006
 20
165.8262826806
 30
0.0
 11
140.0718905064
 21
165.8262826806
 31
0.0
  0
LINE
  5
174
330
1F
100
AcDbEntity
  8
0
  6
Continuous
 62
     7
370
    15
100
AcDbLine
 10
147.2611253538
 20
165.8262826806
 30
0.0
 11
147.2611253538
 21
167.3262826806
 31
0.0
  0
LINE
  5
175
330
1F
100
AcDbEntity
  8
0
  6
Continuous
 62
     7
370
    15
100
AcDbLine
 10
148.8223748534
 20
165.8262826806
 30
0.0
 11
147.2611253538
 21
165.8262826806
 31
0.0
  0
LINE
  5
176
330
1F
100
AcDbEntity
  8
0
  6
Continuous
 62
     7
370
    15
100
AcDbLine
 10
140.6910147635
 20
164.3262826806
 30
0.0
 11
140.6910147635
 21
165.8262826806
 31
0.0
  0
LINE
  5
177
330
1F
100
AcDbEntity
  8
0
  6
Continuous
 62
     7
370
    15
100
AcDbLine
 10
141.6887900667
 20
165.8262826806
 30
0.0
 11
141.6887900667
 21
164.3262826806
 31
0.0
  0
LINE
  5
178
330
1F
100
AcDbEntity
  8
0
  6
Continuous
 62
     7
370
    15
100
AcDbLine
 10
141.6887900667
 20
164.3262826806
 30
0.0
 11
140.6910147635
 21
164.3262826806
 31
0.0
  0
LINE
  5
179
330
1F
100
AcDbEntity
  8
0
  6
Continuous
 62
     7
370
    15
100
AcDbLine
 10
148.2032505962
 20
165.8262826806
 30
0.0
 11
148.2032505962
 21
164.3262826806
 31
0.0
  0
LINE
  5
17A
330
1F
100
AcDbEntity
  8
0
  6
Continuous
 62
     7
370
    15
100
AcDbLine
 10
147.2054752931
 20
164.3262826806
 30
0.0
 11
147.2054752931
 21
165.8262826806
 31
0.0
  0
LINE
  5
17B
330
1F
100
AcDbEntity
  8
0
  6
Continuous
 62
     7
370
    15
100
AcDbLine
 10
148.2032505962
 20
164.3262826806
 30
0.0
 11
147.2054752931
 21
164.3262826806
 31
0.0
  0
LINE
  5
17C
330
1F
100
AcDbEntity
  8
0
  6
Continuous
 62
     7
370
    15
100
AcDbLine
 10
141.6887900667
 20
164.3262826806
 30
0.0
 11
147.2054752931
 21
164.3262826806
 31
0.0
  0
LINE
  5
17D
330
1F
100
AcDbEntity
  8
0
  6
Continuous
 62
     7
370
    15
100
AcDbLine
 10
147.2054752931
 20
165.8262826806
 30
0.0
 11
147.2611253538
 21
165.8262826806
 31
0.0
  0
LINE
  5
17E
330
1F
100
AcDbEntity
  8
0
  6
Continuous
 62
     7
370
    15
100
AcDbLine
 10
141.633140006
 20
165.8262826806
 30
0.0
 11
141.6887900667
 21
165.8262826806
 31
0.0
  0
LINE
  5
17F
330
1F
100
AcDbEntity
  8
0
  6
Continuous
 62
     7
370
    15
100
AcDbLine
 10
148.2032505962
 20
164.3262826806
 30
0.0
 11
149.81144866
 21
164.3262826806
 31
0.0
  0
LINE
  5
180
330
1F
100
AcDbEntity
  8
0
  6
Continuous
 62
     7
370
    15
100
AcDbLine
 10
152.0828166998
 20
164.3262826806
 30
0.0
 11
153.6971326799
 21
164.3262826806
 31
0.0
  0
LINE
  5
181
330
1F
100
AcDbEntity
  8
0
  6
Continuous
 62
     7
370
    15
100
AcDbLine
 10
135.1971326799
 20
164.3262826806
 30
0.0
 11
136.81144866
 21
164.3262826806
 31
0.0
  0
LINE
  5
182
330
1F
100
AcDbEntity
  8
0
  6
Continuous
 62
     7
370
    15
100
AcDbLine
 10
139.0828166998
 20
164.3262826806
 30
0.0
 11
140.6910147635
 21
164.3262826806
 31
0.0
  0
LINE
  5
183
330
1F
100
AcDbEntity
  8
0
  6
Continuous
 62
     7
370
    15
100
AcDbLine
 10
149.965234233
 20
219.3262826806
 30
0.0
 11
152.0828166998
 21
219.3262826806
 31
0.0
  0
LINE
  5
184
330
1F
100
AcDbEntity
  8
0
  6
Continuous
 62
     7
370
    15
100
AcDbLine
 10
149.81144866
 20
219.3262826806
 30
0.0
 11
149.965234233
 21
219.3262826806
 31
0.0
  0
LINE
  5
185
330
1F
100
AcDbEntity
  8
0
  6
Continuous
 62
     7
370
    15
100
AcDbLine
 10
150.4215023731
 20
210.0262826806
 30
0.0
 11
151.4727629867
 21
210.0262826806
 31
0.0
  0
LINE
  5
186
330
1F
100
AcDbEntity
  8
0
  6
Continuous
 62
     7
370
    15
100
AcDbLine
 10
151.359709665
 20
209.8262826806
 30
0.0
 11
150.5345556948
 21
209.8262826806
 31
0.0
  0
LINE
  5
187
330
1F
100
AcDbEntity
  8
0
  6
Continuous
 62
     7
370
    15
100
AcDbLine
 10
136.965234233
 20
219.3262826806
 30
0.0
 11
139.0828166998
 21
219.3262826806
 31
0.0
  0
LINE
  5
188
330
1F
100
AcDbEntity
  8
0
  6
Continuous
 62
     7
370
    15
100
AcDbLine
 10
136.81144866
 20
219.3262826806
 30
0.0
 11
136.965234233
 21
219.3262826806
 31
0.0
  0
LINE
  5
189
330
1F
100
AcDbEntity
  8
0
  6
Continuous
 62
     7
370
    15
100
AcDbLine
 10
138.359709665
 20
209.8262826806
 30
0.0
 11
137.5345556948
 21
209.8262826806
 31
0.0
  0
LINE
  5
18A
330
1F
100
AcDbEntity
  8
0
  6
Continuous
 62
     7
370
    15
100
AcDbLine
 10
137.4215023731
 20
210.0262826806
 30
0.0
 11
138.4727629867
 21
210.0262826806
 31
0.0
  0
LINE
  5
18B
330
1F
100
AcDbEntity
  8
0
  6
Continuous
 62
     7
370
    15
100
AcDbLine
 10
129.4471326799
 20
208.7038469152
 30
0.0
 11
126.9471326799
 21
208.7038469152
 31
0.0
  0
LINE
  5
18C
330
1F
100
AcDbEntity
  8
0
  6
Continuous
 62
     7
370
    15
100
AcDbLine
 10
126.9471326799
 20
208.7038469152
 30
0.0
 11
126.9471326799
 21
212.083613281
 31
0.0
  0
LINE
  5
18D
330
1F
100
AcDbEntity
  8
0
  6
Continuous
 62
     7
370
    15
100
AcDbLine
 10
129.4471326799
 20
212.0836132813
 30
0.0
 11
126.9471326799
 21
212.083613281
 31
0.0
  0
LINE
  5
18E
330
1F
100
AcDbEntity
  8
0
  6
Continuous
 62
     7
370
    15
100
AcDbLine
 10
129.4471326799
 20
208.7038469152
 30
0.0
 11
129.4471326799
 21
208.7889244292
 31
0.0
  0
LINE
  5
18F
330
1F
100
AcDbEntity
  8
0
  6
Continuous
 62
     7
370
    15
100
AcDbLine
 10
129.4471326799
 20
211.9985357671
 30
0.0
 11
129.4471326799
 21
212.0836132813
 31
0.0
  0
LINE
  5
190
330
1F
100
AcDbEntity
  8
0
  6
Continuous
 62
     7
370
    15
100
AcDbLine
 10
126.9471326799
 20
212.083613281
 30
0.0
 11
126.9471326799
 21
215.7060490465
 31
0.0
  0
LINE
  5
191
330
1F
100
AcDbEntity
  8
0
  6
Continuous
 62
     7
370
    15
100
AcDbLine
 10
126.9471326799
 20
215.7060490465
 30
0.0
 11
129.4471326799
 21
215.7060490465
 31
0.0
  0
LINE
  5
192
330
1F
100
AcDbEntity
  8
0
  6
Continuous
 62
     7
370
    15
100
AcDbLine
 10
129.4471326799
 20
212.0836132813
 30
0.0
 11
129.4471326799
 21
212.1747994154
 31
0.0
  0
LINE
  5
193
330
1F
100
AcDbEntity
  8
0
  6
Continuous
 62
     7
370
    15
100
AcDbLine
 10
129.4471326799
 20
215.6148629122
 30
0.0
 11
129.4471326799
 21
215.7060490465
 31
0.0
  0
LINE
  5
194
330
1F
100
AcDbEntity
  8
0
  6
Continuous
 62
     7
370
    15
100
AcDbLine
 10
129.4471326799
 20
215.948718446
 30
0.0
 11
126.9471326799
 21
215.948718446
 31
0.0
  0
LINE
  5
195
330
1F
100
AcDbEntity
  8
0
  6
Continuous
 62
     7
370
    15
100
AcDbLine
 10
126.9471326799
 20
215.7060490465
 30
0.0
 11
126.9471326799
 21
215.948718446
 31
0.0
  0
LINE
  5
196
330
1F
100
AcDbEntity
  8
0
  6
Continuous
 62
     7
370
    15
100
AcDbLine
 10
129.4471326799
 20
215.7060490465
 30
0.0
 11
129.4471326799
 21
215.7121576668
 31
0.0
  0
LINE
  5
197
330
1F
100
AcDbEntity
  8
0
  6
Continuous
 62
     7
370
    15
100
AcDbLine
 10
124.9471326799
 20
210.5762826806
 30
0.0
 11
124.9471326799
 21
212.2214255327
 31
0.0
  0
LINE
  5
198
330
1F
100
AcDbEntity
  8
0
  6
Continuous
 62
     7
370
    15
100
AcDbLine
 10
124.9471326799
 20
212.2214255327
 30
0.0
 11
124.9471326799
 21
214.0762826806
 31
0.0
  0
LINE
  5
199
330
1F
100
AcDbEntity
  8
0
  6
Continuous
 62
     7
370
    15
100
AcDbLine
 10
122.4471326799
 20
212.2214255327
 30
0.0
 11
122.4471326799
 21
214.0762826806
 31
0.0
  0
LINE
  5
19A
330
1F
100
AcDbEntity
  8
0
  6
Continuous
 62
     7
370
    15
100
AcDbLine
 10
122.4471326799
 20
210.5762826806
 30
0.0
 11
122.4471326799
 21
212.2214255327
 31
0.0
  0
LINE
  5
19B
330
1F
100
AcDbEntity
  8
0
  6
Continuous
 62
     7
370
    15
100
AcDbLine
 10
119.9471326799
 20
213.8235876011
 30
0.0
 11
119.9471326799
 21
213.8262826806
 31
0.0
  0
LINE
  5
19C
330
1F
100
AcDbEntity
  8
0
  6
Continuous
 62
     7
370
    15
100
AcDbLine
 10
119.9471326799
 20
210.8262826806
 30
0.0
 11
119.9471326799
 21
213.8235876011
 31
0.0
  0
LINE
  5
19D
330
1F
100
AcDbEntity
  8
0
  6
Continuous
 62
     7
370
    15
100
AcDbLine
 10
129.4471326799
 20
170.8177900139
 30
0.0
 11
126.9471326799
 21
170.8177900138
 31
0.0
  0
LINE
  5
19E
330
1F
100
AcDbEntity
  8
0
  6
Continuous
 62
     7
370
    15
100
AcDbLine
 10
126.9471326799
 20
170.8177900138
 30
0.0
 11
126.9471326799
 21
174.3241021009
 31
0.0
  0
LINE
  5
19F
330
1F
100
AcDbEntity
  8
0
  6
Continuous
 62
     7
370
    15
100
AcDbLine
 10
126.9471326799
 20
174.3241021009
 30
0.0
 11
129.4471326799
 21
174.3241021009
 31
0.0
  0
LINE
  5
1A0
330
1F
100
AcDbEntity
  8
0
  6
Continuous
 62
     7
370
    15
100
AcDbLine
 10
129.4471326799
 20
170.8177900139
 30
0.0
 11
129.4471326799
 21
170.9060530129
 31
0.0
  0
LINE
  5
1A1
330
1F
100
AcDbEntity
  8
0
  6
Continuous
 62
     7
370
    15
100
AcDbLine
 10
129.4471326799
 20
174.2358391018
 30
0.0
 11
129.4471326799
 21
174.3241021009
 31
0.0
  0
LINE
  5
1A2
330
1F
100
AcDbEntity
  8
0
  6
Continuous
 62
     7
370
    15
100
AcDbLine
 10
126.9471326799
 20
174.3241021009
 30
0.0
 11
126.9471326799
 21
177.8325947677
 31
0.0
  0
LINE
  5
1A3
330
1F
100
AcDbEntity
  8
0
  6
Continuous
 62
     7
370
    15
100
AcDbLine
 10
129.4471326799
 20
177.8325947677
 30
0.0
 11
126.9471326799
 21
177.8325947677
 31
0.0
  0
LINE
  5
1A4
330
1F
100
AcDbEntity
  8
0
  6
Continuous
 62
     7
370
    15
100
AcDbLine
 10
129.4471326799
 20
174.3241021009
 30
0.0
 11
129.4471326799
 21
174.4124199909
 31
0.0
  0
LINE
  5
1A5
330
1F
100
AcDbEntity
  8
0
  6
Continuous
 62
     7
370
    15
100
AcDbLine
 10
129.4471326799
 20
177.7442768777
 30
0.0
 11
129.4471326799
 21
177.8325947677
 31
0.0
  0
LINE
  5
1A6
330
1F
100
AcDbEntity
  8
0
  6
Continuous
 62
     7
370
    15
100
AcDbLine
 10
129.4471326799
 20
177.8347753473
 30
0.0
 11
126.9471326799
 21
177.8347753473
 31
0.0
  0
LINE
  5
1A7
330
1F
100
AcDbEntity
  8
0
  6
Continuous
 62
     7
370
    15
100
AcDbLine
 10
126.9471326799
 20
177.8325947677
 30
0.0
 11
126.9471326799
 21
177.8347753473
 31
0.0
  0
LINE
  5
1A8
330
1F
100
AcDbEntity
  8
0
  6
Continuous
 62
     7
370
    15
100
AcDbLine
 10
129.4471326799
 20
177.8325947677
 30
0.0
 11
129.4471326799
 21
177.8326496586
 31
0.0
  0
LINE
  5
1A9
330
1F
100
AcDbEntity
  8
0
  6
Continuous
 62
     7
370
    15
100
AcDbLine
 10
124.9471326799
 20
172.8102673307
 30
0.0
 11
124.9471326799
 21
176.0762826806
 31
0.0
  0
LINE
  5
1AA
330
1F
100
AcDbEntity
  8
0
  6
Continuous
 62
     7
370
    15
100
AcDbLine
 10
124.9471326799
 20
172.5762826806
 30
0.0
 11
124.9471326799
 21
172.8102673307
 31
0.0
  0
LINE
  5
1AB
330
1F
100
AcDbEntity
  8
0
  6
Continuous
 62
     7
370
    15
100
AcDbLine
 10
122.4471326799
 20
172.8102673307
 30
0.0
 11
122.4471326799
 21
176.0762826806
 31
0.0
  0
LINE
  5
1AC
330
1F
100
AcDbEntity
  8
0
  6
Continuous
 62
     7
370
    15
100
AcDbLine
 10
122.4471326799
 20
172.5762826806
 30
0.0
 11
122.4471326799
 21
172.8102673307
 31
0.0
  0
LINE
  5
1AD
330
1F
100
AcDbEntity
  8
0
  6
Continuous
 62
     7
370
    15
100
AcDbLine
 10
119.9471326799
 20
175.0755831506
 30
0.0
 11
119.9471326799
 21
175.8262826806
 31
0.0
  0
LINE
  5
1AE
330
1F
100
AcDbEntity
  8
0
  6
Continuous
 62
     7
370
    15
100
AcDbLine
 10
119.9471326799
 20
172.8262826806
 30
0.0
 11
119.9471326799
 21
175.0755831506
 31
0.0
  0
LINE
  5
1AF
330
1F
100
AcDbEntity
  8
0
  6
Continuous
 62
     7
370
    15
100
AcDbLine
 10
159.4471326799
 20
211.9517243976
 30
0.0
 11
161.9471326799
 21
211.9517243977
 31
0.0
  0
LINE
  5
1B0
330
1F
100
AcDbEntity
  8
0
  6
Continuous
 62
     7
370
    15
100
AcDbLine
 10
159.4471326799
 20
215.6313744486
 30
0.0
 11
159.4471326799
 21
215.5387480819
 31
0.0
  0
LINE
  5
1B1
330
1F
100
AcDbEntity
  8
0
  6
Continuous
 62
     7
370
    15
100
AcDbLine
 10
159.4471326799
 20
212.0443507643
 30
0.0
 11
159.4471326799
 21
211.9517243976
 31
0.0
  0
LINE
  5
1B2
330
1F
100
AcDbEntity
  8
0
  6
Continuous
 62
     7
370
    15
100
AcDbLine
 10
161.9471326799
 20
215.6313744486
 30
0.0
 11
159.4471326799
 21
215.6313744486
 31
0.0
  0
LINE
  5
1B3
330
1F
100
AcDbEntity
  8
0
  6
Continuous
 62
     7
370
    15
100
AcDbLine
 10
161.9471326799
 20
215.6313744486
 30
0.0
 11
161.9471326799
 21
211.9517243977
 31
0.0
  0
LINE
  5
1B4
330
1F
100
AcDbEntity
  8
0
  6
Continuous
 62
     7
370
    15
100
AcDbLine
 10
159.4471326799
 20
208.6466326296
 30
0.0
 11
161.9471326799
 21
208.6466326296
 31
0.0
  0
LINE
  5
1B5
330
1F
100
AcDbEntity
  8
0
  6
Continuous
 62
     7
370
    15
100
AcDbLine
 10
159.4471326799
 20
211.9517243976
 30
0.0
 11
159.4471326799
 21
211.8685266375
 31
0.0
  0
LINE
  5
1B6
330
1F
100
AcDbEntity
  8
0
  6
Continuous
 62
     7
370
    15
100
AcDbLine
 10
159.4471326799
 20
208.7298303897
 30
0.0
 11
159.4471326799
 21
208.6466326296
 31
0.0
  0
LINE
  5
1B7
330
1F
100
AcDbEntity
  8
0
  6
Continuous
 62
     7
370
    15
100
AcDbLine
 10
161.9471326799
 20
211.9517243977
 30
0.0
 11
161.9471326799
 21
208.6466326296
 31
0.0
  0
LINE
  5
1B8
330
1F
100
AcDbEntity
  8
0
  6
Continuous
 62
     7
370
    15
100
AcDbLine
 10
159.4471326799
 20
216.0059327316
 30
0.0
 11
161.9471326799
 21
216.0059327316
 31
0.0
  0
LINE
  5
1B9
330
1F
100
AcDbEntity
  8
0
  6
Continuous
 62
     7
370
    15
100
AcDbLine
 10
161.9471326799
 20
216.0059327316
 30
0.0
 11
161.9471326799
 21
215.6313744486
 31
0.0
  0
LINE
  5
1BA
330
1F
100
AcDbEntity
  8
0
  6
Continuous
 62
     7
370
    15
100
AcDbLine
 10
159.4471326799
 20
215.6408030552
 30
0.0
 11
159.4471326799
 21
215.6313744486
 31
0.0
  0
LINE
  5
1BB
330
1F
100
AcDbEntity
  8
0
  6
Continuous
 62
     7
370
    15
100
AcDbLine
 10
129.4471326799
 20
208.4112254928
 30
0.0
 11
129.4471326799
 21
208.7038469152
 31
0.0
  0
LINE
  5
1BC
330
1F
100
AcDbEntity
  8
0
  6
Continuous
 62
     7
370
    15
100
AcDbLine
 10
129.4471326799
 20
208.7889244292
 30
0.0
 11
129.4471326799
 21
211.9985357671
 31
0.0
  0
LINE
  5
1BD
330
1F
100
AcDbEntity
  8
0
  6
Continuous
 62
     7
370
    15
100
AcDbLine
 10
129.4471326799
 20
212.1747994154
 30
0.0
 11
129.4471326799
 21
215.6148629122
 31
0.0
  0
LINE
  5
1BE
330
1F
100
AcDbEntity
  8
0
  6
Continuous
 62
     7
370
    15
100
AcDbLine
 10
129.4471326799
 20
215.7060490465
 30
0.0
 11
129.4471326799
 21
216.3262826806
 31
0.0
  0
LINE
  5
1BF
330
1F
100
AcDbEntity
  8
0
  6
Continuous
 62
     7
370
    15
100
AcDbLine
 10
129.4471326799
 20
208.3262826806
 30
0.0
 11
129.4471326799
 21
208.4112254928
 31
0.0
  0
LINE
  5
1C0
330
1F
100
AcDbEntity
  8
0
  6
Continuous
 62
     7
370
    15
100
AcDbLine
 10
129.4471326799
 20
170.4112254928
 30
0.0
 11
129.4471326799
 21
170.8177900139
 31
0.0
  0
LINE
  5
1C1
330
1F
100
AcDbEntity
  8
0
  6
Continuous
 62
     7
370
    15
100
AcDbLine
 10
129.4471326799
 20
170.9060530129
 30
0.0
 11
129.4471326799
 21
174.2358391018
 31
0.0
  0
LINE
  5
1C2
330
1F
100
AcDbEntity
  8
0
  6
Continuous
 62
     7
370
    15
100
AcDbLine
 10
129.4471326799
 20
174.4124199909
 30
0.0
 11
129.4471326799
 21
177.7442768777
 31
0.0
  0
LINE
  5
1C3
330
1F
100
AcDbEntity
  8
0
  6
Continuous
 62
     7
370
    15
100
AcDbLine
 10
129.4471326799
 20
177.8347753473
 30
0.0
 11
129.4471326799
 21
178.3262826806
 31
0.0
  0
LINE
  5
1C4
330
1F
100
AcDbEntity
  8
0
  6
Continuous
 62
     7
370
    15
100
AcDbLine
 10
129.4471326799
 20
170.3262826806
 30
0.0
 11
129.4471326799
 21
170.4112254928
 31
0.0
  0
LINE
  5
1C5
330
1F
100
AcDbEntity
  8
0
  6
Continuous
 62
     7
370
    15
100
AcDbLine
 10
159.4471326799
 20
208.4112254928
 30
0.0
 11
159.4471326799
 21
208.6466326296
 31
0.0
  0
LINE
  5
1C6
330
1F
100
AcDbEntity
  8
0
  6
Continuous
 62
     7
370
    15
100
AcDbLine
 10
159.4471326799
 20
208.7298303897
 30
0.0
 11
159.4471326799
 21
211.8685266375
 31
0.0
  0
LINE
  5
1C7
330
1F
100
AcDbEntity
  8
0
  6
Continuous
 62
     7
370
    15
100
AcDbLine
 10
159.4471326799
 20
212.0443507643
 30
0.0
 11
159.4471326799
 21
215.5387480819
 31
0.0
  0
LINE
  5
1C8
330
1F
100
AcDbEntity
  8
0
  6
Continuous
 62
     7
370
    15
100
AcDbLine
 10
159.4471326799
 20
215.6313744486
 30
0.0
 11
159.4471326799
 21
216.3262826806
 31
0.0
  0
LINE
  5
1C9
330
1F
100
AcDbEntity
  8
0
  6
Continuous
 62
     7
370
    15
100
AcDbLine
 10
159.4471326799
 20
208.3262826806
 30
0.0
 11
159.4471326799
 21
208.4112254928
 31
0.0
  0
LINE
  5
1CA
330
1F
100
AcDbEntity
  8
0
  6
Continuous
 62
     7
370
    15
100
AcDbLine
 10
159.4471326799
 20
170.4112254928
 30
0.0
 11
159.4471326799
 21
170.6466326296
 31
0.0
  0
LINE
  5
1CB
330
1F
100
AcDbEntity
  8
0
  6
Continuous
 62
     7
370
    15
100
AcDbLine
 10
159.4471326799
 20
170.7298303897
 30
0.0
 11
159.4471326799
 21
173.8685266375
 31
0.0
  0
LINE
  5
1CC
330
1F
100
AcDbEntity
  8
0
  6
Continuous
 62
     7
370
    15
100
AcDbLine
 10
159.4471326799
 20
174.0443507643
 30
0.0
 11
159.4471326799
 21
177.5387480819
 31
0.0
  0
LINE
  5
1CD
330
1F
100
AcDbEntity
  8
0
  6
Continuous
 62
     7
370
    15
100
AcDbLine
 10
159.4471326799
 20
177.6313744486
 30
0.0
 11
159.4471326799
 21
178.3262826806
 31
0.0
  0
LINE
  5
1CE
330
1F
100
AcDbEntity
  8
0
  6
Continuous
 62
     7
370
    15
100
AcDbLine
 10
159.4471326799
 20
170.3262826806
 30
0.0
 11
159.4471326799
 21
170.4112254928
 31
0.0
  0
LINE
  5
1CF
330
1F
100
AcDbEntity
  8
0
  6
Continuous
 62
     8
370
    15
100
AcDbLine
 10
129.9913871738
 20
167.3262826806
 30
0.0
 11
129.9913871738
 21
170.3262826806
 31
0.0
  0
LINE
  5
1D0
330
1F
100
AcDbEntity
  8
0
  6
Continuous
 62
     8
370
    15
100
AcDbLine
 10
129.9913871738
 20
178.3262826806
 30
0.0
 11
129.9913871738
 21
189.3262826806
 31
0.0
  0
LINE
  5
1D1
330
1F
100
AcDbEntity
  8
0
  6
Continuous
 62
     8
370
    15
100
AcDbLine
 10
158.902878186
 20
189.3262826806
 30
0.0
 11
158.902878186
 21
178.3262826806
 31
0.0
  0
LINE
  5
1D2
330
1F
100
AcDbEntity
  8
0
  6
Continuous
 62
     8
370
    15
100
AcDbLine
 10
158.902878186
 20
170.3262826806
 30
0.0
 11
158.902878186
 21
167.3262826806
 31
0.0
  0
LINE
  5
1D3
330
1F
100
AcDbEntity
  8
0
  6
Continuous
 62
     8
370
    15
100
AcDbLine
 10
121.4471326799
 20
188.3262826806
 30
0.0
 11
121.4471326799
 21
175.9762826806
 31
0.0
  0
LINE
  5
1D4
330
1F
100
AcDbEntity
  8
0
  6
Continuous
 62
     8
370
    15
100
AcDbLine
 10
121.4471326799
 20
172.6762826806
 30
0.0
 11
121.4471326799
 21
168.3262826806
 31
0.0
  0
LINE
  5
1D5
330
1F
100
AcDbEntity
  8
0
  6
Continuous
 62
     8
370
    15
100
AcDbLine
 10
140.0132198319
 20
165.5315904407
 30
0.0
 11
140.1971326799
 21
165.5315904407
 31
0.0
  0
LINE
  5
1D6
330
1F
100
AcDbEntity
  8
0
  6
Continuous
 62
     8
370
    15
100
AcDbLine
 10
135.6971326799
 20
165.5315904407
 30
0.0
 11
140.0132198319
 21
165.5315904407
 31
0.0
  0
LINE
  5
1D7
330
1F
100
AcDbEntity
  8
0
  6
Continuous
 62
     8
370
    15
100
AcDbLine
 10
139.7903317179
 20
164.7265346034
 30
0.0
 11
136.1039336418
 21
164.7265346034
 31
0.0
  0
LINE
  5
1D8
330
1F
100
AcDbEntity
  8
0
  6
Continuous
 62
     8
370
    15
100
AcDbLine
 10
139.2623427323
 20
164.4237547619
 30
0.0
 11
139.3794162188
 21
164.4237547619
 31
0.0
  0
LINE
  5
1D9
330
1F
100
AcDbEntity
  8
0
  6
Continuous
 62
     8
370
    15
100
AcDbLine
 10
136.5148491409
 20
164.4237547619
 30
0.0
 11
139.2623427323
 21
164.4237547619
 31
0.0
  0
LINE
  5
1DA
330
1F
100
AcDbEntity
  8
0
  6
Continuous
 62
     8
370
    15
100
AcDbLine
 10
153.0132198319
 20
165.5315904407
 30
0.0
 11
153.1971326799
 21
165.5315904407
 31
0.0
  0
LINE
  5
1DB
330
1F
100
AcDbEntity
  8
0
  6
Continuous
 62
     8
370
    15
100
AcDbLine
 10
148.6971326799
 20
165.5315904407
 30
0.0
 11
153.0132198319
 21
165.5315904407
 31
0.0
  0
LINE
  5
1DC
330
1F
100
AcDbEntity
  8
0
  6
Continuous
 62
     8
370
    15
100
AcDbLine
 10
152.7903317179
 20
164.7265346034
 30
0.0
 11
149.1039336418
 21
164.7265346034
 31
0.0
  0
LINE
  5
1DD
330
1F
100
AcDbEntity
  8
0
  6
Continuous
 62
     8
370
    15
100
AcDbLine
 10
152.2623427323
 20
164.4237547619
 30
0.0
 11
152.3794162188
 21
164.4237547619
 31
0.0
  0
LINE
  5
1DE
330
1F
100
AcDbEntity
  8
0
  6
Continuous
 62
     8
370
    15
100
AcDbLine
 10
149.5148491409
 20
164.4237547619
 30
0.0
 11
152.2623427323
 21
164.4237547619
 31
0.0
  0
LINE
  5
1DF
330
1F
100
AcDbEntity
  8
0
  6
Continuous
 62
     8
370
    15
100
AcDbLine
 10
153.1971326799
 20
218.1209749205
 30
0.0
 11
148.6971326799
 21
218.1209749205
 31
0.0
  0
LINE
  5
1E0
330
1F
100
AcDbEntity
  8
0
  6
Continuous
 62
     8
370
    15
100
AcDbLine
 10
149.3535254431
 20
218.9260307578
 30
0.0
 11
152.7903317179
 21
218.9260307578
 31
0.0
  0
LINE
  5
1E1
330
1F
100
AcDbEntity
  8
0
  6
Continuous
 62
     8
370
    15
100
AcDbLine
 10
149.1039336418
 20
218.9260307578
 30
0.0
 11
149.3535254431
 21
218.9260307578
 31
0.0
  0
LINE
  5
1E2
330
1F
100
AcDbEntity
  8
0
  6
Continuous
 62
     8
370
    15
100
AcDbLine
 10
152.3794162188
 20
219.2288105993
 30
0.0
 11
149.5148491409
 21
219.2288105993
 31
0.0
  0
LINE
  5
1E3
330
1F
100
AcDbEntity
  8
0
  6
Continuous
 62
     8
370
    15
100
AcDbLine
 10
140.1971326799
 20
218.1209749205
 30
0.0
 11
135.6971326799
 21
218.1209749205
 31
0.0
  0
LINE
  5
1E4
330
1F
100
AcDbEntity
  8
0
  6
Continuous
 62
     8
370
    15
100
AcDbLine
 10
136.3535254431
 20
218.9260307578
 30
0.0
 11
139.7903317179
 21
218.9260307578
 31
0.0
  0
LINE
  5
1E5
330
1F
100
AcDbEntity
  8
0
  6
Continuous
 62
     8
370
    15
100
AcDbLine
 10
136.1039336418
 20
218.9260307578
 30
0.0
 11
136.3535254431
 21
218.9260307578
 31
0.0
  0
LINE
  5
1E6
330
1F
100
AcDbEntity
  8
0
  6
Continuous
 62
     8
370
    15
100
AcDbLine
 10
139.3794162188
 20
219.2288105993
 30
0.0
 11
136.5148491409
 21
219.2288105993
 31
0.0
  0
LINE
  5
1E7
330
1F
100
AcDbEntity
  8
0
  6
Continuous
 62
     7
370
     0
100
AcDbLine
 10
122.0098453624
 20
182.3262826806
 30
0.0
 11
129.1410065067
 21
182.3262826806
 31
0.0
  0
DIMENSION
  5
1E8
330
1F
100
AcDbEntity
  8
0
  6
Continuous
 62
     7
370
     0
100
AcDbDimension
  2
_D
 10
103.9471326799
 20
161.3262826806
 30
0.0
 11
103.9471326799
 21
171.671465395
 31
0.0
 70
   160
  1
<>
 71
     2
 42
-1.0
  3
SLDDIMSTYLE0
100
AcDbAlignedDimension
 13
122.0098453624
 23
182.3262826806
 33
0.0
 14
141.4471326799
 24
161.3262826806
 34
0.0
 50
90.0
100
AcDbRotatedDimension
  0
DIMENSION
  5
1F4
330
1F
100
AcDbEntity
  8
0
  6
Continuous
 62
     7
370
     0
100
AcDbDimension
  2
_D_1
 10
163.4471326799
 20
148.3170266093
 30
0.0
 11
145.150492458
 21
148.3170266093
 31
0.0
 70
   160
  1
<>
 71
     2
 42
-1.0
  3
SLDDIMSTYLE0
100
AcDbAlignedDimension
 13
125.4471326799
 23
177.8262826806
 33
0.0
 14
163.4471326799
 24
180.0762826806
 34
0.0
100
AcDbRotatedDimension
  0
DIMENSION
  5
1FE
330
1F
100
AcDbEntity
  8
0
  6
Continuous
 62
     7
370
     0
100
AcDbDimension
  2
_D_2
 10
168.4471326799
 20
137.652433323
 30
0.0
 11
145.150492458
 21
137.652433323
 31
0.0
 70
   160
  1
<>
 71
     2
 42
-1.0
  3
SLDDIMSTYLE0
100
AcDbAlignedDimension
 13
120.4471326799
 23
169.3262826806
 33
0.0
 14
168.4471326799
 24
169.3262826806
 34
0.0
100
AcDbRotatedDimension
  0
DIMENSION
  5
208
330
1F
100
AcDbEntity
  8
0
  6
Continuous
 62
     7
370
     0
100
AcDbDimension
  2
_D_3
 10
112.4823335447
 20
167.3262826806
 30
0.0
 11
112.4823335447
 21
176.7806590702
 31
0.0
 70
   160
  1
<>
 71
     2
 42
-1.0
  3
SLDDIMSTYLE0
100
AcDbAlignedDimension
 13
122.4471326799
 23
189.3262826806
 33
0.0
 14
122.4471326799
 24
167.3262826806
 34
0.0
 50
90.0
100
AcDbRotatedDimension
  0
DIMENSION
  5
212
330
1F
100
AcDbEntity
  8
0
  6
Continuous
 62
     7
370
     0
100
AcDbDimension
  2
_D_4
 10
178.4471326799
 20
179.8262826806
 30
0.0
 11
178.4471326799
 21
182.5577046225
 31
0.0
 70
   160
  1
<>
 71
     2
 42
-1.0
  3
SLDDIMSTYLE1
100
AcDbAlignedDimension
 13
168.1971326799
 23
184.8262826806
 33
0.0
 14
168.1971326799
 24
179.8262826806
 34
0.0
 50
90.0
100
AcDbRotatedDimension
  0
DIMENSION
  5
227
330
1F
100
AcDbEntity
  8
0
  6
Continuous
 62
     7
370
     0
100
AcDbDimension
  2
_D_5
 10
178.4471326799
 20
167.3262826806
 30
0.0
 11
178.4471326799
 21
173.5762826806
 31
0.0
 70
   160
  1
<>
 71
     2
 42
-1.0
  3
SLDDIMSTYLE2
100
AcDbAlignedDimension
 13
168.1971326799
 23
179.8262826806
 33
0.0
 14
166.4471326799
 24
167.3262826806
 34
0.0
 50
90.0
100
AcDbRotatedDimension
  0
DIMENSION
  5
234
330
1F
100
AcDbEntity
  8
0
  6
Continuous
 62
     7
370
     0
100
AcDbDimension
  2
_D_6
 10
165.6971326799
 20
157.2053761889
 30
0.0
 11
154.8940232955
 21
157.2053761889
 31
0.0
 70
   160
  1
<>
 71
     2
 42
-1.0
  3
SLDDIMSTYLE3
100
AcDbAlignedDimension
 13
161.1971326799
 23
179.8262826806
 33
0.0
 14
165.6971326799
 24
179.8262826806
 34
0.0
100
AcDbRotatedDimension
  0
MTEXT
  5
241
330
1F
100
AcDbEntity
  8
0
  6
Continuous
 62
     7
370
     0
100
AcDbMText
 10
92.3871601335
 20
234.0975816201
 30
0.0
 40
3.5
 41
0.0
 71
     1
 72
     1
  1
2-BF-5
  7
SLDTEXTSTYLE1
 73
     1
 44
1.0
  0
LEADER
  5
243
330
1F
100
AcDbEntity
  8
0
  6
Continuous
 62
     7
370
     0
100
AcDbLeader
  3
SLDDIMSTYLE4
 76
     3
 10
122.4471326799
 20
212.2364051252
 30
0.0
 10
105.9744525547
 20
229.4708029197
 30
0.0
 10
92.3357664234
 20
229.4708029197
 30
0.0
  0
MTEXT
  5
244
330
1F
100
AcDbEntity
  8
0
  6
Continuous
 62
     7
370
     0
100
AcDbMText
 10
174.3505493287
 20
234.0975816201
 30
0.0
 40
3.5
 41
0.0
 71
     1
 72
     1
  1
PF
  7
SLDTEXTSTYLE1
 73
     1
 44
1.0
  0
LEADER
  5
245
330
1F
100
AcDbEntity
  8
0
  6
Continuous
 62
     7
370
     0
100
AcDbLeader
  3
SLDDIMSTYLE4
 76
     3
 10
160.4797715136
 20
213.5331014056
 30
0.0
 10
173.7700729927
 20
229.4708029197
 30
0.0
 10
179.197080292
 20
229.4708029197
 30
0.0
  0
MTEXT
  5
246
330
1F
100
AcDbEntity
  8
0
  6
Continuous
 62
     7
370
     0
100
AcDbMText
 10
96.7624102191
 20
151.803069276
 30
0.0
 40
3.5
 41
0.0
 71
     1
 72
     1
  1
M4深8
  7
SLDTEXTSTYLE1
 73
     1
 44
1.0
  0
LEADER
  5
247
330
1F
100
AcDbEntity
  8
0
  6
Continuous
 62
     7
370
     0
100
AcDbLeader
  3
SLDDIMSTYLE4
 76
     3
 10
144.1789745589
 20
161.3262826806
 30
0.0
 10
111.6313868613
 20
147.1715328467
 30
0.0
 10
96.7153284672
 20
147.1715328467
 30
0.0
  0
INSERT
  5
253
330
1F
100
AcDbEntity
  8
0
  6
Continuous
 62
     7
370
     0
100
AcDbBlockReference
  2
SW_CENTERMARKSYMBOL_0
 10
163.4471326799
 20
184.8262826806
 30
0.0
  0
INSERT
  5
25F
330
1F
100
AcDbEntity
  8
0
  6
Continuous
 62
     7
370
     0
100
AcDbBlockReference
  2
SW_CENTERMARKSYMBOL_1
 10
163.4471326799
 20
179.8262826806
 30
0.0
  0
LINE
  5
260
330
1F
100
AcDbEntity
  8
0
  6
CENTERX2
 62
     7
370
     0
100
AcDbLine
 10
125.4471326799
 20
186.8262826806
 30
0.0
 11
125.4471326799
 21
177.8262826806
 31
0.0
  0
LINE
  5
261
330
1F
100
AcDbEntity
  8
0
  6
Continuous
 62
     7
370
    15
100
AcDbLine
 10
122.4471319171
 20
99.9331060153
 30
0.0
 11
119.9471343013
 21
99.68310644
 31
0.0
  0
LINE
  5
262
330
1F
100
AcDbEntity
  8
0
  6
Continuous
 62
     7
370
    15
100
AcDbLine
 10
119.9471343013
 20
96.6831059483
 30
0.0
 11
122.4471319171
 21
96.4331059073
 31
0.0
  0
LINE
  5
263
330
1F
100
AcDbEntity
  8
0
  6
Continuous
 62
     7
370
    15
100
AcDbLine
 10
124.9471332582
 20
99.9331060153
 30
0.0
 11
122.4471319171
 21
99.68310644
 31
0.0
  0
LINE
  5
264
330
1F
100
AcDbEntity
  8
0
  6
Continuous
 62
     7
370
    15
100
AcDbLine
 10
122.4471319171
 20
96.6831059483
 30
0.0
 11
124.9471332582
 21
96.4331059073
 31
0.0
  0
LINE
  5
265
330
1F
100
AcDbEntity
  8
0
  6
Continuous
 62
     7
370
    15
100
AcDbLine
 10
124.9471332582
 20
96.5831061182
 30
0.0
 11
126.947133586
 21
96.5831061182
 31
0.0
  0
LINE
  5
266
330
1F
100
AcDbEntity
  8
0
  6
Continuous
 62
     7
370
    15
100
AcDbLine
 10
126.947133586
 20
99.7831062702
 30
0.0
 11
124.9471332582
 21
99.7831062702
 31
0.0
  0
LINE
  5
267
330
1F
100
AcDbEntity
  8
0
  6
Continuous
 62
     7
370
    15
100
AcDbLine
 10
130.2471335682
 20
102.1831059185
 30
0.0
 11
129.4471330645
 21
102.1831059185
 31
0.0
  0
LINE
  5
268
330
1F
100
AcDbEntity
  8
0
  6
Continuous
 62
     7
370
    15
100
AcDbLine
 10
129.4471330645
 20
94.1831060042
 30
0.0
 11
130.2471335682
 21
94.1831060042
 31
0.0
  0
LINE
  5
269
330
1F
100
AcDbEntity
  8
0
  6
Continuous
 62
     7
370
    15
100
AcDbLine
 10
159.4471328596
 20
102.1831059185
 30
0.0
 11
158.6471328216
 21
102.1831059185
 31
0.0
  0
LINE
  5
26A
330
1F
100
AcDbEntity
  8
0
  6
Continuous
 62
     7
370
    15
100
AcDbLine
 10
158.6471328216
 20
94.1831060042
 30
0.0
 11
159.4471328596
 21
94.1831060042
 31
0.0
  0
LINE
  5
26B
330
1F
100
AcDbEntity
  8
0
  6
Continuous
 62
     7
370
    15
100
AcDbLine
 10
150.0869745093
 20
89.0337428133
 30
0.0
 11
150.6042075513
 21
89.7283433293
 31
0.0
  0
LINE
  5
26C
330
1F
100
AcDbEntity
  8
0
  6
Continuous
 62
     7
370
    15
100
AcDbLine
 10
150.4298995885
 20
88.2385054425
 30
0.0
 11
150.0869745093
 21
89.0337428133
 31
0.0
  0
LINE
  5
26D
330
1F
100
AcDbEntity
  8
0
  6
Continuous
 62
     7
370
    15
100
AcDbLine
 10
151.2900577097
 20
88.1378685878
 30
0.0
 11
150.4298995885
 21
88.2385054425
 31
0.0
  0
LINE
  5
26E
330
1F
100
AcDbEntity
  8
0
  6
Continuous
 62
     7
370
    15
100
AcDbLine
 10
151.8072909845
 20
88.8324691038
 30
0.0
 11
151.2900577097
 21
88.1378685878
 31
0.0
  0
LINE
  5
26F
330
1F
100
AcDbEntity
  8
0
  6
Continuous
 62
     7
370
    15
100
AcDbLine
 10
151.4643659054
 20
89.6277064745
 30
0.0
 11
151.8072909845
 21
88.8324691038
 31
0.0
  0
LINE
  5
270
330
1F
100
AcDbEntity
  8
0
  6
Continuous
 62
     7
370
    15
100
AcDbLine
 10
150.6042075513
 20
89.7283433293
 30
0.0
 11
151.4643659054
 21
89.6277064745
 31
0.0
  0
CIRCLE
  5
271
330
1F
100
AcDbEntity
  8
0
  6
Continuous
 62
     7
370
    15
100
AcDbCircle
 10
150.9471326799
 20
88.9331059867
 30
0.0
 40
1.135684019913863
  0
CIRCLE
  5
272
330
1F
100
AcDbEntity
  8
0
  6
Continuous
 62
     7
370
    15
100
AcDbCircle
 10
150.9471326799
 20
88.9331059867
 30
0.0
 40
1.432283538938755
  0
CIRCLE
  5
273
330
1F
100
AcDbEntity
  8
0
  6
Continuous
 62
     7
370
    15
100
AcDbCircle
 10
150.9471326799
 20
88.9331059867
 30
0.0
 40
1.843199038049869
  0
CIRCLE
  5
274
330
1F
100
AcDbEntity
  8
0
  6
Continuous
 62
     7
370
    15
100
AcDbCircle
 10
150.9471326799
 20
88.9331059867
 30
0.0
 40
2.249999999999988
  0
ARC
  5
275
330
1F
100
AcDbEntity
  8
0
  6
Continuous
 62
     7
370
    15
100
AcDbCircle
 10
150.9471326799
 20
88.9331059867
 30
0.0
 40
0.7500000000000173
100
AcDbArc
 50
203.3268446696
 51
263.3268446696
  0
ARC
  5
276
330
1F
100
AcDbEntity
  8
0
  6
Continuous
 62
     7
370
    15
100
AcDbCircle
 10
150.9471326799
 20
88.9331059867
 30
0.0
 40
0.7499999999999883
100
AcDbArc
 50
323.3268446696
 51
23.3268446696
  0
ARC
  5
277
330
1F
100
AcDbEntity
  8
0
  6
Continuous
 62
     7
370
    15
100
AcDbCircle
 10
150.9471326799
 20
88.9331059867
 30
0.0
 40
0.7500000000000121
100
AcDbArc
 50
263.3268446696
 51
323.3268446696
  0
ARC
  5
278
330
1F
100
AcDbEntity
  8
0
  6
Continuous
 62
     7
370
    15
100
AcDbCircle
 10
150.9471326799
 20
88.9331059867
 30
0.0
 40
0.7500000000000112
100
AcDbArc
 50
83.3268446696
 51
143.3268446696
  0
ARC
  5
279
330
1F
100
AcDbEntity
  8
0
  6
Continuous
 62
     7
370
    15
100
AcDbCircle
 10
150.9471326799
 20
88.9331059867
 30
0.0
 40
0.7500000000000173
100
AcDbArc
 50
143.3268446696
 51
203.3268446696
  0
ARC
  5
27A
330
1F
100
AcDbEntity
  8
0
  6
Continuous
 62
     7
370
    15
100
AcDbCircle
 10
150.9471326799
 20
88.9331059867
 30
0.0
 40
0.7499999999999948
100
AcDbArc
 50
23.3268446696
 51
83.3268446696
  0
ARC
  5
27B
330
1F
100
AcDbEntity
  8
0
  6
Continuous
 62
     7
370
    15
100
AcDbCircle
 10
144.4471326799
 20
98.1831059867
 30
0.0
 40
4.000000000000006
100
AcDbArc
 50
311.4096221093
 51
318.5903778907
  0
SPLINE
  5
27C
330
1F
100
AcDbEntity
  8
0
  6
Continuous
 62
     7
370
    15
100
AcDbSpline
210
0.0
220
0.0
230
1.0
 70
    24
 71
     3
 72
     8
 73
     4
 74
     0
 42
0.00000001
 43
0.00000001
 12
1.0
 22
0.0
 32
0.0
 13
1.0
 23
0.0
 33
0.0
 40
0.0
 40
0.0
 40
0.0
 40
0.0
 40
1.0
 40
1.0
 40
1.0
 40
1.0
 10
147.0928839909444
 20
95.18310598665505
 30
0.0
 10
146.8200679914235
 20
95.18310598665505
 30
0.0
 10
146.5408654125642
 20
95.18310598665505
 30
0.0
 10
146.2499083176118
 20
95.18310598665505
 30
0.0
  0
ARC
  5
27D
330
1F
100
AcDbEntity
  8
0
  6
Continuous
 62
     7
370
    15
100
AcDbCircle
 10
144.4471326799
 20
98.1831059867
 30
0.0
 40
3.500000000000001
100
AcDbArc
 50
301.0027191339
 51
328.9972808661
  0
SPLINE
  5
27E
330
1F
100
AcDbEntity
  8
0
  6
Continuous
 62
     7
370
    15
100
AcDbSpline
210
0.0
220
0.0
230
1.0
 70
    24
 71
     3
 72
     8
 73
     4
 74
     0
 42
0.00000001
 43
0.00000001
 12
1.0
 22
0.0
 32
0.0
 13
1.0
 23
0.0
 33
0.0
 40
0.0
 40
0.0
 40
0.0
 40
0.0
 40
1.0
 40
1.0
 40
1.0
 40
1.0
 10
147.4471326798798
 20
96.38033034892305
 30
0.0
 10
147.4471326798798
 20
96.0893732539706
 30
0.0
 10
147.4471326798798
 20
95.81017067511135
 30
0.0
 10
147.4471326798798
 20
95.53735467559045
 30
0.0
  0
ARC
  5
27F
330
1F
100
AcDbEntity
  8
0
  6
Continuous
 62
     7
370
    15
100
AcDbCircle
 10
144.4471326799
 20
98.1831059867
 30
0.0
 40
4.000000000000006
100
AcDbArc
 50
131.4096221093
 51
138.5903778907
  0
SPLINE
  5
280
330
1F
100
AcDbEntity
  8
0
  6
Continuous
 62
     7
370
    15
100
AcDbSpline
210
0.0
220
0.0
230
1.0
 70
    24
 71
     3
 72
     8
 73
     4
 74
     0
 42
0.00000001
 43
0.00000001
 12
1.0
 22
0.0
 32
0.0
 13
1.0
 23
0.0
 33
0.0
 40
0.0
 40
0.0
 40
0.0
 40
0.0
 40
1.0
 40
1.0
 40
1.0
 40
1.0
 10
141.8013813688152
 20
101.1831059866551
 30
0.0
 10
142.0741973683361
 20
101.1831059866551
 30
0.0
 10
142.3533999471954
 20
101.1831059866551
 30
0.0
 10
142.6443570421478
 20
101.1831059866551
 30
0.0
  0
ARC
  5
281
330
1F
100
AcDbEntity
  8
0
  6
Continuous
 62
     7
370
    15
100
AcDbCircle
 10
144.4471326799
 20
98.1831059867
 30
0.0
 40
3.500000000000001
100
AcDbArc
 50
121.0027191339
 51
148.9972808661
  0
SPLINE
  5
282
330
1F
100
AcDbEntity
  8
0
  6
Continuous
 62
     7
370
    15
100
AcDbSpline
210
0.0
220
0.0
230
1.0
 70
    24
 71
     3
 72
     8
 73
     4
 74
     0
 42
0.00000001
 43
0.00000001
 12
1.0
 22
0.0
 32
0.0
 13
1.0
 23
0.0
 33
0.0
 40
0.0
 40
0.0
 40
0.0
 40
0.0
 40
1.0
 40
1.0
 40
1.0
 40
1.0
 10
141.4471326798798
 20
99.98588162438705
 30
0.0
 10
141.4471326798798
 20
100.2768387193395
 30
0.0
 10
141.4471326798798
 20
100.5560412981987
 30
0.0
 10
141.4471326798798
 20
100.8288572977197
 30
0.0
  0
ARC
  5
283
330
1F
100
AcDbEntity
  8
0
  6
Continuous
 62
     7
370
    15
100
AcDbCircle
 10
144.4471326799
 20
98.1831059867
 30
0.0
 40
3.999999999999997
100
AcDbArc
 50
221.4096221093
 51
228.5903778907
  0
SPLINE
  5
284
330
1F
100
AcDbEntity
  8
0
  6
Continuous
 62
     7
370
    15
100
AcDbSpline
210
0.0
220
0.0
230
1.0
 70
    24
 71
     3
 72
     8
 73
     4
 74
     0
 42
0.00000001
 43
0.00000001
 12
1.0
 22
0.0
 32
0.0
 13
1.0
 23
0.0
 33
0.0
 40
0.0
 40
0.0
 40
0.0
 40
0.0
 40
1.0
 40
1.0
 40
1.0
 40
1.0
 10
141.4471326798798
 20
95.53735467559046
 30
0.0
 10
141.4471326798798
 20
95.81017067511135
 30
0.0
 10
141.4471326798798
 20
96.0893732539706
 30
0.0
 10
141.4471326798798
 20
96.38033034892305
 30
0.0
  0
ARC
  5
285
330
1F
100
AcDbEntity
  8
0
  6
Continuous
 62
     7
370
    15
100
AcDbCircle
 10
144.4471326799
 20
98.1831059867
 30
0.0
 40
3.500000000000001
100
AcDbArc
 50
211.0027191339
 51
238.9972808661
  0
SPLINE
  5
286
330
1F
100
AcDbEntity
  8
0
  6
Continuous
 62
     7
370
    15
100
AcDbSpline
210
0.0
220
0.0
230
1.0
 70
    24
 71
     3
 72
     8
 73
     4
 74
     0
 42
0.00000001
 43
0.00000001
 12
1.0
 22
0.0
 32
0.0
 13
1.0
 23
0.0
 33
0.0
 40
0.0
 40
0.0
 40
0.0
 40
0.0
 40
1.0
 40
1.0
 40
1.0
 40
1.0
 10
142.6443570421478
 20
95.18310598665505
 30
0.0
 10
142.3533999471954
 20
95.18310598665505
 30
0.0
 10
142.0741973683361
 20
95.18310598665505
 30
0.0
 10
141.8013813688152
 20
95.18310598665505
 30
0.0
  0
ARC
  5
287
330
1F
100
AcDbEntity
  8
0
  6
Continuous
 62
     7
370
    15
100
AcDbCircle
 10
144.4471326799
 20
98.1831059867
 30
0.0
 40
4.000000000000006
100
AcDbArc
 50
41.4096221093
 51
48.5903778907
  0
SPLINE
  5
288
330
1F
100
AcDbEntity
  8
0
  6
Continuous
 62
     7
370
    15
100
AcDbSpline
210
0.0
220
0.0
230
1.0
 70
    24
 71
     3
 72
     8
 73
     4
 74
     0
 42
0.00000001
 43
0.00000001
 12
1.0
 22
0.0
 32
0.0
 13
1.0
 23
0.0
 33
0.0
 40
0.0
 40
0.0
 40
0.0
 40
0.0
 40
1.0
 40
1.0
 40
1.0
 40
1.0
 10
147.4471326798798
 20
100.8288572977196
 30
0.0
 10
147.4471326798798
 20
100.5560412981987
 30
0.0
 10
147.4471326798798
 20
100.2768387193395
 30
0.0
 10
147.4471326798798
 20
99.98588162438705
 30
0.0
  0
ARC
  5
289
330
1F
100
AcDbEntity
  8
0
  6
Continuous
 62
     7
370
    15
100
AcDbCircle
 10
144.4471326799
 20
98.1831059867
 30
0.0
 40
3.500000000000016
100
AcDbArc
 50
31.0027191339
 51
58.9972808661
  0
SPLINE
  5
28A
330
1F
100
AcDbEntity
  8
0
  6
Continuous
 62
     7
370
    15
100
AcDbSpline
210
0.0
220
0.0
230
1.0
 70
    24
 71
     3
 72
     8
 73
     4
 74
     0
 42
0.00000001
 43
0.00000001
 12
1.0
 22
0.0
 32
0.0
 13
1.0
 23
0.0
 33
0.0
 40
0.0
 40
0.0
 40
0.0
 40
0.0
 40
1.0
 40
1.0
 40
1.0
 40
1.0
 10
146.2499083176118
 20
101.1831059866551
 30
0.0
 10
146.5408654125642
 20
101.1831059866551
 30
0.0
 10
146.8200679914235
 20
101.1831059866551
 30
0.0
 10
147.0928839909444
 20
101.1831059866551
 30
0.0
  0
LINE
  5
28B
330
1F
100
AcDbEntity
  8
0
  6
Continuous
 62
     7
370
    15
100
AcDbLine
 10
141.4471322375
 20
99.9858812717
 30
0.0
 11
141.4471322375
 21
96.3803301853
 31
0.0
  0
LINE
  5
28C
330
1F
100
AcDbEntity
  8
0
  6
Continuous
 62
     7
370
    15
100
AcDbLine
 10
146.2499082724
 20
101.1831057546
 30
0.0
 11
142.6443567204
 21
101.1831057546
 31
0.0
  0
LINE
  5
28D
330
1F
100
AcDbEntity
  8
0
  6
Continuous
 62
     7
370
    15
100
AcDbLine
 10
147.4471327553
 20
96.3803301853
 30
0.0
 11
147.4471327553
 21
99.9858812717
 31
0.0
  0
LINE
  5
28E
330
1F
100
AcDbEntity
  8
0
  6
Continuous
 62
     7
370
    15
100
AcDbLine
 10
142.6443567204
 20
95.1831061681
 30
0.0
 11
146.2499082724
 21
95.1831061681
 31
0.0
  0
CIRCLE
  5
28F
330
1F
100
AcDbEntity
  8
0
  6
Continuous
 62
     7
370
    15
100
AcDbCircle
 10
144.4471326799
 20
98.1831059867
 30
0.0
 40
1.650000000000006
  0
LINE
  5
290
330
1F
100
AcDbEntity
  8
0
  6
Continuous
 62
     7
370
    15
100
AcDbLine
 10
121.4471336158
 20
85.1831059259
 30
0.0
 11
122.4471319171
 21
85.1831059259
 31
0.0
  0
LINE
  5
291
330
1F
100
AcDbEntity
  8
0
  6
Continuous
 62
     7
370
    15
100
AcDbLine
 10
122.4471319171
 20
85.1831059259
 30
0.0
 11
122.4471319171
 21
81.6831062836
 31
0.0
  0
LINE
  5
292
330
1F
100
AcDbEntity
  8
0
  6
Continuous
 62
     7
370
    15
100
AcDbLine
 10
122.4471319171
 20
81.6831062836
 30
0.0
 11
120.4471315893
 21
81.6831062836
 31
0.0
  0
LINE
  5
293
330
1F
100
AcDbEntity
  8
0
  6
Continuous
 62
     7
370
    15
100
AcDbLine
 10
120.4471315893
 20
81.6831062836
 30
0.0
 11
120.4471315893
 21
84.183105762
 31
0.0
  0
ARC
  5
294
330
1F
100
AcDbEntity
  8
0
  6
Continuous
 62
     7
370
    15
100
AcDbCircle
 10
121.4471326799
 20
84.1831059867
 30
0.0
 40
1.0
100
AcDbArc
 50
90.0
 51
180.0
  0
LINE
  5
295
330
1F
100
AcDbEntity
  8
0
  6
Continuous
 62
     7
370
    15
100
AcDbLine
 10
166.44713261
 20
81.6831062836
 30
0.0
 11
166.44713261
 21
85.1831059259
 31
0.0
  0
LINE
  5
296
330
1F
100
AcDbEntity
  8
0
  6
Continuous
 62
     7
370
    15
100
AcDbLine
 10
166.44713261
 20
85.1831059259
 30
0.0
 11
167.4471327739
 21
85.1831059259
 31
0.0
  0
ARC
  5
297
330
1F
100
AcDbEntity
  8
0
  6
Continuous
 62
     7
370
    15
100
AcDbCircle
 10
167.4471326799
 20
84.1831059867
 30
0.0
 40
1.0
100
AcDbArc
 50
0.0
 51
90.0
  0
LINE
  5
298
330
1F
100
AcDbEntity
  8
0
  6
Continuous
 62
     7
370
    15
100
AcDbLine
 10
168.4471329378
 20
84.183105762
 30
0.0
 11
168.4471329378
 21
81.6831062836
 31
0.0
  0
LINE
  5
299
330
1F
100
AcDbEntity
  8
0
  6
Continuous
 62
     7
370
    15
100
AcDbLine
 10
168.4471329378
 20
81.6831062836
 30
0.0
 11
166.44713261
 21
81.6831062836
 31
0.0
  0
LINE
  5
29A
330
1F
100
AcDbEntity
  8
0
  6
Continuous
 62
     7
370
    15
100
AcDbLine
 10
166.44713261
 20
85.1831059259
 30
0.0
 11
158.9028781915
 21
85.1831059259
 31
0.0
  0
LINE
  5
29B
330
1F
100
AcDbEntity
  8
0
  6
Continuous
 62
     7
370
    15
100
AcDbLine
 10
136.7772452237
 20
86.6831061718
 30
0.0
 11
136.7758985313
 21
86.6807746057
 31
0.0
  0
LINE
  5
29C
330
1F
100
AcDbEntity
  8
0
  6
Continuous
 62
     7
370
    15
100
AcDbLine
 10
122.4471319171
 20
81.6831062836
 30
0.0
 11
130.6750055107
 21
81.6831062836
 31
0.0
  0
LINE
  5
29D
330
1F
100
AcDbEntity
  8
0
  6
Continuous
 62
     7
370
    15
100
AcDbLine
 10
158.2192599478
 20
81.6831062836
 30
0.0
 11
166.44713261
 21
81.6831062836
 31
0.0
  0
ARC
  5
29E
330
1F
100
AcDbEntity
  8
0
  6
Continuous
 62
     7
370
    15
100
AcDbCircle
 10
158.902878186
 20
86.1831059867
 30
0.0
 40
1.0
100
AcDbArc
 50
220.9981734199
 51
270.0
  0
LINE
  5
29F
330
1F
100
AcDbEntity
  8
0
  6
Continuous
 62
     7
370
    15
100
AcDbLine
 10
152.8048545758
 20
86.3391408053
 30
0.0
 11
155.9550685512
 21
82.7150014517
 31
0.0
  0
LINE
  5
2A0
330
1F
100
AcDbEntity
  8
0
  6
Continuous
 62
     7
370
    15
100
AcDbLine
 10
158.1481478813
 20
85.5270708268
 30
0.0
 11
156.4562947194
 21
87.4734504902
 31
0.0
  0
LINE
  5
2A1
330
1F
100
AcDbEntity
  8
0
  6
Continuous
 62
     7
370
    15
100
AcDbLine
 10
129.9913868012
 20
85.1831059259
 30
0.0
 11
122.4471319171
 21
85.1831059259
 31
0.0
  0
LINE
  5
2A2
330
1F
100
AcDbEntity
  8
0
  6
Continuous
 62
     7
370
    15
100
AcDbLine
 10
132.4379712047
 20
87.4734504902
 30
0.0
 11
130.7461175772
 21
85.5270708268
 31
0.0
  0
ARC
  5
2A3
330
1F
100
AcDbEntity
  8
0
  6
Continuous
 62
     7
370
    15
100
AcDbCircle
 10
130.1737791407
 20
89.4415554316
 30
0.0
 40
3.000000000000011
100
AcDbArc
 50
319.0018265801
 51
349.2196960077
  0
LINE
  5
2A4
330
1F
100
AcDbEntity
  8
0
  6
Continuous
 62
     7
370
    15
100
AcDbLine
 10
132.9391978385
 20
82.7150014517
 30
0.0
 11
136.0894113483
 21
86.3391408053
 31
0.0
  0
ARC
  5
2A5
330
1F
100
AcDbEntity
  8
0
  6
Continuous
 62
     7
370
    15
100
AcDbCircle
 10
158.7204862191
 20
89.4415554316
 30
0.0
 40
3.0
100
AcDbArc
 50
190.7803039923
 51
220.9981734199
  0
ARC
  5
2A6
330
1F
100
AcDbEntity
  8
0
  6
Continuous
 62
     7
370
    15
100
AcDbCircle
 10
129.9913871738
 20
86.1831059867
 30
0.0
 40
1.0
100
AcDbArc
 50
270.0
 51
319.0018265801
  0
ARC
  5
2A7
330
1F
100
AcDbEntity
  8
0
  6
Continuous
 62
     7
370
    15
100
AcDbCircle
 10
136.8441413035
 20
85.6831059867
 30
0.0
 40
1.000000000000005
100
AcDbArc
 50
93.9130429054
 51
139.0018265801
  0
LINE
  5
2A8
330
1F
100
AcDbEntity
  8
0
  6
Continuous
 62
     7
370
    15
100
AcDbLine
 10
152.1183664615
 20
86.6807746057
 30
0.0
 11
152.1170204675
 21
86.6831061718
 31
0.0
  0
ARC
  5
2A9
330
1F
100
AcDbEntity
  8
0
  6
Continuous
 62
     7
370
    15
100
AcDbCircle
 10
152.0501240563
 20
85.6831059867
 30
0.0
 40
1.000000000000005
100
AcDbArc
 50
40.9981734199
 51
86.0869570946
  0
ARC
  5
2AA
330
1F
100
AcDbEntity
  8
0
  6
Continuous
 62
     7
370
    15
100
AcDbCircle
 10
130.6750054329
 20
84.6831059867
 30
0.0
 40
3.000000000000014
100
AcDbArc
 50
270.0
 51
319.0018265801
  0
ARC
  5
2AB
330
1F
100
AcDbEntity
  8
0
  6
Continuous
 62
     7
370
    15
100
AcDbCircle
 10
158.2192599268
 20
84.6831059867
 30
0.0
 40
3.000000000000014
100
AcDbArc
 50
220.9981734199
 51
270.0
  0
LINE
  5
2AC
330
1F
100
AcDbEntity
  8
0
  6
Continuous
 62
     7
370
    15
100
AcDbLine
 10
159.4471328596
 20
99.87505016
 30
0.0
 11
161.9471328037
 21
99.87505016
 31
0.0
  0
LINE
  5
2AD
330
1F
100
AcDbEntity
  8
0
  6
Continuous
 62
     7
370
    15
100
AcDbLine
 10
159.4471328596
 20
102.2157487747
 30
0.0
 11
159.4471328596
 21
102.1568267894
 31
0.0
  0
LINE
  5
2AE
330
1F
100
AcDbEntity
  8
0
  6
Continuous
 62
     7
370
    15
100
AcDbLine
 10
159.4471328596
 20
99.9339721453
 30
0.0
 11
159.4471328596
 21
99.87505016
 31
0.0
  0
LINE
  5
2AF
330
1F
100
AcDbEntity
  8
0
  6
Continuous
 62
     7
370
    15
100
AcDbLine
 10
159.4471328596
 20
102.2157487747
 30
0.0
 11
161.9471328037
 21
102.2157487747
 31
0.0
  0
LINE
  5
2B0
330
1F
100
AcDbEntity
  8
0
  6
Continuous
 62
     7
370
    15
100
AcDbLine
 10
161.9471328037
 20
102.2157487747
 30
0.0
 11
161.9471328037
 21
99.87505016
 31
0.0
  0
LINE
  5
2B1
330
1F
100
AcDbEntity
  8
0
  6
Continuous
 62
     7
370
    15
100
AcDbLine
 10
159.4471328596
 20
95.8424075794
 30
0.0
 11
161.9471328037
 21
95.8424075794
 31
0.0
  0
LINE
  5
2B2
330
1F
100
AcDbEntity
  8
0
  6
Continuous
 62
     7
370
    15
100
AcDbLine
 10
159.4471328596
 20
99.87505016
 30
0.0
 11
159.4471328596
 21
99.773537862
 31
0.0
  0
LINE
  5
2B3
330
1F
100
AcDbEntity
  8
0
  6
Continuous
 62
     7
370
    15
100
AcDbLine
 10
159.4471328596
 20
95.9439198774
 30
0.0
 11
159.4471328596
 21
95.8424075794
 31
0.0
  0
LINE
  5
2B4
330
1F
100
AcDbEntity
  8
0
  6
Continuous
 62
     7
370
    15
100
AcDbLine
 10
161.9471328037
 20
99.87505016
 30
0.0
 11
161.9471328037
 21
95.8424075794
 31
0.0
  0
LINE
  5
2B5
330
1F
100
AcDbEntity
  8
0
  6
Continuous
 62
     7
370
    15
100
AcDbLine
 10
159.4471328596
 20
94.1504633808
 30
0.0
 11
161.9471328037
 21
94.1504633808
 31
0.0
  0
LINE
  5
2B6
330
1F
100
AcDbEntity
  8
0
  6
Continuous
 62
     7
370
    15
100
AcDbLine
 10
159.4471328596
 20
95.8424075794
 30
0.0
 11
159.4471328596
 21
95.7998172668
 31
0.0
  0
LINE
  5
2B7
330
1F
100
AcDbEntity
  8
0
  6
Continuous
 62
     7
370
    15
100
AcDbLine
 10
159.4471328596
 20
94.1831060042
 30
0.0
 11
159.4471328596
 21
94.1504633808
 31
0.0
  0
LINE
  5
2B8
330
1F
100
AcDbEntity
  8
0
  6
Continuous
 62
     7
370
    15
100
AcDbLine
 10
161.9471328037
 20
95.8424075794
 30
0.0
 11
161.9471328037
 21
94.1504633808
 31
0.0
  0
LINE
  5
2B9
330
1F
100
AcDbEntity
  8
0
  6
Continuous
 62
     7
370
    15
100
AcDbLine
 10
137.0869751724
 20
107.5337422368
 30
0.0
 11
137.6042075159
 21
108.2283431021
 31
0.0
  0
LINE
  5
2BA
330
1F
100
AcDbEntity
  8
0
  6
Continuous
 62
     7
370
    15
100
AcDbLine
 10
138.8072909492
 20
107.3324685273
 30
0.0
 11
138.2900576743
 21
106.6378695247
 31
0.0
  0
LINE
  5
2BB
330
1F
100
AcDbEntity
  8
0
  6
Continuous
 62
     7
370
    15
100
AcDbLine
 10
138.46436587
 20
108.1277062473
 30
0.0
 11
138.8072909492
 21
107.3324685273
 31
0.0
  0
LINE
  5
2BC
330
1F
100
AcDbEntity
  8
0
  6
Continuous
 62
     7
370
    15
100
AcDbLine
 10
137.6042075159
 20
108.2283431021
 30
0.0
 11
138.46436587
 21
108.1277062473
 31
0.0
  0
CIRCLE
  5
2BD
330
1F
100
AcDbEntity
  8
0
  6
Continuous
 62
     7
370
    15
100
AcDbCircle
 10
137.9471326799
 20
107.4331059867
 30
0.0
 40
1.135684019913863
  0
LINE
  5
2BE
330
1F
100
AcDbEntity
  8
0
  6
Continuous
 62
     7
370
    15
100
AcDbLine
 10
137.4298993202
 20
106.7385063794
 30
0.0
 11
137.0869751724
 21
107.5337422368
 31
0.0
  0
LINE
  5
2BF
330
1F
100
AcDbEntity
  8
0
  6
Continuous
 62
     7
370
    15
100
AcDbLine
 10
138.2900576743
 20
106.6378695247
 30
0.0
 11
137.4298993202
 21
106.7385063794
 31
0.0
  0
CIRCLE
  5
2C0
330
1F
100
AcDbEntity
  8
0
  6
Continuous
 62
     7
370
    15
100
AcDbCircle
 10
137.9471326799
 20
107.4331059867
 30
0.0
 40
1.432283538938787
  0
CIRCLE
  5
2C1
330
1F
100
AcDbEntity
  8
0
  6
Continuous
 62
     7
370
    15
100
AcDbCircle
 10
137.9471326799
 20
107.4331059867
 30
0.0
 40
1.843199038049822
  0
CIRCLE
  5
2C2
330
1F
100
AcDbEntity
  8
0
  6
Continuous
 62
     7
370
    15
100
AcDbCircle
 10
137.9471326799
 20
107.4331059867
 30
0.0
 40
2.250000000000015
  0
ARC
  5
2C3
330
1F
100
AcDbEntity
  8
0
  6
Continuous
 62
     7
370
    15
100
AcDbCircle
 10
137.9471326799
 20
107.4331059867
 30
0.0
 40
0.7500000000000121
100
AcDbArc
 50
23.3268446696
 51
83.3268446696
  0
ARC
  5
2C4
330
1F
100
AcDbEntity
  8
0
  6
Continuous
 62
     7
370
    15
100
AcDbCircle
 10
137.9471326799
 20
107.4331059867
 30
0.0
 40
0.7500000000000112
100
AcDbArc
 50
323.3268446696
 51
23.3268446696
  0
ARC
  5
2C5
330
1F
100
AcDbEntity
  8
0
  6
Continuous
 62
     7
370
    15
100
AcDbCircle
 10
137.9471326799
 20
107.4331059867
 30
0.0
 40
0.7500000000000089
100
AcDbArc
 50
203.3268446696
 51
263.3268446696
  0
ARC
  5
2C6
330
1F
100
AcDbEntity
  8
0
  6
Continuous
 62
     7
370
    15
100
AcDbCircle
 10
137.9471326799
 20
107.4331059867
 30
0.0
 40
0.7500000000000112
100
AcDbArc
 50
263.3268446696
 51
323.3268446696
  0
ARC
  5
2C7
330
1F
100
AcDbEntity
  8
0
  6
Continuous
 62
     7
370
    15
100
AcDbCircle
 10
137.9471326799
 20
107.4331059867
 30
0.0
 40
0.7499999999999912
100
AcDbArc
 50
143.3268446696
 51
203.3268446696
  0
ARC
  5
2C8
330
1F
100
AcDbEntity
  8
0
  6
Continuous
 62
     7
370
    15
100
AcDbCircle
 10
137.9471326799
 20
107.4331059867
 30
0.0
 40
0.7500000000000121
100
AcDbArc
 50
83.3268446696
 51
143.3268446696
  0
LINE
  5
2C9
330
1F
100
AcDbEntity
  8
0
  6
Continuous
 62
     7
370
    15
100
AcDbLine
 10
150.0869745093
 20
107.5337422368
 30
0.0
 11
150.6042075513
 21
108.2283431021
 31
0.0
  0
LINE
  5
2CA
330
1F
100
AcDbEntity
  8
0
  6
Continuous
 62
     7
370
    15
100
AcDbLine
 10
150.4298995885
 20
106.7385063794
 30
0.0
 11
150.0869745093
 21
107.5337422368
 31
0.0
  0
LINE
  5
2CB
330
1F
100
AcDbEntity
  8
0
  6
Continuous
 62
     7
370
    15
100
AcDbLine
 10
151.2900577097
 20
106.6378695247
 30
0.0
 11
150.4298995885
 21
106.7385063794
 31
0.0
  0
LINE
  5
2CC
330
1F
100
AcDbEntity
  8
0
  6
Continuous
 62
     7
370
    15
100
AcDbLine
 10
151.8072909845
 20
107.3324685273
 30
0.0
 11
151.2900577097
 21
106.6378695247
 31
0.0
  0
LINE
  5
2CD
330
1F
100
AcDbEntity
  8
0
  6
Continuous
 62
     7
370
    15
100
AcDbLine
 10
151.4643659054
 20
108.1277062473
 30
0.0
 11
151.8072909845
 21
107.3324685273
 31
0.0
  0
LINE
  5
2CE
330
1F
100
AcDbEntity
  8
0
  6
Continuous
 62
     7
370
    15
100
AcDbLine
 10
150.6042075513
 20
108.2283431021
 30
0.0
 11
151.4643659054
 21
108.1277062473
 31
0.0
  0
CIRCLE
  5
2CF
330
1F
100
AcDbEntity
  8
0
  6
Continuous
 62
     7
370
    15
100
AcDbCircle
 10
150.9471326799
 20
107.4331059867
 30
0.0
 40
1.135684019913863
  0
CIRCLE
  5
2D0
330
1F
100
AcDbEntity
  8
0
  6
Continuous
 62
     7
370
    15
100
AcDbCircle
 10
150.9471326799
 20
107.4331059867
 30
0.0
 40
1.432283538938761
  0
CIRCLE
  5
2D1
330
1F
100
AcDbEntity
  8
0
  6
Continuous
 62
     7
370
    15
100
AcDbCircle
 10
150.9471326799
 20
107.4331059867
 30
0.0
 40
1.843199038049875
  0
CIRCLE
  5
2D2
330
1F
100
AcDbEntity
  8
0
  6
Continuous
 62
     7
370
    15
100
AcDbCircle
 10
150.9471326799
 20
107.4331059867
 30
0.0
 40
2.249999999999988
  0
ARC
  5
2D3
330
1F
100
AcDbEntity
  8
0
  6
Continuous
 62
     7
370
    15
100
AcDbCircle
 10
150.9471326799
 20
107.4331059867
 30
0.0
 40
0.7500000000000112
100
AcDbArc
 50
83.3268446696
 51
143.3268446696
  0
ARC
  5
2D4
330
1F
100
AcDbEntity
  8
0
  6
Continuous
 62
     7
370
    15
100
AcDbCircle
 10
150.9471326799
 20
107.4331059867
 30
0.0
 40
0.7500000000000089
100
AcDbArc
 50
23.3268446696
 51
83.3268446696
  0
ARC
  5
2D5
330
1F
100
AcDbEntity
  8
0
  6
Continuous
 62
     7
370
    15
100
AcDbCircle
 10
150.9471326799
 20
107.4331059867
 30
0.0
 40
0.7499999999999883
100
AcDbArc
 50
323.3268446696
 51
23.3268446696
  0
ARC
  5
2D6
330
1F
100
AcDbEntity
  8
0
  6
Continuous
 62
     7
370
    15
100
AcDbCircle
 10
150.9471326799
 20
107.4331059867
 30
0.0
 40
0.7500000000000121
100
AcDbArc
 50
263.3268446696
 51
323.3268446696
  0
ARC
  5
2D7
330
1F
100
AcDbEntity
  8
0
  6
Continuous
 62
     7
370
    15
100
AcDbCircle
 10
150.9471326799
 20
107.4331059867
 30
0.0
 40
0.7500000000000173
100
AcDbArc
 50
203.3268446696
 51
263.3268446696
  0
ARC
  5
2D8
330
1F
100
AcDbEntity
  8
0
  6
Continuous
 62
     7
370
    15
100
AcDbCircle
 10
150.9471326799
 20
107.4331059867
 30
0.0
 40
0.7500000000000173
100
AcDbArc
 50
143.3268446696
 51
203.3268446696
  0
ARC
  5
2D9
330
1F
100
AcDbEntity
  8
0
  6
Continuous
 62
     7
370
    15
100
AcDbCircle
 10
144.4471326799
 20
98.1831059867
 30
0.0
 40
10.50000000000002
100
AcDbArc
 50
335.1642486217
 51
24.8357513783
  0
LWPOLYLINE
  5
2DA
330
1F
100
AcDbEntity
  8
0
  6
Continuous
 62
     7
370
    15
100
AcDbPolyline
 90
        9
 70
   128
 43
0.0
 10
153.9760461771
 20
93.7729124268
 10
153.8875224239
 20
93.8138831695
 10
153.8024006174
 20
93.8532795114
 10
153.7239518681
 20
93.8895873548
 10
153.6551909837
 20
93.9214113456
 10
153.5987603808
 20
93.9475286574
 10
153.5568286587
 20
93.9669355572
 10
153.531007231
 20
93.9788862885
 10
153.5222884037
 20
93.9829217092
  0
ARC
  5
2DB
330
1F
100
AcDbEntity
  8
0
  6
Continuous
 62
     7
370
    15
100
AcDbCircle
 10
144.4471326799
 20
98.1831059867
 30
0.0
 40
10.00000000000002
100
AcDbArc
 50
335.1642486217
 51
24.8357513783
  0
LWPOLYLINE
  5
2DC
330
1F
100
AcDbEntity
  8
0
  6
Continuous
 62
     7
370
    15
100
AcDbPolyline
 90
        9
 70
   128
 43
0.0
 10
153.9760461771
 20
102.5932994959
 10
153.8875224239
 20
102.5523287532
 10
153.8024006174
 20
102.512932877
 10
153.7239518681
 20
102.4766243351
 10
153.6551909837
 20
102.4448010427
 10
153.5987603808
 20
102.4186830324
 10
153.5568286587
 20
102.3992761326
 10
153.531007231
 20
102.3873254013
 10
153.5222884037
 20
102.3832899806
  0
LINE
  5
2DD
330
1F
100
AcDbEntity
  8
0
  6
Continuous
 62
     7
370
    15
100
AcDbLine
 10
150.5359180907
 20
93.9196925898
 30
0.0
 11
151.3006503398
 21
93.384221225
 31
0.0
  0
LWPOLYLINE
  5
2DE
330
1F
100
AcDbEntity
  8
0
  6
Continuous
 62
     7
370
    15
100
AcDbPolyline
 90
        9
 70
   128
 43
0.0
 10
151.3006503398
 20
93.384221225
 10
151.295139937
 20
93.3763513164
 10
151.2788199058
 20
93.3530440376
 10
151.2523179578
 20
93.315195321
 10
151.2166520285
 20
93.2642591939
 10
151.1731932575
 20
93.2021935293
 10
151.1236112735
 20
93.1313832113
 10
151.0698117951
 20
93.0545495645
 10
151.0138621258
 20
92.9746451144
  0
LINE
  5
2DF
330
1F
100
AcDbEntity
  8
0
  6
Continuous
 62
     7
370
    15
100
AcDbLine
 10
151.0138621258
 20
92.9746451144
 30
0.0
 11
150.2491298767
 21
93.5101167121
 31
0.0
  0
LWPOLYLINE
  5
2E0
330
1F
100
AcDbEntity
  8
0
  6
Continuous
 62
     7
370
    15
100
AcDbPolyline
 90
        9
 70
   128
 43
0.0
 10
150.5359180907
 20
93.9196925898
 10
150.530407455
 20
93.9118226812
 10
150.5140874239
 20
93.8885154025
 10
150.4875854759
 20
93.8506666859
 10
150.4519195466
 20
93.7997305588
 10
150.4084607756
 20
93.7376648941
 10
150.3588787916
 20
93.6668545761
 10
150.3050793132
 20
93.5900209294
 10
150.2491298767
 20
93.5101167121
  0
ARC
  5
2E1
330
1F
100
AcDbEntity
  8
0
  6
Continuous
 62
     7
370
    15
100
AcDbCircle
 10
152.1610150455
 20
101.7532626848
 30
0.0
 40
2.000000000000005
100
AcDbArc
 50
24.8357513783
 51
125.0
  0
ARC
  5
2E2
330
1F
100
AcDbEntity
  8
0
  6
Continuous
 62
     7
370
    15
100
AcDbCircle
 10
152.1610150455
 20
101.7532626848
 30
0.0
 40
1.500000000000004
100
AcDbArc
 50
24.8357513783
 51
125.0
  0
LWPOLYLINE
  5
2E3
330
1F
100
AcDbEntity
  8
0
  6
Continuous
 62
     7
370
    15
100
AcDbPolyline
 90
        9
 70
   128
 43
0.0
 10
151.0138621258
 20
103.3915668082
 10
151.0698117951
 20
103.3116621253
 10
151.1236112735
 20
103.2348289442
 10
151.1731932575
 20
103.1640186262
 10
151.2166520285
 20
103.1019524959
 10
151.2523179578
 20
103.0510166016
 10
151.2788199058
 20
103.0131676522
 10
151.295139937
 20
102.9898603735
 10
151.3006503398
 20
102.9819906977
  0
LINE
  5
2E4
330
1F
100
AcDbEntity
  8
0
  6
Continuous
 62
     7
370
    15
100
AcDbLine
 10
138.3583478334
 20
102.4465193328
 30
0.0
 11
137.593614653
 21
102.9819906977
 31
0.0
  0
LWPOLYLINE
  5
2E5
330
1F
100
AcDbEntity
  8
0
  6
Continuous
 62
     7
370
    15
100
AcDbPolyline
 90
        9
 70
   128
 43
0.0
 10
137.593614653
 20
102.9819906977
 10
137.59912622
 20
102.9898603735
 10
137.6154448541
 20
103.0131676522
 10
137.6419465693
 20
103.0510166016
 10
137.6776124986
 20
103.1019524959
 10
137.7210717353
 20
103.1640186262
 10
137.7706534865
 20
103.2348289442
 10
137.824454129
 20
103.3116621253
 10
137.8804033326
 20
103.3915668082
  0
LINE
  5
2E6
330
1F
100
AcDbEntity
  8
0
  6
Continuous
 62
     7
370
    15
100
AcDbLine
 10
137.8804033326
 20
103.3915668082
 30
0.0
 11
138.6451355817
 21
102.8560954434
 31
0.0
  0
LWPOLYLINE
  5
2E7
330
1F
100
AcDbEntity
  8
0
  6
Continuous
 62
     7
370
    15
100
AcDbPolyline
 90
        9
 70
   128
 43
0.0
 10
138.3583478334
 20
102.4465193328
 10
138.3638575377
 20
102.4543890086
 10
138.3801780345
 20
102.4776962874
 10
138.4066797497
 20
102.5155452368
 10
138.442345679
 20
102.566481131
 10
138.4858049157
 20
102.6285472614
 10
138.5353866669
 20
102.6993575794
 10
138.589186378
 20
102.7761907605
 10
138.6451355817
 20
102.8560954434
  0
ARC
  5
2E8
330
1F
100
AcDbEntity
  8
0
  6
Continuous
 62
     7
370
    15
100
AcDbCircle
 10
137.7847709411
 20
94.7388446636
 30
0.0
 40
1.000000000000014
100
AcDbArc
 50
305.0
 51
27.3377443392
  0
LWPOLYLINE
  5
2E9
330
1F
100
AcDbEntity
  8
0
  6
Continuous
 62
     7
370
    15
100
AcDbPolyline
 90
        9
 70
   128
 43
0.0
 10
138.6730855035
 20
95.1980795068
 10
138.6816201436
 20
95.2024916475
 10
138.7068953069
 20
95.2155581032
 10
138.7479396241
 20
95.2367768911
 10
138.803176366
 20
95.2653331039
 10
138.8704830485
 20
95.3001282466
 10
138.9472715261
 20
95.339826337
 10
139.0305923002
 20
95.3829009374
 10
139.1172434839
 20
95.4276970875
  0
ARC
  5
2EA
330
1F
100
AcDbEntity
  8
0
  6
Continuous
 62
     7
370
    15
100
AcDbCircle
 10
137.7847709411
 20
94.7388446636
 30
0.0
 40
1.500000000000003
100
AcDbArc
 50
305.0
 51
27.3377443392
  0
LWPOLYLINE
  5
2EB
330
1F
100
AcDbEntity
  8
0
  6
Continuous
 62
     7
370
    15
100
AcDbPolyline
 90
        9
 70
   128
 43
0.0
 10
138.6451355817
 20
93.5101167121
 10
138.589186378
 20
93.5900209294
 10
138.5353866669
 20
93.6668545761
 10
138.4858049157
 20
93.7376648941
 10
138.442345679
 20
93.7997305588
 10
138.4066797497
 20
93.8506666859
 10
138.3801780345
 20
93.8885154025
 10
138.3638575377
 20
93.9118226812
 10
138.3583478334
 20
93.9196925898
  0
ARC
  5
2EC
330
1F
100
AcDbEntity
  8
0
  6
Continuous
 62
     7
370
    15
100
AcDbCircle
 10
144.4471326799
 20
98.1831059867
 30
0.0
 40
6.499999999999996
100
AcDbArc
 50
152.6622556608
 51
207.3377443392
  0
LWPOLYLINE
  5
2ED
330
1F
100
AcDbEntity
  8
0
  6
Continuous
 62
     7
370
    15
100
AcDbPolyline
 90
        9
 70
   128
 43
0.0
 10
138.6730855035
 20
101.1681328815
 10
138.6816201436
 20
101.1637202752
 10
138.7068953069
 20
101.1506538195
 10
138.7479396241
 20
101.1294345659
 10
138.803176366
 20
101.1008792845
 10
138.8704830485
 20
101.0660832104
 10
138.9472715261
 20
101.0263855857
 10
139.0305923002
 20
100.9833109853
 10
139.1172434839
 20
100.9385153008
  0
ARC
  5
2EE
330
1F
100
AcDbEntity
  8
0
  6
Continuous
 62
     7
370
    15
100
AcDbCircle
 10
144.4471326799
 20
98.1831059867
 30
0.0
 40
6.000000000000008
100
AcDbArc
 50
152.6622556608
 51
207.3377443392
  0
LINE
  5
2EF
330
1F
100
AcDbEntity
  8
0
  6
Continuous
 62
     7
370
    15
100
AcDbLine
 10
138.6451355817
 20
93.5101167121
 30
0.0
 11
137.8804033326
 21
92.9746451144
 31
0.0
  0
LWPOLYLINE
  5
2F0
330
1F
100
AcDbEntity
  8
0
  6
Continuous
 62
     7
370
    15
100
AcDbPolyline
 90
        9
 70
   128
 43
0.0
 10
137.8804033326
 20
92.9746451144
 10
137.824454129
 20
93.0545495645
 10
137.7706534865
 20
93.1313832113
 10
137.7210717353
 20
93.2021935293
 10
137.6776124986
 20
93.2642591939
 10
137.6419465693
 20
93.315195321
 10
137.6154448541
 20
93.3530440376
 10
137.59912622
 20
93.3763513164
 10
137.593614653
 20
93.384221225
  0
LINE
  5
2F1
330
1F
100
AcDbEntity
  8
0
  6
Continuous
 62
     7
370
    15
100
AcDbLine
 10
137.593614653
 20
93.384221225
 30
0.0
 11
138.3583478334
 21
93.9196925898
 31
0.0
  0
LINE
  5
2F2
330
1F
100
AcDbEntity
  8
0
  6
Continuous
 62
     7
370
    15
100
AcDbLine
 10
130.2471335682
 20
94.1831060042
 30
0.0
 11
130.2471335682
 21
106.1674659428
 31
0.0
  0
LINE
  5
2F3
330
1F
100
AcDbEntity
  8
0
  6
Continuous
 62
     7
370
    15
100
AcDbLine
 10
130.4471332284
 20
106.448092061
 30
0.0
 11
130.4471332284
 21
93.9303885967
 31
0.0
  0
LINE
  5
2F4
330
1F
100
AcDbEntity
  8
0
  6
Continuous
 62
     7
370
    15
100
AcDbLine
 10
130.4471332284
 20
93.9303885967
 30
0.0
 11
130.2471335682
 21
94.1831060042
 31
0.0
  0
ARC
  5
2F5
330
1F
100
AcDbEntity
  8
0
  6
Continuous
 62
     7
370
    15
100
AcDbCircle
 10
141.7471326799
 20
98.1831059867
 30
0.0
 40
14.00000000000001
100
AcDbArc
 50
143.8177127788
 51
145.2280559681
  0
ARC
  5
2F6
330
1F
100
AcDbEntity
  8
0
  6
Continuous
 62
     7
370
    15
100
AcDbCircle
 10
144.4471326799
 20
98.1831059867
 30
0.0
 40
4.000000000000028
100
AcDbArc
 50
0.0
 51
41.4096221093
  0
ARC
  5
2F7
330
1F
100
AcDbEntity
  8
0
  6
Continuous
 62
     7
370
    15
100
AcDbCircle
 10
144.4471326799
 20
98.1831059867
 30
0.0
 40
4.000000000000017
100
AcDbArc
 50
48.5903778907
 51
131.4096221093
  0
ARC
  5
2F8
330
1F
100
AcDbEntity
  8
0
  6
Continuous
 62
     7
370
    15
100
AcDbCircle
 10
144.4471326799
 20
98.1831059867
 30
0.0
 40
4.000000000000016
100
AcDbArc
 50
138.5903778907
 51
221.4096221093
  0
ARC
  5
2F9
330
1F
100
AcDbEntity
  8
0
  6
Continuous
 62
     7
370
    15
100
AcDbCircle
 10
144.4471326799
 20
98.1831059867
 30
0.0
 40
3.999999999999996
100
AcDbArc
 50
228.5903778907
 51
311.4096221093
  0
ARC
  5
2FA
330
1F
100
AcDbEntity
  8
0
  6
Continuous
 62
     7
370
    15
100
AcDbCircle
 10
144.4471326799
 20
98.1831059867
 30
0.0
 40
4.000000000000028
100
AcDbArc
 50
318.9452478669
 51
0.0
  0
ARC
  5
2FB
330
1F
100
AcDbEntity
  8
0
  6
Continuous
 62
     7
370
    15
100
AcDbCircle
 10
141.6887900667
 20
89.1831059867
 30
0.0
 40
1.000000000000002
100
AcDbArc
 50
183.8225537293
 51
270.0
  0
ARC
  5
2FC
330
1F
100
AcDbEntity
  8
0
  6
Continuous
 62
     7
370
    15
100
AcDbCircle
 10
137.9471326799
 20
88.9331059867
 30
0.0
 40
2.750000000000023
100
AcDbArc
 50
3.8225537293
 51
90.0
  0
LINE
  5
2FD
330
1F
100
AcDbEntity
  8
0
  6
Continuous
 62
     7
370
    15
100
AcDbLine
 10
137.9471325951
 20
91.6831059436
 30
0.0
 11
132.2256277951
 21
91.6831059436
 31
0.0
  0
LINE
  5
2FE
330
1F
100
AcDbEntity
  8
0
  6
Continuous
 62
     7
370
    15
100
AcDbLine
 10
132.2256277951
 20
91.6831059436
 30
0.0
 11
130.4471332284
 21
93.9303885967
 31
0.0
  0
LINE
  5
2FF
330
1F
100
AcDbEntity
  8
0
  6
Continuous
 62
     7
370
    15
100
AcDbLine
 10
135.1971335413
 20
109.4831065563
 30
0.0
 11
133.482145861
 21
109.4831065563
 31
0.0
  0
LINE
  5
300
330
1F
100
AcDbEntity
  8
0
  6
Continuous
 62
     7
370
    15
100
AcDbLine
 10
135.1971335413
 20
109.4831065563
 30
0.0
 11
135.1971335413
 21
107.433105382
 31
0.0
  0
ARC
  5
301
330
1F
100
AcDbEntity
  8
0
  6
Continuous
 62
     7
370
    15
100
AcDbCircle
 10
137.9471326799
 20
107.4331059867
 30
0.0
 40
2.750000000000023
100
AcDbArc
 50
180.0
 51
356.1774462707
  0
ARC
  5
302
330
1F
100
AcDbEntity
  8
0
  6
Continuous
 62
     7
370
    15
100
AcDbCircle
 10
141.6887900667
 20
107.1831059867
 30
0.0
 40
1.0
100
AcDbArc
 50
90.0
 51
176.1774462707
  0
LINE
  5
303
330
1F
100
AcDbEntity
  8
0
  6
Continuous
 62
     7
370
    15
100
AcDbLine
 10
141.6887899565
 20
108.183106902
 30
0.0
 11
147.2054755019
 21
108.183106902
 31
0.0
  0
ARC
  5
304
330
1F
100
AcDbEntity
  8
0
  6
Continuous
 62
     7
370
    15
100
AcDbCircle
 10
147.2054752931
 20
107.1831059867
 30
0.0
 40
1.0
100
AcDbArc
 50
3.8225537293
 51
90.0
  0
ARC
  5
305
330
1F
100
AcDbEntity
  8
0
  6
Continuous
 62
     7
370
    15
100
AcDbCircle
 10
150.9471326799
 20
107.4331059867
 30
0.0
 40
2.750000000000023
100
AcDbArc
 50
183.8225537293
 51
0.0
  0
LINE
  5
306
330
1F
100
AcDbEntity
  8
0
  6
Continuous
 62
     7
370
    15
100
AcDbLine
 10
153.6971326738
 20
107.433105382
 30
0.0
 11
153.6971326738
 21
109.4831065563
 31
0.0
  0
LINE
  5
307
330
1F
100
AcDbEntity
  8
0
  6
Continuous
 62
     7
370
    15
100
AcDbLine
 10
155.4121190153
 20
109.4831065563
 30
0.0
 11
153.6971326738
 21
109.4831065563
 31
0.0
  0
ARC
  5
308
330
1F
100
AcDbEntity
  8
0
  6
Continuous
 62
     7
370
    15
100
AcDbCircle
 10
147.1471326799
 20
98.1831059867
 30
0.0
 40
14.00000000000001
100
AcDbArc
 50
36.1822872212
 51
53.8177127788
  0
LINE
  5
309
330
1F
100
AcDbEntity
  8
0
  6
Continuous
 62
     7
370
    15
100
AcDbLine
 10
158.4471326957
 20
93.9303885967
 30
0.0
 11
158.4471326957
 21
106.448092061
 31
0.0
  0
LINE
  5
30A
330
1F
100
AcDbEntity
  8
0
  6
Continuous
 62
     7
370
    15
100
AcDbLine
 10
158.4471326957
 20
93.9303885967
 30
0.0
 11
156.668638129
 21
91.6831059436
 31
0.0
  0
LINE
  5
30B
330
1F
100
AcDbEntity
  8
0
  6
Continuous
 62
     7
370
    15
100
AcDbLine
 10
156.668638129
 20
91.6831059436
 30
0.0
 11
150.9471326305
 21
91.6831059436
 31
0.0
  0
ARC
  5
30C
330
1F
100
AcDbEntity
  8
0
  6
Continuous
 62
     7
370
    15
100
AcDbCircle
 10
150.9471326799
 20
88.9331059867
 30
0.0
 40
2.75
100
AcDbArc
 50
90.0
 51
176.1774462707
  0
ARC
  5
30D
330
1F
100
AcDbEntity
  8
0
  6
Continuous
 62
     7
370
    15
100
AcDbCircle
 10
147.2054752931
 20
89.1831059867
 30
0.0
 40
1.00000000000003
100
AcDbArc
 50
270.0
 51
356.1774462707
  0
LINE
  5
30E
330
1F
100
AcDbEntity
  8
0
  6
Continuous
 62
     7
370
    15
100
AcDbLine
 10
147.2054755019
 20
88.183105952
 30
0.0
 11
141.6887899565
 21
88.183105952
 31
0.0
  0
ARC
  5
30F
330
1F
100
AcDbEntity
  8
0
  6
Continuous
 62
     7
370
    15
100
AcDbCircle
 10
136.7332503143
 20
94.6129492885
 30
0.0
 40
2.000000000000011
100
AcDbArc
 50
204.8357513783
 51
305.0
  0
ARC
  5
310
330
1F
100
AcDbEntity
  8
0
  6
Continuous
 62
     7
370
    15
100
AcDbCircle
 10
137.7847709411
 20
101.6273673097
 30
0.0
 40
1.499999999999999
100
AcDbArc
 50
332.6622556608
 51
55.0
  0
ARC
  5
311
330
1F
100
AcDbEntity
  8
0
  6
Continuous
 62
     7
370
    15
100
AcDbCircle
 10
136.7332503143
 20
101.7532626848
 30
0.0
 40
1.999999999999999
100
AcDbArc
 50
55.0
 51
155.1642486217
  0
ARC
  5
312
330
1F
100
AcDbEntity
  8
0
  6
Continuous
 62
     7
370
    15
100
AcDbCircle
 10
144.4471326799
 20
98.1831059867
 30
0.0
 40
10.49999999999999
100
AcDbArc
 50
155.1642486217
 51
204.8357513783
  0
LINE
  5
313
330
1F
100
AcDbEntity
  8
0
  6
Continuous
 62
     7
370
    15
100
AcDbLine
 10
150.2491298767
 20
102.8560954434
 30
0.0
 11
151.0138621258
 21
103.3915668082
 31
0.0
  0
ARC
  5
314
330
1F
100
AcDbEntity
  8
0
  6
Continuous
 62
     7
370
    15
100
AcDbCircle
 10
151.1094944187
 20
101.6273673097
 30
0.0
 40
1.500000000000007
100
AcDbArc
 50
125.0
 51
207.3377443392
  0
ARC
  5
315
330
1F
100
AcDbEntity
  8
0
  6
Continuous
 62
     7
370
    15
100
AcDbCircle
 10
144.4471326799
 20
98.1831059867
 30
0.0
 40
6.000000000000014
100
AcDbArc
 50
332.6622556608
 51
27.3377443392
  0
ARC
  5
316
330
1F
100
AcDbEntity
  8
0
  6
Continuous
 62
     7
370
    15
100
AcDbCircle
 10
151.1094944187
 20
94.7388446636
 30
0.0
 40
1.500000000000019
100
AcDbArc
 50
152.6622556608
 51
235.0
  0
ARC
  5
317
330
1F
100
AcDbEntity
  8
0
  6
Continuous
 62
     7
370
    15
100
AcDbCircle
 10
152.1610150455
 20
94.6129492885
 30
0.0
 40
1.999999999999999
100
AcDbArc
 50
235.0
 51
335.1642486217
  0
ARC
  5
318
330
1F
100
AcDbEntity
  8
0
  6
Continuous
 62
     7
370
    15
100
AcDbCircle
 10
141.7471326799
 20
98.1831059867
 30
0.0
 40
14.00000000000001
100
AcDbArc
 50
126.1822872212
 51
143.8177127788
  0
ARC
  5
319
330
1F
100
AcDbEntity
  8
0
  6
Continuous
 62
     7
370
    15
100
AcDbCircle
 10
144.4471326799
 20
98.1831059867
 30
0.0
 40
6.500000000000016
100
AcDbArc
 50
332.6622556608
 51
27.3377443392
  0
LWPOLYLINE
  5
31A
330
1F
100
AcDbEntity
  8
0
  6
Continuous
 62
     7
370
    15
100
AcDbPolyline
 90
        9
 70
   128
 43
0.0
 10
150.2211794893
 20
95.1980795068
 10
150.212645082
 20
95.2024916475
 10
150.1873701515
 20
95.2155581032
 10
150.1463256015
 20
95.2367768911
 10
150.0910888596
 20
95.2653331039
 10
150.0237826428
 20
95.3001282466
 10
149.9469936995
 20
95.339826337
 10
149.8636729254
 20
95.3829009374
 10
149.7770219746
 20
95.4276970875
  0
LWPOLYLINE
  5
31B
330
1F
100
AcDbEntity
  8
0
  6
Continuous
 62
     7
370
    15
100
AcDbPolyline
 90
        9
 70
   128
 43
0.0
 10
150.2211794893
 20
101.1681328815
 10
150.212645082
 20
101.1637202752
 10
150.1873701515
 20
101.1506538195
 10
150.1463256015
 20
101.1294345659
 10
150.0910888596
 20
101.1008792845
 10
150.0237826428
 20
101.0660832104
 10
149.9469936995
 20
101.0263855857
 10
149.8636729254
 20
100.9833109853
 10
149.7770219746
 20
100.9385153008
  0
LINE
  5
31C
330
1F
100
AcDbEntity
  8
0
  6
Continuous
 62
     7
370
    15
100
AcDbLine
 10
151.3006503398
 20
102.9819906977
 30
0.0
 11
150.5359180907
 21
102.4465193328
 31
0.0
  0
LWPOLYLINE
  5
31D
330
1F
100
AcDbEntity
  8
0
  6
Continuous
 62
     7
370
    15
100
AcDbPolyline
 90
        9
 70
   128
 43
0.0
 10
150.2491298767
 20
102.8560954434
 10
150.3050793132
 20
102.7761907605
 10
150.3588787916
 20
102.6993575794
 10
150.4084607756
 20
102.6285472614
 10
150.4519195466
 20
102.566481131
 10
150.4875854759
 20
102.5155452368
 10
150.5140874239
 20
102.4776962874
 10
150.530407455
 20
102.4543890086
 10
150.5359180907
 20
102.4465193328
  0
LINE
  5
31E
330
1F
100
AcDbEntity
  8
0
  6
Continuous
 62
     7
370
    15
100
AcDbLine
 10
153.6971326738
 20
109.6831062165
 30
0.0
 11
155.1314924315
 21
109.6831062165
 31
0.0
  0
ARC
  5
31F
330
1F
100
AcDbEntity
  8
0
  6
Continuous
 62
     7
370
    15
100
AcDbCircle
 10
147.1471326799
 20
98.1831059867
 30
0.0
 40
14.00000000000001
100
AcDbArc
 50
53.8177127788
 51
55.2280559681
  0
LINE
  5
320
330
1F
100
AcDbEntity
  8
0
  6
Continuous
 62
     7
370
    15
100
AcDbLine
 10
153.6971326738
 20
109.4831065563
 30
0.0
 11
153.6971326738
 21
109.6831062165
 31
0.0
  0
ARC
  5
321
330
1F
100
AcDbEntity
  8
0
  6
Continuous
 62
     7
370
    15
100
AcDbCircle
 10
152.1610150455
 20
94.6129492885
 30
0.0
 40
1.499999999999999
100
AcDbArc
 50
235.0
 51
335.1642486217
  0
ARC
  5
322
330
1F
100
AcDbEntity
  8
0
  6
Continuous
 62
     7
370
    15
100
AcDbCircle
 10
137.7847709411
 20
101.6273673097
 30
0.0
 40
0.999999999999998
100
AcDbArc
 50
332.6622556608
 51
55.0
  0
LWPOLYLINE
  5
323
330
1F
100
AcDbEntity
  8
0
  6
Continuous
 62
     7
370
    15
100
AcDbPolyline
 90
        9
 70
   128
 43
0.0
 10
134.918219194
 20
93.7729124268
 10
135.0067432674
 20
93.8138831695
 10
135.0918642881
 20
93.8532795114
 10
135.1703133138
 20
93.8895873548
 10
135.2390747222
 20
93.9214113456
 10
135.2955054196
 20
93.9475286574
 10
135.3374372872
 20
93.9669355572
 10
135.3632572743
 20
93.9788862885
 10
135.3719763162
 20
93.9829217092
  0
ARC
  5
324
330
1F
100
AcDbEntity
  8
0
  6
Continuous
 62
     7
370
    15
100
AcDbCircle
 10
136.7332503143
 20
94.6129492885
 30
0.0
 40
1.499999999999987
100
AcDbArc
 50
204.8357513783
 51
305.0
  0
LINE
  5
325
330
1F
100
AcDbEntity
  8
0
  6
Continuous
 62
     7
370
    15
100
AcDbLine
 10
133.7627738418
 20
109.6831062165
 30
0.0
 11
135.1971335413
 21
109.6831062165
 31
0.0
  0
LINE
  5
326
330
1F
100
AcDbEntity
  8
0
  6
Continuous
 62
     7
370
    15
100
AcDbLine
 10
135.1971335413
 20
109.6831062165
 30
0.0
 11
135.1971335413
 21
109.4831065563
 31
0.0
  0
ARC
  5
327
330
1F
100
AcDbEntity
  8
0
  6
Continuous
 62
     7
370
    15
100
AcDbCircle
 10
141.7471326799
 20
98.1831059867
 30
0.0
 40
14.00000000000001
100
AcDbArc
 50
124.7719440319
 51
126.1822872212
  0
LINE
  5
328
330
1F
100
AcDbEntity
  8
0
  6
Continuous
 62
     7
370
    15
100
AcDbLine
 10
158.6471328216
 20
106.1674659428
 30
0.0
 11
158.6471328216
 21
94.1831060042
 31
0.0
  0
ARC
  5
329
330
1F
100
AcDbEntity
  8
0
  6
Continuous
 62
     7
370
    15
100
AcDbCircle
 10
147.1471326799
 20
98.1831059867
 30
0.0
 40
13.99999999999999
100
AcDbArc
 50
34.7719440319
 51
36.1822872212
  0
LINE
  5
32A
330
1F
100
AcDbEntity
  8
0
  6
Continuous
 62
     7
370
    15
100
AcDbLine
 10
158.6471328216
 20
94.1831060042
 30
0.0
 11
158.4471326957
 21
93.9303885967
 31
0.0
  0
ARC
  5
32B
330
1F
100
AcDbEntity
  8
0
  6
Continuous
 62
     7
370
    15
100
AcDbCircle
 10
151.1094944187
 20
101.6273673097
 30
0.0
 40
1.000000000000004
100
AcDbArc
 50
125.0
 51
207.3377443392
  0
ARC
  5
32C
330
1F
100
AcDbEntity
  8
0
  6
Continuous
 62
     7
370
    15
100
AcDbCircle
 10
151.1094944187
 20
94.7388446636
 30
0.0
 40
0.999999999999998
100
AcDbArc
 50
152.6622556608
 51
235.0
  0
LWPOLYLINE
  5
32D
330
1F
100
AcDbEntity
  8
0
  6
Continuous
 62
     7
370
    15
100
AcDbPolyline
 90
        9
 70
   128
 43
0.0
 10
134.918219194
 20
102.5932994959
 10
135.0067432674
 20
102.5523287532
 10
135.0918642881
 20
102.512932877
 10
135.1703133138
 20
102.4766243351
 10
135.2390747222
 20
102.4448010427
 10
135.2955054196
 20
102.4186830324
 10
135.3374372872
 20
102.3992761326
 10
135.3632572743
 20
102.3873254013
 10
135.3719763162
 20
102.3832899806
  0
ARC
  5
32E
330
1F
100
AcDbEntity
  8
0
  6
Continuous
 62
     7
370
    15
100
AcDbCircle
 10
144.4471326799
 20
98.1831059867
 30
0.0
 40
9.999999999999986
100
AcDbArc
 50
155.1642486217
 51
204.8357513783
  0
ARC
  5
32F
330
1F
100
AcDbEntity
  8
0
  6
Continuous
 62
     7
370
    15
100
AcDbCircle
 10
136.7332503143
 20
101.7532626848
 30
0.0
 40
1.499999999999999
100
AcDbArc
 50
55.0
 51
155.1642486217
  0
LWPOLYLINE
  5
330
330
1F
100
AcDbEntity
  8
0
  6
Continuous
 62
     7
370
    15
100
AcDbPolyline
 90
        9
 70
   128
 43
0.0
 10
153.5222884037
 20
102.3832899806
 10
153.5135695755
 20
102.3792554912
 10
153.4877481496
 20
102.3673047599
 10
153.4458164303
 20
102.3478978601
 10
153.3893858238
 20
102.3217798498
 10
153.3206249321
 20
102.2899556262
 10
153.2421762119
 20
102.2536480156
 10
153.1570543763
 20
102.2142521394
 10
153.0685306231
 20
102.1732813966
  0
ARC
  5
331
330
1F
100
AcDbEntity
  8
0
  6
Continuous
 62
     7
370
    15
100
AcDbCircle
 10
152.1610150455
 20
101.7532626848
 30
0.0
 40
1.000000000000003
100
AcDbArc
 50
24.8357513783
 51
125.0
  0
LWPOLYLINE
  5
332
330
1F
100
AcDbEntity
  8
0
  6
Continuous
 62
     7
370
    15
100
AcDbPolyline
 90
        9
 70
   128
 43
0.0
 10
151.3006503398
 20
102.9819906977
 10
151.3061609755
 20
102.9741210219
 10
151.3224807738
 20
102.9508137432
 10
151.3489829546
 20
102.9129647938
 10
151.3846486511
 20
102.8620288995
 10
151.4281076549
 20
102.7999627692
 10
151.4776894061
 20
102.7291524512
 10
151.5314891173
 20
102.6523192701
 10
151.5874385538
 20
102.5724145872
  0
ARC
  5
333
330
1F
100
AcDbEntity
  8
0
  6
Continuous
 62
     7
370
    15
100
AcDbCircle
 10
144.4471326799
 20
98.1831059867
 30
0.0
 40
7.000000000000019
100
AcDbArc
 50
332.6622556608
 51
27.3377443392
  0
LWPOLYLINE
  5
334
330
1F
100
AcDbEntity
  8
0
  6
Continuous
 62
     7
370
    15
100
AcDbPolyline
 90
        9
 70
   128
 43
0.0
 10
150.665337004
 20
94.968461926
 10
150.5786860532
 20
95.0132580762
 10
150.495365279
 20
95.0563326766
 10
150.4185763358
 20
95.096030767
 10
150.351270119
 20
95.1308259097
 10
150.2960336099
 20
95.1593821225
 10
150.2549890599
 20
95.1806009104
 10
150.2297138965
 20
95.1936673661
 10
150.2211794893
 20
95.1980795068
  0
LWPOLYLINE
  5
335
330
1F
100
AcDbEntity
  8
0
  6
Continuous
 62
     7
370
    15
100
AcDbPolyline
 90
        9
 70
   128
 43
0.0
 10
150.665337004
 20
101.397749531
 10
150.5786860532
 20
101.3529538465
 10
150.495365279
 20
101.3098792461
 10
150.4185763358
 20
101.2701816213
 10
150.351270119
 20
101.2353855473
 10
150.2960336099
 20
101.2068302658
 10
150.2549890599
 20
101.1856110123
 10
150.2297138965
 20
101.1725445566
 10
150.2211794893
 20
101.1681328815
  0
LINE
  5
336
330
1F
100
AcDbEntity
  8
0
  6
Continuous
 62
     7
370
    15
100
AcDbLine
 10
138.0715591537
 20
102.0369432223
 30
0.0
 11
137.3068269046
 21
102.5724145872
 31
0.0
  0
LWPOLYLINE
  5
337
330
1F
100
AcDbEntity
  8
0
  6
Continuous
 62
     7
370
    15
100
AcDbPolyline
 90
        9
 70
   128
 43
0.0
 10
137.3068269046
 20
102.5724145872
 10
137.3627770396
 20
102.6523192701
 10
137.4165758195
 20
102.7291524512
 10
137.4661575707
 20
102.7999627692
 10
137.5096168073
 20
102.8620288995
 10
137.5452827366
 20
102.9129647938
 10
137.5717844518
 20
102.9508137432
 10
137.5881049486
 20
102.9741210219
 10
137.593614653
 20
102.9819906977
  0
LWPOLYLINE
  5
338
330
1F
100
AcDbEntity
  8
0
  6
Continuous
 62
     7
370
    15
100
AcDbPolyline
 90
        9
 70
   128
 43
0.0
 10
138.0715591537
 20
102.0369432223
 10
138.1275083574
 20
102.1168479052
 10
138.1813080686
 20
102.1936810863
 10
138.2308898198
 20
102.2644914043
 10
138.2743490564
 20
102.3265575347
 10
138.3100149857
 20
102.3774934289
 10
138.3365167009
 20
102.4153423783
 10
138.3528371977
 20
102.4386496571
 10
138.3583478334
 20
102.4465193328
  0
LWPOLYLINE
  5
339
330
1F
100
AcDbEntity
  8
0
  6
Continuous
 62
     7
370
    15
100
AcDbPolyline
 90
        9
 70
   128
 43
0.0
 10
135.3719763162
 20
102.3832899806
 10
135.3806953581
 20
102.3792554912
 10
135.4065172078
 20
102.3673047599
 10
135.4484490754
 20
102.3478978601
 10
135.5048797729
 20
102.3217798498
 10
135.5736411812
 20
102.2899556262
 10
135.6520883443
 20
102.2536480156
 10
135.7372112276
 20
102.2142521394
 10
135.825735301
 20
102.1732813966
  0
ARC
  5
33A
330
1F
100
AcDbEntity
  8
0
  6
Continuous
 62
     7
370
    15
100
AcDbCircle
 10
144.4471326799
 20
98.1831059867
 30
0.0
 40
9.500000000000016
100
AcDbArc
 50
155.1642486217
 51
204.8357513783
  0
LWPOLYLINE
  5
33B
330
1F
100
AcDbEntity
  8
0
  6
Continuous
 62
     7
370
    15
100
AcDbPolyline
 90
        9
 70
   128
 43
0.0
 10
135.3719763162
 20
93.9829217092
 10
135.3806953581
 20
93.9869568971
 10
135.4065172078
 20
93.9989076284
 10
135.4484490754
 20
94.0183145282
 10
135.5048797729
 20
94.04443184
 10
135.5736411812
 20
94.0762560637
 10
135.6520883443
 20
94.1125639071
 10
135.7372112276
 20
94.1519600161
 10
135.825735301
 20
94.1929307588
  0
ARC
  5
33C
330
1F
100
AcDbEntity
  8
0
  6
Continuous
 62
     7
370
    15
100
AcDbCircle
 10
151.1094944187
 20
101.6273673097
 30
0.0
 40
0.5000000000000022
100
AcDbArc
 50
125.0
 51
207.3377443392
  0
LWPOLYLINE
  5
33D
330
1F
100
AcDbEntity
  8
0
  6
Continuous
 62
     7
370
    15
100
AcDbPolyline
 90
        9
 70
   128
 43
0.0
 10
150.5359180907
 20
102.4465193328
 10
150.5414284936
 20
102.4386496571
 10
150.5577485247
 20
102.4153423783
 10
150.5842504727
 20
102.3774934289
 10
150.619916402
 20
102.3265575347
 10
150.663375173
 20
102.2644914043
 10
150.712957157
 20
102.1936810863
 10
150.7667566354
 20
102.1168479052
 10
150.8227063047
 20
102.0369432223
  0
ARC
  5
33E
330
1F
100
AcDbEntity
  8
0
  6
Continuous
 62
     7
370
    15
100
AcDbCircle
 10
151.1094944187
 20
94.7388446636
 30
0.0
 40
0.5000000000000022
100
AcDbArc
 50
152.6622556608
 51
235.0
  0
LWPOLYLINE
  5
33F
330
1F
100
AcDbEntity
  8
0
  6
Continuous
 62
     7
370
    15
100
AcDbPolyline
 90
        9
 70
   128
 43
0.0
 10
150.8227063047
 20
94.3292687004
 10
150.7667566354
 20
94.2493642502
 10
150.712957157
 20
94.1725306035
 10
150.663375173
 20
94.1017202855
 10
150.619916402
 20
94.0396546208
 10
150.5842504727
 20
93.9887187266
 10
150.5577485247
 20
93.9508697771
 10
150.5414284936
 20
93.9275624984
 10
150.5359180907
 20
93.9196925898
  0
ARC
  5
340
330
1F
100
AcDbEntity
  8
0
  6
Continuous
 62
     7
370
    15
100
AcDbCircle
 10
136.7332503143
 20
94.6129492885
 30
0.0
 40
1.000000000000003
100
AcDbArc
 50
204.8357513783
 51
305.0
  0
LWPOLYLINE
  5
341
330
1F
100
AcDbEntity
  8
0
  6
Continuous
 62
     7
370
    15
100
AcDbPolyline
 90
        9
 70
   128
 43
0.0
 10
137.593614653
 20
93.384221225
 10
137.5881049486
 20
93.3920911335
 10
137.5717844518
 20
93.4153984123
 10
137.5452827366
 20
93.4532471289
 10
137.5096168073
 20
93.504183256
 10
137.4661575707
 20
93.5662489207
 10
137.4165758195
 20
93.6370592386
 10
137.3627770396
 20
93.7138928854
 10
137.3068269046
 20
93.7937973355
  0
ARC
  5
342
330
1F
100
AcDbEntity
  8
0
  6
Continuous
 62
     7
370
    15
100
AcDbCircle
 10
152.1610150455
 20
94.6129492885
 30
0.0
 40
0.9999999999999976
100
AcDbArc
 50
235.0
 51
335.1642486217
  0
LWPOLYLINE
  5
343
330
1F
100
AcDbEntity
  8
0
  6
Continuous
 62
     7
370
    15
100
AcDbPolyline
 90
        9
 70
   128
 43
0.0
 10
153.5222884037
 20
93.9829217092
 10
153.5135695755
 20
93.9869568971
 10
153.4877481496
 20
93.9989076284
 10
153.4458164303
 20
94.0183145282
 10
153.3893858238
 20
94.04443184
 10
153.3206249321
 20
94.0762560637
 10
153.2421762119
 20
94.1125639071
 10
153.1570543763
 20
94.1519600161
 10
153.0685306231
 20
94.1929307588
  0
LWPOLYLINE
  5
344
330
1F
100
AcDbEntity
  8
0
  6
Continuous
 62
     7
370
    15
100
AcDbPolyline
 90
        9
 70
   128
 43
0.0
 10
151.5874385538
 20
93.7937973355
 10
151.5314891173
 20
93.7138928854
 10
151.4776894061
 20
93.6370592386
 10
151.4281076549
 20
93.5662489207
 10
151.3846486511
 20
93.504183256
 10
151.3489829546
 20
93.4532471289
 10
151.3224807738
 20
93.4153984123
 10
151.3061609755
 20
93.3920911335
 10
151.3006503398
 20
93.384221225
  0
LINE
  5
345
330
1F
100
AcDbEntity
  8
0
  6
Continuous
 62
     7
370
    15
100
AcDbLine
 10
150.8227063047
 20
94.3292687004
 30
0.0
 11
151.5874385538
 21
93.7937973355
 31
0.0
  0
ARC
  5
346
330
1F
100
AcDbEntity
  8
0
  6
Continuous
 62
     7
370
    15
100
AcDbCircle
 10
136.7332503143
 20
101.7532626848
 30
0.0
 40
1.000000000000028
100
AcDbArc
 50
55.0
 51
155.1642486217
  0
ARC
  5
347
330
1F
100
AcDbEntity
  8
0
  6
Continuous
 62
     7
370
    15
100
AcDbCircle
 10
144.4471326799
 20
98.1831059867
 30
0.0
 40
6.999999999999998
100
AcDbArc
 50
152.6622556608
 51
207.3377443392
  0
LWPOLYLINE
  5
348
330
1F
100
AcDbEntity
  8
0
  6
Continuous
 62
     7
370
    15
100
AcDbPolyline
 90
        9
 70
   128
 43
0.0
 10
138.2289284544
 20
101.397749531
 10
138.3155796381
 20
101.3529538465
 10
138.3989004122
 20
101.3098792461
 10
138.4756888898
 20
101.2701816213
 10
138.5429955723
 20
101.2353855473
 10
138.5982313829
 20
101.2068302658
 10
138.6392766314
 20
101.1856110123
 10
138.6645517948
 20
101.1725445566
 10
138.6730855035
 20
101.1681328815
  0
LWPOLYLINE
  5
349
330
1F
100
AcDbEntity
  8
0
  6
Continuous
 62
     7
370
    15
100
AcDbPolyline
 90
        9
 70
   128
 43
0.0
 10
138.2289284544
 20
94.968461926
 10
138.3155796381
 20
95.0132580762
 10
138.3989004122
 20
95.0563326766
 10
138.4756888898
 20
95.096030767
 10
138.5429955723
 20
95.1308259097
 10
138.5982313829
 20
95.1593821225
 10
138.6392766314
 20
95.1806009104
 10
138.6645517948
 20
95.1936673661
 10
138.6730855035
 20
95.1980795068
  0
ARC
  5
34A
330
1F
100
AcDbEntity
  8
0
  6
Continuous
 62
     7
370
    15
100
AcDbCircle
 10
144.4471326799
 20
98.1831059867
 30
0.0
 40
9.500000000000018
100
AcDbArc
 50
335.1642486217
 51
24.8357513783
  0
LINE
  5
34B
330
1F
100
AcDbEntity
  8
0
  6
Continuous
 62
     7
370
    15
100
AcDbLine
 10
137.3068269046
 20
93.7937973355
 30
0.0
 11
138.0715591537
 21
94.3292687004
 31
0.0
  0
LWPOLYLINE
  5
34C
330
1F
100
AcDbEntity
  8
0
  6
Continuous
 62
     7
370
    15
100
AcDbPolyline
 90
        9
 70
   128
 43
0.0
 10
138.3583478334
 20
93.9196925898
 10
138.3528371977
 20
93.9275624984
 10
138.3365167009
 20
93.9508697771
 10
138.3100149857
 20
93.9887187266
 10
138.2743490564
 20
94.0396546208
 10
138.2308898198
 20
94.1017202855
 10
138.1813080686
 20
94.1725306035
 10
138.1275083574
 20
94.2493642502
 10
138.0715591537
 20
94.3292687004
  0
LINE
  5
34D
330
1F
100
AcDbEntity
  8
0
  6
Continuous
 62
     7
370
    15
100
AcDbLine
 10
151.5874385538
 20
102.5724145872
 30
0.0
 11
150.8227063047
 21
102.0369432223
 31
0.0
  0
ARC
  5
34E
330
1F
100
AcDbEntity
  8
0
  6
Continuous
 62
     7
370
    15
100
AcDbCircle
 10
137.7847709411
 20
101.6273673097
 30
0.0
 40
0.5000000000000128
100
AcDbArc
 50
332.6622556608
 51
55.0
  0
ARC
  5
34F
330
1F
100
AcDbEntity
  8
0
  6
Continuous
 62
     7
370
    15
100
AcDbCircle
 10
137.7847709411
 20
94.7388446636
 30
0.0
 40
0.5000000000000128
100
AcDbArc
 50
305.0
 51
27.3377443392
  0
ARC
  5
350
330
1F
100
AcDbEntity
  8
0
  6
Continuous
 62
     7
370
    15
100
AcDbCircle
 10
147.2611253538
 20
110.1831059867
 30
0.0
 40
2.0
100
AcDbArc
 50
270.0
 51
321.3178125465
  0
ARC
  5
351
330
1F
100
AcDbEntity
  8
0
  6
Continuous
 62
     7
370
    15
100
AcDbCircle
 10
150.383624353
 20
107.6831059867
 30
0.0
 40
2.0
100
AcDbArc
 50
90.0
 51
141.3178125465
  0
LINE
  5
352
330
1F
100
AcDbEntity
  8
0
  6
Continuous
 62
     7
370
    15
100
AcDbLine
 10
153.6971326738
 20
109.6831062165
 30
0.0
 11
150.3836242652
 21
109.6831062165
 31
0.0
  0
LINE
  5
353
330
1F
100
AcDbEntity
  8
0
  6
Continuous
 62
     7
370
    15
100
AcDbLine
 10
147.2054755019
 20
108.183106902
 30
0.0
 11
147.2611252854
 21
108.183106902
 31
0.0
  0
LINE
  5
354
330
1F
100
AcDbEntity
  8
0
  6
Continuous
 62
     7
370
    15
100
AcDbLine
 10
136.0114577862
 20
86.6831061718
 30
0.0
 11
138.5106414261
 21
86.6831061718
 31
0.0
  0
ARC
  5
355
330
1F
100
AcDbEntity
  8
0
  6
Continuous
 62
     7
370
    15
100
AcDbCircle
 10
130.0114788368
 20
89.6669784116
 30
0.0
 40
2.999999999999989
100
AcDbArc
 50
0.154007183
 51
33.099933234
  0
ARC
  5
356
330
1F
100
AcDbEntity
  8
0
  6
Continuous
 62
     7
370
    15
100
AcDbCircle
 10
141.633140006
 20
86.1831059867
 30
0.0
 40
2.0
100
AcDbArc
 50
90.0
 51
141.3178125465
  0
ARC
  5
357
330
1F
100
AcDbEntity
  8
0
  6
Continuous
 62
     7
370
    15
100
AcDbCircle
 10
138.5106410068
 20
88.6831059867
 30
0.0
 40
2.0
100
AcDbArc
 50
270.0
 51
321.3178125465
  0
ARC
  5
358
330
1F
100
AcDbEntity
  8
0
  6
Continuous
 62
     7
370
    15
100
AcDbCircle
 10
136.0114571618
 20
89.6831059867
 30
0.0
 40
3.0
100
AcDbArc
 50
180.154007183
 51
270.0
  0
LINE
  5
359
330
1F
100
AcDbEntity
  8
0
  6
Continuous
 62
     7
370
    15
100
AcDbLine
 10
132.5246363582
 20
91.3052813554
 30
0.0
 11
132.2256277951
 21
91.6831059436
 31
0.0
  0
ARC
  5
35A
330
1F
100
AcDbEntity
  8
0
  6
Continuous
 62
     7
370
    15
100
AcDbCircle
 10
152.8828081979
 20
89.6831059867
 30
0.0
 40
3.0
100
AcDbArc
 50
270.0
 51
359.845992817
  0
LINE
  5
35B
330
1F
100
AcDbEntity
  8
0
  6
Continuous
 62
     7
370
    15
100
AcDbLine
 10
150.3836242652
 20
86.6831061718
 30
0.0
 11
152.8828081961
 21
86.6831061718
 31
0.0
  0
ARC
  5
35C
330
1F
100
AcDbEntity
  8
0
  6
Continuous
 62
     7
370
    15
100
AcDbCircle
 10
150.383624353
 20
88.6831059867
 30
0.0
 40
2.0
100
AcDbArc
 50
218.6821874535
 51
270.0
  0
ARC
  5
35D
330
1F
100
AcDbEntity
  8
0
  6
Continuous
 62
     7
370
    15
100
AcDbCircle
 10
147.2611253538
 20
86.1831059867
 30
0.0
 40
2.0
100
AcDbArc
 50
38.6821874535
 51
90.0
  0
ARC
  5
35E
330
1F
100
AcDbEntity
  8
0
  6
Continuous
 62
     7
370
    15
100
AcDbCircle
 10
158.882786523
 20
89.6669784116
 30
0.0
 40
2.999999999999995
100
AcDbArc
 50
146.900066766
 51
179.845992817
  0
LINE
  5
35F
330
1F
100
AcDbEntity
  8
0
  6
Continuous
 62
     7
370
    15
100
AcDbLine
 10
156.3696284017
 20
91.3052813554
 30
0.0
 11
156.668638129
 21
91.6831059436
 31
0.0
  0
ARC
  5
360
330
1F
100
AcDbEntity
  8
0
  6
Continuous
 62
     7
370
    15
100
AcDbCircle
 10
138.5106410068
 20
107.6831059867
 30
0.0
 40
2.0
100
AcDbArc
 50
38.6821874535
 51
90.0
  0
ARC
  5
361
330
1F
100
AcDbEntity
  8
0
  6
Continuous
 62
     7
370
    15
100
AcDbCircle
 10
141.633140006
 20
110.1831059867
 30
0.0
 40
2.0
100
AcDbArc
 50
218.6821874535
 51
270.0
  0
LINE
  5
362
330
1F
100
AcDbEntity
  8
0
  6
Continuous
 62
     7
370
    15
100
AcDbLine
 10
138.5106414261
 20
109.6831062165
 30
0.0
 11
135.1971335413
 21
109.6831062165
 31
0.0
  0
LINE
  5
363
330
1F
100
AcDbEntity
  8
0
  6
Continuous
 62
     7
370
    15
100
AcDbLine
 10
141.6331397074
 20
108.183106902
 30
0.0
 11
141.6887899565
 21
108.183106902
 31
0.0
  0
LINE
  5
364
330
1F
100
AcDbEntity
  8
0
  6
Continuous
 62
     7
370
    15
100
AcDbLine
 10
137.0869751724
 20
89.0337428133
 30
0.0
 11
137.6042075159
 21
89.7283433293
 31
0.0
  0
LINE
  5
365
330
1F
100
AcDbEntity
  8
0
  6
Continuous
 62
     7
370
    15
100
AcDbLine
 10
137.4298993202
 20
88.2385054425
 30
0.0
 11
137.0869751724
 21
89.0337428133
 31
0.0
  0
LINE
  5
366
330
1F
100
AcDbEntity
  8
0
  6
Continuous
 62
     7
370
    15
100
AcDbLine
 10
138.2900576743
 20
88.1378685878
 30
0.0
 11
137.4298993202
 21
88.2385054425
 31
0.0
  0
LINE
  5
367
330
1F
100
AcDbEntity
  8
0
  6
Continuous
 62
     7
370
    15
100
AcDbLine
 10
138.8072909492
 20
88.8324691038
 30
0.0
 11
138.2900576743
 21
88.1378685878
 31
0.0
  0
LINE
  5
368
330
1F
100
AcDbEntity
  8
0
  6
Continuous
 62
     7
370
    15
100
AcDbLine
 10
138.46436587
 20
89.6277064745
 30
0.0
 11
138.8072909492
 21
88.8324691038
 31
0.0
  0
LINE
  5
369
330
1F
100
AcDbEntity
  8
0
  6
Continuous
 62
     7
370
    15
100
AcDbLine
 10
137.6042075159
 20
89.7283433293
 30
0.0
 11
138.46436587
 21
89.6277064745
 31
0.0
  0
CIRCLE
  5
36A
330
1F
100
AcDbEntity
  8
0
  6
Continuous
 62
     7
370
    15
100
AcDbCircle
 10
137.9471326799
 20
88.9331059867
 30
0.0
 40
1.135684019913863
  0
CIRCLE
  5
36B
330
1F
100
AcDbEntity
  8
0
  6
Continuous
 62
     7
370
    15
100
AcDbCircle
 10
137.9471326799
 20
88.9331059867
 30
0.0
 40
1.432283538938782
  0
CIRCLE
  5
36C
330
1F
100
AcDbEntity
  8
0
  6
Continuous
 62
     7
370
    15
100
AcDbCircle
 10
137.9471326799
 20
88.9331059867
 30
0.0
 40
1.843199038049817
  0
CIRCLE
  5
36D
330
1F
100
AcDbEntity
  8
0
  6
Continuous
 62
     7
370
    15
100
AcDbCircle
 10
137.9471326799
 20
88.9331059867
 30
0.0
 40
2.250000000000015
  0
ARC
  5
36E
330
1F
100
AcDbEntity
  8
0
  6
Continuous
 62
     7
370
    15
100
AcDbCircle
 10
137.9471326799
 20
88.9331059867
 30
0.0
 40
0.749999999999998
100
AcDbArc
 50
83.3268446696
 51
143.3268446696
  0
ARC
  5
36F
330
1F
100
AcDbEntity
  8
0
  6
Continuous
 62
     7
370
    15
100
AcDbCircle
 10
137.9471326799
 20
88.9331059867
 30
0.0
 40
0.7499999999999912
100
AcDbArc
 50
143.3268446696
 51
203.3268446696
  0
ARC
  5
370
330
1F
100
AcDbEntity
  8
0
  6
Continuous
 62
     7
370
    15
100
AcDbCircle
 10
137.9471326799
 20
88.9331059867
 30
0.0
 40
0.750000000000034
100
AcDbArc
 50
323.3268446696
 51
23.3268446696
  0
ARC
  5
371
330
1F
100
AcDbEntity
  8
0
  6
Continuous
 62
     7
370
    15
100
AcDbCircle
 10
137.9471326799
 20
88.9331059867
 30
0.0
 40
0.750000000000034
100
AcDbArc
 50
263.3268446696
 51
323.3268446696
  0
ARC
  5
372
330
1F
100
AcDbEntity
  8
0
  6
Continuous
 62
     7
370
    15
100
AcDbCircle
 10
137.9471326799
 20
88.9331059867
 30
0.0
 40
0.7500000000000089
100
AcDbArc
 50
203.3268446696
 51
263.3268446696
  0
ARC
  5
373
330
1F
100
AcDbEntity
  8
0
  6
Continuous
 62
     7
370
    15
100
AcDbCircle
 10
137.9471326799
 20
88.9331059867
 30
0.0
 40
0.7500000000000117
100
AcDbArc
 50
23.3268446696
 51
83.3268446696
  0
LINE
  5
374
330
1F
100
AcDbEntity
  8
0
  6
Continuous
 62
     7
370
    15
100
AcDbLine
 10
129.4471330645
 20
100.2062172917
 30
0.0
 11
126.947133586
 21
100.2062172917
 31
0.0
  0
LINE
  5
375
330
1F
100
AcDbEntity
  8
0
  6
Continuous
 62
     7
370
    15
100
AcDbLine
 10
126.947133586
 20
100.2062172917
 30
0.0
 11
126.947133586
 21
102.2331058336
 31
0.0
  0
LINE
  5
376
330
1F
100
AcDbEntity
  8
0
  6
Continuous
 62
     7
370
    15
100
AcDbLine
 10
126.947133586
 20
102.2331058336
 30
0.0
 11
129.4471330645
 21
102.2331058336
 31
0.0
  0
LINE
  5
377
330
1F
100
AcDbEntity
  8
0
  6
Continuous
 62
     7
370
    15
100
AcDbLine
 10
129.4471330645
 20
100.2062172917
 30
0.0
 11
129.4471330645
 21
100.2572388676
 31
0.0
  0
LINE
  5
378
330
1F
100
AcDbEntity
  8
0
  6
Continuous
 62
     7
370
    15
100
AcDbLine
 10
129.4471330645
 20
102.1820833263
 30
0.0
 11
129.4471330645
 21
102.2331058336
 31
0.0
  0
LINE
  5
379
330
1F
100
AcDbEntity
  8
0
  6
Continuous
 62
     7
370
    15
100
AcDbLine
 10
129.4471330645
 20
96.1562176523
 30
0.0
 11
126.947133586
 21
96.1562176523
 31
0.0
  0
LINE
  5
37A
330
1F
100
AcDbEntity
  8
0
  6
Continuous
 62
     7
370
    15
100
AcDbLine
 10
126.947133586
 20
96.1562176523
 30
0.0
 11
126.947133586
 21
100.2062172917
 31
0.0
  0
LINE
  5
37B
330
1F
100
AcDbEntity
  8
0
  6
Continuous
 62
     7
370
    15
100
AcDbLine
 10
129.4471330645
 20
96.1562176523
 30
0.0
 11
129.4471330645
 21
96.2581667406
 31
0.0
  0
LINE
  5
37C
330
1F
100
AcDbEntity
  8
0
  6
Continuous
 62
     7
370
    15
100
AcDbLine
 10
129.4471330645
 20
100.1042682034
 30
0.0
 11
129.4471330645
 21
100.2062172917
 31
0.0
  0
LINE
  5
37D
330
1F
100
AcDbEntity
  8
0
  6
Continuous
 62
     7
370
    15
100
AcDbLine
 10
129.4471330645
 20
94.1331065548
 30
0.0
 11
126.947133586
 21
94.1331065548
 31
0.0
  0
LINE
  5
37E
330
1F
100
AcDbEntity
  8
0
  6
Continuous
 62
     7
370
    15
100
AcDbLine
 10
129.4471330645
 20
94.1331065548
 30
0.0
 11
129.4471330645
 21
94.1840336015
 31
0.0
  0
LINE
  5
37F
330
1F
100
AcDbEntity
  8
0
  6
Continuous
 62
     7
370
    15
100
AcDbLine
 10
129.4471330645
 20
96.1052910713
 30
0.0
 11
129.4471330645
 21
96.1562176523
 31
0.0
  0
LINE
  5
380
330
1F
100
AcDbEntity
  8
0
  6
Continuous
 62
     7
370
    15
100
AcDbLine
 10
126.947133586
 20
94.1331065548
 30
0.0
 11
126.947133586
 21
96.1562176523
 31
0.0
  0
LINE
  5
381
330
1F
100
AcDbEntity
  8
0
  6
Continuous
 62
     7
370
    15
100
AcDbLine
 10
119.9471343013
 20
96.6831059483
 30
0.0
 11
119.9471343013
 21
99.68310644
 31
0.0
  0
LINE
  5
382
330
1F
100
AcDbEntity
  8
0
  6
Continuous
 62
     7
370
    15
100
AcDbLine
 10
122.4471319171
 20
99.0572902662
 30
0.0
 11
122.4471319171
 21
99.9331060153
 31
0.0
  0
LINE
  5
383
330
1F
100
AcDbEntity
  8
0
  6
Continuous
 62
     7
370
    15
100
AcDbLine
 10
122.4471319171
 20
96.4331059073
 30
0.0
 11
122.4471319171
 21
99.0572902662
 31
0.0
  0
LINE
  5
384
330
1F
100
AcDbEntity
  8
0
  6
Continuous
 62
     7
370
    15
100
AcDbLine
 10
124.9471332582
 20
99.0572902662
 30
0.0
 11
124.9471332582
 21
99.9331060153
 31
0.0
  0
LINE
  5
385
330
1F
100
AcDbEntity
  8
0
  6
Continuous
 62
     7
370
    15
100
AcDbLine
 10
124.9471332582
 20
96.4331059073
 30
0.0
 11
124.9471332582
 21
99.0572902662
 31
0.0
  0
LINE
  5
386
330
1F
100
AcDbEntity
  8
0
  6
Continuous
 62
     7
370
    15
100
AcDbLine
 10
129.4471330645
 20
99.0030612153
 30
0.0
 11
129.4471330645
 21
100.1042682034
 31
0.0
  0
LINE
  5
387
330
1F
100
AcDbEntity
  8
0
  6
Continuous
 62
     7
370
    15
100
AcDbLine
 10
129.4471330645
 20
100.2572388676
 30
0.0
 11
129.4471330645
 21
102.1820833263
 31
0.0
  0
LINE
  5
388
330
1F
100
AcDbEntity
  8
0
  6
Continuous
 62
     7
370
    15
100
AcDbLine
 10
129.4471330645
 20
94.1840336015
 30
0.0
 11
129.4471330645
 21
96.1052910713
 31
0.0
  0
LINE
  5
389
330
1F
100
AcDbEntity
  8
0
  6
Continuous
 62
     7
370
    15
100
AcDbLine
 10
129.4471330645
 20
96.2581667406
 30
0.0
 11
129.4471330645
 21
99.0030612153
 31
0.0
  0
LINE
  5
38A
330
1F
100
AcDbEntity
  8
0
  6
Continuous
 62
     7
370
    15
100
AcDbLine
 10
159.4471328596
 20
99.0030612153
 30
0.0
 11
159.4471328596
 21
99.773537862
 31
0.0
  0
LINE
  5
38B
330
1F
100
AcDbEntity
  8
0
  6
Continuous
 62
     7
370
    15
100
AcDbLine
 10
159.4471328596
 20
99.9339721453
 30
0.0
 11
159.4471328596
 21
102.1568267894
 31
0.0
  0
LINE
  5
38C
330
1F
100
AcDbEntity
  8
0
  6
Continuous
 62
     7
370
    15
100
AcDbLine
 10
159.4471328596
 20
94.1831060042
 30
0.0
 11
159.4471328596
 21
95.7998172668
 31
0.0
  0
LINE
  5
38D
330
1F
100
AcDbEntity
  8
0
  6
Continuous
 62
     7
370
    15
100
AcDbLine
 10
159.4471328596
 20
95.9439198774
 30
0.0
 11
159.4471328596
 21
99.0030612153
 31
0.0
  0
DIMENSION
  5
38E
330
1F
100
AcDbEntity
  8
0
  6
Continuous
 62
     7
370
     0
100
AcDbDimension
  2
_D_7
 10
150.9471326799
 20
116.9229913987
 30
0.0
 11
144.608943393
 21
116.9229913987
 31
0.0
 70
   160
  1
<>
 71
     2
 42
-1.0
  3
SLDDIMSTYLE0
100
AcDbAlignedDimension
 13
137.9471326799
 23
112.1831059867
 33
0.0
 14
150.9471326799
 24
112.1831059867
 34
0.0
100
AcDbRotatedDimension
  0
DIMENSION
  5
398
330
1F
100
AcDbEntity
  8
0
  6
Continuous
 62
     7
370
     0
100
AcDbDimension
  2
_D_8
 10
158.6471326799
 20
124.4738239329
 30
0.0
 11
144.608943393
 21
124.4738239329
 31
0.0
 70
   160
  1
<>
 71
     2
 42
-1.0
  3
SLDDIMSTYLE5
100
AcDbAlignedDimension
 13
130.2471326799
 23
106.167465698
 33
0.0
 14
158.6471326799
 24
106.167465698
 34
0.0
100
AcDbRotatedDimension
  0
DIMENSION
  5
3A3
330
1F
100
AcDbEntity
  8
0
  6
Continuous
 62
     7
370
     0
100
AcDbDimension
  2
_D_9
 10
178.4471326799
 20
81.6831059867
 30
0.0
 11
178.4471326799
 21
95.1511995833
 31
0.0
 70
   160
  1
<>
 71
     2
 42
-1.0
  3
SLDDIMSTYLE0
100
AcDbAlignedDimension
 13
155.1314923912
 23
109.6831059867
 33
0.0
 14
168.4471326799
 24
81.6831059867
 34
0.0
 50
90.0
100
AcDbRotatedDimension
  0
INSERT
  5
3B8
330
1F
100
AcDbEntity
  8
0
  6
Continuous
 62
     7
370
     0
100
AcDbBlockReference
  2
SW_CENTERMARKSYMBOL_2
 10
144.4471326799
 20
98.1831059867
 30
0.0
  0
INSERT
  5
3C4
330
1F
100
AcDbEntity
  8
0
  6
Continuous
 62
     7
370
     0
100
AcDbBlockReference
  2
SW_CENTERMARKSYMBOL_3
 10
150.9471326799
 20
107.4331059867
 30
0.0
  0
INSERT
  5
3D0
330
1F
100
AcDbEntity
  8
0
  6
Continuous
 62
     7
370
     0
100
AcDbBlockReference
  2
SW_CENTERMARKSYMBOL_4
 10
137.9471326799
 20
107.4331059867
 30
0.0
  0
INSERT
  5
3DC
330
1F
100
AcDbEntity
  8
0
  6
Continuous
 62
     7
370
     0
100
AcDbBlockReference
  2
SW_CENTERMARKSYMBOL_5
 10
137.9471326799
 20
88.9331059867
 30
0.0
  0
INSERT
  5
3E8
330
1F
100
AcDbEntity
  8
0
  6
Continuous
 62
     7
370
     0
100
AcDbBlockReference
  2
SW_CENTERMARKSYMBOL_6
 10
150.9471326799
 20
88.9331059867
 30
0.0
  0
LINE
  5
3E9
330
1F
100
AcDbEntity
  8
0
  6
CENTERX2
 62
     7
370
     0
100
AcDbLine
 10
125.4471326799
 20
87.1831059867
 30
0.0
 11
125.4471326799
 21
79.6831059867
 31
0.0
  0
LINE
  5
3EA
330
1F
100
AcDbEntity
  8
0
  6
CENTERX2
 62
     7
370
     0
100
AcDbLine
 10
163.4471326799
 20
87.1831059867
 30
0.0
 11
163.4471326799
 21
79.6831059867
 31
0.0
  0
LINE
  5
3EB
330
1F
100
AcDbEntity
  8
0
  6
CENTERX2
 62
     7
370
     0
100
AcDbLine
 10
135.7471327298
 20
98.1831059867
 30
0.0
 11
128.2471326799
 21
98.1831059867
 31
0.0
  0
LINE
  5
3EC
330
1F
100
AcDbEntity
  8
0
  6
CENTERX2
 62
     7
370
     0
100
AcDbLine
 10
160.6471326799
 20
98.1831059867
 30
0.0
 11
153.1471326299
 21
98.1831059867
 31
0.0
  0
LINE
  5
3ED
330
1F
100
AcDbEntity
  8
0
  6
Continuous
 62
     7
370
    15
100
AcDbLine
 10
35.5404010113
 20
106.8136986005
 30
0.0
 11
32.5404010113
 21
106.8136986005
 31
0.0
  0
LINE
  5
3EE
330
1F
100
AcDbEntity
  8
0
  6
Continuous
 62
     7
370
    15
100
AcDbLine
 10
84.5404010113
 20
106.8647737326
 30
0.0
 11
35.5404010113
 21
106.8647737326
 31
0.0
  0
ARC
  5
3EF
330
1F
100
AcDbEntity
  8
0
  6
Continuous
 62
     7
370
    15
100
AcDbCircle
 10
33.7457087714
 20
87.6831059867
 30
0.0
 40
1.0
100
AcDbArc
 50
216.3843518158
 51
270.0
  0
ARC
  5
3F0
330
1F
100
AcDbEntity
  8
0
  6
Continuous
 62
     7
370
    15
100
AcDbCircle
 10
33.7457087714
 20
90.1831059867
 30
0.0
 40
1.000000000000003
100
AcDbArc
 50
90.0
 51
143.6156481842
  0
LINE
  5
3F1
330
1F
100
AcDbEntity
  8
0
  6
Continuous
 62
     7
370
    15
100
AcDbLine
 10
34.0404010113
 20
91.1831059867
 30
0.0
 11
33.7457087714
 21
91.1831059867
 31
0.0
  0
LINE
  5
3F2
330
1F
100
AcDbEntity
  8
0
  6
Continuous
 62
     7
370
    15
100
AcDbLine
 10
33.7457087714
 20
86.6831059867
 30
0.0
 11
34.0404010113
 21
86.6831059867
 31
0.0
  0
LINE
  5
3F3
330
1F
100
AcDbEntity
  8
0
  6
Continuous
 62
     7
370
    15
100
AcDbLine
 10
32.9406529341
 20
90.7763050247
 30
0.0
 11
32.6378730926
 21
90.3653895256
 31
0.0
  0
LINE
  5
3F4
330
1F
100
AcDbEntity
  8
0
  6
Continuous
 62
     7
370
    15
100
AcDbLine
 10
32.6378730926
 20
87.5008224477
 30
0.0
 11
32.9406529341
 21
87.0899069486
 31
0.0
  0
ARC
  5
3F5
330
1F
100
AcDbEntity
  8
0
  6
Continuous
 62
     7
370
    15
100
AcDbCircle
 10
33.0404010113
 20
90.0687900066
 30
0.0
 40
0.5000000000000059
100
AcDbArc
 50
143.6156481842
 51
180.0
  0
ARC
  5
3F6
330
1F
100
AcDbEntity
  8
0
  6
Continuous
 62
     7
370
    15
100
AcDbCircle
 10
33.0404010113
 20
87.7974219667
 30
0.0
 40
0.5
100
AcDbArc
 50
180.0
 51
216.3843518158
  0
LINE
  5
3F7
330
1F
100
AcDbEntity
  8
0
  6
Continuous
 62
     7
370
    15
100
AcDbLine
 10
86.0404010113
 20
86.6831059867
 30
0.0
 11
86.3350932512
 21
86.6831059867
 31
0.0
  0
LINE
  5
3F8
330
1F
100
AcDbEntity
  8
0
  6
Continuous
 62
     7
370
    15
100
AcDbLine
 10
86.3350932512
 20
91.1831059867
 30
0.0
 11
86.0404010113
 21
91.1831059867
 31
0.0
  0
ARC
  5
3F9
330
1F
100
AcDbEntity
  8
0
  6
Continuous
 62
     7
370
    15
100
AcDbCircle
 10
86.3350932512
 20
90.1831059867
 30
0.0
 40
1.000000000000006
100
AcDbArc
 50
36.3843518158
 51
90.0
  0
ARC
  5
3FA
330
1F
100
AcDbEntity
  8
0
  6
Continuous
 62
     7
370
    15
100
AcDbCircle
 10
86.3350932512
 20
87.6831059867
 30
0.0
 40
1.000000000000015
100
AcDbArc
 50
270.0
 51
323.6156481842
  0
LINE
  5
3FB
330
1F
100
AcDbEntity
  8
0
  6
Continuous
 62
     7
370
    15
100
AcDbLine
 10
87.1401490885
 20
87.0899069486
 30
0.0
 11
87.44292893
 21
87.5008224477
 31
0.0
  0
LINE
  5
3FC
330
1F
100
AcDbEntity
  8
0
  6
Continuous
 62
     7
370
    15
100
AcDbLine
 10
87.44292893
 20
90.3653895256
 30
0.0
 11
87.1401490885
 21
90.7763050247
 31
0.0
  0
ARC
  5
3FD
330
1F
100
AcDbEntity
  8
0
  6
Continuous
 62
     7
370
    15
100
AcDbCircle
 10
87.0404010113
 20
87.7974219667
 30
0.0
 40
0.5
100
AcDbArc
 50
323.6156481842
 51
0.0
  0
ARC
  5
3FE
330
1F
100
AcDbEntity
  8
0
  6
Continuous
 62
     7
370
    15
100
AcDbCircle
 10
87.0404010113
 20
90.0687900066
 30
0.0
 40
0.5000000000000059
100
AcDbArc
 50
0.0
 51
36.3843518158
  0
ARC
  5
3FF
330
1F
100
AcDbEntity
  8
0
  6
Continuous
 62
     7
370
    15
100
AcDbCircle
 10
33.7457087714
 20
108.6831059867
 30
0.0
 40
1.0
100
AcDbArc
 50
90.0
 51
143.6156481842
  0
LINE
  5
400
330
1F
100
AcDbEntity
  8
0
  6
Continuous
 62
     7
370
    15
100
AcDbLine
 10
34.0404010113
 20
109.6831059867
 30
0.0
 11
33.7457087714
 21
109.6831059867
 31
0.0
  0
LINE
  5
401
330
1F
100
AcDbEntity
  8
0
  6
Continuous
 62
     7
370
    15
100
AcDbLine
 10
32.9406529341
 20
109.2763050247
 30
0.0
 11
32.6378730926
 21
108.8653895256
 31
0.0
  0
ARC
  5
402
330
1F
100
AcDbEntity
  8
0
  6
Continuous
 62
     7
370
    15
100
AcDbCircle
 10
33.0404010113
 20
108.5687900066
 30
0.0
 40
0.5000000000000059
100
AcDbArc
 50
143.6156481842
 51
180.0
  0
LINE
  5
403
330
1F
100
AcDbEntity
  8
0
  6
Continuous
 62
     7
370
    15
100
AcDbLine
 10
90.0404010113
 20
95.1831059867
 30
0.0
 11
90.0404010113
 21
95.5373546756
 31
0.0
  0
LINE
  5
404
330
1F
100
AcDbEntity
  8
0
  6
Continuous
 62
     7
370
    15
100
AcDbLine
 10
87.5404010113
 20
95.1831059867
 30
0.0
 11
90.0404010113
 21
95.1831059867
 31
0.0
  0
LINE
  5
405
330
1F
100
AcDbEntity
  8
0
  6
Continuous
 62
     7
370
    15
100
AcDbLine
 10
87.5404010113
 20
101.1831059867
 30
0.0
 11
90.0404010113
 21
101.1831059867
 31
0.0
  0
LINE
  5
406
330
1F
100
AcDbEntity
  8
0
  6
Continuous
 62
     7
370
    15
100
AcDbLine
 10
90.0404010113
 20
100.8288572977
 30
0.0
 11
90.0404010113
 21
101.1831059867
 31
0.0
  0
LINE
  5
407
330
1F
100
AcDbEntity
  8
0
  6
Continuous
 62
     7
370
    15
100
AcDbLine
 10
87.5404010113
 20
100.8288572977
 30
0.0
 11
90.0404010113
 21
100.8288572977
 31
0.0
  0
LINE
  5
408
330
1F
100
AcDbEntity
  8
0
  6
Continuous
 62
     7
370
    15
100
AcDbLine
 10
87.5404010113
 20
95.5373546756
 30
0.0
 11
90.0404010113
 21
95.5373546756
 31
0.0
  0
SPLINE
  5
409
330
1F
100
AcDbEntity
  8
0
  6
Continuous
 62
     7
370
    15
100
AcDbSpline
210
0.0
220
0.0
230
1.0
 70
     8
 71
     3
 72
     8
 73
     4
 74
     0
 42
0.00000001
 43
0.00000001
 12
1.0
 22
0.0
 32
0.0
 13
1.0
 23
0.0
 33
0.0
 40
0.0
 40
0.0
 40
0.0
 40
0.0
 40
1.0
 40
1.0
 40
1.0
 40
1.0
 10
90.04040101131658
 20
95.53735467559046
 30
0.0
 10
90.22085183341952
 20
95.81017067511135
 30
0.0
 10
90.39053519348641
 20
96.0893732539706
 30
0.0
 10
90.54040101131658
 20
96.38033034892305
 30
0.0
  0
SPLINE
  5
40A
330
1F
100
AcDbEntity
  8
0
  6
Continuous
 62
     7
370
    15
100
AcDbSpline
210
0.0
220
0.0
230
1.0
 70
     8
 71
     3
 72
     8
 73
     4
 74
     0
 42
0.00000001
 43
0.00000001
 12
1.0
 22
0.0
 32
0.0
 13
1.0
 23
0.0
 33
0.0
 40
0.0
 40
0.0
 40
0.0
 40
0.0
 40
1.0
 40
1.0
 40
1.0
 40
1.0
 10
90.54040101131658
 20
99.98588162438705
 30
0.0
 10
90.39053519348641
 20
100.2768387193395
 30
0.0
 10
90.22085183341952
 20
100.5560412981987
 30
0.0
 10
90.04040101131658
 20
100.8288572977197
 30
0.0
  0
LINE
  5
40B
330
1F
100
AcDbEntity
  8
0
  6
Continuous
 62
     7
370
    15
100
AcDbLine
 10
90.5404010113
 20
99.9858816244
 30
0.0
 11
90.5404010113
 21
96.3803303489
 31
0.0
  0
LINE
  5
40C
330
1F
100
AcDbEntity
  8
0
  6
Continuous
 62
     7
370
    15
100
AcDbLine
 10
90.5404010113
 20
96.3803303489
 30
0.0
 11
90.5404010113
 21
95.1831059867
 31
0.0
  0
SPLINE
  5
40D
330
1F
100
AcDbEntity
  8
0
  6
Continuous
 62
     7
370
    15
100
AcDbSpline
210
0.0
220
0.0
230
1.0
 70
    24
 71
     3
 72
     8
 73
     4
 74
     0
 42
0.00000001
 43
0.00000001
 12
1.0
 22
0.0
 32
0.0
 13
1.0
 23
0.0
 33
0.0
 40
0.0
 40
0.0
 40
0.0
 40
0.0
 40
1.0
 40
1.0
 40
1.0
 40
1.0
 10
90.54040101131658
 20
95.18310598665505
 30
0.0
 10
90.39053519348641
 20
95.18310598665505
 30
0.0
 10
90.22085183341952
 20
95.18310598665505
 30
0.0
 10
90.04040101131658
 20
95.18310598665505
 30
0.0
  0
SPLINE
  5
40E
330
1F
100
AcDbEntity
  8
0
  6
Continuous
 62
     7
370
    15
100
AcDbSpline
210
0.0
220
0.0
230
1.0
 70
    24
 71
     3
 72
     8
 73
     4
 74
     0
 42
0.00000001
 43
0.00000001
 12
1.0
 22
0.0
 32
0.0
 13
1.0
 23
0.0
 33
0.0
 40
0.0
 40
0.0
 40
0.0
 40
0.0
 40
1.0
 40
1.0
 40
1.0
 40
1.0
 10
90.04040101131658
 20
101.1831059866551
 30
0.0
 10
90.22085183341952
 20
101.1831059866551
 30
0.0
 10
90.39053519348641
 20
101.1831059866551
 30
0.0
 10
90.54040101131658
 20
101.1831059866551
 30
0.0
  0
LINE
  5
40F
330
1F
100
AcDbEntity
  8
0
  6
Continuous
 62
     7
370
    15
100
AcDbLine
 10
90.5404010113
 20
101.1831059867
 30
0.0
 11
90.5404010113
 21
99.9858816244
 31
0.0
  0
LINE
  5
410
330
1F
100
AcDbEntity
  8
0
  6
Continuous
 62
     7
370
    15
100
AcDbLine
 10
32.7404010113
 20
106.167465698
 30
0.0
 11
32.7404010113
 21
94.1831059867
 31
0.0
  0
LINE
  5
411
330
1F
100
AcDbEntity
  8
0
  6
Continuous
 62
     7
370
    15
100
AcDbLine
 10
32.7404010113
 20
94.1831059867
 30
0.0
 11
32.5404010113
 21
93.9303885954
 31
0.0
  0
LINE
  5
412
330
1F
100
AcDbEntity
  8
0
  6
Continuous
 62
     7
370
    15
100
AcDbLine
 10
32.5404010113
 20
93.9303885954
 30
0.0
 11
32.5404010113
 21
106.448092375
 31
0.0
  0
ARC
  5
413
330
1F
100
AcDbEntity
  8
0
  6
Continuous
 62
     7
370
    15
100
AcDbCircle
 10
21.2404010113
 20
98.1831059867
 30
0.0
 40
13.99999999999984
100
AcDbArc
 50
34.7719440319
 51
36.1822872212
  0
LINE
  5
414
330
1F
100
AcDbEntity
  8
0
  6
Continuous
 62
     7
370
    15
100
AcDbLine
 10
35.5404010113
 20
94.1831059867
 30
0.0
 11
35.5404010113
 21
91.3036364383
 31
0.0
  0
LINE
  5
415
330
1F
100
AcDbEntity
  8
0
  6
Continuous
 62
     7
370
    15
100
AcDbLine
 10
34.0404010113
 20
91.3036364383
 30
0.0
 11
35.5404010113
 21
91.3036364383
 31
0.0
  0
LINE
  5
416
330
1F
100
AcDbEntity
  8
0
  6
Continuous
 62
     7
370
    15
100
AcDbLine
 10
34.0404010113
 20
91.6831059867
 30
0.0
 11
34.0404010113
 21
91.3036364383
 31
0.0
  0
LINE
  5
417
330
1F
100
AcDbEntity
  8
0
  6
Continuous
 62
     7
370
    15
100
AcDbLine
 10
34.0404010113
 20
91.6831059867
 30
0.0
 11
32.5404010113
 21
91.6831059867
 31
0.0
  0
LINE
  5
418
330
1F
100
AcDbEntity
  8
0
  6
Continuous
 62
     7
370
    15
100
AcDbLine
 10
32.5404010113
 20
93.9303885954
 30
0.0
 11
32.5404010113
 21
91.6831059867
 31
0.0
  0
LINE
  5
419
330
1F
100
AcDbEntity
  8
0
  6
Continuous
 62
     7
370
    15
100
AcDbLine
 10
32.7404010113
 20
94.1831059867
 30
0.0
 11
35.5404010113
 21
94.1831059867
 31
0.0
  0
LINE
  5
41A
330
1F
100
AcDbEntity
  8
0
  6
Continuous
 62
     7
370
    15
100
AcDbLine
 10
35.5404010113
 20
106.6961203365
 30
0.0
 11
32.5404010113
 21
106.6961203365
 31
0.0
  0
LINE
  5
41B
330
1F
100
AcDbEntity
  8
0
  6
Continuous
 62
     7
370
    15
100
AcDbLine
 10
35.5404010113
 20
106.6961203365
 30
0.0
 11
35.5404010113
 21
106.167465698
 31
0.0
  0
LINE
  5
41C
330
1F
100
AcDbEntity
  8
0
  6
Continuous
 62
     7
370
    15
100
AcDbLine
 10
32.7404010113
 20
106.167465698
 30
0.0
 11
35.5404010113
 21
106.167465698
 31
0.0
  0
LINE
  5
41D
330
1F
100
AcDbEntity
  8
0
  6
Continuous
 62
     7
370
    15
100
AcDbLine
 10
32.5404010113
 20
106.6961203365
 30
0.0
 11
32.5404010113
 21
106.448092375
 31
0.0
  0
LINE
  5
41E
330
1F
100
AcDbEntity
  8
0
  6
Continuous
 62
     7
370
    15
100
AcDbLine
 10
35.5404010113
 20
106.167465698
 30
0.0
 11
35.5404010113
 21
94.1831059867
 31
0.0
  0
LINE
  5
41F
330
1F
100
AcDbEntity
  8
0
  6
Continuous
 62
     7
370
    15
100
AcDbLine
 10
32.5404010113
 20
106.6961203365
 30
0.0
 11
32.5404010113
 21
106.8136986005
 31
0.0
  0
LINE
  5
420
330
1F
100
AcDbEntity
  8
0
  6
Continuous
 62
     7
370
    15
100
AcDbLine
 10
34.0404010113
 20
108.332917204
 30
0.0
 11
34.0404010113
 21
106.9839223451
 31
0.0
  0
LINE
  5
421
330
1F
100
AcDbEntity
  8
0
  6
Continuous
 62
     7
370
    15
100
AcDbLine
 10
35.5404010113
 20
108.332917204
 30
0.0
 11
34.0404010113
 21
108.332917204
 31
0.0
  0
LINE
  5
422
330
1F
100
AcDbEntity
  8
0
  6
Continuous
 62
     7
370
    15
100
AcDbLine
 10
34.0404010113
 20
89.9738547776
 30
0.0
 11
35.5404010113
 21
89.9738547776
 31
0.0
  0
LINE
  5
423
330
1F
100
AcDbEntity
  8
0
  6
Continuous
 62
     7
370
    15
100
AcDbLine
 10
34.0404010113
 20
91.3036364383
 30
0.0
 11
34.0404010113
 21
89.9738547776
 31
0.0
  0
LINE
  5
424
330
1F
100
AcDbEntity
  8
0
  6
Continuous
 62
     7
370
    15
100
AcDbLine
 10
35.5404010113
 20
91.3036364383
 30
0.0
 11
35.5404010113
 21
89.9738547776
 31
0.0
  0
LINE
  5
425
330
1F
100
AcDbEntity
  8
0
  6
Continuous
 62
     7
370
    15
100
AcDbLine
 10
35.5404010113
 20
108.8471509784
 30
0.0
 11
34.0404010113
 21
108.8471509784
 31
0.0
  0
LINE
  5
426
330
1F
100
AcDbEntity
  8
0
  6
Continuous
 62
     7
370
    15
100
AcDbLine
 10
34.0404010113
 20
108.8471509784
 30
0.0
 11
34.0404010113
 21
109.2974474732
 31
0.0
  0
LINE
  5
427
330
1F
100
AcDbEntity
  8
0
  6
Continuous
 62
     7
370
    15
100
AcDbLine
 10
34.0404010113
 20
109.2974474732
 30
0.0
 11
35.5404010113
 21
109.2974474732
 31
0.0
  0
LINE
  5
428
330
1F
100
AcDbEntity
  8
0
  6
Continuous
 62
     7
370
    15
100
AcDbLine
 10
35.5404010113
 20
86.6831059867
 30
0.0
 11
34.0404010113
 21
86.6831059867
 31
0.0
  0
LINE
  5
429
330
1F
100
AcDbEntity
  8
0
  6
Continuous
 62
     7
370
    15
100
AcDbLine
 10
34.0404010113
 20
89.9738547776
 30
0.0
 11
34.0404010113
 21
86.6831059867
 31
0.0
  0
LINE
  5
42A
330
1F
100
AcDbEntity
  8
0
  6
Continuous
 62
     7
370
    15
100
AcDbLine
 10
35.5404010113
 20
89.9738547776
 30
0.0
 11
35.5404010113
 21
89.9467926058
 31
0.0
  0
LINE
  5
42B
330
1F
100
AcDbEntity
  8
0
  6
Continuous
 62
     7
370
    15
100
AcDbLine
 10
35.5404010113
 20
89.5406699864
 30
0.0
 11
35.5404010113
 21
87.9740623053
 31
0.0
  0
LINE
  5
42C
330
1F
100
AcDbEntity
  8
0
  6
Continuous
 62
     7
370
    15
100
AcDbLine
 10
35.5404010113
 20
87.4866621368
 30
0.0
 11
35.5404010113
 21
86.845027163
 31
0.0
  0
LINE
  5
42D
330
1F
100
AcDbEntity
  8
0
  6
Continuous
 62
     7
370
    15
100
AcDbLine
 10
34.0404010113
 20
108.332917204
 30
0.0
 11
34.0404010113
 21
108.8471509784
 31
0.0
  0
LINE
  5
42E
330
1F
100
AcDbEntity
  8
0
  6
Continuous
 62
     7
370
    15
100
AcDbLine
 10
35.5404010113
 20
108.8471509784
 30
0.0
 11
35.5404010113
 21
108.332917204
 31
0.0
  0
LINE
  5
42F
330
1F
100
AcDbEntity
  8
0
  6
Continuous
 62
     7
370
    15
100
AcDbLine
 10
34.0404010113
 20
109.6831059867
 30
0.0
 11
35.5404010113
 21
109.6831059867
 31
0.0
  0
LINE
  5
430
330
1F
100
AcDbEntity
  8
0
  6
Continuous
 62
     7
370
    15
100
AcDbLine
 10
34.0404010113
 20
109.6831059867
 30
0.0
 11
34.0404010113
 21
109.2974474732
 31
0.0
  0
LINE
  5
431
330
1F
100
AcDbEntity
  8
0
  6
Continuous
 62
     7
370
    15
100
AcDbLine
 10
35.5404010113
 20
109.6831059867
 30
0.0
 11
35.5404010113
 21
109.2974474732
 31
0.0
  0
LINE
  5
432
330
1F
100
AcDbEntity
  8
0
  6
Continuous
 62
     7
370
    15
100
AcDbLine
 10
32.5404010113
 20
91.6831059867
 30
0.0
 11
32.5404010113
 21
90.0687900066
 31
0.0
  0
ARC
  5
433
330
1F
100
AcDbEntity
  8
0
  6
Continuous
 62
     7
370
    15
100
AcDbCircle
 10
63.5404010113
 20
84.1831059867
 30
0.0
 40
1.000000000000007
100
AcDbArc
 50
0.0
 51
90.0
  0
LINE
  5
434
330
1F
100
AcDbEntity
  8
0
  6
Continuous
 62
     7
370
    15
100
AcDbLine
 10
63.5404010113
 20
85.1831059867
 30
0.0
 11
83.5404010113
 21
85.1831059867
 31
0.0
  0
ARC
  5
435
330
1F
100
AcDbEntity
  8
0
  6
Continuous
 62
     7
370
    15
100
AcDbCircle
 10
83.5404010113
 20
84.1831059867
 30
0.0
 40
1.0
100
AcDbArc
 50
90.0
 51
180.0
  0
LINE
  5
436
330
1F
100
AcDbEntity
  8
0
  6
Continuous
 62
     7
370
    15
100
AcDbLine
 10
82.5404010113
 20
84.1831059867
 30
0.0
 11
64.5404010113
 21
84.1831059867
 31
0.0
  0
LINE
  5
437
330
1F
100
AcDbEntity
  8
0
  6
Continuous
 62
     7
370
    15
100
AcDbLine
 10
64.5404010113
 20
84.1831059867
 30
0.0
 11
64.5404010113
 21
81.6831059867
 31
0.0
  0
LINE
  5
438
330
1F
100
AcDbEntity
  8
0
  6
Continuous
 62
     7
370
    15
100
AcDbLine
 10
62.5404010113
 20
81.6831059867
 30
0.0
 11
62.5404010113
 21
85.1831059867
 31
0.0
  0
LINE
  5
439
330
1F
100
AcDbEntity
  8
0
  6
Continuous
 62
     7
370
    15
100
AcDbLine
 10
62.5404010113
 20
85.1831059867
 30
0.0
 11
63.5404010113
 21
85.1831059867
 31
0.0
  0
LINE
  5
43A
330
1F
100
AcDbEntity
  8
0
  6
Continuous
 62
     7
370
    15
100
AcDbLine
 10
64.5404010113
 20
81.6831059867
 30
0.0
 11
62.5404010113
 21
81.6831059867
 31
0.0
  0
LINE
  5
43B
330
1F
100
AcDbEntity
  8
0
  6
Continuous
 62
     7
370
    15
100
AcDbLine
 10
82.5404010113
 20
81.6831059867
 30
0.0
 11
82.5404010113
 21
84.1831059867
 31
0.0
  0
LINE
  5
43C
330
1F
100
AcDbEntity
  8
0
  6
Continuous
 62
     7
370
    15
100
AcDbLine
 10
64.5404010113
 20
81.6831059867
 30
0.0
 11
82.5404010113
 21
81.6831059867
 31
0.0
  0
LINE
  5
43D
330
1F
100
AcDbEntity
  8
0
  6
Continuous
 62
     7
370
    15
100
AcDbLine
 10
83.5404010113
 20
85.1831059867
 30
0.0
 11
84.5404010113
 21
85.1831059867
 31
0.0
  0
LINE
  5
43E
330
1F
100
AcDbEntity
  8
0
  6
Continuous
 62
     7
370
    15
100
AcDbLine
 10
84.5404010113
 20
85.1831059867
 30
0.0
 11
84.5404010113
 21
81.6831059867
 31
0.0
  0
LINE
  5
43F
330
1F
100
AcDbEntity
  8
0
  6
Continuous
 62
     7
370
    15
100
AcDbLine
 10
84.5404010113
 20
81.6831059867
 30
0.0
 11
82.5404010113
 21
81.6831059867
 31
0.0
  0
LINE
  5
440
330
1F
100
AcDbEntity
  8
0
  6
Continuous
 62
     7
370
    15
100
AcDbLine
 10
62.5404010113
 20
85.527071018
 30
0.0
 11
84.5404010113
 21
85.527071018
 31
0.0
  0
LINE
  5
441
330
1F
100
AcDbEntity
  8
0
  6
Continuous
 62
     7
370
    15
100
AcDbLine
 10
84.5404010113
 20
85.527071018
 30
0.0
 11
84.5404010113
 21
85.1831059867
 31
0.0
  0
LINE
  5
442
330
1F
100
AcDbEntity
  8
0
  6
Continuous
 62
     7
370
    15
100
AcDbLine
 10
62.5404010113
 20
85.527071018
 30
0.0
 11
62.5404010113
 21
85.1831059867
 31
0.0
  0
LINE
  5
443
330
1F
100
AcDbEntity
  8
0
  6
Continuous
 62
     7
370
    15
100
AcDbLine
 10
35.5404010113
 20
106.167465698
 30
0.0
 11
84.5404010113
 21
106.167465698
 31
0.0
  0
LINE
  5
444
330
1F
100
AcDbEntity
  8
0
  6
Continuous
 62
     7
370
    15
100
AcDbLine
 10
35.5404010113
 20
106.167465698
 30
0.0
 11
35.5404010113
 21
106.7876964535
 31
0.0
  0
LINE
  5
445
330
1F
100
AcDbEntity
  8
0
  6
Continuous
 62
     7
370
    15
100
AcDbLine
 10
84.5404010113
 20
106.7876964535
 30
0.0
 11
35.5404010113
 21
106.7876964535
 31
0.0
  0
LINE
  5
446
330
1F
100
AcDbEntity
  8
0
  6
Continuous
 62
     7
370
    15
100
AcDbLine
 10
84.5404010113
 20
106.167465698
 30
0.0
 11
84.5404010113
 21
106.7876964535
 31
0.0
  0
LINE
  5
447
330
1F
100
AcDbEntity
  8
0
  6
Continuous
 62
     7
370
    15
100
AcDbLine
 10
35.5404010113
 20
94.1831059867
 30
0.0
 11
39.2330247058
 21
94.1831059867
 31
0.0
  0
LINE
  5
448
330
1F
100
AcDbEntity
  8
0
  6
Continuous
 62
     7
370
    15
100
AcDbLine
 10
39.3831788479
 20
94.1831059867
 30
0.0
 11
77.4517264894
 21
94.1831059867
 31
0.0
  0
LINE
  5
449
330
1F
100
AcDbEntity
  8
0
  6
Continuous
 62
     7
370
    15
100
AcDbLine
 10
77.6249297375
 20
94.1831059867
 30
0.0
 11
84.5404010113
 21
94.1831059867
 31
0.0
  0
LINE
  5
44A
330
1F
100
AcDbEntity
  8
0
  6
Continuous
 62
     7
370
    15
100
AcDbLine
 10
84.5404010113
 20
94.1831059867
 30
0.0
 11
84.5404010113
 21
106.167465698
 31
0.0
  0
LINE
  5
44B
330
1F
100
AcDbEntity
  8
0
  6
Continuous
 62
     7
370
    15
100
AcDbLine
 10
35.5404010113
 20
91.303275499
 30
0.0
 11
84.5404010113
 21
91.303275499
 31
0.0
  0
LINE
  5
44C
330
1F
100
AcDbEntity
  8
0
  6
Continuous
 62
     7
370
    15
100
AcDbLine
 10
35.5404010113
 20
94.1831059867
 30
0.0
 11
35.5404010113
 21
91.303275499
 31
0.0
  0
LINE
  5
44D
330
1F
100
AcDbEntity
  8
0
  6
Continuous
 62
     7
370
    15
100
AcDbLine
 10
84.5404010113
 20
94.1831059867
 30
0.0
 11
84.5404010113
 21
91.3052813661
 31
0.0
  0
LINE
  5
44E
330
1F
100
AcDbEntity
  8
0
  6
Continuous
 62
     7
370
    15
100
AcDbLine
 10
35.5404010113
 20
106.7876964535
 30
0.0
 11
35.5404010113
 21
106.8647737326
 31
0.0
  0
LINE
  5
44F
330
1F
100
AcDbEntity
  8
0
  6
Continuous
 62
     7
370
    15
100
AcDbLine
 10
84.5404010113
 20
87.4734505257
 30
0.0
 11
62.5404010113
 21
87.4734505257
 31
0.0
  0
LINE
  5
450
330
1F
100
AcDbEntity
  8
0
  6
Continuous
 62
     7
370
    15
100
AcDbLine
 10
84.5404010113
 20
87.4734505257
 30
0.0
 11
84.5404010113
 21
85.527071018
 31
0.0
  0
LINE
  5
451
330
1F
100
AcDbEntity
  8
0
  6
Continuous
 62
     7
370
    15
100
AcDbLine
 10
62.5404010113
 20
85.527071018
 30
0.0
 11
62.5404010113
 21
87.4734505257
 31
0.0
  0
LINE
  5
452
330
1F
100
AcDbEntity
  8
0
  6
Continuous
 62
     7
370
    15
100
AcDbLine
 10
35.5404010113
 20
108.2318198007
 30
0.0
 11
84.5404010113
 21
108.2318198007
 31
0.0
  0
LINE
  5
453
330
1F
100
AcDbEntity
  8
0
  6
Continuous
 62
     7
370
    15
100
AcDbLine
 10
35.5404010113
 20
108.2318198007
 30
0.0
 11
35.5404010113
 21
106.8647737326
 31
0.0
  0
LINE
  5
454
330
1F
100
AcDbEntity
  8
0
  6
Continuous
 62
     7
370
    15
100
AcDbLine
 10
35.5404010113
 20
89.6510462516
 30
0.0
 11
62.5404010113
 21
89.6510462516
 31
0.0
  0
LINE
  5
455
330
1F
100
AcDbEntity
  8
0
  6
Continuous
 62
     7
370
    15
100
AcDbLine
 10
35.5404010113
 20
89.6510462516
 30
0.0
 11
35.5404010113
 21
89.9581059867
 31
0.0
  0
LINE
  5
456
330
1F
100
AcDbEntity
  8
0
  6
Continuous
 62
     7
370
    15
100
AcDbLine
 10
84.5404010113
 20
88.8804245348
 30
0.0
 11
84.5404010113
 21
87.4734505257
 31
0.0
  0
LINE
  5
457
330
1F
100
AcDbEntity
  8
0
  6
Continuous
 62
     7
370
    15
100
AcDbLine
 10
62.5404010113
 20
89.6510462516
 30
0.0
 11
62.5404010113
 21
87.4734505257
 31
0.0
  0
LINE
  5
458
330
1F
100
AcDbEntity
  8
0
  6
Continuous
 62
     7
370
    15
100
AcDbLine
 10
35.5404010113
 20
109.2267024524
 30
0.0
 11
84.5404010113
 21
109.2267024524
 31
0.0
  0
LINE
  5
459
330
1F
100
AcDbEntity
  8
0
  6
Continuous
 62
     7
370
    15
100
AcDbLine
 10
84.5404010113
 20
108.9275154323
 30
0.0
 11
35.5404010113
 21
108.9275154323
 31
0.0
  0
LINE
  5
45A
330
1F
100
AcDbEntity
  8
0
  6
Continuous
 62
     7
370
    15
100
AcDbLine
 10
35.5404010113
 20
108.9275154323
 30
0.0
 11
35.5404010113
 21
109.2267024524
 31
0.0
  0
LINE
  5
45B
330
1F
100
AcDbEntity
  8
0
  6
Continuous
 62
     7
370
    15
100
AcDbLine
 10
35.5404010113
 20
108.9275154323
 30
0.0
 11
35.5404010113
 21
108.2318198007
 31
0.0
  0
LINE
  5
45C
330
1F
100
AcDbEntity
  8
0
  6
Continuous
 62
     7
370
    15
100
AcDbLine
 10
35.5404010113
 20
109.6831059867
 30
0.0
 11
84.5404010113
 21
109.6831059867
 31
0.0
  0
LINE
  5
45D
330
1F
100
AcDbEntity
  8
0
  6
Continuous
 62
     7
370
    15
100
AcDbLine
 10
35.5404010113
 20
109.2267024524
 30
0.0
 11
35.5404010113
 21
109.6831059867
 31
0.0
  0
LINE
  5
45E
330
1F
100
AcDbEntity
  8
0
  6
Continuous
 62
     7
370
    15
100
AcDbLine
 10
84.5404010113
 20
109.2267024524
 30
0.0
 11
84.5404010113
 21
109.6831059867
 31
0.0
  0
LINE
  5
45F
330
1F
100
AcDbEntity
  8
0
  6
Continuous
 62
     7
370
    15
100
AcDbLine
 10
62.5404010113
 20
87.6701401243
 30
0.0
 11
35.5404010113
 21
87.6701401243
 31
0.0
  0
LINE
  5
460
330
1F
100
AcDbEntity
  8
0
  6
Continuous
 62
     7
370
    15
100
AcDbLine
 10
35.5404010113
 20
87.6701401243
 30
0.0
 11
35.5404010113
 21
87.9740623053
 31
0.0
  0
LINE
  5
461
330
1F
100
AcDbEntity
  8
0
  6
Continuous
 62
     7
370
    15
100
AcDbLine
 10
35.5404010113
 20
89.5406699864
 30
0.0
 11
35.5404010113
 21
89.6510462516
 31
0.0
  0
LINE
  5
462
330
1F
100
AcDbEntity
  8
0
  6
Continuous
 62
     7
370
    15
100
AcDbLine
 10
62.5404010113
 20
86.6831059867
 30
0.0
 11
35.5404010113
 21
86.6831059867
 31
0.0
  0
LINE
  5
463
330
1F
100
AcDbEntity
  8
0
  6
Continuous
 62
     7
370
    15
100
AcDbLine
 10
35.5404010113
 20
86.6831059867
 30
0.0
 11
35.5404010113
 21
86.845027163
 31
0.0
  0
LINE
  5
464
330
1F
100
AcDbEntity
  8
0
  6
Continuous
 62
     7
370
    15
100
AcDbLine
 10
35.5404010113
 20
87.4866621368
 30
0.0
 11
35.5404010113
 21
87.6701401243
 31
0.0
  0
LINE
  5
465
330
1F
100
AcDbEntity
  8
0
  6
Continuous
 62
     7
370
    15
100
AcDbLine
 10
86.0404010113
 20
91.3052813661
 30
0.0
 11
86.0404010113
 21
91.6831059867
 31
0.0
  0
LINE
  5
466
330
1F
100
AcDbEntity
  8
0
  6
Continuous
 62
     7
370
    15
100
AcDbLine
 10
86.0404010113
 20
91.3052813661
 30
0.0
 11
84.5404010113
 21
91.3052813661
 31
0.0
  0
LINE
  5
467
330
1F
100
AcDbEntity
  8
0
  6
Continuous
 62
     7
370
    15
100
AcDbLine
 10
87.3404010113
 20
94.1831059867
 30
0.0
 11
84.5404010113
 21
94.1831059867
 31
0.0
  0
LINE
  5
468
330
1F
100
AcDbEntity
  8
0
  6
Continuous
 62
     7
370
    15
100
AcDbLine
 10
87.5404010113
 20
93.9303885954
 30
0.0
 11
87.3404010113
 21
94.1831059867
 31
0.0
  0
LINE
  5
469
330
1F
100
AcDbEntity
  8
0
  6
Continuous
 62
     7
370
    15
100
AcDbLine
 10
87.5404010113
 20
91.6831059867
 30
0.0
 11
87.5404010113
 21
93.9303885954
 31
0.0
  0
LINE
  5
46A
330
1F
100
AcDbEntity
  8
0
  6
Continuous
 62
     7
370
    15
100
AcDbLine
 10
87.5404010113
 20
91.6831059867
 30
0.0
 11
86.0404010113
 21
91.6831059867
 31
0.0
  0
LINE
  5
46B
330
1F
100
AcDbEntity
  8
0
  6
Continuous
 62
     7
370
    15
100
AcDbLine
 10
87.3404010113
 20
106.167465698
 30
0.0
 11
84.5404010113
 21
106.167465698
 31
0.0
  0
LINE
  5
46C
330
1F
100
AcDbEntity
  8
0
  6
Continuous
 62
     7
370
    15
100
AcDbLine
 10
87.3404010113
 20
94.1831059867
 30
0.0
 11
87.3404010113
 21
106.167465698
 31
0.0
  0
LINE
  5
46D
330
1F
100
AcDbEntity
  8
0
  6
Continuous
 62
     7
370
    15
100
AcDbLine
 10
87.3404010113
 20
109.6831059867
 30
0.0
 11
84.5404010113
 21
109.6831059867
 31
0.0
  0
LINE
  5
46E
330
1F
100
AcDbEntity
  8
0
  6
Continuous
 62
     7
370
    15
100
AcDbLine
 10
87.5404010113
 20
109.4831059867
 30
0.0
 11
87.3404010113
 21
109.6831059867
 31
0.0
  0
LINE
  5
46F
330
1F
100
AcDbEntity
  8
0
  6
Continuous
 62
     7
370
    15
100
AcDbLine
 10
87.5404010113
 20
106.448092375
 30
0.0
 11
87.5404010113
 21
109.4831059867
 31
0.0
  0
ARC
  5
470
330
1F
100
AcDbEntity
  8
0
  6
Continuous
 62
     7
370
    15
100
AcDbCircle
 10
98.8404010113
 20
98.1831059867
 30
0.0
 40
14.00000000000002
100
AcDbArc
 50
143.8177127788
 51
145.2280559681
  0
LINE
  5
471
330
1F
100
AcDbEntity
  8
0
  6
Continuous
 62
     7
370
    15
100
AcDbLine
 10
84.5404010113
 20
106.167465698
 30
0.0
 11
84.5404010113
 21
109.6831059867
 31
0.0
  0
LINE
  5
472
330
1F
100
AcDbEntity
  8
0
  6
Continuous
 62
     7
370
    15
100
AcDbLine
 10
87.5404010113
 20
106.448092375
 30
0.0
 11
87.5404010113
 21
93.9303885954
 31
0.0
  0
LINE
  5
473
330
1F
100
AcDbEntity
  8
0
  6
Continuous
 62
     7
370
    15
100
AcDbLine
 10
84.5404010113
 20
89.6750421991
 30
0.0
 11
86.0404010113
 21
89.6750421991
 31
0.0
  0
LINE
  5
474
330
1F
100
AcDbEntity
  8
0
  6
Continuous
 62
     7
370
    15
100
AcDbLine
 10
86.0404010113
 20
89.6750421991
 30
0.0
 11
86.0404010113
 21
91.3052813661
 31
0.0
  0
LINE
  5
475
330
1F
100
AcDbEntity
  8
0
  6
Continuous
 62
     7
370
    15
100
AcDbLine
 10
84.5404010113
 20
89.6750421991
 30
0.0
 11
84.5404010113
 21
91.3052813661
 31
0.0
  0
LINE
  5
476
330
1F
100
AcDbEntity
  8
0
  6
Continuous
 62
     7
370
    15
100
AcDbLine
 10
86.0404010113
 20
86.6831059867
 30
0.0
 11
84.5404010113
 21
86.6831059867
 31
0.0
  0
LINE
  5
477
330
1F
100
AcDbEntity
  8
0
  6
Continuous
 62
     7
370
    15
100
AcDbLine
 10
86.0404010113
 20
89.6750421991
 30
0.0
 11
86.0404010113
 21
86.6831059867
 31
0.0
  0
LINE
  5
478
330
1F
100
AcDbEntity
  8
0
  6
Continuous
 62
     7
370
    15
100
AcDbLine
 10
84.5404010113
 20
88.8804245348
 30
0.0
 11
84.5404010113
 21
89.6750421991
 31
0.0
  0
LINE
  5
479
330
1F
100
AcDbEntity
  8
0
  6
Continuous
 62
     7
370
    15
100
AcDbLine
 10
87.5404010113
 20
90.0687900066
 30
0.0
 11
87.5404010113
 21
91.6831059867
 31
0.0
  0
LINE
  5
47A
330
1F
100
AcDbEntity
  8
0
  6
Continuous
 62
     7
370
    15
100
AcDbLine
 10
32.5404010113
 20
89.5037666854
 30
0.0
 11
32.5404010113
 21
90.0687900066
 31
0.0
  0
LINE
  5
47B
330
1F
100
AcDbEntity
  8
0
  6
Continuous
 62
     7
370
    15
100
AcDbLine
 10
32.5404010113
 20
87.7974219667
 30
0.0
 11
32.5404010113
 21
89.5037666854
 31
0.0
  0
LINE
  5
47C
330
1F
100
AcDbEntity
  8
0
  6
Continuous
 62
     7
370
    15
100
AcDbLine
 10
87.5404010113
 20
88.4834026246
 30
0.0
 11
87.5404010113
 21
87.7974219667
 31
0.0
  0
LINE
  5
47D
330
1F
100
AcDbEntity
  8
0
  6
Continuous
 62
     7
370
    15
100
AcDbLine
 10
87.5404010113
 20
90.0687900066
 30
0.0
 11
87.5404010113
 21
88.4834026246
 31
0.0
  0
LINE
  5
47E
330
1F
100
AcDbEntity
  8
0
  6
Continuous
 62
     7
370
    15
100
AcDbLine
 10
34.0404010113
 20
106.9839223451
 30
0.0
 11
34.0404010113
 21
106.8136986005
 31
0.0
  0
LINE
  5
47F
330
1F
100
AcDbEntity
  8
0
  6
Continuous
 62
     7
370
    15
100
AcDbLine
 10
32.5404010113
 20
108.0037666854
 30
0.0
 11
32.5404010113
 21
108.5687900066
 31
0.0
  0
LINE
  5
480
330
1F
100
AcDbEntity
  8
0
  6
Continuous
 62
     7
370
    15
100
AcDbLine
 10
32.5404010113
 20
106.8136986005
 30
0.0
 11
32.5404010113
 21
108.0037666854
 31
0.0
  0
ARC
  5
481
330
1F
100
AcDbEntity
  8
0
  6
Continuous
 62
     7
370
    15
100
AcDbCircle
 10
39.5404010113
 20
98.1831059867
 30
0.0
 40
1.749999999999825
100
AcDbArc
 50
86.5648727036
 51
266.5648727036
  0
ARC
  5
482
330
1F
100
AcDbEntity
  8
0
  6
Continuous
 62
     7
370
    15
100
AcDbCircle
 10
39.5404010113
 20
98.1831059867
 30
0.0
 40
1.749999999999825
100
AcDbArc
 50
266.5648727036
 51
86.5648727036
  0
CIRCLE
  5
483
330
1F
100
AcDbEntity
  8
0
  6
Continuous
 62
     7
370
    15
100
AcDbCircle
 10
39.5404010113
 20
98.1831059867
 30
0.0
 40
1.500000000000413
  0
CIRCLE
  5
484
330
1F
100
AcDbEntity
  8
0
  6
Continuous
 62
     7
370
    15
100
AcDbCircle
 10
39.5404010113
 20
98.1831059867
 30
0.0
 40
1.000000000000178
  0
LINE
  5
485
330
1F
100
AcDbEntity
  8
0
  6
Continuous
 62
     7
370
    15
100
AcDbLine
 10
42.9201673773
 20
95.9515864793
 30
0.0
 11
43.1628367767
 21
99.9943097647
 31
0.0
  0
LINE
  5
486
330
1F
100
AcDbEntity
  8
0
  6
Continuous
 62
     7
370
    15
100
AcDbLine
 10
39.2977316118
 20
94.1403827013
 30
0.0
 11
42.9201673773
 21
95.9515864793
 31
0.0
  0
LINE
  5
487
330
1F
100
AcDbEntity
  8
0
  6
Continuous
 62
     7
370
    15
100
AcDbLine
 10
35.9179652459
 20
96.3719022086
 30
0.0
 11
39.2977316118
 21
94.1403827013
 31
0.0
  0
LINE
  5
488
330
1F
100
AcDbEntity
  8
0
  6
Continuous
 62
     7
370
    15
100
AcDbLine
 10
36.1606346454
 20
100.414625494
 30
0.0
 11
35.9179652459
 21
96.3719022086
 31
0.0
  0
LINE
  5
489
330
1F
100
AcDbEntity
  8
0
  6
Continuous
 62
     7
370
    15
100
AcDbLine
 10
39.7830704109
 20
102.225829272
 30
0.0
 11
36.1606346454
 21
100.414625494
 31
0.0
  0
LINE
  5
48A
330
1F
100
AcDbEntity
  8
0
  6
Continuous
 62
     7
370
    15
100
AcDbLine
 10
43.1628367767
 20
99.9943097647
 30
0.0
 11
39.7830704109
 21
102.225829272
 31
0.0
  0
ARC
  5
48B
330
1F
100
AcDbEntity
  8
0
  6
Continuous
 62
     7
370
    15
100
AcDbCircle
 10
77.5404010113
 20
98.1831059867
 30
0.0
 40
1.749999999999834
100
AcDbArc
 50
29.9691511071
 51
209.9691511071
  0
ARC
  5
48C
330
1F
100
AcDbEntity
  8
0
  6
Continuous
 62
     7
370
    15
100
AcDbCircle
 10
77.5404010113
 20
98.1831059867
 30
0.0
 40
1.749999999999834
100
AcDbArc
 50
209.9691511071
 51
29.9691511071
  0
CIRCLE
  5
48D
330
1F
100
AcDbEntity
  8
0
  6
Continuous
 62
     7
370
    15
100
AcDbCircle
 10
77.5404010113
 20
98.1831059867
 30
0.0
 40
1.500000000000419
  0
CIRCLE
  5
48E
330
1F
100
AcDbEntity
  8
0
  6
Continuous
 62
     7
370
    15
100
AcDbCircle
 10
77.5404010113
 20
98.1831059867
 30
0.0
 40
1.000000000000188
  0
LINE
  5
48F
330
1F
100
AcDbEntity
  8
0
  6
Continuous
 62
     7
370
    15
100
AcDbLine
 10
77.5382204317
 20
94.1331065737
 30
0.0
 11
81.0467130984
 21
96.1562178428
 31
0.0
  0
LINE
  5
490
330
1F
100
AcDbEntity
  8
0
  6
Continuous
 62
     7
370
    15
100
AcDbLine
 10
74.0319083446
 20
96.1599947177
 30
0.0
 11
77.5382204317
 21
94.1331065737
 31
0.0
  0
LINE
  5
491
330
1F
100
AcDbEntity
  8
0
  6
Continuous
 62
     7
370
    15
100
AcDbLine
 10
74.0340889242
 20
100.2099941305
 30
0.0
 11
74.0319083446
 21
96.1599947177
 31
0.0
  0
LINE
  5
492
330
1F
100
AcDbEntity
  8
0
  6
Continuous
 62
     7
370
    15
100
AcDbLine
 10
77.542581591
 20
102.2331053996
 30
0.0
 11
74.0340889242
 21
100.2099941305
 31
0.0
  0
LINE
  5
493
330
1F
100
AcDbEntity
  8
0
  6
Continuous
 62
     7
370
    15
100
AcDbLine
 10
81.0488936781
 20
100.2062172556
 30
0.0
 11
77.542581591
 21
102.2331053996
 31
0.0
  0
LINE
  5
494
330
1F
100
AcDbEntity
  8
0
  6
Continuous
 62
     7
370
    15
100
AcDbLine
 10
81.0467130984
 20
96.1562178428
 30
0.0
 11
81.0488936781
 21
100.2062172556
 31
0.0
  0
LWPOLYLINE
  5
495
330
1F
100
AcDbEntity
  8
0
  6
Continuous
 62
     7
370
    15
100
AcDbPolyline
 90
        3
 70
   128
 43
0.0
 10
43.4554581991
 20
99.0030616053
 10
43.3310000375
 20
99.4603526435
 10
43.1567281565
 20
99.8925438999
  0
ARC
  5
496
330
1F
100
AcDbEntity
  8
0
  6
Continuous
 62
     7
370
    15
100
AcDbCircle
 10
39.5404010113
 20
98.1831059867
 30
0.0
 40
4.000000000000004
100
AcDbArc
 50
27.8296430616
 51
85.3001023457
  0
ARC
  5
497
330
1F
100
AcDbEntity
  8
0
  6
Continuous
 62
     7
370
    15
100
AcDbCircle
 10
39.5404010113
 20
98.1831059867
 30
0.0
 40
4.000000000000002
100
AcDbArc
 50
87.8296430616
 51
145.3001023457
  0
ARC
  5
498
330
1F
100
AcDbEntity
  8
0
  6
Continuous
 62
     7
370
    15
100
AcDbCircle
 10
39.5404010113
 20
98.1831059867
 30
0.0
 40
4.0
100
AcDbArc
 50
147.8296430616
 51
205.3001023457
  0
ARC
  5
499
330
1F
100
AcDbEntity
  8
0
  6
Continuous
 62
     7
370
    15
100
AcDbCircle
 10
39.5404010113
 20
98.1831059867
 30
0.0
 40
4.000000000000003
100
AcDbArc
 50
207.8296430616
 51
265.3001023457
  0
ARC
  5
49A
330
1F
100
AcDbEntity
  8
0
  6
Continuous
 62
     7
370
    15
100
AcDbCircle
 10
39.5404010113
 20
98.1831059867
 30
0.0
 40
4.000000000000003
100
AcDbArc
 50
267.8296430616
 51
325.3001023457
  0
ARC
  5
49B
330
1F
100
AcDbEntity
  8
0
  6
Continuous
 62
     7
370
    15
100
AcDbCircle
 10
39.5404010113
 20
98.1831059867
 30
0.0
 40
4.000000000000006
100
AcDbArc
 50
327.8296430617
 51
11.8288495391
  0
ARC
  5
49C
330
1F
100
AcDbEntity
  8
0
  6
Continuous
 62
     7
370
    15
100
AcDbCircle
 10
77.5404010113
 20
98.1831059867
 30
0.0
 40
4.000000000000011
100
AcDbArc
 50
11.8288495391
 51
28.9550243719
  0
ARC
  5
49D
330
1F
100
AcDbEntity
  8
0
  6
Continuous
 62
     7
370
    15
100
AcDbCircle
 10
77.5404010113
 20
98.1831059867
 30
0.0
 40
4.00000000000001
100
AcDbArc
 50
31.2339214651
 51
88.7043807492
  0
ARC
  5
49E
330
1F
100
AcDbEntity
  8
0
  6
Continuous
 62
     7
370
    15
100
AcDbCircle
 10
77.5404010113
 20
98.1831059867
 30
0.0
 40
4.00000000000001
100
AcDbArc
 50
91.2339214651
 51
148.7043807492
  0
ARC
  5
49F
330
1F
100
AcDbEntity
  8
0
  6
Continuous
 62
     7
370
    15
100
AcDbCircle
 10
77.5404010113
 20
98.1831059867
 30
0.0
 40
4.000000000000002
100
AcDbArc
 50
151.2339214651
 51
208.7043807492
  0
ARC
  5
4A0
330
1F
100
AcDbEntity
  8
0
  6
Continuous
 62
     7
370
    15
100
AcDbCircle
 10
77.5404010113
 20
98.1831059867
 30
0.0
 40
3.999999999999989
100
AcDbArc
 50
211.2339214651
 51
268.7043807491
  0
ARC
  5
4A1
330
1F
100
AcDbEntity
  8
0
  6
Continuous
 62
     7
370
    15
100
AcDbCircle
 10
77.5404010113
 20
98.1831059867
 30
0.0
 40
3.999999999999994
100
AcDbArc
 50
271.2339214651
 51
328.7043807491
  0
ARC
  5
4A2
330
1F
100
AcDbEntity
  8
0
  6
Continuous
 62
     7
370
    15
100
AcDbCircle
 10
77.5404010113
 20
98.1831059867
 30
0.0
 40
3.999999999999997
100
AcDbArc
 50
331.0449756281
 51
11.8288495391
  0
LINE
  5
4A3
330
1F
100
AcDbEntity
  8
0
  6
Continuous
 62
     8
370
    15
100
AcDbLine
 10
33.7457087714
 20
91.1831059867
 30
0.0
 11
33.7457087714
 21
86.6831059867
 31
0.0
  0
LINE
  5
4A4
330
1F
100
AcDbEntity
  8
0
  6
Continuous
 62
     8
370
    15
100
AcDbLine
 10
32.9406529341
 20
89.8592801975
 30
0.0
 11
32.9406529341
 21
90.7763050247
 31
0.0
  0
LINE
  5
4A5
330
1F
100
AcDbEntity
  8
0
  6
Continuous
 62
     8
370
    15
100
AcDbLine
 10
32.9406529341
 20
87.0899069486
 30
0.0
 11
32.9406529341
 21
89.8592801975
 31
0.0
  0
LINE
  5
4A6
330
1F
100
AcDbEntity
  8
0
  6
Continuous
 62
     8
370
    15
100
AcDbLine
 10
32.6378730926
 20
90.3653895256
 30
0.0
 11
32.6378730926
 21
87.5008224477
 31
0.0
  0
LINE
  5
4A7
330
1F
100
AcDbEntity
  8
0
  6
Continuous
 62
     8
370
    15
100
AcDbLine
 10
86.3350932512
 20
86.6831059867
 30
0.0
 11
86.3350932512
 21
91.1831059867
 31
0.0
  0
LINE
  5
4A8
330
1F
100
AcDbEntity
  8
0
  6
Continuous
 62
     8
370
    15
100
AcDbLine
 10
87.1401490885
 20
88.2032438157
 30
0.0
 11
87.1401490885
 21
87.0899069486
 31
0.0
  0
LINE
  5
4A9
330
1F
100
AcDbEntity
  8
0
  6
Continuous
 62
     8
370
    15
100
AcDbLine
 10
87.1401490885
 20
90.7763050247
 30
0.0
 11
87.1401490885
 21
88.2032438157
 31
0.0
  0
LINE
  5
4AA
330
1F
100
AcDbEntity
  8
0
  6
Continuous
 62
     8
370
    15
100
AcDbLine
 10
87.44292893
 20
87.5008224477
 30
0.0
 11
87.44292893
 21
90.3653895256
 31
0.0
  0
LINE
  5
4AB
330
1F
100
AcDbEntity
  8
0
  6
Continuous
 62
     8
370
    15
100
AcDbLine
 10
33.7457087714
 20
109.6831059867
 30
0.0
 11
33.7457087714
 21
106.8136986005
 31
0.0
  0
LINE
  5
4AC
330
1F
100
AcDbEntity
  8
0
  6
Continuous
 62
     8
370
    15
100
AcDbLine
 10
32.9406529341
 20
108.3592801975
 30
0.0
 11
32.9406529341
 21
109.2763050247
 31
0.0
  0
LINE
  5
4AD
330
1F
100
AcDbEntity
  8
0
  6
Continuous
 62
     8
370
    15
100
AcDbLine
 10
32.9406529341
 20
106.8136986005
 30
0.0
 11
32.9406529341
 21
108.3592801975
 31
0.0
  0
LINE
  5
4AE
330
1F
100
AcDbEntity
  8
0
  6
Continuous
 62
     8
370
    15
100
AcDbLine
 10
32.6378730926
 20
108.8653895256
 30
0.0
 11
32.6378730926
 21
106.8136986005
 31
0.0
  0
LINE
  5
4AF
330
1F
100
AcDbEntity
  8
0
  6
CENTERX2
 62
     7
370
     0
100
AcDbLine
 10
90.5404010113
 20
101.1831059867
 30
0.0
 11
110.5404010113
 21
101.1831059867
 31
0.0
  0
LINE
  5
4B0
330
1F
100
AcDbEntity
  8
0
  6
CENTERX2
 62
     7
370
     0
100
AcDbLine
 10
110.5404010113
 20
101.1831059867
 30
0.0
 11
110.5404010113
 21
95.1831059867
 31
0.0
  0
LINE
  5
4B1
330
1F
100
AcDbEntity
  8
0
  6
CENTERX2
 62
     7
370
     0
100
AcDbLine
 10
110.5404010113
 20
95.1831059867
 30
0.0
 11
90.5404010113
 21
95.1831059867
 31
0.0
  0
DIMENSION
  5
4B2
330
1F
100
AcDbEntity
  8
0
  6
Continuous
 62
     7
370
     0
100
AcDbDimension
  2
_D_10
 10
110.5404010113
 20
110.5210339059
 30
0.0
 11
100.5404010113
 21
110.5210339059
 31
0.0
 70
   160
  1
<>st
 71
     2
 42
-1.0
  3
SLDDIMSTYLE0
100
AcDbAlignedDimension
 13
90.5404010113
 23
101.1831059867
 33
0.0
 14
110.5404010113
 24
101.1831059867
 34
0.0
100
AcDbRotatedDimension
  0
DIMENSION
  5
4BD
330
1F
100
AcDbEntity
  8
0
  6
Continuous
 62
     7
370
     0
100
AcDbDimension
  2
_D_11
 10
39.5404010113
 20
68.4243927166
 30
0.0
 11
36.7105867902
 21
68.4243927166
 31
0.0
 70
   160
  1
<>
 71
     2
 42
-1.0
  3
SLDDIMSTYLE6
100
AcDbAlignedDimension
 13
32.5404010113
 23
87.7974219667
 33
0.0
 14
39.5404010113
 24
91.6831059867
 34
0.0
 50
0.0
100
AcDbRotatedDimension
  0
DIMENSION
  5
4CA
330
1F
100
AcDbEntity
  8
0
  6
Continuous
 62
     7
370
     0
100
AcDbDimension
  2
_D_12
 10
77.5404010113
 20
68.4243927166
 30
0.0
 11
58.5404010113
 21
68.4243927166
 31
0.0
 70
   160
  1
<>
 71
     2
 42
-1.0
  3
SLDDIMSTYLE0
100
AcDbAlignedDimension
 13
39.5404010113
 23
91.6831059867
 33
0.0
 14
77.5404010113
 24
91.6831059867
 34
0.0
100
AcDbRotatedDimension
  0
DIMENSION
  5
4D4
330
1F
100
AcDbEntity
  8
0
  6
Continuous
 62
     7
370
     0
100
AcDbDimension
  2
_D_13
 10
84.5404010113
 20
123.4889454343
 30
0.0
 11
58.5404010113
 21
123.4889454343
 31
0.0
 70
   160
  1
<>
 71
     2
 42
-1.0
  3
SLDDIMSTYLE0
100
AcDbAlignedDimension
 13
32.5404010113
 23
106.448092375
 33
0.0
 14
84.5404010113
 24
109.6831059867
 34
0.0
 50
0.0
100
AcDbRotatedDimension
  0
DIMENSION
  5
4DE
330
1F
100
AcDbEntity
  8
0
  6
Continuous
 62
     7
370
     0
100
AcDbDimension
  2
_D_14
 10
32.5404010113
 20
138.0199402097
 30
0.0
 11
61.5404010113
 21
138.0199402097
 31
0.0
 70
   160
  1
<>
 71
     2
 42
-1.0
  3
SLDDIMSTYLE0
100
AcDbAlignedDimension
 13
90.5404010113
 23
101.1831059867
 33
0.0
 14
32.5404010113
 24
106.448092375
 34
0.0
 50
0.0
100
AcDbRotatedDimension
  0
INSERT
  5
4F3
330
1F
100
AcDbEntity
  8
0
  6
Continuous
 62
     7
370
     0
100
AcDbBlockReference
  2
SW_CENTERMARKSYMBOL_7
 10
77.5404010113
 20
98.1831059867
 30
0.0
  0
INSERT
  5
4FF
330
1F
100
AcDbEntity
  8
0
  6
Continuous
 62
     7
370
     0
100
AcDbBlockReference
  2
SW_CENTERMARKSYMBOL_8
 10
39.5404010113
 20
98.1831059867
 30
0.0
  0
ENDSEC
  0
SECTION
  2
OBJECTS
  0
DICTIONARY
  5
C
330
0
100
AcDbDictionary
281
     1
  3
ACAD_GROUP
350
D
  3
ACAD_LAYOUT
350
1A
  3
ACAD_MLINESTYLE
350
17
  3
ACAD_PLOTSETTINGS
350
19
  3
ACAD_PLOTSTYLENAME
350
E
  0
DICTIONARY
  5
D
102
{ACAD_REACTORS
330
C
102
}
330
C
100
AcDbDictionary
281
     1
  0
DICTIONARY
  5
1A
102
{ACAD_REACTORS
330
C
102
}
330
C
100
AcDbDictionary
281
     1
  3
Layout1
350
1E
  3
Layout2
350
26
  3
Model
350
22
  0
DICTIONARY
  5
17
102
{ACAD_REACTORS
330
C
102
}
330
C
100
AcDbDictionary
281
     1
  3
Standard
350
18
  0
DICTIONARY
  5
19
102
{ACAD_REACTORS
330
C
102
}
330
C
100
AcDbDictionary
281
     1
  0
ACDBDICTIONARYWDFLT
  5
E
102
{ACAD_REACTORS
330
C
102
}
330
C
100
AcDbDictionary
281
     1
  3
Normal
350
F
100
AcDbDictionaryWithDefault
340
F
  0
LAYOUT
  5
1E
102
{ACAD_REACTORS
330
1A
102
}
330
1A
100
AcDbPlotSettings
  1

  2
none_device
  4

  6

 40
0.0
 41
0.0
 42
0.0
 43
0.0
 44
0.0
 45
0.0
 46
0.0
 47
0.0
 48
0.0
 49
0.0
140
0.0
141
0.0
142
1.0
143
1.0
 70
   688
 72
     0
 73
     0
 74
     5
  7

 75
    16
147
1.0
148
0.0
149
0.0
100
AcDbLayout
  1
Layout1
 70
     1
 71
     1
 10
0.0
 20
0.0
 11
420.0
 21
297.0
 12
0.0
 22
0.0
 32
0.0
 14
1.0000000000E+20
 24
1.0000000000E+20
 34
1.0000000000E+20
 15
-1.0000000000E+20
 25
-1.0000000000E+20
 35
-1.0000000000E+20
146
0.0
 13
0.0
 23
0.0
 33
0.0
 16
1.0
 26
0.0
 36
0.0
 17
0.0
 27
1.0
 37
0.0
 76
     0
330
1B
  0
LAYOUT
  5
26
102
{ACAD_REACTORS
330
1A
102
}
330
1A
100
AcDbPlotSettings
  1

  2
none_device
  4

  6

 40
0.0
 41
0.0
 42
0.0
 43
0.0
 44
0.0
 45
0.0
 46
0.0
 47
0.0
 48
0.0
 49
0.0
140
0.0
141
0.0
142
1.0
143
1.0
 70
   688
 72
     0
 73
     0
 74
     5
  7

 75
    16
147
1.0
148
0.0
149
0.0
100
AcDbLayout
  1
Layout2
 70
     1
 71
     2
 10
0.0
 20
0.0
 11
0.0
 21
0.0
 12
0.0
 22
0.0
 32
0.0
 14
0.0
 24
0.0
 34
0.0
 15
0.0
 25
0.0
 35
0.0
146
0.0
 13
0.0
 23
0.0
 33
0.0
 16
1.0
 26
0.0
 36
0.0
 17
0.0
 27
1.0
 37
0.0
 76
     0
330
23
  0
LAYOUT
  5
22
102
{ACAD_REACTORS
330
1A
102
}
330
1A
100
AcDbPlotSettings
  1

  2
none_device
  4

  6

 40
0.0
 41
0.0
 42
0.0
 43
0.0
 44
0.0
 45
0.0
 46
0.0
 47
0.0
 48
0.0
 49
0.0
140
0.0
141
0.0
142
1.0
143
1.0
 70
  1712
 72
     0
 73
     0
 74
     0
  7

 75
     0
147
1.0
148
0.0
149
0.0
100
AcDbLayout
  1
Model
 70
     1
 71
     0
 10
0.0
 20
0.0
 11
210.0
 21
297.0
 12
0.0
 22
0.0
 32
0.0
 14
0.0
 24
0.0
 34
0.0
 15
210.0
 25
297.0
 35
0.0
146
0.0
 13
0.0
 23
0.0
 33
0.0
 16
1.0
 26
0.0
 36
0.0
 17
0.0
 27
1.0
 37
0.0
 76
     0
330
1F
331
29
  0
MLINESTYLE
  5
18
102
{ACAD_REACTORS
330
17
102
}
330
17
100
AcDbMlineStyle
  2
Standard
 70
     0
  3

 62
   256
 51
90.0
 52
90.0
 71
     2
 49
0.5
 62
   256
  6
BYLAYER
 49
-0.5
 62
   256
  6
BYLAYER
  0
ACDBPLACEHOLDER
  5
F
102
{ACAD_REACTORS
330
E
102
}
330
E
  0
ENDSEC
  0
EOF
