  0
SECTION
  2
HEADER
  9
$ACADVER
  1
AC1015
  9
$ACADMAINTVER
 70
     6
  9
$DWGCODEPAGE
  3
DOS932
  9
$INSBASE
 10
0.0
 20
0.0
 30
0.0
  9
$EXTMIN
 10
0.0
 20
0.0
 30
0.0
  9
$EXTMAX
 10
210.0
 20
297.0
 30
0.0
  9
$LIMMIN
 10
0.0
 20
0.0
  9
$LIMMAX
 10
0.0
 20
0.0
  9
$ORTHOMODE
 70
     0
  9
$REGENMODE
 70
     1
  9
$FILLMODE
 70
     1
  9
$QTEXTMODE
 70
     0
  9
$MIRRTEXT
 70
     1
  9
$LTSCALE
 40
1.0
  9
$ATTMODE
 70
     1
  9
$TEXTSIZE
 40
3.5
  9
$TRACEWID
 40
1.0
  9
$TEXTSTYLE
  7
Standard
  9
$CLAYER
  8
0
  9
$CELTYPE
  6
ByLayer
  9
$CECOLOR
 62
   256
  9
$CELTSCALE
 40
1.0
  9
$DISPSILH
 70
     0
  9
$DIMSCALE
 40
1.0
  9
$DIMASZ
 40
3.0
  9
$DIMEXO
 40
1.0
  9
$DIMDLI
 40
3.75
  9
$DIMRND
 40
0.0
  9
$DIMDLE
 40
0.0
  9
$DIMEXE
 40
1.0
  9
$DIMTP
 40
0.0
  9
$DIMTM
 40
0.0
  9
$DIMTXT
 40
3.5
  9
$DIMCEN
 40
2.5
  9
$DIMTSZ
 40
0.0
  9
$DIMTOL
 70
     0
  9
$DIMLIM
 70
     0
  9
$DIMTIH
 70
     1
  9
$DIMTOH
 70
     1
  9
$DIMSE1
 70
     0
  9
$DIMSE2
 70
     0
  9
$DIMTAD
 70
     1
  9
$DIMZIN
 70
     0
  9
$DIMBLK
  1

  9
$DIMASO
 70
     1
  9
$DIMSHO
 70
     1
  9
$DIMPOST
  1

  9
$DIMAPOST
  1

  9
$DIMALT
 70
     0
  9
$DIMALTD
 70
     3
  9
$DIMALTF
 40
0.0393700787
  9
$DIMLFAC
 40
1.0
  9
$DIMTOFL
 70
     1
  9
$DIMTVP
 40
0.0
  9
$DIMTIX
 70
     0
  9
$DIMSOXD
 70
     0
  9
$DIMSAH
 70
     0
  9
$DIMBLK1
  1

  9
$DIMBLK2
  1

  9
$DIMSTYLE
  2
ISO-25
  9
$DIMCLRD
 70
     0
  9
$DIMCLRE
 70
     0
  9
$DIMCLRT
 70
     0
  9
$DIMTFAC
 40
1.0
  9
$DIMGAP
 40
1.524
  9
$DIMJUST
 70
     0
  9
$DIMSD1
 70
     0
  9
$DIMSD2
 70
     0
  9
$DIMTOLJ
 70
     0
  9
$DIMTZIN
 70
     0
  9
$DIMALTZ
 70
     0
  9
$DIMALTTZ
 70
     0
  9
$DIMUPT
 70
     0
  9
$DIMDEC
 70
     2
  9
$DIMTDEC
 70
     2
  9
$DIMALTU
 70
     2
  9
$DIMALTTD
 70
     3
  9
$DIMTXSTY
  7
Standard
  9
$DIMAUNIT
 70
     0
  9
$DIMADEC
 70
     0
  9
$DIMALTRND
 40
0.0
  9
$DIMAZIN
 70
     0
  9
$DIMDSEP
 70
    44
  9
$DIMATFIT
 70
     3
  9
$DIMFRAC
 70
     0
  9
$DIMLDRBLK
  1

  9
$DIMLUNIT
 70
     2
  9
$DIMLWD
 70
    -2
  9
$DIMLWE
 70
    -2
  9
$DIMTMOVE
 70
     0
  9
$LUNITS
 70
     2
  9
$LUPREC
 70
     1
  9
$SKETCHINC
 40
1.0
  9
$FILLETRAD
 40
10.0
  9
$AUNITS
 70
     0
  9
$AUPREC
 70
     0
  9
$MENU
  1
.
  9
$ELEVATION
 40
0.0
  9
$PELEVATION
 40
0.0
  9
$THICKNESS
 40
0.0
  9
$LIMCHECK
 70
     0
  9
$CHAMFERA
 40
10.0
  9
$CHAMFERB
 40
10.0
  9
$CHAMFERC
 40
20.0
  9
$CHAMFERD
 40
0.0
  9
$SKPOLY
 70
     0
  9
$TDCREATE
 40
2454412.667874711
  9
$TDUCREATE
 40
2454412.292874711
  9
$TDUPDATE
 40
2454412.667874722
  9
$TDUUPDATE
 40
2454412.292874722
  9
$TDINDWG
 40
0.0000000116
  9
$TDUSRTIMER
 40
0.0000000116
  9
$USRTIMER
 70
     1
  9
$ANGBASE
 50
0.0
  9
$ANGDIR
 70
     0
  9
$PDMODE
 70
     0
  9
$PDSIZE
 40
-1.0
  9
$PLINEWID
 40
0.0
  9
$SPLFRAME
 70
     0
  9
$SPLINETYPE
 70
     6
  9
$SPLINESEGS
 70
     8
  9
$HANDSEED
  5
3DA
  9
$SURFTAB1
 70
     6
  9
$SURFTAB2
 70
     6
  9
$SURFTYPE
 70
     6
  9
$SURFU
 70
     6
  9
$SURFV
 70
     6
  9
$UCSBASE
  2

  9
$UCSNAME
  2

  9
$UCSORG
 10
0.0
 20
0.0
 30
0.0
  9
$UCSXDIR
 10
1.0
 20
0.0
 30
0.0
  9
$UCSYDIR
 10
0.0
 20
1.0
 30
0.0
  9
$UCSORTHOREF
  2

  9
$UCSORTHOVIEW
 70
     0
  9
$UCSORGTOP
 10
0.0
 20
0.0
 30
0.0
  9
$UCSORGBOTTOM
 10
0.0
 20
0.0
 30
0.0
  9
$UCSORGLEFT
 10
0.0
 20
0.0
 30
0.0
  9
$UCSORGRIGHT
 10
0.0
 20
0.0
 30
0.0
  9
$UCSORGFRONT
 10
0.0
 20
0.0
 30
0.0
  9
$UCSORGBACK
 10
0.0
 20
0.0
 30
0.0
  9
$PUCSBASE
  2

  9
$PUCSNAME
  2

  9
$PUCSORG
 10
0.0
 20
0.0
 30
0.0
  9
$PUCSXDIR
 10
1.0
 20
0.0
 30
0.0
  9
$PUCSYDIR
 10
0.0
 20
1.0
 30
0.0
  9
$PUCSORTHOREF
  2

  9
$PUCSORTHOVIEW
 70
     0
  9
$PUCSORGTOP
 10
0.0
 20
0.0
 30
0.0
  9
$PUCSORGBOTTOM
 10
0.0
 20
0.0
 30
0.0
  9
$PUCSORGLEFT
 10
0.0
 20
0.0
 30
0.0
  9
$PUCSORGRIGHT
 10
0.0
 20
0.0
 30
0.0
  9
$PUCSORGFRONT
 10
0.0
 20
0.0
 30
0.0
  9
$PUCSORGBACK
 10
0.0
 20
0.0
 30
0.0
  9
$USERI1
 70
     0
  9
$USERI2
 70
     0
  9
$USERI3
 70
     0
  9
$USERI4
 70
     0
  9
$USERI5
 70
     0
  9
$USERR1
 40
0.0
  9
$USERR2
 40
0.0
  9
$USERR3
 40
0.0
  9
$USERR4
 40
0.0
  9
$USERR5
 40
0.0
  9
$WORLDVIEW
 70
     1
  9
$SHADEDGE
 70
     3
  9
$SHADEDIF
 70
    70
  9
$TILEMODE
 70
     1
  9
$MAXACTVP
 70
    64
  9
$PINSBASE
 10
0.0
 20
0.0
 30
0.0
  9
$PLIMCHECK
 70
     0
  9
$PEXTMIN
 10
1.0000000000E+20
 20
1.0000000000E+20
 30
1.0000000000E+20
  9
$PEXTMAX
 10
-1.0000000000E+20
 20
-1.0000000000E+20
 30
-1.0000000000E+20
  9
$PLIMMIN
 10
0.0
 20
0.0
  9
$PLIMMAX
 10
420.0
 20
297.0
  9
$UNITMODE
 70
     0
  9
$VISRETAIN
 70
     1
  9
$PLINEGEN
 70
     0
  9
$PSLTSCALE
 70
     1
  9
$TREEDEPTH
 70
  3020
  9
$CMLSTYLE
  2
Standard
  9
$CMLJUST
 70
     0
  9
$CMLSCALE
 40
20.0
  9
$PROXYGRAPHICS
 70
     1
  9
$MEASUREMENT
 70
     1
  9
$CELWEIGHT
370
    -1
  9
$ENDCAPS
280
     0
  9
$JOINSTYLE
280
     0
  9
$LWDISPLAY
290
     1
  9
$INSUNITS
 70
     4
  9
$HYPERLINKBASE
  1

  9
$STYLESHEET
  1

  9
$XEDIT
290
     1
  9
$CEPSNTYPE
380
     0
  9
$PSTYLEMODE
290
     1
  9
$FINGERPRINTGUID
  2
{270A22E1-9A9D-47D1-B78A-C46FE4A8A1E9}
  9
$VERSIONGUID
  2
{FAEB1C32-E019-11D5-929B-00C0DF256EC4}
  9
$EXTNAMES
290
     1
  9
$PSVPSCALE
 40
0.0
  9
$OLESTARTUP
290
     0
  0
ENDSEC
  0
SECTION
  2
CLASSES
  0
CLASS
  1
ACDBDICTIONARYWDFLT
  2
AcDbDictionaryWithDefault
  3
ObjectDBX Classes
 90
        0
280
     0
281
     0
  0
CLASS
  1
ACDBPLACEHOLDER
  2
AcDbPlaceHolder
  3
ObjectDBX Classes
 90
        0
280
     0
281
     0
  0
CLASS
  1
LAYOUT
  2
AcDbLayout
  3
ObjectDBX Classes
 90
        0
280
     0
281
     0
  0
ENDSEC
  0
SECTION
  2
TABLES
  0
TABLE
  2
VPORT
  5
8
330
0
100
AcDbSymbolTable
 70
     1
  0
VPORT
  5
29
330
8
100
AcDbSymbolTableRecord
100
AcDbViewportTableRecord
  2
*Active
 70
     0
 10
0.0
 20
0.0
 11
1.0
 21
1.0
 12
105.0
 22
148.5
 13
0.0
 23
0.0
 14
10.0
 24
10.0
 15
10.0
 25
10.0
 16
0.0
 26
0.0
 36
1.0
 17
0.0
 27
0.0
 37
0.0
 40
297.0
 41
1.9729729729
 42
50.0
 43
0.0
 44
0.0
 50
0.0
 51
0.0
 71
     0
 72
  2000
 73
     1
 74
     3
 75
     0
 76
     0
 77
     0
 78
     0
281
     0
 65
     1
110
0.0
120
0.0
130
0.0
111
1.0
121
0.0
131
0.0
112
0.0
122
1.0
132
0.0
 79
     0
146
0.0
  0
ENDTAB
  0
TABLE
  2
LTYPE
  5
5
330
0
100
AcDbSymbolTable
 70
     6
  0
LTYPE
  5
14
330
5
100
AcDbSymbolTableRecord
100
AcDbLinetypeTableRecord
  2
ByBlock
 70
     0
  3

 72
    65
 73
     0
 40
0.0
  0
LTYPE
  5
15
330
5
100
AcDbSymbolTableRecord
100
AcDbLinetypeTableRecord
  2
ByLayer
 70
     0
  3

 72
    65
 73
     0
 40
0.0
  0
LTYPE
  5
16
330
5
100
AcDbSymbolTableRecord
100
AcDbLinetypeTableRecord
  2
Continuous
 70
     0
  3
Solid line
 72
    65
 73
     0
 40
0.0
  0
LTYPE
  5
2A
330
5
100
AcDbSymbolTableRecord
100
AcDbLinetypeTableRecord
  2
HIDDEN
 70
     0
  3
Hidden __ __ __ __ __ __ __ __ __ __ __ __ __ __
 72
    65
 73
     2
 40
1.905
 49
1.27
 74
     0
 49
-0.635
 74
     0
  0
LTYPE
  5
2B
330
5
100
AcDbSymbolTableRecord
100
AcDbLinetypeTableRecord
  2
PHANTOM
 70
     0
  3
Phantom ______  __  __  ______  __  __  ______
 72
    65
 73
     6
 40
12.7
 49
6.35
 74
     0
 49
-1.27
 74
     0
 49
1.27
 74
     0
 49
-1.27
 74
     0
 49
1.27
 74
     0
 49
-1.27
 74
     0
  0
LTYPE
  5
2C
330
5
100
AcDbSymbolTableRecord
100
AcDbLinetypeTableRecord
  2
CENTER
 70
     0
  3
Center ____ _ ____ _ ____ _ ____ _ ____ _ ____
 72
    65
 73
     4
 40
10.16
 49
6.35
 74
     0
 49
-1.27
 74
     0
 49
1.27
 74
     0
 49
-1.27
 74
     0
  0
LTYPE
  5
2D
330
5
100
AcDbSymbolTableRecord
100
AcDbLinetypeTableRecord
  2
CENTERX2
 70
     0
  3
Center (2x) ________  __  ________  __  _____
 72
    65
 73
     4
 40
20.32
 49
12.7
 74
     0
 49
-2.54
 74
     0
 49
2.54
 74
     0
 49
-2.54
 74
     0
  0
LTYPE
  5
2E
330
5
100
AcDbSymbolTableRecord
100
AcDbLinetypeTableRecord
  2
DOT2
 70
     0
  3
Dot (.5x) ........................................
 72
    65
 73
     2
 40
0.635
 49
0.0
 74
     0
 49
-0.635
 74
     0
  0
ENDTAB
  0
TABLE
  2
LAYER
  5
2
330
0
100
AcDbSymbolTable
 70
     2
  0
LAYER
  5
10
330
2
100
AcDbSymbolTableRecord
100
AcDbLayerTableRecord
  2
0
 70
     0
 62
     7
  6
Continuous
370
    -3
390
F
  0
LAYER
  5
8B
330
2
100
AcDbSymbolTableRecord
100
AcDbLayerTableRecord
  2
Defpoints
 70
     0
 62
     7
  6
Continuous
290
     0
370
    -3
390
F
  0
ENDTAB
  0
TABLE
  2
STYLE
  5
3
330
0
100
AcDbSymbolTable
 70
     2
  0
STYLE
  5
11
330
3
100
AcDbSymbolTableRecord
100
AcDbTextStyleTableRecord
  2
Standard
 70
     0
 40
0.0
 41
1.0
 50
0.0
 71
     0
 42
2.5
  3
txt
  4
bigfont
  0
STYLE
  5
37
330
3
100
AcDbSymbolTableRecord
100
AcDbTextStyleTableRecord
  2
SLDTEXTSTYLE0
 70
     0
 40
0.0
 41
0.7
 50
0.0
 71
     0
 42
0.2
  3
TXT
  4
bigfont
  0
ENDTAB
  0
TABLE
  2
VIEW
  5
6
330
0
100
AcDbSymbolTable
 70
     0
  0
ENDTAB
  0
TABLE
  2
UCS
  5
7
330
0
100
AcDbSymbolTable
 70
     0
  0
ENDTAB
  0
TABLE
  2
APPID
  5
9
330
0
100
AcDbSymbolTable
 70
     1
  0
APPID
  5
12
330
9
100
AcDbSymbolTableRecord
100
AcDbRegAppTableRecord
  2
ACAD
 70
     0
  0
ENDTAB
  0
TABLE
  2
DIMSTYLE
  5
A
330
0
100
AcDbSymbolTable
 70
     3
100
AcDbDimStyleTable
  0
DIMSTYLE
105
27
330
A
100
AcDbSymbolTableRecord
100
AcDbDimStyleTableRecord
  2
ISO-25
 70
     0
 41
2.5
 42
0.625
 43
3.75
 44
1.25
 73
     0
 74
     0
 77
     1
 78
     8
140
2.5
141
2.5
143
0.0393700787
147
0.625
171
     3
172
     1
271
     2
272
     2
274
     3
278
    44
283
     0
284
     8
340
11
  0
DIMSTYLE
105
98
102
{ACAD_REACTORS
330
8A
330
A5
330
B8
330
CB
330
E0
330
F3
330
106
330
119
330
12D
330
1F2
330
205
330
219
330
22D
330
333
330
349
330
35D
330
370
330
383
330
397
102
}
330
A
100
AcDbSymbolTableRecord
100
AcDbDimStyleTableRecord
  2
SLDDIMSTYLE0
 70
     0
 41
3.0
 44
0.0
 73
     0
 74
     0
 77
     3
 78
    12
140
3.5
147
0.875
173
     1
271
     1
272
     3
284
    12
340
37
341
99
343
99
344
99
  0
DIMSTYLE
105
147
330
A
100
AcDbSymbolTableRecord
100
AcDbDimStyleTableRecord
  2
SLDDIMSTYLE1
 70
     0
 41
3.0
 44
0.0
140
3.0
147
0.75
173
     1
271
     0
272
     0
340
11
341
99
343
99
344
99
  0
ENDTAB
  0
TABLE
  2
BLOCK_RECORD
  5
1
330
0
100
AcDbSymbolTable
 70
    34
  0
BLOCK_RECORD
  5
1F
330
1
100
AcDbSymbolTableRecord
100
AcDbBlockTableRecord
  2
*Model_Space
340
22
  0
BLOCK_RECORD
  5
1B
330
1
100
AcDbSymbolTableRecord
100
AcDbBlockTableRecord
  2
*Paper_Space
340
1E
  0
BLOCK_RECORD
  5
23
330
1
100
AcDbSymbolTableRecord
100
AcDbBlockTableRecord
  2
*Paper_Space0
340
26
  0
BLOCK_RECORD
  5
39
330
1
100
AcDbSymbolTableRecord
100
AcDbBlockTableRecord
  2
SW_NOTE_0
340
0
102
{BLKREFS
331
3E
102
}
  0
BLOCK_RECORD
  5
8C
330
1
100
AcDbSymbolTableRecord
100
AcDbBlockTableRecord
  2
*D2
340
0
  0
BLOCK_RECORD
  5
99
330
1
100
AcDbSymbolTableRecord
100
AcDbBlockTableRecord
  2
_Open30
340
0
102
{BLKREFS
331
91
331
90
331
9F
331
A0
331
AB
331
AA
331
B2
331
B3
331
BE
331
BD
331
C5
331
C6
331
D3
331
D2
331
DA
331
DB
331
E6
331
E5
331
ED
331
EE
331
F9
331
F8
331
100
331
101
331
10C
331
10B
331
113
331
114
331
11F
331
11E
331
127
331
128
331
133
331
132
331
13B
331
13C
331
1F8
331
1F7
331
1FF
331
200
331
20B
331
20A
331
213
331
214
331
21F
331
21E
331
227
331
228
331
233
331
232
331
23A
331
23B
331
339
331
338
331
340
331
341
331
34F
331
34E
331
357
331
358
331
363
331
362
331
36A
331
36B
331
376
331
375
331
37D
331
37E
331
389
331
388
331
391
331
392
331
39D
331
39C
331
3A4
331
3A5
102
}
  0
BLOCK_RECORD
  5
A6
330
1
100
AcDbSymbolTableRecord
100
AcDbBlockTableRecord
  2
*D4
340
0
  0
BLOCK_RECORD
  5
B9
330
1
100
AcDbSymbolTableRecord
100
AcDbBlockTableRecord
  2
*D5
340
0
  0
BLOCK_RECORD
  5
CC
330
1
100
AcDbSymbolTableRecord
100
AcDbBlockTableRecord
  2
*D6
340
0
  0
BLOCK_RECORD
  5
E1
330
1
100
AcDbSymbolTableRecord
100
AcDbBlockTableRecord
  2
*D7
340
0
  0
BLOCK_RECORD
  5
F4
330
1
100
AcDbSymbolTableRecord
100
AcDbBlockTableRecord
  2
*D8
340
0
  0
BLOCK_RECORD
  5
107
330
1
100
AcDbSymbolTableRecord
100
AcDbBlockTableRecord
  2
*D9
340
0
  0
BLOCK_RECORD
  5
11A
330
1
100
AcDbSymbolTableRecord
100
AcDbBlockTableRecord
  2
*D10
340
0
  0
BLOCK_RECORD
  5
12E
330
1
100
AcDbSymbolTableRecord
100
AcDbBlockTableRecord
  2
*D11
340
0
  0
BLOCK_RECORD
  5
141
330
1
100
AcDbSymbolTableRecord
100
AcDbBlockTableRecord
  2
SW_NOTE_1
340
0
102
{BLKREFS
331
146
102
}
  0
BLOCK_RECORD
  5
149
330
1
100
AcDbSymbolTableRecord
100
AcDbBlockTableRecord
  2
SW_CENTERMARKSYMBOL_0
340
0
102
{BLKREFS
331
154
102
}
  0
BLOCK_RECORD
  5
155
330
1
100
AcDbSymbolTableRecord
100
AcDbBlockTableRecord
  2
SW_CENTERMARKSYMBOL_1
340
0
102
{BLKREFS
331
160
102
}
  0
BLOCK_RECORD
  5
1F3
330
1
100
AcDbSymbolTableRecord
100
AcDbBlockTableRecord
  2
*D15
340
0
  0
BLOCK_RECORD
  5
206
330
1
100
AcDbSymbolTableRecord
100
AcDbBlockTableRecord
  2
*D16
340
0
  0
BLOCK_RECORD
  5
21A
330
1
100
AcDbSymbolTableRecord
100
AcDbBlockTableRecord
  2
*D17
340
0
  0
BLOCK_RECORD
  5
22E
330
1
100
AcDbSymbolTableRecord
100
AcDbBlockTableRecord
  2
*D18
340
0
  0
BLOCK_RECORD
  5
242
330
1
100
AcDbSymbolTableRecord
100
AcDbBlockTableRecord
  2
SW_CENTERMARKSYMBOL_2
340
0
102
{BLKREFS
331
24D
102
}
  0
BLOCK_RECORD
  5
24E
330
1
100
AcDbSymbolTableRecord
100
AcDbBlockTableRecord
  2
SW_CENTERMARKSYMBOL_3
340
0
102
{BLKREFS
331
259
102
}
  0
BLOCK_RECORD
  5
25A
330
1
100
AcDbSymbolTableRecord
100
AcDbBlockTableRecord
  2
SW_CENTERMARKSYMBOL_4
340
0
102
{BLKREFS
331
265
102
}
  0
BLOCK_RECORD
  5
266
330
1
100
AcDbSymbolTableRecord
100
AcDbBlockTableRecord
  2
SW_CENTERMARKSYMBOL_5
340
0
102
{BLKREFS
331
271
102
}
  0
BLOCK_RECORD
  5
272
330
1
100
AcDbSymbolTableRecord
100
AcDbBlockTableRecord
  2
SW_CENTERMARKSYMBOL_6
340
0
102
{BLKREFS
331
27D
102
}
  0
BLOCK_RECORD
  5
334
330
1
100
AcDbSymbolTableRecord
100
AcDbBlockTableRecord
  2
*D24
340
0
  0
BLOCK_RECORD
  5
34A
330
1
100
AcDbSymbolTableRecord
100
AcDbBlockTableRecord
  2
*D25
340
0
  0
BLOCK_RECORD
  5
35E
330
1
100
AcDbSymbolTableRecord
100
AcDbBlockTableRecord
  2
*D26
340
0
  0
BLOCK_RECORD
  5
371
330
1
100
AcDbSymbolTableRecord
100
AcDbBlockTableRecord
  2
*D27
340
0
  0
BLOCK_RECORD
  5
384
330
1
100
AcDbSymbolTableRecord
100
AcDbBlockTableRecord
  2
*D28
340
0
  0
BLOCK_RECORD
  5
398
330
1
100
AcDbSymbolTableRecord
100
AcDbBlockTableRecord
  2
*D29
340
0
  0
BLOCK_RECORD
  5
3AA
330
1
100
AcDbSymbolTableRecord
100
AcDbBlockTableRecord
  2
SW_NOTE_2
340
0
102
{BLKREFS
331
3AF
102
}
  0
BLOCK_RECORD
  5
3B3
330
1
100
AcDbSymbolTableRecord
100
AcDbBlockTableRecord
  2
SW_CENTERMARKSYMBOL_7
340
0
102
{BLKREFS
331
3BE
102
}
  0
BLOCK_RECORD
  5
3BF
330
1
100
AcDbSymbolTableRecord
100
AcDbBlockTableRecord
  2
SW_CENTERMARKSYMBOL_8
340
0
102
{BLKREFS
331
3CA
102
}
  0
BLOCK_RECORD
  5
3CB
330
1
100
AcDbSymbolTableRecord
100
AcDbBlockTableRecord
  2
SW_CENTERMARKSYMBOL_9
340
0
102
{BLKREFS
331
3D6
102
}
  0
ENDTAB
  0
ENDSEC
  0
SECTION
  2
BLOCKS
  0
BLOCK
  5
20
330
1F
100
AcDbEntity
  8
0
100
AcDbBlockBegin
  2
*Model_Space
 70
     0
 71
     0
 10
0.0
 20
0.0
 30
0.0
  3
*Model_Space
  1

  0
ENDBLK
  5
21
330
1F
100
AcDbEntity
  8
0
100
AcDbBlockEnd
  0
BLOCK
  5
1C
330
1B
100
AcDbEntity
 67
     1
  8
0
100
AcDbBlockBegin
  2
*Paper_Space
 70
     0
 71
     0
 10
0.0
 20
0.0
 30
0.0
  3
*Paper_Space
  1

  0
ENDBLK
  5
1D
330
1B
100
AcDbEntity
 67
     1
  8
0
100
AcDbBlockEnd
  0
BLOCK
  5
24
330
23
100
AcDbEntity
  8
0
100
AcDbBlockBegin
  2
*Paper_Space0
 70
     0
 71
     0
 10
0.0
 20
0.0
 30
0.0
  3
*Paper_Space0
  1

  0
ENDBLK
  5
25
330
23
100
AcDbEntity
  8
0
100
AcDbBlockEnd
  0
BLOCK
  5
3A
330
39
100
AcDbEntity
  8
0
100
AcDbBlockBegin
  2
SW_NOTE_0
 70
     0
 71
     0
 10
0.0
 20
0.0
 30
0.0
  3
SW_NOTE_0
  1

  0
MTEXT
  5
3C
330
39
100
AcDbEntity
  8
0
  6
Continuous
 62
     7
370
     0
100
AcDbMText
 10
0.0
 20
4.9260606061
 30
0.0
 40
4.2333333333
 41
0.0
 71
     1
 72
     1
  1
ミニコンテナシリンダー
  7
SLDTEXTSTYLE0
 73
     1
 44
1.0
  0
MTEXT
  5
3D
330
39
100
AcDbEntity
  8
0
  6
Continuous
 62
     7
370
     0
100
AcDbMText
 10
16.2522727624
 20
-0.7183837702
 30
0.0
 40
4.2333333333
 41
0.0
 71
     1
 72
     1
  1
(単動型)
  7
SLDTEXTSTYLE0
 73
     1
 44
1.0
  0
ENDBLK
  5
3B
330
39
100
AcDbEntity
  8
0
100
AcDbBlockEnd
  0
BLOCK
  5
96
330
8C
100
AcDbEntity
  8
0
100
AcDbBlockBegin
  2
*D2
 70
     1
 71
     0
 10
0.0
 20
0.0
 30
0.0
  3
*D2
  1

  0
INSERT
  5
9F
330
8C
100
AcDbEntity
  8
0
  6
Continuous
 62
     7
370
     0
100
AcDbBlockReference
  2
_Open30
 10
62.4130362172
 20
206.9464804873
 30
13.3795634921
 41
3.0
 42
3.0
 50
180.0
  0
INSERT
  5
A0
330
8C
100
AcDbEntity
  8
0
  6
Continuous
 62
     7
370
     0
100
AcDbBlockReference
  2
_Open30
 10
98.4130362172
 20
206.9464804873
 30
13.3795634921
 41
3.0
 42
3.0
 50
360.0
  0
LINE
  5
A1
330
8C
100
AcDbEntity
  8
0
  6
Continuous
 62
     7
370
     0
100
AcDbLine
 10
62.4130362172
 20
194.3387758147
 30
0.0
 11
62.4130362172
 21
207.9464804873
 31
0.0
  0
LINE
  5
A2
330
8C
100
AcDbEntity
  8
0
  6
Continuous
 62
     7
370
     0
100
AcDbLine
 10
98.4130362172
 20
194.3387758147
 30
0.0
 11
98.4130362172
 21
207.9464804873
 31
0.0
  0
LINE
  5
A3
330
8C
100
AcDbEntity
  8
0
  6
Continuous
 62
     7
370
     0
100
AcDbLine
 10
62.4130362172
 20
206.9464804873
 30
0.0
 11
98.4130362172
 21
206.9464804873
 31
0.0
  0
MTEXT
  5
A4
330
8C
100
AcDbEntity
  8
0
  6
Continuous
 62
     7
370
     0
100
AcDbMText
 10
78.3767240509
 20
211.0192075272
 30
0.0
 40
3.5
 41
0.0
 71
     1
 72
     1
  1
36
  7
SLDTEXTSTYLE0
 73
     1
 44
1.0
  0
ENDBLK
  5
97
330
8C
100
AcDbEntity
  8
0
100
AcDbBlockEnd
  0
BLOCK
  5
9A
330
99
100
AcDbEntity
  8
0
100
AcDbBlockBegin
  2
_Open30
 70
     0
 71
     0
 10
0.0
 20
0.0
 30
0.0
  3
_Open30
  1

  0
LINE
  5
9C
330
99
100
AcDbEntity
  8
0
  6
ByBlock
 62
     0
370
    -2
100
AcDbLine
 10
-1.0
 20
0.267949
 30
0.0
 11
0.0
 21
0.0
 31
0.0
  0
LINE
  5
9D
330
99
100
AcDbEntity
  8
0
  6
ByBlock
 62
     0
370
    -2
100
AcDbLine
 10
0.0
 20
0.0
 30
0.0
 11
-1.0
 21
-0.267949
 31
0.0
  0
LINE
  5
9E
330
99
100
AcDbEntity
  8
0
  6
ByBlock
 62
     0
370
    -2
100
AcDbLine
 10
0.0
 20
0.0
 30
0.0
 11
-1.0
 21
0.0
 31
0.0
  0
ENDBLK
  5
9B
330
99
100
AcDbEntity
  8
0
100
AcDbBlockEnd
  0
BLOCK
  5
B0
330
A6
100
AcDbEntity
  8
0
100
AcDbBlockBegin
  2
*D4
 70
     1
 71
     0
 10
0.0
 20
0.0
 30
0.0
  3
*D4
  1

  0
INSERT
  5
B2
330
A6
100
AcDbEntity
  8
0
  6
Continuous
 62
     7
370
     0
100
AcDbBlockReference
  2
_Open30
 10
52.4130362172
 20
206.9464804873
 30
13.3795634921
 41
3.0
 42
3.0
 50
180.0
  0
INSERT
  5
B3
330
A6
100
AcDbEntity
  8
0
  6
Continuous
 62
     7
370
     0
100
AcDbBlockReference
  2
_Open30
 10
62.4130362172
 20
206.9464804873
 30
13.3795634921
 41
3.0
 42
3.0
 50
360.0
  0
LINE
  5
B4
330
A6
100
AcDbEntity
  8
0
  6
Continuous
 62
     7
370
     0
100
AcDbLine
 10
52.4130362172
 20
199.8887758147
 30
0.0
 11
52.4130362172
 21
207.9464804873
 31
0.0
  0
LINE
  5
B5
330
A6
100
AcDbEntity
  8
0
  6
Continuous
 62
     7
370
     0
100
AcDbLine
 10
62.4130362172
 20
194.3387758147
 30
0.0
 11
62.4130362172
 21
207.9464804873
 31
0.0
  0
LINE
  5
B6
330
A6
100
AcDbEntity
  8
0
  6
Continuous
 62
     7
370
     0
100
AcDbLine
 10
52.4130362172
 20
206.9464804873
 30
0.0
 11
62.4130362172
 21
206.9464804873
 31
0.0
  0
MTEXT
  5
B7
330
A6
100
AcDbEntity
  8
0
  6
Continuous
 62
     7
370
     0
100
AcDbMText
 10
55.3767240509
 20
211.0192075272
 30
0.0
 40
3.5
 41
0.0
 71
     1
 72
     1
  1
10
  7
SLDTEXTSTYLE0
 73
     1
 44
1.0
  0
ENDBLK
  5
B1
330
A6
100
AcDbEntity
  8
0
100
AcDbBlockEnd
  0
BLOCK
  5
C3
330
B9
100
AcDbEntity
  8
0
100
AcDbBlockBegin
  2
*D5
 70
     1
 71
     0
 10
0.0
 20
0.0
 30
0.0
  3
*D5
  1

  0
INSERT
  5
C5
330
B9
100
AcDbEntity
  8
0
  6
Continuous
 62
     7
370
     0
100
AcDbBlockReference
  2
_Open30
 10
108.4130362172
 20
207.0447663512
 30
13.3795634921
 41
3.0
 42
3.0
 50
360.0
  0
INSERT
  5
C6
330
B9
100
AcDbEntity
  8
0
  6
Continuous
 62
     7
370
     0
100
AcDbBlockReference
  2
_Open30
 10
98.4130362172
 20
207.0447663512
 30
13.3795634921
 41
3.0
 42
3.0
 50
180.0
  0
LINE
  5
C7
330
B9
100
AcDbEntity
  8
0
  6
Continuous
 62
     7
370
     0
100
AcDbLine
 10
108.4130362172
 20
199.8887758147
 30
0.0
 11
108.4130362172
 21
208.0447663512
 31
0.0
  0
LINE
  5
C8
330
B9
100
AcDbEntity
  8
0
  6
Continuous
 62
     7
370
     0
100
AcDbLine
 10
98.4130362172
 20
194.3387758147
 30
0.0
 11
98.4130362172
 21
208.0447663512
 31
0.0
  0
LINE
  5
C9
330
B9
100
AcDbEntity
  8
0
  6
Continuous
 62
     7
370
     0
100
AcDbLine
 10
108.4130362172
 20
207.0447663512
 30
0.0
 11
98.4130362172
 21
207.0447663512
 31
0.0
  0
MTEXT
  5
CA
330
B9
100
AcDbEntity
  8
0
  6
Continuous
 62
     7
370
     0
100
AcDbMText
 10
101.3767240509
 20
211.1174933911
 30
0.0
 40
3.5
 41
0.0
 71
     1
 72
     1
  1
10
  7
SLDTEXTSTYLE0
 73
     1
 44
1.0
  0
ENDBLK
  5
C4
330
B9
100
AcDbEntity
  8
0
100
AcDbBlockEnd
  0
BLOCK
  5
D7
330
CC
100
AcDbEntity
  8
0
100
AcDbBlockBegin
  2
*D6
 70
     1
 71
     0
 10
0.0
 20
0.0
 30
0.0
  3
*D6
  1

  0
INSERT
  5
DA
330
CC
100
AcDbEntity
  8
0
  6
Continuous
 62
     7
370
     0
100
AcDbBlockReference
  2
_Open30
 10
110.4130362172
 20
207.0447663512
 30
13.3795634921
 41
3.0
 42
3.0
 50
180.0
  0
INSERT
  5
DB
330
CC
100
AcDbEntity
  8
0
  6
Continuous
 62
     7
370
     0
100
AcDbBlockReference
  2
_Open30
 10
118.4130362172
 20
207.0447663512
 30
13.3795634921
 41
3.0
 42
3.0
 50
360.0
  0
LINE
  5
DC
330
CC
100
AcDbEntity
  8
0
  6
Continuous
 62
     7
370
     0
100
AcDbLine
 10
110.4130362172
 20
201.0887758147
 30
0.0
 11
110.4130362172
 21
208.0447663512
 31
0.0
  0
LINE
  5
DD
330
CC
100
AcDbEntity
  8
0
  6
Continuous
 62
     7
370
     0
100
AcDbLine
 10
118.4130362172
 20
201.0887758147
 30
0.0
 11
118.4130362172
 21
208.0447663512
 31
0.0
  0
LINE
  5
DE
330
CC
100
AcDbEntity
  8
0
  6
Continuous
 62
     7
370
     0
100
AcDbLine
 10
110.4130362172
 20
207.0447663512
 30
0.0
 11
118.4130362172
 21
207.0447663512
 31
0.0
  0
MTEXT
  5
DF
330
CC
100
AcDbEntity
  8
0
  6
Continuous
 62
     7
370
     0
100
AcDbMText
 10
113.395129621
 20
211.1174933911
 30
0.0
 40
3.5
 41
0.0
 71
     1
 72
     1
  1
8
  7
SLDTEXTSTYLE0
 73
     1
 44
1.0
  0
ENDBLK
  5
D8
330
CC
100
AcDbEntity
  8
0
100
AcDbBlockEnd
  0
BLOCK
  5
EB
330
E1
100
AcDbEntity
  8
0
100
AcDbBlockBegin
  2
*D7
 70
     1
 71
     0
 10
0.0
 20
0.0
 30
0.0
  3
*D7
  1

  0
INSERT
  5
ED
330
E1
100
AcDbEntity
  8
0
  6
Continuous
 62
     7
370
     0
100
AcDbBlockReference
  2
_Open30
 10
118.4130362172
 20
213.9790134602
 30
13.3795634921
 41
3.0
 42
3.0
 50
360.0
  0
INSERT
  5
EE
330
E1
100
AcDbEntity
  8
0
  6
Continuous
 62
     7
370
     0
100
AcDbBlockReference
  2
_Open30
 10
108.4130362172
 20
213.9790134602
 30
13.3795634921
 41
3.0
 42
3.0
 50
180.0
  0
LINE
  5
EF
330
E1
100
AcDbEntity
  8
0
  6
Continuous
 62
     7
370
     0
100
AcDbLine
 10
118.4130362172
 20
201.0887758147
 30
0.0
 11
118.4130362172
 21
214.9790134602
 31
0.0
  0
LINE
  5
F0
330
E1
100
AcDbEntity
  8
0
  6
Continuous
 62
     7
370
     0
100
AcDbLine
 10
108.4130362172
 20
199.8887758147
 30
0.0
 11
108.4130362172
 21
214.9790134602
 31
0.0
  0
LINE
  5
F1
330
E1
100
AcDbEntity
  8
0
  6
Continuous
 62
     7
370
     0
100
AcDbLine
 10
118.4130362172
 20
213.9790134602
 30
0.0
 11
108.4130362172
 21
213.9790134602
 31
0.0
  0
MTEXT
  5
F2
330
E1
100
AcDbEntity
  8
0
  6
Continuous
 62
     7
370
     0
100
AcDbMText
 10
111.3767240509
 20
218.0517405001
 30
0.0
 40
3.5
 41
0.0
 71
     1
 72
     1
  1
10
  7
SLDTEXTSTYLE0
 73
     1
 44
1.0
  0
ENDBLK
  5
EC
330
E1
100
AcDbEntity
  8
0
100
AcDbBlockEnd
  0
BLOCK
  5
FE
330
F4
100
AcDbEntity
  8
0
100
AcDbBlockBegin
  2
*D8
 70
     1
 71
     0
 10
0.0
 20
0.0
 30
0.0
  3
*D8
  1

  0
INSERT
  5
100
330
F4
100
AcDbEntity
  8
0
  6
Continuous
 62
     7
370
     0
100
AcDbBlockReference
  2
_Open30
 10
52.4130362172
 20
213.9790134602
 30
13.3795634921
 41
3.0
 42
3.0
 50
180.0
  0
INSERT
  5
101
330
F4
100
AcDbEntity
  8
0
  6
Continuous
 62
     7
370
     0
100
AcDbBlockReference
  2
_Open30
 10
108.4130362172
 20
213.9790134602
 30
13.3795634921
 41
3.0
 42
3.0
 50
360.0
  0
LINE
  5
102
330
F4
100
AcDbEntity
  8
0
  6
Continuous
 62
     7
370
     0
100
AcDbLine
 10
52.4130362172
 20
199.8887758147
 30
0.0
 11
52.4130362172
 21
214.9790134602
 31
0.0
  0
LINE
  5
103
330
F4
100
AcDbEntity
  8
0
  6
Continuous
 62
     7
370
     0
100
AcDbLine
 10
108.4130362172
 20
199.8887758147
 30
0.0
 11
108.4130362172
 21
214.9790134602
 31
0.0
  0
LINE
  5
104
330
F4
100
AcDbEntity
  8
0
  6
Continuous
 62
     7
370
     0
100
AcDbLine
 10
52.4130362172
 20
213.9790134602
 30
0.0
 11
108.4130362172
 21
213.9790134602
 31
0.0
  0
MTEXT
  5
105
330
F4
100
AcDbEntity
  8
0
  6
Continuous
 62
     7
370
     0
100
AcDbMText
 10
78.3767240509
 20
218.0517405001
 30
0.0
 40
3.5
 41
0.0
 71
     1
 72
     1
  1
56
  7
SLDTEXTSTYLE0
 73
     1
 44
1.0
  0
ENDBLK
  5
FF
330
F4
100
AcDbEntity
  8
0
100
AcDbBlockEnd
  0
BLOCK
  5
111
330
107
100
AcDbEntity
  8
0
100
AcDbBlockBegin
  2
*D9
 70
     1
 71
     0
 10
0.0
 20
0.0
 30
0.0
  3
*D9
  1

  0
INSERT
  5
113
330
107
100
AcDbEntity
  8
0
  6
Continuous
 62
     7
370
     0
100
AcDbBlockReference
  2
_Open30
 10
52.4130362172
 20
222.4074582305
 30
13.3795634921
 41
3.0
 42
3.0
 50
180.0
  0
INSERT
  5
114
330
107
100
AcDbEntity
  8
0
  6
Continuous
 62
     7
370
     0
100
AcDbBlockReference
  2
_Open30
 10
118.4130362172
 20
222.4074582305
 30
13.3795634921
 41
3.0
 42
3.0
 50
360.0
  0
LINE
  5
115
330
107
100
AcDbEntity
  8
0
  6
Continuous
 62
     7
370
     0
100
AcDbLine
 10
52.4130362172
 20
201.5887758147
 30
0.0
 11
52.4130362172
 21
223.4074582305
 31
0.0
  0
LINE
  5
116
330
107
100
AcDbEntity
  8
0
  6
Continuous
 62
     7
370
     0
100
AcDbLine
 10
118.4130362172
 20
201.0887758147
 30
0.0
 11
118.4130362172
 21
223.4074582305
 31
0.0
  0
LINE
  5
117
330
107
100
AcDbEntity
  8
0
  6
Continuous
 62
     7
370
     0
100
AcDbLine
 10
52.4130362172
 20
222.4074582305
 30
0.0
 11
118.4130362172
 21
222.4074582305
 31
0.0
  0
MTEXT
  5
118
330
107
100
AcDbEntity
  8
0
  6
Continuous
 62
     7
370
     0
100
AcDbMText
 10
83.3767240509
 20
226.4801852704
 30
0.0
 40
3.5
 41
0.0
 71
     1
 72
     1
  1
66
  7
SLDTEXTSTYLE0
 73
     1
 44
1.0
  0
ENDBLK
  5
112
330
107
100
AcDbEntity
  8
0
100
AcDbBlockEnd
  0
BLOCK
  5
125
330
11A
100
AcDbEntity
  8
0
100
AcDbBlockBegin
  2
*D10
 70
     1
 71
     0
 10
0.0
 20
0.0
 30
0.0
  3
*D10
  1

  0
INSERT
  5
127
330
11A
100
AcDbEntity
  8
0
  6
Continuous
 62
     7
370
     0
100
AcDbBlockReference
  2
_Open30
 10
48.896107059
 20
175.8887758147
 30
13.3795634921
 41
3.0
 42
3.0
 50
270.0
  0
INSERT
  5
128
330
11A
100
AcDbEntity
  8
0
  6
Continuous
 62
     7
370
     0
100
AcDbBlockReference
  2
_Open30
 10
48.896107059
 20
188.3887758147
 30
13.3795634921
 41
3.0
 42
3.0
 50
90.0
  0
LINE
  5
129
330
11A
100
AcDbEntity
  8
0
  6
Continuous
 62
     7
370
     0
100
AcDbLine
 10
51.7130362172
 20
175.8887758147
 30
0.0
 11
47.896107059
 21
175.8887758147
 31
0.0
  0
LINE
  5
12A
330
11A
100
AcDbEntity
  8
0
  6
Continuous
 62
     7
370
     0
100
AcDbLine
 10
56.4630362172
 20
188.3887758147
 30
0.0
 11
47.896107059
 21
188.3887758147
 31
0.0
  0
LINE
  5
12B
330
11A
100
AcDbEntity
  8
0
  6
Continuous
 62
     7
370
     0
100
AcDbLine
 10
48.896107059
 20
175.8887758147
 30
0.0
 11
48.896107059
 21
188.3887758147
 31
0.0
  0
MTEXT
  5
12C
330
11A
100
AcDbEntity
  8
0
  6
Continuous
 62
     7
370
     0
100
AcDbMText
 10
44.8233800191
 20
178.0656525082
 30
0.0
 40
3.5
 41
0.0
 71
     1
 72
     1
  1
12.5
  7
SLDTEXTSTYLE0
 11
3.835988601416651E-15
 21
1.0
 31
0.0
 73
     1
 44
1.0
  0
ENDBLK
  5
126
330
11A
100
AcDbEntity
  8
0
100
AcDbBlockEnd
  0
BLOCK
  5
139
330
12E
100
AcDbEntity
  8
0
100
AcDbBlockBegin
  2
*D11
 70
     1
 71
     0
 10
0.0
 20
0.0
 30
0.0
  3
*D11
  1

  0
INSERT
  5
13B
330
12E
100
AcDbEntity
  8
0
  6
Continuous
 62
     7
370
     0
100
AcDbBlockReference
  2
_Open30
 10
42.098006135
 20
200.8887758147
 30
13.3795634921
 41
3.0
 42
3.0
 50
90.0
  0
INSERT
  5
13C
330
12E
100
AcDbEntity
  8
0
  6
Continuous
 62
     7
370
     0
100
AcDbBlockReference
  2
_Open30
 10
42.098006135
 20
175.8887758147
 30
13.3795634921
 41
3.0
 42
3.0
 50
270.0
  0
LINE
  5
13D
330
12E
100
AcDbEntity
  8
0
  6
Continuous
 62
     7
370
     0
100
AcDbLine
 10
51.7130362172
 20
200.8887758147
 30
0.0
 11
41.098006135
 21
200.8887758147
 31
0.0
  0
LINE
  5
13E
330
12E
100
AcDbEntity
  8
0
  6
Continuous
 62
     7
370
     0
100
AcDbLine
 10
51.7130362172
 20
175.8887758147
 30
0.0
 11
41.098006135
 21
175.8887758147
 31
0.0
  0
LINE
  5
13F
330
12E
100
AcDbEntity
  8
0
  6
Continuous
 62
     7
370
     0
100
AcDbLine
 10
42.098006135
 20
200.8887758147
 30
0.0
 11
42.098006135
 21
175.8887758147
 31
0.0
  0
MTEXT
  5
140
330
12E
100
AcDbEntity
  8
0
  6
Continuous
 62
     7
370
     0
100
AcDbMText
 10
38.0252790951
 20
186.3524636483
 30
0.0
 40
3.5
 41
0.0
 71
     1
 72
     1
  1
25
  7
SLDTEXTSTYLE0
 11
-3.491483361109382E-15
 21
1.0
 31
0.0
 73
     1
 44
1.0
  0
ENDBLK
  5
13A
330
12E
100
AcDbEntity
  8
0
100
AcDbBlockEnd
  0
BLOCK
  5
142
330
141
100
AcDbEntity
  8
0
100
AcDbBlockBegin
  2
SW_NOTE_1
 70
     0
 71
     0
 10
0.0
 20
0.0
 30
0.0
  3
SW_NOTE_1
  1

  0
MTEXT
  5
144
330
141
100
AcDbEntity
  8
0
  6
Continuous
 62
     7
370
     0
100
AcDbMText
 10
-0.0005688181
 20
8.5729930719
 30
20.0
 40
3.5
 41
0.0
 71
     1
 72
     1
  1
配管ネジ
  7
SLDTEXTSTYLE0
 73
     1
 44
1.0
  0
MTEXT
  5
145
330
141
100
AcDbEntity
  8
0
  6
Continuous
 62
     7
370
     0
100
AcDbMText
 10
-0.0005688181
 20
4.0729932657
 30
20.0
 40
3.5
 41
0.0
 71
     1
 72
     1
  1
　　2-M5
  7
SLDTEXTSTYLE0
 73
     1
 44
1.0
  0
ENDBLK
  5
143
330
141
100
AcDbEntity
  8
0
100
AcDbBlockEnd
  0
BLOCK
  5
14A
330
149
100
AcDbEntity
  8
0
100
AcDbBlockBegin
  2
SW_CENTERMARKSYMBOL_0
 70
     0
 71
     0
 10
0.0
 20
0.0
 30
0.0
  3
SW_CENTERMARKSYMBOL_0
  1

  0
LINE
  5
14C
330
149
100
AcDbEntity
  8
0
  6
Continuous
 62
     7
370
     0
100
AcDbLine
 10
0.0
 20
0.0
 30
0.0
 11
0.0
 21
2.5
 31
0.0
  0
LINE
  5
14D
330
149
100
AcDbEntity
  8
0
  6
Continuous
 62
     7
370
     0
100
AcDbLine
 10
0.0
 20
0.0
 30
0.0
 11
-2.5
 21
0.0
 31
0.0
  0
LINE
  5
14E
330
149
100
AcDbEntity
  8
0
  6
Continuous
 62
     7
370
     0
100
AcDbLine
 10
0.0
 20
0.0
 30
0.0
 11
0.0
 21
-2.5
 31
0.0
  0
LINE
  5
14F
330
149
100
AcDbEntity
  8
0
  6
Continuous
 62
     7
370
     0
100
AcDbLine
 10
0.0
 20
0.0
 30
0.0
 11
2.5
 21
0.0
 31
0.0
  0
LINE
  5
150
330
149
100
AcDbEntity
  8
0
  6
Continuous
 62
     7
370
     0
100
AcDbLine
 10
0.0
 20
2.5
 30
0.0
 11
0.0
 21
4.95
 31
0.0
  0
LINE
  5
151
330
149
100
AcDbEntity
  8
0
  6
Continuous
 62
     7
370
     0
100
AcDbLine
 10
-2.5
 20
0.0
 30
0.0
 11
-4.95
 21
0.0
 31
0.0
  0
LINE
  5
152
330
149
100
AcDbEntity
  8
0
  6
Continuous
 62
     7
370
     0
100
AcDbLine
 10
0.0
 20
-2.5
 30
0.0
 11
0.0
 21
-4.95
 31
0.0
  0
LINE
  5
153
330
149
100
AcDbEntity
  8
0
  6
Continuous
 62
     7
370
     0
100
AcDbLine
 10
2.5
 20
0.0
 30
0.0
 11
4.95
 21
0.0
 31
0.0
  0
ENDBLK
  5
14B
330
149
100
AcDbEntity
  8
0
100
AcDbBlockEnd
  0
BLOCK
  5
156
330
155
100
AcDbEntity
  8
0
100
AcDbBlockBegin
  2
SW_CENTERMARKSYMBOL_1
 70
     0
 71
     0
 10
0.0
 20
0.0
 30
0.0
  3
SW_CENTERMARKSYMBOL_1
  1

  0
LINE
  5
158
330
155
100
AcDbEntity
  8
0
  6
Continuous
 62
     7
370
     0
100
AcDbLine
 10
0.0
 20
0.0
 30
0.0
 11
0.0
 21
2.5
 31
0.0
  0
LINE
  5
159
330
155
100
AcDbEntity
  8
0
  6
Continuous
 62
     7
370
     0
100
AcDbLine
 10
0.0
 20
0.0
 30
0.0
 11
-2.5
 21
0.0
 31
0.0
  0
LINE
  5
15A
330
155
100
AcDbEntity
  8
0
  6
Continuous
 62
     7
370
     0
100
AcDbLine
 10
0.0
 20
0.0
 30
0.0
 11
0.0
 21
-2.5
 31
0.0
  0
LINE
  5
15B
330
155
100
AcDbEntity
  8
0
  6
Continuous
 62
     7
370
     0
100
AcDbLine
 10
0.0
 20
0.0
 30
0.0
 11
2.5
 21
0.0
 31
0.0
  0
LINE
  5
15C
330
155
100
AcDbEntity
  8
0
  6
Continuous
 62
     7
370
     0
100
AcDbLine
 10
0.0
 20
2.5
 30
0.0
 11
0.0
 21
4.95
 31
0.0
  0
LINE
  5
15D
330
155
100
AcDbEntity
  8
0
  6
Continuous
 62
     7
370
     0
100
AcDbLine
 10
-2.5
 20
0.0
 30
0.0
 11
-4.95
 21
0.0
 31
0.0
  0
LINE
  5
15E
330
155
100
AcDbEntity
  8
0
  6
Continuous
 62
     7
370
     0
100
AcDbLine
 10
0.0
 20
-2.5
 30
0.0
 11
0.0
 21
-4.95
 31
0.0
  0
LINE
  5
15F
330
155
100
AcDbEntity
  8
0
  6
Continuous
 62
     7
370
     0
100
AcDbLine
 10
2.5
 20
0.0
 30
0.0
 11
4.95
 21
0.0
 31
0.0
  0
ENDBLK
  5
157
330
155
100
AcDbEntity
  8
0
100
AcDbBlockEnd
  0
BLOCK
  5
1FD
330
1F3
100
AcDbEntity
  8
0
100
AcDbBlockBegin
  2
*D15
 70
     1
 71
     0
 10
0.0
 20
0.0
 30
0.0
  3
*D15
  1

  0
INSERT
  5
1FF
330
1F3
100
AcDbEntity
  8
0
  6
Continuous
 62
     7
370
     0
100
AcDbBlockReference
  2
_Open30
 10
147.4155521472
 20
212.6981214559
 30
15.65
 41
3.0
 42
3.0
 50
180.0
  0
INSERT
  5
200
330
1F3
100
AcDbEntity
  8
0
  6
Continuous
 62
     7
370
     0
100
AcDbBlockReference
  2
_Open30
 10
187.4155521472
 20
212.6981214559
 30
15.65
 41
3.0
 42
3.0
 50
0.0
  0
LINE
  5
201
330
1F3
100
AcDbEntity
  8
0
  6
Continuous
 62
     7
370
     0
100
AcDbLine
 10
147.4155521472
 20
199.3887758147
 30
0.0
 11
147.4155521472
 21
213.6981214559
 31
0.0
  0
LINE
  5
202
330
1F3
100
AcDbEntity
  8
0
  6
Continuous
 62
     7
370
     0
100
AcDbLine
 10
187.4155521472
 20
199.3887758147
 30
0.0
 11
187.4155521472
 21
213.6981214559
 31
0.0
  0
LINE
  5
203
330
1F3
100
AcDbEntity
  8
0
  6
Continuous
 62
     7
370
     0
100
AcDbLine
 10
147.4155521472
 20
212.6981214559
 30
0.0
 11
187.4155521472
 21
212.6981214559
 31
0.0
  0
MTEXT
  5
204
330
1F3
100
AcDbEntity
  8
0
  6
Continuous
 62
     7
370
     0
100
AcDbMText
 10
165.3792399809
 20
216.7708484958
 30
0.0
 40
3.5
 41
0.0
 71
     1
 72
     1
  1
40
  7
SLDTEXTSTYLE0
 73
     1
 44
1.0
  0
ENDBLK
  5
1FE
330
1F3
100
AcDbEntity
  8
0
100
AcDbBlockEnd
  0
BLOCK
  5
211
330
206
100
AcDbEntity
  8
0
100
AcDbBlockBegin
  2
*D16
 70
     1
 71
     0
 10
0.0
 20
0.0
 30
0.0
  3
*D16
  1

  0
INSERT
  5
213
330
206
100
AcDbEntity
  8
0
  6
Continuous
 62
     7
370
     0
100
AcDbBlockReference
  2
_Open30
 10
136.8805119152
 20
200.3887758147
 30
15.65
 41
3.0
 42
3.0
 50
90.0
  0
INSERT
  5
214
330
206
100
AcDbEntity
  8
0
  6
Continuous
 62
     7
370
     0
100
AcDbBlockReference
  2
_Open30
 10
136.8805119152
 20
176.3887758147
 30
15.65
 41
3.0
 42
3.0
 50
270.0
  0
LINE
  5
215
330
206
100
AcDbEntity
  8
0
  6
Continuous
 62
     7
370
     0
100
AcDbLine
 10
148.4155521472
 20
200.3887758147
 30
0.0
 11
135.8805119152
 21
200.3887758147
 31
0.0
  0
LINE
  5
216
330
206
100
AcDbEntity
  8
0
  6
Continuous
 62
     7
370
     0
100
AcDbLine
 10
148.4155521472
 20
176.3887758147
 30
0.0
 11
135.8805119152
 21
176.3887758147
 31
0.0
  0
LINE
  5
217
330
206
100
AcDbEntity
  8
0
  6
Continuous
 62
     7
370
     0
100
AcDbLine
 10
136.8805119152
 20
200.3887758147
 30
0.0
 11
136.8805119152
 21
176.3887758147
 31
0.0
  0
MTEXT
  5
218
330
206
100
AcDbEntity
  8
0
  6
Continuous
 62
     7
370
     0
100
AcDbMText
 10
132.8077848753
 20
186.3524636483
 30
0.0
 40
3.5
 41
0.0
 71
     1
 72
     1
  1
24
  7
SLDTEXTSTYLE0
 11
-7.044197039909883E-15
 21
1.0
 31
0.0
 73
     1
 44
1.0
  0
ENDBLK
  5
212
330
206
100
AcDbEntity
  8
0
100
AcDbBlockEnd
  0
BLOCK
  5
225
330
21A
100
AcDbEntity
  8
0
100
AcDbBlockBegin
  2
*D17
 70
     1
 71
     0
 10
0.0
 20
0.0
 30
0.0
  3
*D17
  1

  0
INSERT
  5
227
330
21A
100
AcDbEntity
  8
0
  6
Continuous
 62
     7
370
     0
100
AcDbBlockReference
  2
_Open30
 10
142.6877836889
 20
196.3887758147
 30
15.65
 41
3.0
 42
3.0
 50
90.0
  0
INSERT
  5
228
330
21A
100
AcDbEntity
  8
0
  6
Continuous
 62
     7
370
     0
100
AcDbBlockReference
  2
_Open30
 10
142.6877836889
 20
180.3887758147
 30
15.65
 41
3.0
 42
3.0
 50
270.0
  0
LINE
  5
229
330
21A
100
AcDbEntity
  8
0
  6
Continuous
 62
     7
370
     0
100
AcDbLine
 10
145.7655521472
 20
196.3887758147
 30
0.0
 11
141.6877836889
 21
196.3887758147
 31
0.0
  0
LINE
  5
22A
330
21A
100
AcDbEntity
  8
0
  6
Continuous
 62
     7
370
     0
100
AcDbLine
 10
145.7655521472
 20
180.3887758147
 30
0.0
 11
141.6877836889
 21
180.3887758147
 31
0.0
  0
LINE
  5
22B
330
21A
100
AcDbEntity
  8
0
  6
Continuous
 62
     7
370
     0
100
AcDbLine
 10
142.6877836889
 20
196.3887758147
 30
0.0
 11
142.6877836889
 21
180.3887758147
 31
0.0
  0
MTEXT
  5
22C
330
21A
100
AcDbEntity
  8
0
  6
Continuous
 62
     7
370
     0
100
AcDbMText
 10
138.615056649
 20
186.3524636483
 30
0.0
 40
3.5
 41
0.0
 71
     1
 72
     1
  1
16
  7
SLDTEXTSTYLE0
 11
-7.044197039909883E-15
 21
1.0
 31
0.0
 73
     1
 44
1.0
  0
ENDBLK
  5
226
330
21A
100
AcDbEntity
  8
0
100
AcDbBlockEnd
  0
BLOCK
  5
238
330
22E
100
AcDbEntity
  8
0
100
AcDbBlockBegin
  2
*D18
 70
     1
 71
     0
 10
0.0
 20
0.0
 30
0.0
  3
*D18
  1

  0
INSERT
  5
23A
330
22E
100
AcDbEntity
  8
0
  6
Continuous
 62
     7
370
     0
100
AcDbBlockReference
  2
_Open30
 10
151.4155521472
 20
206.4111732082
 30
15.65
 41
3.0
 42
3.0
 50
180.0
  0
INSERT
  5
23B
330
22E
100
AcDbEntity
  8
0
  6
Continuous
 62
     7
370
     0
100
AcDbBlockReference
  2
_Open30
 10
183.4155521472
 20
206.4111732082
 30
15.65
 41
3.0
 42
3.0
 50
360.0
  0
LINE
  5
23C
330
22E
100
AcDbEntity
  8
0
  6
Continuous
 62
     7
370
     0
100
AcDbLine
 10
151.4155521472
 20
202.0387758147
 30
0.0
 11
151.4155521472
 21
207.4111732082
 31
0.0
  0
LINE
  5
23D
330
22E
100
AcDbEntity
  8
0
  6
Continuous
 62
     7
370
     0
100
AcDbLine
 10
183.4155521472
 20
201.5387758147
 30
0.0
 11
183.4155521472
 21
207.4111732082
 31
0.0
  0
LINE
  5
23E
330
22E
100
AcDbEntity
  8
0
  6
Continuous
 62
     7
370
     0
100
AcDbLine
 10
151.4155521472
 20
206.4111732082
 30
0.0
 11
183.4155521472
 21
206.4111732082
 31
0.0
  0
MTEXT
  5
23F
330
22E
100
AcDbEntity
  8
0
  6
Continuous
 62
     7
370
     0
100
AcDbMText
 10
165.3792399809
 20
210.4839002481
 30
0.0
 40
3.5
 41
0.0
 71
     1
 72
     1
  1
32
  7
SLDTEXTSTYLE0
 73
     1
 44
1.0
  0
ENDBLK
  5
239
330
22E
100
AcDbEntity
  8
0
100
AcDbBlockEnd
  0
BLOCK
  5
243
330
242
100
AcDbEntity
  8
0
100
AcDbBlockBegin
  2
SW_CENTERMARKSYMBOL_2
 70
     0
 71
     0
 10
0.0
 20
0.0
 30
0.0
  3
SW_CENTERMARKSYMBOL_2
  1

  0
LINE
  5
245
330
242
100
AcDbEntity
  8
0
  6
Continuous
 62
     7
370
     0
100
AcDbLine
 10
0.0
 20
0.0
 30
0.0
 11
0.0
 21
2.5
 31
0.0
  0
LINE
  5
246
330
242
100
AcDbEntity
  8
0
  6
Continuous
 62
     7
370
     0
100
AcDbLine
 10
0.0
 20
0.0
 30
0.0
 11
-2.5
 21
0.0
 31
0.0
  0
LINE
  5
247
330
242
100
AcDbEntity
  8
0
  6
Continuous
 62
     7
370
     0
100
AcDbLine
 10
0.0
 20
0.0
 30
0.0
 11
0.0
 21
-2.5
 31
0.0
  0
LINE
  5
248
330
242
100
AcDbEntity
  8
0
  6
Continuous
 62
     7
370
     0
100
AcDbLine
 10
0.0
 20
0.0
 30
0.0
 11
2.5
 21
0.0
 31
0.0
  0
LINE
  5
249
330
242
100
AcDbEntity
  8
0
  6
Continuous
 62
     7
370
     0
100
AcDbLine
 10
0.0
 20
2.5
 30
0.0
 11
0.0
 21
4.65
 31
0.0
  0
LINE
  5
24A
330
242
100
AcDbEntity
  8
0
  6
Continuous
 62
     7
370
     0
100
AcDbLine
 10
-2.5
 20
0.0
 30
0.0
 11
-4.65
 21
0.0
 31
0.0
  0
LINE
  5
24B
330
242
100
AcDbEntity
  8
0
  6
Continuous
 62
     7
370
     0
100
AcDbLine
 10
0.0
 20
-2.5
 30
0.0
 11
0.0
 21
-4.65
 31
0.0
  0
LINE
  5
24C
330
242
100
AcDbEntity
  8
0
  6
Continuous
 62
     7
370
     0
100
AcDbLine
 10
2.5
 20
0.0
 30
0.0
 11
4.65
 21
0.0
 31
0.0
  0
ENDBLK
  5
244
330
242
100
AcDbEntity
  8
0
100
AcDbBlockEnd
  0
BLOCK
  5
24F
330
24E
100
AcDbEntity
  8
0
100
AcDbBlockBegin
  2
SW_CENTERMARKSYMBOL_3
 70
     0
 71
     0
 10
0.0
 20
0.0
 30
0.0
  3
SW_CENTERMARKSYMBOL_3
  1

  0
LINE
  5
251
330
24E
100
AcDbEntity
  8
0
  6
Continuous
 62
     7
370
     0
100
AcDbLine
 10
0.0
 20
0.0
 30
0.0
 11
0.0
 21
2.5
 31
0.0
  0
LINE
  5
252
330
24E
100
AcDbEntity
  8
0
  6
Continuous
 62
     7
370
     0
100
AcDbLine
 10
0.0
 20
0.0
 30
0.0
 11
-2.5
 21
0.0
 31
0.0
  0
LINE
  5
253
330
24E
100
AcDbEntity
  8
0
  6
Continuous
 62
     7
370
     0
100
AcDbLine
 10
0.0
 20
0.0
 30
0.0
 11
0.0
 21
-2.5
 31
0.0
  0
LINE
  5
254
330
24E
100
AcDbEntity
  8
0
  6
Continuous
 62
     7
370
     0
100
AcDbLine
 10
0.0
 20
0.0
 30
0.0
 11
2.5
 21
0.0
 31
0.0
  0
LINE
  5
255
330
24E
100
AcDbEntity
  8
0
  6
Continuous
 62
     7
370
     0
100
AcDbLine
 10
0.0
 20
2.5
 30
0.0
 11
0.0
 21
4.65
 31
0.0
  0
LINE
  5
256
330
24E
100
AcDbEntity
  8
0
  6
Continuous
 62
     7
370
     0
100
AcDbLine
 10
-2.5
 20
0.0
 30
0.0
 11
-4.65
 21
0.0
 31
0.0
  0
LINE
  5
257
330
24E
100
AcDbEntity
  8
0
  6
Continuous
 62
     7
370
     0
100
AcDbLine
 10
0.0
 20
-2.5
 30
0.0
 11
0.0
 21
-4.65
 31
0.0
  0
LINE
  5
258
330
24E
100
AcDbEntity
  8
0
  6
Continuous
 62
     7
370
     0
100
AcDbLine
 10
2.5
 20
0.0
 30
0.0
 11
4.65
 21
0.0
 31
0.0
  0
ENDBLK
  5
250
330
24E
100
AcDbEntity
  8
0
100
AcDbBlockEnd
  0
BLOCK
  5
25B
330
25A
100
AcDbEntity
  8
0
100
AcDbBlockBegin
  2
SW_CENTERMARKSYMBOL_4
 70
     0
 71
     0
 10
0.0
 20
0.0
 30
0.0
  3
SW_CENTERMARKSYMBOL_4
  1

  0
LINE
  5
25D
330
25A
100
AcDbEntity
  8
0
  6
Continuous
 62
     7
370
     0
100
AcDbLine
 10
0.0
 20
0.0
 30
0.0
 11
0.0
 21
2.5
 31
0.0
  0
LINE
  5
25E
330
25A
100
AcDbEntity
  8
0
  6
Continuous
 62
     7
370
     0
100
AcDbLine
 10
0.0
 20
0.0
 30
0.0
 11
-2.5
 21
0.0
 31
0.0
  0
LINE
  5
25F
330
25A
100
AcDbEntity
  8
0
  6
Continuous
 62
     7
370
     0
100
AcDbLine
 10
0.0
 20
0.0
 30
0.0
 11
0.0
 21
-2.5
 31
0.0
  0
LINE
  5
260
330
25A
100
AcDbEntity
  8
0
  6
Continuous
 62
     7
370
     0
100
AcDbLine
 10
0.0
 20
0.0
 30
0.0
 11
2.5
 21
0.0
 31
0.0
  0
LINE
  5
261
330
25A
100
AcDbEntity
  8
0
  6
Continuous
 62
     7
370
     0
100
AcDbLine
 10
0.0
 20
5.0
 30
0.0
 11
0.0
 21
5.6
 31
0.0
  0
LINE
  5
262
330
25A
100
AcDbEntity
  8
0
  6
Continuous
 62
     7
370
     0
100
AcDbLine
 10
-5.0
 20
0.0
 30
0.0
 11
-5.6
 21
0.0
 31
0.0
  0
LINE
  5
263
330
25A
100
AcDbEntity
  8
0
  6
Continuous
 62
     7
370
     0
100
AcDbLine
 10
0.0
 20
-5.0
 30
0.0
 11
0.0
 21
-5.6
 31
0.0
  0
LINE
  5
264
330
25A
100
AcDbEntity
  8
0
  6
Continuous
 62
     7
370
     0
100
AcDbLine
 10
5.0
 20
0.0
 30
0.0
 11
5.6
 21
0.0
 31
0.0
  0
ENDBLK
  5
25C
330
25A
100
AcDbEntity
  8
0
100
AcDbBlockEnd
  0
BLOCK
  5
267
330
266
100
AcDbEntity
  8
0
100
AcDbBlockBegin
  2
SW_CENTERMARKSYMBOL_5
 70
     0
 71
     0
 10
0.0
 20
0.0
 30
0.0
  3
SW_CENTERMARKSYMBOL_5
  1

  0
LINE
  5
269
330
266
100
AcDbEntity
  8
0
  6
Continuous
 62
     7
370
     0
100
AcDbLine
 10
0.0
 20
0.0
 30
0.0
 11
0.0
 21
2.5
 31
0.0
  0
LINE
  5
26A
330
266
100
AcDbEntity
  8
0
  6
Continuous
 62
     7
370
     0
100
AcDbLine
 10
0.0
 20
0.0
 30
0.0
 11
-2.5
 21
0.0
 31
0.0
  0
LINE
  5
26B
330
266
100
AcDbEntity
  8
0
  6
Continuous
 62
     7
370
     0
100
AcDbLine
 10
0.0
 20
0.0
 30
0.0
 11
0.0
 21
-2.5
 31
0.0
  0
LINE
  5
26C
330
266
100
AcDbEntity
  8
0
  6
Continuous
 62
     7
370
     0
100
AcDbLine
 10
0.0
 20
0.0
 30
0.0
 11
2.5
 21
0.0
 31
0.0
  0
LINE
  5
26D
330
266
100
AcDbEntity
  8
0
  6
Continuous
 62
     7
370
     0
100
AcDbLine
 10
0.0
 20
2.5
 30
0.0
 11
0.0
 21
4.15
 31
0.0
  0
LINE
  5
26E
330
266
100
AcDbEntity
  8
0
  6
Continuous
 62
     7
370
     0
100
AcDbLine
 10
-2.5
 20
0.0
 30
0.0
 11
-4.15
 21
0.0
 31
0.0
  0
LINE
  5
26F
330
266
100
AcDbEntity
  8
0
  6
Continuous
 62
     7
370
     0
100
AcDbLine
 10
0.0
 20
-2.5
 30
0.0
 11
0.0
 21
-4.15
 31
0.0
  0
LINE
  5
270
330
266
100
AcDbEntity
  8
0
  6
Continuous
 62
     7
370
     0
100
AcDbLine
 10
2.5
 20
0.0
 30
0.0
 11
4.15
 21
0.0
 31
0.0
  0
ENDBLK
  5
268
330
266
100
AcDbEntity
  8
0
100
AcDbBlockEnd
  0
BLOCK
  5
273
330
272
100
AcDbEntity
  8
0
100
AcDbBlockBegin
  2
SW_CENTERMARKSYMBOL_6
 70
     0
 71
     0
 10
0.0
 20
0.0
 30
0.0
  3
SW_CENTERMARKSYMBOL_6
  1

  0
LINE
  5
275
330
272
100
AcDbEntity
  8
0
  6
Continuous
 62
     7
370
     0
100
AcDbLine
 10
0.0
 20
0.0
 30
0.0
 11
0.0
 21
2.5
 31
0.0
  0
LINE
  5
276
330
272
100
AcDbEntity
  8
0
  6
Continuous
 62
     7
370
     0
100
AcDbLine
 10
0.0
 20
0.0
 30
0.0
 11
-2.5
 21
0.0
 31
0.0
  0
LINE
  5
277
330
272
100
AcDbEntity
  8
0
  6
Continuous
 62
     7
370
     0
100
AcDbLine
 10
0.0
 20
0.0
 30
0.0
 11
0.0
 21
-2.5
 31
0.0
  0
LINE
  5
278
330
272
100
AcDbEntity
  8
0
  6
Continuous
 62
     7
370
     0
100
AcDbLine
 10
0.0
 20
0.0
 30
0.0
 11
2.5
 21
0.0
 31
0.0
  0
LINE
  5
279
330
272
100
AcDbEntity
  8
0
  6
Continuous
 62
     7
370
     0
100
AcDbLine
 10
0.0
 20
2.5
 30
0.0
 11
0.0
 21
4.65
 31
0.0
  0
LINE
  5
27A
330
272
100
AcDbEntity
  8
0
  6
Continuous
 62
     7
370
     0
100
AcDbLine
 10
-2.5
 20
0.0
 30
0.0
 11
-4.65
 21
0.0
 31
0.0
  0
LINE
  5
27B
330
272
100
AcDbEntity
  8
0
  6
Continuous
 62
     7
370
     0
100
AcDbLine
 10
0.0
 20
-2.5
 30
0.0
 11
0.0
 21
-4.65
 31
0.0
  0
LINE
  5
27C
330
272
100
AcDbEntity
  8
0
  6
Continuous
 62
     7
370
     0
100
AcDbLine
 10
2.5
 20
0.0
 30
0.0
 11
4.65
 21
0.0
 31
0.0
  0
ENDBLK
  5
274
330
272
100
AcDbEntity
  8
0
100
AcDbBlockEnd
  0
BLOCK
  5
33E
330
334
100
AcDbEntity
  8
0
100
AcDbBlockBegin
  2
*D24
 70
     1
 71
     0
 10
0.0
 20
0.0
 30
0.0
  3
*D24
  1

  0
INSERT
  5
340
330
334
100
AcDbEntity
  8
0
  6
Continuous
 62
     7
370
     0
100
AcDbBlockReference
  2
_Open30
 10
118.4130362172
 20
138.7827606993
 30
0.1
 41
3.0
 42
3.0
 50
360.0
  0
INSERT
  5
341
330
334
100
AcDbEntity
  8
0
  6
Continuous
 62
     7
370
     0
100
AcDbBlockReference
  2
_Open30
 10
133.4130362172
 20
138.7827606993
 30
0.1
 41
3.0
 42
3.0
 50
180.0
  0
LINE
  5
342
330
334
100
AcDbEntity
  8
0
  6
Continuous
 62
     7
370
     0
100
AcDbLine
 10
118.4130362172
 20
128.0417091673
 30
0.0
 11
118.4130362172
 21
139.7827606993
 31
0.0
  0
LINE
  5
343
330
334
100
AcDbEntity
  8
0
  6
Continuous
 62
     7
370
     0
100
AcDbLine
 10
133.4130362172
 20
128.3417091673
 30
0.0
 11
133.4130362172
 21
139.7827606993
 31
0.0
  0
LINE
  5
344
330
334
100
AcDbEntity
  8
0
  6
Continuous
 62
     7
370
     0
100
AcDbLine
 10
118.4130362172
 20
138.7827606993
 30
0.0
 11
113.4130362172
 21
138.7827606993
 31
0.0
  0
LINE
  5
345
330
334
100
AcDbEntity
  8
0
  6
Continuous
 62
     7
370
     0
100
AcDbLine
 10
118.4130362172
 20
138.7827606993
 30
0.0
 11
133.4130362172
 21
138.7827606993
 31
0.0
  0
LINE
  5
346
330
334
100
AcDbEntity
  8
0
  6
Continuous
 62
     7
370
     0
100
AcDbLine
 10
133.4130362172
 20
138.7827606993
 30
0.0
 11
138.4130362172
 21
138.7827606993
 31
0.0
  0
MTEXT
  5
347
330
334
100
AcDbEntity
  8
0
  6
Continuous
 62
     7
370
     0
100
AcDbMText
 10
121.8404118845
 20
142.8554877392
 30
0.0
 40
3.5
 41
0.0
 71
     1
 72
     1
  1
15
  7
SLDTEXTSTYLE0
 73
     1
 44
1.0
  0
MTEXT
  5
348
330
334
100
AcDbEntity
  8
0
  6
Continuous
 62
     7
370
     0
100
AcDbMText
 10
125.9130362172
 20
142.8554877392
 30
0.0
 40
3.5
 41
0.0
 71
     1
 72
     1
  1
st
  7
SLDTEXTSTYLE0
 73
     1
 44
1.0
  0
ENDBLK
  5
33F
330
334
100
AcDbEntity
  8
0
100
AcDbBlockEnd
  0
BLOCK
  5
355
330
34A
100
AcDbEntity
  8
0
100
AcDbBlockBegin
  2
*D25
 70
     1
 71
     0
 10
0.0
 20
0.0
 30
0.0
  3
*D25
  1

  0
INSERT
  5
357
330
34A
100
AcDbEntity
  8
0
  6
Continuous
 62
     7
370
     0
100
AcDbBlockReference
  2
_Open30
 10
36.5897182107
 20
123.3417091673
 30
12.3086309524
 41
3.0
 42
3.0
 50
90.0
  0
INSERT
  5
358
330
34A
100
AcDbEntity
  8
0
  6
Continuous
 62
     7
370
     0
100
AcDbBlockReference
  2
_Open30
 10
36.5897182107
 20
91.3417091673
 30
12.3086309524
 41
3.0
 42
3.0
 50
270.0
  0
LINE
  5
359
330
34A
100
AcDbEntity
  8
0
  6
Continuous
 62
     7
370
     0
100
AcDbLine
 10
73.5130362172
 20
123.3417091673
 30
0.0
 11
35.5897182107
 21
123.3417091673
 31
0.0
  0
LINE
  5
35A
330
34A
100
AcDbEntity
  8
0
  6
Continuous
 62
     7
370
     0
100
AcDbLine
 10
73.5130362172
 20
91.3417091673
 30
0.0
 11
35.5897182107
 21
91.3417091673
 31
0.0
  0
LINE
  5
35B
330
34A
100
AcDbEntity
  8
0
  6
Continuous
 62
     7
370
     0
100
AcDbLine
 10
36.5897182107
 20
123.3417091673
 30
0.0
 11
36.5897182107
 21
91.3417091673
 31
0.0
  0
MTEXT
  5
35C
330
34A
100
AcDbEntity
  8
0
  6
Continuous
 62
     7
370
     0
100
AcDbMText
 10
32.5169911708
 20
105.3053970009
 30
0.0
 40
3.5
 41
0.0
 71
     1
 72
     1
  1
32
  7
SLDTEXTSTYLE0
 11
-7.044197039909883E-15
 21
1.0
 31
0.0
 73
     1
 44
1.0
  0
ENDBLK
  5
356
330
34A
100
AcDbEntity
  8
0
100
AcDbBlockEnd
  0
BLOCK
  5
368
330
35E
100
AcDbEntity
  8
0
100
AcDbBlockBegin
  2
*D26
 70
     1
 71
     0
 10
0.0
 20
0.0
 30
0.0
  3
*D26
  1

  0
INSERT
  5
36A
330
35E
100
AcDbEntity
  8
0
  6
Continuous
 62
     7
370
     0
100
AcDbBlockReference
  2
_Open30
 10
79.4130362172
 20
78.4170745821
 30
12.3086309524
 41
3.0
 42
3.0
 50
180.0
  0
INSERT
  5
36B
330
35E
100
AcDbEntity
  8
0
  6
Continuous
 62
     7
370
     0
100
AcDbBlockReference
  2
_Open30
 10
91.4130362172
 20
78.4170745821
 30
12.3086309524
 41
3.0
 42
3.0
 50
360.0
  0
LINE
  5
36C
330
35E
100
AcDbEntity
  8
0
  6
Continuous
 62
     7
370
     0
100
AcDbLine
 10
79.4130362172
 20
85.4417091673
 30
0.0
 11
79.4130362172
 21
77.4170745821
 31
0.0
  0
LINE
  5
36D
330
35E
100
AcDbEntity
  8
0
  6
Continuous
 62
     7
370
     0
100
AcDbLine
 10
91.4130362172
 20
85.4417091673
 30
0.0
 11
91.4130362172
 21
77.4170745821
 31
0.0
  0
LINE
  5
36E
330
35E
100
AcDbEntity
  8
0
  6
Continuous
 62
     7
370
     0
100
AcDbLine
 10
79.4130362172
 20
78.4170745821
 30
0.0
 11
91.4130362172
 21
78.4170745821
 31
0.0
  0
MTEXT
  5
36F
330
35E
100
AcDbEntity
  8
0
  6
Continuous
 62
     7
370
     0
100
AcDbMText
 10
83.3767240509
 20
82.489801622
 30
0.0
 40
3.5
 41
0.0
 71
     1
 72
     1
  1
12
  7
SLDTEXTSTYLE0
 73
     1
 44
1.0
  0
ENDBLK
  5
369
330
35E
100
AcDbEntity
  8
0
100
AcDbBlockEnd
  0
BLOCK
  5
37B
330
371
100
AcDbEntity
  8
0
100
AcDbBlockBegin
  2
*D27
 70
     1
 71
     0
 10
0.0
 20
0.0
 30
0.0
  3
*D27
  1

  0
INSERT
  5
37D
330
371
100
AcDbEntity
  8
0
  6
Continuous
 62
     7
370
     0
100
AcDbBlockReference
  2
_Open30
 10
91.4130362172
 20
78.4170745821
 30
12.3086309524
 41
3.0
 42
3.0
 50
180.0
  0
INSERT
  5
37E
330
371
100
AcDbEntity
  8
0
  6
Continuous
 62
     7
370
     0
100
AcDbBlockReference
  2
_Open30
 10
108.4130362172
 20
78.4170745821
 30
12.3086309524
 41
3.0
 42
3.0
 50
360.0
  0
LINE
  5
37F
330
371
100
AcDbEntity
  8
0
  6
Continuous
 62
     7
370
     0
100
AcDbLine
 10
91.4130362172
 20
85.4417091673
 30
0.0
 11
91.4130362172
 21
77.4170745821
 31
0.0
  0
LINE
  5
380
330
371
100
AcDbEntity
  8
0
  6
Continuous
 62
     7
370
     0
100
AcDbLine
 10
108.4130362172
 20
98.5417091673
 30
0.0
 11
108.4130362172
 21
77.4170745821
 31
0.0
  0
LINE
  5
381
330
371
100
AcDbEntity
  8
0
  6
Continuous
 62
     7
370
     0
100
AcDbLine
 10
91.4130362172
 20
78.4170745821
 30
0.0
 11
108.4130362172
 21
78.4170745821
 31
0.0
  0
MTEXT
  5
382
330
371
100
AcDbEntity
  8
0
  6
Continuous
 62
     7
370
     0
100
AcDbMText
 10
97.8767240509
 20
82.489801622
 30
0.0
 40
3.5
 41
0.0
 71
     1
 72
     1
  1
17
  7
SLDTEXTSTYLE0
 73
     1
 44
1.0
  0
ENDBLK
  5
37C
330
371
100
AcDbEntity
  8
0
100
AcDbBlockEnd
  0
BLOCK
  5
38F
330
384
100
AcDbEntity
  8
0
100
AcDbBlockBegin
  2
*D28
 70
     1
 71
     0
 10
0.0
 20
0.0
 30
0.0
  3
*D28
  1

  0
INSERT
  5
391
330
384
100
AcDbEntity
  8
0
  6
Continuous
 62
     7
370
     0
100
AcDbBlockReference
  2
_Open30
 10
26.9624421857
 20
127.3417091673
 30
12.3086309524
 41
3.0
 42
3.0
 50
90.0
  0
INSERT
  5
392
330
384
100
AcDbEntity
  8
0
  6
Continuous
 62
     7
370
     0
100
AcDbBlockReference
  2
_Open30
 10
26.9624421857
 20
87.3417091673
 30
12.3086309524
 41
3.0
 42
3.0
 50
270.0
  0
LINE
  5
393
330
384
100
AcDbEntity
  8
0
  6
Continuous
 62
     7
370
     0
100
AcDbLine
 10
51.7130362172
 20
127.3417091673
 30
0.0
 11
25.9624421857
 21
127.3417091673
 31
0.0
  0
LINE
  5
394
330
384
100
AcDbEntity
  8
0
  6
Continuous
 62
     7
370
     0
100
AcDbLine
 10
51.7130362172
 20
87.3417091673
 30
0.0
 11
25.9624421857
 21
87.3417091673
 31
0.0
  0
LINE
  5
395
330
384
100
AcDbEntity
  8
0
  6
Continuous
 62
     7
370
     0
100
AcDbLine
 10
26.9624421857
 20
127.3417091673
 30
0.0
 11
26.9624421857
 21
87.3417091673
 31
0.0
  0
MTEXT
  5
396
330
384
100
AcDbEntity
  8
0
  6
Continuous
 62
     7
370
     0
100
AcDbMText
 10
22.8897151458
 20
105.3053970009
 30
0.0
 40
3.5
 41
0.0
 71
     1
 72
     1
  1
40
  7
SLDTEXTSTYLE0
 11
-3.491483361109382E-15
 21
1.0
 31
0.0
 73
     1
 44
1.0
  0
ENDBLK
  5
390
330
384
100
AcDbEntity
  8
0
100
AcDbBlockEnd
  0
BLOCK
  5
3A2
330
398
100
AcDbEntity
  8
0
100
AcDbBlockBegin
  2
*D29
 70
     1
 71
     0
 10
0.0
 20
0.0
 30
0.0
  3
*D29
  1

  0
INSERT
  5
3A4
330
398
100
AcDbEntity
  8
0
  6
Continuous
 62
     7
370
     0
100
AcDbBlockReference
  2
_Open30
 10
79.4130362172
 20
71.2803613019
 30
12.3086309524
 41
3.0
 42
3.0
 50
180.0
  0
INSERT
  5
3A5
330
398
100
AcDbEntity
  8
0
  6
Continuous
 62
     7
370
     0
100
AcDbBlockReference
  2
_Open30
 10
118.4130362172
 20
71.2803613019
 30
12.3086309524
 41
3.0
 42
3.0
 50
360.0
  0
LINE
  5
3A6
330
398
100
AcDbEntity
  8
0
  6
Continuous
 62
     7
370
     0
100
AcDbLine
 10
79.4130362172
 20
117.4417091673
 30
0.0
 11
79.4130362172
 21
70.2803613019
 31
0.0
  0
LINE
  5
3A7
330
398
100
AcDbEntity
  8
0
  6
Continuous
 62
     7
370
     0
100
AcDbLine
 10
118.4130362172
 20
86.6417091673
 30
0.0
 11
118.4130362172
 21
70.2803613019
 31
0.0
  0
LINE
  5
3A8
330
398
100
AcDbEntity
  8
0
  6
Continuous
 62
     7
370
     0
100
AcDbLine
 10
79.4130362172
 20
71.2803613019
 30
0.0
 11
118.4130362172
 21
71.2803613019
 31
0.0
  0
MTEXT
  5
3A9
330
398
100
AcDbEntity
  8
0
  6
Continuous
 62
     7
370
     0
100
AcDbMText
 10
96.8767240509
 20
75.3530883418
 30
0.0
 40
3.5
 41
0.0
 71
     1
 72
     1
  1
39
  7
SLDTEXTSTYLE0
 73
     1
 44
1.0
  0
ENDBLK
  5
3A3
330
398
100
AcDbEntity
  8
0
100
AcDbBlockEnd
  0
BLOCK
  5
3AB
330
3AA
100
AcDbEntity
  8
0
100
AcDbBlockBegin
  2
SW_NOTE_2
 70
     0
 71
     0
 10
0.0
 20
0.0
 30
0.0
  3
SW_NOTE_2
  1

  0
MTEXT
  5
3AD
330
3AA
100
AcDbEntity
  8
0
  6
Continuous
 62
     7
370
     0
100
AcDbMText
 10
-0.0003525449
 20
8.5717727171
 30
12.6
 40
3.5
 41
0.0
 71
     1
 72
     1
  1
有接点オートスイッチ
  7
SLDTEXTSTYLE0
 73
     1
 44
1.0
  0
MTEXT
  5
3AE
330
3AA
100
AcDbEntity
  8
0
  6
Continuous
 62
     7
370
     0
100
AcDbMText
 10
-0.0003525449
 20
4.0717729109
 30
12.6
 40
3.5
 41
0.0
 71
     1
 72
     1
  1
　　　　　　(別売品)
  7
SLDTEXTSTYLE0
 73
     1
 44
1.0
  0
ENDBLK
  5
3AC
330
3AA
100
AcDbEntity
  8
0
100
AcDbBlockEnd
  0
BLOCK
  5
3B4
330
3B3
100
AcDbEntity
  8
0
100
AcDbBlockBegin
  2
SW_CENTERMARKSYMBOL_7
 70
     0
 71
     0
 10
0.0
 20
0.0
 30
0.0
  3
SW_CENTERMARKSYMBOL_7
  1

  0
LINE
  5
3B6
330
3B3
100
AcDbEntity
  8
0
  6
Continuous
 62
     7
370
     0
100
AcDbLine
 10
0.0
 20
0.0
 30
0.0
 11
0.0
 21
2.4999994785
 31
0.0
  0
LINE
  5
3B7
330
3B3
100
AcDbEntity
  8
0
  6
Continuous
 62
     7
370
     0
100
AcDbLine
 10
0.0
 20
0.0
 30
0.0
 11
-2.4999994785
 21
0.0
 31
0.0
  0
LINE
  5
3B8
330
3B3
100
AcDbEntity
  8
0
  6
Continuous
 62
     7
370
     0
100
AcDbLine
 10
0.0
 20
0.0
 30
0.0
 11
0.0
 21
-2.5000004098
 31
0.0
  0
LINE
  5
3B9
330
3B3
100
AcDbEntity
  8
0
  6
Continuous
 62
     7
370
     0
100
AcDbLine
 10
0.0
 20
0.0
 30
0.0
 11
2.5000004098
 21
0.0
 31
0.0
  0
LINE
  5
3BA
330
3B3
100
AcDbEntity
  8
0
  6
Continuous
 62
     7
370
     0
100
AcDbLine
 10
0.0
 20
2.4999994785
 30
0.0
 11
0.0
 21
4.8999991268
 31
0.0
  0
LINE
  5
3BB
330
3B3
100
AcDbEntity
  8
0
  6
Continuous
 62
     7
370
     0
100
AcDbLine
 10
-2.4999994785
 20
0.0
 30
0.0
 11
-4.8999995925
 21
0.0
 31
0.0
  0
LINE
  5
3BC
330
3B3
100
AcDbEntity
  8
0
  6
Continuous
 62
     7
370
     0
100
AcDbLine
 10
0.0
 20
-2.5000004098
 30
0.0
 11
0.0
 21
-4.9000009894
 31
0.0
  0
LINE
  5
3BD
330
3B3
100
AcDbEntity
  8
0
  6
Continuous
 62
     7
370
     0
100
AcDbLine
 10
2.5000004098
 20
0.0
 30
0.0
 11
4.9000000581
 21
0.0
 31
0.0
  0
ENDBLK
  5
3B5
330
3B3
100
AcDbEntity
  8
0
100
AcDbBlockEnd
  0
BLOCK
  5
3C0
330
3BF
100
AcDbEntity
  8
0
100
AcDbBlockBegin
  2
SW_CENTERMARKSYMBOL_8
 70
     0
 71
     0
 10
0.0
 20
0.0
 30
0.0
  3
SW_CENTERMARKSYMBOL_8
  1

  0
LINE
  5
3C2
330
3BF
100
AcDbEntity
  8
0
  6
Continuous
 62
     7
370
     0
100
AcDbLine
 10
0.0
 20
0.0
 30
0.0
 11
0.0
 21
2.5000004098
 31
0.0
  0
LINE
  5
3C3
330
3BF
100
AcDbEntity
  8
0
  6
Continuous
 62
     7
370
     0
100
AcDbLine
 10
0.0
 20
0.0
 30
0.0
 11
-2.4999994785
 21
0.0
 31
0.0
  0
LINE
  5
3C4
330
3BF
100
AcDbEntity
  8
0
  6
Continuous
 62
     7
370
     0
100
AcDbLine
 10
0.0
 20
0.0
 30
0.0
 11
0.0
 21
-2.4999994785
 31
0.0
  0
LINE
  5
3C5
330
3BF
100
AcDbEntity
  8
0
  6
Continuous
 62
     7
370
     0
100
AcDbLine
 10
0.0
 20
0.0
 30
0.0
 11
2.5000004098
 21
0.0
 31
0.0
  0
LINE
  5
3C6
330
3BF
100
AcDbEntity
  8
0
  6
Continuous
 62
     7
370
     0
100
AcDbLine
 10
0.0
 20
2.5000004098
 30
0.0
 11
0.0
 21
4.9000009894
 31
0.0
  0
LINE
  5
3C7
330
3BF
100
AcDbEntity
  8
0
  6
Continuous
 62
     7
370
     0
100
AcDbLine
 10
-2.4999994785
 20
0.0
 30
0.0
 11
-4.8999995925
 21
0.0
 31
0.0
  0
LINE
  5
3C8
330
3BF
100
AcDbEntity
  8
0
  6
Continuous
 62
     7
370
     0
100
AcDbLine
 10
0.0
 20
-2.4999994785
 30
0.0
 11
0.0
 21
-4.8999991268
 31
0.0
  0
LINE
  5
3C9
330
3BF
100
AcDbEntity
  8
0
  6
Continuous
 62
     7
370
     0
100
AcDbLine
 10
2.5000004098
 20
0.0
 30
0.0
 11
4.9000000581
 21
0.0
 31
0.0
  0
ENDBLK
  5
3C1
330
3BF
100
AcDbEntity
  8
0
100
AcDbBlockEnd
  0
BLOCK
  5
3CC
330
3CB
100
AcDbEntity
  8
0
100
AcDbBlockBegin
  2
SW_CENTERMARKSYMBOL_9
 70
     0
 71
     0
 10
0.0
 20
0.0
 30
0.0
  3
SW_CENTERMARKSYMBOL_9
  1

  0
LINE
  5
3CE
330
3CB
100
AcDbEntity
  8
0
  6
Continuous
 62
     7
370
     0
100
AcDbLine
 10
0.0
 20
0.0
 30
0.0
 11
0.0
 21
2.5000004098
 31
0.0
  0
LINE
  5
3CF
330
3CB
100
AcDbEntity
  8
0
  6
Continuous
 62
     7
370
     0
100
AcDbLine
 10
0.0
 20
0.0
 30
0.0
 11
-2.4999994785
 21
0.0
 31
0.0
  0
LINE
  5
3D0
330
3CB
100
AcDbEntity
  8
0
  6
Continuous
 62
     7
370
     0
100
AcDbLine
 10
0.0
 20
0.0
 30
0.0
 11
0.0
 21
-2.4999994785
 31
0.0
  0
LINE
  5
3D1
330
3CB
100
AcDbEntity
  8
0
  6
Continuous
 62
     7
370
     0
100
AcDbLine
 10
0.0
 20
0.0
 30
0.0
 11
2.4999994785
 21
0.0
 31
0.0
  0
LINE
  5
3D2
330
3CB
100
AcDbEntity
  8
0
  6
Continuous
 62
     7
370
     0
100
AcDbLine
 10
0.0
 20
2.5000004098
 30
0.0
 11
0.0
 21
4.9000009894
 31
0.0
  0
LINE
  5
3D3
330
3CB
100
AcDbEntity
  8
0
  6
Continuous
 62
     7
370
     0
100
AcDbLine
 10
-2.4999994785
 20
0.0
 30
0.0
 11
-4.8999991268
 21
0.0
 31
0.0
  0
LINE
  5
3D4
330
3CB
100
AcDbEntity
  8
0
  6
Continuous
 62
     7
370
     0
100
AcDbLine
 10
0.0
 20
-2.4999994785
 30
0.0
 11
0.0
 21
-4.8999991268
 31
0.0
  0
LINE
  5
3D5
330
3CB
100
AcDbEntity
  8
0
  6
Continuous
 62
     7
370
     0
100
AcDbLine
 10
2.4999994785
 20
0.0
 30
0.0
 11
4.9000009894
 21
0.0
 31
0.0
  0
ENDBLK
  5
3CD
330
3CB
100
AcDbEntity
  8
0
100
AcDbBlockEnd
  0
ENDSEC
  0
SECTION
  2
ENTITIES
  0
LINE
  5
2F
330
1F
100
AcDbEntity
  8
0
  6
Continuous
 62
     7
370
     0
100
AcDbLine
 10
20.2604743903
 20
285.0
 30
0.0
 11
196.7604743903
 21
285.0
 31
0.0
  0
LINE
  5
30
330
1F
100
AcDbEntity
  8
0
  6
Continuous
 62
     7
370
     0
100
AcDbLine
 10
20.2604743903
 20
285.0
 30
0.0
 11
20.2604743903
 21
10.0
 31
0.0
  0
LINE
  5
31
330
1F
100
AcDbEntity
  8
0
  6
Continuous
 62
     7
370
     0
100
AcDbLine
 10
20.2604743903
 20
10.0
 30
0.0
 11
196.7604743903
 21
10.0
 31
0.0
  0
LINE
  5
32
330
1F
100
AcDbEntity
  8
0
  6
Continuous
 62
     7
370
     0
100
AcDbLine
 10
196.7604743903
 20
285.0
 30
0.0
 11
196.7604743903
 21
10.0
 31
0.0
  0
LINE
  5
33
330
1F
100
AcDbEntity
  8
0
  6
Continuous
 62
     7
370
     0
100
AcDbLine
 10
127.0104743903
 20
50.75
 30
0.0
 11
196.7604743903
 21
50.75
 31
0.0
  0
LINE
  5
34
330
1F
100
AcDbEntity
  8
0
  6
Continuous
 62
     7
370
     0
100
AcDbLine
 10
127.0104743903
 20
50.75
 30
0.0
 11
127.0104743903
 21
10.0
 31
0.0
  0
LINE
  5
35
330
1F
100
AcDbEntity
  8
0
  6
Continuous
 62
     7
370
     0
100
AcDbLine
 10
127.0104743903
 20
22.75
 30
0.0
 11
196.7604743903
 21
22.75
 31
0.0
  0
LINE
  5
36
330
1F
100
AcDbEntity
  8
0
  6
Continuous
 62
     7
370
     0
100
AcDbLine
 10
127.0104743903
 20
36.75
 30
0.0
 11
196.7604743903
 21
36.75
 31
0.0
  0
MTEXT
  5
38
330
1F
100
AcDbEntity
  8
0
  6
Continuous
 62
     7
370
     0
100
AcDbMText
 10
151.3178166468
 20
29.8861652342
 30
0.0
 40
4.2333333333
 41
0.0
 71
     1
 72
     1
  1
NCON-M15S
  7
SLDTEXTSTYLE0
 73
     1
 44
1.0
  0
INSERT
  5
3E
330
1F
100
AcDbEntity
  8
0
  6
Continuous
 62
     7
370
     0
100
AcDbBlockReference
  2
SW_NOTE_0
 10
137.0426757944
 20
43.939868149
 30
0.0
  0
MTEXT
  5
3F
330
1F
100
AcDbEntity
  8
0
  6
Continuous
 62
     7
370
     0
100
AcDbMText
 10
155.5739365735
 20
16.2918259049
 30
0.0
 40
4.2333333333
 41
0.0
 71
     1
 72
     1
  1
131015
  7
SLDTEXTSTYLE0
 73
     1
 44
1.0
  0
LINE
  5
40
330
1F
100
AcDbEntity
  8
0
  6
Continuous
 62
     7
370
     0
100
AcDbLine
 10
108.4130362619
 20
184.3887767119
 30
0.0
 11
110.4130365898
 21
184.3887767119
 31
0.0
  0
LINE
  5
41
330
1F
100
AcDbEntity
  8
0
  6
Continuous
 62
     7
370
     0
100
AcDbLine
 10
110.4130365898
 20
192.3887761605
 30
0.0
 11
108.4130362619
 21
192.3887761605
 31
0.0
  0
LINE
  5
42
330
1F
100
AcDbEntity
  8
0
  6
Continuous
 62
     7
370
     0
100
AcDbLine
 10
118.1130346854
 20
198.388775747
 30
0.0
 11
118.4130360384
 21
198.6887758195
 31
0.0
  0
LINE
  5
43
330
1F
100
AcDbEntity
  8
0
  6
Continuous
 62
     7
370
     0
100
AcDbLine
 10
118.1130346854
 20
198.388775747
 30
0.0
 11
110.7130360801
 21
198.388775747
 31
0.0
  0
LINE
  5
44
330
1F
100
AcDbEntity
  8
0
  6
Continuous
 62
     7
370
     0
100
AcDbLine
 10
110.4130365898
 20
198.6887758195
 30
0.0
 11
110.7130360801
 21
198.388775747
 31
0.0
  0
LINE
  5
45
330
1F
100
AcDbEntity
  8
0
  6
Continuous
 62
     7
370
     0
100
AcDbLine
 10
110.4130365898
 20
198.6887758195
 30
0.0
 11
110.4130365898
 21
200.0887758278
 31
0.0
  0
LINE
  5
46
330
1F
100
AcDbEntity
  8
0
  6
Continuous
 62
     7
370
     0
100
AcDbLine
 10
110.7130360801
 20
200.3887758129
 30
0.0
 11
110.4130365898
 21
200.0887758278
 31
0.0
  0
LINE
  5
47
330
1F
100
AcDbEntity
  8
0
  6
Continuous
 62
     7
370
     0
100
AcDbLine
 10
110.7130360801
 20
200.3887758129
 30
0.0
 11
118.1130346854
 21
200.3887758129
 31
0.0
  0
LINE
  5
48
330
1F
100
AcDbEntity
  8
0
  6
Continuous
 62
     7
370
     0
100
AcDbLine
 10
118.4130360384
 20
200.0887758278
 30
0.0
 11
118.1130346854
 21
200.3887758129
 31
0.0
  0
LINE
  5
49
330
1F
100
AcDbEntity
  8
0
  6
Continuous
 62
     7
370
     0
100
AcDbLine
 10
118.4130360384
 20
200.0887758278
 30
0.0
 11
118.4130360384
 21
198.6887758195
 31
0.0
  0
LINE
  5
4A
330
1F
100
AcDbEntity
  8
0
  6
Continuous
 62
     7
370
     0
100
AcDbLine
 10
118.4130360384
 20
198.6887758195
 30
0.0
 11
118.4130360384
 21
178.088776238
 31
0.0
  0
LINE
  5
4B
330
1F
100
AcDbEntity
  8
0
  6
Continuous
 62
     7
370
     0
100
AcDbLine
 10
118.4130360384
 20
178.088776238
 30
0.0
 11
118.1130346854
 21
178.3887757284
 31
0.0
  0
LINE
  5
4C
330
1F
100
AcDbEntity
  8
0
  6
Continuous
 62
     7
370
     0
100
AcDbLine
 10
118.1130346854
 20
178.3887757284
 30
0.0
 11
118.1130346854
 21
198.388775747
 31
0.0
  0
LINE
  5
4D
330
1F
100
AcDbEntity
  8
0
  6
Continuous
 62
     7
370
     0
100
AcDbLine
 10
110.7130360801
 20
198.388775747
 30
0.0
 11
110.7130360801
 21
178.3887757284
 31
0.0
  0
LINE
  5
4E
330
1F
100
AcDbEntity
  8
0
  6
Continuous
 62
     7
370
     0
100
AcDbLine
 10
110.7130360801
 20
178.3887757284
 30
0.0
 11
118.1130346854
 21
178.3887757284
 31
0.0
  0
LINE
  5
4F
330
1F
100
AcDbEntity
  8
0
  6
Continuous
 62
     7
370
     0
100
AcDbLine
 10
118.1130346854
 20
176.3887754006
 30
0.0
 11
118.4130360384
 21
176.6887748909
 31
0.0
  0
LINE
  5
50
330
1F
100
AcDbEntity
  8
0
  6
Continuous
 62
     7
370
     0
100
AcDbLine
 10
118.1130346854
 20
176.3887754006
 30
0.0
 11
110.7130360801
 21
176.3887754006
 31
0.0
  0
LINE
  5
51
330
1F
100
AcDbEntity
  8
0
  6
Continuous
 62
     7
370
     0
100
AcDbLine
 10
110.4130365898
 20
176.6887748909
 30
0.0
 11
110.7130360801
 21
176.3887754006
 31
0.0
  0
LINE
  5
52
330
1F
100
AcDbEntity
  8
0
  6
Continuous
 62
     7
370
     0
100
AcDbLine
 10
110.4130365898
 20
176.6887748909
 30
0.0
 11
110.4130365898
 21
178.088776238
 31
0.0
  0
LINE
  5
53
330
1F
100
AcDbEntity
  8
0
  6
Continuous
 62
     7
370
     0
100
AcDbLine
 10
110.7130360801
 20
178.3887757284
 30
0.0
 11
110.4130365898
 21
178.088776238
 31
0.0
  0
LINE
  5
54
330
1F
100
AcDbEntity
  8
0
  6
Continuous
 62
     7
370
     0
100
AcDbLine
 10
118.4130360384
 20
178.088776238
 30
0.0
 11
118.4130360384
 21
176.6887748909
 31
0.0
  0
LINE
  5
55
330
1F
100
AcDbEntity
  8
0
  6
Continuous
 62
     7
370
     0
100
AcDbLine
 10
110.4130365898
 20
178.088776238
 30
0.0
 11
110.4130365898
 21
198.6887758195
 31
0.0
  0
LINE
  5
56
330
1F
100
AcDbEntity
  8
0
  6
Continuous
 62
     7
370
     0
100
AcDbLine
 10
61.9130362172
 20
188.9477928091
 30
0.0
 11
61.9130362172
 21
187.8297588203
 31
0.0
  0
LINE
  5
57
330
1F
100
AcDbEntity
  8
0
  6
Continuous
 62
     7
370
     0
100
AcDbLine
 10
62.4130362172
 20
187.6387758147
 30
0.0
 11
62.4130362172
 21
189.1387758147
 31
0.0
  0
LINE
  5
58
330
1F
100
AcDbEntity
  8
0
  6
Continuous
 62
     7
370
     0
100
AcDbLine
 10
62.9130362172
 20
187.8297588203
 30
0.0
 11
62.9130362172
 21
188.9477928091
 31
0.0
  0
LINE
  5
59
330
1F
100
AcDbEntity
  8
0
  6
Continuous
 62
     7
370
     0
100
AcDbLine
 10
108.4130362619
 20
190.3252670837
 30
0.0
 11
110.4130365898
 21
190.3252670837
 31
0.0
  0
LINE
  5
5A
330
1F
100
AcDbEntity
  8
0
  6
Continuous
 62
     7
370
     0
100
AcDbLine
 10
108.4130362619
 20
186.4522839261
 30
0.0
 11
110.4130365898
 21
186.4522839261
 31
0.0
  0
LINE
  5
5B
330
1F
100
AcDbEntity
  8
0
  6
Continuous
 62
     7
370
     0
100
AcDbLine
 10
98.9130362172
 20
187.8297588203
 30
0.0
 11
98.9130362172
 21
188.947792809
 31
0.0
  0
LINE
  5
5C
330
1F
100
AcDbEntity
  8
0
  6
Continuous
 62
     7
370
     0
100
AcDbLine
 10
108.1130362172
 20
198.8887758147
 30
0.0
 11
108.1130362172
 21
200.8887758147
 31
0.0
  0
LINE
  5
5D
330
1F
100
AcDbEntity
  8
0
  6
Continuous
 62
     7
370
     0
100
AcDbLine
 10
108.1130362172
 20
200.8887758147
 30
0.0
 11
108.4130362172
 21
200.5887758147
 31
0.0
  0
LINE
  5
5E
330
1F
100
AcDbEntity
  8
0
  6
Continuous
 62
     7
370
     0
100
AcDbLine
 10
108.4130362172
 20
200.5887758147
 30
0.0
 11
108.4130362172
 21
198.8887758147
 31
0.0
  0
LINE
  5
5F
330
1F
100
AcDbEntity
  8
0
  6
Continuous
 62
     7
370
     0
100
AcDbLine
 10
108.1130362172
 20
198.8887758147
 30
0.0
 11
108.4130362172
 21
198.8887758147
 31
0.0
  0
LINE
  5
60
330
1F
100
AcDbEntity
  8
0
  6
Continuous
 62
     7
370
     0
100
AcDbLine
 10
108.1130362172
 20
175.8887758147
 30
0.0
 11
108.1130362172
 21
177.8887758147
 31
0.0
  0
LINE
  5
61
330
1F
100
AcDbEntity
  8
0
  6
Continuous
 62
     7
370
     0
100
AcDbLine
 10
108.1130362172
 20
177.8887758147
 30
0.0
 11
108.4130362172
 21
177.8887758147
 31
0.0
  0
LINE
  5
62
330
1F
100
AcDbEntity
  8
0
  6
Continuous
 62
     7
370
     0
100
AcDbLine
 10
108.4130362172
 20
177.8887758147
 30
0.0
 11
108.4130362172
 21
176.1887758147
 31
0.0
  0
LINE
  5
63
330
1F
100
AcDbEntity
  8
0
  6
Continuous
 62
     7
370
     0
100
AcDbLine
 10
108.1130362172
 20
175.8887758147
 30
0.0
 11
108.4130362172
 21
176.1887758147
 31
0.0
  0
ARC
  5
64
330
1F
100
AcDbEntity
  8
0
  6
Continuous
 62
     7
370
     0
100
AcDbCircle
 10
91.4130362694
 20
157.1827352177
 30
0.0
 40
18.7530256517835
100
AcDbArc
 50
85.9433220591
 51
94.0566779409
  0
LINE
  5
65
330
1F
100
AcDbEntity
  8
0
  6
Continuous
 62
     7
370
     0
100
AcDbLine
 10
90.086386354
 20
175.8887762499
 30
0.0
 11
80.7396860805
 21
175.8887762499
 31
0.0
  0
ARC
  5
66
330
1F
100
AcDbEntity
  8
0
  6
Continuous
 62
     7
370
     0
100
AcDbCircle
 10
79.4130361651
 20
157.182735184
 30
0.0
 40
18.75302568540304
100
AcDbArc
 50
85.9433220664
 51
94.0566779336
  0
LINE
  5
67
330
1F
100
AcDbEntity
  8
0
  6
Continuous
 62
     7
370
     0
100
AcDbLine
 10
78.0863862497
 20
175.8887762499
 30
0.0
 11
52.7130362172
 21
175.8887758147
 31
0.0
  0
LINE
  5
68
330
1F
100
AcDbEntity
  8
0
  6
Continuous
 62
     7
370
     0
100
AcDbLine
 10
52.7130362172
 20
177.8887758147
 30
0.0
 11
52.7130362172
 21
175.8887758147
 31
0.0
  0
LINE
  5
69
330
1F
100
AcDbEntity
  8
0
  6
Continuous
 62
     7
370
     0
100
AcDbLine
 10
52.7130362172
 20
177.8887758147
 30
0.0
 11
108.1130362172
 21
177.8887758147
 31
0.0
  0
LINE
  5
6A
330
1F
100
AcDbEntity
  8
0
  6
Continuous
 62
     7
370
     0
100
AcDbLine
 10
108.1130362172
 20
175.8887758147
 30
0.0
 11
92.7396861848
 21
175.8887762499
 31
0.0
  0
LINE
  5
6B
330
1F
100
AcDbEntity
  8
0
  6
Continuous
 62
     7
370
     0
100
AcDbLine
 10
52.7130362172
 20
200.8887758147
 30
0.0
 11
52.7130362172
 21
198.8887758147
 31
0.0
  0
LINE
  5
6C
330
1F
100
AcDbEntity
  8
0
  6
Continuous
 62
     7
370
     0
100
AcDbLine
 10
52.7130362172
 20
200.8887758147
 30
0.0
 11
78.0863862497
 21
200.8887758076
 31
0.0
  0
ARC
  5
6D
330
1F
100
AcDbEntity
  8
0
  6
Continuous
 62
     7
370
     0
100
AcDbCircle
 10
79.4130361651
 20
219.5948083425
 30
0.0
 40
18.75301717580829
100
AcDbArc
 50
265.9433202225
 51
274.0566797775
  0
LINE
  5
6E
330
1F
100
AcDbEntity
  8
0
  6
Continuous
 62
     7
370
     0
100
AcDbLine
 10
80.7396860805
 20
200.8887758076
 30
0.0
 11
90.086386354
 21
200.8887758076
 31
0.0
  0
ARC
  5
6F
330
1F
100
AcDbEntity
  8
0
  6
Continuous
 62
     7
370
     0
100
AcDbCircle
 10
91.4130362694
 20
219.5948083762
 30
0.0
 40
18.75301720944648
100
AcDbArc
 50
265.9433202298
 51
274.0566797702
  0
LINE
  5
70
330
1F
100
AcDbEntity
  8
0
  6
Continuous
 62
     7
370
     0
100
AcDbLine
 10
92.7396861848
 20
200.8887758076
 30
0.0
 11
108.1130362172
 21
200.8887758147
 31
0.0
  0
LINE
  5
71
330
1F
100
AcDbEntity
  8
0
  6
Continuous
 62
     7
370
     0
100
AcDbLine
 10
108.1130362172
 20
198.8887758147
 30
0.0
 11
52.7130362172
 21
198.8887758147
 31
0.0
  0
LINE
  5
72
330
1F
100
AcDbEntity
  8
0
  6
Continuous
 62
     7
370
     0
100
AcDbLine
 10
108.1130362172
 20
177.8887758147
 30
0.0
 11
108.1130362172
 21
198.8887758147
 31
0.0
  0
LINE
  5
73
330
1F
100
AcDbEntity
  8
0
  6
Continuous
 62
     7
370
     0
100
AcDbLine
 10
108.4130362172
 20
198.8887758147
 30
0.0
 11
108.4130362172
 21
177.8887758147
 31
0.0
  0
LINE
  5
74
330
1F
100
AcDbEntity
  8
0
  6
Continuous
 62
     7
370
     0
100
AcDbLine
 10
52.7130362172
 20
198.8887758147
 30
0.0
 11
52.7130362172
 21
177.8887758147
 31
0.0
  0
CIRCLE
  5
75
330
1F
100
AcDbEntity
  8
0
  6
Continuous
 62
     7
370
     0
100
AcDbCircle
 10
98.4130362172
 20
188.3887758147
 30
0.0
 40
2.450000000000003
  0
CIRCLE
  5
76
330
1F
100
AcDbEntity
  8
0
  6
Continuous
 62
     7
370
     0
100
AcDbCircle
 10
62.4130362172
 20
188.3887758147
 30
0.0
 40
2.449999999999989
  0
CIRCLE
  5
77
330
1F
100
AcDbEntity
  8
0
  6
Continuous
 62
     7
370
     0
100
AcDbCircle
 10
98.4130362172
 20
188.3887758147
 30
0.0
 40
2.150000000000006
  0
CIRCLE
  5
78
330
1F
100
AcDbEntity
  8
0
  6
Continuous
 62
     7
370
     0
100
AcDbCircle
 10
62.4130362172
 20
188.3887758147
 30
0.0
 40
2.149999999999992
  0
LINE
  5
79
330
1F
100
AcDbEntity
  8
0
  6
Continuous
 62
     7
370
     0
100
AcDbLine
 10
52.4130362172
 20
176.1887758147
 30
0.0
 11
52.4130362172
 21
177.8887758147
 31
0.0
  0
LINE
  5
7A
330
1F
100
AcDbEntity
  8
0
  6
Continuous
 62
     7
370
     0
100
AcDbLine
 10
52.7130362172
 20
177.8887758147
 30
0.0
 11
52.4130362172
 21
177.8887758147
 31
0.0
  0
LINE
  5
7B
330
1F
100
AcDbEntity
  8
0
  6
Continuous
 62
     7
370
     0
100
AcDbLine
 10
52.4130362172
 20
176.1887758147
 30
0.0
 11
52.7130362172
 21
175.8887758147
 31
0.0
  0
LINE
  5
7C
330
1F
100
AcDbEntity
  8
0
  6
Continuous
 62
     7
370
     0
100
AcDbLine
 10
52.7130362172
 20
198.8887758147
 30
0.0
 11
52.4130362172
 21
198.8887758147
 31
0.0
  0
LINE
  5
7D
330
1F
100
AcDbEntity
  8
0
  6
Continuous
 62
     7
370
     0
100
AcDbLine
 10
52.4130362172
 20
198.8887758147
 30
0.0
 11
52.4130362172
 21
200.5887758147
 31
0.0
  0
LINE
  5
7E
330
1F
100
AcDbEntity
  8
0
  6
Continuous
 62
     7
370
     0
100
AcDbLine
 10
52.7130362172
 20
200.8887758147
 30
0.0
 11
52.4130362172
 21
200.5887758147
 31
0.0
  0
LINE
  5
7F
330
1F
100
AcDbEntity
  8
0
  6
Continuous
 62
     7
370
     0
100
AcDbLine
 10
52.4130362172
 20
177.8887758147
 30
0.0
 11
52.4130362172
 21
198.8887758147
 31
0.0
  0
LINE
  5
80
330
1F
100
AcDbEntity
  8
0
  6
Continuous
 62
     7
370
     0
100
AcDbLine
 10
93.8130362172
 20
175.8887758147
 30
0.0
 11
92.750406386
 21
175.8887758147
 31
0.0
  0
LINE
  5
81
330
1F
100
AcDbEntity
  8
0
  6
Continuous
 62
     7
370
     0
100
AcDbLine
 10
90.0750536042
 20
175.8887758147
 30
0.0
 11
89.0130362172
 21
175.8887758147
 31
0.0
  0
LINE
  5
82
330
1F
100
AcDbEntity
  8
0
  6
Continuous
 62
     7
370
     0
100
AcDbLine
 10
89.0130362172
 20
200.8887758147
 30
0.0
 11
90.0756660485
 21
200.8887758147
 31
0.0
  0
LINE
  5
83
330
1F
100
AcDbEntity
  8
0
  6
Continuous
 62
     7
370
     0
100
AcDbLine
 10
92.7510188303
 20
200.8887758147
 30
0.0
 11
93.8130362172
 21
200.8887758147
 31
0.0
  0
LINE
  5
84
330
1F
100
AcDbEntity
  8
0
  6
Continuous
 62
     7
370
     0
100
AcDbLine
 10
77.0130362172
 20
200.8887758147
 30
0.0
 11
78.0756660485
 21
200.8887758147
 31
0.0
  0
LINE
  5
85
330
1F
100
AcDbEntity
  8
0
  6
Continuous
 62
     7
370
     0
100
AcDbLine
 10
80.7510188303
 20
200.8887758147
 30
0.0
 11
81.8130362172
 21
200.8887758147
 31
0.0
  0
LINE
  5
86
330
1F
100
AcDbEntity
  8
0
  6
Continuous
 62
     7
370
     0
100
AcDbLine
 10
81.8130362172
 20
175.8887758147
 30
0.0
 11
80.750406386
 21
175.8887758147
 31
0.0
  0
LINE
  5
87
330
1F
100
AcDbEntity
  8
0
  6
Continuous
 62
     7
370
     0
100
AcDbLine
 10
78.0750536042
 20
175.8887758147
 30
0.0
 11
77.0130362172
 21
175.8887758147
 31
0.0
  0
CIRCLE
  5
88
330
1F
100
AcDbEntity
  8
0
  6
Continuous
 62
     7
370
     0
100
AcDbCircle
 10
98.4130362172
 20
188.3887758147
 30
0.0
 40
0.75
  0
CIRCLE
  5
89
330
1F
100
AcDbEntity
  8
0
  6
Continuous
 62
     7
370
     0
100
AcDbCircle
 10
62.4130362172
 20
188.3887758147
 30
0.0
 40
0.75
  0
DIMENSION
  5
8A
330
1F
100
AcDbEntity
  8
0
  6
Continuous
 62
     7
370
     0
100
AcDbDimension
  2
*D2
 10
98.4130362172
 20
206.9464804873
 30
0.0
 11
80.4130362172
 21
206.9464804873
 31
0.0
 70
   160
 71
     1
 42
36.0
  3
SLDDIMSTYLE0
100
AcDbAlignedDimension
 13
62.4130362172
 23
193.3387758147
 33
0.0
 14
98.4130362172
 24
193.3387758147
 34
0.0
100
AcDbRotatedDimension
1001
ACAD
1000
DSTYLE
1002
{
1070
    77
1070
     3
1070
   143
1040
0.0393700787
1070
    41
1040
3.0
1070
    44
1040
1.0
1070
    42
1040
1.0
1070
   147
1040
1.524
1070
    73
1070
     0
1070
    74
1070
     0
1070
   140
1040
3.5
1070
   284
1070
    12
1070
    78
1070
    12
1002
}
  0
DIMENSION
  5
A5
330
1F
100
AcDbEntity
  8
0
  6
Continuous
 62
     7
370
     0
100
AcDbDimension
  2
*D4
 10
62.4130362172
 20
206.9464804873
 30
0.0
 11
57.4130362172
 21
206.9464804873
 31
0.0
 70
   160
 71
     1
 42
10.0
  3
SLDDIMSTYLE0
100
AcDbAlignedDimension
 13
52.4130362172
 23
198.8887758147
 33
0.0
 14
62.4130362172
 24
193.3387758147
 34
0.0
 50
0.0
100
AcDbRotatedDimension
1001
ACAD
1000
DSTYLE
1002
{
1070
    77
1070
     3
1070
   143
1040
0.0393700787
1070
    41
1040
3.0
1070
    44
1040
1.0
1070
    42
1040
1.0
1070
   147
1040
1.524
1070
    73
1070
     0
1070
    74
1070
     0
1070
   140
1040
3.5
1070
   284
1070
    12
1070
    78
1070
    12
1002
}
  0
DIMENSION
  5
B8
330
1F
100
AcDbEntity
  8
0
  6
Continuous
 62
     7
370
     0
100
AcDbDimension
  2
*D5
 10
98.4130362172
 20
207.0447663512
 30
0.0
 11
103.4130362172
 21
207.0447663512
 31
0.0
 70
   160
 71
     1
 42
10.0
  3
SLDDIMSTYLE0
100
AcDbAlignedDimension
 13
108.4130362172
 23
198.8887758147
 33
0.0
 14
98.4130362172
 24
193.3387758147
 34
0.0
 50
0.0
100
AcDbRotatedDimension
1001
ACAD
1000
DSTYLE
1002
{
1070
    77
1070
     3
1070
   143
1040
0.0393700787
1070
    41
1040
3.0
1070
    44
1040
1.0
1070
    42
1040
1.0
1070
   147
1040
1.524
1070
    73
1070
     0
1070
    74
1070
     0
1070
   140
1040
3.5
1070
   284
1070
    12
1070
    78
1070
    12
1002
}
  0
DIMENSION
  5
CB
330
1F
100
AcDbEntity
  8
0
  6
Continuous
 62
     7
370
     0
100
AcDbDimension
  2
*D6
 10
118.4130362172
 20
207.0447663512
 30
0.0
 11
114.4130362172
 21
207.0447663512
 31
0.0
 70
   160
 71
     1
 42
8.0
  3
SLDDIMSTYLE0
100
AcDbAlignedDimension
 13
110.4130362172
 23
200.0887758147
 33
0.0
 14
118.4130362172
 24
200.0887758147
 34
0.0
 50
0.0
100
AcDbRotatedDimension
1001
ACAD
1000
DSTYLE
1002
{
1070
    77
1070
     3
1070
   143
1040
0.0393700787
1070
    41
1040
3.0
1070
    44
1040
1.0
1070
    42
1040
1.0
1070
   147
1040
1.524
1070
    73
1070
     0
1070
    74
1070
     0
1070
   140
1040
3.5
1070
   284
1070
    12
1070
    78
1070
    12
1002
}
  0
DIMENSION
  5
E0
330
1F
100
AcDbEntity
  8
0
  6
Continuous
 62
     7
370
     0
100
AcDbDimension
  2
*D7
 10
108.4130362172
 20
213.9790134602
 30
0.0
 11
113.4130362172
 21
213.9790134602
 31
0.0
 70
   160
 71
     1
 42
10.0
  3
SLDDIMSTYLE0
100
AcDbAlignedDimension
 13
118.4130362172
 23
200.0887758147
 33
0.0
 14
108.4130362172
 24
198.8887758147
 34
0.0
 50
0.0
100
AcDbRotatedDimension
1001
ACAD
1000
DSTYLE
1002
{
1070
    77
1070
     3
1070
   143
1040
0.0393700787
1070
    41
1040
3.0
1070
    44
1040
1.0
1070
    42
1040
1.0
1070
   147
1040
1.524
1070
    73
1070
     0
1070
    74
1070
     0
1070
   140
1040
3.5
1070
   284
1070
    12
1070
    78
1070
    12
1002
}
  0
DIMENSION
  5
F3
330
1F
100
AcDbEntity
  8
0
  6
Continuous
 62
     7
370
     0
100
AcDbDimension
  2
*D8
 10
108.4130362172
 20
213.9790134602
 30
0.0
 11
80.4130362172
 21
213.9790134602
 31
0.0
 70
   160
 71
     1
 42
56.0
  3
SLDDIMSTYLE0
100
AcDbAlignedDimension
 13
52.4130362172
 23
198.8887758147
 33
0.0
 14
108.4130362172
 24
198.8887758147
 34
0.0
 50
0.0
100
AcDbRotatedDimension
1001
ACAD
1000
DSTYLE
1002
{
1070
    77
1070
     3
1070
   143
1040
0.0393700787
1070
    41
1040
3.0
1070
    44
1040
1.0
1070
    42
1040
1.0
1070
   147
1040
1.524
1070
    73
1070
     0
1070
    74
1070
     0
1070
   140
1040
3.5
1070
   284
1070
    12
1070
    78
1070
    12
1002
}
  0
DIMENSION
  5
106
330
1F
100
AcDbEntity
  8
0
  6
Continuous
 62
     7
370
     0
100
AcDbDimension
  2
*D9
 10
118.4130362172
 20
222.4074582305
 30
0.0
 11
85.4130362172
 21
222.4074582305
 31
0.0
 70
   160
 71
     1
 42
66.0
  3
SLDDIMSTYLE0
100
AcDbAlignedDimension
 13
52.4130362172
 23
200.5887758147
 33
0.0
 14
118.4130362172
 24
200.0887758147
 34
0.0
 50
0.0
100
AcDbRotatedDimension
1001
ACAD
1000
DSTYLE
1002
{
1070
    77
1070
     3
1070
   143
1040
0.0393700787
1070
    41
1040
3.0
1070
    44
1040
1.0
1070
    42
1040
1.0
1070
   147
1040
1.524
1070
    73
1070
     0
1070
    74
1070
     0
1070
   140
1040
3.5
1070
   284
1070
    12
1070
    78
1070
    12
1002
}
  0
DIMENSION
  5
119
330
1F
100
AcDbEntity
  8
0
  6
Continuous
 62
     7
370
     0
100
AcDbDimension
  2
*D10
 10
48.896107059
 20
188.3887758147
 30
0.0
 11
48.896107059
 21
182.1387758147
 31
0.0
 70
   160
 71
     1
 42
12.5
  3
SLDDIMSTYLE0
100
AcDbAlignedDimension
 13
52.7130362172
 23
175.8887758147
 33
0.0
 14
57.4630362172
 24
188.3887758147
 34
0.0
 50
90.0
100
AcDbRotatedDimension
1001
ACAD
1000
DSTYLE
1002
{
1070
    77
1070
     3
1070
   143
1040
0.0393700787
1070
    41
1040
3.0
1070
    44
1040
1.0
1070
    42
1040
1.0
1070
   147
1040
1.524
1070
    73
1070
     0
1070
    74
1070
     0
1070
   140
1040
3.5
1070
   284
1070
    12
1070
    78
1070
    12
1002
}
  0
DIMENSION
  5
12D
330
1F
100
AcDbEntity
  8
0
  6
Continuous
 62
     7
370
     0
100
AcDbDimension
  2
*D11
 10
42.098006135
 20
175.8887758147
 30
0.0
 11
42.098006135
 21
188.3887758147
 31
0.0
 70
   160
 71
     1
 42
25.0
  3
SLDDIMSTYLE0
100
AcDbAlignedDimension
 13
52.7130362172
 23
200.8887758147
 33
0.0
 14
52.7130362172
 24
175.8887758147
 34
0.0
 50
90.0
100
AcDbRotatedDimension
1001
ACAD
1000
DSTYLE
1002
{
1070
    77
1070
     3
1070
   143
1040
0.0393700787
1070
    41
1040
3.0
1070
    44
1040
1.0
1070
    42
1040
1.0
1070
   147
1040
1.524
1070
    73
1070
     0
1070
    74
1070
     0
1070
   140
1040
3.5
1070
   284
1070
    12
1070
    78
1070
    12
1002
}
  0
INSERT
  5
146
102
{ACAD_REACTORS
330
148
102
}
330
1F
100
AcDbEntity
  8
0
  6
Continuous
 62
     7
370
     0
100
AcDbBlockReference
  2
SW_NOTE_1
 10
23.7854021503
 20
208.8002263746
 30
0.0
  0
LEADER
  5
148
330
1F
100
AcDbEntity
  8
0
  6
Continuous
 62
     7
370
     0
100
AcDbLeader
  3
SLDDIMSTYLE1
 73
     2
 76
     3
 10
60.6865542601
 20
190.1270968586
 30
0.0
 10
40.5798912716
 20
208.8002263746
 30
0.0
 10
23.7854021503
 20
208.8002263746
 30
0.0
340
146
  0
INSERT
  5
154
330
1F
100
AcDbEntity
  8
0
  6
Continuous
 62
     7
370
     0
100
AcDbBlockReference
  2
SW_CENTERMARKSYMBOL_0
 10
62.4130362172
 20
188.3887758147
 30
0.0
  0
INSERT
  5
160
330
1F
100
AcDbEntity
  8
0
  6
Continuous
 62
     7
370
     0
100
AcDbBlockReference
  2
SW_CENTERMARKSYMBOL_1
 10
98.4130362172
 20
188.3887758147
 30
0.0
  0
LINE
  5
161
330
1F
100
AcDbEntity
  8
0
  6
CENTERX2
 62
     7
370
     0
100
AcDbLine
 10
50.4130362172
 20
188.3887758147
 30
0.0
 11
110.4130362172
 21
188.3887758147
 31
0.0
  0
ARC
  5
162
330
1F
100
AcDbEntity
  8
0
  6
Continuous
 62
     7
370
     0
100
AcDbCircle
 10
175.7155521472
 20
200.7887758147
 30
0.0
 40
0.0999999999999659
100
AcDbArc
 50
90.0
 51
180.0
  0
LINE
  5
163
330
1F
100
AcDbEntity
  8
0
  6
Continuous
 62
     7
370
     0
100
AcDbLine
 10
178.1155521472
 20
200.8887758147
 30
0.0
 11
175.7155521472
 21
200.8887758147
 31
0.0
  0
ARC
  5
164
330
1F
100
AcDbEntity
  8
0
  6
Continuous
 62
     7
370
     0
100
AcDbCircle
 10
178.1155521472
 20
200.7887758147
 30
0.0
 40
0.0999999999999943
100
AcDbArc
 50
0.0
 51
90.0
  0
LINE
  5
165
330
1F
100
AcDbEntity
  8
0
  6
Continuous
 62
     7
370
     0
100
AcDbLine
 10
175.6155521472
 20
200.7887758147
 30
0.0
 11
175.6155524428
 21
200.3887758129
 31
0.0
  0
LINE
  5
166
330
1F
100
AcDbEntity
  8
0
  6
Continuous
 62
     7
370
     0
100
AcDbLine
 10
178.2155517513
 20
200.3887758129
 30
0.0
 11
178.2155521472
 21
200.7887758147
 31
0.0
  0
LINE
  5
167
330
1F
100
AcDbEntity
  8
0
  6
Continuous
 62
     7
370
     0
100
AcDbLine
 10
176.1155521472
 20
200.9887758147
 30
0.0
 11
176.1155515934
 21
200.8887758076
 31
0.0
  0
LINE
  5
168
330
1F
100
AcDbEntity
  8
0
  6
Continuous
 62
     7
370
     0
100
AcDbLine
 10
177.7155521472
 20
200.9887758147
 30
0.0
 11
177.7155526007
 21
200.8887758076
 31
0.0
  0
LINE
  5
169
330
1F
100
AcDbEntity
  8
0
  6
Continuous
 62
     7
370
     0
100
AcDbLine
 10
176.1155521472
 20
200.9887758147
 30
0.0
 11
177.7155521472
 21
200.9887758147
 31
0.0
  0
LINE
  5
16A
330
1F
100
AcDbEntity
  8
0
  6
Continuous
 62
     7
370
     0
100
AcDbLine
 10
178.0155521472
 20
200.9887758147
 30
0.0
 11
178.0155520911
 21
200.8887758076
 31
0.0
  0
LINE
  5
16B
330
1F
100
AcDbEntity
  8
0
  6
Continuous
 62
     7
370
     0
100
AcDbLine
 10
177.7155521472
 20
200.9887758147
 30
0.0
 11
178.0155521472
 21
200.9887758147
 31
0.0
  0
LINE
  5
16C
330
1F
100
AcDbEntity
  8
0
  6
Continuous
 62
     7
370
     0
100
AcDbLine
 10
175.8155521472
 20
200.9887758147
 30
0.0
 11
175.815552103
 21
200.8887758076
 31
0.0
  0
LINE
  5
16D
330
1F
100
AcDbEntity
  8
0
  6
Continuous
 62
     7
370
     0
100
AcDbLine
 10
175.8155521472
 20
200.9887758147
 30
0.0
 11
176.1155521472
 21
200.9887758147
 31
0.0
  0
ARC
  5
16E
330
1F
100
AcDbEntity
  8
0
  6
Continuous
 62
     7
370
     0
100
AcDbCircle
 10
156.7155521472
 20
200.7887758147
 30
0.0
 40
0.1000000000000227
100
AcDbArc
 50
90.0
 51
180.0
  0
LINE
  5
16F
330
1F
100
AcDbEntity
  8
0
  6
Continuous
 62
     7
370
     0
100
AcDbLine
 10
159.1155521472
 20
200.8887758147
 30
0.0
 11
156.7155521472
 21
200.8887758147
 31
0.0
  0
ARC
  5
170
330
1F
100
AcDbEntity
  8
0
  6
Continuous
 62
     7
370
     0
100
AcDbCircle
 10
159.1155521472
 20
200.7887758147
 30
0.0
 40
0.0999999999999943
100
AcDbArc
 50
0.0
 51
90.0
  0
LINE
  5
171
330
1F
100
AcDbEntity
  8
0
  6
Continuous
 62
     7
370
     0
100
AcDbLine
 10
156.6155521472
 20
200.7887758147
 30
0.0
 11
156.6155521224
 21
200.3887758129
 31
0.0
  0
LINE
  5
172
330
1F
100
AcDbEntity
  8
0
  6
Continuous
 62
     7
370
     0
100
AcDbLine
 10
159.2155523623
 20
200.3887758129
 30
0.0
 11
159.2155521472
 21
200.7887758147
 31
0.0
  0
LINE
  5
173
330
1F
100
AcDbEntity
  8
0
  6
Continuous
 62
     7
370
     0
100
AcDbLine
 10
158.7155521472
 20
200.9887758147
 30
0.0
 11
158.7155522803
 21
200.8887758076
 31
0.0
  0
LINE
  5
174
330
1F
100
AcDbEntity
  8
0
  6
Continuous
 62
     7
370
     0
100
AcDbLine
 10
159.0155521472
 20
200.9887758147
 30
0.0
 11
159.0155522364
 21
200.8887758076
 31
0.0
  0
LINE
  5
175
330
1F
100
AcDbEntity
  8
0
  6
Continuous
 62
     7
370
     0
100
AcDbLine
 10
158.7155521472
 20
200.9887758147
 30
0.0
 11
159.0155521472
 21
200.9887758147
 31
0.0
  0
LINE
  5
176
330
1F
100
AcDbEntity
  8
0
  6
Continuous
 62
     7
370
     0
100
AcDbLine
 10
157.1155521472
 20
200.9887758147
 30
0.0
 11
157.1155522043
 21
200.8887758076
 31
0.0
  0
LINE
  5
177
330
1F
100
AcDbEntity
  8
0
  6
Continuous
 62
     7
370
     0
100
AcDbLine
 10
157.1155521472
 20
200.9887758147
 30
0.0
 11
158.7155521472
 21
200.9887758147
 31
0.0
  0
LINE
  5
178
330
1F
100
AcDbEntity
  8
0
  6
Continuous
 62
     7
370
     0
100
AcDbLine
 10
156.8155521472
 20
200.9887758147
 30
0.0
 11
156.8155522483
 21
200.8887758076
 31
0.0
  0
LINE
  5
179
330
1F
100
AcDbEntity
  8
0
  6
Continuous
 62
     7
370
     0
100
AcDbLine
 10
156.8155521472
 20
200.9887758147
 30
0.0
 11
157.1155521472
 21
200.9887758147
 31
0.0
  0
CIRCLE
  5
17A
330
1F
100
AcDbEntity
  8
0
  6
Continuous
 62
     7
370
     0
100
AcDbCircle
 10
167.4155521472
 20
188.3887758147
 30
0.0
 40
3.09999999999997
  0
CIRCLE
  5
17B
330
1F
100
AcDbEntity
  8
0
  6
Continuous
 62
     7
370
     0
100
AcDbCircle
 10
167.4155521472
 20
188.3887758147
 30
0.0
 40
3.499999999999989
  0
LINE
  5
17C
330
1F
100
AcDbEntity
  8
0
  6
Continuous
 62
     7
370
     0
100
AcDbLine
 10
169.0154956678
 20
187.7253152726
 30
0.0
 11
168.7900979097
 21
189.4426377786
 31
0.0
  0
LINE
  5
17D
330
1F
100
AcDbEntity
  8
0
  6
Continuous
 62
     7
370
     0
100
AcDbLine
 10
168.7900979097
 20
189.4426377786
 30
0.0
 11
167.190153713
 21
190.1060980109
 31
0.0
  0
LINE
  5
17E
330
1F
100
AcDbEntity
  8
0
  6
Continuous
 62
     7
370
     0
100
AcDbLine
 10
167.190153713
 20
190.1060980109
 30
0.0
 11
165.8156082059
 21
189.0522357372
 31
0.0
  0
LINE
  5
17F
330
1F
100
AcDbEntity
  8
0
  6
Continuous
 62
     7
370
     0
100
AcDbLine
 10
165.8156082059
 20
189.0522357372
 30
0.0
 11
166.0410068954
 21
187.3349141625
 31
0.0
  0
LINE
  5
180
330
1F
100
AcDbEntity
  8
0
  6
Continuous
 62
     7
370
     0
100
AcDbLine
 10
166.0410068954
 20
187.3349141625
 30
0.0
 11
167.6409501607
 21
186.6714539302
 31
0.0
  0
LINE
  5
181
330
1F
100
AcDbEntity
  8
0
  6
Continuous
 62
     7
370
     0
100
AcDbLine
 10
167.6409501607
 20
186.6714539302
 30
0.0
 11
169.0154956678
 21
187.7253152726
 31
0.0
  0
SPLINE
  5
182
330
1F
100
AcDbEntity
  8
0
  6
Continuous
 62
     7
370
     0
100
AcDbSpline
210
0.0
220
0.0
230
1.0
 70
    12
 71
     3
 72
    12
 73
     8
 74
     0
 42
0.00000001
 43
0.00000001
 40
0.0
 40
0.0
 40
0.0
 40
0.0
 40
0.1578340757800405
 40
0.307918675476727
 40
0.4720449446644144
 40
0.706220280089073
 40
0.9999999999999999
 40
0.9999999999999999
 40
0.9999999999999999
 40
0.9999999999999999
 10
169.0154956678407
 20
187.7253152725553
 30
0.0
 41
1.0
 10
168.9971378747923
 20
187.7329276014287
 30
0.0
 41
1.0
 10
168.961323635743
 20
187.7477785023665
 30
0.0
 41
1.0
 10
168.7607488502381
 20
187.8309546002124
 30
0.0
 41
1.0
 10
168.4386406906974
 20
187.9645232608044
 30
0.0
 41
1.0
 10
167.9763113578661
 20
188.1562422426954
 30
0.0
 41
1.0
 10
167.616030237708
 20
188.3056421646634
 30
0.0
 41
1.0
 10
167.4155524025218
 20
188.3887755048727
 30
0.0
 41
1.0
  0
SPLINE
  5
183
330
1F
100
AcDbEntity
  8
0
  6
Continuous
 62
     7
370
     0
100
AcDbSpline
210
0.0
220
0.0
230
1.0
 70
    12
 71
     3
 72
    12
 73
     8
 74
     0
 42
0.00000001
 43
0.00000001
 40
0.0
 40
0.0
 40
0.0
 40
0.0
 40
0.157834093472767
 40
0.3079187107968487
 40
0.4720449271146008
 40
0.7062203253020032
 40
1.0
 40
1.0
 40
1.0
 40
1.0
 10
168.7900979096548
 20
189.4426377785658
 30
0.0
 41
1.0
 10
168.7743262840727
 20
189.430545678837
 30
0.0
 41
1.0
 10
168.7435574019538
 20
189.4069551878511
 30
0.0
 41
1.0
 10
168.5712379900595
 20
189.274839413712
 30
0.0
 41
1.0
 10
168.2945093430737
 20
189.0626707677026
 30
0.0
 41
1.0
 10
167.8973119221353
 20
188.7581400974956
 30
0.0
 41
1.0
 10
167.5877870017899
 20
188.520827618021
 30
0.0
 41
1.0
 10
167.4155524025218
 20
188.3887755048727
 30
0.0
 41
1.0
  0
SPLINE
  5
184
330
1F
100
AcDbEntity
  8
0
  6
Continuous
 62
     7
370
     0
100
AcDbSpline
210
0.0
220
0.0
230
1.0
 70
    12
 71
     3
 72
    12
 73
     8
 74
     0
 42
0.00000001
 43
0.00000001
 40
0.0
 40
0.0
 40
0.0
 40
0.0
 40
0.1578340187988029
 40
0.307918737103432
 40
0.4720448260501698
 40
0.706219967418409
 40
1.0
 40
1.0
 40
1.0
 40
1.0
 10
167.1901537130134
 20
190.1060980108832
 30
0.0
 41
1.0
 10
167.1927397770998
 20
190.0863935434853
 30
0.0
 41
1.0
 10
167.1977849352579
 20
190.0479520543649
 30
0.0
 41
1.0
 10
167.2260417984719
 20
189.8326606145927
 30
0.0
 41
1.0
 10
167.2714210501443
 20
189.486922787255
 30
0.0
 41
1.0
 10
167.3365529604244
 20
188.9906741781933
 30
0.0
 41
1.0
 10
167.3873091698006
 20
188.6039613828216
 30
0.0
 41
1.0
 10
167.4155524025218
 20
188.3887755048727
 30
0.0
 41
1.0
  0
SPLINE
  5
185
330
1F
100
AcDbEntity
  8
0
  6
Continuous
 62
     7
370
     0
100
AcDbSpline
210
0.0
220
0.0
230
1.0
 70
    12
 71
     3
 72
    12
 73
     8
 74
     0
 42
0.00000001
 43
0.00000001
 40
0.0
 40
0.0
 40
0.0
 40
0.0
 40
0.253579721596915
 40
0.462971641362865
 40
0.636730969201698
 40
0.8157211487537708
 40
1.0
 40
1.0
 40
1.0
 40
1.0
 10
167.4155524025218
 20
188.3887755048727
 30
0.0
 41
1.0
 10
167.4399113228511
 20
188.2031824337907
 30
0.0
 41
1.0
 10
167.484384474157
 20
187.8643370079685
 30
0.0
 41
1.0
 10
167.5446114988372
 20
187.4054619435492
 30
0.0
 41
1.0
 10
167.5937476007041
 20
187.0310951193969
 30
0.0
 41
1.0
 10
167.631083771163
 20
186.7466344030701
 30
0.0
 41
1.0
 10
167.6376295982676
 20
186.6967561396056
 30
0.0
 41
1.0
 10
167.6409501607077
 20
186.6714539301848
 30
0.0
 41
1.0
  0
SPLINE
  5
186
330
1F
100
AcDbEntity
  8
0
  6
Continuous
 62
     7
370
     0
100
AcDbSpline
210
0.0
220
0.0
230
1.0
 70
    12
 71
     3
 72
    12
 73
     8
 74
     0
 42
0.00000001
 43
0.00000001
 40
0.0
 40
0.0
 40
0.0
 40
0.0
 40
0.1578340301705831
 40
0.3079187201913663
 40
0.4720450767472881
 40
0.7062198167451755
 40
1.0
 40
1.0
 40
1.0
 40
1.0
 10
165.8156082058804
 20
189.0522357371902
 30
0.0
 41
1.0
 10
165.8339659028223
 20
189.0446232622051
 30
0.0
 41
1.0
 10
165.8697799699276
 20
189.0297720697701
 30
0.0
 41
1.0
 10
166.0703563275866
 20
188.9465980189501
 30
0.0
 41
1.0
 10
166.3924634298748
 20
188.8130271767609
 30
0.0
 41
1.0
 10
166.8547934165738
 20
188.6213099522038
 30
0.0
 41
1.0
 10
167.2150743210221
 20
188.4719093663921
 30
0.0
 41
1.0
 10
167.4155524025218
 20
188.3887755048727
 30
0.0
 41
1.0
  0
SPLINE
  5
187
330
1F
100
AcDbEntity
  8
0
  6
Continuous
 62
     7
370
     0
100
AcDbSpline
210
0.0
220
0.0
230
1.0
 70
    12
 71
     3
 72
    12
 73
     8
 74
     0
 42
0.00000001
 43
0.00000001
 40
0.0
 40
0.0
 40
0.0
 40
0.0
 40
0.1578340164885449
 40
0.307918639338343
 40
0.4720451409674004
 40
0.7062199815458334
 40
1.0
 40
1.0
 40
1.0
 40
1.0
 10
166.0410068953888
 20
187.3349141625022
 30
0.0
 41
1.0
 10
166.0567781476327
 20
187.3470062601649
 30
0.0
 41
1.0
 10
166.0875463092728
 20
187.3705967531515
 30
0.0
 41
1.0
 10
166.2598658996738
 20
187.5027127061043
 30
0.0
 41
1.0
 10
166.5365952755925
 20
187.714880695834
 30
0.0
 41
1.0
 10
166.9337923111111
 20
188.0194113729901
 30
0.0
 41
1.0
 10
167.2433174245226
 20
188.2567234228038
 30
0.0
 41
1.0
 10
167.4155524025218
 20
188.3887755048727
 30
0.0
 41
1.0
  0
LINE
  5
188
330
1F
100
AcDbEntity
  8
0
  6
Continuous
 62
     7
370
     0
100
AcDbLine
 10
183.748839053
 20
187.8358921332
 30
0.0
 11
183.5610061909
 21
189.2669940663
 31
0.0
  0
LINE
  5
189
330
1F
100
AcDbEntity
  8
0
  6
Continuous
 62
     7
370
     0
100
AcDbLine
 10
183.5610061909
 20
189.2669940663
 30
0.0
 11
182.2277192051
 21
189.819877438
 31
0.0
  0
LINE
  5
18A
330
1F
100
AcDbEntity
  8
0
  6
Continuous
 62
     7
370
     0
100
AcDbLine
 10
182.2277192051
 20
189.819877438
 30
0.0
 11
181.0822650815
 21
188.9416598079
 31
0.0
  0
LINE
  5
18B
330
1F
100
AcDbEntity
  8
0
  6
Continuous
 62
     7
370
     0
100
AcDbLine
 10
181.0822650815
 20
188.9416598079
 30
0.0
 11
181.2700979436
 21
187.5105578748
 31
0.0
  0
LINE
  5
18C
330
1F
100
AcDbEntity
  8
0
  6
Continuous
 62
     7
370
     0
100
AcDbLine
 10
181.2700979436
 20
187.5105578748
 30
0.0
 11
182.6033849294
 21
186.9576735718
 31
0.0
  0
LINE
  5
18D
330
1F
100
AcDbEntity
  8
0
  6
Continuous
 62
     7
370
     0
100
AcDbLine
 10
182.6033849294
 20
186.9576735718
 30
0.0
 11
183.748839053
 21
187.8358921332
 31
0.0
  0
CIRCLE
  5
18E
330
1F
100
AcDbEntity
  8
0
  6
Continuous
 62
     7
370
     0
100
AcDbCircle
 10
182.4155521472
 20
188.3887758147
 30
0.0
 40
2.450000000000001
  0
CIRCLE
  5
18F
330
1F
100
AcDbEntity
  8
0
  6
Continuous
 62
     7
370
     0
100
AcDbCircle
 10
182.4155521472
 20
188.3887758147
 30
0.0
 40
2.750000000000013
  0
SPLINE
  5
190
330
1F
100
AcDbEntity
  8
0
  6
Continuous
 62
     7
370
     0
100
AcDbSpline
210
0.0
220
0.0
230
1.0
 70
    12
 71
     3
 72
    12
 73
     8
 74
     0
 42
0.00000001
 43
0.00000001
 40
0.0
 40
0.0
 40
0.0
 40
0.0
 40
0.176178456433824
 40
0.3361292672157492
 40
0.5001202418689169
 40
0.7237877985390904
 40
1.0
 40
1.0
 40
1.0
 40
1.0
 10
183.7488390530006
 20
187.8358921331619
 30
0.0
 41
1.0
 10
183.7339826866941
 20
187.8420531467415
 30
0.0
 41
1.0
 10
183.7056383611665
 20
187.8538076882542
 30
0.0
 41
1.0
 10
183.5436083152356
 20
187.9209955297309
 30
0.0
 41
1.0
 10
183.2753442820101
 20
188.032240963175
 30
0.0
 41
1.0
 10
182.8859108605707
 20
188.1937274159233
 30
0.0
 41
1.0
 10
182.5829534121186
 20
188.3193576203378
 30
0.0
 41
1.0
 10
182.4155520672457
 20
188.3887755048727
 30
0.0
 41
1.0
  0
SPLINE
  5
191
330
1F
100
AcDbEntity
  8
0
  6
Continuous
 62
     7
370
     0
100
AcDbSpline
210
0.0
220
0.0
230
1.0
 70
    12
 71
     3
 72
    12
 73
     8
 74
     0
 42
0.00000001
 43
0.00000001
 40
0.0
 40
0.0
 40
0.0
 40
0.0
 40
0.1761783816385645
 40
0.3361290383778436
 40
0.5001200635400099
 40
0.7237875379857374
 40
1.0
 40
1.0
 40
1.0
 40
1.0
 10
183.5610061908619
 20
189.2669940662836
 30
0.0
 41
1.0
 10
183.5482428967005
 20
189.2572082330257
 30
0.0
 41
1.0
 10
183.5238919306336
 20
189.2385379359544
 30
0.0
 41
1.0
 10
183.3846895571069
 20
189.1318119342859
 30
0.0
 41
1.0
 10
183.1542173264788
 20
188.9551093245436
 30
0.0
 41
1.0
 10
182.8196472835537
 20
188.6985957743939
 30
0.0
 41
1.0
 10
182.5593701677761
 20
188.4990410088186
 30
0.0
 41
1.0
 10
182.4155520672457
 20
188.3887755048727
 30
0.0
 41
1.0
  0
SPLINE
  5
192
330
1F
100
AcDbEntity
  8
0
  6
Continuous
 62
     7
370
     0
100
AcDbSpline
210
0.0
220
0.0
230
1.0
 70
    12
 71
     3
 72
    12
 73
     8
 74
     0
 42
0.00000001
 43
0.00000001
 40
0.0
 40
0.0
 40
0.0
 40
0.0
 40
0.1761784044848467
 40
0.3361291555058055
 40
0.5001203685025484
 40
0.7237873138651935
 40
1.0
 40
1.0
 40
1.0
 40
1.0
 10
182.2277192051069
 20
189.8198774379944
 30
0.0
 41
1.0
 10
182.2298122577462
 20
189.8039311203395
 30
0.0
 41
1.0
 10
182.2338055736021
 20
189.773507287734
 30
0.0
 41
1.0
 10
182.2566335025156
 20
189.5995912892255
 30
0.0
 41
1.0
 10
182.2944248329332
 20
189.3116448810548
 30
0.0
 41
1.0
 10
182.3492890134199
 20
188.8936425968238
 30
0.0
 41
1.0
 10
182.3919689242704
 20
188.5684586333365
 30
0.0
 41
1.0
 10
182.4155520672457
 20
188.3887755048727
 30
0.0
 41
1.0
  0
SPLINE
  5
193
330
1F
100
AcDbEntity
  8
0
  6
Continuous
 62
     7
370
     0
100
AcDbSpline
210
0.0
220
0.0
230
1.0
 70
    12
 71
     3
 72
    12
 73
     8
 74
     0
 42
0.00000001
 43
0.00000001
 40
0.0
 40
0.0
 40
0.0
 40
0.0
 40
0.1761786566849067
 40
0.3361290297851445
 40
0.5001200207513861
 40
0.7237877710627607
 40
1.0
 40
1.0
 40
1.0
 40
1.0
 10
181.0822650814907
 20
188.9416598079061
 30
0.0
 41
1.0
 10
181.0971224013164
 20
188.9354988333111
 30
0.0
 41
1.0
 10
181.1254684938124
 20
188.9237443878403
 30
0.0
 41
1.0
 10
181.2874953651723
 20
188.8565562212834
 30
0.0
 41
1.0
 10
181.5557602628005
 20
188.7453111634459
 30
0.0
 41
1.0
 10
181.9451929512078
 20
188.5838232661513
 30
0.0
 41
1.0
 10
182.2481506444876
 20
188.458193257459
 30
0.0
 41
1.0
 10
182.4155520672457
 20
188.3887755048727
 30
0.0
 41
1.0
  0
SPLINE
  5
194
330
1F
100
AcDbEntity
  8
0
  6
Continuous
 62
     7
370
     0
100
AcDbSpline
210
0.0
220
0.0
230
1.0
 70
    12
 71
     3
 72
    12
 73
     8
 74
     0
 42
0.00000001
 43
0.00000001
 40
0.0
 40
0.0
 40
0.0
 40
0.0
 40
0.2382879157748962
 40
0.4370748042086325
 40
0.6074286287392493
 40
0.7948529278570746
 40
1.0
 40
1.0
 40
1.0
 40
1.0
 10
182.4155520672457
 20
188.3887755048727
 30
0.0
 41
1.0
 10
182.4358807992368
 20
188.2338912344767
 30
0.0
 41
1.0
 10
182.4731683659435
 20
187.9497978848908
 30
0.0
 41
1.0
 10
182.5237810057068
 20
187.5641785338389
 30
0.0
 41
1.0
 10
182.5653533459845
 20
187.247434944309
 30
0.0
 41
1.0
 10
182.5956968259898
 20
187.016233144188
 30
0.0
 41
1.0
 10
182.6007462423585
 20
186.9777722067588
 30
0.0
 41
1.0
 10
182.6033849293844
 20
186.957673571751
 30
0.0
 41
1.0
  0
SPLINE
  5
195
330
1F
100
AcDbEntity
  8
0
  6
Continuous
 62
     7
370
     0
100
AcDbSpline
210
0.0
220
0.0
230
1.0
 70
    12
 71
     3
 72
    12
 73
     8
 74
     0
 42
0.00000001
 43
0.00000001
 40
0.0
 40
0.0
 40
0.0
 40
0.0
 40
0.1761784322546628
 40
0.3361291349478104
 40
0.5001202072246441
 40
0.7237877459300997
 40
1.0
 40
1.0
 40
1.0
 40
1.0
 10
181.2700979436295
 20
187.5105578747844
 30
0.0
 41
1.0
 10
181.2828612381462
 20
187.5203437075817
 30
0.0
 41
1.0
 10
181.307212204891
 20
187.5390140037741
 30
0.0
 41
1.0
 10
181.4464145736529
 20
187.6457400116194
 30
0.0
 41
1.0
 10
181.6768868246699
 20
187.8224425949304
 30
0.0
 41
1.0
 10
182.011456609381
 20
188.0789561811085
 30
0.0
 41
1.0
 10
182.2717339238567
 20
188.2785103705769
 30
0.0
 41
1.0
 10
182.4155520672457
 20
188.3887755048727
 30
0.0
 41
1.0
  0
LINE
  5
196
330
1F
100
AcDbEntity
  8
0
  6
Continuous
 62
     7
370
     0
100
AcDbLine
 10
149.11555229
 20
176.6887748909
 30
0.0
 11
185.715553912
 21
176.6887748909
 31
0.0
  0
LINE
  5
197
330
1F
100
AcDbEntity
  8
0
  6
Continuous
 62
     7
370
     0
100
AcDbLine
 10
147.7155523399
 20
178.088776238
 30
0.0
 11
149.11555229
 21
176.6887748909
 31
0.0
  0
LINE
  5
198
330
1F
100
AcDbEntity
  8
0
  6
Continuous
 62
     7
370
     0
100
AcDbLine
 10
147.7155523399
 20
198.6887758195
 30
0.0
 11
147.7155523399
 21
178.088776238
 31
0.0
  0
LINE
  5
199
330
1F
100
AcDbEntity
  8
0
  6
Continuous
 62
     7
370
     0
100
AcDbLine
 10
149.11555229
 20
200.0887758278
 30
0.0
 11
147.7155523399
 21
198.6887758195
 31
0.0
  0
LINE
  5
19A
330
1F
100
AcDbEntity
  8
0
  6
Continuous
 62
     7
370
     0
100
AcDbLine
 10
185.715553912
 20
200.0887758278
 30
0.0
 11
149.11555229
 21
200.0887758278
 31
0.0
  0
LINE
  5
19B
330
1F
100
AcDbEntity
  8
0
  6
Continuous
 62
     7
370
     0
100
AcDbLine
 10
187.1155515338
 20
198.6887758195
 30
0.0
 11
185.715553912
 21
200.0887758278
 31
0.0
  0
LINE
  5
19C
330
1F
100
AcDbEntity
  8
0
  6
Continuous
 62
     7
370
     0
100
AcDbLine
 10
187.1155515338
 20
178.088776238
 30
0.0
 11
187.1155515338
 21
198.6887758195
 31
0.0
  0
LINE
  5
19D
330
1F
100
AcDbEntity
  8
0
  6
Continuous
 62
     7
370
     0
100
AcDbLine
 10
185.715553912
 20
176.6887748909
 30
0.0
 11
187.1155515338
 21
178.088776238
 31
0.0
  0
CIRCLE
  5
19E
330
1F
100
AcDbEntity
  8
0
  6
Continuous
 62
     7
370
     0
100
AcDbCircle
 10
182.4155521472
 20
188.3887758147
 30
0.0
 40
3.75
  0
CIRCLE
  5
19F
330
1F
100
AcDbEntity
  8
0
  6
Continuous
 62
     7
370
     0
100
AcDbCircle
 10
167.4155521472
 20
188.3887758147
 30
0.0
 40
4.5
  0
CIRCLE
  5
1A0
330
1F
100
AcDbEntity
  8
0
  6
Continuous
 62
     7
370
     0
100
AcDbCircle
 10
183.4155521472
 20
196.3887758147
 30
0.0
 40
2.150000000000034
  0
CIRCLE
  5
1A1
330
1F
100
AcDbEntity
  8
0
  6
Continuous
 62
     7
370
     0
100
AcDbCircle
 10
183.4155521472
 20
180.3887758147
 30
0.0
 40
2.149999999999977
  0
CIRCLE
  5
1A2
330
1F
100
AcDbEntity
  8
0
  6
Continuous
 62
     7
370
     0
100
AcDbCircle
 10
151.4155521472
 20
180.3887758147
 30
0.0
 40
2.150000000000006
  0
CIRCLE
  5
1A3
330
1F
100
AcDbEntity
  8
0
  6
Continuous
 62
     7
370
     0
100
AcDbCircle
 10
151.4155521472
 20
196.3887758147
 30
0.0
 40
2.150000000000006
  0
LINE
  5
1A4
330
1F
100
AcDbEntity
  8
0
  6
Continuous
 62
     7
370
     0
100
AcDbLine
 10
187.4155528868
 20
198.388775747
 30
0.0
 11
187.4155528868
 21
178.3887757284
 31
0.0
  0
LINE
  5
1A5
330
1F
100
AcDbEntity
  8
0
  6
Continuous
 62
     7
370
     0
100
AcDbLine
 10
187.4155528868
 20
178.3887757284
 30
0.0
 11
187.1155515338
 21
178.088776238
 31
0.0
  0
LINE
  5
1A6
330
1F
100
AcDbEntity
  8
0
  6
Continuous
 62
     7
370
     0
100
AcDbLine
 10
187.1155515338
 20
198.6887758195
 30
0.0
 11
187.4155528868
 21
198.388775747
 31
0.0
  0
LINE
  5
1A7
330
1F
100
AcDbEntity
  8
0
  6
Continuous
 62
     7
370
     0
100
AcDbLine
 10
149.11555229
 20
200.0887758278
 30
0.0
 11
149.4155522461
 21
200.3887758129
 31
0.0
  0
LINE
  5
1A8
330
1F
100
AcDbEntity
  8
0
  6
Continuous
 62
     7
370
     0
100
AcDbLine
 10
149.4155522461
 20
200.3887758129
 30
0.0
 11
185.415552559
 21
200.3887758129
 31
0.0
  0
LINE
  5
1A9
330
1F
100
AcDbEntity
  8
0
  6
Continuous
 62
     7
370
     0
100
AcDbLine
 10
185.415552559
 20
200.3887758129
 30
0.0
 11
185.715553912
 21
200.0887758278
 31
0.0
  0
CIRCLE
  5
1AA
330
1F
100
AcDbEntity
  8
0
  6
Continuous
 62
     7
370
     0
100
AcDbCircle
 10
183.4155521472
 20
196.3887758147
 30
0.0
 40
1.650000000000034
  0
CIRCLE
  5
1AB
330
1F
100
AcDbEntity
  8
0
  6
Continuous
 62
     7
370
     0
100
AcDbCircle
 10
182.4155521472
 20
188.3887758147
 30
0.0
 40
3.25
  0
CIRCLE
  5
1AC
330
1F
100
AcDbEntity
  8
0
  6
Continuous
 62
     7
370
     0
100
AcDbCircle
 10
183.4155521472
 20
180.3887758147
 30
0.0
 40
1.649999999999977
  0
LINE
  5
1AD
330
1F
100
AcDbEntity
  8
0
  6
Continuous
 62
     7
370
     0
100
AcDbLine
 10
185.415552559
 20
176.3887754006
 30
0.0
 11
149.4155522461
 21
176.3887754006
 31
0.0
  0
LINE
  5
1AE
330
1F
100
AcDbEntity
  8
0
  6
Continuous
 62
     7
370
     0
100
AcDbLine
 10
149.4155522461
 20
176.3887754006
 30
0.0
 11
149.11555229
 21
176.6887748909
 31
0.0
  0
LINE
  5
1AF
330
1F
100
AcDbEntity
  8
0
  6
Continuous
 62
     7
370
     0
100
AcDbLine
 10
185.715553912
 20
176.6887748909
 30
0.0
 11
185.415552559
 21
176.3887754006
 31
0.0
  0
CIRCLE
  5
1B0
330
1F
100
AcDbEntity
  8
0
  6
Continuous
 62
     7
370
     0
100
AcDbCircle
 10
167.4155521472
 20
188.3887758147
 30
0.0
 40
4.0
  0
CIRCLE
  5
1B1
330
1F
100
AcDbEntity
  8
0
  6
Continuous
 62
     7
370
     0
100
AcDbCircle
 10
151.4155521472
 20
196.3887758147
 30
0.0
 40
1.650000000000006
  0
LINE
  5
1B2
330
1F
100
AcDbEntity
  8
0
  6
Continuous
 62
     7
370
     0
100
AcDbLine
 10
147.7155523399
 20
178.088776238
 30
0.0
 11
147.4155519182
 21
178.3887757284
 31
0.0
  0
LINE
  5
1B3
330
1F
100
AcDbEntity
  8
0
  6
Continuous
 62
     7
370
     0
100
AcDbLine
 10
147.4155519182
 20
178.3887757284
 30
0.0
 11
147.4155519182
 21
198.388775747
 31
0.0
  0
LINE
  5
1B4
330
1F
100
AcDbEntity
  8
0
  6
Continuous
 62
     7
370
     0
100
AcDbLine
 10
147.4155519182
 20
198.388775747
 30
0.0
 11
147.7155523399
 21
198.6887758195
 31
0.0
  0
CIRCLE
  5
1B5
330
1F
100
AcDbEntity
  8
0
  6
Continuous
 62
     7
370
     0
100
AcDbCircle
 10
151.4155521472
 20
180.3887758147
 30
0.0
 40
1.650000000000006
  0
ARC
  5
1B6
330
1F
100
AcDbEntity
  8
0
  6
Continuous
 62
     7
370
     0
100
AcDbCircle
 10
185.4155521472
 20
198.8887758147
 30
0.0
 40
1.700000000000017
100
AcDbArc
 50
0.0
 51
90.0
  0
LINE
  5
1B7
330
1F
100
AcDbEntity
  8
0
  6
Continuous
 62
     7
370
     0
100
AcDbLine
 10
185.4155521472
 20
200.5887758147
 30
0.0
 11
185.4155521472
 21
200.8887758147
 31
0.0
  0
ARC
  5
1B8
330
1F
100
AcDbEntity
  8
0
  6
Continuous
 62
     7
370
     0
100
AcDbCircle
 10
185.4155521472
 20
198.8887758147
 30
0.0
 40
2.000000000000028
100
AcDbArc
 50
0.0
 51
90.0
  0
LINE
  5
1B9
330
1F
100
AcDbEntity
  8
0
  6
Continuous
 62
     7
370
     0
100
AcDbLine
 10
187.1155521472
 20
198.8887758147
 30
0.0
 11
187.4155521472
 21
198.8887758147
 31
0.0
  0
LINE
  5
1BA
330
1F
100
AcDbEntity
  8
0
  6
Continuous
 62
     7
370
     0
100
AcDbLine
 10
159.6155521485
 20
200.5887758142
 30
0.0
 11
159.6155521485
 21
200.3887758129
 31
0.0
  0
LINE
  5
1BB
330
1F
100
AcDbEntity
  8
0
  6
Continuous
 62
     7
370
     0
100
AcDbLine
 10
175.2155512596
 20
200.5887758142
 30
0.0
 11
159.6155521485
 21
200.5887758142
 31
0.0
  0
LINE
  5
1BC
330
1F
100
AcDbEntity
  8
0
  6
Continuous
 62
     7
370
     0
100
AcDbLine
 10
175.2155512596
 20
200.3887758129
 30
0.0
 11
175.2155512596
 21
200.5887758142
 31
0.0
  0
LINE
  5
1BD
330
1F
100
AcDbEntity
  8
0
  6
Continuous
 62
     7
370
     0
100
AcDbLine
 10
178.6155529345
 20
200.5887758142
 30
0.0
 11
178.6155529345
 21
200.3887758129
 31
0.0
  0
LINE
  5
1BE
330
1F
100
AcDbEntity
  8
0
  6
Continuous
 62
     7
370
     0
100
AcDbLine
 10
185.4155521472
 20
200.5887758147
 30
0.0
 11
178.6155529345
 21
200.5887758142
 31
0.0
  0
LINE
  5
1BF
330
1F
100
AcDbEntity
  8
0
  6
Continuous
 62
     7
370
     0
100
AcDbLine
 10
187.1155521472
 20
177.8887758147
 30
0.0
 11
187.1155515338
 21
178.088776238
 31
0.0
  0
LINE
  5
1C0
330
1F
100
AcDbEntity
  8
0
  6
Continuous
 62
     7
370
     0
100
AcDbLine
 10
187.1155515338
 20
198.6887758195
 30
0.0
 11
187.1155521472
 21
198.8887758147
 31
0.0
  0
ARC
  5
1C1
330
1F
100
AcDbEntity
  8
0
  6
Continuous
 62
     7
370
     0
100
AcDbCircle
 10
185.4155521472
 20
177.8887758147
 30
0.0
 40
1.700000000000017
100
AcDbArc
 50
270.0
 51
0.0
  0
LINE
  5
1C2
330
1F
100
AcDbEntity
  8
0
  6
Continuous
 62
     7
370
     0
100
AcDbLine
 10
178.6155529345
 20
176.1887757403
 30
0.0
 11
185.4155521472
 21
176.1887758147
 31
0.0
  0
LINE
  5
1C3
330
1F
100
AcDbEntity
  8
0
  6
Continuous
 62
     7
370
     0
100
AcDbLine
 10
178.6155529345
 20
176.3887754006
 30
0.0
 11
178.6155529345
 21
176.1887757403
 31
0.0
  0
LINE
  5
1C4
330
1F
100
AcDbEntity
  8
0
  6
Continuous
 62
     7
370
     0
100
AcDbLine
 10
175.2155512596
 20
176.1887757403
 30
0.0
 11
175.2155512596
 21
176.3887754006
 31
0.0
  0
LINE
  5
1C5
330
1F
100
AcDbEntity
  8
0
  6
Continuous
 62
     7
370
     0
100
AcDbLine
 10
159.6155521485
 20
176.1887757403
 30
0.0
 11
175.2155512596
 21
176.1887757403
 31
0.0
  0
LINE
  5
1C6
330
1F
100
AcDbEntity
  8
0
  6
Continuous
 62
     7
370
     0
100
AcDbLine
 10
159.6155521485
 20
176.3887754006
 30
0.0
 11
159.6155521485
 21
176.1887757403
 31
0.0
  0
LINE
  5
1C7
330
1F
100
AcDbEntity
  8
0
  6
Continuous
 62
     7
370
     0
100
AcDbLine
 10
156.2155521034
 20
176.1887757403
 30
0.0
 11
156.2155521034
 21
176.3887754006
 31
0.0
  0
LINE
  5
1C8
330
1F
100
AcDbEntity
  8
0
  6
Continuous
 62
     7
370
     0
100
AcDbLine
 10
149.4155521472
 20
176.1887758147
 30
0.0
 11
156.2155521034
 21
176.1887757403
 31
0.0
  0
ARC
  5
1C9
330
1F
100
AcDbEntity
  8
0
  6
Continuous
 62
     7
370
     0
100
AcDbCircle
 10
149.4155521472
 20
177.8887758147
 30
0.0
 40
1.700000000000017
100
AcDbArc
 50
180.0
 51
270.0
  0
LINE
  5
1CA
330
1F
100
AcDbEntity
  8
0
  6
Continuous
 62
     7
370
     0
100
AcDbLine
 10
147.7155521472
 20
198.8887758147
 30
0.0
 11
147.7155523399
 21
198.6887758195
 31
0.0
  0
LINE
  5
1CB
330
1F
100
AcDbEntity
  8
0
  6
Continuous
 62
     7
370
     0
100
AcDbLine
 10
147.7155523399
 20
178.088776238
 30
0.0
 11
147.7155521472
 21
177.8887758147
 31
0.0
  0
ARC
  5
1CC
330
1F
100
AcDbEntity
  8
0
  6
Continuous
 62
     7
370
     0
100
AcDbCircle
 10
149.4155521472
 20
198.8887758147
 30
0.0
 40
1.699999999999989
100
AcDbArc
 50
90.0
 51
180.0
  0
LINE
  5
1CD
330
1F
100
AcDbEntity
  8
0
  6
Continuous
 62
     7
370
     0
100
AcDbLine
 10
156.2155521034
 20
200.5887758142
 30
0.0
 11
149.4155521472
 21
200.5887758147
 31
0.0
  0
LINE
  5
1CE
330
1F
100
AcDbEntity
  8
0
  6
Continuous
 62
     7
370
     0
100
AcDbLine
 10
156.2155521034
 20
200.3887758129
 30
0.0
 11
156.2155521034
 21
200.5887758142
 31
0.0
  0
LINE
  5
1CF
330
1F
100
AcDbEntity
  8
0
  6
Continuous
 62
     7
370
     0
100
AcDbLine
 10
187.4155521472
 20
198.8887758147
 30
0.0
 11
187.4155528868
 21
198.388775747
 31
0.0
  0
LINE
  5
1D0
330
1F
100
AcDbEntity
  8
0
  6
Continuous
 62
     7
370
     0
100
AcDbLine
 10
187.4155528868
 20
178.3887757284
 30
0.0
 11
187.4155521472
 21
177.8887758147
 31
0.0
  0
LINE
  5
1D1
330
1F
100
AcDbEntity
  8
0
  6
Continuous
 62
     7
370
     0
100
AcDbLine
 10
187.1155521472
 20
177.8887758147
 30
0.0
 11
187.4155521472
 21
177.8887758147
 31
0.0
  0
LINE
  5
1D2
330
1F
100
AcDbEntity
  8
0
  6
Continuous
 62
     7
370
     0
100
AcDbLine
 10
178.6155529345
 20
200.5887758142
 30
0.0
 11
178.3155515815
 21
200.8887758076
 31
0.0
  0
LINE
  5
1D3
330
1F
100
AcDbEntity
  8
0
  6
Continuous
 62
     7
370
     0
100
AcDbLine
 10
178.3155515815
 20
200.8887758076
 30
0.0
 11
185.4155521472
 21
200.8887758147
 31
0.0
  0
LINE
  5
1D4
330
1F
100
AcDbEntity
  8
0
  6
Continuous
 62
     7
370
     0
100
AcDbLine
 10
178.3155515815
 20
200.3887758129
 30
0.0
 11
178.3155515815
 21
200.8887758076
 31
0.0
  0
ARC
  5
1D5
330
1F
100
AcDbEntity
  8
0
  6
Continuous
 62
     7
370
     0
100
AcDbCircle
 10
185.4155521472
 20
177.8887758147
 30
0.0
 40
2.0
100
AcDbArc
 50
270.0
 51
0.0
  0
LINE
  5
1D6
330
1F
100
AcDbEntity
  8
0
  6
Continuous
 62
     7
370
     0
100
AcDbLine
 10
185.4155521472
 20
176.1887758147
 30
0.0
 11
185.4155521472
 21
175.8887758147
 31
0.0
  0
LINE
  5
1D7
330
1F
100
AcDbEntity
  8
0
  6
Continuous
 62
     7
370
     0
100
AcDbLine
 10
175.2155512596
 20
200.5887758142
 30
0.0
 11
175.5155526126
 21
200.8887758076
 31
0.0
  0
LINE
  5
1D8
330
1F
100
AcDbEntity
  8
0
  6
Continuous
 62
     7
370
     0
100
AcDbLine
 10
175.5155526126
 20
200.8887758076
 30
0.0
 11
175.5155526126
 21
200.3887758129
 31
0.0
  0
LINE
  5
1D9
330
1F
100
AcDbEntity
  8
0
  6
Continuous
 62
     7
370
     0
100
AcDbLine
 10
159.6155521485
 20
200.5887758142
 30
0.0
 11
159.3155521924
 21
200.8887758076
 31
0.0
  0
LINE
  5
1DA
330
1F
100
AcDbEntity
  8
0
  6
Continuous
 62
     7
370
     0
100
AcDbLine
 10
159.3155521924
 20
200.8887758076
 30
0.0
 11
175.5155526126
 21
200.8887758076
 31
0.0
  0
LINE
  5
1DB
330
1F
100
AcDbEntity
  8
0
  6
Continuous
 62
     7
370
     0
100
AcDbLine
 10
185.4155521472
 20
175.8887758147
 30
0.0
 11
178.3155515815
 21
175.8887762499
 31
0.0
  0
LINE
  5
1DC
330
1F
100
AcDbEntity
  8
0
  6
Continuous
 62
     7
370
     0
100
AcDbLine
 10
178.6155529345
 20
176.1887757403
 30
0.0
 11
178.3155515815
 21
175.8887762499
 31
0.0
  0
LINE
  5
1DD
330
1F
100
AcDbEntity
  8
0
  6
Continuous
 62
     7
370
     0
100
AcDbLine
 10
178.3155515815
 20
175.8887762499
 30
0.0
 11
178.3155515815
 21
176.3887754006
 31
0.0
  0
LINE
  5
1DE
330
1F
100
AcDbEntity
  8
0
  6
Continuous
 62
     7
370
     0
100
AcDbLine
 10
175.5155526126
 20
176.3887754006
 30
0.0
 11
175.5155526126
 21
175.8887762499
 31
0.0
  0
LINE
  5
1DF
330
1F
100
AcDbEntity
  8
0
  6
Continuous
 62
     7
370
     0
100
AcDbLine
 10
175.5155526126
 20
175.8887762499
 30
0.0
 11
175.2155512596
 21
176.1887757403
 31
0.0
  0
LINE
  5
1E0
330
1F
100
AcDbEntity
  8
0
  6
Continuous
 62
     7
370
     0
100
AcDbLine
 10
175.5155526126
 20
175.8887762499
 30
0.0
 11
159.3155521924
 21
175.8887762499
 31
0.0
  0
LINE
  5
1E1
330
1F
100
AcDbEntity
  8
0
  6
Continuous
 62
     7
370
     0
100
AcDbLine
 10
159.3155521924
 20
175.8887762499
 30
0.0
 11
159.6155521485
 21
176.1887757403
 31
0.0
  0
LINE
  5
1E2
330
1F
100
AcDbEntity
  8
0
  6
Continuous
 62
     7
370
     0
100
AcDbLine
 10
159.3155521924
 20
200.3887758129
 30
0.0
 11
159.3155521924
 21
200.8887758076
 31
0.0
  0
LINE
  5
1E3
330
1F
100
AcDbEntity
  8
0
  6
Continuous
 62
     7
370
     0
100
AcDbLine
 10
156.5155520594
 20
200.8887758076
 30
0.0
 11
156.2155521034
 21
200.5887758142
 31
0.0
  0
LINE
  5
1E4
330
1F
100
AcDbEntity
  8
0
  6
Continuous
 62
     7
370
     0
100
AcDbLine
 10
156.5155520594
 20
200.8887758076
 30
0.0
 11
156.5155520594
 21
200.3887758129
 31
0.0
  0
LINE
  5
1E5
330
1F
100
AcDbEntity
  8
0
  6
Continuous
 62
     7
370
     0
100
AcDbLine
 10
149.4155521472
 20
200.8887758147
 30
0.0
 11
156.5155520594
 21
200.8887758076
 31
0.0
  0
LINE
  5
1E6
330
1F
100
AcDbEntity
  8
0
  6
Continuous
 62
     7
370
     0
100
AcDbLine
 10
149.4155521472
 20
200.8887758147
 30
0.0
 11
149.4155521472
 21
200.5887758147
 31
0.0
  0
ARC
  5
1E7
330
1F
100
AcDbEntity
  8
0
  6
Continuous
 62
     7
370
     0
100
AcDbCircle
 10
149.4155521472
 20
198.8887758147
 30
0.0
 40
2.000000000000028
100
AcDbArc
 50
90.0
 51
180.0
  0
LINE
  5
1E8
330
1F
100
AcDbEntity
  8
0
  6
Continuous
 62
     7
370
     0
100
AcDbLine
 10
147.4155521472
 20
198.8887758147
 30
0.0
 11
147.7155521472
 21
198.8887758147
 31
0.0
  0
LINE
  5
1E9
330
1F
100
AcDbEntity
  8
0
  6
Continuous
 62
     7
370
     0
100
AcDbLine
 10
159.3155521924
 20
175.8887762499
 30
0.0
 11
159.3155521924
 21
176.3887754006
 31
0.0
  0
LINE
  5
1EA
330
1F
100
AcDbEntity
  8
0
  6
Continuous
 62
     7
370
     0
100
AcDbLine
 10
147.4155521472
 20
177.8887758147
 30
0.0
 11
147.4155519182
 21
178.3887757284
 31
0.0
  0
LINE
  5
1EB
330
1F
100
AcDbEntity
  8
0
  6
Continuous
 62
     7
370
     0
100
AcDbLine
 10
147.4155519182
 20
198.388775747
 30
0.0
 11
147.4155521472
 21
198.8887758147
 31
0.0
  0
LINE
  5
1EC
330
1F
100
AcDbEntity
  8
0
  6
Continuous
 62
     7
370
     0
100
AcDbLine
 10
147.4155521472
 20
177.8887758147
 30
0.0
 11
147.7155521472
 21
177.8887758147
 31
0.0
  0
LINE
  5
1ED
330
1F
100
AcDbEntity
  8
0
  6
Continuous
 62
     7
370
     0
100
AcDbLine
 10
156.5155520594
 20
176.3887754006
 30
0.0
 11
156.5155520594
 21
175.8887762499
 31
0.0
  0
LINE
  5
1EE
330
1F
100
AcDbEntity
  8
0
  6
Continuous
 62
     7
370
     0
100
AcDbLine
 10
156.5155520594
 20
175.8887762499
 30
0.0
 11
156.2155521034
 21
176.1887757403
 31
0.0
  0
LINE
  5
1EF
330
1F
100
AcDbEntity
  8
0
  6
Continuous
 62
     7
370
     0
100
AcDbLine
 10
156.5155520594
 20
175.8887762499
 30
0.0
 11
149.4155521472
 21
175.8887758147
 31
0.0
  0
LINE
  5
1F0
330
1F
100
AcDbEntity
  8
0
  6
Continuous
 62
     7
370
     0
100
AcDbLine
 10
149.4155521472
 20
175.8887758147
 30
0.0
 11
149.4155521472
 21
176.1887758147
 31
0.0
  0
ARC
  5
1F1
330
1F
100
AcDbEntity
  8
0
  6
Continuous
 62
     7
370
     0
100
AcDbCircle
 10
149.4155521472
 20
177.8887758147
 30
0.0
 40
2.0
100
AcDbArc
 50
180.0
 51
270.0
  0
DIMENSION
  5
1F2
330
1F
100
AcDbEntity
  8
0
  6
Continuous
 62
     7
370
     0
100
AcDbDimension
  2
*D15
 10
187.4155521472
 20
212.6981214559
 30
0.0
 11
167.4155521472
 21
212.6981214559
 31
0.0
 70
   160
 71
     1
 42
40.0
  3
SLDDIMSTYLE0
100
AcDbAlignedDimension
 13
147.4155521472
 23
198.3887758147
 33
0.0
 14
187.4155521472
 24
198.3887758147
 34
0.0
100
AcDbRotatedDimension
1001
ACAD
1000
DSTYLE
1002
{
1070
    77
1070
     3
1070
   143
1040
0.0393700787
1070
    41
1040
3.0
1070
    44
1040
1.0
1070
    42
1040
1.0
1070
   147
1040
1.524
1070
    73
1070
     0
1070
    74
1070
     0
1070
   140
1040
3.5
1070
   284
1070
    12
1070
    78
1070
    12
1002
}
  0
DIMENSION
  5
205
330
1F
100
AcDbEntity
  8
0
  6
Continuous
 62
     7
370
     0
100
AcDbDimension
  2
*D16
 10
136.8805119152
 20
176.3887758147
 30
0.0
 11
136.8805119152
 21
188.3887758147
 31
0.0
 70
   160
 71
     1
 42
24.0
  3
SLDDIMSTYLE0
100
AcDbAlignedDimension
 13
149.4155521472
 23
200.3887758147
 33
0.0
 14
149.4155521472
 24
176.3887758147
 34
0.0
 50
90.0
100
AcDbRotatedDimension
1001
ACAD
1000
DSTYLE
1002
{
1070
    77
1070
     3
1070
   143
1040
0.0393700787
1070
    41
1040
3.0
1070
    44
1040
1.0
1070
    42
1040
1.0
1070
   147
1040
1.524
1070
    73
1070
     0
1070
    74
1070
     0
1070
   140
1040
3.5
1070
   284
1070
    12
1070
    78
1070
    12
1002
}
  0
DIMENSION
  5
219
330
1F
100
AcDbEntity
  8
0
  6
Continuous
 62
     7
370
     0
100
AcDbDimension
  2
*D17
 10
142.6877836889
 20
180.3887758147
 30
0.0
 11
142.6877836889
 21
188.3887758147
 31
0.0
 70
   160
 71
     1
 42
16.0
  3
SLDDIMSTYLE0
100
AcDbAlignedDimension
 13
146.7655521472
 23
196.3887758147
 33
0.0
 14
146.7655521472
 24
180.3887758147
 34
0.0
 50
90.0
100
AcDbRotatedDimension
1001
ACAD
1000
DSTYLE
1002
{
1070
    77
1070
     3
1070
   143
1040
0.0393700787
1070
    41
1040
3.0
1070
    44
1040
1.0
1070
    42
1040
1.0
1070
   147
1040
1.524
1070
    73
1070
     0
1070
    74
1070
     0
1070
   140
1040
3.5
1070
   284
1070
    12
1070
    78
1070
    12
1002
}
  0
DIMENSION
  5
22D
330
1F
100
AcDbEntity
  8
0
  6
Continuous
 62
     7
370
     0
100
AcDbDimension
  2
*D18
 10
183.4155521472
 20
206.4111732082
 30
0.0
 11
167.4155521472
 21
206.4111732082
 31
0.0
 70
   160
 71
     1
 42
32.0
  3
SLDDIMSTYLE0
100
AcDbAlignedDimension
 13
151.4155521472
 23
201.0387758147
 33
0.0
 14
183.4155521472
 24
200.5387758147
 34
0.0
100
AcDbRotatedDimension
1001
ACAD
1000
DSTYLE
1002
{
1070
    77
1070
     3
1070
   143
1040
0.0393700787
1070
    41
1040
3.0
1070
    44
1040
1.0
1070
    42
1040
1.0
1070
   147
1040
1.524
1070
    73
1070
     0
1070
    74
1070
     0
1070
   140
1040
3.5
1070
   284
1070
    12
1070
    78
1070
    12
1002
}
  0
MTEXT
  5
240
330
1F
100
AcDbEntity
  8
0
  6
Continuous
 62
     7
370
     0
100
AcDbMText
 10
129.8157464648
 20
214.7154202443
 30
48.55
 40
3.5
 41
0.0
 71
     1
 72
     1
  1
4-M4
  7
SLDTEXTSTYLE0
 73
     1
 44
1.0
  0
LEADER
  5
241
330
1F
100
AcDbEntity
  8
0
  6
Continuous
 62
     7
370
     0
100
AcDbLeader
  3
SLDDIMSTYLE1
 76
     3
 10
150.3879838614
 20
198.2773211326
 30
0.0
 10
138.4625879262
 20
210.6424377243
 30
0.0
 10
129.8153433655
 20
210.6424377243
 30
0.0
  0
INSERT
  5
24D
330
1F
100
AcDbEntity
  8
0
  6
Continuous
 62
     7
370
     0
100
AcDbBlockReference
  2
SW_CENTERMARKSYMBOL_2
 10
151.4155521472
 20
196.3887758147
 30
0.0
  0
INSERT
  5
259
330
1F
100
AcDbEntity
  8
0
  6
Continuous
 62
     7
370
     0
100
AcDbBlockReference
  2
SW_CENTERMARKSYMBOL_3
 10
151.4155521472
 20
180.3887758147
 30
0.0
  0
INSERT
  5
265
330
1F
100
AcDbEntity
  8
0
  6
Continuous
 62
     7
370
     0
100
AcDbBlockReference
  2
SW_CENTERMARKSYMBOL_4
 10
167.4155521472
 20
188.3887758147
 30
0.0
  0
INSERT
  5
271
330
1F
100
AcDbEntity
  8
0
  6
Continuous
 62
     7
370
     0
100
AcDbBlockReference
  2
SW_CENTERMARKSYMBOL_5
 10
183.4155521472
 20
196.3887758147
 30
0.0
  0
INSERT
  5
27D
330
1F
100
AcDbEntity
  8
0
  6
Continuous
 62
     7
370
     0
100
AcDbBlockReference
  2
SW_CENTERMARKSYMBOL_6
 10
183.4155521472
 20
180.3887758147
 30
0.0
  0
LINE
  5
27E
330
1F
100
AcDbEntity
  8
0
  6
HIDDEN
 62
     7
370
     0
100
AcDbLine
 10
118.4130362172
 20
124.8417091673
 30
0.0
 11
125.4130362172
 21
124.8417091673
 31
0.0
  0
LINE
  5
27F
330
1F
100
AcDbEntity
  8
0
  6
HIDDEN
 62
     7
370
     0
100
AcDbLine
 10
118.4130362172
 20
119.8417091673
 30
0.0
 11
125.4130362172
 21
119.8417091673
 31
0.0
  0
LINE
  5
280
330
1F
100
AcDbEntity
  8
0
  6
HIDDEN
 62
     7
370
     0
100
AcDbLine
 10
125.4130362172
 20
127.3417091673
 30
0.0
 11
125.4130362172
 21
87.3417091673
 31
0.0
  0
LINE
  5
281
330
1F
100
AcDbEntity
  8
0
  6
HIDDEN
 62
     7
370
     0
100
AcDbLine
 10
125.4130362172
 20
127.3417091673
 30
0.0
 11
133.4130362172
 21
127.3417091673
 31
0.0
  0
LINE
  5
282
330
1F
100
AcDbEntity
  8
0
  6
HIDDEN
 62
     7
370
     0
100
AcDbLine
 10
133.4130362172
 20
127.3417091673
 30
0.0
 11
133.4130362172
 21
87.3417091673
 31
0.0
  0
LINE
  5
283
330
1F
100
AcDbEntity
  8
0
  6
HIDDEN
 62
     7
370
     0
100
AcDbLine
 10
133.4130362172
 20
87.3417091673
 30
0.0
 11
125.4130362172
 21
87.3417091673
 31
0.0
  0
LINE
  5
284
330
1F
100
AcDbEntity
  8
0
  6
HIDDEN
 62
     7
370
     0
100
AcDbLine
 10
118.4130362172
 20
110.8417091673
 30
0.0
 11
125.4130362172
 21
110.8417091673
 31
0.0
  0
LINE
  5
285
330
1F
100
AcDbEntity
  8
0
  6
HIDDEN
 62
     7
370
     0
100
AcDbLine
 10
118.4130362172
 20
103.8417091673
 30
0.0
 11
125.4130362172
 21
103.8417091673
 31
0.0
  0
LINE
  5
286
330
1F
100
AcDbEntity
  8
0
  6
Continuous
 62
     7
370
     0
100
AcDbLine
 10
59.3130355124
 20
118.1917093625
 30
0.0
 11
40.3927042504
 21
118.1917093625
 31
0.0
  0
LINE
  5
287
330
1F
100
AcDbEntity
  8
0
  6
Continuous
 62
     7
370
     0
100
AcDbLine
 10
40.6013298203
 20
115.4917083611
 30
0.0
 11
59.3130355124
 21
115.4917083611
 31
0.0
  0
LINE
  5
288
330
1F
100
AcDbEntity
  8
0
  6
Continuous
 62
     7
370
     0
100
AcDbLine
 10
64.3130367976
 20
99.1917090421
 30
0.0
 11
42.0250724424
 21
99.1917090421
 31
0.0
  0
LINE
  5
289
330
1F
100
AcDbEntity
  8
0
  6
Continuous
 62
     7
370
     0
100
AcDbLine
 10
41.370339634
 20
96.4917089721
 30
0.0
 11
64.3130367976
 21
96.4917089721
 31
0.0
  0
LINE
  5
28A
330
1F
100
AcDbEntity
  8
0
  6
Continuous
 62
     7
370
     0
100
AcDbLine
 10
108.413036855
 20
119.8417093536
 30
0.0
 11
110.4130371828
 21
119.8417093536
 31
0.0
  0
LINE
  5
28B
330
1F
100
AcDbEntity
  8
0
  6
Continuous
 62
     7
370
     0
100
AcDbLine
 10
110.4130371828
 20
124.8417092418
 30
0.0
 11
108.413036855
 21
124.8417092418
 31
0.0
  0
LWPOLYLINE
  5
28C
330
1F
100
AcDbEntity
  8
0
  6
Continuous
 62
     7
370
     0
100
AcDbPolyline
 90
      120
 70
   128
 43
0.0
 10
40.3927042504
 20
118.1917093625
 10
40.3629131038
 20
118.1452549925
 10
40.3333138098
 20
118.0989012053
 10
40.3039622475
 20
118.0526507949
 10
40.2749142964
 20
118.006505624
 10
40.25417188
 20
117.9732676526
 10
40.2336399425
 20
117.9400874233
 10
40.2133371104
 20
117.9069640046
 10
40.193287598
 20
117.8738992592
 10
40.1735100318
 20
117.8408931872
 10
40.1540286262
 20
117.8079467198
 10
40.1359497924
 20
117.7769383346
 10
40.1181689818
 20
117.7459848975
 10
40.1007066835
 20
117.7150864085
 10
40.0835777987
 20
117.6842447301
 10
40.0668028165
 20
117.6534579998
 10
40.0531067868
 20
117.6278475603
 10
40.0396771152
 20
117.6022762363
 10
40.0265268405
 20
117.5767458906
 10
40.0136634131
 20
117.5512555917
 10
40.0010998715
 20
117.5258072024
 10
39.9888455291
 20
117.5004007226
 10
39.9775839765
 20
117.4764843588
 10
39.9666148592
 20
117.452605248
 10
39.9559474905
 20
117.4287652528
 10
39.9455893208
 20
117.4049625104
 10
39.9355515261
 20
117.3811988836
 10
39.9267095496
 20
117.3596294528
 10
39.9181451072
 20
117.3380926182
 10
39.9098637868
 20
117.31658838
 10
39.9018730391
 20
117.295116738
 10
39.894178452
 20
117.273679555
 10
39.8867893387
 20
117.2522749683
 10
39.8797075619
 20
117.2309039091
 10
39.8734956403
 20
117.2113433411
 10
39.8675538023
 20
117.1918125754
 10
39.8618876357
 20
117.1723097494
 10
39.856500866
 20
117.1528367256
 10
39.8514028062
 20
117.1333925729
 10
39.8465934564
 20
117.1139782225
 10
39.8420802672
 20
117.0945927431
 10
39.8378688265
 20
117.0752379974
 10
39.8339647223
 20
117.055913054
 10
39.8303698172
 20
117.0366179129
 10
39.8270915617
 20
117.0173535054
 10
39.8241336812
 20
116.9981198316
 10
39.8216451873
 20
116.9800130581
 10
39.8194491287
 20
116.9619342243
 10
39.8175529559
 20
116.9438823988
 10
39.8159585316
 20
116.9258594444
 10
39.8146695812
 20
116.9078634983
 10
39.8137252201
 20
116.89057722
 10
39.8130714317
 20
116.8733170187
 10
39.8127119411
 20
116.8560828944
 10
39.8126523365
 20
116.8388748472
 10
39.8128944804
 20
116.8216938084
 10
39.8134346475
 20
116.8045397779
 10
39.8142169584
 20
116.7883887818
 10
39.8152600397
 20
116.7722610687
 10
39.8165620287
 20
116.7561566388
 10
39.8181229253
 20
116.7400754919
 10
39.8199371417
 20
116.7240157654
 10
39.8222598602
 20
116.7061185395
 10
39.8248955031
 20
116.6882492533
 10
39.8278384824
 20
116.6704069754
 10
39.8310869355
 20
116.6525917058
 10
39.8346389998
 20
116.6348034447
 10
39.83849095
 20
116.6170421919
 10
39.8426390608
 20
116.5993070161
 10
39.8470796068
 20
116.581596986
 10
39.85251108
 20
116.5613900801
 10
39.858316945
 20
116.5412157705
 10
39.8644916136
 20
116.5210740571
 10
39.8710332234
 20
116.5009649401
 10
39.8779361863
 20
116.4808884194
 10
39.8851949145
 20
116.4608435636
 10
39.8928056826
 20
116.4408303728
 10
39.9000886251
 20
116.4225121891
 10
39.907658415
 20
116.4042200824
 10
39.9155150522
 20
116.3859531214
 10
39.9236510862
 20
116.3677113061
 10
39.9320646544
 20
116.3494946366
 10
39.940753894
 20
116.3313031127
 10
39.9505420943
 20
116.3114854997
 10
39.9606488068
 20
116.2916958263
 10
39.9710665812
 20
116.2719350239
 10
39.9817954172
 20
116.2522021612
 10
39.9928260018
 20
116.2324963068
 10
40.0041583349
 20
116.2128174608
 10
40.0157849659
 20
116.1931656232
 10
40.0289091636
 20
116.1715794285
 10
40.0423798133
 20
116.1500248989
 10
40.0561894645
 20
116.1285011029
 10
40.0703306664
 20
116.1070071092
 10
40.0848015566
 20
116.0855438491
 10
40.0995928217
 20
116.06410946
 10
40.1147007365
 20
116.042703942
 10
40.1301159878
 20
116.0213272949
 10
40.1458348502
 20
115.9999785876
 10
40.1618498732
 20
115.9786578199
 10
40.1778648962
 20
115.9577431088
 10
40.1941518654
 20
115.9368544748
 10
40.2107089181
 20
115.9159909865
 10
40.2275304665
 20
115.8951517125
 10
40.2485224773
 20
115.8696129849
 10
40.2698926051
 20
115.8441105788
 10
40.291629674
 20
115.8186417004
 10
40.3137225081
 20
115.7932072809
 10
40.3361599316
 20
115.7678054576
 10
40.3585247119
 20
115.7428879222
 10
40.3812024166
 20
115.7180011203
 10
40.4041818698
 20
115.6931431895
 10
40.4274556209
 20
115.6683131983
 10
40.4514967818
 20
115.6430054387
 10
40.4758210649
 20
115.6177246874
 10
40.5004191567
 20
115.5924709445
 10
40.5252780189
 20
115.5672432786
 10
40.5503920634
 20
115.5420416897
 10
40.5757445265
 20
115.5168633839
 10
40.6013298203
 20
115.4917083611
  0
LWPOLYLINE
  5
28D
330
1F
100
AcDbEntity
  8
0
  6
Continuous
 62
     7
370
     0
100
AcDbPolyline
 90
      128
 70
   128
 43
0.0
 10
42.0250724424
 20
99.1917090421
 10
41.9701132347
 20
99.1460909998
 10
41.9148969819
 20
99.1005418753
 10
41.8595503439
 20
99.0550486302
 10
41.8041999806
 20
99.0096019512
 10
41.7489762773
 20
98.9641878685
 10
41.709383892
 20
98.9315217292
 10
41.6699703206
 20
98.8988611778
 10
41.6307802667
 20
98.8662043517
 10
41.5918640216
 20
98.8335447317
 10
41.5615084936
 20
98.8078784128
 10
41.5313746203
 20
98.7822074374
 10
41.501482891
 20
98.7565271487
 10
41.4718575199
 20
98.7308366155
 10
41.4425227214
 20
98.7051330438
 10
41.4134989847
 20
98.6794155022
 10
41.3848105241
 20
98.6536802655
 10
41.3564815541
 20
98.6279273336
 10
41.3344893028
 20
98.6076766556
 10
41.3127429207
 20
98.587412939
 10
41.2912554462
 20
98.5671343213
 10
41.2700361927
 20
98.5468389397
 10
41.2487182189
 20
98.5261570593
 10
41.2277019937
 20
98.5054556211
 10
41.2070005555
 20
98.4847346251
 10
41.1866250803
 20
98.4639922088
 10
41.1665867437
 20
98.443228372
 10
41.1472450365
 20
98.4228119185
 10
41.1282535066
 20
98.4023721819
 10
41.1096177418
 20
98.3819072997
 10
41.0913545062
 20
98.3614172717
 10
41.0770177264
 20
98.3450064366
 10
41.0629305412
 20
98.3285769751
 10
41.0490985383
 20
98.3121307497
 10
41.0355291684
 20
98.2956649666
 10
41.0222242941
 20
98.2791796257
 10
41.0094241966
 20
98.2629699563
 10
40.9968923201
 20
98.2467407291
 10
40.9846323897
 20
98.2304919442
 10
40.9726537187
 20
98.2142217388
 10
40.9600361605
 20
98.1966290554
 10
40.9477576037
 20
98.1790102949
 10
40.9358254988
 20
98.1613663887
 10
40.9242454339
 20
98.1436954742
 10
40.9130248596
 20
98.1259984826
 10
40.9021693636
 20
98.1082726201
 10
40.8922749926
 20
98.0915339594
 10
40.882719623
 20
98.0747701531
 10
40.8735051174
 20
98.0579793384
 10
40.8646407892
 20
98.0411624467
 10
40.8561285008
 20
98.0243176153
 10
40.8479775657
 20
98.0074448442
 10
40.8401917089
 20
97.9905441334
 10
40.8327783813
 20
97.9736145517
 10
40.8257394452
 20
97.9566551676
 10
40.8190860768
 20
97.9396659812
 10
40.8129281719
 20
97.9229506036
 10
40.8071502466
 20
97.9062054237
 10
40.8017578889
 20
97.8894295102
 10
40.7967566867
 20
97.8726219317
 10
40.7928246428
 20
97.858337306
 10
40.7891794462
 20
97.8440293973
 10
40.785826685
 20
97.8296982055
 10
40.7827644963
 20
97.8153437307
 10
40.7799910177
 20
97.8009659728
 10
40.7775025238
 20
97.7865649318
 10
40.7749339361
 20
97.7695636382
 10
40.772756504
 20
97.7525297483
 10
40.770966502
 20
97.7354641935
 10
40.7695602049
 20
97.7183679049
 10
40.768515261
 20
97.7008897742
 10
40.7678633352
 20
97.6833781158
 10
40.7675969769
 20
97.6658357238
 10
40.7677161862
 20
97.6482598042
 10
40.7682135124
 20
97.6306522196
 10
40.7690889557
 20
97.6130120387
 10
40.7703350653
 20
97.5953401928
 10
40.7717674394
 20
97.5794453105
 10
40.7734941114
 20
97.563524351
 10
40.7755113561
 20
97.5475782459
 10
40.7778173108
 20
97.5316060638
 10
40.7804082502
 20
97.5156096672
 10
40.7832841743
 20
97.499588125
 10
40.7870299537
 20
97.4806729635
 10
40.7911613007
 20
97.4617233431
 10
40.7956707646
 20
97.4427392637
 10
40.8005564828
 20
97.4237207254
 10
40.8059246261
 20
97.4042793667
 10
40.8116708864
 20
97.3848016863
 10
40.8177952637
 20
97.3652895471
 10
40.8242903073
 20
97.3457429489
 10
40.8311504294
 20
97.3261609604
 10
40.8383719046
 20
97.306544513
 10
40.8459491451
 20
97.2868936067
 10
40.8538784255
 20
97.2672082415
 10
40.8621541579
 20
97.2474884173
 10
40.8707707544
 20
97.2277350654
 10
40.8797244896
 20
97.207948186
 10
40.8890116383
 20
97.188127779
 10
40.8986228873
 20
97.168272913
 10
40.9085582365
 20
97.1483854508
 10
40.919851454
 20
97.1264714306
 10
40.9315227885
 20
97.1045173635
 10
40.9435647894
 20
97.0825241809
 10
40.9559700061
 20
97.0604909515
 10
40.9687328507
 20
97.0384186064
 10
40.9826523979
 20
97.0149660414
 10
40.9969612379
 20
96.9914706355
 10
41.0116463323
 20
96.9679314574
 10
41.0267058183
 20
96.9443494385
 10
41.0421266575
 20
96.92072551
 10
41.0579051246
 20
96.8970587408
 10
41.0731005837
 20
96.8747060677
 10
41.088599654
 20
96.8523161417
 10
41.1043930222
 20
96.8298889627
 10
41.1204788257
 20
96.8074245309
 10
41.1368477513
 20
96.7849247088
 10
41.1554425378
 20
96.7597696861
 10
41.1743744631
 20
96.7345708912
 10
41.1936323513
 20
96.7093264615
 10
41.2132068892
 20
96.6840382596
 10
41.2330924888
 20
96.6587062856
 10
41.2532761116
 20
96.6333305394
 10
41.2737503071
 20
96.6079119524
 10
41.2945076246
 20
96.5824505245
 10
41.3194223662
 20
96.5522626346
 10
41.3447059114
 20
96.52201514
 10
41.370339634
 20
96.4917089721
  0
LINE
  5
28E
330
1F
100
AcDbEntity
  8
0
  6
Continuous
 62
     7
370
     0
100
AcDbLine
 10
78.5130364244
 20
117.9417088559
 30
0.0
 11
61.6130353306
 21
117.9417088559
 31
0.0
  0
ARC
  5
28F
330
1F
100
AcDbEntity
  8
0
  6
Continuous
 62
     7
370
     0
100
AcDbCircle
 10
78.5130359456
 20
117.6417088867
 30
0.0
 40
0.2999999691504326
100
AcDbArc
 50
0.0
 51
89.9999085617
  0
LINE
  5
290
330
1F
100
AcDbEntity
  8
0
  6
Continuous
 62
     7
370
     0
100
AcDbLine
 10
78.8130359147
 20
116.0417083582
 30
0.0
 11
78.8130359147
 21
117.6417093655
 31
0.0
  0
ARC
  5
291
330
1F
100
AcDbEntity
  8
0
  6
Continuous
 62
     7
370
     0
100
AcDbCircle
 10
78.5130359456
 20
116.0417088369
 30
0.0
 40
0.2999999691504326
100
AcDbArc
 50
270.0000914383
 51
360.0
  0
LINE
  5
292
330
1F
100
AcDbEntity
  8
0
  6
Continuous
 62
     7
370
     0
100
AcDbLine
 10
61.6130353306
 20
115.7417088678
 30
0.0
 11
78.5130364244
 21
115.7417088678
 31
0.0
  0
ARC
  5
293
330
1F
100
AcDbEntity
  8
0
  6
Continuous
 62
     7
370
     0
100
AcDbCircle
 10
61.6130373993
 20
116.0417104268
 30
0.0
 40
0.3000015590422988
100
AcDbArc
 50
180.0
 51
269.9996049181
  0
LINE
  5
294
330
1F
100
AcDbEntity
  8
0
  6
Continuous
 62
     7
370
     0
100
AcDbLine
 10
61.3130358402
 20
117.6417093655
 30
0.0
 11
61.3130358402
 21
116.0417083582
 31
0.0
  0
ARC
  5
295
330
1F
100
AcDbEntity
  8
0
  6
Continuous
 62
     7
370
     0
100
AcDbCircle
 10
61.6130373993
 20
117.6417072968
 30
0.0
 40
0.300001559042313
100
AcDbArc
 50
90.0003950819
 51
180.0
  0
LINE
  5
296
330
1F
100
AcDbEntity
  8
0
  6
Continuous
 62
     7
370
     0
100
AcDbLine
 10
72.0630364381
 20
116.1917090347
 30
0.0
 11
72.0630364381
 21
117.491708689
 31
0.0
  0
LINE
  5
297
330
1F
100
AcDbEntity
  8
0
  6
Continuous
 62
     7
370
     0
100
AcDbLine
 10
72.0630364381
 20
117.491708689
 30
0.0
 11
70.7630359689
 21
117.491708689
 31
0.0
  0
LINE
  5
298
330
1F
100
AcDbEntity
  8
0
  6
Continuous
 62
     7
370
     0
100
AcDbLine
 10
70.7630359689
 20
117.491708689
 30
0.0
 11
70.7630359689
 21
116.1917090347
 31
0.0
  0
LINE
  5
299
330
1F
100
AcDbEntity
  8
0
  6
Continuous
 62
     7
370
     0
100
AcDbLine
 10
70.7630359689
 20
116.1917090347
 30
0.0
 11
72.0630364381
 21
116.1917090347
 31
0.0
  0
LINE
  5
29A
330
1F
100
AcDbEntity
  8
0
  6
Continuous
 62
     7
370
     0
100
AcDbLine
 10
79.7130362485
 20
118.041708686
 30
0.0
 11
59.3130355124
 21
118.041708686
 31
0.0
  0
LINE
  5
29B
330
1F
100
AcDbEntity
  8
0
  6
Continuous
 62
     7
370
     0
100
AcDbLine
 10
59.3130355124
 20
118.1417085161
 30
0.0
 11
79.7130362485
 21
118.1417085161
 31
0.0
  0
LINE
  5
29C
330
1F
100
AcDbEntity
  8
0
  6
Continuous
 62
     7
370
     0
100
AcDbLine
 10
79.7130362485
 20
118.1417085161
 30
0.0
 11
79.7130362485
 21
118.041708686
 31
0.0
  0
LINE
  5
29D
330
1F
100
AcDbEntity
  8
0
  6
Continuous
 62
     7
370
     0
100
AcDbLine
 10
59.3130355124
 20
118.041708686
 30
0.0
 11
59.3130355124
 21
118.1417085161
 31
0.0
  0
LINE
  5
29E
330
1F
100
AcDbEntity
  8
0
  6
Continuous
 62
     7
370
     0
100
AcDbLine
 10
59.3130355124
 20
115.6417090376
 30
0.0
 11
79.7130362485
 21
115.6417090376
 31
0.0
  0
LINE
  5
29F
330
1F
100
AcDbEntity
  8
0
  6
Continuous
 62
     7
370
     0
100
AcDbLine
 10
79.7130362485
 20
118.041708686
 30
0.0
 11
79.7130362485
 21
115.6417090376
 31
0.0
  0
LINE
  5
2A0
330
1F
100
AcDbEntity
  8
0
  6
Continuous
 62
     7
370
     0
100
AcDbLine
 10
59.3130355124
 20
118.041708686
 30
0.0
 11
59.3130355124
 21
115.6417090376
 31
0.0
  0
LINE
  5
2A1
330
1F
100
AcDbEntity
  8
0
  6
Continuous
 62
     7
370
     0
100
AcDbLine
 10
79.7130362485
 20
115.5417092075
 30
0.0
 11
59.3130355124
 21
115.5417092075
 31
0.0
  0
LINE
  5
2A2
330
1F
100
AcDbEntity
  8
0
  6
Continuous
 62
     7
370
     0
100
AcDbLine
 10
79.7130362485
 20
115.6417090376
 30
0.0
 11
79.7130362485
 21
115.5417092075
 31
0.0
  0
LINE
  5
2A3
330
1F
100
AcDbEntity
  8
0
  6
Continuous
 62
     7
370
     0
100
AcDbLine
 10
59.3130355124
 20
115.5417092075
 30
0.0
 11
59.3130355124
 21
115.6417090376
 31
0.0
  0
LINE
  5
2A4
330
1F
100
AcDbEntity
  8
0
  6
Continuous
 62
     7
370
     0
100
AcDbLine
 10
83.1130360608
 20
115.5417092075
 30
0.0
 11
83.1130360608
 21
118.1417085161
 31
0.0
  0
CIRCLE
  5
2A5
330
1F
100
AcDbEntity
  8
0
  6
Continuous
 62
     7
370
     0
100
AcDbCircle
 10
81.413036793
 20
116.8417093526
 30
0.0
 40
1.02500004721919
  0
LINE
  5
2A6
330
1F
100
AcDbEntity
  8
0
  6
Continuous
 62
     7
370
     0
100
AcDbLine
 10
83.1130360608
 20
115.5417092075
 30
0.0
 11
79.7130362485
 21
115.5417092075
 31
0.0
  0
LINE
  5
2A7
330
1F
100
AcDbEntity
  8
0
  6
Continuous
 62
     7
370
     0
100
AcDbLine
 10
83.1130360608
 20
118.1417085161
 30
0.0
 11
79.7130362485
 21
118.1417085161
 31
0.0
  0
LINE
  5
2A8
330
1F
100
AcDbEntity
  8
0
  6
Continuous
 62
     7
370
     0
100
AcDbLine
 10
83.4130364825
 20
118.1417085161
 30
0.0
 11
83.4130364825
 21
115.5417092075
 31
0.0
  0
LINE
  5
2A9
330
1F
100
AcDbEntity
  8
0
  6
Continuous
 62
     7
370
     0
100
AcDbLine
 10
83.4130364825
 20
115.5417092075
 30
0.0
 11
83.1130360608
 21
115.5417092075
 31
0.0
  0
LINE
  5
2AA
330
1F
100
AcDbEntity
  8
0
  6
Continuous
 62
     7
370
     0
100
AcDbLine
 10
83.1130360608
 20
118.1417085161
 30
0.0
 11
83.4130364825
 21
118.1417085161
 31
0.0
  0
LINE
  5
2AB
330
1F
100
AcDbEntity
  8
0
  6
Continuous
 62
     7
370
     0
100
AcDbLine
 10
83.4130364825
 20
115.5417092075
 30
0.0
 11
83.4130364825
 21
115.4417093774
 31
0.0
  0
LINE
  5
2AC
330
1F
100
AcDbEntity
  8
0
  6
Continuous
 62
     7
370
     0
100
AcDbLine
 10
83.4130364825
 20
118.2417083462
 30
0.0
 11
83.4130364825
 21
118.1417085161
 31
0.0
  0
LINE
  5
2AD
330
1F
100
AcDbEntity
  8
0
  6
Continuous
 62
     7
370
     0
100
AcDbLine
 10
59.3130355124
 20
115.5417092075
 30
0.0
 11
59.3130355124
 21
115.4417093774
 31
0.0
  0
LINE
  5
2AE
330
1F
100
AcDbEntity
  8
0
  6
Continuous
 62
     7
370
     0
100
AcDbLine
 10
59.3130355124
 20
118.2417083462
 30
0.0
 11
59.3130355124
 21
118.1417085161
 31
0.0
  0
LINE
  5
2AF
330
1F
100
AcDbEntity
  8
0
  6
Continuous
 62
     7
370
     0
100
AcDbLine
 10
83.5130363126
 20
98.9417094668
 30
0.0
 11
66.613036383
 21
98.9417094668
 31
0.0
  0
ARC
  5
2B0
330
1F
100
AcDbEntity
  8
0
  6
Continuous
 62
     7
370
     0
100
AcDbCircle
 10
83.5130358338
 20
98.6417094977
 30
0.0
 40
0.2999999691503615
100
AcDbArc
 50
360.0
 51
89.9999085617
  0
LINE
  5
2B1
330
1F
100
AcDbEntity
  8
0
  6
Continuous
 62
     7
370
     0
100
AcDbLine
 10
83.813035803
 20
97.0417089691
 30
0.0
 11
83.813035803
 21
98.6417090451
 31
0.0
  0
ARC
  5
2B2
330
1F
100
AcDbEntity
  8
0
  6
Continuous
 62
     7
370
     0
100
AcDbCircle
 10
83.5130374237
 20
97.041707858
 30
0.0
 40
0.2999983792908095
100
AcDbArc
 50
269.999787796
 51
0.0
  0
LINE
  5
2B3
330
1F
100
AcDbEntity
  8
0
  6
Continuous
 62
     7
370
     0
100
AcDbLine
 10
66.613036383
 20
96.7417094787
 30
0.0
 11
83.5130363126
 21
96.7417094787
 31
0.0
  0
ARC
  5
2B4
330
1F
100
AcDbEntity
  8
0
  6
Continuous
 62
     7
370
     0
100
AcDbCircle
 10
66.6130336821
 20
97.0417062682
 30
0.0
 40
0.2999967894564802
100
AcDbArc
 50
180.0
 51
270.0005158463
  0
LINE
  5
2B5
330
1F
100
AcDbEntity
  8
0
  6
Continuous
 62
     7
370
     0
100
AcDbLine
 10
66.3130368926
 20
98.6417090451
 30
0.0
 11
66.3130368926
 21
97.0417089691
 31
0.0
  0
LINE
  5
2B6
330
1F
100
AcDbEntity
  8
0
  6
Continuous
 62
     7
370
     0
100
AcDbLine
 10
77.0630365592
 20
97.1917096456
 30
0.0
 11
77.0630365592
 21
98.4917092999
 31
0.0
  0
LINE
  5
2B7
330
1F
100
AcDbEntity
  8
0
  6
Continuous
 62
     7
370
     0
100
AcDbLine
 10
77.0630365592
 20
98.4917092999
 30
0.0
 11
75.7630359736
 21
98.4917092999
 31
0.0
  0
LINE
  5
2B8
330
1F
100
AcDbEntity
  8
0
  6
Continuous
 62
     7
370
     0
100
AcDbLine
 10
75.7630359736
 20
98.4917092999
 30
0.0
 11
75.7630359736
 21
97.1917096456
 31
0.0
  0
LINE
  5
2B9
330
1F
100
AcDbEntity
  8
0
  6
Continuous
 62
     7
370
     0
100
AcDbLine
 10
75.7630359736
 20
97.1917096456
 30
0.0
 11
77.0630365592
 21
97.1917096456
 31
0.0
  0
ARC
  5
2BA
330
1F
100
AcDbEntity
  8
0
  6
Continuous
 62
     7
370
     0
100
AcDbCircle
 10
66.6130352719
 20
98.6417110875
 30
0.0
 40
0.2999983792921943
100
AcDbArc
 50
89.9997877953
 51
180.0
  0
LINE
  5
2BB
330
1F
100
AcDbEntity
  8
0
  6
Continuous
 62
     7
370
     0
100
AcDbLine
 10
84.7130361368
 20
99.0417092969
 30
0.0
 11
64.3130367976
 21
99.0417092969
 31
0.0
  0
LINE
  5
2BC
330
1F
100
AcDbEntity
  8
0
  6
Continuous
 62
     7
370
     0
100
AcDbLine
 10
64.3130367976
 20
99.1417091271
 30
0.0
 11
84.7130361368
 21
99.1417091271
 31
0.0
  0
LINE
  5
2BD
330
1F
100
AcDbEntity
  8
0
  6
Continuous
 62
     7
370
     0
100
AcDbLine
 10
84.7130361368
 20
99.1417091271
 30
0.0
 11
84.7130361368
 21
99.0417092969
 31
0.0
  0
LINE
  5
2BE
330
1F
100
AcDbEntity
  8
0
  6
Continuous
 62
     7
370
     0
100
AcDbLine
 10
64.3130367976
 20
99.0417092969
 30
0.0
 11
64.3130367976
 21
99.1417091271
 31
0.0
  0
LINE
  5
2BF
330
1F
100
AcDbEntity
  8
0
  6
Continuous
 62
     7
370
     0
100
AcDbLine
 10
64.3130367976
 20
96.6417096486
 30
0.0
 11
84.7130361368
 21
96.6417096486
 31
0.0
  0
LINE
  5
2C0
330
1F
100
AcDbEntity
  8
0
  6
Continuous
 62
     7
370
     0
100
AcDbLine
 10
84.7130361368
 20
99.0417092969
 30
0.0
 11
84.7130361368
 21
96.6417096486
 31
0.0
  0
LINE
  5
2C1
330
1F
100
AcDbEntity
  8
0
  6
Continuous
 62
     7
370
     0
100
AcDbLine
 10
64.3130367976
 20
99.0417092969
 30
0.0
 11
64.3130367976
 21
96.6417096486
 31
0.0
  0
LINE
  5
2C2
330
1F
100
AcDbEntity
  8
0
  6
Continuous
 62
     7
370
     0
100
AcDbLine
 10
84.7130361368
 20
96.5417088871
 30
0.0
 11
64.3130367976
 21
96.5417088871
 31
0.0
  0
LINE
  5
2C3
330
1F
100
AcDbEntity
  8
0
  6
Continuous
 62
     7
370
     0
100
AcDbLine
 10
84.7130361368
 20
96.6417096486
 30
0.0
 11
84.7130361368
 21
96.5417088871
 31
0.0
  0
LINE
  5
2C4
330
1F
100
AcDbEntity
  8
0
  6
Continuous
 62
     7
370
     0
100
AcDbLine
 10
64.3130367976
 20
96.5417088871
 30
0.0
 11
64.3130367976
 21
96.6417096486
 31
0.0
  0
LINE
  5
2C5
330
1F
100
AcDbEntity
  8
0
  6
Continuous
 62
     7
370
     0
100
AcDbLine
 10
88.113035949
 20
96.5417088871
 30
0.0
 11
88.113035949
 21
99.1417091271
 31
0.0
  0
CIRCLE
  5
2C6
330
1F
100
AcDbEntity
  8
0
  6
Continuous
 62
     7
370
     0
100
AcDbCircle
 10
86.413036728
 20
97.8417090471
 30
0.0
 40
1.024999705442056
  0
LINE
  5
2C7
330
1F
100
AcDbEntity
  8
0
  6
Continuous
 62
     7
370
     0
100
AcDbLine
 10
88.113035949
 20
96.5417088871
 30
0.0
 11
84.7130361368
 21
96.5417088871
 31
0.0
  0
LINE
  5
2C8
330
1F
100
AcDbEntity
  8
0
  6
Continuous
 62
     7
370
     0
100
AcDbLine
 10
88.113035949
 20
99.1417091271
 30
0.0
 11
84.7130361368
 21
99.1417091271
 31
0.0
  0
LINE
  5
2C9
330
1F
100
AcDbEntity
  8
0
  6
Continuous
 62
     7
370
     0
100
AcDbLine
 10
88.4130354394
 20
99.1417091271
 30
0.0
 11
88.4130354394
 21
96.5417088871
 31
0.0
  0
LINE
  5
2CA
330
1F
100
AcDbEntity
  8
0
  6
Continuous
 62
     7
370
     0
100
AcDbLine
 10
88.4130354394
 20
96.5417088871
 30
0.0
 11
88.113035949
 21
96.5417088871
 31
0.0
  0
LINE
  5
2CB
330
1F
100
AcDbEntity
  8
0
  6
Continuous
 62
     7
370
     0
100
AcDbLine
 10
88.113035949
 20
99.1417091271
 30
0.0
 11
88.4130354394
 21
99.1417091271
 31
0.0
  0
LINE
  5
2CC
330
1F
100
AcDbEntity
  8
0
  6
Continuous
 62
     7
370
     0
100
AcDbLine
 10
88.4130354394
 20
96.5417088871
 30
0.0
 11
88.4130354394
 21
96.441709057
 31
0.0
  0
LINE
  5
2CD
330
1F
100
AcDbEntity
  8
0
  6
Continuous
 62
     7
370
     0
100
AcDbLine
 10
88.4130354394
 20
99.2417089572
 30
0.0
 11
88.4130354394
 21
99.1417091271
 31
0.0
  0
LINE
  5
2CE
330
1F
100
AcDbEntity
  8
0
  6
Continuous
 62
     7
370
     0
100
AcDbLine
 10
64.3130367976
 20
96.5417088871
 30
0.0
 11
64.3130367976
 21
96.441709057
 31
0.0
  0
LINE
  5
2CF
330
1F
100
AcDbEntity
  8
0
  6
Continuous
 62
     7
370
     0
100
AcDbLine
 10
64.3130367976
 20
99.2417089572
 30
0.0
 11
64.3130367976
 21
99.1417091271
 31
0.0
  0
LINE
  5
2D0
330
1F
100
AcDbEntity
  8
0
  6
Continuous
 62
     7
370
     0
100
AcDbLine
 10
118.1130334158
 20
125.3417102551
 30
0.0
 11
118.4130347688
 21
125.6417116081
 31
0.0
  0
LINE
  5
2D1
330
1F
100
AcDbEntity
  8
0
  6
Continuous
 62
     7
370
     0
100
AcDbLine
 10
118.1130334158
 20
125.3417102551
 30
0.0
 11
110.7130348106
 21
125.3417102551
 31
0.0
  0
LINE
  5
2D2
330
1F
100
AcDbEntity
  8
0
  6
Continuous
 62
     7
370
     0
100
AcDbLine
 10
110.4130371828
 20
125.6417116081
 30
0.0
 11
110.7130348106
 21
125.3417102551
 31
0.0
  0
LINE
  5
2D3
330
1F
100
AcDbEntity
  8
0
  6
Continuous
 62
     7
370
     0
100
AcDbLine
 10
110.4130371828
 20
125.6417116081
 30
0.0
 11
110.4130371828
 21
127.0417092299
 31
0.0
  0
LINE
  5
2D4
330
1F
100
AcDbEntity
  8
0
  6
Continuous
 62
     7
370
     0
100
AcDbLine
 10
110.7130348106
 20
127.3417105829
 30
0.0
 11
110.4130371828
 21
127.0417092299
 31
0.0
  0
LINE
  5
2D5
330
1F
100
AcDbEntity
  8
0
  6
Continuous
 62
     7
370
     0
100
AcDbLine
 10
110.7130348106
 20
127.3417105829
 30
0.0
 11
118.1130334158
 21
127.3417105829
 31
0.0
  0
LINE
  5
2D6
330
1F
100
AcDbEntity
  8
0
  6
Continuous
 62
     7
370
     0
100
AcDbLine
 10
118.4130347688
 20
127.0417092299
 30
0.0
 11
118.1130334158
 21
127.3417105829
 31
0.0
  0
LINE
  5
2D7
330
1F
100
AcDbEntity
  8
0
  6
Continuous
 62
     7
370
     0
100
AcDbLine
 10
118.4130347688
 20
127.0417092299
 30
0.0
 11
118.4130347688
 21
125.6417116081
 31
0.0
  0
LINE
  5
2D8
330
1F
100
AcDbEntity
  8
0
  6
Continuous
 62
     7
370
     0
100
AcDbLine
 10
110.7130348106
 20
125.3417102551
 30
0.0
 11
110.7130348106
 21
89.3417099421
 31
0.0
  0
LINE
  5
2D9
330
1F
100
AcDbEntity
  8
0
  6
Continuous
 62
     7
370
     0
100
AcDbLine
 10
110.7130348106
 20
89.3417099421
 30
0.0
 11
110.4130371828
 21
89.0417085891
 31
0.0
  0
LINE
  5
2DA
330
1F
100
AcDbEntity
  8
0
  6
Continuous
 62
     7
370
     0
100
AcDbLine
 10
110.4130371828
 20
89.0417085891
 30
0.0
 11
110.4130371828
 21
125.6417116081
 31
0.0
  0
LINE
  5
2DB
330
1F
100
AcDbEntity
  8
0
  6
Continuous
 62
     7
370
     0
100
AcDbLine
 10
118.1130334158
 20
89.3417099421
 30
0.0
 11
118.1130334158
 21
125.3417102551
 31
0.0
  0
LINE
  5
2DC
330
1F
100
AcDbEntity
  8
0
  6
Continuous
 62
     7
370
     0
100
AcDbLine
 10
110.7130348106
 20
89.3417099421
 30
0.0
 11
118.1130334158
 21
89.3417099421
 31
0.0
  0
LINE
  5
2DD
330
1F
100
AcDbEntity
  8
0
  6
Continuous
 62
     7
370
     0
100
AcDbLine
 10
118.4130347688
 20
125.6417116081
 30
0.0
 11
118.4130347688
 21
89.0417085891
 31
0.0
  0
LINE
  5
2DE
330
1F
100
AcDbEntity
  8
0
  6
Continuous
 62
     7
370
     0
100
AcDbLine
 10
118.4130347688
 20
89.0417085891
 30
0.0
 11
118.1130334158
 21
89.3417099421
 31
0.0
  0
LINE
  5
2DF
330
1F
100
AcDbEntity
  8
0
  6
Continuous
 62
     7
370
     0
100
AcDbLine
 10
118.1130334158
 20
87.3417096143
 30
0.0
 11
118.4130347688
 21
87.6417091047
 31
0.0
  0
LINE
  5
2E0
330
1F
100
AcDbEntity
  8
0
  6
Continuous
 62
     7
370
     0
100
AcDbLine
 10
118.1130334158
 20
87.3417096143
 30
0.0
 11
110.7130348106
 21
87.3417096143
 31
0.0
  0
LINE
  5
2E1
330
1F
100
AcDbEntity
  8
0
  6
Continuous
 62
     7
370
     0
100
AcDbLine
 10
110.4130371828
 20
87.6417091047
 30
0.0
 11
110.7130348106
 21
87.3417096143
 31
0.0
  0
LINE
  5
2E2
330
1F
100
AcDbEntity
  8
0
  6
Continuous
 62
     7
370
     0
100
AcDbLine
 10
110.4130371828
 20
87.6417091047
 30
0.0
 11
110.4130371828
 21
89.0417085891
 31
0.0
  0
LINE
  5
2E3
330
1F
100
AcDbEntity
  8
0
  6
Continuous
 62
     7
370
     0
100
AcDbLine
 10
118.4130347688
 20
89.0417085891
 30
0.0
 11
118.4130347688
 21
87.6417091047
 31
0.0
  0
LINE
  5
2E4
330
1F
100
AcDbEntity
  8
0
  6
Continuous
 62
     7
370
     0
100
AcDbLine
 10
108.413036855
 20
103.8417088264
 30
0.0
 11
110.4130371828
 21
103.8417088264
 31
0.0
  0
LINE
  5
2E5
330
1F
100
AcDbEntity
  8
0
  6
Continuous
 62
     7
370
     0
100
AcDbLine
 10
108.413036855
 20
110.8417099738
 30
0.0
 11
110.4130371828
 21
110.8417099738
 31
0.0
  0
ARC
  5
2E6
330
1F
100
AcDbEntity
  8
0
  6
Continuous
 62
     7
370
     0
100
AcDbCircle
 10
79.4130362925
 20
123.709125295
 30
0.0
 40
2.10364770102499
100
AcDbArc
 50
50.9024495761
 51
129.0975504239
  0
LINE
  5
2E7
330
1F
100
AcDbEntity
  8
0
  6
Continuous
 62
     7
370
     0
100
AcDbLine
 10
78.0863863771
 20
125.3417102551
 30
0.0
 11
52.7130383421
 21
125.3417102551
 31
0.0
  0
LINE
  5
2E8
330
1F
100
AcDbEntity
  8
0
  6
Continuous
 62
     7
370
     0
100
AcDbLine
 10
52.7130383421
 20
127.3417105829
 30
0.0
 11
52.7130383421
 21
125.3417102551
 31
0.0
  0
LINE
  5
2E9
330
1F
100
AcDbEntity
  8
0
  6
Continuous
 62
     7
370
     0
100
AcDbLine
 10
52.7130383421
 20
127.3417105829
 30
0.0
 11
108.113035502
 21
127.3417105829
 31
0.0
  0
LINE
  5
2EA
330
1F
100
AcDbEntity
  8
0
  6
Continuous
 62
     7
370
     0
100
AcDbLine
 10
108.113035502
 20
125.3417102551
 30
0.0
 11
108.113035502
 21
127.3417105829
 31
0.0
  0
LINE
  5
2EB
330
1F
100
AcDbEntity
  8
0
  6
Continuous
 62
     7
370
     0
100
AcDbLine
 10
108.113035502
 20
125.3417102551
 30
0.0
 11
80.7396862079
 21
125.3417102551
 31
0.0
  0
LINE
  5
2EC
330
1F
100
AcDbEntity
  8
0
  6
Continuous
 62
     7
370
     0
100
AcDbLine
 10
52.7130383421
 20
125.3417102551
 30
0.0
 11
52.7130383421
 21
118.2417083462
 31
0.0
  0
ARC
  5
2ED
330
1F
100
AcDbEntity
  8
0
  6
Continuous
 62
     7
370
     0
100
AcDbCircle
 10
79.4130362925
 20
123.3417091053
 30
0.0
 40
2.40000095774465
100
AcDbArc
 50
123.5572945749
 51
56.4427054251
  0
LINE
  5
2EE
330
1F
100
AcDbEntity
  8
0
  6
Continuous
 62
     7
370
     0
100
AcDbLine
 10
108.113035502
 20
118.2417083462
 30
0.0
 11
108.113035502
 21
125.3417102551
 31
0.0
  0
LINE
  5
2EF
330
1F
100
AcDbEntity
  8
0
  6
Continuous
 62
     7
370
     0
100
AcDbLine
 10
108.113035502
 20
118.2417083462
 30
0.0
 11
52.7130383421
 21
118.2417083462
 31
0.0
  0
ARC
  5
2F0
330
1F
100
AcDbEntity
  8
0
  6
Continuous
 62
     7
370
     0
100
AcDbCircle
 10
79.4130362925
 20
123.3417092341
 30
0.0
 40
2.100000396106969
100
AcDbArc
 50
123.557300667
 51
56.442699333
  0
LINE
  5
2F1
330
1F
100
AcDbEntity
  8
0
  6
Continuous
 62
     7
370
     0
100
AcDbLine
 10
80.5738549103
 20
125.0917097484
 30
0.0
 11
80.7396862079
 21
125.3417102551
 31
0.0
  0
LINE
  5
2F2
330
1F
100
AcDbEntity
  8
0
  6
Continuous
 62
     7
370
     0
100
AcDbLine
 10
78.0863863771
 20
125.3417102551
 30
0.0
 11
78.2522176747
 21
125.0917097484
 31
0.0
  0
ARC
  5
2F3
330
1F
100
AcDbEntity
  8
0
  6
Continuous
 62
     7
370
     0
100
AcDbCircle
 10
79.4130362925
 20
123.3417066406
 30
0.0
 40
2.100002557324858
100
AcDbArc
 50
56.4427384466
 51
123.5572615534
  0
ARC
  5
2F4
330
1F
100
AcDbEntity
  8
0
  6
Continuous
 62
     7
370
     0
100
AcDbCircle
 10
91.4130359311
 20
91.3417094596
 30
0.0
 40
2.399999854891572
100
AcDbArc
 50
303.5573253795
 51
236.4426746205
  0
LINE
  5
2F5
330
1F
100
AcDbEntity
  8
0
  6
Continuous
 62
     7
370
     0
100
AcDbLine
 10
80.7396862079
 20
89.3417099421
 30
0.0
 11
90.08638555
 21
89.3417099421
 31
0.0
  0
ARC
  5
2F6
330
1F
100
AcDbEntity
  8
0
  6
Continuous
 62
     7
370
     0
100
AcDbCircle
 10
79.4130362925
 20
91.3417095722
 30
0.0
 40
2.399999691331988
100
AcDbArc
 50
303.5573146294
 51
236.4426853706
  0
LINE
  5
2F7
330
1F
100
AcDbEntity
  8
0
  6
Continuous
 62
     7
370
     0
100
AcDbLine
 10
52.7130383421
 20
89.3417099421
 30
0.0
 11
78.0863863771
 21
89.3417099421
 31
0.0
  0
LINE
  5
2F8
330
1F
100
AcDbEntity
  8
0
  6
Continuous
 62
     7
370
     0
100
AcDbLine
 10
52.7130383421
 20
96.441709057
 30
0.0
 11
52.7130383421
 21
89.3417099421
 31
0.0
  0
LINE
  5
2F9
330
1F
100
AcDbEntity
  8
0
  6
Continuous
 62
     7
370
     0
100
AcDbLine
 10
108.113035502
 20
96.441709057
 30
0.0
 11
52.7130383421
 21
96.441709057
 31
0.0
  0
LINE
  5
2FA
330
1F
100
AcDbEntity
  8
0
  6
Continuous
 62
     7
370
     0
100
AcDbLine
 10
108.113035502
 20
89.3417099421
 30
0.0
 11
108.113035502
 21
96.441709057
 31
0.0
  0
LINE
  5
2FB
330
1F
100
AcDbEntity
  8
0
  6
Continuous
 62
     7
370
     0
100
AcDbLine
 10
92.7396863122
 20
89.3417099421
 30
0.0
 11
108.113035502
 21
89.3417099421
 31
0.0
  0
LINE
  5
2FC
330
1F
100
AcDbEntity
  8
0
  6
Continuous
 62
     7
370
     0
100
AcDbLine
 10
52.7130383421
 20
89.3417099421
 30
0.0
 11
52.7130383421
 21
87.3417096143
 31
0.0
  0
ARC
  5
2FD
330
1F
100
AcDbEntity
  8
0
  6
Continuous
 62
     7
370
     0
100
AcDbCircle
 10
79.4130362925
 20
90.974285168
 30
0.0
 40
2.103640146537887
100
AcDbArc
 50
230.9022823758
 51
309.0977176242
  0
ARC
  5
2FE
330
1F
100
AcDbEntity
  8
0
  6
Continuous
 62
     7
370
     0
100
AcDbCircle
 10
91.4130359311
 20
90.9742873724
 30
0.0
 40
2.103642150975037
100
AcDbArc
 50
230.9023103968
 51
309.0976896032
  0
LINE
  5
2FF
330
1F
100
AcDbEntity
  8
0
  6
Continuous
 62
     7
370
     0
100
AcDbLine
 10
108.113035502
 20
87.3417096143
 30
0.0
 11
108.113035502
 21
89.3417099421
 31
0.0
  0
LINE
  5
300
330
1F
100
AcDbEntity
  8
0
  6
Continuous
 62
     7
370
     0
100
AcDbLine
 10
108.113035502
 20
87.3417096143
 30
0.0
 11
52.7130383421
 21
87.3417096143
 31
0.0
  0
ARC
  5
301
330
1F
100
AcDbEntity
  8
0
  6
Continuous
 62
     7
370
     0
100
AcDbCircle
 10
79.4130362925
 20
91.3417091005
 30
0.0
 40
2.100000396106969
100
AcDbArc
 50
303.557300667
 51
236.442699333
  0
LINE
  5
302
330
1F
100
AcDbEntity
  8
0
  6
Continuous
 62
     7
370
     0
100
AcDbLine
 10
78.2522176747
 20
89.5917085861
 30
0.0
 11
78.0863863771
 21
89.3417099421
 31
0.0
  0
LINE
  5
303
330
1F
100
AcDbEntity
  8
0
  6
Continuous
 62
     7
370
     0
100
AcDbLine
 10
80.7396862079
 20
89.3417099421
 30
0.0
 11
80.5738549103
 21
89.5917085861
 31
0.0
  0
ARC
  5
304
330
1F
100
AcDbEntity
  8
0
  6
Continuous
 62
     7
370
     0
100
AcDbCircle
 10
79.4130362925
 20
91.341711694
 30
0.0
 40
2.10000255732487
100
AcDbArc
 50
236.4427384466
 51
303.5572615534
  0
ARC
  5
305
330
1F
100
AcDbEntity
  8
0
  6
Continuous
 62
     7
370
     0
100
AcDbCircle
 10
91.4130359311
 20
91.3417089601
 30
0.0
 40
2.100000536509104
100
AcDbArc
 50
303.5573133719
 51
236.4426866281
  0
LINE
  5
306
330
1F
100
AcDbEntity
  8
0
  6
Continuous
 62
     7
370
     0
100
AcDbLine
 10
90.2522168477
 20
89.5917085861
 30
0.0
 11
90.08638555
 21
89.3417099421
 31
0.0
  0
LINE
  5
307
330
1F
100
AcDbEntity
  8
0
  6
Continuous
 62
     7
370
     0
100
AcDbLine
 10
92.7396863122
 20
89.3417099421
 30
0.0
 11
92.5738550146
 21
89.5917085861
 31
0.0
  0
ARC
  5
308
330
1F
100
AcDbEntity
  8
0
  6
Continuous
 62
     7
370
     0
100
AcDbCircle
 10
91.4130359311
 20
91.3417143132
 30
0.0
 40
2.100004997458201
100
AcDbArc
 50
236.4427673619
 51
303.5572326381
  0
LINE
  5
309
330
1F
100
AcDbEntity
  8
0
  6
Continuous
 62
     7
370
     0
100
AcDbLine
 10
52.4130369891
 20
125.3417102551
 30
0.0
 11
52.4130369891
 21
127.0417092299
 31
0.0
  0
LINE
  5
30A
330
1F
100
AcDbEntity
  8
0
  6
Continuous
 62
     7
370
     0
100
AcDbLine
 10
52.4130369891
 20
127.0417092299
 30
0.0
 11
52.7130383421
 21
127.3417105829
 31
0.0
  0
LINE
  5
30B
330
1F
100
AcDbEntity
  8
0
  6
Continuous
 62
     7
370
     0
100
AcDbLine
 10
52.7130383421
 20
125.3417102551
 30
0.0
 11
52.4130369891
 21
125.3417102551
 31
0.0
  0
LINE
  5
30C
330
1F
100
AcDbEntity
  8
0
  6
Continuous
 62
     7
370
     0
100
AcDbLine
 10
52.7130383421
 20
118.2417083462
 30
0.0
 11
52.4130369891
 21
118.5417096993
 31
0.0
  0
LINE
  5
30D
330
1F
100
AcDbEntity
  8
0
  6
Continuous
 62
     7
370
     0
100
AcDbLine
 10
52.4130369891
 20
118.5417096993
 30
0.0
 11
52.4130369891
 21
125.3417102551
 31
0.0
  0
LINE
  5
30E
330
1F
100
AcDbEntity
  8
0
  6
Continuous
 62
     7
370
     0
100
AcDbLine
 10
52.7130383421
 20
115.4417093774
 30
0.0
 11
52.7130383421
 21
99.2417089572
 31
0.0
  0
LINE
  5
30F
330
1F
100
AcDbEntity
  8
0
  6
Continuous
 62
     7
370
     0
100
AcDbLine
 10
52.7130383421
 20
99.2417089572
 30
0.0
 11
52.4130369891
 21
99.5417093789
 31
0.0
  0
LINE
  5
310
330
1F
100
AcDbEntity
  8
0
  6
Continuous
 62
     7
370
     0
100
AcDbLine
 10
52.4130369891
 20
99.5417093789
 30
0.0
 11
52.4130369891
 21
115.14170849
 31
0.0
  0
LINE
  5
311
330
1F
100
AcDbEntity
  8
0
  6
Continuous
 62
     7
370
     0
100
AcDbLine
 10
52.7130383421
 20
115.4417093774
 30
0.0
 11
52.4130369891
 21
115.14170849
 31
0.0
  0
LINE
  5
312
330
1F
100
AcDbEntity
  8
0
  6
Continuous
 62
     7
370
     0
100
AcDbLine
 10
108.113035502
 20
99.2417089572
 30
0.0
 11
108.113035502
 21
115.4417093774
 31
0.0
  0
LINE
  5
313
330
1F
100
AcDbEntity
  8
0
  6
Continuous
 62
     7
370
     0
100
AcDbLine
 10
108.113035502
 20
99.2417089572
 30
0.0
 11
52.7130383421
 21
99.2417089572
 31
0.0
  0
LINE
  5
314
330
1F
100
AcDbEntity
  8
0
  6
Continuous
 62
     7
370
     0
100
AcDbLine
 10
108.113035502
 20
115.4417093774
 30
0.0
 11
52.7130383421
 21
115.4417093774
 31
0.0
  0
LINE
  5
315
330
1F
100
AcDbEntity
  8
0
  6
Continuous
 62
     7
370
     0
100
AcDbLine
 10
52.7130383421
 20
89.3417099421
 30
0.0
 11
52.4130369891
 21
89.3417099421
 31
0.0
  0
LINE
  5
316
330
1F
100
AcDbEntity
  8
0
  6
Continuous
 62
     7
370
     0
100
AcDbLine
 10
52.4130369891
 20
89.3417099421
 30
0.0
 11
52.4130369891
 21
96.1417095666
 31
0.0
  0
LINE
  5
317
330
1F
100
AcDbEntity
  8
0
  6
Continuous
 62
     7
370
     0
100
AcDbLine
 10
52.7130383421
 20
96.441709057
 30
0.0
 11
52.4130369891
 21
96.1417095666
 31
0.0
  0
LINE
  5
318
330
1F
100
AcDbEntity
  8
0
  6
Continuous
 62
     7
370
     0
100
AcDbLine
 10
52.7130383421
 20
87.3417096143
 30
0.0
 11
52.4130369891
 21
87.6417091047
 31
0.0
  0
LINE
  5
319
330
1F
100
AcDbEntity
  8
0
  6
Continuous
 62
     7
370
     0
100
AcDbLine
 10
52.4130369891
 20
87.6417091047
 30
0.0
 11
52.4130369891
 21
89.3417099421
 31
0.0
  0
LINE
  5
31A
330
1F
100
AcDbEntity
  8
0
  6
Continuous
 62
     7
370
     0
100
AcDbLine
 10
108.413036855
 20
127.0417092299
 30
0.0
 11
108.413036855
 21
125.3417102551
 31
0.0
  0
LINE
  5
31B
330
1F
100
AcDbEntity
  8
0
  6
Continuous
 62
     7
370
     0
100
AcDbLine
 10
108.413036855
 20
125.3417102551
 30
0.0
 11
108.113035502
 21
125.3417102551
 31
0.0
  0
LINE
  5
31C
330
1F
100
AcDbEntity
  8
0
  6
Continuous
 62
     7
370
     0
100
AcDbLine
 10
108.413036855
 20
127.0417092299
 30
0.0
 11
108.113035502
 21
127.3417105829
 31
0.0
  0
LINE
  5
31D
330
1F
100
AcDbEntity
  8
0
  6
Continuous
 62
     7
370
     0
100
AcDbLine
 10
108.413036855
 20
125.3417102551
 30
0.0
 11
108.413036855
 21
118.5417096993
 31
0.0
  0
LINE
  5
31E
330
1F
100
AcDbEntity
  8
0
  6
Continuous
 62
     7
370
     0
100
AcDbLine
 10
108.413036855
 20
118.5417096993
 30
0.0
 11
108.113035502
 21
118.2417083462
 31
0.0
  0
LINE
  5
31F
330
1F
100
AcDbEntity
  8
0
  6
Continuous
 62
     7
370
     0
100
AcDbLine
 10
108.413036855
 20
115.14170849
 30
0.0
 11
108.413036855
 21
99.5417093789
 31
0.0
  0
LINE
  5
320
330
1F
100
AcDbEntity
  8
0
  6
Continuous
 62
     7
370
     0
100
AcDbLine
 10
108.413036855
 20
99.5417093789
 30
0.0
 11
108.113035502
 21
99.2417089572
 31
0.0
  0
LINE
  5
321
330
1F
100
AcDbEntity
  8
0
  6
Continuous
 62
     7
370
     0
100
AcDbLine
 10
108.413036855
 20
115.14170849
 30
0.0
 11
108.113035502
 21
115.4417093774
 31
0.0
  0
LINE
  5
322
330
1F
100
AcDbEntity
  8
0
  6
Continuous
 62
     7
370
     0
100
AcDbLine
 10
108.413036855
 20
96.1417095666
 30
0.0
 11
108.413036855
 21
89.3417099421
 31
0.0
  0
LINE
  5
323
330
1F
100
AcDbEntity
  8
0
  6
Continuous
 62
     7
370
     0
100
AcDbLine
 10
108.113035502
 20
89.3417099421
 30
0.0
 11
108.413036855
 21
89.3417099421
 31
0.0
  0
LINE
  5
324
330
1F
100
AcDbEntity
  8
0
  6
Continuous
 62
     7
370
     0
100
AcDbLine
 10
108.113035502
 20
96.441709057
 30
0.0
 11
108.413036855
 21
96.1417095666
 31
0.0
  0
LINE
  5
325
330
1F
100
AcDbEntity
  8
0
  6
Continuous
 62
     7
370
     0
100
AcDbLine
 10
108.413036855
 20
89.3417099421
 30
0.0
 11
108.413036855
 21
87.6417091047
 31
0.0
  0
LINE
  5
326
330
1F
100
AcDbEntity
  8
0
  6
Continuous
 62
     7
370
     0
100
AcDbLine
 10
108.113035502
 20
87.3417096143
 30
0.0
 11
108.413036855
 21
87.6417091047
 31
0.0
  0
LINE
  5
327
330
1F
100
AcDbEntity
  8
0
  6
Continuous
 62
     7
370
     0
100
AcDbLine
 10
52.7130383421
 20
118.2417083462
 30
0.0
 11
52.7130383421
 21
118.1917093625
 31
0.0
  0
LINE
  5
328
330
1F
100
AcDbEntity
  8
0
  6
Continuous
 62
     7
370
     0
100
AcDbLine
 10
52.7130383421
 20
115.4917083611
 30
0.0
 11
52.7130383421
 21
115.4417093774
 31
0.0
  0
LINE
  5
329
330
1F
100
AcDbEntity
  8
0
  6
Continuous
 62
     7
370
     0
100
AcDbLine
 10
52.4130369891
 20
115.14170849
 30
0.0
 11
52.4130369891
 21
115.4917083611
 31
0.0
  0
LINE
  5
32A
330
1F
100
AcDbEntity
  8
0
  6
Continuous
 62
     7
370
     0
100
AcDbLine
 10
52.4130369891
 20
118.1917093625
 30
0.0
 11
52.4130369891
 21
118.5562979361
 31
0.0
  0
LINE
  5
32B
330
1F
100
AcDbEntity
  8
0
  6
Continuous
 62
     7
370
     0
100
AcDbLine
 10
52.7130383421
 20
99.2417089572
 30
0.0
 11
52.7130383421
 21
99.1917090421
 31
0.0
  0
LINE
  5
32C
330
1F
100
AcDbEntity
  8
0
  6
Continuous
 62
     7
370
     0
100
AcDbLine
 10
52.7130383421
 20
96.4917089721
 30
0.0
 11
52.7130383421
 21
96.441709057
 31
0.0
  0
LINE
  5
32D
330
1F
100
AcDbEntity
  8
0
  6
Continuous
 62
     7
370
     0
100
AcDbLine
 10
52.4130369891
 20
96.1417095666
 30
0.0
 11
52.4130369891
 21
96.4917089721
 31
0.0
  0
LINE
  5
32E
330
1F
100
AcDbEntity
  8
0
  6
Continuous
 62
     7
370
     0
100
AcDbLine
 10
52.4130369891
 20
99.1917090421
 30
0.0
 11
52.4130369891
 21
99.556298547
 31
0.0
  0
LINE
  5
32F
330
1F
100
AcDbEntity
  8
0
  6
Continuous
 62
     7
370
     0
100
AcDbLine
 10
108.113035502
 20
115.4417093774
 30
0.0
 11
108.113035502
 21
118.2417083462
 31
0.0
  0
LINE
  5
330
330
1F
100
AcDbEntity
  8
0
  6
Continuous
 62
     7
370
     0
100
AcDbLine
 10
108.413036855
 20
118.5417096993
 30
0.0
 11
108.413036855
 21
115.1271202532
 31
0.0
  0
LINE
  5
331
330
1F
100
AcDbEntity
  8
0
  6
Continuous
 62
     7
370
     0
100
AcDbLine
 10
108.113035502
 20
96.441709057
 30
0.0
 11
108.113035502
 21
99.2417089572
 31
0.0
  0
LINE
  5
332
330
1F
100
AcDbEntity
  8
0
  6
Continuous
 62
     7
370
     0
100
AcDbLine
 10
108.413036855
 20
99.5417093789
 30
0.0
 11
108.413036855
 21
96.1271203985
 31
0.0
  0
DIMENSION
  5
333
330
1F
100
AcDbEntity
  8
0
  6
Continuous
 62
     7
370
     0
100
AcDbDimension
  2
*D24
 10
133.4130362172
 20
138.7827606993
 30
0.0
 11
125.9130362172
 21
138.7827606993
 31
0.0
 70
   160
  1
<>st
 71
     1
 42
15.0
  3
SLDDIMSTYLE0
100
AcDbAlignedDimension
 13
118.4130362172
 23
127.0417091673
 33
0.0
 14
133.4130362172
 24
127.3417091673
 34
0.0
 50
0.0
100
AcDbRotatedDimension
1001
ACAD
1000
DSTYLE
1002
{
1070
    77
1070
     3
1070
   143
1040
0.0393700787
1070
    41
1040
3.0
1070
    44
1040
1.0
1070
    42
1040
1.0
1070
   147
1040
1.524
1070
    73
1070
     0
1070
    74
1070
     0
1070
   140
1040
3.5
1070
   284
1070
    12
1070
    78
1070
    12
1002
}
  0
DIMENSION
  5
349
330
1F
100
AcDbEntity
  8
0
  6
Continuous
 62
     7
370
     0
100
AcDbDimension
  2
*D25
 10
36.5897182107
 20
91.3417091673
 30
0.0
 11
36.5897182107
 21
107.3417091673
 31
0.0
 70
   160
 71
     1
 42
32.0
  3
SLDDIMSTYLE0
100
AcDbAlignedDimension
 13
74.5130362172
 23
123.3417091673
 33
0.0
 14
74.5130362172
 24
91.3417091673
 34
0.0
 50
90.0
100
AcDbRotatedDimension
1001
ACAD
1000
DSTYLE
1002
{
1070
    77
1070
     3
1070
   143
1040
0.0393700787
1070
    41
1040
3.0
1070
    44
1040
1.0
1070
    42
1040
1.0
1070
   147
1040
1.524
1070
    73
1070
     0
1070
    74
1070
     0
1070
   140
1040
3.5
1070
   284
1070
    12
1070
    78
1070
    12
1002
}
  0
DIMENSION
  5
35D
330
1F
100
AcDbEntity
  8
0
  6
Continuous
 62
     7
370
     0
100
AcDbDimension
  2
*D26
 10
91.4130362172
 20
78.4170745821
 30
0.0
 11
85.4130362172
 21
78.4170745821
 31
0.0
 70
   160
 71
     1
 42
12.0
  3
SLDDIMSTYLE0
100
AcDbAlignedDimension
 13
79.4130362172
 23
86.4417091673
 33
0.0
 14
91.4130362172
 24
86.4417091673
 34
0.0
100
AcDbRotatedDimension
1001
ACAD
1000
DSTYLE
1002
{
1070
    77
1070
     3
1070
   143
1040
0.0393700787
1070
    41
1040
3.0
1070
    44
1040
1.0
1070
    42
1040
1.0
1070
   147
1040
1.524
1070
    73
1070
     0
1070
    74
1070
     0
1070
   140
1040
3.5
1070
   284
1070
    12
1070
    78
1070
    12
1002
}
  0
DIMENSION
  5
370
330
1F
100
AcDbEntity
  8
0
  6
Continuous
 62
     7
370
     0
100
AcDbDimension
  2
*D27
 10
108.4130362172
 20
78.4170745821
 30
0.0
 11
99.9130362172
 21
78.4170745821
 31
0.0
 70
   160
 71
     1
 42
17.0
  3
SLDDIMSTYLE0
100
AcDbAlignedDimension
 13
91.4130362172
 23
86.4417091673
 33
0.0
 14
108.4130362172
 24
99.5417091673
 34
0.0
 50
0.0
100
AcDbRotatedDimension
1001
ACAD
1000
DSTYLE
1002
{
1070
    77
1070
     3
1070
   143
1040
0.0393700787
1070
    41
1040
3.0
1070
    44
1040
1.0
1070
    42
1040
1.0
1070
   147
1040
1.524
1070
    73
1070
     0
1070
    74
1070
     0
1070
   140
1040
3.5
1070
   284
1070
    12
1070
    78
1070
    12
1002
}
  0
DIMENSION
  5
383
330
1F
100
AcDbEntity
  8
0
  6
Continuous
 62
     7
370
     0
100
AcDbDimension
  2
*D28
 10
26.9624421857
 20
87.3417091673
 30
0.0
 11
26.9624421857
 21
107.3417091673
 31
0.0
 70
   160
 71
     1
 42
40.0
  3
SLDDIMSTYLE0
100
AcDbAlignedDimension
 13
52.7130362172
 23
127.3417091673
 33
0.0
 14
52.7130362172
 24
87.3417091673
 34
0.0
 50
90.0
100
AcDbRotatedDimension
1001
ACAD
1000
DSTYLE
1002
{
1070
    77
1070
     3
1070
   143
1040
0.0393700787
1070
    41
1040
3.0
1070
    44
1040
1.0
1070
    42
1040
1.0
1070
   147
1040
1.524
1070
    73
1070
     0
1070
    74
1070
     0
1070
   140
1040
3.5
1070
   284
1070
    12
1070
    78
1070
    12
1002
}
  0
DIMENSION
  5
397
330
1F
100
AcDbEntity
  8
0
  6
Continuous
 62
     7
370
     0
100
AcDbDimension
  2
*D29
 10
118.4130362172
 20
71.2803613019
 30
0.0
 11
98.9130362172
 21
71.2803613019
 31
0.0
 70
   160
 71
     1
 42
39.0
  3
SLDDIMSTYLE0
100
AcDbAlignedDimension
 13
79.4130362172
 23
118.4417091673
 33
0.0
 14
118.4130362172
 24
87.6417091673
 34
0.0
100
AcDbRotatedDimension
1001
ACAD
1000
DSTYLE
1002
{
1070
    77
1070
     3
1070
   143
1040
0.0393700787
1070
    41
1040
3.0
1070
    44
1040
1.0
1070
    42
1040
1.0
1070
   147
1040
1.524
1070
    73
1070
     0
1070
    74
1070
     0
1070
   140
1040
3.5
1070
   284
1070
    12
1070
    78
1070
    12
1002
}
  0
INSERT
  5
3AF
102
{ACAD_REACTORS
330
3B0
102
}
330
1F
100
AcDbEntity
  8
0
  6
Continuous
 62
     7
370
     0
100
AcDbBlockReference
  2
SW_NOTE_2
 10
20.8045325395
 20
135.7115389201
 30
0.0
  0
LEADER
  5
3B0
330
1F
100
AcDbEntity
  8
0
  6
Continuous
 62
     7
370
     0
100
AcDbLeader
  3
SLDDIMSTYLE1
 73
     2
 76
     3
 10
75.8713878245
 20
117.9417091673
 30
0.0
 10
62.0397573952
 20
135.7115389201
 30
0.0
 10
20.8045325395
 20
135.7115389201
 30
0.0
340
3AF
  0
MTEXT
  5
3B1
330
1F
100
AcDbEntity
  8
0
  6
Continuous
 62
     7
370
     0
100
AcDbMText
 10
31.3681557084
 20
78.8918631137
 30
12.5
 40
3.5
 41
0.0
 71
     1
 72
     1
  1
3-M5(取付用)
  7
SLDTEXTSTYLE0
 73
     1
 44
1.0
  0
LEADER
  5
3B2
330
1F
100
AcDbEntity
  8
0
  6
Continuous
 62
     7
370
     0
100
AcDbLeader
  3
SLDDIMSTYLE1
 76
     3
 10
77.9673731354
 20
89.4259695572
 30
0.0
 10
56.3095420268
 20
74.8197675632
 30
0.0
 10
31.3688062925
 20
74.8197675632
 30
0.0
  0
INSERT
  5
3BE
330
1F
100
AcDbEntity
  8
0
  6
Continuous
 62
     7
370
     0
100
AcDbBlockReference
  2
SW_CENTERMARKSYMBOL_7
 10
79.4130358268
 20
123.3417099272
 30
0.0
  0
INSERT
  5
3CA
330
1F
100
AcDbEntity
  8
0
  6
Continuous
 62
     7
370
     0
100
AcDbBlockReference
  2
SW_CENTERMARKSYMBOL_8
 10
79.4130358268
 20
91.3417084073
 30
0.0
  0
INSERT
  5
3D6
330
1F
100
AcDbEntity
  8
0
  6
Continuous
 62
     7
370
     0
100
AcDbBlockReference
  2
SW_CENTERMARKSYMBOL_9
 10
91.4130359311
 20
91.3417084073
 30
0.0
  0
LINE
  5
3D7
330
1F
100
AcDbEntity
  8
0
  6
CENTERX2
 62
     7
370
     0
100
AcDbLine
 10
110.1130358298
 20
107.3417091673
 30
0.0
 11
50.7130361517
 21
107.3417091673
 31
0.0
  0
LINE
  5
3D8
330
1F
100
AcDbEntity
  8
0
  6
CENTERX2
 62
     7
370
     0
100
AcDbLine
 10
129.4487229903
 20
122.341708832
 30
0.0
 11
83.1661801208
 21
122.341708832
 31
0.0
  0
LINE
  5
3D9
330
1F
100
AcDbEntity
  8
0
  6
CENTERX2
 62
     7
370
     0
100
AcDbLine
 10
103.4130378981
 20
107.3417091673
 30
0.0
 11
128.0404813011
 21
107.3417091673
 31
0.0
  0
ENDSEC
  0
SECTION
  2
OBJECTS
  0
DICTIONARY
  5
C
330
0
100
AcDbDictionary
281
     1
  3
ACAD_GROUP
350
D
  3
ACAD_LAYOUT
350
1A
  3
ACAD_MLINESTYLE
350
17
  3
ACAD_PLOTSETTINGS
350
19
  3
ACAD_PLOTSTYLENAME
350
E
  0
DICTIONARY
  5
D
102
{ACAD_REACTORS
330
C
102
}
330
C
100
AcDbDictionary
281
     1
  0
DICTIONARY
  5
1A
102
{ACAD_REACTORS
330
C
102
}
330
C
100
AcDbDictionary
281
     1
  3
Layout1
350
1E
  3
Layout2
350
26
  3
Model
350
22
  0
DICTIONARY
  5
17
102
{ACAD_REACTORS
330
C
102
}
330
C
100
AcDbDictionary
281
     1
  3
Standard
350
18
  0
DICTIONARY
  5
19
102
{ACAD_REACTORS
330
C
102
}
330
C
100
AcDbDictionary
281
     1
  0
ACDBDICTIONARYWDFLT
  5
E
102
{ACAD_REACTORS
330
C
102
}
330
C
100
AcDbDictionary
281
     1
  3
Normal
350
F
100
AcDbDictionaryWithDefault
340
F
  0
LAYOUT
  5
1E
102
{ACAD_REACTORS
330
1A
102
}
330
1A
100
AcDbPlotSettings
  1

  2

  4

  6

 40
0.0
 41
0.0
 42
0.0
 43
0.0
 44
0.0
 45
0.0
 46
0.0
 47
0.0
 48
0.0
 49
0.0
140
0.0
141
0.0
142
1.0
143
1.0
 70
   688
 72
     0
 73
     0
 74
     5
  7

 75
    16
147
1.0
148
0.0
149
0.0
100
AcDbLayout
  1
Layout1
 70
     1
 71
     1
 10
0.0
 20
0.0
 11
0.0
 21
0.0
 12
0.0
 22
0.0
 32
0.0
 14
0.0
 24
0.0
 34
0.0
 15
0.0
 25
0.0
 35
0.0
146
0.0
 13
0.0
 23
0.0
 33
0.0
 16
1.0
 26
0.0
 36
0.0
 17
0.0
 27
1.0
 37
0.0
 76
     0
330
1B
  0
LAYOUT
  5
26
102
{ACAD_REACTORS
330
1A
102
}
330
1A
100
AcDbPlotSettings
  1

  2

  4

  6

 40
0.0
 41
0.0
 42
0.0
 43
0.0
 44
0.0
 45
0.0
 46
0.0
 47
0.0
 48
0.0
 49
0.0
140
0.0
141
0.0
142
1.0
143
1.0
 70
   688
 72
     0
 73
     0
 74
     5
  7

 75
    16
147
1.0
148
0.0
149
0.0
100
AcDbLayout
  1
Layout2
 70
     1
 71
     2
 10
0.0
 20
0.0
 11
0.0
 21
0.0
 12
0.0
 22
0.0
 32
0.0
 14
0.0
 24
0.0
 34
0.0
 15
0.0
 25
0.0
 35
0.0
146
0.0
 13
0.0
 23
0.0
 33
0.0
 16
1.0
 26
0.0
 36
0.0
 17
0.0
 27
1.0
 37
0.0
 76
     0
330
23
  0
LAYOUT
  5
22
102
{ACAD_REACTORS
330
1A
102
}
330
1A
100
AcDbPlotSettings
  1

  2

  4

  6

 40
0.0
 41
0.0
 42
0.0
 43
0.0
 44
0.0
 45
0.0
 46
0.0
 47
0.0
 48
0.0
 49
0.0
140
0.0
141
0.0
142
1.0
143
1.0
 70
  1712
 72
     0
 73
     0
 74
     0
  7

 75
     0
147
1.0
148
0.0
149
0.0
100
AcDbLayout
  1
Model
 70
     1
 71
     0
 10
0.0
 20
0.0
 11
0.0
 21
0.0
 12
0.0
 22
0.0
 32
0.0
 14
0.0
 24
0.0
 34
0.0
 15
210.0
 25
297.0
 35
0.0
146
0.0
 13
0.0
 23
0.0
 33
0.0
 16
1.0
 26
0.0
 36
0.0
 17
0.0
 27
1.0
 37
0.0
 76
     0
330
1F
  0
MLINESTYLE
  5
18
102
{ACAD_REACTORS
330
17
102
}
330
17
100
AcDbMlineStyle
  2
Standard
 70
     0
  3

 62
   256
 51
90.0
 52
90.0
 71
     2
 49
0.5
 62
   256
  6
BYLAYER
 49
-0.5
 62
   256
  6
BYLAYER
  0
ACDBPLACEHOLDER
  5
F
102
{ACAD_REACTORS
330
E
102
}
330
E
  0
ENDSEC
  0
EOF
