  0
SECTION
  2
HEADER
  9
$ACADVER
  1
AC1015
  9
$ACADMAINTVER
 70
     6
  9
$DWGCODEPAGE
  3
DOS932
  9
$INSBASE
 10
0.0
 20
0.0
 30
0.0
  9
$EXTMIN
 10
0.0
 20
0.0
 30
0.0
  9
$EXTMAX
 10
210.0
 20
297.0
 30
0.0
  9
$LIMMIN
 10
0.0
 20
0.0
  9
$LIMMAX
 10
0.0
 20
0.0
  9
$ORTHOMODE
 70
     0
  9
$REGENMODE
 70
     1
  9
$FILLMODE
 70
     1
  9
$QTEXTMODE
 70
     0
  9
$MIRRTEXT
 70
     1
  9
$LTSCALE
 40
1.0
  9
$ATTMODE
 70
     1
  9
$TEXTSIZE
 40
3.5
  9
$TRACEWID
 40
1.0
  9
$TEXTSTYLE
  7
Standard
  9
$CLAYER
  8
0
  9
$CELTYPE
  6
ByLayer
  9
$CECOLOR
 62
   256
  9
$CELTSCALE
 40
1.0
  9
$DISPSILH
 70
     0
  9
$DIMSCALE
 40
1.0
  9
$DIMASZ
 40
3.0
  9
$DIMEXO
 40
1.0
  9
$DIMDLI
 40
3.75
  9
$DIMRND
 40
0.0
  9
$DIMDLE
 40
0.0
  9
$DIMEXE
 40
1.0
  9
$DIMTP
 40
0.0
  9
$DIMTM
 40
0.0
  9
$DIMTXT
 40
3.5
  9
$DIMCEN
 40
2.5
  9
$DIMTSZ
 40
0.0
  9
$DIMTOL
 70
     0
  9
$DIMLIM
 70
     0
  9
$DIMTIH
 70
     1
  9
$DIMTOH
 70
     1
  9
$DIMSE1
 70
     0
  9
$DIMSE2
 70
     0
  9
$DIMTAD
 70
     1
  9
$DIMZIN
 70
     0
  9
$DIMBLK
  1

  9
$DIMASO
 70
     1
  9
$DIMSHO
 70
     1
  9
$DIMPOST
  1

  9
$DIMAPOST
  1

  9
$DIMALT
 70
     0
  9
$DIMALTD
 70
     3
  9
$DIMALTF
 40
0.0393700787
  9
$DIMLFAC
 40
1.0
  9
$DIMTOFL
 70
     1
  9
$DIMTVP
 40
0.0
  9
$DIMTIX
 70
     0
  9
$DIMSOXD
 70
     0
  9
$DIMSAH
 70
     0
  9
$DIMBLK1
  1

  9
$DIMBLK2
  1

  9
$DIMSTYLE
  2
ISO-25
  9
$DIMCLRD
 70
     0
  9
$DIMCLRE
 70
     0
  9
$DIMCLRT
 70
     0
  9
$DIMTFAC
 40
1.0
  9
$DIMGAP
 40
1.524
  9
$DIMJUST
 70
     0
  9
$DIMSD1
 70
     0
  9
$DIMSD2
 70
     0
  9
$DIMTOLJ
 70
     0
  9
$DIMTZIN
 70
     0
  9
$DIMALTZ
 70
     0
  9
$DIMALTTZ
 70
     0
  9
$DIMUPT
 70
     0
  9
$DIMDEC
 70
     2
  9
$DIMTDEC
 70
     2
  9
$DIMALTU
 70
     2
  9
$DIMALTTD
 70
     3
  9
$DIMTXSTY
  7
Standard
  9
$DIMAUNIT
 70
     0
  9
$DIMADEC
 70
     0
  9
$DIMALTRND
 40
0.0
  9
$DIMAZIN
 70
     0
  9
$DIMDSEP
 70
    44
  9
$DIMATFIT
 70
     3
  9
$DIMFRAC
 70
     0
  9
$DIMLDRBLK
  1

  9
$DIMLUNIT
 70
     2
  9
$DIMLWD
 70
    -2
  9
$DIMLWE
 70
    -2
  9
$DIMTMOVE
 70
     0
  9
$LUNITS
 70
     2
  9
$LUPREC
 70
     1
  9
$SKETCHINC
 40
1.0
  9
$FILLETRAD
 40
10.0
  9
$AUNITS
 70
     0
  9
$AUPREC
 70
     0
  9
$MENU
  1
.
  9
$ELEVATION
 40
0.0
  9
$PELEVATION
 40
0.0
  9
$THICKNESS
 40
0.0
  9
$LIMCHECK
 70
     0
  9
$CHAMFERA
 40
10.0
  9
$CHAMFERB
 40
10.0
  9
$CHAMFERC
 40
20.0
  9
$CHAMFERD
 40
0.0
  9
$SKPOLY
 70
     0
  9
$TDCREATE
 40
2454412.548658484
  9
$TDUCREATE
 40
2454412.173658484
  9
$TDUPDATE
 40
2454412.548658495
  9
$TDUUPDATE
 40
2454412.173658495
  9
$TDINDWG
 40
0.0000000116
  9
$TDUSRTIMER
 40
0.0000000116
  9
$USRTIMER
 70
     1
  9
$ANGBASE
 50
0.0
  9
$ANGDIR
 70
     0
  9
$PDMODE
 70
     0
  9
$PDSIZE
 40
-1.0
  9
$PLINEWID
 40
0.0
  9
$SPLFRAME
 70
     0
  9
$SPLINETYPE
 70
     6
  9
$SPLINESEGS
 70
     8
  9
$HANDSEED
  5
3A1
  9
$SURFTAB1
 70
     6
  9
$SURFTAB2
 70
     6
  9
$SURFTYPE
 70
     6
  9
$SURFU
 70
     6
  9
$SURFV
 70
     6
  9
$UCSBASE
  2

  9
$UCSNAME
  2

  9
$UCSORG
 10
0.0
 20
0.0
 30
0.0
  9
$UCSXDIR
 10
1.0
 20
0.0
 30
0.0
  9
$UCSYDIR
 10
0.0
 20
1.0
 30
0.0
  9
$UCSORTHOREF
  2

  9
$UCSORTHOVIEW
 70
     0
  9
$UCSORGTOP
 10
0.0
 20
0.0
 30
0.0
  9
$UCSORGBOTTOM
 10
0.0
 20
0.0
 30
0.0
  9
$UCSORGLEFT
 10
0.0
 20
0.0
 30
0.0
  9
$UCSORGRIGHT
 10
0.0
 20
0.0
 30
0.0
  9
$UCSORGFRONT
 10
0.0
 20
0.0
 30
0.0
  9
$UCSORGBACK
 10
0.0
 20
0.0
 30
0.0
  9
$PUCSBASE
  2

  9
$PUCSNAME
  2

  9
$PUCSORG
 10
0.0
 20
0.0
 30
0.0
  9
$PUCSXDIR
 10
1.0
 20
0.0
 30
0.0
  9
$PUCSYDIR
 10
0.0
 20
1.0
 30
0.0
  9
$PUCSORTHOREF
  2

  9
$PUCSORTHOVIEW
 70
     0
  9
$PUCSORGTOP
 10
0.0
 20
0.0
 30
0.0
  9
$PUCSORGBOTTOM
 10
0.0
 20
0.0
 30
0.0
  9
$PUCSORGLEFT
 10
0.0
 20
0.0
 30
0.0
  9
$PUCSORGRIGHT
 10
0.0
 20
0.0
 30
0.0
  9
$PUCSORGFRONT
 10
0.0
 20
0.0
 30
0.0
  9
$PUCSORGBACK
 10
0.0
 20
0.0
 30
0.0
  9
$USERI1
 70
     0
  9
$USERI2
 70
     0
  9
$USERI3
 70
     0
  9
$USERI4
 70
     0
  9
$USERI5
 70
     0
  9
$USERR1
 40
0.0
  9
$USERR2
 40
0.0
  9
$USERR3
 40
0.0
  9
$USERR4
 40
0.0
  9
$USERR5
 40
0.0
  9
$WORLDVIEW
 70
     1
  9
$SHADEDGE
 70
     3
  9
$SHADEDIF
 70
    70
  9
$TILEMODE
 70
     1
  9
$MAXACTVP
 70
    64
  9
$PINSBASE
 10
0.0
 20
0.0
 30
0.0
  9
$PLIMCHECK
 70
     0
  9
$PEXTMIN
 10
1.0000000000E+20
 20
1.0000000000E+20
 30
1.0000000000E+20
  9
$PEXTMAX
 10
-1.0000000000E+20
 20
-1.0000000000E+20
 30
-1.0000000000E+20
  9
$PLIMMIN
 10
0.0
 20
0.0
  9
$PLIMMAX
 10
420.0
 20
297.0
  9
$UNITMODE
 70
     0
  9
$VISRETAIN
 70
     1
  9
$PLINEGEN
 70
     0
  9
$PSLTSCALE
 70
     1
  9
$TREEDEPTH
 70
  3020
  9
$CMLSTYLE
  2
Standard
  9
$CMLJUST
 70
     0
  9
$CMLSCALE
 40
20.0
  9
$PROXYGRAPHICS
 70
     1
  9
$MEASUREMENT
 70
     1
  9
$CELWEIGHT
370
    -1
  9
$ENDCAPS
280
     0
  9
$JOINSTYLE
280
     0
  9
$LWDISPLAY
290
     1
  9
$INSUNITS
 70
     4
  9
$HYPERLINKBASE
  1

  9
$STYLESHEET
  1

  9
$XEDIT
290
     1
  9
$CEPSNTYPE
380
     0
  9
$PSTYLEMODE
290
     1
  9
$FINGERPRINTGUID
  2
{CBB509A8-E7C2-4F69-A646-0C4E0988EE08}
  9
$VERSIONGUID
  2
{FAEB1C32-E019-11D5-929B-00C0DF256EC4}
  9
$EXTNAMES
290
     1
  9
$PSVPSCALE
 40
0.0
  9
$OLESTARTUP
290
     0
  0
ENDSEC
  0
SECTION
  2
CLASSES
  0
CLASS
  1
ACDBDICTIONARYWDFLT
  2
AcDbDictionaryWithDefault
  3
ObjectDBX Classes
 90
        0
280
     0
281
     0
  0
CLASS
  1
ACDBPLACEHOLDER
  2
AcDbPlaceHolder
  3
ObjectDBX Classes
 90
        0
280
     0
281
     0
  0
CLASS
  1
LAYOUT
  2
AcDbLayout
  3
ObjectDBX Classes
 90
        0
280
     0
281
     0
  0
ENDSEC
  0
SECTION
  2
TABLES
  0
TABLE
  2
VPORT
  5
8
330
0
100
AcDbSymbolTable
 70
     1
  0
VPORT
  5
29
330
8
100
AcDbSymbolTableRecord
100
AcDbViewportTableRecord
  2
*Active
 70
     0
 10
0.0
 20
0.0
 11
1.0
 21
1.0
 12
105.0
 22
148.5
 13
0.0
 23
0.0
 14
10.0
 24
10.0
 15
10.0
 25
10.0
 16
0.0
 26
0.0
 36
1.0
 17
0.0
 27
0.0
 37
0.0
 40
297.0
 41
1.9729729729
 42
50.0
 43
0.0
 44
0.0
 50
0.0
 51
0.0
 71
     0
 72
  2000
 73
     1
 74
     3
 75
     0
 76
     0
 77
     0
 78
     0
281
     0
 65
     1
110
0.0
120
0.0
130
0.0
111
1.0
121
0.0
131
0.0
112
0.0
122
1.0
132
0.0
 79
     0
146
0.0
  0
ENDTAB
  0
TABLE
  2
LTYPE
  5
5
330
0
100
AcDbSymbolTable
 70
     6
  0
LTYPE
  5
14
330
5
100
AcDbSymbolTableRecord
100
AcDbLinetypeTableRecord
  2
ByBlock
 70
     0
  3

 72
    65
 73
     0
 40
0.0
  0
LTYPE
  5
15
330
5
100
AcDbSymbolTableRecord
100
AcDbLinetypeTableRecord
  2
ByLayer
 70
     0
  3

 72
    65
 73
     0
 40
0.0
  0
LTYPE
  5
16
330
5
100
AcDbSymbolTableRecord
100
AcDbLinetypeTableRecord
  2
Continuous
 70
     0
  3
Solid line
 72
    65
 73
     0
 40
0.0
  0
LTYPE
  5
2A
330
5
100
AcDbSymbolTableRecord
100
AcDbLinetypeTableRecord
  2
HIDDEN
 70
     0
  3
Hidden __ __ __ __ __ __ __ __ __ __ __ __ __ __
 72
    65
 73
     2
 40
1.905
 49
1.27
 74
     0
 49
-0.635
 74
     0
  0
LTYPE
  5
2B
330
5
100
AcDbSymbolTableRecord
100
AcDbLinetypeTableRecord
  2
PHANTOM
 70
     0
  3
Phantom ______  __  __  ______  __  __  ______
 72
    65
 73
     6
 40
12.7
 49
6.35
 74
     0
 49
-1.27
 74
     0
 49
1.27
 74
     0
 49
-1.27
 74
     0
 49
1.27
 74
     0
 49
-1.27
 74
     0
  0
LTYPE
  5
2C
330
5
100
AcDbSymbolTableRecord
100
AcDbLinetypeTableRecord
  2
CENTER
 70
     0
  3
Center ____ _ ____ _ ____ _ ____ _ ____ _ ____
 72
    65
 73
     4
 40
10.16
 49
6.35
 74
     0
 49
-1.27
 74
     0
 49
1.27
 74
     0
 49
-1.27
 74
     0
  0
LTYPE
  5
2D
330
5
100
AcDbSymbolTableRecord
100
AcDbLinetypeTableRecord
  2
CENTERX2
 70
     0
  3
Center (2x) ________  __  ________  __  _____
 72
    65
 73
     4
 40
20.32
 49
12.7
 74
     0
 49
-2.54
 74
     0
 49
2.54
 74
     0
 49
-2.54
 74
     0
  0
LTYPE
  5
2E
330
5
100
AcDbSymbolTableRecord
100
AcDbLinetypeTableRecord
  2
DOT2
 70
     0
  3
Dot (.5x) ........................................
 72
    65
 73
     2
 40
0.635
 49
0.0
 74
     0
 49
-0.635
 74
     0
  0
ENDTAB
  0
TABLE
  2
LAYER
  5
2
330
0
100
AcDbSymbolTable
 70
     2
  0
LAYER
  5
10
330
2
100
AcDbSymbolTableRecord
100
AcDbLayerTableRecord
  2
0
 70
     0
 62
     7
  6
Continuous
370
    -3
390
F
  0
LAYER
  5
80
330
2
100
AcDbSymbolTableRecord
100
AcDbLayerTableRecord
  2
Defpoints
 70
     0
 62
     7
  6
Continuous
290
     0
370
    -3
390
F
  0
ENDTAB
  0
TABLE
  2
STYLE
  5
3
330
0
100
AcDbSymbolTable
 70
     2
  0
STYLE
  5
11
330
3
100
AcDbSymbolTableRecord
100
AcDbTextStyleTableRecord
  2
Standard
 70
     0
 40
0.0
 41
1.0
 50
0.0
 71
     0
 42
2.5
  3
txt
  4
bigfont
  0
STYLE
  5
37
330
3
100
AcDbSymbolTableRecord
100
AcDbTextStyleTableRecord
  2
SLDTEXTSTYLE0
 70
     0
 40
0.0
 41
0.7
 50
0.0
 71
     0
 42
0.2
  3
TXT
  4
bigfont
  0
ENDTAB
  0
TABLE
  2
VIEW
  5
6
330
0
100
AcDbSymbolTable
 70
     0
  0
ENDTAB
  0
TABLE
  2
UCS
  5
7
330
0
100
AcDbSymbolTable
 70
     0
  0
ENDTAB
  0
TABLE
  2
APPID
  5
9
330
0
100
AcDbSymbolTable
 70
     1
  0
APPID
  5
12
330
9
100
AcDbSymbolTableRecord
100
AcDbRegAppTableRecord
  2
ACAD
 70
     0
  0
ENDTAB
  0
TABLE
  2
DIMSTYLE
  5
A
330
0
100
AcDbSymbolTable
 70
     3
100
AcDbDimStyleTable
  0
DIMSTYLE
105
27
330
A
100
AcDbSymbolTableRecord
100
AcDbDimStyleTableRecord
  2
ISO-25
 70
     0
 41
2.5
 42
0.625
 43
3.75
 44
1.25
 73
     0
 74
     0
 77
     1
 78
     8
140
2.5
141
2.5
143
0.0393700787
147
0.625
171
     3
172
     1
271
     2
272
     2
274
     3
278
    44
283
     0
284
     8
340
11
  0
DIMSTYLE
105
8E
102
{ACAD_REACTORS
330
7F
330
9C
330
AF
330
C2
330
D5
330
E8
330
FB
330
10E
330
122
330
1E7
330
1FA
330
20D
330
221
330
32D
330
343
330
357
330
36B
102
}
330
A
100
AcDbSymbolTableRecord
100
AcDbDimStyleTableRecord
  2
SLDDIMSTYLE0
 70
     0
 41
3.0
 44
0.0
 73
     0
 74
     0
 77
     3
 78
    12
140
3.5
147
0.875
173
     1
271
     1
272
     3
284
    12
340
37
341
8F
343
8F
344
8F
  0
DIMSTYLE
105
13C
330
A
100
AcDbSymbolTableRecord
100
AcDbDimStyleTableRecord
  2
SLDDIMSTYLE1
 70
     0
 41
3.0
 44
0.0
140
3.0
147
0.75
173
     1
271
     0
272
     0
340
11
341
8F
343
8F
344
8F
  0
ENDTAB
  0
TABLE
  2
BLOCK_RECORD
  5
1
330
0
100
AcDbSymbolTable
 70
    32
  0
BLOCK_RECORD
  5
1F
330
1
100
AcDbSymbolTableRecord
100
AcDbBlockTableRecord
  2
*Model_Space
340
22
  0
BLOCK_RECORD
  5
1B
330
1
100
AcDbSymbolTableRecord
100
AcDbBlockTableRecord
  2
*Paper_Space
340
1E
  0
BLOCK_RECORD
  5
23
330
1
100
AcDbSymbolTableRecord
100
AcDbBlockTableRecord
  2
*Paper_Space0
340
26
  0
BLOCK_RECORD
  5
39
330
1
100
AcDbSymbolTableRecord
100
AcDbBlockTableRecord
  2
SW_NOTE_0
340
0
102
{BLKREFS
331
3E
102
}
  0
BLOCK_RECORD
  5
81
330
1
100
AcDbSymbolTableRecord
100
AcDbBlockTableRecord
  2
*D2
340
0
  0
BLOCK_RECORD
  5
8F
330
1
100
AcDbSymbolTableRecord
100
AcDbBlockTableRecord
  2
_Open30
340
0
102
{BLKREFS
331
88
331
87
331
96
331
97
331
A2
331
A1
331
A9
331
AA
331
B5
331
B4
331
BC
331
BD
331
C8
331
C7
331
CF
331
D0
331
DB
331
DA
331
E2
331
E3
331
EE
331
ED
331
F5
331
F6
331
101
331
100
331
108
331
109
331
114
331
113
331
11C
331
11D
331
128
331
127
331
130
331
131
331
1ED
331
1EC
331
1F4
331
1F5
331
200
331
1FF
331
207
331
208
331
213
331
212
331
21B
331
21C
331
227
331
226
331
22F
331
230
331
333
331
332
331
33A
331
33B
331
349
331
348
331
351
331
352
331
35D
331
35C
331
365
331
366
331
371
331
370
331
378
331
379
102
}
  0
BLOCK_RECORD
  5
9D
330
1
100
AcDbSymbolTableRecord
100
AcDbBlockTableRecord
  2
*D4
340
0
  0
BLOCK_RECORD
  5
B0
330
1
100
AcDbSymbolTableRecord
100
AcDbBlockTableRecord
  2
*D5
340
0
  0
BLOCK_RECORD
  5
C3
330
1
100
AcDbSymbolTableRecord
100
AcDbBlockTableRecord
  2
*D6
340
0
  0
BLOCK_RECORD
  5
D6
330
1
100
AcDbSymbolTableRecord
100
AcDbBlockTableRecord
  2
*D7
340
0
  0
BLOCK_RECORD
  5
E9
330
1
100
AcDbSymbolTableRecord
100
AcDbBlockTableRecord
  2
*D8
340
0
  0
BLOCK_RECORD
  5
FC
330
1
100
AcDbSymbolTableRecord
100
AcDbBlockTableRecord
  2
*D9
340
0
  0
BLOCK_RECORD
  5
10F
330
1
100
AcDbSymbolTableRecord
100
AcDbBlockTableRecord
  2
*D10
340
0
  0
BLOCK_RECORD
  5
123
330
1
100
AcDbSymbolTableRecord
100
AcDbBlockTableRecord
  2
*D11
340
0
  0
BLOCK_RECORD
  5
136
330
1
100
AcDbSymbolTableRecord
100
AcDbBlockTableRecord
  2
SW_NOTE_1
340
0
102
{BLKREFS
331
13B
102
}
  0
BLOCK_RECORD
  5
13E
330
1
100
AcDbSymbolTableRecord
100
AcDbBlockTableRecord
  2
SW_CENTERMARKSYMBOL_0
340
0
102
{BLKREFS
331
149
102
}
  0
BLOCK_RECORD
  5
14A
330
1
100
AcDbSymbolTableRecord
100
AcDbBlockTableRecord
  2
SW_CENTERMARKSYMBOL_1
340
0
102
{BLKREFS
331
155
102
}
  0
BLOCK_RECORD
  5
1E8
330
1
100
AcDbSymbolTableRecord
100
AcDbBlockTableRecord
  2
*D15
340
0
  0
BLOCK_RECORD
  5
1FB
330
1
100
AcDbSymbolTableRecord
100
AcDbBlockTableRecord
  2
*D16
340
0
  0
BLOCK_RECORD
  5
20E
330
1
100
AcDbSymbolTableRecord
100
AcDbBlockTableRecord
  2
*D17
340
0
  0
BLOCK_RECORD
  5
222
330
1
100
AcDbSymbolTableRecord
100
AcDbBlockTableRecord
  2
*D18
340
0
  0
BLOCK_RECORD
  5
237
330
1
100
AcDbSymbolTableRecord
100
AcDbBlockTableRecord
  2
SW_CENTERMARKSYMBOL_2
340
0
102
{BLKREFS
331
242
102
}
  0
BLOCK_RECORD
  5
243
330
1
100
AcDbSymbolTableRecord
100
AcDbBlockTableRecord
  2
SW_CENTERMARKSYMBOL_3
340
0
102
{BLKREFS
331
24E
102
}
  0
BLOCK_RECORD
  5
24F
330
1
100
AcDbSymbolTableRecord
100
AcDbBlockTableRecord
  2
SW_CENTERMARKSYMBOL_4
340
0
102
{BLKREFS
331
25A
102
}
  0
BLOCK_RECORD
  5
25B
330
1
100
AcDbSymbolTableRecord
100
AcDbBlockTableRecord
  2
SW_CENTERMARKSYMBOL_5
340
0
102
{BLKREFS
331
266
102
}
  0
BLOCK_RECORD
  5
267
330
1
100
AcDbSymbolTableRecord
100
AcDbBlockTableRecord
  2
SW_CENTERMARKSYMBOL_6
340
0
102
{BLKREFS
331
272
102
}
  0
BLOCK_RECORD
  5
273
330
1
100
AcDbSymbolTableRecord
100
AcDbBlockTableRecord
  2
SW_CENTERMARKSYMBOL_7
340
0
102
{BLKREFS
331
27E
102
}
  0
BLOCK_RECORD
  5
32E
330
1
100
AcDbSymbolTableRecord
100
AcDbBlockTableRecord
  2
*D25
340
0
  0
BLOCK_RECORD
  5
344
330
1
100
AcDbSymbolTableRecord
100
AcDbBlockTableRecord
  2
*D26
340
0
  0
BLOCK_RECORD
  5
358
330
1
100
AcDbSymbolTableRecord
100
AcDbBlockTableRecord
  2
*D27
340
0
  0
BLOCK_RECORD
  5
36C
330
1
100
AcDbSymbolTableRecord
100
AcDbBlockTableRecord
  2
*D28
340
0
  0
BLOCK_RECORD
  5
37E
330
1
100
AcDbSymbolTableRecord
100
AcDbBlockTableRecord
  2
SW_NOTE_2
340
0
102
{BLKREFS
331
383
102
}
  0
BLOCK_RECORD
  5
387
330
1
100
AcDbSymbolTableRecord
100
AcDbBlockTableRecord
  2
SW_CENTERMARKSYMBOL_8
340
0
102
{BLKREFS
331
392
102
}
  0
BLOCK_RECORD
  5
393
330
1
100
AcDbSymbolTableRecord
100
AcDbBlockTableRecord
  2
SW_CENTERMARKSYMBOL_9
340
0
102
{BLKREFS
331
39E
102
}
  0
ENDTAB
  0
ENDSEC
  0
SECTION
  2
BLOCKS
  0
BLOCK
  5
20
330
1F
100
AcDbEntity
  8
0
100
AcDbBlockBegin
  2
*Model_Space
 70
     0
 71
     0
 10
0.0
 20
0.0
 30
0.0
  3
*Model_Space
  1

  0
ENDBLK
  5
21
330
1F
100
AcDbEntity
  8
0
100
AcDbBlockEnd
  0
BLOCK
  5
1C
330
1B
100
AcDbEntity
 67
     1
  8
0
100
AcDbBlockBegin
  2
*Paper_Space
 70
     0
 71
     0
 10
0.0
 20
0.0
 30
0.0
  3
*Paper_Space
  1

  0
ENDBLK
  5
1D
330
1B
100
AcDbEntity
 67
     1
  8
0
100
AcDbBlockEnd
  0
BLOCK
  5
24
330
23
100
AcDbEntity
  8
0
100
AcDbBlockBegin
  2
*Paper_Space0
 70
     0
 71
     0
 10
0.0
 20
0.0
 30
0.0
  3
*Paper_Space0
  1

  0
ENDBLK
  5
25
330
23
100
AcDbEntity
  8
0
100
AcDbBlockEnd
  0
BLOCK
  5
3A
330
39
100
AcDbEntity
  8
0
100
AcDbBlockBegin
  2
SW_NOTE_0
 70
     0
 71
     0
 10
0.0
 20
0.0
 30
0.0
  3
SW_NOTE_0
  1

  0
MTEXT
  5
3C
330
39
100
AcDbEntity
  8
0
  6
Continuous
 62
     7
370
     0
100
AcDbMText
 10
0.0
 20
4.9260606061
 30
0.0
 40
4.2333333333
 41
0.0
 71
     1
 72
     1
  1
ミニコンテナシリンダー
  7
SLDTEXTSTYLE0
 73
     1
 44
1.0
  0
MTEXT
  5
3D
330
39
100
AcDbEntity
  8
0
  6
Continuous
 62
     7
370
     0
100
AcDbMText
 10
16.2522727624
 20
-0.7183837702
 30
0.0
 40
4.2333333333
 41
0.0
 71
     1
 72
     1
  1
(単動型)
  7
SLDTEXTSTYLE0
 73
     1
 44
1.0
  0
ENDBLK
  5
3B
330
39
100
AcDbEntity
  8
0
100
AcDbBlockEnd
  0
BLOCK
  5
8C
330
81
100
AcDbEntity
  8
0
100
AcDbBlockBegin
  2
*D2
 70
     1
 71
     0
 10
0.0
 20
0.0
 30
0.0
  3
*D2
  1

  0
INSERT
  5
96
330
81
100
AcDbEntity
  8
0
  6
Continuous
 62
     7
370
     0
100
AcDbBlockReference
  2
_Open30
 10
103.4646778989
 20
191.3919772876
 30
28.1584325397
 41
3.0
 42
3.0
 50
180.0
  0
INSERT
  5
97
330
81
100
AcDbEntity
  8
0
  6
Continuous
 62
     7
370
     0
100
AcDbBlockReference
  2
_Open30
 10
111.4646778989
 20
191.3919772876
 30
28.1584325397
 41
3.0
 42
3.0
 50
360.0
  0
LINE
  5
98
330
81
100
AcDbEntity
  8
0
  6
Continuous
 62
     7
370
     0
100
AcDbLine
 10
103.4646778989
 20
189.87271556
 30
0.0
 11
103.4646778989
 21
192.3919772876
 31
0.0
  0
LINE
  5
99
330
81
100
AcDbEntity
  8
0
  6
Continuous
 62
     7
370
     0
100
AcDbLine
 10
111.4646778989
 20
189.87271556
 30
0.0
 11
111.4646778989
 21
192.3919772876
 31
0.0
  0
LINE
  5
9A
330
81
100
AcDbEntity
  8
0
  6
Continuous
 62
     7
370
     0
100
AcDbLine
 10
103.4646778989
 20
191.3919772876
 30
0.0
 11
111.4646778989
 21
191.3919772876
 31
0.0
  0
MTEXT
  5
9B
330
81
100
AcDbEntity
  8
0
  6
Continuous
 62
     7
370
     0
100
AcDbMText
 10
106.4465071355
 20
195.4647043275
 30
0.0
 40
3.5
 41
0.0
 71
     1
 72
     1
  1
8
  7
SLDTEXTSTYLE0
 73
     1
 44
1.0
  0
ENDBLK
  5
8D
330
81
100
AcDbEntity
  8
0
100
AcDbBlockEnd
  0
BLOCK
  5
90
330
8F
100
AcDbEntity
  8
0
100
AcDbBlockBegin
  2
_Open30
 70
     0
 71
     0
 10
0.0
 20
0.0
 30
0.0
  3
_Open30
  1

  0
LINE
  5
92
330
8F
100
AcDbEntity
  8
0
  6
ByBlock
 62
     0
370
    -2
100
AcDbLine
 10
-1.0
 20
0.267949
 30
0.0
 11
0.0
 21
0.0
 31
0.0
  0
LINE
  5
93
330
8F
100
AcDbEntity
  8
0
  6
ByBlock
 62
     0
370
    -2
100
AcDbLine
 10
0.0
 20
0.0
 30
0.0
 11
-1.0
 21
-0.267949
 31
0.0
  0
LINE
  5
94
330
8F
100
AcDbEntity
  8
0
  6
ByBlock
 62
     0
370
    -2
100
AcDbLine
 10
0.0
 20
0.0
 30
0.0
 11
-1.0
 21
0.0
 31
0.0
  0
ENDBLK
  5
91
330
8F
100
AcDbEntity
  8
0
100
AcDbBlockEnd
  0
BLOCK
  5
A7
330
9D
100
AcDbEntity
  8
0
100
AcDbBlockBegin
  2
*D4
 70
     1
 71
     0
 10
0.0
 20
0.0
 30
0.0
  3
*D4
  1

  0
INSERT
  5
A9
330
9D
100
AcDbEntity
  8
0
  6
Continuous
 62
     7
370
     0
100
AcDbBlockReference
  2
_Open30
 10
101.4646778989
 20
198.8143778185
 30
28.1584325397
 41
3.0
 42
3.0
 50
180.0
  0
INSERT
  5
AA
330
9D
100
AcDbEntity
  8
0
  6
Continuous
 62
     7
370
     0
100
AcDbBlockReference
  2
_Open30
 10
111.4646778989
 20
198.8143778185
 30
28.1584325397
 41
3.0
 42
3.0
 50
0.0
  0
LINE
  5
AB
330
9D
100
AcDbEntity
  8
0
  6
Continuous
 62
     7
370
     0
100
AcDbLine
 10
101.4646778989
 20
188.67271556
 30
0.0
 11
101.4646778989
 21
199.8143778185
 31
0.0
  0
LINE
  5
AC
330
9D
100
AcDbEntity
  8
0
  6
Continuous
 62
     7
370
     0
100
AcDbLine
 10
111.4646778989
 20
189.87271556
 30
0.0
 11
111.4646778989
 21
199.8143778185
 31
0.0
  0
LINE
  5
AD
330
9D
100
AcDbEntity
  8
0
  6
Continuous
 62
     7
370
     0
100
AcDbLine
 10
101.4646778989
 20
198.8143778185
 30
0.0
 11
111.4646778989
 21
198.8143778185
 31
0.0
  0
MTEXT
  5
AE
330
9D
100
AcDbEntity
  8
0
  6
Continuous
 62
     7
370
     0
100
AcDbMText
 10
104.428336372
 20
202.8871048584
 30
0.0
 40
3.5
 41
0.0
 71
     1
 72
     1
  1
10
  7
SLDTEXTSTYLE0
 73
     1
 44
1.0
  0
ENDBLK
  5
A8
330
9D
100
AcDbEntity
  8
0
100
AcDbBlockEnd
  0
BLOCK
  5
BA
330
B0
100
AcDbEntity
  8
0
100
AcDbBlockBegin
  2
*D5
 70
     1
 71
     0
 10
0.0
 20
0.0
 30
0.0
  3
*D5
  1

  0
INSERT
  5
BC
330
B0
100
AcDbEntity
  8
0
  6
Continuous
 62
     7
370
     0
100
AcDbBlockReference
  2
_Open30
 10
91.4646778989
 20
191.3919772876
 30
28.1584325397
 41
3.0
 42
3.0
 50
180.0
  0
INSERT
  5
BD
330
B0
100
AcDbEntity
  8
0
  6
Continuous
 62
     7
370
     0
100
AcDbBlockReference
  2
_Open30
 10
101.4646778989
 20
191.3919772876
 30
28.1584325397
 41
3.0
 42
3.0
 50
0.0
  0
LINE
  5
BE
330
B0
100
AcDbEntity
  8
0
  6
Continuous
 62
     7
370
     0
100
AcDbLine
 10
91.4646778989
 20
182.82271556
 30
0.0
 11
91.4646778989
 21
192.3919772876
 31
0.0
  0
LINE
  5
BF
330
B0
100
AcDbEntity
  8
0
  6
Continuous
 62
     7
370
     0
100
AcDbLine
 10
101.4646778989
 20
188.67271556
 30
0.0
 11
101.4646778989
 21
192.3919772876
 31
0.0
  0
LINE
  5
C0
330
B0
100
AcDbEntity
  8
0
  6
Continuous
 62
     7
370
     0
100
AcDbLine
 10
91.4646778989
 20
191.3919772876
 30
0.0
 11
101.4646778989
 21
191.3919772876
 31
0.0
  0
MTEXT
  5
C1
330
B0
100
AcDbEntity
  8
0
  6
Continuous
 62
     7
370
     0
100
AcDbMText
 10
94.428336372
 20
195.4647043275
 30
0.0
 40
3.5
 41
0.0
 71
     1
 72
     1
  1
10
  7
SLDTEXTSTYLE0
 73
     1
 44
1.0
  0
ENDBLK
  5
BB
330
B0
100
AcDbEntity
  8
0
100
AcDbBlockEnd
  0
BLOCK
  5
CD
330
C3
100
AcDbEntity
  8
0
100
AcDbBlockBegin
  2
*D6
 70
     1
 71
     0
 10
0.0
 20
0.0
 30
0.0
  3
*D6
  1

  0
INSERT
  5
CF
330
C3
100
AcDbEntity
  8
0
  6
Continuous
 62
     7
370
     0
100
AcDbBlockReference
  2
_Open30
 10
50.4646778989
 20
191.3919772876
 30
28.1584325397
 41
3.0
 42
3.0
 50
180.0
  0
INSERT
  5
D0
330
C3
100
AcDbEntity
  8
0
  6
Continuous
 62
     7
370
     0
100
AcDbBlockReference
  2
_Open30
 10
91.4646778989
 20
191.3919772876
 30
28.1584325397
 41
3.0
 42
3.0
 50
0.0
  0
LINE
  5
D1
330
C3
100
AcDbEntity
  8
0
  6
Continuous
 62
     7
370
     0
100
AcDbLine
 10
50.4646778989
 20
182.82271556
 30
0.0
 11
50.4646778989
 21
192.3919772876
 31
0.0
  0
LINE
  5
D2
330
C3
100
AcDbEntity
  8
0
  6
Continuous
 62
     7
370
     0
100
AcDbLine
 10
91.4646778989
 20
182.82271556
 30
0.0
 11
91.4646778989
 21
192.3919772876
 31
0.0
  0
LINE
  5
D3
330
C3
100
AcDbEntity
  8
0
  6
Continuous
 62
     7
370
     0
100
AcDbLine
 10
50.4646778989
 20
191.3919772876
 30
0.0
 11
91.4646778989
 21
191.3919772876
 31
0.0
  0
MTEXT
  5
D4
330
C3
100
AcDbEntity
  8
0
  6
Continuous
 62
     7
370
     0
100
AcDbMText
 10
68.928336372
 20
195.4647043275
 30
0.0
 40
3.5
 41
0.0
 71
     1
 72
     1
  1
41
  7
SLDTEXTSTYLE0
 73
     1
 44
1.0
  0
ENDBLK
  5
CE
330
C3
100
AcDbEntity
  8
0
100
AcDbBlockEnd
  0
BLOCK
  5
E0
330
D6
100
AcDbEntity
  8
0
100
AcDbBlockBegin
  2
*D7
 70
     1
 71
     0
 10
0.0
 20
0.0
 30
0.0
  3
*D7
  1

  0
INSERT
  5
E2
330
D6
100
AcDbEntity
  8
0
  6
Continuous
 62
     7
370
     0
100
AcDbBlockReference
  2
_Open30
 10
40.4646778989
 20
191.3919772876
 30
28.1584325397
 41
3.0
 42
3.0
 50
180.0
  0
INSERT
  5
E3
330
D6
100
AcDbEntity
  8
0
  6
Continuous
 62
     7
370
     0
100
AcDbBlockReference
  2
_Open30
 10
50.4646778989
 20
191.3919772876
 30
28.1584325397
 41
3.0
 42
3.0
 50
0.0
  0
LINE
  5
E4
330
D6
100
AcDbEntity
  8
0
  6
Continuous
 62
     7
370
     0
100
AcDbLine
 10
40.4646778989
 20
188.67271556
 30
0.0
 11
40.4646778989
 21
192.3919772876
 31
0.0
  0
LINE
  5
E5
330
D6
100
AcDbEntity
  8
0
  6
Continuous
 62
     7
370
     0
100
AcDbLine
 10
50.4646778989
 20
182.82271556
 30
0.0
 11
50.4646778989
 21
192.3919772876
 31
0.0
  0
LINE
  5
E6
330
D6
100
AcDbEntity
  8
0
  6
Continuous
 62
     7
370
     0
100
AcDbLine
 10
40.4646778989
 20
191.3919772876
 30
0.0
 11
50.4646778989
 21
191.3919772876
 31
0.0
  0
MTEXT
  5
E7
330
D6
100
AcDbEntity
  8
0
  6
Continuous
 62
     7
370
     0
100
AcDbMText
 10
43.428336372
 20
195.4647043275
 30
0.0
 40
3.5
 41
0.0
 71
     1
 72
     1
  1
10
  7
SLDTEXTSTYLE0
 73
     1
 44
1.0
  0
ENDBLK
  5
E1
330
D6
100
AcDbEntity
  8
0
100
AcDbBlockEnd
  0
BLOCK
  5
F3
330
E9
100
AcDbEntity
  8
0
100
AcDbBlockBegin
  2
*D8
 70
     1
 71
     0
 10
0.0
 20
0.0
 30
0.0
  3
*D8
  1

  0
INSERT
  5
F5
330
E9
100
AcDbEntity
  8
0
  6
Continuous
 62
     7
370
     0
100
AcDbBlockReference
  2
_Open30
 10
101.4646778989
 20
198.8143778185
 30
28.1584325397
 41
3.0
 42
3.0
 50
360.0
  0
INSERT
  5
F6
330
E9
100
AcDbEntity
  8
0
  6
Continuous
 62
     7
370
     0
100
AcDbBlockReference
  2
_Open30
 10
40.4646778989
 20
198.8143778185
 30
28.1584325397
 41
3.0
 42
3.0
 50
180.0
  0
LINE
  5
F7
330
E9
100
AcDbEntity
  8
0
  6
Continuous
 62
     7
370
     0
100
AcDbLine
 10
101.4646778989
 20
185.87271556
 30
0.0
 11
101.4646778989
 21
199.8143778185
 31
0.0
  0
LINE
  5
F8
330
E9
100
AcDbEntity
  8
0
  6
Continuous
 62
     7
370
     0
100
AcDbLine
 10
40.4646778989
 20
188.67271556
 30
0.0
 11
40.4646778989
 21
199.8143778185
 31
0.0
  0
LINE
  5
F9
330
E9
100
AcDbEntity
  8
0
  6
Continuous
 62
     7
370
     0
100
AcDbLine
 10
101.4646778989
 20
198.8143778185
 30
0.0
 11
40.4646778989
 21
198.8143778185
 31
0.0
  0
MTEXT
  5
FA
330
E9
100
AcDbEntity
  8
0
  6
Continuous
 62
     7
370
     0
100
AcDbMText
 10
68.928336372
 20
202.8871048584
 30
0.0
 40
3.5
 41
0.0
 71
     1
 72
     1
  1
61
  7
SLDTEXTSTYLE0
 73
     1
 44
1.0
  0
ENDBLK
  5
F4
330
E9
100
AcDbEntity
  8
0
100
AcDbBlockEnd
  0
BLOCK
  5
106
330
FC
100
AcDbEntity
  8
0
100
AcDbBlockBegin
  2
*D9
 70
     1
 71
     0
 10
0.0
 20
0.0
 30
0.0
  3
*D9
  1

  0
INSERT
  5
108
330
FC
100
AcDbEntity
  8
0
  6
Continuous
 62
     7
370
     0
100
AcDbBlockReference
  2
_Open30
 10
40.4646778989
 20
205.1543449387
 30
28.1584325397
 41
3.0
 42
3.0
 50
180.0
  0
INSERT
  5
109
330
FC
100
AcDbEntity
  8
0
  6
Continuous
 62
     7
370
     0
100
AcDbBlockReference
  2
_Open30
 10
111.4646778989
 20
205.1543449387
 30
28.1584325397
 41
3.0
 42
3.0
 50
0.0
  0
LINE
  5
10A
330
FC
100
AcDbEntity
  8
0
  6
Continuous
 62
     7
370
     0
100
AcDbLine
 10
40.4646778989
 20
188.67271556
 30
0.0
 11
40.4646778989
 21
206.1543449387
 31
0.0
  0
LINE
  5
10B
330
FC
100
AcDbEntity
  8
0
  6
Continuous
 62
     7
370
     0
100
AcDbLine
 10
111.4646778989
 20
189.87271556
 30
0.0
 11
111.4646778989
 21
206.1543449387
 31
0.0
  0
LINE
  5
10C
330
FC
100
AcDbEntity
  8
0
  6
Continuous
 62
     7
370
     0
100
AcDbLine
 10
40.4646778989
 20
205.1543449387
 30
0.0
 11
111.4646778989
 21
205.1543449387
 31
0.0
  0
MTEXT
  5
10D
330
FC
100
AcDbEntity
  8
0
  6
Continuous
 62
     7
370
     0
100
AcDbMText
 10
73.928336372
 20
209.2270719786
 30
0.0
 40
3.5
 41
0.0
 71
     1
 72
     1
  1
71
  7
SLDTEXTSTYLE0
 73
     1
 44
1.0
  0
ENDBLK
  5
107
330
FC
100
AcDbEntity
  8
0
100
AcDbBlockEnd
  0
BLOCK
  5
11A
330
10F
100
AcDbEntity
  8
0
100
AcDbBlockBegin
  2
*D10
 70
     1
 71
     0
 10
0.0
 20
0.0
 30
0.0
  3
*D10
  1

  0
INSERT
  5
11C
330
10F
100
AcDbEntity
  8
0
  6
Continuous
 62
     7
370
     0
100
AcDbBlockReference
  2
_Open30
 10
36.643098866
 20
164.67271556
 30
28.1584325397
 41
3.0
 42
3.0
 50
270.0
  0
INSERT
  5
11D
330
10F
100
AcDbEntity
  8
0
  6
Continuous
 62
     7
370
     0
100
AcDbBlockReference
  2
_Open30
 10
36.643098866
 20
177.17271556
 30
28.1584325397
 41
3.0
 42
3.0
 50
90.0
  0
LINE
  5
11E
330
10F
100
AcDbEntity
  8
0
  6
Continuous
 62
     7
370
     0
100
AcDbLine
 10
39.7646778989
 20
164.67271556
 30
0.0
 11
35.643098866
 21
164.67271556
 31
0.0
  0
LINE
  5
11F
330
10F
100
AcDbEntity
  8
0
  6
Continuous
 62
     7
370
     0
100
AcDbLine
 10
44.8146778989
 20
177.17271556
 30
0.0
 11
35.643098866
 21
177.17271556
 31
0.0
  0
LINE
  5
120
330
10F
100
AcDbEntity
  8
0
  6
Continuous
 62
     7
370
     0
100
AcDbLine
 10
36.643098866
 20
164.67271556
 30
0.0
 11
36.643098866
 21
177.17271556
 31
0.0
  0
MTEXT
  5
121
330
10F
100
AcDbEntity
  8
0
  6
Continuous
 62
     7
370
     0
100
AcDbMText
 10
32.5703718261
 20
166.8500325061
 30
0.0
 40
3.5
 41
0.0
 71
     1
 72
     1
  1
12.5
  7
SLDTEXTSTYLE0
 11
6.123031769111886E-17
 21
1.0
 31
0.0
 73
     1
 44
1.0
  0
ENDBLK
  5
11B
330
10F
100
AcDbEntity
  8
0
100
AcDbBlockEnd
  0
BLOCK
  5
12E
330
123
100
AcDbEntity
  8
0
100
AcDbBlockBegin
  2
*D11
 70
     1
 71
     0
 10
0.0
 20
0.0
 30
0.0
  3
*D11
  1

  0
INSERT
  5
130
330
123
100
AcDbEntity
  8
0
  6
Continuous
 62
     7
370
     0
100
AcDbBlockReference
  2
_Open30
 10
27.8289982355
 20
164.67271556
 30
28.1584325397
 41
3.0
 42
3.0
 50
270.0
  0
INSERT
  5
131
330
123
100
AcDbEntity
  8
0
  6
Continuous
 62
     7
370
     0
100
AcDbBlockReference
  2
_Open30
 10
27.8289982355
 20
189.67271556
 30
28.1584325397
 41
3.0
 42
3.0
 50
90.0
  0
LINE
  5
132
330
123
100
AcDbEntity
  8
0
  6
Continuous
 62
     7
370
     0
100
AcDbLine
 10
39.7646778989
 20
164.67271556
 30
0.0
 11
26.8289982355
 21
164.67271556
 31
0.0
  0
LINE
  5
133
330
123
100
AcDbEntity
  8
0
  6
Continuous
 62
     7
370
     0
100
AcDbLine
 10
39.7646778989
 20
189.67271556
 30
0.0
 11
26.8289982355
 21
189.67271556
 31
0.0
  0
LINE
  5
134
330
123
100
AcDbEntity
  8
0
  6
Continuous
 62
     7
370
     0
100
AcDbLine
 10
27.8289982355
 20
164.67271556
 30
0.0
 11
27.8289982355
 21
189.67271556
 31
0.0
  0
MTEXT
  5
135
330
123
100
AcDbEntity
  8
0
  6
Continuous
 62
     7
370
     0
100
AcDbMText
 10
23.7562711956
 20
175.136374033
 30
0.0
 40
3.5
 41
0.0
 71
     1
 72
     1
  1
25
  7
SLDTEXTSTYLE0
 11
6.123031769111886E-17
 21
1.0
 31
0.0
 73
     1
 44
1.0
  0
ENDBLK
  5
12F
330
123
100
AcDbEntity
  8
0
100
AcDbBlockEnd
  0
BLOCK
  5
137
330
136
100
AcDbEntity
  8
0
100
AcDbBlockBegin
  2
SW_NOTE_1
 70
     0
 71
     0
 10
0.0
 20
0.0
 30
0.0
  3
SW_NOTE_1
  1

  0
MTEXT
  5
139
330
136
100
AcDbEntity
  8
0
  6
Continuous
 62
     7
370
     0
100
AcDbMText
 10
0.0016473091
 20
8.5741145589
 30
20.0
 40
3.5
 41
0.0
 71
     1
 72
     1
  1
配管ネジ
  7
SLDTEXTSTYLE0
 73
     1
 44
1.0
  0
MTEXT
  5
13A
330
136
100
AcDbEntity
  8
0
  6
Continuous
 62
     7
370
     0
100
AcDbMText
 10
0.0016473091
 20
4.0741147526
 30
20.0
 40
3.5
 41
0.0
 71
     1
 72
     1
  1
2-M5
  7
SLDTEXTSTYLE0
 73
     1
 44
1.0
  0
ENDBLK
  5
138
330
136
100
AcDbEntity
  8
0
100
AcDbBlockEnd
  0
BLOCK
  5
13F
330
13E
100
AcDbEntity
  8
0
100
AcDbBlockBegin
  2
SW_CENTERMARKSYMBOL_0
 70
     0
 71
     0
 10
0.0
 20
0.0
 30
0.0
  3
SW_CENTERMARKSYMBOL_0
  1

  0
LINE
  5
141
330
13E
100
AcDbEntity
  8
0
  6
Continuous
 62
     7
370
     0
100
AcDbLine
 10
0.0
 20
0.0
 30
0.0
 11
0.0
 21
2.5
 31
0.0
  0
LINE
  5
142
330
13E
100
AcDbEntity
  8
0
  6
Continuous
 62
     7
370
     0
100
AcDbLine
 10
0.0
 20
0.0
 30
0.0
 11
-2.5
 21
0.0
 31
0.0
  0
LINE
  5
143
330
13E
100
AcDbEntity
  8
0
  6
Continuous
 62
     7
370
     0
100
AcDbLine
 10
0.0
 20
0.0
 30
0.0
 11
0.0
 21
-2.5
 31
0.0
  0
LINE
  5
144
330
13E
100
AcDbEntity
  8
0
  6
Continuous
 62
     7
370
     0
100
AcDbLine
 10
0.0
 20
0.0
 30
0.0
 11
2.5
 21
0.0
 31
0.0
  0
LINE
  5
145
330
13E
100
AcDbEntity
  8
0
  6
Continuous
 62
     7
370
     0
100
AcDbLine
 10
0.0
 20
2.5
 30
0.0
 11
0.0
 21
4.65
 31
0.0
  0
LINE
  5
146
330
13E
100
AcDbEntity
  8
0
  6
Continuous
 62
     7
370
     0
100
AcDbLine
 10
-2.5
 20
0.0
 30
0.0
 11
-4.65
 21
0.0
 31
0.0
  0
LINE
  5
147
330
13E
100
AcDbEntity
  8
0
  6
Continuous
 62
     7
370
     0
100
AcDbLine
 10
0.0
 20
-2.5
 30
0.0
 11
0.0
 21
-4.65
 31
0.0
  0
LINE
  5
148
330
13E
100
AcDbEntity
  8
0
  6
Continuous
 62
     7
370
     0
100
AcDbLine
 10
2.5
 20
0.0
 30
0.0
 11
4.65
 21
0.0
 31
0.0
  0
ENDBLK
  5
140
330
13E
100
AcDbEntity
  8
0
100
AcDbBlockEnd
  0
BLOCK
  5
14B
330
14A
100
AcDbEntity
  8
0
100
AcDbBlockBegin
  2
SW_CENTERMARKSYMBOL_1
 70
     0
 71
     0
 10
0.0
 20
0.0
 30
0.0
  3
SW_CENTERMARKSYMBOL_1
  1

  0
LINE
  5
14D
330
14A
100
AcDbEntity
  8
0
  6
Continuous
 62
     7
370
     0
100
AcDbLine
 10
0.0
 20
0.0
 30
0.0
 11
0.0
 21
2.5
 31
0.0
  0
LINE
  5
14E
330
14A
100
AcDbEntity
  8
0
  6
Continuous
 62
     7
370
     0
100
AcDbLine
 10
0.0
 20
0.0
 30
0.0
 11
-2.5
 21
0.0
 31
0.0
  0
LINE
  5
14F
330
14A
100
AcDbEntity
  8
0
  6
Continuous
 62
     7
370
     0
100
AcDbLine
 10
0.0
 20
0.0
 30
0.0
 11
0.0
 21
-2.5
 31
0.0
  0
LINE
  5
150
330
14A
100
AcDbEntity
  8
0
  6
Continuous
 62
     7
370
     0
100
AcDbLine
 10
0.0
 20
0.0
 30
0.0
 11
2.5
 21
0.0
 31
0.0
  0
LINE
  5
151
330
14A
100
AcDbEntity
  8
0
  6
Continuous
 62
     7
370
     0
100
AcDbLine
 10
0.0
 20
2.5
 30
0.0
 11
0.0
 21
4.65
 31
0.0
  0
LINE
  5
152
330
14A
100
AcDbEntity
  8
0
  6
Continuous
 62
     7
370
     0
100
AcDbLine
 10
-2.5
 20
0.0
 30
0.0
 11
-4.65
 21
0.0
 31
0.0
  0
LINE
  5
153
330
14A
100
AcDbEntity
  8
0
  6
Continuous
 62
     7
370
     0
100
AcDbLine
 10
0.0
 20
-2.5
 30
0.0
 11
0.0
 21
-4.65
 31
0.0
  0
LINE
  5
154
330
14A
100
AcDbEntity
  8
0
  6
Continuous
 62
     7
370
     0
100
AcDbLine
 10
2.5
 20
0.0
 30
0.0
 11
4.65
 21
0.0
 31
0.0
  0
ENDBLK
  5
14C
330
14A
100
AcDbEntity
  8
0
100
AcDbBlockEnd
  0
BLOCK
  5
1F2
330
1E8
100
AcDbEntity
  8
0
100
AcDbBlockBegin
  2
*D15
 70
     1
 71
     0
 10
0.0
 20
0.0
 30
0.0
  3
*D15
  1

  0
INSERT
  5
1F4
330
1E8
100
AcDbEntity
  8
0
  6
Continuous
 62
     7
370
     0
100
AcDbBlockReference
  2
_Open30
 10
145.2945986125
 20
196.6077042065
 30
15.65
 41
3.0
 42
3.0
 50
180.0
  0
INSERT
  5
1F5
330
1E8
100
AcDbEntity
  8
0
  6
Continuous
 62
     7
370
     0
100
AcDbBlockReference
  2
_Open30
 10
177.2945986125
 20
196.6077042065
 30
15.65
 41
3.0
 42
3.0
 50
0.0
  0
LINE
  5
1F6
330
1E8
100
AcDbEntity
  8
0
  6
Continuous
 62
     7
370
     0
100
AcDbLine
 10
145.2945986125
 20
190.82271556
 30
0.0
 11
145.2945986125
 21
197.6077042065
 31
0.0
  0
LINE
  5
1F7
330
1E8
100
AcDbEntity
  8
0
  6
Continuous
 62
     7
370
     0
100
AcDbLine
 10
177.2945986125
 20
190.82271556
 30
0.0
 11
177.2945986125
 21
197.6077042065
 31
0.0
  0
LINE
  5
1F8
330
1E8
100
AcDbEntity
  8
0
  6
Continuous
 62
     7
370
     0
100
AcDbLine
 10
145.2945986125
 20
196.6077042065
 30
0.0
 11
177.2945986125
 21
196.6077042065
 31
0.0
  0
MTEXT
  5
1F9
330
1E8
100
AcDbEntity
  8
0
  6
Continuous
 62
     7
370
     0
100
AcDbMText
 10
159.2582570856
 20
200.6804312464
 30
0.0
 40
3.5
 41
0.0
 71
     1
 72
     1
  1
32
  7
SLDTEXTSTYLE0
 73
     1
 44
1.0
  0
ENDBLK
  5
1F3
330
1E8
100
AcDbEntity
  8
0
100
AcDbBlockEnd
  0
BLOCK
  5
205
330
1FB
100
AcDbEntity
  8
0
100
AcDbBlockBegin
  2
*D16
 70
     1
 71
     0
 10
0.0
 20
0.0
 30
0.0
  3
*D16
  1

  0
INSERT
  5
207
330
1FB
100
AcDbEntity
  8
0
  6
Continuous
 62
     7
370
     0
100
AcDbBlockReference
  2
_Open30
 10
141.2945986125
 20
204.1394719757
 30
15.65
 41
3.0
 42
3.0
 50
180.0
  0
INSERT
  5
208
330
1FB
100
AcDbEntity
  8
0
  6
Continuous
 62
     7
370
     0
100
AcDbBlockReference
  2
_Open30
 10
181.2945986125
 20
204.1394719757
 30
15.65
 41
3.0
 42
3.0
 50
0.0
  0
LINE
  5
209
330
1FB
100
AcDbEntity
  8
0
  6
Continuous
 62
     7
370
     0
100
AcDbLine
 10
141.2945986125
 20
188.17271556
 30
0.0
 11
141.2945986125
 21
205.1394719757
 31
0.0
  0
LINE
  5
20A
330
1FB
100
AcDbEntity
  8
0
  6
Continuous
 62
     7
370
     0
100
AcDbLine
 10
181.2945986125
 20
188.17271556
 30
0.0
 11
181.2945986125
 21
205.1394719757
 31
0.0
  0
LINE
  5
20B
330
1FB
100
AcDbEntity
  8
0
  6
Continuous
 62
     7
370
     0
100
AcDbLine
 10
141.2945986125
 20
204.1394719757
 30
0.0
 11
181.2945986125
 21
204.1394719757
 31
0.0
  0
MTEXT
  5
20C
330
1FB
100
AcDbEntity
  8
0
  6
Continuous
 62
     7
370
     0
100
AcDbMText
 10
159.2582570856
 20
208.2121990156
 30
0.0
 40
3.5
 41
0.0
 71
     1
 72
     1
  1
40
  7
SLDTEXTSTYLE0
 73
     1
 44
1.0
  0
ENDBLK
  5
206
330
1FB
100
AcDbEntity
  8
0
100
AcDbBlockEnd
  0
BLOCK
  5
219
330
20E
100
AcDbEntity
  8
0
100
AcDbBlockBegin
  2
*D17
 70
     1
 71
     0
 10
0.0
 20
0.0
 30
0.0
  3
*D17
  1

  0
INSERT
  5
21B
330
20E
100
AcDbEntity
  8
0
  6
Continuous
 62
     7
370
     0
100
AcDbBlockReference
  2
_Open30
 10
137.52130037
 20
185.17271556
 30
15.65
 41
3.0
 42
3.0
 50
90.0
  0
INSERT
  5
21C
330
20E
100
AcDbEntity
  8
0
  6
Continuous
 62
     7
370
     0
100
AcDbBlockReference
  2
_Open30
 10
137.52130037
 20
169.17271556
 30
15.65
 41
3.0
 42
3.0
 50
270.0
  0
LINE
  5
21D
330
20E
100
AcDbEntity
  8
0
  6
Continuous
 62
     7
370
     0
100
AcDbLine
 10
139.6445986125
 20
185.17271556
 30
0.0
 11
136.52130037
 21
185.17271556
 31
0.0
  0
LINE
  5
21E
330
20E
100
AcDbEntity
  8
0
  6
Continuous
 62
     7
370
     0
100
AcDbLine
 10
139.6445986125
 20
169.17271556
 30
0.0
 11
136.52130037
 21
169.17271556
 31
0.0
  0
LINE
  5
21F
330
20E
100
AcDbEntity
  8
0
  6
Continuous
 62
     7
370
     0
100
AcDbLine
 10
137.52130037
 20
185.17271556
 30
0.0
 11
137.52130037
 21
169.17271556
 31
0.0
  0
MTEXT
  5
220
330
20E
100
AcDbEntity
  8
0
  6
Continuous
 62
     7
370
     0
100
AcDbMText
 10
133.4485733301
 20
175.136374033
 30
0.0
 40
3.5
 41
0.0
 71
     1
 72
     1
  1
16
  7
SLDTEXTSTYLE0
 11
-7.044197039909883E-15
 21
1.0
 31
0.0
 73
     1
 44
1.0
  0
ENDBLK
  5
21A
330
20E
100
AcDbEntity
  8
0
100
AcDbBlockEnd
  0
BLOCK
  5
22D
330
222
100
AcDbEntity
  8
0
100
AcDbBlockBegin
  2
*D18
 70
     1
 71
     0
 10
0.0
 20
0.0
 30
0.0
  3
*D18
  1

  0
INSERT
  5
22F
330
222
100
AcDbEntity
  8
0
  6
Continuous
 62
     7
370
     0
100
AcDbBlockReference
  2
_Open30
 10
130.9272495953
 20
189.17271556
 30
15.65
 41
3.0
 42
3.0
 50
90.0
  0
INSERT
  5
230
330
222
100
AcDbEntity
  8
0
  6
Continuous
 62
     7
370
     0
100
AcDbBlockReference
  2
_Open30
 10
130.9272495953
 20
165.17271556
 30
15.65
 41
3.0
 42
3.0
 50
270.0
  0
LINE
  5
231
330
222
100
AcDbEntity
  8
0
  6
Continuous
 62
     7
370
     0
100
AcDbLine
 10
142.2945986125
 20
189.17271556
 30
0.0
 11
129.9272495953
 21
189.17271556
 31
0.0
  0
LINE
  5
232
330
222
100
AcDbEntity
  8
0
  6
Continuous
 62
     7
370
     0
100
AcDbLine
 10
142.2945986125
 20
165.17271556
 30
0.0
 11
129.9272495953
 21
165.17271556
 31
0.0
  0
LINE
  5
233
330
222
100
AcDbEntity
  8
0
  6
Continuous
 62
     7
370
     0
100
AcDbLine
 10
130.9272495953
 20
189.17271556
 30
0.0
 11
130.9272495953
 21
165.17271556
 31
0.0
  0
MTEXT
  5
234
330
222
100
AcDbEntity
  8
0
  6
Continuous
 62
     7
370
     0
100
AcDbMText
 10
126.8545225554
 20
175.136374033
 30
0.0
 40
3.5
 41
0.0
 71
     1
 72
     1
  1
24
  7
SLDTEXTSTYLE0
 11
-7.044197039909883E-15
 21
1.0
 31
0.0
 73
     1
 44
1.0
  0
ENDBLK
  5
22E
330
222
100
AcDbEntity
  8
0
100
AcDbBlockEnd
  0
BLOCK
  5
238
330
237
100
AcDbEntity
  8
0
100
AcDbBlockBegin
  2
SW_CENTERMARKSYMBOL_2
 70
     0
 71
     0
 10
0.0
 20
0.0
 30
0.0
  3
SW_CENTERMARKSYMBOL_2
  1

  0
LINE
  5
23A
330
237
100
AcDbEntity
  8
0
  6
Continuous
 62
     7
370
     0
100
AcDbLine
 10
0.0
 20
0.0
 30
0.0
 11
0.0
 21
2.5
 31
0.0
  0
LINE
  5
23B
330
237
100
AcDbEntity
  8
0
  6
Continuous
 62
     7
370
     0
100
AcDbLine
 10
0.0
 20
0.0
 30
0.0
 11
-2.5
 21
0.0
 31
0.0
  0
LINE
  5
23C
330
237
100
AcDbEntity
  8
0
  6
Continuous
 62
     7
370
     0
100
AcDbLine
 10
0.0
 20
0.0
 30
0.0
 11
0.0
 21
-2.5
 31
0.0
  0
LINE
  5
23D
330
237
100
AcDbEntity
  8
0
  6
Continuous
 62
     7
370
     0
100
AcDbLine
 10
0.0
 20
0.0
 30
0.0
 11
2.5
 21
0.0
 31
0.0
  0
LINE
  5
23E
330
237
100
AcDbEntity
  8
0
  6
Continuous
 62
     7
370
     0
100
AcDbLine
 10
0.0
 20
2.5
 30
0.0
 11
0.0
 21
4.65
 31
0.0
  0
LINE
  5
23F
330
237
100
AcDbEntity
  8
0
  6
Continuous
 62
     7
370
     0
100
AcDbLine
 10
-2.5
 20
0.0
 30
0.0
 11
-4.65
 21
0.0
 31
0.0
  0
LINE
  5
240
330
237
100
AcDbEntity
  8
0
  6
Continuous
 62
     7
370
     0
100
AcDbLine
 10
0.0
 20
-2.5
 30
0.0
 11
0.0
 21
-4.65
 31
0.0
  0
LINE
  5
241
330
237
100
AcDbEntity
  8
0
  6
Continuous
 62
     7
370
     0
100
AcDbLine
 10
2.5
 20
0.0
 30
0.0
 11
4.65
 21
0.0
 31
0.0
  0
ENDBLK
  5
239
330
237
100
AcDbEntity
  8
0
100
AcDbBlockEnd
  0
BLOCK
  5
244
330
243
100
AcDbEntity
  8
0
100
AcDbBlockBegin
  2
SW_CENTERMARKSYMBOL_3
 70
     0
 71
     0
 10
0.0
 20
0.0
 30
0.0
  3
SW_CENTERMARKSYMBOL_3
  1

  0
LINE
  5
246
330
243
100
AcDbEntity
  8
0
  6
Continuous
 62
     7
370
     0
100
AcDbLine
 10
0.0
 20
0.0
 30
0.0
 11
0.0
 21
2.5
 31
0.0
  0
LINE
  5
247
330
243
100
AcDbEntity
  8
0
  6
Continuous
 62
     7
370
     0
100
AcDbLine
 10
0.0
 20
0.0
 30
0.0
 11
-2.5
 21
0.0
 31
0.0
  0
LINE
  5
248
330
243
100
AcDbEntity
  8
0
  6
Continuous
 62
     7
370
     0
100
AcDbLine
 10
0.0
 20
0.0
 30
0.0
 11
0.0
 21
-2.5
 31
0.0
  0
LINE
  5
249
330
243
100
AcDbEntity
  8
0
  6
Continuous
 62
     7
370
     0
100
AcDbLine
 10
0.0
 20
0.0
 30
0.0
 11
2.5
 21
0.0
 31
0.0
  0
LINE
  5
24A
330
243
100
AcDbEntity
  8
0
  6
Continuous
 62
     7
370
     0
100
AcDbLine
 10
0.0
 20
2.5
 30
0.0
 11
0.0
 21
4.65
 31
0.0
  0
LINE
  5
24B
330
243
100
AcDbEntity
  8
0
  6
Continuous
 62
     7
370
     0
100
AcDbLine
 10
-2.5
 20
0.0
 30
0.0
 11
-4.65
 21
0.0
 31
0.0
  0
LINE
  5
24C
330
243
100
AcDbEntity
  8
0
  6
Continuous
 62
     7
370
     0
100
AcDbLine
 10
0.0
 20
-2.5
 30
0.0
 11
0.0
 21
-4.65
 31
0.0
  0
LINE
  5
24D
330
243
100
AcDbEntity
  8
0
  6
Continuous
 62
     7
370
     0
100
AcDbLine
 10
2.5
 20
0.0
 30
0.0
 11
4.65
 21
0.0
 31
0.0
  0
ENDBLK
  5
245
330
243
100
AcDbEntity
  8
0
100
AcDbBlockEnd
  0
BLOCK
  5
250
330
24F
100
AcDbEntity
  8
0
100
AcDbBlockBegin
  2
SW_CENTERMARKSYMBOL_4
 70
     0
 71
     0
 10
0.0
 20
0.0
 30
0.0
  3
SW_CENTERMARKSYMBOL_4
  1

  0
LINE
  5
252
330
24F
100
AcDbEntity
  8
0
  6
Continuous
 62
     7
370
     0
100
AcDbLine
 10
0.0
 20
0.0
 30
0.0
 11
0.0
 21
2.5
 31
0.0
  0
LINE
  5
253
330
24F
100
AcDbEntity
  8
0
  6
Continuous
 62
     7
370
     0
100
AcDbLine
 10
0.0
 20
0.0
 30
0.0
 11
-2.5
 21
0.0
 31
0.0
  0
LINE
  5
254
330
24F
100
AcDbEntity
  8
0
  6
Continuous
 62
     7
370
     0
100
AcDbLine
 10
0.0
 20
0.0
 30
0.0
 11
0.0
 21
-2.5
 31
0.0
  0
LINE
  5
255
330
24F
100
AcDbEntity
  8
0
  6
Continuous
 62
     7
370
     0
100
AcDbLine
 10
0.0
 20
0.0
 30
0.0
 11
2.5
 21
0.0
 31
0.0
  0
LINE
  5
256
330
24F
100
AcDbEntity
  8
0
  6
Continuous
 62
     7
370
     0
100
AcDbLine
 10
0.0
 20
2.5
 30
0.0
 11
0.0
 21
4.65
 31
0.0
  0
LINE
  5
257
330
24F
100
AcDbEntity
  8
0
  6
Continuous
 62
     7
370
     0
100
AcDbLine
 10
-2.5
 20
0.0
 30
0.0
 11
-4.65
 21
0.0
 31
0.0
  0
LINE
  5
258
330
24F
100
AcDbEntity
  8
0
  6
Continuous
 62
     7
370
     0
100
AcDbLine
 10
0.0
 20
-2.5
 30
0.0
 11
0.0
 21
-4.65
 31
0.0
  0
LINE
  5
259
330
24F
100
AcDbEntity
  8
0
  6
Continuous
 62
     7
370
     0
100
AcDbLine
 10
2.5
 20
0.0
 30
0.0
 11
4.65
 21
0.0
 31
0.0
  0
ENDBLK
  5
251
330
24F
100
AcDbEntity
  8
0
100
AcDbBlockEnd
  0
BLOCK
  5
25C
330
25B
100
AcDbEntity
  8
0
100
AcDbBlockBegin
  2
SW_CENTERMARKSYMBOL_5
 70
     0
 71
     0
 10
0.0
 20
0.0
 30
0.0
  3
SW_CENTERMARKSYMBOL_5
  1

  0
LINE
  5
25E
330
25B
100
AcDbEntity
  8
0
  6
Continuous
 62
     7
370
     0
100
AcDbLine
 10
0.0
 20
0.0
 30
0.0
 11
0.0
 21
2.5
 31
0.0
  0
LINE
  5
25F
330
25B
100
AcDbEntity
  8
0
  6
Continuous
 62
     7
370
     0
100
AcDbLine
 10
0.0
 20
0.0
 30
0.0
 11
-2.5
 21
0.0
 31
0.0
  0
LINE
  5
260
330
25B
100
AcDbEntity
  8
0
  6
Continuous
 62
     7
370
     0
100
AcDbLine
 10
0.0
 20
0.0
 30
0.0
 11
0.0
 21
-2.5
 31
0.0
  0
LINE
  5
261
330
25B
100
AcDbEntity
  8
0
  6
Continuous
 62
     7
370
     0
100
AcDbLine
 10
0.0
 20
0.0
 30
0.0
 11
2.5
 21
0.0
 31
0.0
  0
LINE
  5
262
330
25B
100
AcDbEntity
  8
0
  6
Continuous
 62
     7
370
     0
100
AcDbLine
 10
0.0
 20
2.5
 30
0.0
 11
0.0
 21
4.65
 31
0.0
  0
LINE
  5
263
330
25B
100
AcDbEntity
  8
0
  6
Continuous
 62
     7
370
     0
100
AcDbLine
 10
-2.5
 20
0.0
 30
0.0
 11
-4.65
 21
0.0
 31
0.0
  0
LINE
  5
264
330
25B
100
AcDbEntity
  8
0
  6
Continuous
 62
     7
370
     0
100
AcDbLine
 10
0.0
 20
-2.5
 30
0.0
 11
0.0
 21
-4.65
 31
0.0
  0
LINE
  5
265
330
25B
100
AcDbEntity
  8
0
  6
Continuous
 62
     7
370
     0
100
AcDbLine
 10
2.5
 20
0.0
 30
0.0
 11
4.65
 21
0.0
 31
0.0
  0
ENDBLK
  5
25D
330
25B
100
AcDbEntity
  8
0
100
AcDbBlockEnd
  0
BLOCK
  5
268
330
267
100
AcDbEntity
  8
0
100
AcDbBlockBegin
  2
SW_CENTERMARKSYMBOL_6
 70
     0
 71
     0
 10
0.0
 20
0.0
 30
0.0
  3
SW_CENTERMARKSYMBOL_6
  1

  0
LINE
  5
26A
330
267
100
AcDbEntity
  8
0
  6
Continuous
 62
     7
370
     0
100
AcDbLine
 10
0.0
 20
0.0
 30
0.0
 11
0.0
 21
2.5
 31
0.0
  0
LINE
  5
26B
330
267
100
AcDbEntity
  8
0
  6
Continuous
 62
     7
370
     0
100
AcDbLine
 10
0.0
 20
0.0
 30
0.0
 11
-2.5
 21
0.0
 31
0.0
  0
LINE
  5
26C
330
267
100
AcDbEntity
  8
0
  6
Continuous
 62
     7
370
     0
100
AcDbLine
 10
0.0
 20
0.0
 30
0.0
 11
0.0
 21
-2.5
 31
0.0
  0
LINE
  5
26D
330
267
100
AcDbEntity
  8
0
  6
Continuous
 62
     7
370
     0
100
AcDbLine
 10
0.0
 20
0.0
 30
0.0
 11
2.5
 21
0.0
 31
0.0
  0
LINE
  5
26E
330
267
100
AcDbEntity
  8
0
  6
Continuous
 62
     7
370
     0
100
AcDbLine
 10
0.0
 20
5.0
 30
0.0
 11
0.0
 21
6.25
 31
0.0
  0
LINE
  5
26F
330
267
100
AcDbEntity
  8
0
  6
Continuous
 62
     7
370
     0
100
AcDbLine
 10
-5.0
 20
0.0
 30
0.0
 11
-6.25
 21
0.0
 31
0.0
  0
LINE
  5
270
330
267
100
AcDbEntity
  8
0
  6
Continuous
 62
     7
370
     0
100
AcDbLine
 10
0.0
 20
-5.0
 30
0.0
 11
0.0
 21
-6.25
 31
0.0
  0
LINE
  5
271
330
267
100
AcDbEntity
  8
0
  6
Continuous
 62
     7
370
     0
100
AcDbLine
 10
5.0
 20
0.0
 30
0.0
 11
6.25
 21
0.0
 31
0.0
  0
ENDBLK
  5
269
330
267
100
AcDbEntity
  8
0
100
AcDbBlockEnd
  0
BLOCK
  5
274
330
273
100
AcDbEntity
  8
0
100
AcDbBlockBegin
  2
SW_CENTERMARKSYMBOL_7
 70
     0
 71
     0
 10
0.0
 20
0.0
 30
0.0
  3
SW_CENTERMARKSYMBOL_7
  1

  0
LINE
  5
276
330
273
100
AcDbEntity
  8
0
  6
Continuous
 62
     7
370
     0
100
AcDbLine
 10
0.0
 20
0.0
 30
0.0
 11
0.0
 21
2.5
 31
0.0
  0
LINE
  5
277
330
273
100
AcDbEntity
  8
0
  6
Continuous
 62
     7
370
     0
100
AcDbLine
 10
0.0
 20
0.0
 30
0.0
 11
-2.5
 21
0.0
 31
0.0
  0
LINE
  5
278
330
273
100
AcDbEntity
  8
0
  6
Continuous
 62
     7
370
     0
100
AcDbLine
 10
0.0
 20
0.0
 30
0.0
 11
0.0
 21
-2.5
 31
0.0
  0
LINE
  5
279
330
273
100
AcDbEntity
  8
0
  6
Continuous
 62
     7
370
     0
100
AcDbLine
 10
0.0
 20
0.0
 30
0.0
 11
2.5
 21
0.0
 31
0.0
  0
LINE
  5
27A
330
273
100
AcDbEntity
  8
0
  6
Continuous
 62
     7
370
     0
100
AcDbLine
 10
0.0
 20
5.0
 30
0.0
 11
0.0
 21
7.0
 31
0.0
  0
LINE
  5
27B
330
273
100
AcDbEntity
  8
0
  6
Continuous
 62
     7
370
     0
100
AcDbLine
 10
-5.0
 20
0.0
 30
0.0
 11
-7.0
 21
0.0
 31
0.0
  0
LINE
  5
27C
330
273
100
AcDbEntity
  8
0
  6
Continuous
 62
     7
370
     0
100
AcDbLine
 10
0.0
 20
-5.0
 30
0.0
 11
0.0
 21
-7.0
 31
0.0
  0
LINE
  5
27D
330
273
100
AcDbEntity
  8
0
  6
Continuous
 62
     7
370
     0
100
AcDbLine
 10
5.0
 20
0.0
 30
0.0
 11
7.0
 21
0.0
 31
0.0
  0
ENDBLK
  5
275
330
273
100
AcDbEntity
  8
0
100
AcDbBlockEnd
  0
BLOCK
  5
338
330
32E
100
AcDbEntity
  8
0
100
AcDbBlockBegin
  2
*D25
 70
     1
 71
     0
 10
0.0
 20
0.0
 30
0.0
  3
*D25
  1

  0
INSERT
  5
33A
330
32E
100
AcDbEntity
  8
0
  6
Continuous
 62
     7
370
     0
100
AcDbBlockReference
  2
_Open30
 10
111.1646778989
 20
124.5256339364
 30
0.1
 41
3.0
 42
3.0
 50
360.0
  0
INSERT
  5
33B
330
32E
100
AcDbEntity
  8
0
  6
Continuous
 62
     7
370
     0
100
AcDbBlockReference
  2
_Open30
 10
131.1646778989
 20
124.5256339364
 30
0.1
 41
3.0
 42
3.0
 50
180.0
  0
LINE
  5
33C
330
32E
100
AcDbEntity
  8
0
  6
Continuous
 62
     7
370
     0
100
AcDbLine
 10
111.1646778989
 20
102.3123549495
 30
0.0
 11
111.1646778989
 21
125.5256339364
 31
0.0
  0
LINE
  5
33D
330
32E
100
AcDbEntity
  8
0
  6
Continuous
 62
     7
370
     0
100
AcDbLine
 10
131.1646778989
 20
104.3123549495
 30
0.0
 11
131.1646778989
 21
125.5256339364
 31
0.0
  0
LINE
  5
33E
330
32E
100
AcDbEntity
  8
0
  6
Continuous
 62
     7
370
     0
100
AcDbLine
 10
111.1646778989
 20
124.5256339364
 30
0.0
 11
106.1646778989
 21
124.5256339364
 31
0.0
  0
LINE
  5
33F
330
32E
100
AcDbEntity
  8
0
  6
Continuous
 62
     7
370
     0
100
AcDbLine
 10
111.1646778989
 20
124.5256339364
 30
0.0
 11
131.1646778989
 21
124.5256339364
 31
0.0
  0
LINE
  5
340
330
32E
100
AcDbEntity
  8
0
  6
Continuous
 62
     7
370
     0
100
AcDbLine
 10
131.1646778989
 20
124.5256339364
 30
0.0
 11
136.1646778989
 21
124.5256339364
 31
0.0
  0
MTEXT
  5
341
330
32E
100
AcDbEntity
  8
0
  6
Continuous
 62
     7
370
     0
100
AcDbMText
 10
117.0919948451
 20
128.5983609763
 30
0.0
 40
3.5
 41
0.0
 71
     1
 72
     1
  1
20
  7
SLDTEXTSTYLE0
 73
     1
 44
1.0
  0
MTEXT
  5
342
330
32E
100
AcDbEntity
  8
0
  6
Continuous
 62
     7
370
     0
100
AcDbMText
 10
121.1646778989
 20
128.5983609763
 30
0.0
 40
3.5
 41
0.0
 71
     1
 72
     1
  1
st
  7
SLDTEXTSTYLE0
 73
     1
 44
1.0
  0
ENDBLK
  5
339
330
32E
100
AcDbEntity
  8
0
100
AcDbBlockEnd
  0
BLOCK
  5
34F
330
344
100
AcDbEntity
  8
0
100
AcDbBlockBegin
  2
*D26
 70
     1
 71
     0
 10
0.0
 20
0.0
 30
0.0
  3
*D26
  1

  0
INSERT
  5
351
330
344
100
AcDbEntity
  8
0
  6
Continuous
 62
     7
370
     0
100
AcDbBlockReference
  2
_Open30
 10
30.8757868777
 20
67.3123549495
 30
-23.674702381
 41
3.0
 42
3.0
 50
270.0
  0
INSERT
  5
352
330
344
100
AcDbEntity
  8
0
  6
Continuous
 62
     7
370
     0
100
AcDbBlockReference
  2
_Open30
 10
30.8757868777
 20
99.3123549495
 30
-23.674702381
 41
3.0
 42
3.0
 50
90.0
  0
LINE
  5
353
330
344
100
AcDbEntity
  8
0
  6
Continuous
 62
     7
370
     0
100
AcDbLine
 10
66.3646778989
 20
67.3123549495
 30
0.0
 11
29.8757868777
 21
67.3123549495
 31
0.0
  0
LINE
  5
354
330
344
100
AcDbEntity
  8
0
  6
Continuous
 62
     7
370
     0
100
AcDbLine
 10
66.3646778989
 20
99.3123549495
 30
0.0
 11
29.8757868777
 21
99.3123549495
 31
0.0
  0
LINE
  5
355
330
344
100
AcDbEntity
  8
0
  6
Continuous
 62
     7
370
     0
100
AcDbLine
 10
30.8757868777
 20
67.3123549495
 30
0.0
 11
30.8757868777
 21
99.3123549495
 31
0.0
  0
MTEXT
  5
356
330
344
100
AcDbEntity
  8
0
  6
Continuous
 62
     7
370
     0
100
AcDbMText
 10
26.8030598378
 20
81.2760134225
 30
0.0
 40
3.5
 41
0.0
 71
     1
 72
     1
  1
32
  7
SLDTEXTSTYLE0
 11
6.123031769111886E-17
 21
1.0
 31
0.0
 73
     1
 44
1.0
  0
ENDBLK
  5
350
330
344
100
AcDbEntity
  8
0
100
AcDbBlockEnd
  0
BLOCK
  5
363
330
358
100
AcDbEntity
  8
0
100
AcDbBlockBegin
  2
*D27
 70
     1
 71
     0
 10
0.0
 20
0.0
 30
0.0
  3
*D27
  1

  0
INSERT
  5
365
330
358
100
AcDbEntity
  8
0
  6
Continuous
 62
     7
370
     0
100
AcDbBlockReference
  2
_Open30
 10
24.9392280682
 20
103.3123549495
 30
-23.674702381
 41
3.0
 42
3.0
 50
90.0
  0
INSERT
  5
366
330
358
100
AcDbEntity
  8
0
  6
Continuous
 62
     7
370
     0
100
AcDbBlockReference
  2
_Open30
 10
24.9392280682
 20
63.3123549495
 30
-23.674702381
 41
3.0
 42
3.0
 50
270.0
  0
LINE
  5
367
330
358
100
AcDbEntity
  8
0
  6
Continuous
 62
     7
370
     0
100
AcDbLine
 10
39.7646778989
 20
103.3123549495
 30
0.0
 11
23.9392280682
 21
103.3123549495
 31
0.0
  0
LINE
  5
368
330
358
100
AcDbEntity
  8
0
  6
Continuous
 62
     7
370
     0
100
AcDbLine
 10
39.7646778989
 20
63.3123549495
 30
0.0
 11
23.9392280682
 21
63.3123549495
 31
0.0
  0
LINE
  5
369
330
358
100
AcDbEntity
  8
0
  6
Continuous
 62
     7
370
     0
100
AcDbLine
 10
24.9392280682
 20
103.3123549495
 30
0.0
 11
24.9392280682
 21
63.3123549495
 31
0.0
  0
MTEXT
  5
36A
330
358
100
AcDbEntity
  8
0
  6
Continuous
 62
     7
370
     0
100
AcDbMText
 10
20.8665010283
 20
81.2760134225
 30
0.0
 40
3.5
 41
0.0
 71
     1
 72
     1
  1
40
  7
SLDTEXTSTYLE0
 11
-3.491483361109382E-15
 21
1.0
 31
0.0
 73
     1
 44
1.0
  0
ENDBLK
  5
364
330
358
100
AcDbEntity
  8
0
100
AcDbBlockEnd
  0
BLOCK
  5
376
330
36C
100
AcDbEntity
  8
0
100
AcDbBlockBegin
  2
*D28
 70
     1
 71
     0
 10
0.0
 20
0.0
 30
0.0
  3
*D28
  1

  0
INSERT
  5
378
330
36C
100
AcDbEntity
  8
0
  6
Continuous
 62
     7
370
     0
100
AcDbBlockReference
  2
_Open30
 10
72.4646778989
 20
54.977005172
 30
-23.674702381
 41
3.0
 42
3.0
 50
180.0
  0
INSERT
  5
379
330
36C
100
AcDbEntity
  8
0
  6
Continuous
 62
     7
370
     0
100
AcDbBlockReference
  2
_Open30
 10
111.4646778989
 20
54.977005172
 30
-23.674702381
 41
3.0
 42
3.0
 50
0.0
  0
LINE
  5
37A
330
36C
100
AcDbEntity
  8
0
  6
Continuous
 62
     7
370
     0
100
AcDbLine
 10
72.4646778989
 20
61.2123549495
 30
0.0
 11
72.4646778989
 21
53.977005172
 31
0.0
  0
LINE
  5
37B
330
36C
100
AcDbEntity
  8
0
  6
Continuous
 62
     7
370
     0
100
AcDbLine
 10
111.4646778989
 20
62.6123549495
 30
0.0
 11
111.4646778989
 21
53.977005172
 31
0.0
  0
LINE
  5
37C
330
36C
100
AcDbEntity
  8
0
  6
Continuous
 62
     7
370
     0
100
AcDbLine
 10
72.4646778989
 20
54.977005172
 30
0.0
 11
111.4646778989
 21
54.977005172
 31
0.0
  0
MTEXT
  5
37D
330
36C
100
AcDbEntity
  8
0
  6
Continuous
 62
     7
370
     0
100
AcDbMText
 10
89.928336372
 20
59.0497322119
 30
0.0
 40
3.5
 41
0.0
 71
     1
 72
     1
  1
39
  7
SLDTEXTSTYLE0
 73
     1
 44
1.0
  0
ENDBLK
  5
377
330
36C
100
AcDbEntity
  8
0
100
AcDbBlockEnd
  0
BLOCK
  5
37F
330
37E
100
AcDbEntity
  8
0
100
AcDbBlockBegin
  2
SW_NOTE_2
 70
     0
 71
     0
 10
0.0
 20
0.0
 30
0.0
  3
SW_NOTE_2
  1

  0
MTEXT
  5
381
330
37E
100
AcDbEntity
  8
0
  6
Continuous
 62
     7
370
     0
100
AcDbMText
 10
-0.0003990089
 20
8.5734066025
 30
12.5
 40
3.5
 41
0.0
 71
     1
 72
     1
  1
有接点オートスイッチ
  7
SLDTEXTSTYLE0
 73
     1
 44
1.0
  0
MTEXT
  5
382
330
37E
100
AcDbEntity
  8
0
  6
Continuous
 62
     7
370
     0
100
AcDbMText
 10
-0.0003990089
 20
4.0734067962
 30
12.5
 40
3.5
 41
0.0
 71
     1
 72
     1
  1
　　　　　　(別売り)
  7
SLDTEXTSTYLE0
 73
     1
 44
1.0
  0
ENDBLK
  5
380
330
37E
100
AcDbEntity
  8
0
100
AcDbBlockEnd
  0
BLOCK
  5
388
330
387
100
AcDbEntity
  8
0
100
AcDbBlockBegin
  2
SW_CENTERMARKSYMBOL_8
 70
     0
 71
     0
 10
0.0
 20
0.0
 30
0.0
  3
SW_CENTERMARKSYMBOL_8
  1

  0
LINE
  5
38A
330
387
100
AcDbEntity
  8
0
  6
Continuous
 62
     7
370
     0
100
AcDbLine
 10
0.0
 20
0.0
 30
0.0
 11
0.0
 21
2.4999994785
 31
0.0
  0
LINE
  5
38B
330
387
100
AcDbEntity
  8
0
  6
Continuous
 62
     7
370
     0
100
AcDbLine
 10
0.0
 20
0.0
 30
0.0
 11
-2.5000004098
 21
0.0
 31
0.0
  0
LINE
  5
38C
330
387
100
AcDbEntity
  8
0
  6
Continuous
 62
     7
370
     0
100
AcDbLine
 10
0.0
 20
0.0
 30
0.0
 11
0.0
 21
-2.5000004098
 31
0.0
  0
LINE
  5
38D
330
387
100
AcDbEntity
  8
0
  6
Continuous
 62
     7
370
     0
100
AcDbLine
 10
0.0
 20
0.0
 30
0.0
 11
2.5000004098
 21
0.0
 31
0.0
  0
LINE
  5
38E
330
387
100
AcDbEntity
  8
0
  6
Continuous
 62
     7
370
     0
100
AcDbLine
 10
0.0
 20
4.9999989569
 30
0.0
 11
0.0
 21
5.099998787
 31
0.0
  0
LINE
  5
38F
330
387
100
AcDbEntity
  8
0
  6
Continuous
 62
     7
370
     0
100
AcDbLine
 10
-4.9999998882
 20
0.0
 30
0.0
 11
-5.100000184
 21
0.0
 31
0.0
  0
LINE
  5
390
330
387
100
AcDbEntity
  8
0
  6
Continuous
 62
     7
370
     0
100
AcDbLine
 10
0.0
 20
-5.0000008196
 30
0.0
 11
0.0
 21
-5.1000006497
 31
0.0
  0
LINE
  5
391
330
387
100
AcDbEntity
  8
0
  6
Continuous
 62
     7
370
     0
100
AcDbLine
 10
4.9999998882
 20
0.0
 30
0.0
 11
5.0999997184
 21
0.0
 31
0.0
  0
ENDBLK
  5
389
330
387
100
AcDbEntity
  8
0
100
AcDbBlockEnd
  0
BLOCK
  5
394
330
393
100
AcDbEntity
  8
0
100
AcDbBlockBegin
  2
SW_CENTERMARKSYMBOL_9
 70
     0
 71
     0
 10
0.0
 20
0.0
 30
0.0
  3
SW_CENTERMARKSYMBOL_9
  1

  0
LINE
  5
396
330
393
100
AcDbEntity
  8
0
  6
Continuous
 62
     7
370
     0
100
AcDbLine
 10
0.0
 20
0.0
 30
0.0
 11
0.0
 21
2.5000004098
 31
0.0
  0
LINE
  5
397
330
393
100
AcDbEntity
  8
0
  6
Continuous
 62
     7
370
     0
100
AcDbLine
 10
0.0
 20
0.0
 30
0.0
 11
-2.5000004098
 21
0.0
 31
0.0
  0
LINE
  5
398
330
393
100
AcDbEntity
  8
0
  6
Continuous
 62
     7
370
     0
100
AcDbLine
 10
0.0
 20
0.0
 30
0.0
 11
0.0
 21
-2.4999994785
 31
0.0
  0
LINE
  5
399
330
393
100
AcDbEntity
  8
0
  6
Continuous
 62
     7
370
     0
100
AcDbLine
 10
0.0
 20
0.0
 30
0.0
 11
2.5000004098
 21
0.0
 31
0.0
  0
LINE
  5
39A
330
393
100
AcDbEntity
  8
0
  6
Continuous
 62
     7
370
     0
100
AcDbLine
 10
0.0
 20
5.0000008196
 30
0.0
 11
0.0
 21
5.1000006497
 31
0.0
  0
LINE
  5
39B
330
393
100
AcDbEntity
  8
0
  6
Continuous
 62
     7
370
     0
100
AcDbLine
 10
-4.9999998882
 20
0.0
 30
0.0
 11
-5.100000184
 21
0.0
 31
0.0
  0
LINE
  5
39C
330
393
100
AcDbEntity
  8
0
  6
Continuous
 62
     7
370
     0
100
AcDbLine
 10
0.0
 20
-4.9999989569
 30
0.0
 11
0.0
 21
-5.099998787
 31
0.0
  0
LINE
  5
39D
330
393
100
AcDbEntity
  8
0
  6
Continuous
 62
     7
370
     0
100
AcDbLine
 10
4.9999998882
 20
0.0
 30
0.0
 11
5.0999997184
 21
0.0
 31
0.0
  0
ENDBLK
  5
395
330
393
100
AcDbEntity
  8
0
100
AcDbBlockEnd
  0
ENDSEC
  0
SECTION
  2
ENTITIES
  0
LINE
  5
2F
330
1F
100
AcDbEntity
  8
0
  6
Continuous
 62
     7
370
     0
100
AcDbLine
 10
20.2604743903
 20
285.0
 30
0.0
 11
196.7604743903
 21
285.0
 31
0.0
  0
LINE
  5
30
330
1F
100
AcDbEntity
  8
0
  6
Continuous
 62
     7
370
     0
100
AcDbLine
 10
20.2604743903
 20
285.0
 30
0.0
 11
20.2604743903
 21
10.0
 31
0.0
  0
LINE
  5
31
330
1F
100
AcDbEntity
  8
0
  6
Continuous
 62
     7
370
     0
100
AcDbLine
 10
20.2604743903
 20
10.0
 30
0.0
 11
196.7604743903
 21
10.0
 31
0.0
  0
LINE
  5
32
330
1F
100
AcDbEntity
  8
0
  6
Continuous
 62
     7
370
     0
100
AcDbLine
 10
196.7604743903
 20
285.0
 30
0.0
 11
196.7604743903
 21
10.0
 31
0.0
  0
LINE
  5
33
330
1F
100
AcDbEntity
  8
0
  6
Continuous
 62
     7
370
     0
100
AcDbLine
 10
127.0104743903
 20
50.75
 30
0.0
 11
196.7604743903
 21
50.75
 31
0.0
  0
LINE
  5
34
330
1F
100
AcDbEntity
  8
0
  6
Continuous
 62
     7
370
     0
100
AcDbLine
 10
127.0104743903
 20
50.75
 30
0.0
 11
127.0104743903
 21
10.0
 31
0.0
  0
LINE
  5
35
330
1F
100
AcDbEntity
  8
0
  6
Continuous
 62
     7
370
     0
100
AcDbLine
 10
127.0104743903
 20
22.75
 30
0.0
 11
196.7604743903
 21
22.75
 31
0.0
  0
LINE
  5
36
330
1F
100
AcDbEntity
  8
0
  6
Continuous
 62
     7
370
     0
100
AcDbLine
 10
127.0104743903
 20
36.75
 30
0.0
 11
196.7604743903
 21
36.75
 31
0.0
  0
MTEXT
  5
38
330
1F
100
AcDbEntity
  8
0
  6
Continuous
 62
     7
370
     0
100
AcDbMText
 10
151.238931762
 20
29.8861652342
 30
0.0
 40
4.2333333333
 41
0.0
 71
     1
 72
     1
  1
NCON-M20S
  7
SLDTEXTSTYLE0
 73
     1
 44
1.0
  0
INSERT
  5
3E
330
1F
100
AcDbEntity
  8
0
  6
Continuous
 62
     7
370
     0
100
AcDbBlockReference
  2
SW_NOTE_0
 10
137.3533091157
 20
43.9215916445
 30
0.0
  0
MTEXT
  5
3F
330
1F
100
AcDbEntity
  8
0
  6
Continuous
 62
     7
370
     0
100
AcDbMText
 10
155.5763859519
 20
16.2918259049
 30
0.0
 40
4.2333333333
 41
0.0
 71
     1
 72
     1
  1
131016
  7
SLDTEXTSTYLE0
 73
     1
 44
1.0
  0
LINE
  5
40
330
1F
100
AcDbEntity
  8
0
  6
Continuous
 62
     7
370
     0
100
AcDbLine
 10
101.4646774221
 20
173.1727164879
 30
0.0
 11
103.4646777499
 21
173.1727164879
 31
0.0
  0
LINE
  5
41
330
1F
100
AcDbEntity
  8
0
  6
Continuous
 62
     7
370
     0
100
AcDbLine
 10
103.4646777499
 20
181.1727159366
 30
0.0
 11
101.4646774221
 21
181.1727159366
 31
0.0
  0
LINE
  5
42
330
1F
100
AcDbEntity
  8
0
  6
Continuous
 62
     7
370
     0
100
AcDbLine
 10
101.4646774221
 20
179.1092068598
 30
0.0
 11
103.4646777499
 21
179.1092068598
 31
0.0
  0
LINE
  5
43
330
1F
100
AcDbEntity
  8
0
  6
Continuous
 62
     7
370
     0
100
AcDbLine
 10
101.4646774221
 20
175.2362237021
 30
0.0
 11
103.4646777499
 21
175.2362237021
 31
0.0
  0
LINE
  5
44
330
1F
100
AcDbEntity
  8
0
  6
Continuous
 62
     7
370
     0
100
AcDbLine
 10
101.1646778989
 20
187.67271556
 30
0.0
 11
101.1646778989
 21
189.67271556
 31
0.0
  0
LINE
  5
45
330
1F
100
AcDbEntity
  8
0
  6
Continuous
 62
     7
370
     0
100
AcDbLine
 10
101.1646778989
 20
189.67271556
 30
0.0
 11
101.4646778989
 21
189.37271556
 31
0.0
  0
LINE
  5
46
330
1F
100
AcDbEntity
  8
0
  6
Continuous
 62
     7
370
     0
100
AcDbLine
 10
101.4646778989
 20
189.37271556
 30
0.0
 11
101.4646778989
 21
187.67271556
 31
0.0
  0
LINE
  5
47
330
1F
100
AcDbEntity
  8
0
  6
Continuous
 62
     7
370
     0
100
AcDbLine
 10
101.1646778989
 20
187.67271556
 30
0.0
 11
101.4646778989
 21
187.67271556
 31
0.0
  0
LINE
  5
48
330
1F
100
AcDbEntity
  8
0
  6
Continuous
 62
     7
370
     0
100
AcDbLine
 10
101.1646778989
 20
187.67271556
 30
0.0
 11
40.7646778989
 21
187.67271556
 31
0.0
  0
LINE
  5
49
330
1F
100
AcDbEntity
  8
0
  6
Continuous
 62
     7
370
     0
100
AcDbLine
 10
40.7646778989
 20
189.67271556
 30
0.0
 11
40.7646778989
 21
187.67271556
 31
0.0
  0
LINE
  5
4A
330
1F
100
AcDbEntity
  8
0
  6
Continuous
 62
     7
370
     0
100
AcDbLine
 10
40.7646778989
 20
189.67271556
 30
0.0
 11
70.8033529173
 21
189.6727145359
 31
0.0
  0
ARC
  5
4B
330
1F
100
AcDbEntity
  8
0
  6
Continuous
 62
     7
370
     0
100
AcDbCircle
 10
72.4646777909
 20
199.7214662352
 30
0.0
 40
10.18515640770923
100
AcDbArc
 50
260.6124050011
 51
279.387594999
  0
LINE
  5
4C
330
1F
100
AcDbEntity
  8
0
  6
Continuous
 62
     7
370
     0
100
AcDbLine
 10
74.1260026644
 20
189.6727145359
 30
0.0
 11
101.1646778989
 21
189.67271556
 31
0.0
  0
LINE
  5
4D
330
1F
100
AcDbEntity
  8
0
  6
Continuous
 62
     7
370
     0
100
AcDbLine
 10
40.7646778989
 20
187.67271556
 30
0.0
 11
40.7646778989
 21
166.67271556
 31
0.0
  0
LINE
  5
4E
330
1F
100
AcDbEntity
  8
0
  6
Continuous
 62
     7
370
     0
100
AcDbLine
 10
101.1646778989
 20
166.67271556
 30
0.0
 11
101.1646778989
 21
187.67271556
 31
0.0
  0
LINE
  5
4F
330
1F
100
AcDbEntity
  8
0
  6
Continuous
 62
     7
370
     0
100
AcDbLine
 10
40.7646778989
 20
166.67271556
 30
0.0
 11
101.1646778989
 21
166.67271556
 31
0.0
  0
CIRCLE
  5
50
330
1F
100
AcDbEntity
  8
0
  6
Continuous
 62
     7
370
     0
100
AcDbCircle
 10
91.4646778989
 20
177.17271556
 30
0.0
 40
2.450000000000003
  0
CIRCLE
  5
51
330
1F
100
AcDbEntity
  8
0
  6
Continuous
 62
     7
370
     0
100
AcDbCircle
 10
50.4646778989
 20
177.17271556
 30
0.0
 40
2.45000000000001
  0
LINE
  5
52
330
1F
100
AcDbEntity
  8
0
  6
Continuous
 62
     7
370
     0
100
AcDbLine
 10
40.7646778989
 20
166.67271556
 30
0.0
 11
40.7646778989
 21
164.67271556
 31
0.0
  0
LINE
  5
53
330
1F
100
AcDbEntity
  8
0
  6
Continuous
 62
     7
370
     0
100
AcDbLine
 10
101.1646778989
 20
164.67271556
 30
0.0
 11
101.1646778989
 21
166.67271556
 31
0.0
  0
LINE
  5
54
330
1F
100
AcDbEntity
  8
0
  6
Continuous
 62
     7
370
     0
100
AcDbLine
 10
101.1646778989
 20
164.67271556
 30
0.0
 11
74.1260026644
 21
164.6727150947
 31
0.0
  0
ARC
  5
55
330
1F
100
AcDbEntity
  8
0
  6
Continuous
 62
     7
370
     0
100
AcDbCircle
 10
72.4646777909
 20
154.6241632292
 30
0.0
 40
10.18495925020567
100
AcDbArc
 50
80.6122216349
 51
99.3877783651
  0
LINE
  5
56
330
1F
100
AcDbEntity
  8
0
  6
Continuous
 62
     7
370
     0
100
AcDbLine
 10
70.8033529173
 20
164.6727150947
 30
0.0
 11
40.7646778989
 21
164.67271556
 31
0.0
  0
LINE
  5
57
330
1F
100
AcDbEntity
  8
0
  6
Continuous
 62
     7
370
     0
100
AcDbLine
 10
101.1646778989
 20
166.67271556
 30
0.0
 11
101.4646778989
 21
166.67271556
 31
0.0
  0
LINE
  5
58
330
1F
100
AcDbEntity
  8
0
  6
Continuous
 62
     7
370
     0
100
AcDbLine
 10
101.4646778989
 20
166.67271556
 30
0.0
 11
101.4646778989
 21
164.97271556
 31
0.0
  0
LINE
  5
59
330
1F
100
AcDbEntity
  8
0
  6
Continuous
 62
     7
370
     0
100
AcDbLine
 10
101.1646778989
 20
164.67271556
 30
0.0
 11
101.4646778989
 21
164.97271556
 31
0.0
  0
LINE
  5
5A
330
1F
100
AcDbEntity
  8
0
  6
Continuous
 62
     7
370
     0
100
AcDbLine
 10
101.4646778989
 20
187.67271556
 30
0.0
 11
101.4646778989
 21
166.67271556
 31
0.0
  0
CIRCLE
  5
5B
330
1F
100
AcDbEntity
  8
0
  6
Continuous
 62
     7
370
     0
100
AcDbCircle
 10
91.4646778989
 20
177.17271556
 30
0.0
 40
2.150000000000006
  0
CIRCLE
  5
5C
330
1F
100
AcDbEntity
  8
0
  6
Continuous
 62
     7
370
     0
100
AcDbCircle
 10
50.4646778989
 20
177.17271556
 30
0.0
 40
2.150000000000006
  0
LINE
  5
5D
330
1F
100
AcDbEntity
  8
0
  6
Continuous
 62
     7
370
     0
100
AcDbLine
 10
40.7646778989
 20
187.67271556
 30
0.0
 11
40.4646778989
 21
187.67271556
 31
0.0
  0
LINE
  5
5E
330
1F
100
AcDbEntity
  8
0
  6
Continuous
 62
     7
370
     0
100
AcDbLine
 10
40.4646778989
 20
187.67271556
 30
0.0
 11
40.4646778989
 21
189.37271556
 31
0.0
  0
LINE
  5
5F
330
1F
100
AcDbEntity
  8
0
  6
Continuous
 62
     7
370
     0
100
AcDbLine
 10
40.7646778989
 20
189.67271556
 30
0.0
 11
40.4646778989
 21
189.37271556
 31
0.0
  0
LINE
  5
60
330
1F
100
AcDbEntity
  8
0
  6
Continuous
 62
     7
370
     0
100
AcDbLine
 10
40.4646778989
 20
164.97271556
 30
0.0
 11
40.4646778989
 21
166.67271556
 31
0.0
  0
LINE
  5
61
330
1F
100
AcDbEntity
  8
0
  6
Continuous
 62
     7
370
     0
100
AcDbLine
 10
40.7646778989
 20
166.67271556
 30
0.0
 11
40.4646778989
 21
166.67271556
 31
0.0
  0
LINE
  5
62
330
1F
100
AcDbEntity
  8
0
  6
Continuous
 62
     7
370
     0
100
AcDbLine
 10
40.4646778989
 20
164.97271556
 30
0.0
 11
40.7646778989
 21
164.67271556
 31
0.0
  0
LINE
  5
63
330
1F
100
AcDbEntity
  8
0
  6
Continuous
 62
     7
370
     0
100
AcDbLine
 10
40.4646778989
 20
166.67271556
 30
0.0
 11
40.4646778989
 21
187.67271556
 31
0.0
  0
LINE
  5
64
330
1F
100
AcDbEntity
  8
0
  6
Continuous
 62
     7
370
     0
100
AcDbLine
 10
69.8646778989
 20
189.67271556
 30
0.0
 11
75.0646778989
 21
189.67271556
 31
0.0
  0
LINE
  5
65
330
1F
100
AcDbEntity
  8
0
  6
Continuous
 62
     7
370
     0
100
AcDbLine
 10
75.0646778989
 20
164.67271556
 30
0.0
 11
69.8646778989
 21
164.67271556
 31
0.0
  0
CIRCLE
  5
66
330
1F
100
AcDbEntity
  8
0
  6
Continuous
 62
     7
370
     0
100
AcDbCircle
 10
91.4646778989
 20
177.17271556
 30
0.0
 40
0.7499999999999858
  0
CIRCLE
  5
67
330
1F
100
AcDbEntity
  8
0
  6
Continuous
 62
     7
370
     0
100
AcDbCircle
 10
50.4646778989
 20
177.17271556
 30
0.0
 40
0.75
  0
LINE
  5
68
330
1F
100
AcDbEntity
  8
0
  6
Continuous
 62
     7
370
     0
100
AcDbLine
 10
111.1646777082
 20
165.1727151766
 30
0.0
 11
111.4646790612
 21
165.4727155983
 31
0.0
  0
LINE
  5
69
330
1F
100
AcDbEntity
  8
0
  6
Continuous
 62
     7
370
     0
100
AcDbLine
 10
111.1646777082
 20
165.1727151766
 30
0.0
 11
103.7646772403
 21
165.1727151766
 31
0.0
  0
LINE
  5
6A
330
1F
100
AcDbEntity
  8
0
  6
Continuous
 62
     7
370
     0
100
AcDbLine
 10
103.4646777499
 20
165.4727155983
 30
0.0
 11
103.7646772403
 21
165.1727151766
 31
0.0
  0
LINE
  5
6B
330
1F
100
AcDbEntity
  8
0
  6
Continuous
 62
     7
370
     0
100
AcDbLine
 10
103.4646777499
 20
165.4727155983
 30
0.0
 11
103.4646777499
 21
166.8727160141
 31
0.0
  0
LINE
  5
6C
330
1F
100
AcDbEntity
  8
0
  6
Continuous
 62
     7
370
     0
100
AcDbLine
 10
103.7646772403
 20
167.1727155045
 30
0.0
 11
103.4646777499
 21
166.8727160141
 31
0.0
  0
LINE
  5
6D
330
1F
100
AcDbEntity
  8
0
  6
Continuous
 62
     7
370
     0
100
AcDbLine
 10
103.7646772403
 20
167.1727155045
 30
0.0
 11
111.1646777082
 21
167.1727155045
 31
0.0
  0
LINE
  5
6E
330
1F
100
AcDbEntity
  8
0
  6
Continuous
 62
     7
370
     0
100
AcDbLine
 10
111.4646790612
 20
166.8727160141
 30
0.0
 11
111.1646777082
 21
167.1727155045
 31
0.0
  0
LINE
  5
6F
330
1F
100
AcDbEntity
  8
0
  6
Continuous
 62
     7
370
     0
100
AcDbLine
 10
111.4646790612
 20
166.8727160141
 30
0.0
 11
111.4646790612
 21
165.4727155983
 31
0.0
  0
LINE
  5
70
330
1F
100
AcDbEntity
  8
0
  6
Continuous
 62
     7
370
     0
100
AcDbLine
 10
111.1646777082
 20
187.1727169201
 30
0.0
 11
111.4646790612
 21
187.4727145478
 31
0.0
  0
LINE
  5
71
330
1F
100
AcDbEntity
  8
0
  6
Continuous
 62
     7
370
     0
100
AcDbLine
 10
111.1646777082
 20
187.1727169201
 30
0.0
 11
103.7646772403
 21
187.1727169201
 31
0.0
  0
LINE
  5
72
330
1F
100
AcDbEntity
  8
0
  6
Continuous
 62
     7
370
     0
100
AcDbLine
 10
103.4646777499
 20
187.4727145478
 30
0.0
 11
103.7646772403
 21
187.1727169201
 31
0.0
  0
LINE
  5
73
330
1F
100
AcDbEntity
  8
0
  6
Continuous
 62
     7
370
     0
100
AcDbLine
 10
103.4646777499
 20
187.4727145478
 30
0.0
 11
103.4646777499
 21
188.8727158949
 31
0.0
  0
LINE
  5
74
330
1F
100
AcDbEntity
  8
0
  6
Continuous
 62
     7
370
     0
100
AcDbLine
 10
103.7646772403
 20
189.1727172479
 30
0.0
 11
103.4646777499
 21
188.8727158949
 31
0.0
  0
LINE
  5
75
330
1F
100
AcDbEntity
  8
0
  6
Continuous
 62
     7
370
     0
100
AcDbLine
 10
103.7646772403
 20
189.1727172479
 30
0.0
 11
111.1646777082
 21
189.1727172479
 31
0.0
  0
LINE
  5
76
330
1F
100
AcDbEntity
  8
0
  6
Continuous
 62
     7
370
     0
100
AcDbLine
 10
111.4646790612
 20
188.8727158949
 30
0.0
 11
111.1646777082
 21
189.1727172479
 31
0.0
  0
LINE
  5
77
330
1F
100
AcDbEntity
  8
0
  6
Continuous
 62
     7
370
     0
100
AcDbLine
 10
111.4646790612
 20
188.8727158949
 30
0.0
 11
111.4646790612
 21
187.4727145478
 31
0.0
  0
LINE
  5
78
330
1F
100
AcDbEntity
  8
0
  6
Continuous
 62
     7
370
     0
100
AcDbLine
 10
111.4646790612
 20
187.4727145478
 30
0.0
 11
111.4646790612
 21
166.8727160141
 31
0.0
  0
LINE
  5
79
330
1F
100
AcDbEntity
  8
0
  6
Continuous
 62
     7
370
     0
100
AcDbLine
 10
111.1646777082
 20
167.1727155045
 30
0.0
 11
111.1646777082
 21
187.1727169201
 31
0.0
  0
LINE
  5
7A
330
1F
100
AcDbEntity
  8
0
  6
Continuous
 62
     7
370
     0
100
AcDbLine
 10
103.7646772403
 20
187.1727169201
 30
0.0
 11
103.7646772403
 21
167.1727155045
 31
0.0
  0
LINE
  5
7B
330
1F
100
AcDbEntity
  8
0
  6
Continuous
 62
     7
370
     0
100
AcDbLine
 10
103.4646777499
 20
166.8727160141
 30
0.0
 11
103.4646777499
 21
187.4727145478
 31
0.0
  0
LINE
  5
7C
330
1F
100
AcDbEntity
  8
0
  6
Continuous
 62
     7
370
     0
100
AcDbLine
 10
49.9646778989
 20
177.7317325543
 30
0.0
 11
49.9646778989
 21
176.6136985656
 31
0.0
  0
LINE
  5
7D
330
1F
100
AcDbEntity
  8
0
  6
Continuous
 62
     7
370
     0
100
AcDbLine
 10
50.4646778989
 20
176.42271556
 30
0.0
 11
50.4646778989
 21
177.92271556
 31
0.0
  0
LINE
  5
7E
330
1F
100
AcDbEntity
  8
0
  6
Continuous
 62
     7
370
     0
100
AcDbLine
 10
50.9646778989
 20
176.6136985656
 30
0.0
 11
50.9646778989
 21
177.7317325543
 31
0.0
  0
DIMENSION
  5
7F
330
1F
100
AcDbEntity
  8
0
  6
Continuous
 62
     7
370
     0
100
AcDbDimension
  2
*D2
 10
111.4646778989
 20
191.3919772876
 30
0.0
 11
107.4646778989
 21
191.3919772876
 31
0.0
 70
   160
 71
     1
 42
8.0
  3
SLDDIMSTYLE0
100
AcDbAlignedDimension
 13
103.4646778989
 23
188.87271556
 33
0.0
 14
111.4646778989
 24
188.87271556
 34
0.0
 50
0.0
100
AcDbRotatedDimension
1001
ACAD
1000
DSTYLE
1002
{
1070
    77
1070
     3
1070
   143
1040
0.0393700787
1070
    41
1040
3.0
1070
    44
1040
1.0
1070
    42
1040
1.0
1070
   147
1040
1.524
1070
    73
1070
     0
1070
    74
1070
     0
1070
   140
1040
3.5
1070
   284
1070
    12
1070
    78
1070
    12
1002
}
  0
DIMENSION
  5
9C
330
1F
100
AcDbEntity
  8
0
  6
Continuous
 62
     7
370
     0
100
AcDbDimension
  2
*D4
 10
111.4646778989
 20
198.8143778185
 30
0.0
 11
106.4646778989
 21
198.8143778185
 31
0.0
 70
   160
 71
     1
 42
10.0
  3
SLDDIMSTYLE0
100
AcDbAlignedDimension
 13
101.4646778989
 23
187.67271556
 33
0.0
 14
111.4646778989
 24
188.87271556
 34
0.0
100
AcDbRotatedDimension
1001
ACAD
1000
DSTYLE
1002
{
1070
    77
1070
     3
1070
   143
1040
0.0393700787
1070
    41
1040
3.0
1070
    44
1040
1.0
1070
    42
1040
1.0
1070
   147
1040
1.524
1070
    73
1070
     0
1070
    74
1070
     0
1070
   140
1040
3.5
1070
   284
1070
    12
1070
    78
1070
    12
1002
}
  0
DIMENSION
  5
AF
330
1F
100
AcDbEntity
  8
0
  6
Continuous
 62
     7
370
     0
100
AcDbDimension
  2
*D5
 10
101.4646778989
 20
191.3919772876
 30
0.0
 11
96.4646778989
 21
191.3919772876
 31
0.0
 70
   160
 71
     1
 42
10.0
  3
SLDDIMSTYLE0
100
AcDbAlignedDimension
 13
91.4646778989
 23
181.82271556
 33
0.0
 14
101.4646778989
 24
187.67271556
 34
0.0
100
AcDbRotatedDimension
1001
ACAD
1000
DSTYLE
1002
{
1070
    77
1070
     3
1070
   143
1040
0.0393700787
1070
    41
1040
3.0
1070
    44
1040
1.0
1070
    42
1040
1.0
1070
   147
1040
1.524
1070
    73
1070
     0
1070
    74
1070
     0
1070
   140
1040
3.5
1070
   284
1070
    12
1070
    78
1070
    12
1002
}
  0
DIMENSION
  5
C2
330
1F
100
AcDbEntity
  8
0
  6
Continuous
 62
     7
370
     0
100
AcDbDimension
  2
*D6
 10
91.4646778989
 20
191.3919772876
 30
0.0
 11
70.9646778989
 21
191.3919772876
 31
0.0
 70
   160
 71
     1
 42
41.0
  3
SLDDIMSTYLE0
100
AcDbAlignedDimension
 13
50.4646778989
 23
181.82271556
 33
0.0
 14
91.4646778989
 24
181.82271556
 34
0.0
100
AcDbRotatedDimension
1001
ACAD
1000
DSTYLE
1002
{
1070
    77
1070
     3
1070
   143
1040
0.0393700787
1070
    41
1040
3.0
1070
    44
1040
1.0
1070
    42
1040
1.0
1070
   147
1040
1.524
1070
    73
1070
     0
1070
    74
1070
     0
1070
   140
1040
3.5
1070
   284
1070
    12
1070
    78
1070
    12
1002
}
  0
DIMENSION
  5
D5
330
1F
100
AcDbEntity
  8
0
  6
Continuous
 62
     7
370
     0
100
AcDbDimension
  2
*D7
 10
50.4646778989
 20
191.3919772876
 30
0.0
 11
45.4646778989
 21
191.3919772876
 31
0.0
 70
   160
 71
     1
 42
10.0
  3
SLDDIMSTYLE0
100
AcDbAlignedDimension
 13
40.4646778989
 23
187.67271556
 33
0.0
 14
50.4646778989
 24
181.82271556
 34
0.0
100
AcDbRotatedDimension
1001
ACAD
1000
DSTYLE
1002
{
1070
    77
1070
     3
1070
   143
1040
0.0393700787
1070
    41
1040
3.0
1070
    44
1040
1.0
1070
    42
1040
1.0
1070
   147
1040
1.524
1070
    73
1070
     0
1070
    74
1070
     0
1070
   140
1040
3.5
1070
   284
1070
    12
1070
    78
1070
    12
1002
}
  0
DIMENSION
  5
E8
330
1F
100
AcDbEntity
  8
0
  6
Continuous
 62
     7
370
     0
100
AcDbDimension
  2
*D8
 10
40.4646778989
 20
198.8143778185
 30
0.0
 11
70.9646778989
 21
198.8143778185
 31
0.0
 70
   160
 71
     1
 42
61.0
  3
SLDDIMSTYLE0
100
AcDbAlignedDimension
 13
101.4646778989
 23
184.87271556
 33
0.0
 14
40.4646778989
 24
187.67271556
 34
0.0
100
AcDbRotatedDimension
1001
ACAD
1000
DSTYLE
1002
{
1070
    77
1070
     3
1070
   143
1040
0.0393700787
1070
    41
1040
3.0
1070
    44
1040
1.0
1070
    42
1040
1.0
1070
   147
1040
1.524
1070
    73
1070
     0
1070
    74
1070
     0
1070
   140
1040
3.5
1070
   284
1070
    12
1070
    78
1070
    12
1002
}
  0
DIMENSION
  5
FB
330
1F
100
AcDbEntity
  8
0
  6
Continuous
 62
     7
370
     0
100
AcDbDimension
  2
*D9
 10
111.4646778989
 20
205.1543449387
 30
0.0
 11
75.9646778989
 21
205.1543449387
 31
0.0
 70
   160
 71
     1
 42
71.0
  3
SLDDIMSTYLE0
100
AcDbAlignedDimension
 13
40.4646778989
 23
187.67271556
 33
0.0
 14
111.4646778989
 24
188.87271556
 34
0.0
100
AcDbRotatedDimension
1001
ACAD
1000
DSTYLE
1002
{
1070
    77
1070
     3
1070
   143
1040
0.0393700787
1070
    41
1040
3.0
1070
    44
1040
1.0
1070
    42
1040
1.0
1070
   147
1040
1.524
1070
    73
1070
     0
1070
    74
1070
     0
1070
   140
1040
3.5
1070
   284
1070
    12
1070
    78
1070
    12
1002
}
  0
DIMENSION
  5
10E
330
1F
100
AcDbEntity
  8
0
  6
Continuous
 62
     7
370
     0
100
AcDbDimension
  2
*D10
 10
36.643098866
 20
177.17271556
 30
0.0
 11
36.643098866
 21
170.92271556
 31
0.0
 70
   160
 71
     1
 42
12.5
  3
SLDDIMSTYLE0
100
AcDbAlignedDimension
 13
40.7646778989
 23
164.67271556
 33
0.0
 14
45.8146778989
 24
177.17271556
 34
0.0
 50
90.0
100
AcDbRotatedDimension
1001
ACAD
1000
DSTYLE
1002
{
1070
    77
1070
     3
1070
   143
1040
0.0393700787
1070
    41
1040
3.0
1070
    44
1040
1.0
1070
    42
1040
1.0
1070
   147
1040
1.524
1070
    73
1070
     0
1070
    74
1070
     0
1070
   140
1040
3.5
1070
   284
1070
    12
1070
    78
1070
    12
1002
}
  0
DIMENSION
  5
122
330
1F
100
AcDbEntity
  8
0
  6
Continuous
 62
     7
370
     0
100
AcDbDimension
  2
*D11
 10
27.8289982355
 20
189.67271556
 30
0.0
 11
27.8289982355
 21
177.17271556
 31
0.0
 70
   160
 71
     1
 42
25.0
  3
SLDDIMSTYLE0
100
AcDbAlignedDimension
 13
40.7646778989
 23
164.67271556
 33
0.0
 14
40.7646778989
 24
189.67271556
 34
0.0
 50
90.0
100
AcDbRotatedDimension
1001
ACAD
1000
DSTYLE
1002
{
1070
    77
1070
     3
1070
   143
1040
0.0393700787
1070
    41
1040
3.0
1070
    44
1040
1.0
1070
    42
1040
1.0
1070
   147
1040
1.524
1070
    73
1070
     0
1070
    74
1070
     0
1070
   140
1040
3.5
1070
   284
1070
    12
1070
    78
1070
    12
1002
}
  0
INSERT
  5
13B
102
{ACAD_REACTORS
330
13D
102
}
330
1F
100
AcDbEntity
  8
0
  6
Continuous
 62
     7
370
     0
100
AcDbBlockReference
  2
SW_NOTE_1
 10
59.5001299324
 20
153.5578559721
 30
0.0
  0
LEADER
  5
13D
330
1F
100
AcDbEntity
  8
0
  6
Continuous
 62
     7
370
     0
100
AcDbLeader
  3
SLDDIMSTYLE1
 73
     2
 76
     3
 10
89.771458258
 20
175.4019792025
 30
0.0
 10
76.2950478445
 20
153.5578559721
 30
0.0
 10
59.5001299324
 20
153.5578559721
 30
0.0
340
13B
  0
INSERT
  5
149
330
1F
100
AcDbEntity
  8
0
  6
Continuous
 62
     7
370
     0
100
AcDbBlockReference
  2
SW_CENTERMARKSYMBOL_0
 10
50.4646778989
 20
177.17271556
 30
0.0
  0
INSERT
  5
155
330
1F
100
AcDbEntity
  8
0
  6
Continuous
 62
     7
370
     0
100
AcDbBlockReference
  2
SW_CENTERMARKSYMBOL_1
 10
91.4646778989
 20
177.17271556
 30
0.0
  0
LINE
  5
156
330
1F
100
AcDbEntity
  8
0
  6
CENTERX2
 62
     7
370
     0
100
AcDbLine
 10
38.4646778989
 20
177.17271556
 30
0.0
 11
103.4646778989
 21
177.17271556
 31
0.0
  0
LINE
  5
157
330
1F
100
AcDbEntity
  8
0
  6
Continuous
 62
     7
370
     0
100
AcDbLine
 10
180.9945986125
 20
166.67271556
 30
0.0
 11
180.9946000406
 21
166.8727160141
 31
0.0
  0
LINE
  5
158
330
1F
100
AcDbEntity
  8
0
  6
Continuous
 62
     7
370
     0
100
AcDbLine
 10
180.9946000406
 20
187.4727145478
 30
0.0
 11
180.9945986125
 21
187.67271556
 31
0.0
  0
LINE
  5
159
330
1F
100
AcDbEntity
  8
0
  6
Continuous
 62
     7
370
     0
100
AcDbLine
 10
180.9945986125
 20
187.67271556
 30
0.0
 11
181.2945986125
 21
187.67271556
 31
0.0
  0
LINE
  5
15A
330
1F
100
AcDbEntity
  8
0
  6
Continuous
 62
     7
370
     0
100
AcDbLine
 10
181.2945986125
 20
187.67271556
 30
0.0
 11
181.2945976684
 21
187.1727169201
 31
0.0
  0
LINE
  5
15B
330
1F
100
AcDbEntity
  8
0
  6
Continuous
 62
     7
370
     0
100
AcDbLine
 10
181.2945976684
 20
167.1727155045
 30
0.0
 11
181.2945986125
 21
166.67271556
 31
0.0
  0
LINE
  5
15C
330
1F
100
AcDbEntity
  8
0
  6
Continuous
 62
     7
370
     0
100
AcDbLine
 10
180.9945986125
 20
166.67271556
 30
0.0
 11
181.2945986125
 21
166.67271556
 31
0.0
  0
ARC
  5
15D
330
1F
100
AcDbEntity
  8
0
  6
Continuous
 62
     7
370
     0
100
AcDbCircle
 10
179.2945986125
 20
187.67271556
 30
0.0
 40
1.700000000000017
100
AcDbArc
 50
0.0
 51
90.0
  0
LINE
  5
15E
330
1F
100
AcDbEntity
  8
0
  6
Continuous
 62
     7
370
     0
100
AcDbLine
 10
179.2945986125
 20
189.37271556
 30
0.0
 11
179.2945986125
 21
189.67271556
 31
0.0
  0
ARC
  5
15F
330
1F
100
AcDbEntity
  8
0
  6
Continuous
 62
     7
370
     0
100
AcDbCircle
 10
179.2945986125
 20
187.67271556
 30
0.0
 40
2.0
100
AcDbArc
 50
0.0
 51
90.0
  0
ARC
  5
160
330
1F
100
AcDbEntity
  8
0
  6
Continuous
 62
     7
370
     0
100
AcDbCircle
 10
179.2945986125
 20
166.67271556
 30
0.0
 40
1.700000000000017
100
AcDbArc
 50
270.0
 51
0.0
  0
ARC
  5
161
330
1F
100
AcDbEntity
  8
0
  6
Continuous
 62
     7
370
     0
100
AcDbCircle
 10
179.2945986125
 20
166.67271556
 30
0.0
 40
2.0
100
AcDbArc
 50
270.0
 51
0.0
  0
LINE
  5
162
330
1F
100
AcDbEntity
  8
0
  6
Continuous
 62
     7
370
     0
100
AcDbLine
 10
179.2945986125
 20
164.97271556
 30
0.0
 11
179.2945986125
 21
164.67271556
 31
0.0
  0
LINE
  5
163
330
1F
100
AcDbEntity
  8
0
  6
Continuous
 62
     7
370
     0
100
AcDbLine
 10
153.494598327
 20
189.3727169082
 30
0.0
 11
153.494598327
 21
189.1727172479
 31
0.0
  0
LINE
  5
164
330
1F
100
AcDbEntity
  8
0
  6
Continuous
 62
     7
370
     0
100
AcDbLine
 10
169.0945997665
 20
189.3727169082
 30
0.0
 11
153.494598327
 21
189.3727169082
 31
0.0
  0
LINE
  5
165
330
1F
100
AcDbEntity
  8
0
  6
Continuous
 62
     7
370
     0
100
AcDbLine
 10
169.0945997665
 20
189.1727172479
 30
0.0
 11
169.0945997665
 21
189.3727169082
 31
0.0
  0
LINE
  5
166
330
1F
100
AcDbEntity
  8
0
  6
Continuous
 62
     7
370
     0
100
AcDbLine
 10
172.4945977161
 20
189.3727169082
 30
0.0
 11
172.4945977161
 21
189.1727172479
 31
0.0
  0
LINE
  5
167
330
1F
100
AcDbEntity
  8
0
  6
Continuous
 62
     7
370
     0
100
AcDbLine
 10
179.2945986125
 20
189.37271556
 30
0.0
 11
172.4945977161
 21
189.3727169082
 31
0.0
  0
LINE
  5
168
330
1F
100
AcDbEntity
  8
0
  6
Continuous
 62
     7
370
     0
100
AcDbLine
 10
172.4945977161
 20
164.9727155164
 30
0.0
 11
179.2945986125
 21
164.97271556
 31
0.0
  0
LINE
  5
169
330
1F
100
AcDbEntity
  8
0
  6
Continuous
 62
     7
370
     0
100
AcDbLine
 10
172.4945977161
 20
165.1727151766
 30
0.0
 11
172.4945977161
 21
164.9727155164
 31
0.0
  0
LINE
  5
16A
330
1F
100
AcDbEntity
  8
0
  6
Continuous
 62
     7
370
     0
100
AcDbLine
 10
169.0945997665
 20
164.9727155164
 30
0.0
 11
169.0945997665
 21
165.1727151766
 31
0.0
  0
LINE
  5
16B
330
1F
100
AcDbEntity
  8
0
  6
Continuous
 62
     7
370
     0
100
AcDbLine
 10
153.494598327
 20
164.9727155164
 30
0.0
 11
169.0945997665
 21
164.9727155164
 31
0.0
  0
LINE
  5
16C
330
1F
100
AcDbEntity
  8
0
  6
Continuous
 62
     7
370
     0
100
AcDbLine
 10
153.494598327
 20
165.1727151766
 30
0.0
 11
153.494598327
 21
164.9727155164
 31
0.0
  0
LINE
  5
16D
330
1F
100
AcDbEntity
  8
0
  6
Continuous
 62
     7
370
     0
100
AcDbLine
 10
150.0945985148
 20
164.9727155164
 30
0.0
 11
150.0945985148
 21
165.1727151766
 31
0.0
  0
LINE
  5
16E
330
1F
100
AcDbEntity
  8
0
  6
Continuous
 62
     7
370
     0
100
AcDbLine
 10
143.2945986125
 20
164.97271556
 30
0.0
 11
150.0945985148
 21
164.9727155164
 31
0.0
  0
ARC
  5
16F
330
1F
100
AcDbEntity
  8
0
  6
Continuous
 62
     7
370
     0
100
AcDbCircle
 10
143.2945986125
 20
166.67271556
 30
0.0
 40
1.700000000000017
100
AcDbArc
 50
180.0
 51
270.0
  0
LINE
  5
170
330
1F
100
AcDbEntity
  8
0
  6
Continuous
 62
     7
370
     0
100
AcDbLine
 10
141.5945986125
 20
187.67271556
 30
0.0
 11
141.5945989841
 21
187.4727145478
 31
0.0
  0
LINE
  5
171
330
1F
100
AcDbEntity
  8
0
  6
Continuous
 62
     7
370
     0
100
AcDbLine
 10
141.5945989841
 20
166.8727160141
 30
0.0
 11
141.5945986125
 21
166.67271556
 31
0.0
  0
ARC
  5
172
330
1F
100
AcDbEntity
  8
0
  6
Continuous
 62
     7
370
     0
100
AcDbCircle
 10
143.2945986125
 20
187.67271556
 30
0.0
 40
1.699999999999989
100
AcDbArc
 50
90.0
 51
180.0
  0
LINE
  5
173
330
1F
100
AcDbEntity
  8
0
  6
Continuous
 62
     7
370
     0
100
AcDbLine
 10
150.0945985148
 20
189.3727169082
 30
0.0
 11
143.2945986125
 21
189.37271556
 31
0.0
  0
LINE
  5
174
330
1F
100
AcDbEntity
  8
0
  6
Continuous
 62
     7
370
     0
100
AcDbLine
 10
150.0945985148
 20
189.1727172479
 30
0.0
 11
150.0945985148
 21
189.3727169082
 31
0.0
  0
LINE
  5
175
330
1F
100
AcDbEntity
  8
0
  6
Continuous
 62
     7
370
     0
100
AcDbLine
 10
172.4945977161
 20
189.3727169082
 30
0.0
 11
172.1946000883
 21
189.6727145359
 31
0.0
  0
LINE
  5
176
330
1F
100
AcDbEntity
  8
0
  6
Continuous
 62
     7
370
     0
100
AcDbLine
 10
172.1946000883
 20
189.6727145359
 30
0.0
 11
179.2945986125
 21
189.67271556
 31
0.0
  0
LINE
  5
177
330
1F
100
AcDbEntity
  8
0
  6
Continuous
 62
     7
370
     0
100
AcDbLine
 10
179.2945986125
 20
164.67271556
 30
0.0
 11
172.1946000883
 21
164.6727150947
 31
0.0
  0
LINE
  5
178
330
1F
100
AcDbEntity
  8
0
  6
Continuous
 62
     7
370
     0
100
AcDbLine
 10
172.4945977161
 20
164.9727155164
 30
0.0
 11
172.1946000883
 21
164.6727150947
 31
0.0
  0
LINE
  5
179
330
1F
100
AcDbEntity
  8
0
  6
Continuous
 62
     7
370
     0
100
AcDbLine
 10
172.1946000883
 20
164.6727150947
 30
0.0
 11
172.1946000883
 21
165.1727151766
 31
0.0
  0
LINE
  5
17A
330
1F
100
AcDbEntity
  8
0
  6
Continuous
 62
     7
370
     0
100
AcDbLine
 10
172.1946000883
 20
189.1727172479
 30
0.0
 11
172.1946000883
 21
189.6727145359
 31
0.0
  0
LINE
  5
17B
330
1F
100
AcDbEntity
  8
0
  6
Continuous
 62
     7
370
     0
100
AcDbLine
 10
153.494598327
 20
189.3727169082
 30
0.0
 11
153.1945988366
 21
189.6727145359
 31
0.0
  0
LINE
  5
17C
330
1F
100
AcDbEntity
  8
0
  6
Continuous
 62
     7
370
     0
100
AcDbLine
 10
153.1945988366
 20
189.6727145359
 30
0.0
 11
169.3945973942
 21
189.6727145359
 31
0.0
  0
LINE
  5
17D
330
1F
100
AcDbEntity
  8
0
  6
Continuous
 62
     7
370
     0
100
AcDbLine
 10
169.0945997665
 20
189.3727169082
 30
0.0
 11
169.3945973942
 21
189.6727145359
 31
0.0
  0
LINE
  5
17E
330
1F
100
AcDbEntity
  8
0
  6
Continuous
 62
     7
370
     0
100
AcDbLine
 10
169.3945973942
 20
164.6727150947
 30
0.0
 11
153.1945988366
 21
164.6727150947
 31
0.0
  0
LINE
  5
17F
330
1F
100
AcDbEntity
  8
0
  6
Continuous
 62
     7
370
     0
100
AcDbLine
 10
153.1945988366
 20
164.6727150947
 30
0.0
 11
153.494598327
 21
164.9727155164
 31
0.0
  0
LINE
  5
180
330
1F
100
AcDbEntity
  8
0
  6
Continuous
 62
     7
370
     0
100
AcDbLine
 10
169.3945973942
 20
164.6727150947
 30
0.0
 11
169.0945997665
 21
164.9727155164
 31
0.0
  0
LINE
  5
181
330
1F
100
AcDbEntity
  8
0
  6
Continuous
 62
     7
370
     0
100
AcDbLine
 10
169.3945973942
 20
165.1727151766
 30
0.0
 11
169.3945973942
 21
164.6727150947
 31
0.0
  0
LINE
  5
182
330
1F
100
AcDbEntity
  8
0
  6
Continuous
 62
     7
370
     0
100
AcDbLine
 10
169.3945973942
 20
189.6727145359
 30
0.0
 11
169.3945973942
 21
189.1727172479
 31
0.0
  0
LINE
  5
183
330
1F
100
AcDbEntity
  8
0
  6
Continuous
 62
     7
370
     0
100
AcDbLine
 10
153.1945988366
 20
189.1727172479
 30
0.0
 11
153.1945988366
 21
189.6727145359
 31
0.0
  0
LINE
  5
184
330
1F
100
AcDbEntity
  8
0
  6
Continuous
 62
     7
370
     0
100
AcDbLine
 10
153.1945988366
 20
164.6727150947
 30
0.0
 11
153.1945988366
 21
165.1727151766
 31
0.0
  0
LINE
  5
185
330
1F
100
AcDbEntity
  8
0
  6
Continuous
 62
     7
370
     0
100
AcDbLine
 10
150.3945980051
 20
165.1727151766
 30
0.0
 11
150.3945980051
 21
164.6727150947
 31
0.0
  0
LINE
  5
186
330
1F
100
AcDbEntity
  8
0
  6
Continuous
 62
     7
370
     0
100
AcDbLine
 10
150.3945980051
 20
164.6727150947
 30
0.0
 11
150.0945985148
 21
164.9727155164
 31
0.0
  0
LINE
  5
187
330
1F
100
AcDbEntity
  8
0
  6
Continuous
 62
     7
370
     0
100
AcDbLine
 10
150.3945980051
 20
189.6727145359
 30
0.0
 11
150.0945985148
 21
189.3727169082
 31
0.0
  0
LINE
  5
188
330
1F
100
AcDbEntity
  8
0
  6
Continuous
 62
     7
370
     0
100
AcDbLine
 10
150.3945980051
 20
189.6727145359
 30
0.0
 11
150.3945980051
 21
189.1727172479
 31
0.0
  0
LINE
  5
189
330
1F
100
AcDbEntity
  8
0
  6
Continuous
 62
     7
370
     0
100
AcDbLine
 10
150.3945980051
 20
164.6727150947
 30
0.0
 11
143.2945986125
 21
164.67271556
 31
0.0
  0
LINE
  5
18A
330
1F
100
AcDbEntity
  8
0
  6
Continuous
 62
     7
370
     0
100
AcDbLine
 10
143.2945986125
 20
164.67271556
 30
0.0
 11
143.2945986125
 21
164.97271556
 31
0.0
  0
LINE
  5
18B
330
1F
100
AcDbEntity
  8
0
  6
Continuous
 62
     7
370
     0
100
AcDbLine
 10
143.2945986125
 20
189.67271556
 30
0.0
 11
150.3945980051
 21
189.6727145359
 31
0.0
  0
LINE
  5
18C
330
1F
100
AcDbEntity
  8
0
  6
Continuous
 62
     7
370
     0
100
AcDbLine
 10
143.2945986125
 20
189.67271556
 30
0.0
 11
143.2945986125
 21
189.37271556
 31
0.0
  0
ARC
  5
18D
330
1F
100
AcDbEntity
  8
0
  6
Continuous
 62
     7
370
     0
100
AcDbCircle
 10
143.2945986125
 20
187.67271556
 30
0.0
 40
2.0
100
AcDbArc
 50
90.0
 51
180.0
  0
LINE
  5
18E
330
1F
100
AcDbEntity
  8
0
  6
Continuous
 62
     7
370
     0
100
AcDbLine
 10
141.2945986125
 20
187.67271556
 30
0.0
 11
141.5945986125
 21
187.67271556
 31
0.0
  0
ARC
  5
18F
330
1F
100
AcDbEntity
  8
0
  6
Continuous
 62
     7
370
     0
100
AcDbCircle
 10
143.2945986125
 20
166.67271556
 30
0.0
 40
2.0
100
AcDbArc
 50
180.0
 51
270.0
  0
LINE
  5
190
330
1F
100
AcDbEntity
  8
0
  6
Continuous
 62
     7
370
     0
100
AcDbLine
 10
141.2945986125
 20
166.67271556
 30
0.0
 11
141.5945986125
 21
166.67271556
 31
0.0
  0
LINE
  5
191
330
1F
100
AcDbEntity
  8
0
  6
Continuous
 62
     7
370
     0
100
AcDbLine
 10
141.2945986125
 20
166.67271556
 30
0.0
 11
141.2945985624
 21
167.1727155045
 31
0.0
  0
LINE
  5
192
330
1F
100
AcDbEntity
  8
0
  6
Continuous
 62
     7
370
     0
100
AcDbLine
 10
141.2945985624
 20
187.1727169201
 30
0.0
 11
141.2945986125
 21
187.67271556
 31
0.0
  0
LINE
  5
193
330
1F
100
AcDbEntity
  8
0
  6
Continuous
 62
     7
370
     0
100
AcDbLine
 10
162.8945432434
 20
176.50925598
 30
0.0
 11
162.6691445539
 21
178.2265775546
 31
0.0
  0
LINE
  5
194
330
1F
100
AcDbEntity
  8
0
  6
Continuous
 62
     7
370
     0
100
AcDbLine
 10
162.6691445539
 20
178.2265775546
 30
0.0
 11
161.0691994259
 21
178.8900368556
 31
0.0
  0
LINE
  5
195
330
1F
100
AcDbEntity
  8
0
  6
Continuous
 62
     7
370
     0
100
AcDbLine
 10
161.0691994259
 20
178.8900368556
 30
0.0
 11
159.6946548501
 21
177.8361764446
 31
0.0
  0
LINE
  5
196
330
1F
100
AcDbEntity
  8
0
  6
Continuous
 62
     7
370
     0
100
AcDbLine
 10
159.6946548501
 20
177.8361764446
 30
0.0
 11
159.9200535396
 21
176.1188530073
 31
0.0
  0
LINE
  5
197
330
1F
100
AcDbEntity
  8
0
  6
Continuous
 62
     7
370
     0
100
AcDbLine
 10
159.9200535396
 20
176.1188530073
 30
0.0
 11
161.5199968049
 21
175.4553937063
 31
0.0
  0
LINE
  5
198
330
1F
100
AcDbEntity
  8
0
  6
Continuous
 62
     7
370
     0
100
AcDbLine
 10
161.5199968049
 20
175.4553937063
 30
0.0
 11
162.8945432434
 21
176.50925598
 31
0.0
  0
CIRCLE
  5
199
330
1F
100
AcDbEntity
  8
0
  6
Continuous
 62
     7
370
     0
100
AcDbCircle
 10
161.2945986125
 20
177.17271556
 30
0.0
 40
3.09999999999997
  0
CIRCLE
  5
19A
330
1F
100
AcDbEntity
  8
0
  6
Continuous
 62
     7
370
     0
100
AcDbCircle
 10
161.2945986125
 20
177.17271556
 30
0.0
 40
3.499999999999962
  0
SPLINE
  5
19B
330
1F
100
AcDbEntity
  8
0
  6
Continuous
 62
     7
370
     0
100
AcDbSpline
210
0.0
220
0.0
230
1.0
 70
    12
 71
     3
 72
    12
 73
     8
 74
     0
 42
0.00000001
 43
0.00000001
 40
0.0
 40
0.0
 40
0.0
 40
0.0
 40
0.157833282649005
 40
0.3079188513669735
 40
0.4720444920534471
 40
0.7062200784606307
 40
1.0
 40
1.0
 40
1.0
 40
1.0
 10
162.8945432433675
 20
176.509255979959
 30
0.0
 41
1.0
 10
162.8761854045022
 20
176.5168686858515
 30
0.0
 41
1.0
 10
162.8403708756393
 20
176.531720405431
 30
0.0
 41
1.0
 10
162.6397951242746
 20
176.6148917077161
 30
0.0
 41
1.0
 10
162.317686962134
 20
176.7484646597996
 30
0.0
 41
1.0
 10
161.8553567864179
 20
176.9401799882833
 30
0.0
 41
1.0
 10
161.4950758269173
 20
177.0895812239513
 30
0.0
 41
1.0
 10
161.2945981154035
 20
177.1727152809539
 30
0.0
 41
1.0
  0
SPLINE
  5
19C
330
1F
100
AcDbEntity
  8
0
  6
Continuous
 62
     7
370
     0
100
AcDbSpline
210
0.0
220
0.0
230
1.0
 70
    12
 71
     3
 72
    12
 73
     8
 74
     0
 42
0.00000001
 43
0.00000001
 40
0.0
 40
0.0
 40
0.0
 40
0.0
 40
0.157833487635343
 40
0.3079183026782466
 40
0.4720446819536442
 40
0.7062192868862539
 40
1.0
 40
1.0
 40
1.0
 40
1.0
 10
162.669144553859
 20
178.226577554647
 30
0.0
 41
1.0
 10
162.6533721707129
 20
178.2144848825616
 30
0.0
 41
1.0
 10
162.6226017333341
 20
178.1908932156781
 30
0.0
 41
1.0
 10
162.4502869958028
 20
178.0587796347296
 30
0.0
 41
1.0
 10
162.1735542071226
 20
177.8466108658198
 30
0.0
 41
1.0
 10
161.7763591456
 20
177.5420798918523
 30
0.0
 41
1.0
 10
161.4668335944803
 20
177.304767661127
 30
0.0
 41
1.0
 10
161.2945981154035
 20
177.1727152809539
 30
0.0
 41
1.0
  0
SPLINE
  5
19D
330
1F
100
AcDbEntity
  8
0
  6
Continuous
 62
     7
370
     0
100
AcDbSpline
210
0.0
220
0.0
230
1.0
 70
    12
 71
     3
 72
    12
 73
     8
 74
     0
 42
0.00000001
 43
0.00000001
 40
0.0
 40
0.0
 40
0.0
 40
0.0
 40
0.157833218509955
 40
0.3079185041034292
 40
0.472044543938552
 40
0.7062201885133196
 40
1.0
 40
1.0
 40
1.0
 40
1.0
 10
161.069199425895
 20
178.8900368556419
 30
0.0
 41
1.0
 10
161.0717857807942
 20
178.8703324325216
 30
0.0
 41
1.0
 10
161.0768315280656
 20
178.8318908639552
 30
0.0
 41
1.0
 10
161.1050898195303
 20
178.6166025781237
 30
0.0
 41
1.0
 10
161.150467398858
 20
178.2708614166921
 30
0.0
 41
1.0
 10
161.2155983225312
 20
177.7746137953759
 30
0.0
 41
1.0
 10
161.2663547806288
 20
177.3879009241704
 30
0.0
 41
1.0
 10
161.2945981154035
 20
177.1727152809539
 30
0.0
 41
1.0
  0
SPLINE
  5
19E
330
1F
100
AcDbEntity
  8
0
  6
Continuous
 62
     7
370
     0
100
AcDbSpline
210
0.0
220
0.0
230
1.0
 70
    12
 71
     3
 72
    12
 73
     8
 74
     0
 42
0.00000001
 43
0.00000001
 40
0.0
 40
0.0
 40
0.0
 40
0.0
 40
0.2535798724135771
 40
0.4629720061810722
 40
0.6367310167712063
 40
0.8157218891569185
 40
1.0
 40
1.0
 40
1.0
 40
1.0
 10
161.2945981154035
 20
177.1727152809539
 30
0.0
 41
1.0
 10
161.3189579914725
 20
176.9871221287637
 30
0.0
 41
1.0
 10
161.3634328963088
 20
176.6482764893793
 30
0.0
 41
1.0
 10
161.4236576839645
 20
176.1894025768087
 30
0.0
 41
1.0
 10
161.4727944923111
 20
175.8150336799049
 30
0.0
 41
1.0
 10
161.5101302577078
 20
175.5305752051159
 30
0.0
 41
1.0
 10
161.5166761979742
 20
175.4806961957293
 30
0.0
 41
1.0
 10
161.5199968049119
 20
175.4553937062659
 30
0.0
 41
1.0
  0
SPLINE
  5
19F
330
1F
100
AcDbEntity
  8
0
  6
Continuous
 62
     7
370
     0
100
AcDbSpline
210
0.0
220
0.0
230
1.0
 70
    12
 71
     3
 72
    12
 73
     8
 74
     0
 42
0.00000001
 43
0.00000001
 40
0.0
 40
0.0
 40
0.0
 40
0.0
 40
0.1578333400021568
 40
0.3079186958683275
 40
0.4720450463232473
 40
0.706219971707453
 40
0.9999999999999999
 40
0.9999999999999999
 40
0.9999999999999999
 40
0.9999999999999999
 10
159.6946548500846
 20
177.8361764445939
 30
0.0
 41
1.0
 10
159.7130128855478
 20
177.8285639975851
 30
0.0
 41
1.0
 10
159.7488277668554
 20
177.8137127959614
 30
0.0
 41
1.0
 10
159.9494007010344
 20
177.7305377213952
 30
0.0
 41
1.0
 10
160.2715110200757
 20
177.5969669628523
 30
0.0
 41
1.0
 10
160.7338395117428
 20
177.405249883462
 30
0.0
 41
1.0
 10
161.0941202459401
 20
177.255849166699
 30
0.0
 41
1.0
 10
161.2945981154035
 20
177.1727152809539
 30
0.0
 41
1.0
  0
SPLINE
  5
1A0
330
1F
100
AcDbEntity
  8
0
  6
Continuous
 62
     7
370
     0
100
AcDbSpline
210
0.0
220
0.0
230
1.0
 70
    12
 71
     3
 72
    12
 73
     8
 74
     0
 42
0.00000001
 43
0.00000001
 40
0.0
 40
0.0
 40
0.0
 40
0.0
 40
0.157833401424075
 40
0.307918985318282
 40
0.4720444603696413
 40
0.7062203155412605
 40
1.0
 40
1.0
 40
1.0
 40
1.0
 10
159.920053539593
 20
176.1188530072608
 30
0.0
 41
1.0
 10
159.9358250219109
 20
176.130945528737
 30
0.0
 41
1.0
 10
159.9665937868776
 20
176.1545369669833
 30
0.0
 41
1.0
 10
160.1389110895045
 20
176.2866530090537
 30
0.0
 41
1.0
 10
160.4156426899053
 20
176.4988198290999
 30
0.0
 41
1.0
 10
160.8128377393637
 20
176.803351993365
 30
0.0
 41
1.0
 10
161.1223633041057
 20
177.0406637065568
 30
0.0
 41
1.0
 10
161.2945981154035
 20
177.1727152809539
 30
0.0
 41
1.0
  0
CIRCLE
  5
1A1
330
1F
100
AcDbEntity
  8
0
  6
Continuous
 62
     7
370
     0
100
AcDbCircle
 10
176.2945986125
 20
177.17271556
 30
0.0
 40
2.450000000000001
  0
CIRCLE
  5
1A2
330
1F
100
AcDbEntity
  8
0
  6
Continuous
 62
     7
370
     0
100
AcDbCircle
 10
176.2945986125
 20
177.17271556
 30
0.0
 40
2.750000000000013
  0
LINE
  5
1A3
330
1F
100
AcDbEntity
  8
0
  6
Continuous
 62
     7
370
     0
100
AcDbLine
 10
177.6278838346
 20
176.6198319092
 30
0.0
 11
177.4400546977
 21
178.0509338424
 31
0.0
  0
LINE
  5
1A4
330
1F
100
AcDbEntity
  8
0
  6
Continuous
 62
     7
370
     0
100
AcDbLine
 10
177.4400546977
 20
178.0509338424
 30
0.0
 11
176.1067658493
 21
178.6038172141
 31
0.0
  0
LINE
  5
1A5
330
1F
100
AcDbEntity
  8
0
  6
Continuous
 62
     7
370
     0
100
AcDbLine
 10
176.1067658493
 20
178.6038172141
 30
0.0
 11
174.9613135883
 21
177.7255986527
 31
0.0
  0
LINE
  5
1A6
330
1F
100
AcDbEntity
  8
0
  6
Continuous
 62
     7
370
     0
100
AcDbLine
 10
174.9613135883
 20
177.7255986527
 30
0.0
 11
175.1491427252
 21
176.2944967195
 31
0.0
  0
LINE
  5
1A7
330
1F
100
AcDbEntity
  8
0
  6
Continuous
 62
     7
370
     0
100
AcDbLine
 10
175.1491427252
 20
176.2944967195
 30
0.0
 11
176.4824315736
 21
175.7416133478
 31
0.0
  0
LINE
  5
1A8
330
1F
100
AcDbEntity
  8
0
  6
Continuous
 62
     7
370
     0
100
AcDbLine
 10
176.4824315736
 20
175.7416133478
 30
0.0
 11
177.6278838346
 21
176.6198319092
 31
0.0
  0
SPLINE
  5
1A9
330
1F
100
AcDbEntity
  8
0
  6
Continuous
 62
     7
370
     0
100
AcDbSpline
210
0.0
220
0.0
230
1.0
 70
    12
 71
     3
 72
    12
 73
     8
 74
     0
 42
0.00000001
 43
0.00000001
 40
0.0
 40
0.0
 40
0.0
 40
0.0
 40
0.1761804820346722
 40
0.3361298761309874
 40
0.5001210701577634
 40
0.723787475673188
 40
1.0
 40
1.0
 40
1.0
 40
1.0
 10
177.4400546977113
 20
178.0509338423648
 30
0.0
 41
1.0
 10
177.427289850878
 20
178.0411482403441
 30
0.0
 41
1.0
 10
177.4029361521293
 20
178.022478560496
 30
0.0
 41
1.0
 10
177.2637367728852
 20
177.9157512601808
 30
0.0
 41
1.0
 10
177.0332615267215
 20
177.7390483614159
 30
0.0
 41
1.0
 10
176.6986938427184
 20
177.4825350784461
 30
0.0
 41
1.0
 10
176.4384169891494
 20
177.2829807759442
 30
0.0
 41
1.0
 10
176.2945987114499
 20
177.1727152809539
 30
0.0
 41
1.0
  0
SPLINE
  5
1AA
330
1F
100
AcDbEntity
  8
0
  6
Continuous
 62
     7
370
     0
100
AcDbSpline
210
0.0
220
0.0
230
1.0
 70
    12
 71
     3
 72
    12
 73
     8
 74
     0
 42
0.00000001
 43
0.00000001
 40
0.0
 40
0.0
 40
0.0
 40
0.0
 40
0.1761801423120327
 40
0.3361295816491409
 40
0.5001202700191936
 40
0.7237872452185608
 40
1.0
 40
1.0
 40
1.0
 40
1.0
 10
176.1067658493112
 20
178.6038172140756
 30
0.0
 41
1.0
 10
176.1088602730759
 20
178.5878711361795
 30
0.0
 41
1.0
 10
176.1128561705397
 20
178.5574480225311
 30
0.0
 41
1.0
 10
176.1356754271849
 20
178.3835316647378
 30
0.0
 41
1.0
 10
176.1734768519027
 20
178.0955851104122
 30
0.0
 41
1.0
 10
176.2283308456741
 20
177.6775820544066
 30
0.0
 41
1.0
 10
176.2710138551102
 20
177.3523983020254
 30
0.0
 41
1.0
 10
176.2945987114499
 20
177.1727152809539
 30
0.0
 41
1.0
  0
SPLINE
  5
1AB
330
1F
100
AcDbEntity
  8
0
  6
Continuous
 62
     7
370
     0
100
AcDbSpline
210
0.0
220
0.0
230
1.0
 70
    12
 71
     3
 72
    12
 73
     8
 74
     0
 42
0.00000001
 43
0.00000001
 40
0.0
 40
0.0
 40
0.0
 40
0.0
 40
0.2382877615706644
 40
0.4370745651252695
 40
0.6074285148294062
 40
0.7948530154519122
 40
1.0
 40
1.0
 40
1.0
 40
1.0
 10
176.2945987114499
 20
177.1727152809539
 30
0.0
 41
1.0
 10
176.3149267320135
 20
177.0178310688876
 30
0.0
 41
1.0
 10
176.352212997532
 20
176.7337377978465
 30
0.0
 41
1.0
 10
176.4028251170056
 20
176.3481176009756
 30
0.0
 41
1.0
 10
176.4444007027887
 20
176.0313762838705
 30
0.0
 41
1.0
 10
176.4747432476229
 20
175.8001725978446
 30
0.0
 41
1.0
 10
176.4797928114155
 20
175.7617118627118
 30
0.0
 41
1.0
 10
176.4824315735887
 20
175.7416133478322
 30
0.0
 41
1.0
  0
SPLINE
  5
1AC
330
1F
100
AcDbEntity
  8
0
  6
Continuous
 62
     7
370
     0
100
AcDbSpline
210
0.0
220
0.0
230
1.0
 70
    12
 71
     3
 72
    12
 73
     8
 74
     0
 42
0.00000001
 43
0.00000001
 40
0.0
 40
0.0
 40
0.0
 40
0.0
 40
0.1761799614363286
 40
0.3361295785489352
 40
0.500120392928916
 40
0.7237869592419952
 40
1.0
 40
1.0
 40
1.0
 40
1.0
 10
177.6278838345597
 20
176.6198319092431
 30
0.0
 41
1.0
 10
177.6130282710648
 20
176.62599212147
 30
0.0
 41
1.0
 10
177.5846856930783
 20
176.637745044576
 30
0.0
 41
1.0
 10
177.4226572181898
 20
176.7049376552421
 30
0.0
 41
1.0
 10
177.1543901537902
 20
176.816179613023
 30
0.0
 41
1.0
 10
176.7649588375506
 20
176.9776683627282
 30
0.0
 41
1.0
 10
176.462000890874
 20
177.103297663709
 30
0.0
 41
1.0
 10
176.2945987114499
 20
177.1727152809539
 30
0.0
 41
1.0
  0
SPLINE
  5
1AD
330
1F
100
AcDbEntity
  8
0
  6
Continuous
 62
     7
370
     0
100
AcDbSpline
210
0.0
220
0.0
230
1.0
 70
    12
 71
     3
 72
    12
 73
     8
 74
     0
 42
0.00000001
 43
0.00000001
 40
0.0
 40
0.0
 40
0.0
 40
0.0
 40
0.1761799442725888
 40
0.3361293577060543
 40
0.5001204416280045
 40
0.7237869861511213
 40
1.0
 40
1.0
 40
1.0
 40
1.0
 10
174.9613135883401
 20
177.7255986526647
 30
0.0
 41
1.0
 10
174.9761691099938
 20
177.7194381567437
 30
0.0
 41
1.0
 10
175.004511592292
 20
177.7076846989615
 30
0.0
 41
1.0
 10
175.1665405927164
 20
177.6404959070524
 30
0.0
 41
1.0
 10
175.4348068879857
 20
177.5292499099165
 30
0.0
 41
1.0
 10
175.824238661954
 20
177.3677625966321
 30
0.0
 41
1.0
 10
176.1271965592896
 20
177.242133039653
 30
0.0
 41
1.0
 10
176.2945987114499
 20
177.1727152809539
 30
0.0
 41
1.0
  0
SPLINE
  5
1AE
330
1F
100
AcDbEntity
  8
0
  6
Continuous
 62
     7
370
     0
100
AcDbSpline
210
0.0
220
0.0
230
1.0
 70
    12
 71
     3
 72
    12
 73
     8
 74
     0
 42
0.00000001
 43
0.00000001
 40
0.0
 40
0.0
 40
0.0
 40
0.0
 40
0.1761804873391352
 40
0.3361298862512259
 40
0.5001210852154684
 40
0.7237880419562713
 40
1.0
 40
1.0
 40
1.0
 40
1.0
 10
175.1491427251885
 20
176.294496719543
 30
0.0
 41
1.0
 10
175.1619075772037
 20
176.3042823141665
 30
0.0
 41
1.0
 10
175.1862612858388
 20
176.3229519799019
 30
0.0
 41
1.0
 10
175.3254605955994
 20
176.4296793794039
 30
0.0
 41
1.0
 10
175.5559363682547
 20
176.6063820294346
 30
0.0
 41
1.0
 10
175.8905024605191
 20
176.8628977212998
 30
0.0
 41
1.0
 10
176.1507802223844
 20
177.0624507258812
 30
0.0
 41
1.0
 10
176.2945987114499
 20
177.1727152809539
 30
0.0
 41
1.0
  0
LINE
  5
1AF
330
1F
100
AcDbEntity
  8
0
  6
Continuous
 62
     7
370
     0
100
AcDbLine
 10
142.9945984686
 20
165.4727155983
 30
0.0
 11
179.5945986936
 21
165.4727155983
 31
0.0
  0
LINE
  5
1B0
330
1F
100
AcDbEntity
  8
0
  6
Continuous
 62
     7
370
     0
100
AcDbLine
 10
141.5945989841
 20
166.8727160141
 30
0.0
 11
142.9945984686
 21
165.4727155983
 31
0.0
  0
LINE
  5
1B1
330
1F
100
AcDbEntity
  8
0
  6
Continuous
 62
     7
370
     0
100
AcDbLine
 10
141.5945989841
 20
187.4727145478
 30
0.0
 11
141.5945989841
 21
166.8727160141
 31
0.0
  0
LINE
  5
1B2
330
1F
100
AcDbEntity
  8
0
  6
Continuous
 62
     7
370
     0
100
AcDbLine
 10
142.9945984686
 20
188.8727158949
 30
0.0
 11
141.5945989841
 21
187.4727145478
 31
0.0
  0
LINE
  5
1B3
330
1F
100
AcDbEntity
  8
0
  6
Continuous
 62
     7
370
     0
100
AcDbLine
 10
179.5945986936
 20
188.8727158949
 30
0.0
 11
142.9945984686
 21
188.8727158949
 31
0.0
  0
LINE
  5
1B4
330
1F
100
AcDbEntity
  8
0
  6
Continuous
 62
     7
370
     0
100
AcDbLine
 10
180.9946000406
 20
187.4727145478
 30
0.0
 11
179.5945986936
 21
188.8727158949
 31
0.0
  0
LINE
  5
1B5
330
1F
100
AcDbEntity
  8
0
  6
Continuous
 62
     7
370
     0
100
AcDbLine
 10
180.9946000406
 20
166.8727160141
 30
0.0
 11
180.9946000406
 21
187.4727145478
 31
0.0
  0
LINE
  5
1B6
330
1F
100
AcDbEntity
  8
0
  6
Continuous
 62
     7
370
     0
100
AcDbLine
 10
179.5945986936
 20
165.4727155983
 30
0.0
 11
180.9946000406
 21
166.8727160141
 31
0.0
  0
CIRCLE
  5
1B7
330
1F
100
AcDbEntity
  8
0
  6
Continuous
 62
     7
370
     0
100
AcDbCircle
 10
176.2945986125
 20
177.17271556
 30
0.0
 40
3.750000000000028
  0
CIRCLE
  5
1B8
330
1F
100
AcDbEntity
  8
0
  6
Continuous
 62
     7
370
     0
100
AcDbCircle
 10
161.2945986125
 20
177.17271556
 30
0.0
 40
4.500000000000028
  0
CIRCLE
  5
1B9
330
1F
100
AcDbEntity
  8
0
  6
Continuous
 62
     7
370
     0
100
AcDbCircle
 10
177.2945986125
 20
185.17271556
 30
0.0
 40
2.149999999999977
  0
CIRCLE
  5
1BA
330
1F
100
AcDbEntity
  8
0
  6
Continuous
 62
     7
370
     0
100
AcDbCircle
 10
177.2945986125
 20
169.17271556
 30
0.0
 40
2.150000000000006
  0
CIRCLE
  5
1BB
330
1F
100
AcDbEntity
  8
0
  6
Continuous
 62
     7
370
     0
100
AcDbCircle
 10
145.2945986125
 20
169.17271556
 30
0.0
 40
2.150000000000006
  0
CIRCLE
  5
1BC
330
1F
100
AcDbEntity
  8
0
  6
Continuous
 62
     7
370
     0
100
AcDbCircle
 10
145.2945986125
 20
185.17271556
 30
0.0
 40
2.149999999999977
  0
LINE
  5
1BD
330
1F
100
AcDbEntity
  8
0
  6
Continuous
 62
     7
370
     0
100
AcDbLine
 10
180.9946000406
 20
187.4727145478
 30
0.0
 11
181.2945976684
 21
187.1727169201
 31
0.0
  0
LINE
  5
1BE
330
1F
100
AcDbEntity
  8
0
  6
Continuous
 62
     7
370
     0
100
AcDbLine
 10
181.2945976684
 20
187.1727169201
 30
0.0
 11
181.2945976684
 21
167.1727155045
 31
0.0
  0
LINE
  5
1BF
330
1F
100
AcDbEntity
  8
0
  6
Continuous
 62
     7
370
     0
100
AcDbLine
 10
181.2945976684
 20
167.1727155045
 30
0.0
 11
180.9946000406
 21
166.8727160141
 31
0.0
  0
LINE
  5
1C0
330
1F
100
AcDbEntity
  8
0
  6
Continuous
 62
     7
370
     0
100
AcDbLine
 10
179.2945973405
 20
165.1727151766
 30
0.0
 11
143.2945988903
 21
165.1727151766
 31
0.0
  0
LINE
  5
1C1
330
1F
100
AcDbEntity
  8
0
  6
Continuous
 62
     7
370
     0
100
AcDbLine
 10
143.2945988903
 20
165.1727151766
 30
0.0
 11
142.9945984686
 21
165.4727155983
 31
0.0
  0
LINE
  5
1C2
330
1F
100
AcDbEntity
  8
0
  6
Continuous
 62
     7
370
     0
100
AcDbLine
 10
179.5945986936
 20
165.4727155983
 30
0.0
 11
179.2945973405
 21
165.1727151766
 31
0.0
  0
CIRCLE
  5
1C3
330
1F
100
AcDbEntity
  8
0
  6
Continuous
 62
     7
370
     0
100
AcDbCircle
 10
177.2945986125
 20
185.17271556
 30
0.0
 40
1.649999999999977
  0
LINE
  5
1C4
330
1F
100
AcDbEntity
  8
0
  6
Continuous
 62
     7
370
     0
100
AcDbLine
 10
142.9945984686
 20
188.8727158949
 30
0.0
 11
143.2945988903
 21
189.1727172479
 31
0.0
  0
LINE
  5
1C5
330
1F
100
AcDbEntity
  8
0
  6
Continuous
 62
     7
370
     0
100
AcDbLine
 10
143.2945988903
 20
189.1727172479
 30
0.0
 11
179.2945973405
 21
189.1727172479
 31
0.0
  0
LINE
  5
1C6
330
1F
100
AcDbEntity
  8
0
  6
Continuous
 62
     7
370
     0
100
AcDbLine
 10
179.2945973405
 20
189.1727172479
 30
0.0
 11
179.5945986936
 21
188.8727158949
 31
0.0
  0
CIRCLE
  5
1C7
330
1F
100
AcDbEntity
  8
0
  6
Continuous
 62
     7
370
     0
100
AcDbCircle
 10
176.2945986125
 20
177.17271556
 30
0.0
 40
3.250000000000028
  0
CIRCLE
  5
1C8
330
1F
100
AcDbEntity
  8
0
  6
Continuous
 62
     7
370
     0
100
AcDbCircle
 10
177.2945986125
 20
169.17271556
 30
0.0
 40
1.650000000000006
  0
CIRCLE
  5
1C9
330
1F
100
AcDbEntity
  8
0
  6
Continuous
 62
     7
370
     0
100
AcDbCircle
 10
161.2945986125
 20
177.17271556
 30
0.0
 40
4.000000000000028
  0
CIRCLE
  5
1CA
330
1F
100
AcDbEntity
  8
0
  6
Continuous
 62
     7
370
     0
100
AcDbCircle
 10
145.2945986125
 20
185.17271556
 30
0.0
 40
1.649999999999977
  0
CIRCLE
  5
1CB
330
1F
100
AcDbEntity
  8
0
  6
Continuous
 62
     7
370
     0
100
AcDbCircle
 10
145.2945986125
 20
169.17271556
 30
0.0
 40
1.650000000000006
  0
LINE
  5
1CC
330
1F
100
AcDbEntity
  8
0
  6
Continuous
 62
     7
370
     0
100
AcDbLine
 10
141.2945985624
 20
167.1727155045
 30
0.0
 11
141.2945985624
 21
187.1727169201
 31
0.0
  0
LINE
  5
1CD
330
1F
100
AcDbEntity
  8
0
  6
Continuous
 62
     7
370
     0
100
AcDbLine
 10
141.2945985624
 20
187.1727169201
 30
0.0
 11
141.5945989841
 21
187.4727145478
 31
0.0
  0
LINE
  5
1CE
330
1F
100
AcDbEntity
  8
0
  6
Continuous
 62
     7
370
     0
100
AcDbLine
 10
141.5945989841
 20
166.8727160141
 30
0.0
 11
141.2945985624
 21
167.1727155045
 31
0.0
  0
ARC
  5
1CF
330
1F
100
AcDbEntity
  8
0
  6
Continuous
 62
     7
370
     0
100
AcDbCircle
 10
169.5945986125
 20
189.57271556
 30
0.0
 40
0.1000000000000227
100
AcDbArc
 50
90.0
 51
180.0
  0
LINE
  5
1D0
330
1F
100
AcDbEntity
  8
0
  6
Continuous
 62
     7
370
     0
100
AcDbLine
 10
171.9945986125
 20
189.67271556
 30
0.0
 11
169.5945986125
 21
189.67271556
 31
0.0
  0
ARC
  5
1D1
330
1F
100
AcDbEntity
  8
0
  6
Continuous
 62
     7
370
     0
100
AcDbCircle
 10
171.9945986125
 20
189.57271556
 30
0.0
 40
0.1000000000000227
100
AcDbArc
 50
0.0
 51
90.0
  0
LINE
  5
1D2
330
1F
100
AcDbEntity
  8
0
  6
Continuous
 62
     7
370
     0
100
AcDbLine
 10
169.4945986125
 20
189.57271556
 30
0.0
 11
169.494599087
 21
189.1727172479
 31
0.0
  0
LINE
  5
1D3
330
1F
100
AcDbEntity
  8
0
  6
Continuous
 62
     7
370
     0
100
AcDbLine
 10
172.0945983955
 20
189.1727172479
 30
0.0
 11
172.0945986125
 21
189.57271556
 31
0.0
  0
LINE
  5
1D4
330
1F
100
AcDbEntity
  8
0
  6
Continuous
 62
     7
370
     0
100
AcDbLine
 10
171.5945986125
 20
189.77271556
 30
0.0
 11
171.5945973823
 21
189.6727145359
 31
0.0
  0
LINE
  5
1D5
330
1F
100
AcDbEntity
  8
0
  6
Continuous
 62
     7
370
     0
100
AcDbLine
 10
171.8945986125
 20
189.77271556
 30
0.0
 11
171.8945987353
 21
189.6727145359
 31
0.0
  0
LINE
  5
1D6
330
1F
100
AcDbEntity
  8
0
  6
Continuous
 62
     7
370
     0
100
AcDbLine
 10
171.5945986125
 20
189.77271556
 30
0.0
 11
171.8945986125
 21
189.77271556
 31
0.0
  0
LINE
  5
1D7
330
1F
100
AcDbEntity
  8
0
  6
Continuous
 62
     7
370
     0
100
AcDbLine
 10
169.9945986125
 20
189.77271556
 30
0.0
 11
169.9946001002
 21
189.6727145359
 31
0.0
  0
LINE
  5
1D8
330
1F
100
AcDbEntity
  8
0
  6
Continuous
 62
     7
370
     0
100
AcDbLine
 10
169.9945986125
 20
189.77271556
 30
0.0
 11
171.5945986125
 21
189.77271556
 31
0.0
  0
LINE
  5
1D9
330
1F
100
AcDbEntity
  8
0
  6
Continuous
 62
     7
370
     0
100
AcDbLine
 10
169.6945986125
 20
189.77271556
 30
0.0
 11
169.6945987472
 21
189.6727145359
 31
0.0
  0
LINE
  5
1DA
330
1F
100
AcDbEntity
  8
0
  6
Continuous
 62
     7
370
     0
100
AcDbLine
 10
169.6945986125
 20
189.77271556
 30
0.0
 11
169.9945986125
 21
189.77271556
 31
0.0
  0
ARC
  5
1DB
330
1F
100
AcDbEntity
  8
0
  6
Continuous
 62
     7
370
     0
100
AcDbCircle
 10
150.5945986125
 20
189.57271556
 30
0.0
 40
0.1000000000000227
100
AcDbArc
 50
90.0
 51
180.0
  0
LINE
  5
1DC
330
1F
100
AcDbEntity
  8
0
  6
Continuous
 62
     7
370
     0
100
AcDbLine
 10
152.9945986125
 20
189.67271556
 30
0.0
 11
150.5945986125
 21
189.67271556
 31
0.0
  0
ARC
  5
1DD
330
1F
100
AcDbEntity
  8
0
  6
Continuous
 62
     7
370
     0
100
AcDbCircle
 10
152.9945986125
 20
189.57271556
 30
0.0
 40
0.1000000000000227
100
AcDbArc
 50
0.0
 51
90.0
  0
LINE
  5
1DE
330
1F
100
AcDbEntity
  8
0
  6
Continuous
 62
     7
370
     0
100
AcDbLine
 10
150.4945986125
 20
189.57271556
 30
0.0
 11
150.4945978353
 21
189.1727172479
 31
0.0
  0
LINE
  5
1DF
330
1F
100
AcDbEntity
  8
0
  6
Continuous
 62
     7
370
     0
100
AcDbLine
 10
153.0945990065
 20
189.1727172479
 30
0.0
 11
153.0945986125
 21
189.57271556
 31
0.0
  0
LINE
  5
1E0
330
1F
100
AcDbEntity
  8
0
  6
Continuous
 62
     7
370
     0
100
AcDbLine
 10
152.5945986125
 20
189.77271556
 30
0.0
 11
152.5945979932
 21
189.6727145359
 31
0.0
  0
LINE
  5
1E1
330
1F
100
AcDbEntity
  8
0
  6
Continuous
 62
     7
370
     0
100
AcDbLine
 10
152.8945986125
 20
189.77271556
 30
0.0
 11
152.8945993462
 21
189.6727145359
 31
0.0
  0
LINE
  5
1E2
330
1F
100
AcDbEntity
  8
0
  6
Continuous
 62
     7
370
     0
100
AcDbLine
 10
152.5945986125
 20
189.77271556
 30
0.0
 11
152.8945986125
 21
189.77271556
 31
0.0
  0
LINE
  5
1E3
330
1F
100
AcDbEntity
  8
0
  6
Continuous
 62
     7
370
     0
100
AcDbLine
 10
150.9945986125
 20
189.77271556
 30
0.0
 11
150.9945988485
 21
189.6727145359
 31
0.0
  0
LINE
  5
1E4
330
1F
100
AcDbEntity
  8
0
  6
Continuous
 62
     7
370
     0
100
AcDbLine
 10
150.9945986125
 20
189.77271556
 30
0.0
 11
152.5945986125
 21
189.77271556
 31
0.0
  0
LINE
  5
1E5
330
1F
100
AcDbEntity
  8
0
  6
Continuous
 62
     7
370
     0
100
AcDbLine
 10
150.6945986125
 20
189.77271556
 30
0.0
 11
150.6945993582
 21
189.6727145359
 31
0.0
  0
LINE
  5
1E6
330
1F
100
AcDbEntity
  8
0
  6
Continuous
 62
     7
370
     0
100
AcDbLine
 10
150.6945986125
 20
189.77271556
 30
0.0
 11
150.9945986125
 21
189.77271556
 31
0.0
  0
DIMENSION
  5
1E7
330
1F
100
AcDbEntity
  8
0
  6
Continuous
 62
     7
370
     0
100
AcDbDimension
  2
*D15
 10
177.2945986125
 20
196.6077042065
 30
0.0
 11
161.2945986125
 21
196.6077042065
 31
0.0
 70
   160
 71
     1
 42
32.0
  3
SLDDIMSTYLE0
100
AcDbAlignedDimension
 13
145.2945986125
 23
189.82271556
 33
0.0
 14
177.2945986125
 24
189.82271556
 34
0.0
100
AcDbRotatedDimension
1001
ACAD
1000
DSTYLE
1002
{
1070
    77
1070
     3
1070
   143
1040
0.0393700787
1070
    41
1040
3.0
1070
    44
1040
1.0
1070
    42
1040
1.0
1070
   147
1040
1.524
1070
    73
1070
     0
1070
    74
1070
     0
1070
   140
1040
3.5
1070
   284
1070
    12
1070
    78
1070
    12
1002
}
  0
DIMENSION
  5
1FA
330
1F
100
AcDbEntity
  8
0
  6
Continuous
 62
     7
370
     0
100
AcDbDimension
  2
*D16
 10
181.2945986125
 20
204.1394719757
 30
0.0
 11
161.2945986125
 21
204.1394719757
 31
0.0
 70
   160
 71
     1
 42
40.0
  3
SLDDIMSTYLE0
100
AcDbAlignedDimension
 13
141.2945986125
 23
187.17271556
 33
0.0
 14
181.2945986125
 24
187.17271556
 34
0.0
100
AcDbRotatedDimension
1001
ACAD
1000
DSTYLE
1002
{
1070
    77
1070
     3
1070
   143
1040
0.0393700787
1070
    41
1040
3.0
1070
    44
1040
1.0
1070
    42
1040
1.0
1070
   147
1040
1.524
1070
    73
1070
     0
1070
    74
1070
     0
1070
   140
1040
3.5
1070
   284
1070
    12
1070
    78
1070
    12
1002
}
  0
DIMENSION
  5
20D
330
1F
100
AcDbEntity
  8
0
  6
Continuous
 62
     7
370
     0
100
AcDbDimension
  2
*D17
 10
137.52130037
 20
169.17271556
 30
0.0
 11
137.52130037
 21
177.17271556
 31
0.0
 70
   160
 71
     1
 42
16.0
  3
SLDDIMSTYLE0
100
AcDbAlignedDimension
 13
140.6445986125
 23
185.17271556
 33
0.0
 14
140.6445986125
 24
169.17271556
 34
0.0
 50
90.0
100
AcDbRotatedDimension
1001
ACAD
1000
DSTYLE
1002
{
1070
    77
1070
     3
1070
   143
1040
0.0393700787
1070
    41
1040
3.0
1070
    44
1040
1.0
1070
    42
1040
1.0
1070
   147
1040
1.524
1070
    73
1070
     0
1070
    74
1070
     0
1070
   140
1040
3.5
1070
   284
1070
    12
1070
    78
1070
    12
1002
}
  0
DIMENSION
  5
221
330
1F
100
AcDbEntity
  8
0
  6
Continuous
 62
     7
370
     0
100
AcDbDimension
  2
*D18
 10
130.9272495953
 20
165.17271556
 30
0.0
 11
130.9272495953
 21
177.17271556
 31
0.0
 70
   160
 71
     1
 42
24.0
  3
SLDDIMSTYLE0
100
AcDbAlignedDimension
 13
143.2945986125
 23
189.17271556
 33
0.0
 14
143.2945986125
 24
165.17271556
 34
0.0
 50
90.0
100
AcDbRotatedDimension
1001
ACAD
1000
DSTYLE
1002
{
1070
    77
1070
     3
1070
   143
1040
0.0393700787
1070
    41
1040
3.0
1070
    44
1040
1.0
1070
    42
1040
1.0
1070
   147
1040
1.524
1070
    73
1070
     0
1070
    74
1070
     0
1070
   140
1040
3.5
1070
   284
1070
    12
1070
    78
1070
    12
1002
}
  0
MTEXT
  5
235
330
1F
100
AcDbEntity
  8
0
  6
Continuous
 62
     7
370
     0
100
AcDbMText
 10
125.2625755568
 20
201.8254373007
 30
51.05
 40
3.5
 41
0.0
 71
     1
 72
     1
  1
4-M4
  7
SLDTEXTSTYLE0
 73
     1
 44
1.0
  0
LEADER
  5
236
330
1F
100
AcDbEntity
  8
0
  6
Continuous
 62
     7
370
     0
100
AcDbLeader
  3
SLDDIMSTYLE1
 76
     3
 10
143.475438176
 20
186.3186454471
 30
0.0
 10
133.909072402
 20
197.7525363665
 30
0.0
 10
125.2616134459
 20
197.7525363665
 30
0.0
  0
INSERT
  5
242
330
1F
100
AcDbEntity
  8
0
  6
Continuous
 62
     7
370
     0
100
AcDbBlockReference
  2
SW_CENTERMARKSYMBOL_2
 10
145.2945986125
 20
185.17271556
 30
0.0
  0
INSERT
  5
24E
330
1F
100
AcDbEntity
  8
0
  6
Continuous
 62
     7
370
     0
100
AcDbBlockReference
  2
SW_CENTERMARKSYMBOL_3
 10
177.2945986125
 20
185.17271556
 30
0.0
  0
INSERT
  5
25A
330
1F
100
AcDbEntity
  8
0
  6
Continuous
 62
     7
370
     0
100
AcDbBlockReference
  2
SW_CENTERMARKSYMBOL_4
 10
145.2945986125
 20
169.17271556
 30
0.0
  0
INSERT
  5
266
330
1F
100
AcDbEntity
  8
0
  6
Continuous
 62
     7
370
     0
100
AcDbBlockReference
  2
SW_CENTERMARKSYMBOL_5
 10
177.2945986125
 20
169.17271556
 30
0.0
  0
INSERT
  5
272
330
1F
100
AcDbEntity
  8
0
  6
Continuous
 62
     7
370
     0
100
AcDbBlockReference
  2
SW_CENTERMARKSYMBOL_6
 10
176.2945986125
 20
177.17271556
 30
0.0
  0
INSERT
  5
27E
330
1F
100
AcDbEntity
  8
0
  6
Continuous
 62
     7
370
     0
100
AcDbBlockReference
  2
SW_CENTERMARKSYMBOL_7
 10
161.2945986125
 20
177.17271556
 30
0.0
  0
LINE
  5
27F
330
1F
100
AcDbEntity
  8
0
  6
HIDDEN
 62
     7
370
     0
100
AcDbLine
 10
111.4646778989
 20
99.5623549495
 30
0.0
 11
123.1646778989
 21
99.5623549495
 31
0.0
  0
LINE
  5
280
330
1F
100
AcDbEntity
  8
0
  6
HIDDEN
 62
     7
370
     0
100
AcDbLine
 10
111.4646778989
 20
97.0123549495
 30
0.0
 11
123.1646778989
 21
97.0123549495
 31
0.0
  0
LINE
  5
281
330
1F
100
AcDbEntity
  8
0
  6
HIDDEN
 62
     7
370
     0
100
AcDbLine
 10
123.1646778989
 20
103.3123549495
 30
0.0
 11
123.1646778989
 21
63.3123549495
 31
0.0
  0
LINE
  5
282
330
1F
100
AcDbEntity
  8
0
  6
HIDDEN
 62
     7
370
     0
100
AcDbLine
 10
123.1646778989
 20
103.3123549495
 30
0.0
 11
131.1646778989
 21
103.3123549495
 31
0.0
  0
LINE
  5
283
330
1F
100
AcDbEntity
  8
0
  6
HIDDEN
 62
     7
370
     0
100
AcDbLine
 10
131.1646778989
 20
103.3123549495
 30
0.0
 11
131.1646778989
 21
63.3123549495
 31
0.0
  0
LINE
  5
284
330
1F
100
AcDbEntity
  8
0
  6
HIDDEN
 62
     7
370
     0
100
AcDbLine
 10
131.1646778989
 20
63.3123549495
 30
0.0
 11
123.1646778989
 21
63.3123549495
 31
0.0
  0
LINE
  5
285
330
1F
100
AcDbEntity
  8
0
  6
HIDDEN
 62
     7
370
     0
100
AcDbLine
 10
111.4646778989
 20
86.8123549495
 30
0.0
 11
123.1646778989
 21
86.8123549495
 31
0.0
  0
LINE
  5
286
330
1F
100
AcDbEntity
  8
0
  6
HIDDEN
 62
     7
370
     0
100
AcDbLine
 10
111.4646778989
 20
79.8123549495
 30
0.0
 11
123.1646778989
 21
79.8123549495
 31
0.0
  0
LINE
  5
287
330
1F
100
AcDbEntity
  8
0
  6
Continuous
 62
     7
370
     0
100
AcDbLine
 10
103.4646764803
 20
99.5623543534
 30
0.0
 11
101.4646761525
 21
99.5623543534
 31
0.0
  0
LINE
  5
288
330
1F
100
AcDbEntity
  8
0
  6
Continuous
 62
     7
370
     0
100
AcDbLine
 10
101.4646761525
 20
97.0623558063
 30
0.0
 11
103.4646764803
 21
97.0623558063
 31
0.0
  0
LINE
  5
289
330
1F
100
AcDbEntity
  8
0
  6
Continuous
 62
     7
370
     0
100
AcDbLine
 10
47.3646777156
 20
94.1623551447
 30
0.0
 11
32.9558257419
 21
94.1623551447
 31
0.0
  0
LINE
  5
28A
330
1F
100
AcDbEntity
  8
0
  6
Continuous
 62
     7
370
     0
100
AcDbLine
 10
32.4928205866
 20
91.4623541433
 30
0.0
 11
47.3646777156
 21
91.4623541433
 31
0.0
  0
LINE
  5
28B
330
1F
100
AcDbEntity
  8
0
  6
Continuous
 62
     7
370
     0
100
AcDbLine
 10
52.3646766725
 20
75.162353893
 30
0.0
 11
32.3646780509
 21
75.162353893
 31
0.0
  0
LINE
  5
28C
330
1F
100
AcDbEntity
  8
0
  6
Continuous
 62
     7
370
     0
100
AcDbLine
 10
32.7525105733
 20
72.4623547542
 30
0.0
 11
52.3646766725
 21
72.4623547542
 31
0.0
  0
LWPOLYLINE
  5
28D
330
1F
100
AcDbEntity
  8
0
  6
Continuous
 62
     7
370
     0
100
AcDbPolyline
 90
      107
 70
   128
 43
0.0
 10
32.9558257419
 20
94.1623551447
 10
32.9482391882
 20
94.1389351759
 10
32.9403285343
 20
94.1154788855
 10
32.9321068186
 20
94.0919862736
 10
32.923585217
 20
94.0684582714
 10
32.9147767681
 20
94.0448930163
 10
32.9056907851
 20
94.0212905082
 10
32.8963403064
 20
93.99765261
 10
32.8850694406
 20
93.9699178237
 10
32.8734707493
 20
93.942132746
 10
32.8615609962
 20
93.9142964456
 10
32.8493625331
 20
93.8864079911
 10
32.8368921238
 20
93.8584683139
 10
32.8241683948
 20
93.8304764825
 10
32.8112118352
 20
93.8024324972
 10
32.7967111427
 20
93.7715228323
 10
32.7819757569
 20
93.7405489061
 10
32.7670298922
 20
93.7095107186
 10
32.7518996257
 20
93.6784082699
 10
32.736607309
 20
93.6472396973
 10
32.713611092
 20
93.6007378298
 10
32.6903969455
 20
93.5540897447
 10
32.6670486886
 20
93.5072935793
 10
32.6436482775
 20
93.4603493336
 10
32.6202795315
 20
93.413255145
 10
32.5970225442
 20
93.3660110134
 10
32.5776361335
 20
93.3262081492
 10
32.5584359873
 20
93.2862963203
 10
32.539472397
 20
93.2462773893
 10
32.5207919288
 20
93.2061476308
 10
32.5063471157
 20
93.1745413366
 10
32.4921314079
 20
93.1428651932
 10
32.4781708825
 20
93.1111210633
 10
32.4644860286
 20
93.0793089468
 10
32.4537534672
 20
93.0538084034
 10
32.4432257968
 20
93.0282631565
 10
32.4329141933
 20
93.0026741374
 10
32.4228335578
 20
92.9770394835
 10
32.4129932034
 20
92.9513601262
 10
32.4035738069
 20
92.9260952074
 10
32.3944114554
 20
92.9007874477
 10
32.3855154622
 20
92.8754349846
 10
32.3768988657
 20
92.850037818
 10
32.3691986907
 20
92.8265424121
 10
32.361753698
 20
92.8030088219
 10
32.354573201
 20
92.7794389102
 10
32.3476590622
 20
92.7558354709
 10
32.3410150069
 20
92.7322031606
 10
32.3347546566
 20
92.708965731
 10
32.3287588018
 20
92.685706881
 10
32.3230348933
 20
92.6624284733
 10
32.3175810683
 20
92.639134233
 10
32.3122986067
 20
92.6153519798
 10
32.3073085803
 20
92.591559482
 10
32.3026091266
 20
92.5677613962
 10
32.2982058335
 20
92.5439595852
 10
32.2941005636
 20
92.5201577741
 10
32.2902989048
 20
92.4963606197
 10
32.2868008572
 20
92.4725699845
 10
32.2836120087
 20
92.4487905252
 10
32.280734222
 20
92.4250250358
 10
32.2781712222
 20
92.4012772414
 10
32.2759267348
 20
92.3775499362
 10
32.2740026224
 20
92.3538468454
 10
32.2724007476
 20
92.3301716942
 10
32.2711285609
 20
92.3065272767
 10
32.2702512551
 20
92.2848842714
 10
32.2696552086
 20
92.2632719997
 10
32.2693404216
 20
92.241694187
 10
32.2693106193
 20
92.2201536271
 10
32.2695695269
 20
92.1986521829
 10
32.270115282
 20
92.1771926481
 10
32.2710466045
 20
92.1538341466
 10
32.2723281044
 20
92.1305315245
 10
32.2739635068
 20
92.1072894383
 10
32.2759546745
 20
92.084110682
 10
32.2783071953
 20
92.060998981
 10
32.281022932
 20
92.0379571292
 10
32.2841056097
 20
92.0149897832
 10
32.2872553426
 20
91.9940033603
 10
32.290718
 20
91.973084924
 10
32.294497307
 20
91.9522363368
 10
32.2985932637
 20
91.9314603928
 10
32.3030095953
 20
91.9107589546
 10
32.3077500272
 20
91.8901366789
 10
32.3128145594
 20
91.8695944968
 10
32.3182069171
 20
91.8491352025
 10
32.323928963
 20
91.8287615899
 10
32.3299825597
 20
91.8084773842
 10
32.3363732952
 20
91.7882835168
 10
32.3430993068
 20
91.7681827817
 10
32.3497526753
 20
91.7493197742
 10
32.356709655
 20
91.7305443111
 10
32.363973971
 20
91.711858255
 10
32.3715437609
 20
91.6932643998
 10
32.3794152993
 20
91.6747618142
 10
32.3884472657
 20
91.654438493
 10
32.3978294093
 20
91.6342222739
 10
32.4075486917
 20
91.6141122255
 10
32.4175957996
 20
91.5941074166
 10
32.4279632825
 20
91.5742041219
 10
32.4386381018
 20
91.5544023413
 10
32.4489776451
 20
91.5358224559
 10
32.4595723707
 20
91.5173291836
 10
32.4704185534
 20
91.4989206615
 10
32.4815031547
 20
91.4805968899
 10
32.4928205866
 20
91.4623541433
  0
LWPOLYLINE
  5
28E
330
1F
100
AcDbEntity
  8
0
  6
Continuous
 62
     7
370
     0
100
AcDbPolyline
 90
      110
 70
   128
 43
0.0
 10
32.3646780509
 20
75.162353893
 10
32.3581718314
 20
75.1416459355
 10
32.3514961112
 20
75.1209314588
 10
32.3446602035
 20
75.1002104628
 10
32.3332924801
 20
75.0666949574
 10
32.3215689916
 20
75.0331664133
 10
32.309525128
 20
74.9996285561
 10
32.2972018677
 20
74.9660832483
 10
32.2846346009
 20
74.9325332839
 10
32.2718605805
 20
74.8989814568
 10
32.2565943408
 20
74.8594393629
 10
32.2411567378
 20
74.8199019257
 10
32.2256111014
 20
74.7803738016
 10
32.2100170362
 20
74.7408596474
 10
32.1944378722
 20
74.701362257
 10
32.1789369393
 20
74.6618881497
 10
32.1635719794
 20
74.6224391881
 10
32.1484100479
 20
74.5830209601
 10
32.1366772461
 20
74.5520740423
 10
32.1251362968
 20
74.5211504075
 10
32.1138188648
 20
74.4902519185
 10
32.1027510274
 20
74.4593813691
 10
32.0935812253
 20
74.4332112047
 10
32.084633078
 20
74.4070633921
 10
32.0759252119
 20
74.3809397939
 10
32.0674762535
 20
74.3548413414
 10
32.0593029666
 20
74.3287698973
 10
32.0514239776
 20
74.3027254615
 10
32.0442825961
 20
74.2781953562
 10
32.0374336499
 20
74.2536931906
 10
32.0308957654
 20
74.2292180333
 10
32.0246801186
 20
74.204771747
 10
32.0188071984
 20
74.1803552631
 10
32.0141822505
 20
74.1600319419
 10
32.0098143477
 20
74.1397309724
 10
32.0057090777
 20
74.1194523546
 10
32.0018794793
 20
74.09919702
 10
31.9983311403
 20
74.0789658997
 10
31.9950733739
 20
74.0587589938
 10
31.9922775436
 20
74.0397302109
 10
31.989755522
 20
74.0207247112
 10
31.9875166226
 20
74.0017415631
 10
31.9855645705
 20
73.9827826295
 10
31.9839105416
 20
73.9638488415
 10
31.98260669
 20
73.9456563864
 10
31.9815915483
 20
73.9274862829
 10
31.980868842
 20
73.9093413252
 10
31.9804497469
 20
73.8912205819
 10
31.9803379882
 20
73.8731249842
 10
31.9805410165
 20
73.855053601
 10
31.9810253042
 20
73.8380392689
 10
31.9818020273
 20
73.8210482198
 10
31.9828767735
 20
73.8040813852
 10
31.9842476803
 20
73.7871378336
 10
31.9859128851
 20
73.7702184964
 10
31.9878667999
 20
73.7533224422
 10
31.9901094246
 20
73.7364496711
 10
31.9926333088
 20
73.7196011144
 10
31.9954347271
 20
73.7027749095
 10
31.9985136795
 20
73.6859729189
 10
32.0017993856
 20
73.6694931659
 10
32.0053439993
 20
73.6530366961
 10
32.0091419328
 20
73.6366016466
 10
32.0131913233
 20
73.6201889488
 10
32.0180919427
 20
73.60156436
 10
32.0233073491
 20
73.5829686422
 10
32.028830092
 20
73.5644017953
 10
32.0346545834
 20
73.5458619568
 10
32.0407789606
 20
73.5273509893
 10
32.0471939105
 20
73.5088679615
 10
32.0538975704
 20
73.490411942
 10
32.0608806271
 20
73.4719838623
 10
32.0684951204
 20
73.4527082789
 10
32.0764039117
 20
73.4334624979
 10
32.0846051383
 20
73.4142465192
 10
32.0930932123
 20
73.3950603429
 10
32.1018569577
 20
73.3759039688
 10
32.1108963746
 20
73.3567764658
 10
32.1210589665
 20
73.3359446425
 10
32.1315326202
 20
73.315147278
 10
32.1423061598
 20
73.2943834412
 10
32.1533739972
 20
73.2736549947
 10
32.1647286821
 20
73.2529610071
 10
32.1763590384
 20
73.2323005471
 10
32.1882594782
 20
73.2116736147
 10
32.2016518969
 20
73.1890229184
 10
32.2153516519
 20
73.1664132002
 10
32.2293457049
 20
73.143843529
 10
32.2436247427
 20
73.1213139046
 10
32.2581794518
 20
73.0988233957
 10
32.2747346419
 20
73.0737698871
 10
32.2916027564
 20
73.0487648073
 10
32.3087707567
 20
73.0238081563
 10
32.3262218792
 20
72.9988990027
 10
32.3439449477
 20
72.9740392092
 10
32.3619231987
 20
72.9492259819
 10
32.3801417309
 20
72.9244593206
 10
32.3985856432
 20
72.8997401569
 10
32.4221276152
 20
72.8686563346
 10
32.4459750611
 20
72.8376460869
 10
32.4700981784
 20
72.8067075509
 10
32.4944690275
 20
72.7758407268
 10
32.5190596688
 20
72.7450456146
 10
32.5438365746
 20
72.7143203515
 10
32.5687736678
 20
72.6836640063
 10
32.5938392836
 20
72.6530775103
 10
32.633420493
 20
72.6051507193
 10
32.6731358129
 20
72.5573897037
 10
32.7128697592
 20
72.5097916696
 10
32.7525105733
 20
72.4623547542
  0
LINE
  5
28F
330
1F
100
AcDbEntity
  8
0
  6
Continuous
 62
     7
370
     0
100
AcDbLine
 10
101.4646761525
 20
79.8123548414
 30
0.0
 11
103.4646764803
 21
79.8123548414
 31
0.0
  0
LINE
  5
290
330
1F
100
AcDbEntity
  8
0
  6
Continuous
 62
     7
370
     0
100
AcDbLine
 10
101.4646761525
 20
86.8123541262
 30
0.0
 11
103.4646764803
 21
86.8123541262
 31
0.0
  0
ARC
  5
291
330
1F
100
AcDbEntity
  8
0
  6
Continuous
 62
     7
370
     0
100
AcDbCircle
 10
72.4646779183
 20
99.3123528369
 30
0.0
 40
2.100002244968574
100
AcDbArc
 50
50.2849107541
 51
129.7150892459
  0
LINE
  5
292
330
1F
100
AcDbEntity
  8
0
  6
Continuous
 62
     7
370
     0
100
AcDbLine
 10
70.8033530447
 20
101.3123541746
 30
0.0
 11
71.1228385973
 21
100.927740303
 31
0.0
  0
ARC
  5
293
330
1F
100
AcDbEntity
  8
0
  6
Continuous
 62
     7
370
     0
100
AcDbCircle
 10
72.4646779183
 20
99.9538421753
 30
0.0
 40
2.146055728002914
100
AcDbArc
 50
39.2738307725
 51
140.7261692275
  0
LINE
  5
294
330
1F
100
AcDbEntity
  8
0
  6
Continuous
 62
     7
370
     0
100
AcDbLine
 10
73.8065172392
 20
100.927740303
 30
0.0
 11
74.1260027918
 21
101.3123541746
 31
0.0
  0
LINE
  5
295
330
1F
100
AcDbEntity
  8
0
  6
Continuous
 62
     7
370
     0
100
AcDbLine
 10
40.7646786827
 20
103.3123545024
 30
0.0
 11
40.7646786827
 21
101.3123541746
 31
0.0
  0
LINE
  5
296
330
1F
100
AcDbEntity
  8
0
  6
Continuous
 62
     7
370
     0
100
AcDbLine
 10
40.7646786827
 20
103.3123545024
 30
0.0
 11
101.1646785248
 21
103.3123545024
 31
0.0
  0
LINE
  5
297
330
1F
100
AcDbEntity
  8
0
  6
Continuous
 62
     7
370
     0
100
AcDbLine
 10
101.1646785248
 20
101.3123541746
 30
0.0
 11
101.1646785248
 21
103.3123545024
 31
0.0
  0
LINE
  5
298
330
1F
100
AcDbEntity
  8
0
  6
Continuous
 62
     7
370
     0
100
AcDbLine
 10
101.1646785248
 20
101.3123541746
 30
0.0
 11
74.1260027918
 21
101.3123541746
 31
0.0
  0
LINE
  5
299
330
1F
100
AcDbEntity
  8
0
  6
Continuous
 62
     7
370
     0
100
AcDbLine
 10
70.8033530447
 20
101.3123541746
 30
0.0
 11
40.7646786827
 21
101.3123541746
 31
0.0
  0
ARC
  5
29A
330
1F
100
AcDbEntity
  8
0
  6
Continuous
 62
     7
370
     0
100
AcDbCircle
 10
72.4646779183
 20
99.312354826
 30
0.0
 40
2.1000007148771
100
AcDbArc
 50
129.7151239231
 51
50.2848760769
  0
ARC
  5
29B
330
1F
100
AcDbEntity
  8
0
  6
Continuous
 62
     7
370
     0
100
AcDbCircle
 10
72.4646779183
 20
99.3123541211
 30
0.0
 40
2.600000105670469
100
AcDbArc
 50
129.7151381905
 51
50.2848618095
  0
LINE
  5
29C
330
1F
100
AcDbEntity
  8
0
  6
Continuous
 62
     7
370
     0
100
AcDbLine
 10
101.1646785248
 20
94.212355991
 30
0.0
 11
101.1646785248
 21
101.3123541746
 31
0.0
  0
LINE
  5
29D
330
1F
100
AcDbEntity
  8
0
  6
Continuous
 62
     7
370
     0
100
AcDbLine
 10
101.1646785248
 20
94.212355991
 30
0.0
 11
40.7646786827
 21
94.212355991
 31
0.0
  0
LINE
  5
29E
330
1F
100
AcDbEntity
  8
0
  6
Continuous
 62
     7
370
     0
100
AcDbLine
 10
40.7646786827
 20
101.3123541746
 30
0.0
 11
40.7646786827
 21
94.212355991
 31
0.0
  0
LINE
  5
29F
330
1F
100
AcDbEntity
  8
0
  6
Continuous
 62
     7
370
     0
100
AcDbLine
 10
40.7646786827
 20
72.4123539079
 30
0.0
 11
40.7646786827
 21
65.3123557243
 31
0.0
  0
LINE
  5
2A0
330
1F
100
AcDbEntity
  8
0
  6
Continuous
 62
     7
370
     0
100
AcDbLine
 10
101.1646785248
 20
72.4123539079
 30
0.0
 11
40.7646786827
 21
72.4123539079
 31
0.0
  0
LINE
  5
2A1
330
1F
100
AcDbEntity
  8
0
  6
Continuous
 62
     7
370
     0
100
AcDbLine
 10
101.1646785248
 20
65.3123557243
 30
0.0
 11
101.1646785248
 21
72.4123539079
 31
0.0
  0
LINE
  5
2A2
330
1F
100
AcDbEntity
  8
0
  6
Continuous
 62
     7
370
     0
100
AcDbLine
 10
74.1260027918
 20
65.3123557243
 30
0.0
 11
101.1646785248
 21
65.3123557243
 31
0.0
  0
ARC
  5
2A3
330
1F
100
AcDbEntity
  8
0
  6
Continuous
 62
     7
370
     0
100
AcDbCircle
 10
72.4646779183
 20
67.3123552527
 30
0.0
 40
2.599999701747425
100
AcDbArc
 50
309.7151455843
 51
230.2848544157
  0
LINE
  5
2A4
330
1F
100
AcDbEntity
  8
0
  6
Continuous
 62
     7
370
     0
100
AcDbLine
 10
40.7646786827
 20
65.3123557243
 30
0.0
 11
70.8033530447
 21
65.3123557243
 31
0.0
  0
ARC
  5
2A5
330
1F
100
AcDbEntity
  8
0
  6
Continuous
 62
     7
370
     0
100
AcDbCircle
 10
72.4646779183
 20
67.312354548
 30
0.0
 40
2.100000311154067
100
AcDbArc
 50
309.7151330729
 51
230.2848669271
  0
LINE
  5
2A6
330
1F
100
AcDbEntity
  8
0
  6
Continuous
 62
     7
370
     0
100
AcDbLine
 10
71.1228385973
 20
65.6969695959
 30
0.0
 11
70.8033530447
 21
65.3123557243
 31
0.0
  0
LINE
  5
2A7
330
1F
100
AcDbEntity
  8
0
  6
Continuous
 62
     7
370
     0
100
AcDbLine
 10
74.1260027918
 20
65.3123557243
 30
0.0
 11
73.8065172392
 21
65.6969695959
 31
0.0
  0
ARC
  5
2A8
330
1F
100
AcDbEntity
  8
0
  6
Continuous
 62
     7
370
     0
100
AcDbCircle
 10
72.4646779183
 20
67.3123597525
 30
0.0
 40
2.100004314582296
100
AcDbArc
 50
230.2849576587
 51
309.7150423413
  0
ARC
  5
2A9
330
1F
100
AcDbEntity
  8
0
  6
Continuous
 62
     7
370
     0
100
AcDbCircle
 10
72.4646779183
 20
66.6708677713
 30
0.0
 40
2.146055758220035
100
AcDbArc
 50
219.273831759
 51
320.726168241
  0
LINE
  5
2AA
330
1F
100
AcDbEntity
  8
0
  6
Continuous
 62
     7
370
     0
100
AcDbLine
 10
101.1646785248
 20
63.3123553965
 30
0.0
 11
101.1646785248
 21
65.3123557243
 31
0.0
  0
LINE
  5
2AB
330
1F
100
AcDbEntity
  8
0
  6
Continuous
 62
     7
370
     0
100
AcDbLine
 10
101.1646785248
 20
63.3123553965
 30
0.0
 11
40.7646786827
 21
63.3123553965
 31
0.0
  0
LINE
  5
2AC
330
1F
100
AcDbEntity
  8
0
  6
Continuous
 62
     7
370
     0
100
AcDbLine
 10
40.7646786827
 20
65.3123557243
 30
0.0
 11
40.7646786827
 21
63.3123553965
 31
0.0
  0
LINE
  5
2AD
330
1F
100
AcDbEntity
  8
0
  6
Continuous
 62
     7
370
     0
100
AcDbLine
 10
40.4646773297
 20
101.3123541746
 30
0.0
 11
40.4646773297
 21
103.0123568747
 31
0.0
  0
LINE
  5
2AE
330
1F
100
AcDbEntity
  8
0
  6
Continuous
 62
     7
370
     0
100
AcDbLine
 10
40.4646773297
 20
103.0123568747
 30
0.0
 11
40.7646786827
 21
103.3123545024
 31
0.0
  0
LINE
  5
2AF
330
1F
100
AcDbEntity
  8
0
  6
Continuous
 62
     7
370
     0
100
AcDbLine
 10
40.7646786827
 20
101.3123541746
 30
0.0
 11
40.4646773297
 21
101.3123541746
 31
0.0
  0
LINE
  5
2B0
330
1F
100
AcDbEntity
  8
0
  6
Continuous
 62
     7
370
     0
100
AcDbLine
 10
101.4646761525
 20
103.0123568747
 30
0.0
 11
101.4646761525
 21
101.3123541746
 31
0.0
  0
LINE
  5
2B1
330
1F
100
AcDbEntity
  8
0
  6
Continuous
 62
     7
370
     0
100
AcDbLine
 10
101.4646761525
 20
101.3123541746
 30
0.0
 11
101.1646785248
 21
101.3123541746
 31
0.0
  0
LINE
  5
2B2
330
1F
100
AcDbEntity
  8
0
  6
Continuous
 62
     7
370
     0
100
AcDbLine
 10
101.4646761525
 20
103.0123568747
 30
0.0
 11
101.1646785248
 21
103.3123545024
 31
0.0
  0
LINE
  5
2B3
330
1F
100
AcDbEntity
  8
0
  6
Continuous
 62
     7
370
     0
100
AcDbLine
 10
101.4646761525
 20
101.3123541746
 30
0.0
 11
101.4646761525
 21
94.5123536188
 31
0.0
  0
LINE
  5
2B4
330
1F
100
AcDbEntity
  8
0
  6
Continuous
 62
     7
370
     0
100
AcDbLine
 10
101.4646761525
 20
94.5123536188
 30
0.0
 11
101.1646785248
 21
94.212355991
 31
0.0
  0
LINE
  5
2B5
330
1F
100
AcDbEntity
  8
0
  6
Continuous
 62
     7
370
     0
100
AcDbLine
 10
40.7646786827
 20
94.212355991
 30
0.0
 11
40.4646773297
 21
94.5123536188
 31
0.0
  0
LINE
  5
2B6
330
1F
100
AcDbEntity
  8
0
  6
Continuous
 62
     7
370
     0
100
AcDbLine
 10
40.4646773297
 20
94.5123536188
 30
0.0
 11
40.4646773297
 21
101.3123541746
 31
0.0
  0
LINE
  5
2B7
330
1F
100
AcDbEntity
  8
0
  6
Continuous
 62
     7
370
     0
100
AcDbLine
 10
40.7646786827
 20
91.4123532969
 30
0.0
 11
40.7646786827
 21
75.2123547393
 31
0.0
  0
LINE
  5
2B8
330
1F
100
AcDbEntity
  8
0
  6
Continuous
 62
     7
370
     0
100
AcDbLine
 10
40.7646786827
 20
75.2123547393
 30
0.0
 11
40.4646773297
 21
75.5123546954
 31
0.0
  0
LINE
  5
2B9
330
1F
100
AcDbEntity
  8
0
  6
Continuous
 62
     7
370
     0
100
AcDbLine
 10
40.4646773297
 20
75.5123546954
 30
0.0
 11
40.4646773297
 21
91.1123561348
 31
0.0
  0
LINE
  5
2BA
330
1F
100
AcDbEntity
  8
0
  6
Continuous
 62
     7
370
     0
100
AcDbLine
 10
40.7646786827
 20
91.4123532969
 30
0.0
 11
40.4646773297
 21
91.1123561348
 31
0.0
  0
LINE
  5
2BB
330
1F
100
AcDbEntity
  8
0
  6
Continuous
 62
     7
370
     0
100
AcDbLine
 10
101.1646785248
 20
91.4123532969
 30
0.0
 11
40.7646786827
 21
91.4123532969
 31
0.0
  0
LINE
  5
2BC
330
1F
100
AcDbEntity
  8
0
  6
Continuous
 62
     7
370
     0
100
AcDbLine
 10
101.1646785248
 20
75.2123547393
 30
0.0
 11
101.1646785248
 21
91.4123532969
 31
0.0
  0
LINE
  5
2BD
330
1F
100
AcDbEntity
  8
0
  6
Continuous
 62
     7
370
     0
100
AcDbLine
 10
101.1646785248
 20
75.2123547393
 30
0.0
 11
40.7646786827
 21
75.2123547393
 31
0.0
  0
LINE
  5
2BE
330
1F
100
AcDbEntity
  8
0
  6
Continuous
 62
     7
370
     0
100
AcDbLine
 10
101.4646761525
 20
91.1123561348
 30
0.0
 11
101.4646761525
 21
75.5123546954
 31
0.0
  0
LINE
  5
2BF
330
1F
100
AcDbEntity
  8
0
  6
Continuous
 62
     7
370
     0
100
AcDbLine
 10
101.4646761525
 20
75.5123546954
 30
0.0
 11
101.1646785248
 21
75.2123547393
 31
0.0
  0
LINE
  5
2C0
330
1F
100
AcDbEntity
  8
0
  6
Continuous
 62
     7
370
     0
100
AcDbLine
 10
101.4646761525
 20
91.1123561348
 30
0.0
 11
101.1646785248
 21
91.4123532969
 31
0.0
  0
LINE
  5
2C1
330
1F
100
AcDbEntity
  8
0
  6
Continuous
 62
     7
370
     0
100
AcDbLine
 10
101.1646785248
 20
72.4123539079
 30
0.0
 11
101.4646761525
 21
72.1123544175
 31
0.0
  0
LINE
  5
2C2
330
1F
100
AcDbEntity
  8
0
  6
Continuous
 62
     7
370
     0
100
AcDbLine
 10
101.4646761525
 20
72.1123544175
 30
0.0
 11
101.4646761525
 21
65.3123557243
 31
0.0
  0
LINE
  5
2C3
330
1F
100
AcDbEntity
  8
0
  6
Continuous
 62
     7
370
     0
100
AcDbLine
 10
101.1646785248
 20
65.3123557243
 30
0.0
 11
101.4646761525
 21
65.3123557243
 31
0.0
  0
LINE
  5
2C4
330
1F
100
AcDbEntity
  8
0
  6
Continuous
 62
     7
370
     0
100
AcDbLine
 10
40.7646786827
 20
65.3123557243
 30
0.0
 11
40.4646773297
 21
65.3123557243
 31
0.0
  0
LINE
  5
2C5
330
1F
100
AcDbEntity
  8
0
  6
Continuous
 62
     7
370
     0
100
AcDbLine
 10
40.4646773297
 20
65.3123557243
 30
0.0
 11
40.4646773297
 21
72.1123544175
 31
0.0
  0
LINE
  5
2C6
330
1F
100
AcDbEntity
  8
0
  6
Continuous
 62
     7
370
     0
100
AcDbLine
 10
40.7646786827
 20
72.4123539079
 30
0.0
 11
40.4646773297
 21
72.1123544175
 31
0.0
  0
LINE
  5
2C7
330
1F
100
AcDbEntity
  8
0
  6
Continuous
 62
     7
370
     0
100
AcDbLine
 10
40.7646786827
 20
63.3123553965
 30
0.0
 11
40.4646773297
 21
63.6123548869
 31
0.0
  0
LINE
  5
2C8
330
1F
100
AcDbEntity
  8
0
  6
Continuous
 62
     7
370
     0
100
AcDbLine
 10
40.4646773297
 20
63.6123548869
 30
0.0
 11
40.4646773297
 21
65.3123557243
 31
0.0
  0
LINE
  5
2C9
330
1F
100
AcDbEntity
  8
0
  6
Continuous
 62
     7
370
     0
100
AcDbLine
 10
101.4646761525
 20
65.3123557243
 30
0.0
 11
101.4646761525
 21
63.6123548869
 31
0.0
  0
LINE
  5
2CA
330
1F
100
AcDbEntity
  8
0
  6
Continuous
 62
     7
370
     0
100
AcDbLine
 10
101.1646785248
 20
63.3123553965
 30
0.0
 11
101.4646761525
 21
63.6123548869
 31
0.0
  0
LINE
  5
2CB
330
1F
100
AcDbEntity
  8
0
  6
Continuous
 62
     7
370
     0
100
AcDbLine
 10
101.1646785248
 20
91.4123532969
 30
0.0
 11
101.1646785248
 21
94.212355991
 31
0.0
  0
LINE
  5
2CC
330
1F
100
AcDbEntity
  8
0
  6
Continuous
 62
     7
370
     0
100
AcDbLine
 10
101.4646761525
 20
94.5123536188
 30
0.0
 11
101.4646761525
 21
91.0977641727
 31
0.0
  0
LINE
  5
2CD
330
1F
100
AcDbEntity
  8
0
  6
Continuous
 62
     7
370
     0
100
AcDbLine
 10
40.7646786827
 20
94.212355991
 30
0.0
 11
40.7646786827
 21
94.1623551447
 31
0.0
  0
LINE
  5
2CE
330
1F
100
AcDbEntity
  8
0
  6
Continuous
 62
     7
370
     0
100
AcDbLine
 10
40.7646786827
 20
91.4623541433
 30
0.0
 11
40.7646786827
 21
91.4123532969
 31
0.0
  0
LINE
  5
2CF
330
1F
100
AcDbEntity
  8
0
  6
Continuous
 62
     7
370
     0
100
AcDbLine
 10
40.4646773297
 20
91.1123561348
 30
0.0
 11
40.4646773297
 21
91.4623541433
 31
0.0
  0
LINE
  5
2D0
330
1F
100
AcDbEntity
  8
0
  6
Continuous
 62
     7
370
     0
100
AcDbLine
 10
40.4646773297
 20
94.1623551447
 30
0.0
 11
40.4646773297
 21
94.5269418556
 31
0.0
  0
LINE
  5
2D1
330
1F
100
AcDbEntity
  8
0
  6
Continuous
 62
     7
370
     0
100
AcDbLine
 10
101.1646785248
 20
72.4123539079
 30
0.0
 11
101.1646785248
 21
75.2123547393
 31
0.0
  0
LINE
  5
2D2
330
1F
100
AcDbEntity
  8
0
  6
Continuous
 62
     7
370
     0
100
AcDbLine
 10
101.4646761525
 20
75.5123546954
 30
0.0
 11
101.4646761525
 21
72.0977661807
 31
0.0
  0
LINE
  5
2D3
330
1F
100
AcDbEntity
  8
0
  6
Continuous
 62
     7
370
     0
100
AcDbLine
 10
40.7646786827
 20
75.2123547393
 30
0.0
 11
40.7646786827
 21
75.162353893
 31
0.0
  0
LINE
  5
2D4
330
1F
100
AcDbEntity
  8
0
  6
Continuous
 62
     7
370
     0
100
AcDbLine
 10
40.7646786827
 20
72.4623547542
 30
0.0
 11
40.7646786827
 21
72.4123539079
 31
0.0
  0
LINE
  5
2D5
330
1F
100
AcDbEntity
  8
0
  6
Continuous
 62
     7
370
     0
100
AcDbLine
 10
40.4646773297
 20
72.1123544175
 30
0.0
 11
40.4646773297
 21
72.4623547542
 31
0.0
  0
LINE
  5
2D6
330
1F
100
AcDbEntity
  8
0
  6
Continuous
 62
     7
370
     0
100
AcDbLine
 10
40.4646773297
 20
75.162353893
 30
0.0
 11
40.4646773297
 21
75.5269447948
 31
0.0
  0
LINE
  5
2D7
330
1F
100
AcDbEntity
  8
0
  6
Continuous
 62
     7
370
     0
100
AcDbLine
 10
111.1646764386
 20
101.3123541746
 30
0.0
 11
111.4646777916
 21
101.6123555276
 31
0.0
  0
LINE
  5
2D8
330
1F
100
AcDbEntity
  8
0
  6
Continuous
 62
     7
370
     0
100
AcDbLine
 10
111.1646764386
 20
101.3123541746
 30
0.0
 11
103.7646778333
 21
101.3123541746
 31
0.0
  0
LINE
  5
2D9
330
1F
100
AcDbEntity
  8
0
  6
Continuous
 62
     7
370
     0
100
AcDbLine
 10
103.4646764803
 20
101.6123555276
 30
0.0
 11
103.7646778333
 21
101.3123541746
 31
0.0
  0
LINE
  5
2DA
330
1F
100
AcDbEntity
  8
0
  6
Continuous
 62
     7
370
     0
100
AcDbLine
 10
103.4646764803
 20
101.6123555276
 30
0.0
 11
103.4646764803
 21
103.0123568747
 31
0.0
  0
LINE
  5
2DB
330
1F
100
AcDbEntity
  8
0
  6
Continuous
 62
     7
370
     0
100
AcDbLine
 10
103.7646778333
 20
103.3123545024
 30
0.0
 11
103.4646764803
 21
103.0123568747
 31
0.0
  0
LINE
  5
2DC
330
1F
100
AcDbEntity
  8
0
  6
Continuous
 62
     7
370
     0
100
AcDbLine
 10
103.7646778333
 20
103.3123545024
 30
0.0
 11
111.1646764386
 21
103.3123545024
 31
0.0
  0
LINE
  5
2DD
330
1F
100
AcDbEntity
  8
0
  6
Continuous
 62
     7
370
     0
100
AcDbLine
 10
111.4646777916
 20
103.0123568747
 30
0.0
 11
111.1646764386
 21
103.3123545024
 31
0.0
  0
LINE
  5
2DE
330
1F
100
AcDbEntity
  8
0
  6
Continuous
 62
     7
370
     0
100
AcDbLine
 10
111.4646777916
 20
103.0123568747
 30
0.0
 11
111.4646777916
 21
101.6123555276
 31
0.0
  0
LINE
  5
2DF
330
1F
100
AcDbEntity
  8
0
  6
Continuous
 62
     7
370
     0
100
AcDbLine
 10
111.4646777916
 20
101.6123555276
 30
0.0
 11
111.4646777916
 21
65.0123543713
 31
0.0
  0
LINE
  5
2E0
330
1F
100
AcDbEntity
  8
0
  6
Continuous
 62
     7
370
     0
100
AcDbLine
 10
111.4646777916
 20
65.0123543713
 30
0.0
 11
111.1646764386
 21
65.3123557243
 31
0.0
  0
LINE
  5
2E1
330
1F
100
AcDbEntity
  8
0
  6
Continuous
 62
     7
370
     0
100
AcDbLine
 10
111.1646764386
 20
65.3123557243
 30
0.0
 11
111.1646764386
 21
101.3123541746
 31
0.0
  0
LINE
  5
2E2
330
1F
100
AcDbEntity
  8
0
  6
Continuous
 62
     7
370
     0
100
AcDbLine
 10
103.7646778333
 20
101.3123541746
 30
0.0
 11
103.7646778333
 21
65.3123557243
 31
0.0
  0
LINE
  5
2E3
330
1F
100
AcDbEntity
  8
0
  6
Continuous
 62
     7
370
     0
100
AcDbLine
 10
103.7646778333
 20
65.3123557243
 30
0.0
 11
103.4646764803
 21
65.0123543713
 31
0.0
  0
LINE
  5
2E4
330
1F
100
AcDbEntity
  8
0
  6
Continuous
 62
     7
370
     0
100
AcDbLine
 10
103.4646764803
 20
65.0123543713
 30
0.0
 11
103.4646764803
 21
101.6123555276
 31
0.0
  0
LINE
  5
2E5
330
1F
100
AcDbEntity
  8
0
  6
Continuous
 62
     7
370
     0
100
AcDbLine
 10
103.7646778333
 20
65.3123557243
 30
0.0
 11
111.1646764386
 21
65.3123557243
 31
0.0
  0
LINE
  5
2E6
330
1F
100
AcDbEntity
  8
0
  6
Continuous
 62
     7
370
     0
100
AcDbLine
 10
111.1646764386
 20
63.3123553965
 30
0.0
 11
111.4646777916
 21
63.6123548869
 31
0.0
  0
LINE
  5
2E7
330
1F
100
AcDbEntity
  8
0
  6
Continuous
 62
     7
370
     0
100
AcDbLine
 10
111.1646764386
 20
63.3123553965
 30
0.0
 11
103.7646778333
 21
63.3123553965
 31
0.0
  0
LINE
  5
2E8
330
1F
100
AcDbEntity
  8
0
  6
Continuous
 62
     7
370
     0
100
AcDbLine
 10
103.4646764803
 20
63.6123548869
 30
0.0
 11
103.7646778333
 21
63.3123553965
 31
0.0
  0
LINE
  5
2E9
330
1F
100
AcDbEntity
  8
0
  6
Continuous
 62
     7
370
     0
100
AcDbLine
 10
103.4646764803
 20
63.6123548869
 30
0.0
 11
103.4646764803
 21
65.0123543713
 31
0.0
  0
LINE
  5
2EA
330
1F
100
AcDbEntity
  8
0
  6
Continuous
 62
     7
370
     0
100
AcDbLine
 10
111.4646777916
 20
65.0123543713
 30
0.0
 11
111.4646777916
 21
63.6123548869
 31
0.0
  0
LINE
  5
2EB
330
1F
100
AcDbEntity
  8
0
  6
Continuous
 62
     7
370
     0
100
AcDbLine
 10
66.5646781619
 20
93.912354638
 30
0.0
 11
49.6646775338
 21
93.912354638
 31
0.0
  0
ARC
  5
2EC
330
1F
100
AcDbEntity
  8
0
  6
Continuous
 62
     7
370
     0
100
AcDbCircle
 10
66.5646776831
 20
93.6123546689
 30
0.0
 40
0.2999999691552217
100
AcDbArc
 50
360.0
 51
89.9999085613
  0
LINE
  5
2ED
330
1F
100
AcDbEntity
  8
0
  6
Continuous
 62
     7
370
     0
100
AcDbLine
 10
66.8646776523
 20
92.012356003
 30
0.0
 11
66.8646776523
 21
93.612353285
 31
0.0
  0
ARC
  5
2EE
330
1F
100
AcDbEntity
  8
0
  6
Continuous
 62
     7
370
     0
100
AcDbCircle
 10
66.5646776831
 20
92.0123546191
 30
0.0
 40
0.2999999691552359
100
AcDbArc
 50
270.0000914387
 51
0.0
  0
LINE
  5
2EF
330
1F
100
AcDbEntity
  8
0
  6
Continuous
 62
     7
370
     0
100
AcDbLine
 10
49.6646775338
 20
91.7123546499
 30
0.0
 11
66.5646781619
 21
91.7123546499
 31
0.0
  0
ARC
  5
2F0
330
1F
100
AcDbEntity
  8
0
  6
Continuous
 62
     7
370
     0
100
AcDbCircle
 10
49.6646764227
 20
92.0123530292
 30
0.0
 40
0.2999983793054799
100
AcDbArc
 50
180.0
 51
270.0002122036
  0
LINE
  5
2F1
330
1F
100
AcDbEntity
  8
0
  6
Continuous
 62
     7
370
     0
100
AcDbLine
 10
49.3646780435
 20
93.612353285
 30
0.0
 11
49.3646780435
 21
92.012356003
 31
0.0
  0
ARC
  5
2F2
330
1F
100
AcDbEntity
  8
0
  6
Continuous
 62
     7
370
     0
100
AcDbCircle
 10
49.6646764227
 20
93.6123562587
 30
0.0
 40
0.2999983793054799
100
AcDbArc
 50
89.9997877964
 51
180.0
  0
LINE
  5
2F3
330
1F
100
AcDbEntity
  8
0
  6
Continuous
 62
     7
370
     0
100
AcDbLine
 10
60.1146778265
 20
92.1623548168
 30
0.0
 11
60.1146778265
 21
93.4623544711
 31
0.0
  0
LINE
  5
2F4
330
1F
100
AcDbEntity
  8
0
  6
Continuous
 62
     7
370
     0
100
AcDbLine
 10
60.1146778265
 20
93.4623544711
 30
0.0
 11
58.8146781722
 21
93.4623544711
 31
0.0
  0
LINE
  5
2F5
330
1F
100
AcDbEntity
  8
0
  6
Continuous
 62
     7
370
     0
100
AcDbLine
 10
58.8146781722
 20
93.4623544711
 30
0.0
 11
58.8146781722
 21
92.1623548168
 31
0.0
  0
LINE
  5
2F6
330
1F
100
AcDbEntity
  8
0
  6
Continuous
 62
     7
370
     0
100
AcDbLine
 10
58.8146781722
 20
92.1623548168
 30
0.0
 11
60.1146778265
 21
92.1623548168
 31
0.0
  0
LINE
  5
2F7
330
1F
100
AcDbEntity
  8
0
  6
Continuous
 62
     7
370
     0
100
AcDbLine
 10
67.7646779861
 20
94.0123563308
 30
0.0
 11
47.3646777156
 21
94.0123563308
 31
0.0
  0
LINE
  5
2F8
330
1F
100
AcDbEntity
  8
0
  6
Continuous
 62
     7
370
     0
100
AcDbLine
 10
47.3646777156
 20
94.0123563308
 30
0.0
 11
47.3646777156
 21
94.1123542983
 31
0.0
  0
LINE
  5
2F9
330
1F
100
AcDbEntity
  8
0
  6
Continuous
 62
     7
370
     0
100
AcDbLine
 10
47.3646777156
 20
94.1123542983
 30
0.0
 11
67.7646779861
 21
94.1123542983
 31
0.0
  0
LINE
  5
2FA
330
1F
100
AcDbEntity
  8
0
  6
Continuous
 62
     7
370
     0
100
AcDbLine
 10
67.7646779861
 20
94.1123542983
 30
0.0
 11
67.7646779861
 21
94.0123563308
 31
0.0
  0
LINE
  5
2FB
330
1F
100
AcDbEntity
  8
0
  6
Continuous
 62
     7
370
     0
100
AcDbLine
 10
47.3646777156
 20
91.6123529572
 30
0.0
 11
67.7646779861
 21
91.6123529572
 31
0.0
  0
LINE
  5
2FC
330
1F
100
AcDbEntity
  8
0
  6
Continuous
 62
     7
370
     0
100
AcDbLine
 10
47.3646777156
 20
94.0123563308
 30
0.0
 11
47.3646777156
 21
91.6123529572
 31
0.0
  0
LINE
  5
2FD
330
1F
100
AcDbEntity
  8
0
  6
Continuous
 62
     7
370
     0
100
AcDbLine
 10
67.7646779861
 20
94.0123563308
 30
0.0
 11
67.7646779861
 21
91.6123529572
 31
0.0
  0
LINE
  5
2FE
330
1F
100
AcDbEntity
  8
0
  6
Continuous
 62
     7
370
     0
100
AcDbLine
 10
67.7646779861
 20
91.5123549897
 30
0.0
 11
47.3646777156
 21
91.5123549897
 31
0.0
  0
LINE
  5
2FF
330
1F
100
AcDbEntity
  8
0
  6
Continuous
 62
     7
370
     0
100
AcDbLine
 10
47.3646777156
 20
91.5123549897
 30
0.0
 11
47.3646777156
 21
91.6123529572
 31
0.0
  0
LINE
  5
300
330
1F
100
AcDbEntity
  8
0
  6
Continuous
 62
     7
370
     0
100
AcDbLine
 10
67.7646779861
 20
91.6123529572
 30
0.0
 11
67.7646779861
 21
91.5123549897
 31
0.0
  0
LINE
  5
301
330
1F
100
AcDbEntity
  8
0
  6
Continuous
 62
     7
370
     0
100
AcDbLine
 10
71.1646773327
 20
91.5123549897
 30
0.0
 11
71.1646773327
 21
94.1123542983
 31
0.0
  0
CIRCLE
  5
302
330
1F
100
AcDbEntity
  8
0
  6
Continuous
 62
     7
370
     0
100
AcDbCircle
 10
69.464677422
 20
92.8123546314
 30
0.0
 40
1.025000563972173
  0
LINE
  5
303
330
1F
100
AcDbEntity
  8
0
  6
Continuous
 62
     7
370
     0
100
AcDbLine
 10
71.1646773327
 20
91.5123549897
 30
0.0
 11
67.7646779861
 21
91.5123549897
 31
0.0
  0
LINE
  5
304
330
1F
100
AcDbEntity
  8
0
  6
Continuous
 62
     7
370
     0
100
AcDbLine
 10
71.1646773327
 20
94.1123542983
 30
0.0
 11
67.7646779861
 21
94.1123542983
 31
0.0
  0
LINE
  5
305
330
1F
100
AcDbEntity
  8
0
  6
Continuous
 62
     7
370
     0
100
AcDbLine
 10
71.4646777544
 20
94.1123542983
 30
0.0
 11
71.4646777544
 21
91.5123549897
 31
0.0
  0
LINE
  5
306
330
1F
100
AcDbEntity
  8
0
  6
Continuous
 62
     7
370
     0
100
AcDbLine
 10
71.4646777544
 20
91.5123549897
 30
0.0
 11
71.1646773327
 21
91.5123549897
 31
0.0
  0
LINE
  5
307
330
1F
100
AcDbEntity
  8
0
  6
Continuous
 62
     7
370
     0
100
AcDbLine
 10
71.1646773327
 20
94.1123542983
 30
0.0
 11
71.4646777544
 21
94.1123542983
 31
0.0
  0
LINE
  5
308
330
1F
100
AcDbEntity
  8
0
  6
Continuous
 62
     7
370
     0
100
AcDbLine
 10
71.4646777544
 20
91.5123549897
 30
0.0
 11
71.4646777544
 21
91.4123532969
 31
0.0
  0
LINE
  5
309
330
1F
100
AcDbEntity
  8
0
  6
Continuous
 62
     7
370
     0
100
AcDbLine
 10
71.4646777544
 20
94.212355991
 30
0.0
 11
71.4646777544
 21
94.1123542983
 31
0.0
  0
LINE
  5
30A
330
1F
100
AcDbEntity
  8
0
  6
Continuous
 62
     7
370
     0
100
AcDbLine
 10
47.3646777156
 20
91.5123549897
 30
0.0
 11
47.3646777156
 21
91.4123532969
 31
0.0
  0
LINE
  5
30B
330
1F
100
AcDbEntity
  8
0
  6
Continuous
 62
     7
370
     0
100
AcDbLine
 10
47.3646777156
 20
94.212355991
 30
0.0
 11
47.3646777156
 21
94.1123542983
 31
0.0
  0
LINE
  5
30C
330
1F
100
AcDbEntity
  8
0
  6
Continuous
 62
     7
370
     0
100
AcDbLine
 10
71.8646780062
 20
73.0123547513
 30
0.0
 11
71.8646780062
 21
74.6123538959
 31
0.0
  0
LINE
  5
30D
330
1F
100
AcDbEntity
  8
0
  6
Continuous
 62
     7
370
     0
100
AcDbLine
 10
54.6646788191
 20
72.7123552609
 30
0.0
 11
71.5646775845
 21
72.7123552609
 31
0.0
  0
ARC
  5
30E
330
1F
100
AcDbEntity
  8
0
  6
Continuous
 62
     7
370
     0
100
AcDbCircle
 10
54.6646758453
 20
73.0123536402
 30
0.0
 40
0.2999983793054751
100
AcDbArc
 50
180.0
 51
270.0005679421
  0
LINE
  5
30F
330
1F
100
AcDbEntity
  8
0
  6
Continuous
 62
     7
370
     0
100
AcDbLine
 10
54.364677466
 20
74.6123538959
 30
0.0
 11
54.364677466
 21
73.0123547513
 31
0.0
  0
LINE
  5
310
330
1F
100
AcDbEntity
  8
0
  6
Continuous
 62
     7
370
     0
100
AcDbLine
 10
63.814677944
 20
74.4623550821
 30
0.0
 11
63.814677944
 21
73.1623554278
 31
0.0
  0
LINE
  5
311
330
1F
100
AcDbEntity
  8
0
  6
Continuous
 62
     7
370
     0
100
AcDbLine
 10
63.814677944
 20
73.1623554278
 30
0.0
 11
65.1146778311
 21
73.1623554278
 31
0.0
  0
LINE
  5
312
330
1F
100
AcDbEntity
  8
0
  6
Continuous
 62
     7
370
     0
100
AcDbLine
 10
71.5646775845
 20
74.912355249
 30
0.0
 11
54.6646788191
 21
74.912355249
 31
0.0
  0
ARC
  5
313
330
1F
100
AcDbEntity
  8
0
  6
Continuous
 62
     7
370
     0
100
AcDbCircle
 10
71.5646764472
 20
74.6123536899
 30
0.0
 40
0.3000015590217512
100
AcDbArc
 50
0.0
 51
89.9997827892
  0
LINE
  5
314
330
1F
100
AcDbEntity
  8
0
  6
Continuous
 62
     7
370
     0
100
AcDbLine
 10
65.1146778311
 20
74.4623550821
 30
0.0
 11
63.814677944
 21
74.4623550821
 31
0.0
  0
ARC
  5
315
330
1F
100
AcDbEntity
  8
0
  6
Continuous
 62
     7
370
     0
100
AcDbCircle
 10
71.5646796269
 20
73.0123536402
 30
0.0
 40
0.2999983792921943
100
AcDbArc
 50
269.9996099258
 51
0.0
  0
ARC
  5
316
330
1F
100
AcDbEntity
  8
0
  6
Continuous
 62
     7
370
     0
100
AcDbCircle
 10
54.664679025
 20
74.6123536899
 30
0.0
 40
0.3000015590181843
100
AcDbArc
 50
90.0000393415
 51
180.0
  0
LINE
  5
317
330
1F
100
AcDbEntity
  8
0
  6
Continuous
 62
     7
370
     0
100
AcDbLine
 10
65.1146778311
 20
73.1623554278
 30
0.0
 11
65.1146778311
 21
74.4623550821
 31
0.0
  0
LINE
  5
318
330
1F
100
AcDbEntity
  8
0
  6
Continuous
 62
     7
370
     0
100
AcDbLine
 10
52.3646766725
 20
72.6123554308
 30
0.0
 11
72.76467834
 21
72.6123554308
 31
0.0
  0
LINE
  5
319
330
1F
100
AcDbEntity
  8
0
  6
Continuous
 62
     7
370
     0
100
AcDbLine
 10
72.76467834
 20
75.0123550791
 30
0.0
 11
52.3646766725
 21
75.0123550791
 31
0.0
  0
LINE
  5
31A
330
1F
100
AcDbEntity
  8
0
  6
Continuous
 62
     7
370
     0
100
AcDbLine
 10
72.76467834
 20
75.0123550791
 30
0.0
 11
72.76467834
 21
72.6123554308
 31
0.0
  0
LINE
  5
31B
330
1F
100
AcDbEntity
  8
0
  6
Continuous
 62
     7
370
     0
100
AcDbLine
 10
52.3646766725
 20
75.0123550791
 30
0.0
 11
52.3646766725
 21
72.6123554308
 31
0.0
  0
LINE
  5
31C
330
1F
100
AcDbEntity
  8
0
  6
Continuous
 62
     7
370
     0
100
AcDbLine
 10
52.3646766725
 20
75.1123549092
 30
0.0
 11
72.76467834
 21
75.1123549092
 31
0.0
  0
LINE
  5
31D
330
1F
100
AcDbEntity
  8
0
  6
Continuous
 62
     7
370
     0
100
AcDbLine
 10
72.76467834
 20
75.1123549092
 30
0.0
 11
72.76467834
 21
75.0123550791
 31
0.0
  0
LINE
  5
31E
330
1F
100
AcDbEntity
  8
0
  6
Continuous
 62
     7
370
     0
100
AcDbLine
 10
52.3646766725
 20
75.0123550791
 30
0.0
 11
52.3646766725
 21
75.1123549092
 31
0.0
  0
LINE
  5
31F
330
1F
100
AcDbEntity
  8
0
  6
Continuous
 62
     7
370
     0
100
AcDbLine
 10
72.76467834
 20
72.512353738
 30
0.0
 11
52.3646766725
 21
72.512353738
 31
0.0
  0
LINE
  5
320
330
1F
100
AcDbEntity
  8
0
  6
Continuous
 62
     7
370
     0
100
AcDbLine
 10
72.76467834
 20
72.6123554308
 30
0.0
 11
72.76467834
 21
72.512353738
 31
0.0
  0
LINE
  5
321
330
1F
100
AcDbEntity
  8
0
  6
Continuous
 62
     7
370
     0
100
AcDbLine
 10
52.3646766725
 20
72.512353738
 30
0.0
 11
52.3646766725
 21
72.6123554308
 31
0.0
  0
LINE
  5
322
330
1F
100
AcDbEntity
  8
0
  6
Continuous
 62
     7
370
     0
100
AcDbLine
 10
76.1646781522
 20
72.512353738
 30
0.0
 11
76.1646781522
 21
75.1123549092
 31
0.0
  0
CIRCLE
  5
323
330
1F
100
AcDbEntity
  8
0
  6
Continuous
 62
     7
370
     0
100
AcDbCircle
 10
74.4646782493
 20
73.8123543324
 30
0.0
 40
1.025000245440254
  0
LINE
  5
324
330
1F
100
AcDbEntity
  8
0
  6
Continuous
 62
     7
370
     0
100
AcDbLine
 10
76.1646781522
 20
72.512353738
 30
0.0
 11
72.76467834
 21
72.512353738
 31
0.0
  0
LINE
  5
325
330
1F
100
AcDbEntity
  8
0
  6
Continuous
 62
     7
370
     0
100
AcDbLine
 10
76.1646781522
 20
75.1123549092
 30
0.0
 11
72.76467834
 21
75.1123549092
 31
0.0
  0
LINE
  5
326
330
1F
100
AcDbEntity
  8
0
  6
Continuous
 62
     7
370
     0
100
AcDbLine
 10
76.4646776426
 20
75.1123549092
 30
0.0
 11
76.4646776426
 21
72.512353738
 31
0.0
  0
LINE
  5
327
330
1F
100
AcDbEntity
  8
0
  6
Continuous
 62
     7
370
     0
100
AcDbLine
 10
76.4646776426
 20
72.512353738
 30
0.0
 11
76.1646781522
 21
72.512353738
 31
0.0
  0
LINE
  5
328
330
1F
100
AcDbEntity
  8
0
  6
Continuous
 62
     7
370
     0
100
AcDbLine
 10
76.1646781522
 20
75.1123549092
 30
0.0
 11
76.4646776426
 21
75.1123549092
 31
0.0
  0
LINE
  5
329
330
1F
100
AcDbEntity
  8
0
  6
Continuous
 62
     7
370
     0
100
AcDbLine
 10
76.4646776426
 20
72.512353738
 30
0.0
 11
76.4646776426
 21
72.4123539079
 31
0.0
  0
LINE
  5
32A
330
1F
100
AcDbEntity
  8
0
  6
Continuous
 62
     7
370
     0
100
AcDbLine
 10
76.4646776426
 20
75.2123547393
 30
0.0
 11
76.4646776426
 21
75.1123549092
 31
0.0
  0
LINE
  5
32B
330
1F
100
AcDbEntity
  8
0
  6
Continuous
 62
     7
370
     0
100
AcDbLine
 10
52.3646766725
 20
72.512353738
 30
0.0
 11
52.3646766725
 21
72.4123539079
 31
0.0
  0
LINE
  5
32C
330
1F
100
AcDbEntity
  8
0
  6
Continuous
 62
     7
370
     0
100
AcDbLine
 10
52.3646766725
 20
75.2123547393
 30
0.0
 11
52.3646766725
 21
75.1123549092
 31
0.0
  0
DIMENSION
  5
32D
330
1F
100
AcDbEntity
  8
0
  6
Continuous
 62
     7
370
     0
100
AcDbDimension
  2
*D25
 10
131.1646778989
 20
124.5256339364
 30
0.0
 11
121.1646778989
 21
124.5256339364
 31
0.0
 70
   160
  1
<>st
 71
     1
 42
20.0
  3
SLDDIMSTYLE0
100
AcDbAlignedDimension
 13
111.1646778989
 23
101.3123549495
 33
0.0
 14
131.1646778989
 24
103.3123549495
 34
0.0
 50
0.0
100
AcDbRotatedDimension
1001
ACAD
1000
DSTYLE
1002
{
1070
    77
1070
     3
1070
   143
1040
0.0393700787
1070
    41
1040
3.0
1070
    44
1040
1.0
1070
    42
1040
1.0
1070
   147
1040
1.524
1070
    73
1070
     0
1070
    74
1070
     0
1070
   140
1040
3.5
1070
   284
1070
    12
1070
    78
1070
    12
1002
}
  0
DIMENSION
  5
343
330
1F
100
AcDbEntity
  8
0
  6
Continuous
 62
     7
370
     0
100
AcDbDimension
  2
*D26
 10
30.8757868777
 20
99.3123549495
 30
0.0
 11
30.8757868777
 21
83.3123549495
 31
0.0
 70
   160
 71
     1
 42
32.0
  3
SLDDIMSTYLE0
100
AcDbAlignedDimension
 13
67.3646778989
 23
67.3123549495
 33
0.0
 14
67.3646778989
 24
99.3123549495
 34
0.0
 50
90.0
100
AcDbRotatedDimension
1001
ACAD
1000
DSTYLE
1002
{
1070
    77
1070
     3
1070
   143
1040
0.0393700787
1070
    41
1040
3.0
1070
    44
1040
1.0
1070
    42
1040
1.0
1070
   147
1040
1.524
1070
    73
1070
     0
1070
    74
1070
     0
1070
   140
1040
3.5
1070
   284
1070
    12
1070
    78
1070
    12
1002
}
  0
DIMENSION
  5
357
330
1F
100
AcDbEntity
  8
0
  6
Continuous
 62
     7
370
     0
100
AcDbDimension
  2
*D27
 10
24.9392280682
 20
63.3123549495
 30
0.0
 11
24.9392280682
 21
83.3123549495
 31
0.0
 70
   160
 71
     1
 42
40.0
  3
SLDDIMSTYLE0
100
AcDbAlignedDimension
 13
40.7646778989
 23
103.3123549495
 33
0.0
 14
40.7646778989
 24
63.3123549495
 34
0.0
 50
90.0
100
AcDbRotatedDimension
1001
ACAD
1000
DSTYLE
1002
{
1070
    77
1070
     3
1070
   143
1040
0.0393700787
1070
    41
1040
3.0
1070
    44
1040
1.0
1070
    42
1040
1.0
1070
   147
1040
1.524
1070
    73
1070
     0
1070
    74
1070
     0
1070
   140
1040
3.5
1070
   284
1070
    12
1070
    78
1070
    12
1002
}
  0
DIMENSION
  5
36B
330
1F
100
AcDbEntity
  8
0
  6
Continuous
 62
     7
370
     0
100
AcDbDimension
  2
*D28
 10
111.4646778989
 20
54.977005172
 30
0.0
 11
91.9646778989
 21
54.977005172
 31
0.0
 70
   160
 71
     1
 42
39.0
  3
SLDDIMSTYLE0
100
AcDbAlignedDimension
 13
72.4646778989
 23
62.2123549495
 33
0.0
 14
111.4646778989
 24
63.6123549495
 34
0.0
100
AcDbRotatedDimension
1001
ACAD
1000
DSTYLE
1002
{
1070
    77
1070
     3
1070
   143
1040
0.0393700787
1070
    41
1040
3.0
1070
    44
1040
1.0
1070
    42
1040
1.0
1070
   147
1040
1.524
1070
    73
1070
     0
1070
    74
1070
     0
1070
   140
1040
3.5
1070
   284
1070
    12
1070
    78
1070
    12
1002
}
  0
INSERT
  5
383
102
{ACAD_REACTORS
330
384
102
}
330
1F
100
AcDbEntity
  8
0
  6
Continuous
 62
     7
370
     0
100
AcDbBlockReference
  2
SW_NOTE_2
 10
21.7953725337
 20
111.7511156415
 30
0.0
  0
LEADER
  5
384
330
1F
100
AcDbEntity
  8
0
  6
Continuous
 62
     7
370
     0
100
AcDbLeader
  3
SLDDIMSTYLE1
 73
     2
 76
     3
 10
65.1852325755
 20
94.0123549495
 30
0.0
 10
63.0305744657
 20
111.7511156415
 30
0.0
 10
21.7953725337
 20
111.7511156415
 30
0.0
340
383
  0
MTEXT
  5
385
330
1F
100
AcDbEntity
  8
0
  6
Continuous
 62
     7
370
     0
100
AcDbMText
 10
43.405163805
 20
54.1091273759
 30
0.0
 40
3.5
 41
0.0
 71
     1
 72
     1
  1
2-M5(取付用)
  7
SLDTEXTSTYLE0
 73
     1
 44
1.0
  0
LEADER
  5
386
330
1F
100
AcDbEntity
  8
0
  6
Continuous
 62
     7
370
     0
100
AcDbLeader
  3
SLDDIMSTYLE1
 76
     3
 10
71.1228386595
 20
65.6969703341
 30
0.0
 10
68.3464094897
 20
50.0351081521
 30
0.0
 10
43.4061254699
 20
50.0351081521
 30
0.0
  0
INSERT
  5
392
330
1F
100
AcDbEntity
  8
0
  6
Continuous
 62
     7
370
     0
100
AcDbBlockReference
  2
SW_CENTERMARKSYMBOL_8
 10
72.4646779183
 20
99.3123557094
 30
0.0
  0
INSERT
  5
39E
330
1F
100
AcDbEntity
  8
0
  6
Continuous
 62
     7
370
     0
100
AcDbBlockReference
  2
SW_CENTERMARKSYMBOL_9
 10
72.4646779183
 20
67.3123541895
 30
0.0
  0
LINE
  5
39F
330
1F
100
AcDbEntity
  8
0
  6
CENTERX2
 62
     7
370
     0
100
AcDbLine
 10
126.5658498216
 20
83.3123549495
 30
0.0
 11
35.5743881721
 21
83.3123549495
 31
0.0
  0
LINE
  5
3A0
330
1F
100
AcDbEntity
  8
0
  6
CENTERX2
 62
     7
370
     0
100
AcDbLine
 10
95.9646761823
 20
98.3123546142
 30
0.0
 11
128.8466439057
 21
98.3123546142
 31
0.0
  0
ENDSEC
  0
SECTION
  2
OBJECTS
  0
DICTIONARY
  5
C
330
0
100
AcDbDictionary
281
     1
  3
ACAD_GROUP
350
D
  3
ACAD_LAYOUT
350
1A
  3
ACAD_MLINESTYLE
350
17
  3
ACAD_PLOTSETTINGS
350
19
  3
ACAD_PLOTSTYLENAME
350
E
  0
DICTIONARY
  5
D
102
{ACAD_REACTORS
330
C
102
}
330
C
100
AcDbDictionary
281
     1
  0
DICTIONARY
  5
1A
102
{ACAD_REACTORS
330
C
102
}
330
C
100
AcDbDictionary
281
     1
  3
Layout1
350
1E
  3
Layout2
350
26
  3
Model
350
22
  0
DICTIONARY
  5
17
102
{ACAD_REACTORS
330
C
102
}
330
C
100
AcDbDictionary
281
     1
  3
Standard
350
18
  0
DICTIONARY
  5
19
102
{ACAD_REACTORS
330
C
102
}
330
C
100
AcDbDictionary
281
     1
  0
ACDBDICTIONARYWDFLT
  5
E
102
{ACAD_REACTORS
330
C
102
}
330
C
100
AcDbDictionary
281
     1
  3
Normal
350
F
100
AcDbDictionaryWithDefault
340
F
  0
LAYOUT
  5
1E
102
{ACAD_REACTORS
330
1A
102
}
330
1A
100
AcDbPlotSettings
  1

  2

  4

  6

 40
0.0
 41
0.0
 42
0.0
 43
0.0
 44
0.0
 45
0.0
 46
0.0
 47
0.0
 48
0.0
 49
0.0
140
0.0
141
0.0
142
1.0
143
1.0
 70
   688
 72
     0
 73
     0
 74
     5
  7

 75
    16
147
1.0
148
0.0
149
0.0
100
AcDbLayout
  1
Layout1
 70
     1
 71
     1
 10
0.0
 20
0.0
 11
0.0
 21
0.0
 12
0.0
 22
0.0
 32
0.0
 14
0.0
 24
0.0
 34
0.0
 15
0.0
 25
0.0
 35
0.0
146
0.0
 13
0.0
 23
0.0
 33
0.0
 16
1.0
 26
0.0
 36
0.0
 17
0.0
 27
1.0
 37
0.0
 76
     0
330
1B
  0
LAYOUT
  5
26
102
{ACAD_REACTORS
330
1A
102
}
330
1A
100
AcDbPlotSettings
  1

  2

  4

  6

 40
0.0
 41
0.0
 42
0.0
 43
0.0
 44
0.0
 45
0.0
 46
0.0
 47
0.0
 48
0.0
 49
0.0
140
0.0
141
0.0
142
1.0
143
1.0
 70
   688
 72
     0
 73
     0
 74
     5
  7

 75
    16
147
1.0
148
0.0
149
0.0
100
AcDbLayout
  1
Layout2
 70
     1
 71
     2
 10
0.0
 20
0.0
 11
0.0
 21
0.0
 12
0.0
 22
0.0
 32
0.0
 14
0.0
 24
0.0
 34
0.0
 15
0.0
 25
0.0
 35
0.0
146
0.0
 13
0.0
 23
0.0
 33
0.0
 16
1.0
 26
0.0
 36
0.0
 17
0.0
 27
1.0
 37
0.0
 76
     0
330
23
  0
LAYOUT
  5
22
102
{ACAD_REACTORS
330
1A
102
}
330
1A
100
AcDbPlotSettings
  1

  2

  4

  6

 40
0.0
 41
0.0
 42
0.0
 43
0.0
 44
0.0
 45
0.0
 46
0.0
 47
0.0
 48
0.0
 49
0.0
140
0.0
141
0.0
142
1.0
143
1.0
 70
  1712
 72
     0
 73
     0
 74
     0
  7

 75
     0
147
1.0
148
0.0
149
0.0
100
AcDbLayout
  1
Model
 70
     1
 71
     0
 10
0.0
 20
0.0
 11
0.0
 21
0.0
 12
0.0
 22
0.0
 32
0.0
 14
0.0
 24
0.0
 34
0.0
 15
210.0
 25
297.0
 35
0.0
146
0.0
 13
0.0
 23
0.0
 33
0.0
 16
1.0
 26
0.0
 36
0.0
 17
0.0
 27
1.0
 37
0.0
 76
     0
330
1F
  0
MLINESTYLE
  5
18
102
{ACAD_REACTORS
330
17
102
}
330
17
100
AcDbMlineStyle
  2
Standard
 70
     0
  3

 62
   256
 51
90.0
 52
90.0
 71
     2
 49
0.5
 62
   256
  6
BYLAYER
 49
-0.5
 62
   256
  6
BYLAYER
  0
ACDBPLACEHOLDER
  5
F
102
{ACAD_REACTORS
330
E
102
}
330
E
  0
ENDSEC
  0
EOF
