  0
SECTION
  2
HEADER
  9
$ACADVER
  1
AC1015
  9
$ACADMAINTVER
 70
     6
  9
$DWGCODEPAGE
  3
DOS932
  9
$INSBASE
 10
0.0
 20
0.0
 30
0.0
  9
$EXTMIN
 10
0.0
 20
0.0
 30
0.0
  9
$EXTMAX
 10
210.0
 20
297.0
 30
0.0
  9
$LIMMIN
 10
0.0
 20
0.0
  9
$LIMMAX
 10
0.0
 20
0.0
  9
$ORTHOMODE
 70
     0
  9
$REGENMODE
 70
     1
  9
$FILLMODE
 70
     1
  9
$QTEXTMODE
 70
     0
  9
$MIRRTEXT
 70
     1
  9
$LTSCALE
 40
1.0
  9
$ATTMODE
 70
     1
  9
$TEXTSIZE
 40
3.5
  9
$TRACEWID
 40
1.0
  9
$TEXTSTYLE
  7
Standard
  9
$CLAYER
  8
0
  9
$CELTYPE
  6
ByLayer
  9
$CECOLOR
 62
   256
  9
$CELTSCALE
 40
1.0
  9
$DISPSILH
 70
     0
  9
$DIMSCALE
 40
1.0
  9
$DIMASZ
 40
3.0
  9
$DIMEXO
 40
1.0
  9
$DIMDLI
 40
3.75
  9
$DIMRND
 40
0.0
  9
$DIMDLE
 40
0.0
  9
$DIMEXE
 40
1.0
  9
$DIMTP
 40
0.0
  9
$DIMTM
 40
0.0
  9
$DIMTXT
 40
3.5
  9
$DIMCEN
 40
2.5
  9
$DIMTSZ
 40
0.0
  9
$DIMTOL
 70
     0
  9
$DIMLIM
 70
     0
  9
$DIMTIH
 70
     1
  9
$DIMTOH
 70
     1
  9
$DIMSE1
 70
     0
  9
$DIMSE2
 70
     0
  9
$DIMTAD
 70
     1
  9
$DIMZIN
 70
     1
  9
$DIMBLK
  1

  9
$DIMASO
 70
     1
  9
$DIMSHO
 70
     1
  9
$DIMPOST
  1

  9
$DIMAPOST
  1

  9
$DIMALT
 70
     0
  9
$DIMALTD
 70
     3
  9
$DIMALTF
 40
0.0393700787
  9
$DIMLFAC
 40
1.0
  9
$DIMTOFL
 70
     1
  9
$DIMTVP
 40
0.0
  9
$DIMTIX
 70
     0
  9
$DIMSOXD
 70
     0
  9
$DIMSAH
 70
     0
  9
$DIMBLK1
  1

  9
$DIMBLK2
  1

  9
$DIMSTYLE
  2
ISO-25
  9
$DIMCLRD
 70
     0
  9
$DIMCLRE
 70
     0
  9
$DIMCLRT
 70
     0
  9
$DIMTFAC
 40
1.0
  9
$DIMGAP
 40
1.524
  9
$DIMJUST
 70
     0
  9
$DIMSD1
 70
     0
  9
$DIMSD2
 70
     0
  9
$DIMTOLJ
 70
     0
  9
$DIMTZIN
 70
     1
  9
$DIMALTZ
 70
     0
  9
$DIMALTTZ
 70
     0
  9
$DIMUPT
 70
     0
  9
$DIMDEC
 70
     2
  9
$DIMTDEC
 70
     2
  9
$DIMALTU
 70
     2
  9
$DIMALTTD
 70
     3
  9
$DIMTXSTY
  7
Standard
  9
$DIMAUNIT
 70
     0
  9
$DIMADEC
 70
     0
  9
$DIMALTRND
 40
0.0
  9
$DIMAZIN
 70
     0
  9
$DIMDSEP
 70
    44
  9
$DIMATFIT
 70
     3
  9
$DIMFRAC
 70
     0
  9
$DIMLDRBLK
  1

  9
$DIMLUNIT
 70
     2
  9
$DIMLWD
 70
    -2
  9
$DIMLWE
 70
    -2
  9
$DIMTMOVE
 70
     0
  9
$LUNITS
 70
     2
  9
$LUPREC
 70
     1
  9
$SKETCHINC
 40
1.0
  9
$FILLETRAD
 40
10.0
  9
$AUNITS
 70
     0
  9
$AUPREC
 70
     0
  9
$MENU
  1
.
  9
$ELEVATION
 40
0.0
  9
$PELEVATION
 40
0.0
  9
$THICKNESS
 40
0.0
  9
$LIMCHECK
 70
     0
  9
$CHAMFERA
 40
10.0
  9
$CHAMFERB
 40
10.0
  9
$CHAMFERC
 40
20.0
  9
$CHAMFERD
 40
0.0
  9
$SKPOLY
 70
     0
  9
$TDCREATE
 40
2454308.466006759
  9
$TDUCREATE
 40
2454308.091006759
  9
$TDUPDATE
 40
2454308.466006771
  9
$TDUUPDATE
 40
2454308.091006771
  9
$TDINDWG
 40
0.0000000116
  9
$TDUSRTIMER
 40
0.0000000116
  9
$USRTIMER
 70
     1
  9
$ANGBASE
 50
0.0
  9
$ANGDIR
 70
     0
  9
$PDMODE
 70
     0
  9
$PDSIZE
 40
-1.0
  9
$PLINEWID
 40
0.0
  9
$SPLFRAME
 70
     0
  9
$SPLINETYPE
 70
     6
  9
$SPLINESEGS
 70
     8
  9
$HANDSEED
  5
3C3
  9
$SURFTAB1
 70
     6
  9
$SURFTAB2
 70
     6
  9
$SURFTYPE
 70
     6
  9
$SURFU
 70
     6
  9
$SURFV
 70
     6
  9
$UCSBASE
  2

  9
$UCSNAME
  2

  9
$UCSORG
 10
0.0
 20
0.0
 30
0.0
  9
$UCSXDIR
 10
1.0
 20
0.0
 30
0.0
  9
$UCSYDIR
 10
0.0
 20
1.0
 30
0.0
  9
$UCSORTHOREF
  2

  9
$UCSORTHOVIEW
 70
     0
  9
$UCSORGTOP
 10
0.0
 20
0.0
 30
0.0
  9
$UCSORGBOTTOM
 10
0.0
 20
0.0
 30
0.0
  9
$UCSORGLEFT
 10
0.0
 20
0.0
 30
0.0
  9
$UCSORGRIGHT
 10
0.0
 20
0.0
 30
0.0
  9
$UCSORGFRONT
 10
0.0
 20
0.0
 30
0.0
  9
$UCSORGBACK
 10
0.0
 20
0.0
 30
0.0
  9
$PUCSBASE
  2

  9
$PUCSNAME
  2

  9
$PUCSORG
 10
0.0
 20
0.0
 30
0.0
  9
$PUCSXDIR
 10
1.0
 20
0.0
 30
0.0
  9
$PUCSYDIR
 10
0.0
 20
1.0
 30
0.0
  9
$PUCSORTHOREF
  2

  9
$PUCSORTHOVIEW
 70
     0
  9
$PUCSORGTOP
 10
0.0
 20
0.0
 30
0.0
  9
$PUCSORGBOTTOM
 10
0.0
 20
0.0
 30
0.0
  9
$PUCSORGLEFT
 10
0.0
 20
0.0
 30
0.0
  9
$PUCSORGRIGHT
 10
0.0
 20
0.0
 30
0.0
  9
$PUCSORGFRONT
 10
0.0
 20
0.0
 30
0.0
  9
$PUCSORGBACK
 10
0.0
 20
0.0
 30
0.0
  9
$USERI1
 70
     0
  9
$USERI2
 70
     0
  9
$USERI3
 70
     0
  9
$USERI4
 70
     0
  9
$USERI5
 70
     0
  9
$USERR1
 40
0.0
  9
$USERR2
 40
0.0
  9
$USERR3
 40
0.0
  9
$USERR4
 40
0.0
  9
$USERR5
 40
0.0
  9
$WORLDVIEW
 70
     1
  9
$SHADEDGE
 70
     3
  9
$SHADEDIF
 70
    70
  9
$TILEMODE
 70
     1
  9
$MAXACTVP
 70
    64
  9
$PINSBASE
 10
0.0
 20
0.0
 30
0.0
  9
$PLIMCHECK
 70
     0
  9
$PEXTMIN
 10
1.0000000000E+20
 20
1.0000000000E+20
 30
1.0000000000E+20
  9
$PEXTMAX
 10
-1.0000000000E+20
 20
-1.0000000000E+20
 30
-1.0000000000E+20
  9
$PLIMMIN
 10
0.0
 20
0.0
  9
$PLIMMAX
 10
420.0
 20
297.0
  9
$UNITMODE
 70
     0
  9
$VISRETAIN
 70
     1
  9
$PLINEGEN
 70
     0
  9
$PSLTSCALE
 70
     1
  9
$TREEDEPTH
 70
  3020
  9
$CMLSTYLE
  2
Standard
  9
$CMLJUST
 70
     0
  9
$CMLSCALE
 40
20.0
  9
$PROXYGRAPHICS
 70
     1
  9
$MEASUREMENT
 70
     1
  9
$CELWEIGHT
370
    -1
  9
$ENDCAPS
280
     0
  9
$JOINSTYLE
280
     0
  9
$LWDISPLAY
290
     1
  9
$INSUNITS
 70
     4
  9
$HYPERLINKBASE
  1

  9
$STYLESHEET
  1

  9
$XEDIT
290
     1
  9
$CEPSNTYPE
380
     0
  9
$PSTYLEMODE
290
     1
  9
$FINGERPRINTGUID
  2
{5E5C1CDB-B37E-4D49-A1C6-13D3AB884ACD}
  9
$VERSIONGUID
  2
{FAEB1C32-E019-11D5-929B-00C0DF256EC4}
  9
$EXTNAMES
290
     1
  9
$PSVPSCALE
 40
0.0
  9
$OLESTARTUP
290
     0
  0
ENDSEC
  0
SECTION
  2
CLASSES
  0
CLASS
  1
ACDBDICTIONARYWDFLT
  2
AcDbDictionaryWithDefault
  3
ObjectDBX Classes
 90
        0
280
     0
281
     0
  0
CLASS
  1
ACDBPLACEHOLDER
  2
AcDbPlaceHolder
  3
ObjectDBX Classes
 90
        0
280
     0
281
     0
  0
CLASS
  1
LAYOUT
  2
AcDbLayout
  3
ObjectDBX Classes
 90
        0
280
     0
281
     0
  0
ENDSEC
  0
SECTION
  2
TABLES
  0
TABLE
  2
VPORT
  5
8
330
0
100
AcDbSymbolTable
 70
     1
  0
VPORT
  5
29
330
8
100
AcDbSymbolTableRecord
100
AcDbViewportTableRecord
  2
*Active
 70
     0
 10
0.0
 20
0.0
 11
1.0
 21
1.0
 12
105.0
 22
148.5
 13
0.0
 23
0.0
 14
10.0
 24
10.0
 15
10.0
 25
10.0
 16
0.0
 26
0.0
 36
1.0
 17
0.0
 27
0.0
 37
0.0
 40
297.0
 41
1.9729729729
 42
50.0
 43
0.0
 44
0.0
 50
0.0
 51
0.0
 71
     0
 72
  2000
 73
     1
 74
     3
 75
     0
 76
     0
 77
     0
 78
     0
281
     0
 65
     1
110
0.0
120
0.0
130
0.0
111
1.0
121
0.0
131
0.0
112
0.0
122
1.0
132
0.0
 79
     0
146
0.0
  0
ENDTAB
  0
TABLE
  2
LTYPE
  5
5
330
0
100
AcDbSymbolTable
 70
     6
  0
LTYPE
  5
14
330
5
100
AcDbSymbolTableRecord
100
AcDbLinetypeTableRecord
  2
ByBlock
 70
     0
  3

 72
    65
 73
     0
 40
0.0
  0
LTYPE
  5
15
330
5
100
AcDbSymbolTableRecord
100
AcDbLinetypeTableRecord
  2
ByLayer
 70
     0
  3

 72
    65
 73
     0
 40
0.0
  0
LTYPE
  5
16
330
5
100
AcDbSymbolTableRecord
100
AcDbLinetypeTableRecord
  2
Continuous
 70
     0
  3
Solid line
 72
    65
 73
     0
 40
0.0
  0
LTYPE
  5
2A
330
5
100
AcDbSymbolTableRecord
100
AcDbLinetypeTableRecord
  2
HIDDEN
 70
     0
  3
Hidden __ __ __ __ __ __ __ __ __ __ __ __ __ __
 72
    65
 73
     2
 40
1.905
 49
1.27
 74
     0
 49
-0.635
 74
     0
  0
LTYPE
  5
2B
330
5
100
AcDbSymbolTableRecord
100
AcDbLinetypeTableRecord
  2
PHANTOM
 70
     0
  3
Phantom ______  __  __  ______  __  __  ______
 72
    65
 73
     6
 40
12.7
 49
6.35
 74
     0
 49
-1.27
 74
     0
 49
1.27
 74
     0
 49
-1.27
 74
     0
 49
1.27
 74
     0
 49
-1.27
 74
     0
  0
LTYPE
  5
2C
330
5
100
AcDbSymbolTableRecord
100
AcDbLinetypeTableRecord
  2
CENTER
 70
     0
  3
Center ____ _ ____ _ ____ _ ____ _ ____ _ ____
 72
    65
 73
     4
 40
10.16
 49
6.35
 74
     0
 49
-1.27
 74
     0
 49
1.27
 74
     0
 49
-1.27
 74
     0
  0
LTYPE
  5
2D
330
5
100
AcDbSymbolTableRecord
100
AcDbLinetypeTableRecord
  2
CENTERX2
 70
     0
  3
Center (2x) ________  __  ________  __  _____
 72
    65
 73
     4
 40
20.32
 49
12.7
 74
     0
 49
-2.54
 74
     0
 49
2.54
 74
     0
 49
-2.54
 74
     0
  0
LTYPE
  5
2E
330
5
100
AcDbSymbolTableRecord
100
AcDbLinetypeTableRecord
  2
DOT2
 70
     0
  3
Dot (.5x) ........................................
 72
    65
 73
     2
 40
0.635
 49
0.0
 74
     0
 49
-0.635
 74
     0
  0
ENDTAB
  0
TABLE
  2
LAYER
  5
2
330
0
100
AcDbSymbolTable
 70
     4
  0
LAYER
  5
10
330
2
100
AcDbSymbolTableRecord
100
AcDbLayerTableRecord
  2
0
 70
     0
 62
     7
  6
Continuous
370
    -3
390
F
  0
LAYER
  5
2F
330
2
100
AcDbSymbolTableRecord
100
AcDbLayerTableRecord
  2
SLD-0
 70
     0
 62
   179
  6
Continuous
370
     0
390
F
  0
LAYER
  5
30
330
2
100
AcDbSymbolTableRecord
100
AcDbLayerTableRecord
  2
SLD-DEFPOINTS
 70
     0
 62
   179
  6
Continuous
370
     0
390
F
  0
LAYER
  5
138
330
2
100
AcDbSymbolTableRecord
100
AcDbLayerTableRecord
  2
Defpoints
 70
     0
 62
     7
  6
Continuous
290
     0
370
    -3
390
F
  0
ENDTAB
  0
TABLE
  2
STYLE
  5
3
330
0
100
AcDbSymbolTable
 70
     4
  0
STYLE
  5
11
330
3
100
AcDbSymbolTableRecord
100
AcDbTextStyleTableRecord
  2
Standard
 70
     0
 40
0.0
 41
1.0
 50
0.0
 71
     0
 42
2.5
  3
txt
  4
bigfont
  0
STYLE
  5
34
330
3
100
AcDbSymbolTableRecord
100
AcDbTextStyleTableRecord
  2
SLDTEXTSTYLE0
 70
     0
 40
0.0
 41
0.7
 50
0.0
 71
     0
 42
0.2
  3
TXT
  4
bigfont
  0
STYLE
  5
3C
330
3
100
AcDbSymbolTableRecord
100
AcDbTextStyleTableRecord
  2
SLDTEXTSTYLE1
 70
     0
 40
0.0
 41
0.5526315789
 50
0.0
 71
     0
 42
0.2
  3
TXT
  4
bigfont
  0
STYLE
  5
3AD
330
3
100
AcDbSymbolTableRecord
100
AcDbTextStyleTableRecord
  2
SLDTEXTSTYLE2
 70
     0
 40
0.0
 41
0.482616129
 50
0.0
 71
     0
 42
0.2
  3
TXT
  4
bigfont
  0
ENDTAB
  0
TABLE
  2
VIEW
  5
6
330
0
100
AcDbSymbolTable
 70
     0
  0
ENDTAB
  0
TABLE
  2
UCS
  5
7
330
0
100
AcDbSymbolTable
 70
     0
  0
ENDTAB
  0
TABLE
  2
APPID
  5
9
330
0
100
AcDbSymbolTable
 70
     1
  0
APPID
  5
12
330
9
100
AcDbSymbolTableRecord
100
AcDbRegAppTableRecord
  2
ACAD
 70
     0
  0
ENDTAB
  0
TABLE
  2
DIMSTYLE
  5
A
330
0
100
AcDbSymbolTable
 70
     8
100
AcDbDimStyleTable
  0
DIMSTYLE
105
27
330
A
100
AcDbSymbolTableRecord
100
AcDbDimStyleTableRecord
  2
ISO-25
 70
     0
 41
2.5
 42
0.625
 43
3.75
 44
1.25
 73
     0
 74
     0
 77
     1
 78
     8
140
2.5
141
2.5
143
0.0393700787
147
0.625
171
     3
172
     1
271
     2
272
     2
274
     3
278
    44
283
     0
284
     8
340
11
  0
DIMSTYLE
105
146
102
{ACAD_REACTORS
330
137
102
}
330
A
100
AcDbSymbolTableRecord
100
AcDbDimStyleTableRecord
  2
SLDDIMSTYLE0
 70
     0
 41
3.0
 44
0.0
 73
     0
 74
     0
 77
     3
 78
    12
140
3.5
147
0.875
173
     1
271
     0
272
     2
284
    12
340
3C
341
147
343
147
344
147
  0
DIMSTYLE
105
164
102
{ACAD_REACTORS
330
156
330
18E
330
1A8
330
1DD
330
223
330
255
330
291
330
2A8
330
2BF
330
2EE
330
308
330
31F
330
36C
102
}
330
A
100
AcDbSymbolTableRecord
100
AcDbDimStyleTableRecord
  2
SLDDIMSTYLE1
 70
     0
 41
3.0
 44
0.0
 73
     0
 74
     0
 77
     3
 78
    12
140
3.5
147
0.875
173
     1
271
     0
272
     3
284
    12
340
3C
341
147
343
147
344
147
  0
DIMSTYLE
105
180
102
{ACAD_REACTORS
330
173
102
}
330
A
100
AcDbSymbolTableRecord
100
AcDbDimStyleTableRecord
  2
SLDDIMSTYLE2
 70
     0
 41
3.0
 44
0.0
 47
0.1
 71
     1
 73
     0
 74
     0
 77
     3
 78
    12
140
3.5
147
0.875
173
     1
271
     0
272
     1
340
3C
341
147
343
147
344
147
  0
DIMSTYLE
105
1D0
102
{ACAD_REACTORS
330
1C1
330
1F5
330
23C
330
2D6
330
336
330
350
102
}
330
A
100
AcDbSymbolTableRecord
100
AcDbDimStyleTableRecord
  2
SLDDIMSTYLE3
 70
     0
 41
3.0
 44
0.0
 73
     0
 74
     0
 77
     3
 78
    12
140
3.5
147
0.875
173
     1
271
     1
272
     3
284
    12
340
3C
341
147
343
147
344
147
  0
DIMSTYLE
105
219
102
{ACAD_REACTORS
330
20F
330
395
102
}
330
A
100
AcDbSymbolTableRecord
100
AcDbDimStyleTableRecord
  2
SLDDIMSTYLE4
 70
     0
 41
3.0
 44
0.0
 78
    12
140
3.5
147
0.875
172
     1
173
     1
271
     1
272
     3
284
    12
340
3C
341
147
343
147
344
147
  0
DIMSTYLE
105
279
102
{ACAD_REACTORS
330
26F
330
280
102
}
330
A
100
AcDbSymbolTableRecord
100
AcDbDimStyleTableRecord
  2
SLDDIMSTYLE5
 70
     0
 41
3.0
 44
0.0
 78
    12
140
3.5
147
0.875
173
     1
271
     0
272
     3
284
    12
340
3C
341
147
343
147
344
147
  0
DIMSTYLE
105
38E
102
{ACAD_REACTORS
330
384
102
}
330
A
100
AcDbSymbolTableRecord
100
AcDbDimStyleTableRecord
  2
SLDDIMSTYLE6
 70
     0
 41
3.0
 44
0.0
 78
    12
140
3.5
147
0.875
172
     1
173
     1
271
     0
272
     3
284
    12
340
3C
341
147
343
147
344
147
  0
ENDTAB
  0
TABLE
  2
BLOCK_RECORD
  5
1
330
0
100
AcDbSymbolTable
 70
    40
  0
BLOCK_RECORD
  5
1F
330
1
100
AcDbSymbolTableRecord
100
AcDbBlockTableRecord
  2
*Model_Space
340
22
  0
BLOCK_RECORD
  5
1B
330
1
100
AcDbSymbolTableRecord
100
AcDbBlockTableRecord
  2
*Paper_Space
340
1E
  0
BLOCK_RECORD
  5
23
330
1
100
AcDbSymbolTableRecord
100
AcDbBlockTableRecord
  2
*Paper_Space0
340
26
  0
BLOCK_RECORD
  5
31
330
1
100
AcDbSymbolTableRecord
100
AcDbBlockTableRecord
  2
注記
340
0
102
{BLKREFS
331
3B9
102
}
  0
BLOCK_RECORD
  5
37
330
1
100
AcDbSymbolTableRecord
100
AcDbBlockTableRecord
  2
SURFACEFINISH54
340
0
102
{BLKREFS
331
3B7
102
}
  0
BLOCK_RECORD
  5
3E
330
1
100
AcDbSymbolTableRecord
100
AcDbBlockTableRecord
  2
SURFACEFINISH55
340
0
102
{BLKREFS
331
3B8
102
}
  0
BLOCK_RECORD
  5
45
330
1
100
AcDbSymbolTableRecord
100
AcDbBlockTableRecord
  2
SURFACEFINISH56
340
0
102
{BLKREFS
331
3BA
102
}
  0
BLOCK_RECORD
  5
4D
330
1
100
AcDbSymbolTableRecord
100
AcDbBlockTableRecord
  2
SURFACEFINISH57
340
0
102
{BLKREFS
331
3BB
102
}
  0
BLOCK_RECORD
  5
55
330
1
100
AcDbSymbolTableRecord
100
AcDbBlockTableRecord
  2
SW_CENTERMARK0
340
0
102
{BLKREFS
331
3BC
102
}
  0
BLOCK_RECORD
  5
60
330
1
100
AcDbSymbolTableRecord
100
AcDbBlockTableRecord
  2
SW_CENTERMARK1
340
0
102
{BLKREFS
331
3BD
102
}
  0
BLOCK_RECORD
  5
6B
330
1
100
AcDbSymbolTableRecord
100
AcDbBlockTableRecord
  2
SW_CENTERMARK2
340
0
102
{BLKREFS
331
3BE
102
}
  0
BLOCK_RECORD
  5
76
330
1
100
AcDbSymbolTableRecord
100
AcDbBlockTableRecord
  2
SW_CENTERMARK3
340
0
102
{BLKREFS
331
3BF
102
}
  0
BLOCK_RECORD
  5
81
330
1
100
AcDbSymbolTableRecord
100
AcDbBlockTableRecord
  2
SW_CENTERMARK4
340
0
102
{BLKREFS
331
3C0
102
}
  0
BLOCK_RECORD
  5
8C
330
1
100
AcDbSymbolTableRecord
100
AcDbBlockTableRecord
  2
SW_CENTERMARK5
340
0
102
{BLKREFS
331
3C1
102
}
  0
BLOCK_RECORD
  5
97
330
1
100
AcDbSymbolTableRecord
100
AcDbBlockTableRecord
  2
SW_CENTERMARK6
340
0
102
{BLKREFS
331
3C2
102
}
  0
BLOCK_RECORD
  5
139
330
1
100
AcDbSymbolTableRecord
100
AcDbBlockTableRecord
  2
*D13
340
0
  0
BLOCK_RECORD
  5
147
330
1
100
AcDbSymbolTableRecord
100
AcDbBlockTableRecord
  2
_None
340
0
102
{BLKREFS
331
13E
331
13D
331
15C
331
15B
331
179
331
178
331
194
331
193
331
1AE
331
1AD
331
1C8
331
1C7
331
1E3
331
1E2
331
1FB
331
1FA
331
214
331
229
331
228
331
242
331
241
331
25B
331
25A
331
274
331
285
331
297
331
296
331
2AE
331
2AD
331
2C5
331
2C4
331
2DC
331
2DB
331
2F4
331
2F3
331
30E
331
30D
331
325
331
324
331
33C
331
33B
331
357
331
356
331
372
331
371
331
389
331
39C
331
39B
102
}
  0
BLOCK_RECORD
  5
157
330
1
100
AcDbSymbolTableRecord
100
AcDbBlockTableRecord
  2
*D15
340
0
  0
BLOCK_RECORD
  5
174
330
1
100
AcDbSymbolTableRecord
100
AcDbBlockTableRecord
  2
*D16
340
0
  0
BLOCK_RECORD
  5
18F
330
1
100
AcDbSymbolTableRecord
100
AcDbBlockTableRecord
  2
*D17
340
0
  0
BLOCK_RECORD
  5
1A9
330
1
100
AcDbSymbolTableRecord
100
AcDbBlockTableRecord
  2
*D18
340
0
  0
BLOCK_RECORD
  5
1C2
330
1
100
AcDbSymbolTableRecord
100
AcDbBlockTableRecord
  2
*D19
340
0
  0
BLOCK_RECORD
  5
1DE
330
1
100
AcDbSymbolTableRecord
100
AcDbBlockTableRecord
  2
*D20
340
0
  0
BLOCK_RECORD
  5
1F6
330
1
100
AcDbSymbolTableRecord
100
AcDbBlockTableRecord
  2
*D21
340
0
  0
BLOCK_RECORD
  5
210
330
1
100
AcDbSymbolTableRecord
100
AcDbBlockTableRecord
  2
*D22
340
0
  0
BLOCK_RECORD
  5
224
330
1
100
AcDbSymbolTableRecord
100
AcDbBlockTableRecord
  2
*D23
340
0
  0
BLOCK_RECORD
  5
23D
330
1
100
AcDbSymbolTableRecord
100
AcDbBlockTableRecord
  2
*D24
340
0
  0
BLOCK_RECORD
  5
256
330
1
100
AcDbSymbolTableRecord
100
AcDbBlockTableRecord
  2
*D25
340
0
  0
BLOCK_RECORD
  5
270
330
1
100
AcDbSymbolTableRecord
100
AcDbBlockTableRecord
  2
*D26
340
0
  0
BLOCK_RECORD
  5
281
330
1
100
AcDbSymbolTableRecord
100
AcDbBlockTableRecord
  2
*D27
340
0
  0
BLOCK_RECORD
  5
292
330
1
100
AcDbSymbolTableRecord
100
AcDbBlockTableRecord
  2
*D28
340
0
  0
BLOCK_RECORD
  5
2A9
330
1
100
AcDbSymbolTableRecord
100
AcDbBlockTableRecord
  2
*D29
340
0
  0
BLOCK_RECORD
  5
2C0
330
1
100
AcDbSymbolTableRecord
100
AcDbBlockTableRecord
  2
*D30
340
0
  0
BLOCK_RECORD
  5
2D7
330
1
100
AcDbSymbolTableRecord
100
AcDbBlockTableRecord
  2
*D31
340
0
  0
BLOCK_RECORD
  5
2EF
330
1
100
AcDbSymbolTableRecord
100
AcDbBlockTableRecord
  2
*D32
340
0
  0
BLOCK_RECORD
  5
309
330
1
100
AcDbSymbolTableRecord
100
AcDbBlockTableRecord
  2
*D33
340
0
  0
BLOCK_RECORD
  5
320
330
1
100
AcDbSymbolTableRecord
100
AcDbBlockTableRecord
  2
*D34
340
0
  0
BLOCK_RECORD
  5
337
330
1
100
AcDbSymbolTableRecord
100
AcDbBlockTableRecord
  2
*D35
340
0
  0
BLOCK_RECORD
  5
351
330
1
100
AcDbSymbolTableRecord
100
AcDbBlockTableRecord
  2
*D36
340
0
  0
BLOCK_RECORD
  5
36D
330
1
100
AcDbSymbolTableRecord
100
AcDbBlockTableRecord
  2
*D37
340
0
  0
BLOCK_RECORD
  5
385
330
1
100
AcDbSymbolTableRecord
100
AcDbBlockTableRecord
  2
*D38
340
0
  0
BLOCK_RECORD
  5
396
330
1
100
AcDbSymbolTableRecord
100
AcDbBlockTableRecord
  2
*D39
340
0
  0
ENDTAB
  0
ENDSEC
  0
SECTION
  2
BLOCKS
  0
BLOCK
  5
20
330
1F
100
AcDbEntity
  8
0
100
AcDbBlockBegin
  2
*Model_Space
 70
     0
 71
     0
 10
0.0
 20
0.0
 30
0.0
  3
*Model_Space
  1

  0
ENDBLK
  5
21
330
1F
100
AcDbEntity
  8
0
100
AcDbBlockEnd
  0
BLOCK
  5
1C
330
1B
100
AcDbEntity
 67
     1
  8
0
100
AcDbBlockBegin
  2
*Paper_Space
 70
     0
 71
     0
 10
0.0
 20
0.0
 30
0.0
  3
*Paper_Space
  1

  0
ENDBLK
  5
1D
330
1B
100
AcDbEntity
 67
     1
  8
0
100
AcDbBlockEnd
  0
BLOCK
  5
24
330
23
100
AcDbEntity
  8
0
100
AcDbBlockBegin
  2
*Paper_Space0
 70
     0
 71
     0
 10
0.0
 20
0.0
 30
0.0
  3
*Paper_Space0
  1

  0
ENDBLK
  5
25
330
23
100
AcDbEntity
  8
0
100
AcDbBlockEnd
  0
BLOCK
  5
32
330
31
100
AcDbEntity
  8
0
100
AcDbBlockBegin
  2
注記
 70
     0
 71
     0
 10
0.0
 20
0.0
 30
0.0
  3
注記
  1

  0
MTEXT
  5
35
330
31
100
AcDbEntity
  8
0
  6
Continuous
 62
     7
370
     0
100
AcDbMText
 10
0.2636785918
 20
9.0739778448
 30
0.0
 40
3.5
 41
0.0
 71
     1
 72
     1
  1
１．特記ナキ角部ハ、バリ　カエリノ無キコト。
  7
SLDTEXTSTYLE0
 73
     1
 44
1.0
  0
MTEXT
  5
36
330
31
100
AcDbEntity
  8
0
  6
Continuous
 62
     7
370
     0
100
AcDbMText
 10
0.2636785918
 20
3.5759549983
 30
0.0
 40
3.5
 41
0.0
 71
     1
 72
     1
  1
２．特記ナキ隅部ハ、Ｒ０．４ＭＡＸトスル。
  7
SLDTEXTSTYLE0
 73
     1
 44
1.0
  0
ENDBLK
  5
33
330
31
100
AcDbEntity
  8
0
100
AcDbBlockEnd
  0
BLOCK
  5
38
330
37
100
AcDbEntity
  8
0
100
AcDbBlockBegin
  2
SURFACEFINISH54
 70
     0
 71
     0
 10
0.0
 20
0.0
 30
0.0
  3
SURFACEFINISH54
  1

  0
LINE
  5
3A
330
37
100
AcDbEntity
  8
SLD-0
  6
Continuous
 62
   179
100
AcDbLine
 10
0.6655074769
 20
-6.0437216301
 30
0.0
 11
-2.8998018096
 21
0.0000001164
 31
0.0
  0
LINE
  5
3B
330
37
100
AcDbEntity
  8
SLD-0
  6
Continuous
 62
   179
100
AcDbLine
 10
0.6655074769
 20
-6.0437216301
 30
0.0
 11
7.7961260499
 21
6.0437218629
 31
0.0
  0
MTEXT
  5
3D
330
37
100
AcDbEntity
  8
SLD-0
100
AcDbMText
 10
0.0
 20
4.9341236929
 30
0.0
 40
3.175
 41
0.0
 71
     1
 72
     1
  1
25
  7
SLDTEXTSTYLE1
 73
     1
 44
1.0
  0
ENDBLK
  5
39
330
37
100
AcDbEntity
  8
0
100
AcDbBlockEnd
  0
BLOCK
  5
3F
330
3E
100
AcDbEntity
  8
0
100
AcDbBlockBegin
  2
SURFACEFINISH55
 70
     0
 71
     0
 10
0.0
 20
0.0
 30
0.0
  3
SURFACEFINISH55
  1

  0
LINE
  5
41
330
3E
100
AcDbEntity
  8
SLD-0
  6
Continuous
 62
   179
100
AcDbLine
 10
2.7836175296
 20
-6.0437216301
 30
0.0
 11
-0.7816917569
 21
0.0000001164
 31
0.0
  0
LINE
  5
42
330
3E
100
AcDbEntity
  8
SLD-0
  6
Continuous
 62
   179
100
AcDbLine
 10
6.3489268161
 20
0.0000001164
 30
0.0
 11
-0.7816917569
 21
0.0000001164
 31
0.0
  0
LINE
  5
43
330
3E
100
AcDbEntity
  8
SLD-0
  6
Continuous
 62
   179
100
AcDbLine
 10
2.7836175296
 20
-6.0437216301
 30
0.0
 11
9.9142361026
 21
6.0437218629
 31
0.0
  0
MTEXT
  5
44
330
3E
100
AcDbEntity
  8
SLD-0
100
AcDbMText
 10
0.0
 20
4.9341236929
 30
0.0
 40
3.175
 41
0.0
 71
     1
 72
     1
  1
6.3
  7
SLDTEXTSTYLE1
 73
     1
 44
1.0
  0
ENDBLK
  5
40
330
3E
100
AcDbEntity
  8
0
100
AcDbBlockEnd
  0
BLOCK
  5
46
330
45
100
AcDbEntity
  8
0
100
AcDbBlockBegin
  2
SURFACEFINISH56
 70
     0
 71
     0
 10
0.0
 20
0.0
 30
0.0
  3
SURFACEFINISH56
  1

  0
LINE
  5
48
330
45
100
AcDbEntity
  8
SLD-0
  6
Continuous
 62
   179
100
AcDbLine
 10
-6.8496924273
 20
17.3482637064
 30
0.0
 11
-6.8496924273
 21
1.3768728577
 31
0.0
  0
LINE
  5
49
330
45
100
AcDbEntity
  8
SLD-0
  6
Continuous
 62
   179
100
AcDbLine
 10
-6.8496924273
 20
2.3768728577
 30
0.0
 11
-2.8205445962
 21
4.7537457154
 31
0.0
  0
LINE
  5
4A
330
45
100
AcDbEntity
  8
SLD-0
  6
Continuous
 62
   179
100
AcDbLine
 10
-2.8205445962
 20
0.0
 30
0.0
 11
-2.8205445962
 21
4.7537457154
 31
0.0
  0
LINE
  5
4B
330
45
100
AcDbEntity
  8
SLD-0
  6
Continuous
 62
   179
100
AcDbLine
 10
-6.8496924273
 20
2.3768728577
 30
0.0
 11
1.2086032348
 21
-2.3768728577
 31
0.0
  0
MTEXT
  5
4C
330
45
100
AcDbEntity
  8
SLD-0
100
AcDbMText
 10
-2.910531727
 20
0.0
 30
0.0
 40
2.1166666667
 41
0.0
 71
     1
 72
     1
  1
6.3
  7
SLDTEXTSTYLE1
 11
6.123031769111886E-17
 21
1.0
 31
0.0
 73
     1
 44
1.0
  0
ENDBLK
  5
47
330
45
100
AcDbEntity
  8
0
100
AcDbBlockEnd
  0
BLOCK
  5
4E
330
4D
100
AcDbEntity
  8
0
100
AcDbBlockBegin
  2
SURFACEFINISH57
 70
     0
 71
     0
 10
0.0
 20
0.0
 30
0.0
  3
SURFACEFINISH57
  1

  0
LINE
  5
50
330
4D
100
AcDbEntity
  8
SLD-0
  6
Continuous
 62
   179
100
AcDbLine
 10
4.0291477437
 20
18.2548749364
 30
0.0
 11
4.0291477437
 21
0.8539439057
 31
0.0
  0
LINE
  5
51
330
4D
100
AcDbEntity
  8
SLD-0
  6
Continuous
 62
   179
100
AcDbLine
 10
4.0291477437
 20
1.8539439057
 30
0.0
 11
-0.0000000873
 21
-0.522928952
 31
0.0
  0
LINE
  5
52
330
4D
100
AcDbEntity
  8
SLD-0
  6
Continuous
 62
   179
100
AcDbLine
 10
-0.0000000873
 20
4.2308167634
 30
0.0
 11
-0.0000000873
 21
-0.522928952
 31
0.0
  0
LINE
  5
53
330
4D
100
AcDbEntity
  8
SLD-0
  6
Continuous
 62
   179
100
AcDbLine
 10
4.0291477437
 20
1.8539439057
 30
0.0
 11
-4.0291479183
 21
6.6076896211
 31
0.0
  0
MTEXT
  5
54
330
4D
100
AcDbEntity
  8
SLD-0
100
AcDbMText
 10
-2.910531727
 20
0.0
 30
0.0
 40
2.1166666667
 41
0.0
 71
     1
 72
     1
  1
6.3
  7
SLDTEXTSTYLE1
 11
6.123031769111886E-17
 21
1.0
 31
0.0
 73
     1
 44
1.0
  0
ENDBLK
  5
4F
330
4D
100
AcDbEntity
  8
0
100
AcDbBlockEnd
  0
BLOCK
  5
56
330
55
100
AcDbEntity
  8
0
100
AcDbBlockBegin
  2
SW_CENTERMARK0
 70
     0
 71
     0
 10
0.0
 20
0.0
 30
0.0
  3
SW_CENTERMARK0
  1

  0
LINE
  5
58
330
55
100
AcDbEntity
  8
SLD-0
  6
Continuous
 62
   179
100
AcDbLine
 10
151.3583678716
 20
141.1953180351
 30
0.0
 11
151.3583678716
 21
143.6953180351
 31
0.0
  0
LINE
  5
59
330
55
100
AcDbEntity
  8
SLD-0
  6
Continuous
 62
   179
100
AcDbLine
 10
151.3583678716
 20
141.1953180351
 30
0.0
 11
148.8583678716
 21
141.1953180351
 31
0.0
  0
LINE
  5
5A
330
55
100
AcDbEntity
  8
SLD-0
  6
Continuous
 62
   179
100
AcDbLine
 10
151.3583678716
 20
141.1953180351
 30
0.0
 11
151.3583678716
 21
138.6953180351
 31
0.0
  0
LINE
  5
5B
330
55
100
AcDbEntity
  8
SLD-0
  6
Continuous
 62
   179
100
AcDbLine
 10
151.3583678716
 20
141.1953180351
 30
0.0
 11
153.8583678716
 21
141.1953180351
 31
0.0
  0
LINE
  5
5C
330
55
100
AcDbEntity
  8
SLD-0
  6
Continuous
 62
   179
100
AcDbLine
 10
151.3583678716
 20
146.1953180351
 30
0.0
 11
151.3583678716
 21
147.4453180351
 31
0.0
  0
LINE
  5
5D
330
55
100
AcDbEntity
  8
SLD-0
  6
Continuous
 62
   179
100
AcDbLine
 10
146.3583678716
 20
141.1953180351
 30
0.0
 11
145.1083678716
 21
141.1953180351
 31
0.0
  0
LINE
  5
5E
330
55
100
AcDbEntity
  8
SLD-0
  6
Continuous
 62
   179
100
AcDbLine
 10
151.3583678716
 20
136.1953180351
 30
0.0
 11
151.3583678716
 21
134.9453180351
 31
0.0
  0
LINE
  5
5F
330
55
100
AcDbEntity
  8
SLD-0
  6
Continuous
 62
   179
100
AcDbLine
 10
156.3583678716
 20
141.1953180351
 30
0.0
 11
157.6083678716
 21
141.1953180351
 31
0.0
  0
ENDBLK
  5
57
330
55
100
AcDbEntity
  8
0
100
AcDbBlockEnd
  0
BLOCK
  5
61
330
60
100
AcDbEntity
  8
0
100
AcDbBlockBegin
  2
SW_CENTERMARK1
 70
     0
 71
     0
 10
0.0
 20
0.0
 30
0.0
  3
SW_CENTERMARK1
  1

  0
LINE
  5
63
330
60
100
AcDbEntity
  8
SLD-0
  6
Continuous
 62
   179
100
AcDbLine
 10
141.3583678716
 20
141.1953180351
 30
0.0
 11
141.3583678716
 21
143.6953180351
 31
0.0
  0
LINE
  5
64
330
60
100
AcDbEntity
  8
SLD-0
  6
Continuous
 62
   179
100
AcDbLine
 10
141.3583678716
 20
141.1953180351
 30
0.0
 11
138.8583678716
 21
141.1953180351
 31
0.0
  0
LINE
  5
65
330
60
100
AcDbEntity
  8
SLD-0
  6
Continuous
 62
   179
100
AcDbLine
 10
141.3583678716
 20
141.1953180351
 30
0.0
 11
141.3583678716
 21
138.6953180351
 31
0.0
  0
LINE
  5
66
330
60
100
AcDbEntity
  8
SLD-0
  6
Continuous
 62
   179
100
AcDbLine
 10
141.3583678716
 20
141.1953180351
 30
0.0
 11
143.8583678716
 21
141.1953180351
 31
0.0
  0
LINE
  5
67
330
60
100
AcDbEntity
  8
SLD-0
  6
Continuous
 62
   179
100
AcDbLine
 10
141.3583678716
 20
146.1953180351
 30
0.0
 11
141.3583678716
 21
147.4453180351
 31
0.0
  0
LINE
  5
68
330
60
100
AcDbEntity
  8
SLD-0
  6
Continuous
 62
   179
100
AcDbLine
 10
136.3583678716
 20
141.1953180351
 30
0.0
 11
135.1083678716
 21
141.1953180351
 31
0.0
  0
LINE
  5
69
330
60
100
AcDbEntity
  8
SLD-0
  6
Continuous
 62
   179
100
AcDbLine
 10
141.3583678716
 20
136.1953180351
 30
0.0
 11
141.3583678716
 21
134.9453180351
 31
0.0
  0
LINE
  5
6A
330
60
100
AcDbEntity
  8
SLD-0
  6
Continuous
 62
   179
100
AcDbLine
 10
146.3583678716
 20
141.1953180351
 30
0.0
 11
147.6083678716
 21
141.1953180351
 31
0.0
  0
ENDBLK
  5
62
330
60
100
AcDbEntity
  8
0
100
AcDbBlockEnd
  0
BLOCK
  5
6C
330
6B
100
AcDbEntity
  8
0
100
AcDbBlockBegin
  2
SW_CENTERMARK2
 70
     0
 71
     0
 10
0.0
 20
0.0
 30
0.0
  3
SW_CENTERMARK2
  1

  0
LINE
  5
6E
330
6B
100
AcDbEntity
  8
SLD-0
  6
Continuous
 62
   179
100
AcDbLine
 10
145.3583678716
 20
126.7953180351
 30
0.0
 11
145.3583678716
 21
129.2953180351
 31
0.0
  0
LINE
  5
6F
330
6B
100
AcDbEntity
  8
SLD-0
  6
Continuous
 62
   179
100
AcDbLine
 10
145.3583678716
 20
126.7953180351
 30
0.0
 11
142.8583678716
 21
126.7953180351
 31
0.0
  0
LINE
  5
70
330
6B
100
AcDbEntity
  8
SLD-0
  6
Continuous
 62
   179
100
AcDbLine
 10
145.3583678716
 20
126.7953180351
 30
0.0
 11
145.3583678716
 21
124.2953180351
 31
0.0
  0
LINE
  5
71
330
6B
100
AcDbEntity
  8
SLD-0
  6
Continuous
 62
   179
100
AcDbLine
 10
145.3583678716
 20
126.7953180351
 30
0.0
 11
147.8583678716
 21
126.7953180351
 31
0.0
  0
LINE
  5
72
330
6B
100
AcDbEntity
  8
SLD-0
  6
Continuous
 62
   179
100
AcDbLine
 10
145.3583678716
 20
131.7953180351
 30
0.0
 11
145.3583678716
 21
132.5453180351
 31
0.0
  0
LINE
  5
73
330
6B
100
AcDbEntity
  8
SLD-0
  6
Continuous
 62
   179
100
AcDbLine
 10
140.3583678716
 20
126.7953180351
 30
0.0
 11
139.6083678716
 21
126.7953180351
 31
0.0
  0
LINE
  5
74
330
6B
100
AcDbEntity
  8
SLD-0
  6
Continuous
 62
   179
100
AcDbLine
 10
145.3583678716
 20
121.7953180351
 30
0.0
 11
145.3583678716
 21
121.0453180351
 31
0.0
  0
LINE
  5
75
330
6B
100
AcDbEntity
  8
SLD-0
  6
Continuous
 62
   179
100
AcDbLine
 10
150.3583678716
 20
126.7953180351
 30
0.0
 11
151.1083678716
 21
126.7953180351
 31
0.0
  0
ENDBLK
  5
6D
330
6B
100
AcDbEntity
  8
0
100
AcDbBlockEnd
  0
BLOCK
  5
77
330
76
100
AcDbEntity
  8
0
100
AcDbBlockBegin
  2
SW_CENTERMARK3
 70
     0
 71
     0
 10
0.0
 20
0.0
 30
0.0
  3
SW_CENTERMARK3
  1

  0
LINE
  5
79
330
76
100
AcDbEntity
  8
SLD-0
  6
Continuous
 62
   179
100
AcDbLine
 10
85.0400527528
 20
192.9573585927
 30
0.0
 11
85.0400527528
 21
195.4573585927
 31
0.0
  0
LINE
  5
7A
330
76
100
AcDbEntity
  8
SLD-0
  6
Continuous
 62
   179
100
AcDbLine
 10
85.0400527528
 20
192.9573585927
 30
0.0
 11
82.5400527528
 21
192.9573585927
 31
0.0
  0
LINE
  5
7B
330
76
100
AcDbEntity
  8
SLD-0
  6
Continuous
 62
   179
100
AcDbLine
 10
85.0400527528
 20
192.9573585927
 30
0.0
 11
85.0400527528
 21
190.4573585927
 31
0.0
  0
LINE
  5
7C
330
76
100
AcDbEntity
  8
SLD-0
  6
Continuous
 62
   179
100
AcDbLine
 10
85.0400527528
 20
192.9573585927
 30
0.0
 11
87.5400527528
 21
192.9573585927
 31
0.0
  0
LINE
  5
7D
330
76
100
AcDbEntity
  8
SLD-0
  6
Continuous
 62
   179
100
AcDbLine
 10
85.0400527528
 20
197.9573585927
 30
0.0
 11
85.0400527528
 21
198.2073585927
 31
0.0
  0
LINE
  5
7E
330
76
100
AcDbEntity
  8
SLD-0
  6
Continuous
 62
   179
100
AcDbLine
 10
80.0400527528
 20
192.9573585927
 30
0.0
 11
79.7900527528
 21
192.9573585927
 31
0.0
  0
LINE
  5
7F
330
76
100
AcDbEntity
  8
SLD-0
  6
Continuous
 62
   179
100
AcDbLine
 10
85.0400527528
 20
187.9573585927
 30
0.0
 11
85.0400527528
 21
187.7073585927
 31
0.0
  0
LINE
  5
80
330
76
100
AcDbEntity
  8
SLD-0
  6
Continuous
 62
   179
100
AcDbLine
 10
90.0400527528
 20
192.9573585927
 30
0.0
 11
90.2900527528
 21
192.9573585927
 31
0.0
  0
ENDBLK
  5
78
330
76
100
AcDbEntity
  8
0
100
AcDbBlockEnd
  0
BLOCK
  5
82
330
81
100
AcDbEntity
  8
0
100
AcDbBlockBegin
  2
SW_CENTERMARK4
 70
     0
 71
     0
 10
0.0
 20
0.0
 30
0.0
  3
SW_CENTERMARK4
  1

  0
LINE
  5
84
330
81
100
AcDbEntity
  8
SLD-0
  6
Continuous
 62
   179
100
AcDbLine
 10
83.0400527528
 20
209.9573585927
 30
0.0
 11
83.0400527528
 21
212.4573585927
 31
0.0
  0
LINE
  5
85
330
81
100
AcDbEntity
  8
SLD-0
  6
Continuous
 62
   179
100
AcDbLine
 10
83.0400527528
 20
209.9573585927
 30
0.0
 11
80.5400527528
 21
209.9573585927
 31
0.0
  0
LINE
  5
86
330
81
100
AcDbEntity
  8
SLD-0
  6
Continuous
 62
   179
100
AcDbLine
 10
83.0400527528
 20
209.9573585927
 30
0.0
 11
83.0400527528
 21
207.4573585927
 31
0.0
  0
LINE
  5
87
330
81
100
AcDbEntity
  8
SLD-0
  6
Continuous
 62
   179
100
AcDbLine
 10
83.0400527528
 20
209.9573585927
 30
0.0
 11
85.5400527528
 21
209.9573585927
 31
0.0
  0
LINE
  5
88
330
81
100
AcDbEntity
  8
SLD-0
  6
Continuous
 62
   179
100
AcDbLine
 10
83.0400527528
 20
212.4573585927
 30
0.0
 11
83.0400527528
 21
214.5573585927
 31
0.0
  0
LINE
  5
89
330
81
100
AcDbEntity
  8
SLD-0
  6
Continuous
 62
   179
100
AcDbLine
 10
80.5400527528
 20
209.9573585927
 30
0.0
 11
78.4400527528
 21
209.9573585927
 31
0.0
  0
LINE
  5
8A
330
81
100
AcDbEntity
  8
SLD-0
  6
Continuous
 62
   179
100
AcDbLine
 10
83.0400527528
 20
207.4573585927
 30
0.0
 11
83.0400527528
 21
205.3573585927
 31
0.0
  0
LINE
  5
8B
330
81
100
AcDbEntity
  8
SLD-0
  6
Continuous
 62
   179
100
AcDbLine
 10
85.5400527528
 20
209.9573585927
 30
0.0
 11
87.6400527528
 21
209.9573585927
 31
0.0
  0
ENDBLK
  5
83
330
81
100
AcDbEntity
  8
0
100
AcDbBlockEnd
  0
BLOCK
  5
8D
330
8C
100
AcDbEntity
  8
0
100
AcDbBlockBegin
  2
SW_CENTERMARK5
 70
     0
 71
     0
 10
0.0
 20
0.0
 30
0.0
  3
SW_CENTERMARK5
  1

  0
LINE
  5
8F
330
8C
100
AcDbEntity
  8
SLD-0
  6
Continuous
 62
   179
100
AcDbLine
 10
55.0400527528
 20
209.9573585927
 30
0.0
 11
55.0400527528
 21
212.4573585927
 31
0.0
  0
LINE
  5
90
330
8C
100
AcDbEntity
  8
SLD-0
  6
Continuous
 62
   179
100
AcDbLine
 10
55.0400527528
 20
209.9573585927
 30
0.0
 11
52.5400527528
 21
209.9573585927
 31
0.0
  0
LINE
  5
91
330
8C
100
AcDbEntity
  8
SLD-0
  6
Continuous
 62
   179
100
AcDbLine
 10
55.0400527528
 20
209.9573585927
 30
0.0
 11
55.0400527528
 21
207.4573585927
 31
0.0
  0
LINE
  5
92
330
8C
100
AcDbEntity
  8
SLD-0
  6
Continuous
 62
   179
100
AcDbLine
 10
55.0400527528
 20
209.9573585927
 30
0.0
 11
57.5400527528
 21
209.9573585927
 31
0.0
  0
LINE
  5
93
330
8C
100
AcDbEntity
  8
SLD-0
  6
Continuous
 62
   179
100
AcDbLine
 10
55.0400527528
 20
212.4573585927
 30
0.0
 11
55.0400527528
 21
214.5573585927
 31
0.0
  0
LINE
  5
94
330
8C
100
AcDbEntity
  8
SLD-0
  6
Continuous
 62
   179
100
AcDbLine
 10
52.5400527528
 20
209.9573585927
 30
0.0
 11
50.4400527528
 21
209.9573585927
 31
0.0
  0
LINE
  5
95
330
8C
100
AcDbEntity
  8
SLD-0
  6
Continuous
 62
   179
100
AcDbLine
 10
55.0400527528
 20
207.4573585927
 30
0.0
 11
55.0400527528
 21
205.3573585927
 31
0.0
  0
LINE
  5
96
330
8C
100
AcDbEntity
  8
SLD-0
  6
Continuous
 62
   179
100
AcDbLine
 10
57.5400527528
 20
209.9573585927
 30
0.0
 11
59.6400527528
 21
209.9573585927
 31
0.0
  0
ENDBLK
  5
8E
330
8C
100
AcDbEntity
  8
0
100
AcDbBlockEnd
  0
BLOCK
  5
98
330
97
100
AcDbEntity
  8
0
100
AcDbBlockBegin
  2
SW_CENTERMARK6
 70
     0
 71
     0
 10
0.0
 20
0.0
 30
0.0
  3
SW_CENTERMARK6
  1

  0
LINE
  5
9A
330
97
100
AcDbEntity
  8
SLD-0
  6
Continuous
 62
   179
100
AcDbLine
 10
53.0400527528
 20
192.9573585927
 30
0.0
 11
53.0400527528
 21
195.4573585927
 31
0.0
  0
LINE
  5
9B
330
97
100
AcDbEntity
  8
SLD-0
  6
Continuous
 62
   179
100
AcDbLine
 10
53.0400527528
 20
192.9573585927
 30
0.0
 11
50.5400527528
 21
192.9573585927
 31
0.0
  0
LINE
  5
9C
330
97
100
AcDbEntity
  8
SLD-0
  6
Continuous
 62
   179
100
AcDbLine
 10
53.0400527528
 20
192.9573585927
 30
0.0
 11
53.0400527528
 21
190.4573585927
 31
0.0
  0
LINE
  5
9D
330
97
100
AcDbEntity
  8
SLD-0
  6
Continuous
 62
   179
100
AcDbLine
 10
53.0400527528
 20
192.9573585927
 30
0.0
 11
55.5400527528
 21
192.9573585927
 31
0.0
  0
LINE
  5
9E
330
97
100
AcDbEntity
  8
SLD-0
  6
Continuous
 62
   179
100
AcDbLine
 10
53.0400527528
 20
197.9573585927
 30
0.0
 11
53.0400527528
 21
198.2073585927
 31
0.0
  0
LINE
  5
9F
330
97
100
AcDbEntity
  8
SLD-0
  6
Continuous
 62
   179
100
AcDbLine
 10
48.0400527528
 20
192.9573585927
 30
0.0
 11
47.7900527528
 21
192.9573585927
 31
0.0
  0
LINE
  5
A0
330
97
100
AcDbEntity
  8
SLD-0
  6
Continuous
 62
   179
100
AcDbLine
 10
53.0400527528
 20
187.9573585927
 30
0.0
 11
53.0400527528
 21
187.7073585927
 31
0.0
  0
LINE
  5
A1
330
97
100
AcDbEntity
  8
SLD-0
  6
Continuous
 62
   179
100
AcDbLine
 10
58.0400527528
 20
192.9573585927
 30
0.0
 11
58.2900527528
 21
192.9573585927
 31
0.0
  0
ENDBLK
  5
99
330
97
100
AcDbEntity
  8
0
100
AcDbBlockEnd
  0
BLOCK
  5
144
330
139
100
AcDbEntity
  8
0
100
AcDbBlockBegin
  2
*D13
 70
     1
 71
     0
 10
0.0
 20
0.0
 30
0.0
  3
*D13
  1

  0
LINE
  5
14A
330
139
100
AcDbEntity
  8
SLD-0
 62
     7
100
AcDbLine
 10
90.5400527528
 20
129.1953180351
 30
0.0
 11
90.5400527528
 21
100.4856035164
 31
0.0
  0
LINE
  5
14B
330
139
100
AcDbEntity
  8
SLD-0
 62
     7
100
AcDbLine
 10
81.5400527528
 20
129.1953180351
 30
0.0
 11
81.5400527528
 21
100.4856035164
 31
0.0
  0
LINE
  5
14C
330
139
100
AcDbEntity
  8
SLD-0
 62
     7
100
AcDbLine
 10
90.5400527528
 20
101.4856035164
 30
0.0
 11
95.5400527528
 21
101.4856035164
 31
0.0
  0
LINE
  5
14D
330
139
100
AcDbEntity
  8
SLD-0
 62
     7
100
AcDbLine
 10
90.5400527528
 20
101.4856035164
 30
0.0
 11
81.5400527528
 21
101.4856035164
 31
0.0
  0
LINE
  5
14E
330
139
100
AcDbEntity
  8
SLD-0
 62
     7
100
AcDbLine
 10
81.5400527528
 20
101.4856035164
 30
0.0
 11
76.5400527528
 21
101.4856035164
 31
0.0
  0
LINE
  5
14F
330
139
100
AcDbEntity
  8
SLD-0
 62
     7
100
AcDbLine
 10
93.5400527528
 20
100.6817565164
 30
0.0
 11
90.5400527528
 21
101.4856035164
 31
0.0
  0
LINE
  5
150
330
139
100
AcDbEntity
  8
SLD-0
 62
     7
100
AcDbLine
 10
90.5400527528
 20
101.4856035164
 30
0.0
 11
93.5400527528
 21
102.2894505164
 31
0.0
  0
LINE
  5
151
330
139
100
AcDbEntity
  8
SLD-0
 62
     7
100
AcDbLine
 10
90.5400527528
 20
101.4856035164
 30
0.0
 11
93.5400527528
 21
101.4856035164
 31
0.0
  0
LINE
  5
152
330
139
100
AcDbEntity
  8
SLD-0
 62
     7
100
AcDbLine
 10
78.5400527528
 20
102.2894505164
 30
0.0
 11
81.5400527528
 21
101.4856035164
 31
0.0
  0
LINE
  5
153
330
139
100
AcDbEntity
  8
SLD-0
 62
     7
100
AcDbLine
 10
81.5400527528
 20
101.4856035164
 30
0.0
 11
78.5400527528
 21
100.6817565164
 31
0.0
  0
LINE
  5
154
330
139
100
AcDbEntity
  8
SLD-0
 62
     7
100
AcDbLine
 10
81.5400527528
 20
101.4856035164
 30
0.0
 11
78.5400527528
 21
101.4856035164
 31
0.0
  0
MTEXT
  5
155
330
139
100
AcDbEntity
  8
SLD-0
 62
     7
100
AcDbMText
 10
85.0228736267
 20
106.0122972124
 30
0.1
 40
3.5
 41
0.0
 71
     1
 72
     1
  1
9
  7
SLDTEXTSTYLE0
 73
     1
 44
1.0
  0
ENDBLK
  5
145
330
139
100
AcDbEntity
  8
0
100
AcDbBlockEnd
  0
BLOCK
  5
148
330
147
100
AcDbEntity
  8
0
100
AcDbBlockBegin
  2
_None
 70
     0
 71
     0
 10
0.0
 20
0.0
 30
0.0
  3
_None
  1

  0
ENDBLK
  5
149
330
147
100
AcDbEntity
  8
0
100
AcDbBlockEnd
  0
BLOCK
  5
162
330
157
100
AcDbEntity
  8
0
100
AcDbBlockBegin
  2
*D15
 70
     1
 71
     0
 10
0.0
 20
0.0
 30
0.0
  3
*D15
  1

  0
ARC
  5
165
330
157
100
AcDbEntity
  8
SLD-0
 62
     7
100
AcDbCircle
 10
53.506791802
 20
103.521312604
 30
0.0
 40
4.551983902300004
100
AcDbArc
 50
153.4349488229
 51
206.5650511771
  0
ARC
  5
166
330
157
100
AcDbEntity
  8
SLD-0
 62
     7
100
AcDbCircle
 10
50.5733137036
 20
103.521312604
 30
0.0
 40
4.551983902299997
100
AcDbArc
 50
333.4349488229
 51
26.5650511771
  0
LINE
  5
167
330
157
100
AcDbEntity
  8
SLD-0
 62
     7
100
AcDbLine
 10
47.5400527528
 20
149.1953180351
 30
0.0
 11
47.5400527528
 21
100.4856035164
 31
0.0
  0
LINE
  5
168
330
157
100
AcDbEntity
  8
SLD-0
 62
     7
100
AcDbLine
 10
56.5400527528
 20
149.1953180351
 30
0.0
 11
56.5400527528
 21
100.4856035164
 31
0.0
  0
LINE
  5
169
330
157
100
AcDbEntity
  8
SLD-0
 62
     7
100
AcDbLine
 10
47.5400527528
 20
101.4856035164
 30
0.0
 11
42.5400527528
 21
101.4856035164
 31
0.0
  0
LINE
  5
16A
330
157
100
AcDbEntity
  8
SLD-0
 62
     7
100
AcDbLine
 10
47.5400527528
 20
101.4856035164
 30
0.0
 11
56.5400527528
 21
101.4856035164
 31
0.0
  0
LINE
  5
16B
330
157
100
AcDbEntity
  8
SLD-0
 62
     7
100
AcDbLine
 10
56.5400527528
 20
101.4856035164
 30
0.0
 11
61.5400527528
 21
101.4856035164
 31
0.0
  0
LINE
  5
16C
330
157
100
AcDbEntity
  8
SLD-0
 62
     7
100
AcDbLine
 10
44.5400527528
 20
102.2894505164
 30
0.0
 11
47.5400527528
 21
101.4856035164
 31
0.0
  0
LINE
  5
16D
330
157
100
AcDbEntity
  8
SLD-0
 62
     7
100
AcDbLine
 10
47.5400527528
 20
101.4856035164
 30
0.0
 11
44.5400527528
 21
100.6817565164
 31
0.0
  0
LINE
  5
16E
330
157
100
AcDbEntity
  8
SLD-0
 62
     7
100
AcDbLine
 10
47.5400527528
 20
101.4856035164
 30
0.0
 11
44.5400527528
 21
101.4856035164
 31
0.0
  0
LINE
  5
16F
330
157
100
AcDbEntity
  8
SLD-0
 62
     7
100
AcDbLine
 10
59.5400527528
 20
100.6817565164
 30
0.0
 11
56.5400527528
 21
101.4856035164
 31
0.0
  0
LINE
  5
170
330
157
100
AcDbEntity
  8
SLD-0
 62
     7
100
AcDbLine
 10
56.5400527528
 20
101.4856035164
 30
0.0
 11
59.5400527528
 21
102.2894505164
 31
0.0
  0
LINE
  5
171
330
157
100
AcDbEntity
  8
SLD-0
 62
     7
100
AcDbLine
 10
56.5400527528
 20
101.4856035164
 30
0.0
 11
59.5400527528
 21
101.4856035164
 31
0.0
  0
MTEXT
  5
172
330
157
100
AcDbEntity
  8
SLD-0
 62
     7
100
AcDbMText
 10
51.0228736267
 20
106.0122972124
 30
0.1
 40
3.5
 41
0.0
 71
     1
 72
     1
  1
9
  7
SLDTEXTSTYLE0
 73
     1
 44
1.0
  0
ENDBLK
  5
163
330
157
100
AcDbEntity
  8
0
100
AcDbBlockEnd
  0
BLOCK
  5
17E
330
174
100
AcDbEntity
  8
0
100
AcDbBlockBegin
  2
*D16
 70
     1
 71
     0
 10
0.0
 20
0.0
 30
0.0
  3
*D16
  1

  0
LINE
  5
181
330
174
100
AcDbEntity
  8
SLD-0
 62
     7
100
AcDbLine
 10
56.5400527528
 20
119.1953180351
 30
0.0
 11
56.5400527528
 21
100.4856035164
 31
0.0
  0
LINE
  5
182
330
174
100
AcDbEntity
  8
SLD-0
 62
     7
100
AcDbLine
 10
81.5400527528
 20
119.1953180351
 30
0.0
 11
81.5400527528
 21
100.4856035164
 31
0.0
  0
LINE
  5
183
330
174
100
AcDbEntity
  8
SLD-0
 62
     7
100
AcDbLine
 10
56.5400527528
 20
101.4856035164
 30
0.0
 11
81.5400527528
 21
101.4856035164
 31
0.0
  0
LINE
  5
184
330
174
100
AcDbEntity
  8
SLD-0
 62
     7
100
AcDbLine
 10
59.5400527528
 20
100.6817565164
 30
0.0
 11
56.5400527528
 21
101.4856035164
 31
0.0
  0
LINE
  5
185
330
174
100
AcDbEntity
  8
SLD-0
 62
     7
100
AcDbLine
 10
56.5400527528
 20
101.4856035164
 30
0.0
 11
59.5400527528
 21
102.2894505164
 31
0.0
  0
LINE
  5
186
330
174
100
AcDbEntity
  8
SLD-0
 62
     7
100
AcDbLine
 10
56.5400527528
 20
101.4856035164
 30
0.0
 11
59.5400527528
 21
101.4856035164
 31
0.0
  0
LINE
  5
187
330
174
100
AcDbEntity
  8
SLD-0
 62
     7
100
AcDbLine
 10
78.5400527528
 20
102.2894505164
 30
0.0
 11
81.5400527528
 21
101.4856035164
 31
0.0
  0
LINE
  5
188
330
174
100
AcDbEntity
  8
SLD-0
 62
     7
100
AcDbLine
 10
81.5400527528
 20
101.4856035164
 30
0.0
 11
78.5400527528
 21
100.6817565164
 31
0.0
  0
LINE
  5
189
330
174
100
AcDbEntity
  8
SLD-0
 62
     7
100
AcDbLine
 10
81.5400527528
 20
101.4856035164
 30
0.0
 11
78.5400527528
 21
101.4856035164
 31
0.0
  0
MTEXT
  5
18A
330
174
100
AcDbEntity
  8
SLD-0
 62
     7
100
AcDbMText
 10
63.950104616
 20
106.0122972124
 30
0.1
 40
3.5
 41
0.0
 71
     1
 72
     1
  1
25
  7
SLDTEXTSTYLE0
 73
     1
 44
1.0
  0
MTEXT
  5
18B
330
174
100
AcDbEntity
  8
SLD-0
 62
     7
100
AcDbMText
 10
70.4638333622
 20
104.8152456375
 30
0.1
 40
2.1
 41
0.0
 71
     1
 72
     1
  1
0
  7
SLDTEXTSTYLE0
 73
     1
 44
1.0
  0
MTEXT
  5
18C
330
174
100
AcDbEntity
  8
SLD-0
 62
     7
100
AcDbMText
 10
69.2426780767
 20
107.2575562085
 30
0.1
 40
2.1
 41
0.0
 71
     1
 72
     1
  1
+
  7
SLDTEXTSTYLE0
 73
     1
 44
1.0
  0
MTEXT
  5
18D
330
174
100
AcDbEntity
  8
SLD-0
 62
     7
100
AcDbMText
 10
70.4638333622
 20
107.2575562085
 30
0.1
 40
2.1
 41
0.0
 71
     1
 72
     1
  1
0.1
  7
SLDTEXTSTYLE0
 73
     1
 44
1.0
  0
ENDBLK
  5
17F
330
174
100
AcDbEntity
  8
0
100
AcDbBlockEnd
  0
BLOCK
  5
19A
330
18F
100
AcDbEntity
  8
0
100
AcDbBlockBegin
  2
*D17
 70
     1
 71
     0
 10
0.0
 20
0.0
 30
0.0
  3
*D17
  1

  0
ARC
  5
19C
330
18F
100
AcDbEntity
  8
SLD-0
 62
     7
100
AcDbCircle
 10
109.2149083208
 20
135.6435271227
 30
0.0
 40
4.55198390230001
100
AcDbArc
 50
243.4349488229
 51
296.5650511771
  0
ARC
  5
19D
330
18F
100
AcDbEntity
  8
SLD-0
 62
     7
100
AcDbCircle
 10
109.2149083208
 20
134.7471089474
 30
0.0
 40
4.55198390230001
100
AcDbArc
 50
63.4349488229
 51
116.5650511771
  0
LINE
  5
19E
330
18F
100
AcDbEntity
  8
SLD-0
 62
     7
100
AcDbLine
 10
143.8583678716
 20
120.1953180351
 30
0.0
 11
110.2506174084
 21
120.1953180351
 31
0.0
  0
LINE
  5
19F
330
18F
100
AcDbEntity
  8
SLD-0
 62
     7
100
AcDbLine
 10
133.8583678716
 20
150.1953180351
 30
0.0
 11
110.2506174084
 21
150.1953180351
 31
0.0
  0
LINE
  5
1A0
330
18F
100
AcDbEntity
  8
SLD-0
 62
     7
100
AcDbLine
 10
111.2506174084
 20
120.1953180351
 30
0.0
 11
111.2506174084
 21
150.1953180351
 31
0.0
  0
LINE
  5
1A1
330
18F
100
AcDbEntity
  8
SLD-0
 62
     7
100
AcDbLine
 10
112.0544644084
 20
123.1953180351
 30
0.0
 11
111.2506174084
 21
120.1953180351
 31
0.0
  0
LINE
  5
1A2
330
18F
100
AcDbEntity
  8
SLD-0
 62
     7
100
AcDbLine
 10
111.2506174084
 20
120.1953180351
 30
0.0
 11
110.4467704084
 21
123.1953180351
 31
0.0
  0
LINE
  5
1A3
330
18F
100
AcDbEntity
  8
SLD-0
 62
     7
100
AcDbLine
 10
111.2506174084
 20
120.1953180351
 30
0.0
 11
111.2506174084
 21
123.1953180351
 31
0.0
  0
LINE
  5
1A4
330
18F
100
AcDbEntity
  8
SLD-0
 62
     7
100
AcDbLine
 10
110.4467704084
 20
147.1953180351
 30
0.0
 11
111.2506174084
 21
150.1953180351
 31
0.0
  0
LINE
  5
1A5
330
18F
100
AcDbEntity
  8
SLD-0
 62
     7
100
AcDbLine
 10
111.2506174084
 20
150.1953180351
 30
0.0
 11
112.0544644084
 21
147.1953180351
 31
0.0
  0
LINE
  5
1A6
330
18F
100
AcDbEntity
  8
SLD-0
 62
     7
100
AcDbLine
 10
111.2506174084
 20
150.1953180351
 30
0.0
 11
111.2506174084
 21
147.1953180351
 31
0.0
  0
MTEXT
  5
1A7
330
18F
100
AcDbEntity
  8
SLD-0
 62
     7
100
AcDbMText
 10
106.7239237124
 20
133.1596089474
 30
0.1
 40
3.5
 41
0.0
 71
     1
 72
     1
  1
30
  7
SLDTEXTSTYLE0
 11
6.123031769111886E-17
 21
1.0
 31
0.0
 73
     1
 44
1.0
  0
ENDBLK
  5
19B
330
18F
100
AcDbEntity
  8
0
100
AcDbBlockEnd
  0
BLOCK
  5
1B3
330
1A9
100
AcDbEntity
  8
0
100
AcDbBlockBegin
  2
*D18
 70
     1
 71
     0
 10
0.0
 20
0.0
 30
0.0
  3
*D18
  1

  0
LINE
  5
1B5
330
1A9
100
AcDbEntity
  8
SLD-0
 62
     7
100
AcDbLine
 10
151.3583678716
 20
148.4453180351
 30
0.0
 11
151.3583678716
 21
167.6135350536
 31
0.0
  0
LINE
  5
1B6
330
1A9
100
AcDbEntity
  8
SLD-0
 62
     7
100
AcDbLine
 10
141.3583678716
 20
148.4453180351
 30
0.0
 11
141.3583678716
 21
167.6135350536
 31
0.0
  0
LINE
  5
1B7
330
1A9
100
AcDbEntity
  8
SLD-0
 62
     7
100
AcDbLine
 10
151.3583678716
 20
166.6135350536
 30
0.0
 11
156.3583678716
 21
166.6135350536
 31
0.0
  0
LINE
  5
1B8
330
1A9
100
AcDbEntity
  8
SLD-0
 62
     7
100
AcDbLine
 10
151.3583678716
 20
166.6135350536
 30
0.0
 11
141.3583678716
 21
166.6135350536
 31
0.0
  0
LINE
  5
1B9
330
1A9
100
AcDbEntity
  8
SLD-0
 62
     7
100
AcDbLine
 10
141.3583678716
 20
166.6135350536
 30
0.0
 11
136.3583678716
 21
166.6135350536
 31
0.0
  0
LINE
  5
1BA
330
1A9
100
AcDbEntity
  8
SLD-0
 62
     7
100
AcDbLine
 10
154.3583678716
 20
165.8096880536
 30
0.0
 11
151.3583678716
 21
166.6135350536
 31
0.0
  0
LINE
  5
1BB
330
1A9
100
AcDbEntity
  8
SLD-0
 62
     7
100
AcDbLine
 10
151.3583678716
 20
166.6135350536
 30
0.0
 11
154.3583678716
 21
167.4173820536
 31
0.0
  0
LINE
  5
1BC
330
1A9
100
AcDbEntity
  8
SLD-0
 62
     7
100
AcDbLine
 10
151.3583678716
 20
166.6135350536
 30
0.0
 11
154.3583678716
 21
166.6135350536
 31
0.0
  0
LINE
  5
1BD
330
1A9
100
AcDbEntity
  8
SLD-0
 62
     7
100
AcDbLine
 10
138.3583678716
 20
167.4173820536
 30
0.0
 11
141.3583678716
 21
166.6135350536
 31
0.0
  0
LINE
  5
1BE
330
1A9
100
AcDbEntity
  8
SLD-0
 62
     7
100
AcDbLine
 10
141.3583678716
 20
166.6135350536
 30
0.0
 11
138.3583678716
 21
165.8096880536
 31
0.0
  0
LINE
  5
1BF
330
1A9
100
AcDbEntity
  8
SLD-0
 62
     7
100
AcDbLine
 10
141.3583678716
 20
166.6135350536
 30
0.0
 11
138.3583678716
 21
166.6135350536
 31
0.0
  0
MTEXT
  5
1C0
330
1A9
100
AcDbEntity
  8
SLD-0
 62
     7
100
AcDbMText
 10
144.322658784
 20
171.1402287496
 30
0.1
 40
3.5
 41
0.0
 71
     1
 72
     1
  1
10
  7
SLDTEXTSTYLE0
 73
     1
 44
1.0
  0
ENDBLK
  5
1B4
330
1A9
100
AcDbEntity
  8
0
100
AcDbBlockEnd
  0
BLOCK
  5
1CE
330
1C2
100
AcDbEntity
  8
0
100
AcDbBlockBegin
  2
*D19
 70
     1
 71
     0
 10
0.0
 20
0.0
 30
0.0
  3
*D19
  1

  0
LINE
  5
1D1
330
1C2
100
AcDbEntity
  8
SLD-0
 62
     7
100
AcDbLine
 10
152.3583678716
 20
144.9453180351
 30
0.0
 11
169.9386607121
 21
144.9453180351
 31
0.0
  0
LINE
  5
1D2
330
1C2
100
AcDbEntity
  8
SLD-0
 62
     7
100
AcDbLine
 10
152.3583678716
 20
137.4453180351
 30
0.0
 11
169.9386607121
 21
137.4453180351
 31
0.0
  0
LINE
  5
1D3
330
1C2
100
AcDbEntity
  8
SLD-0
 62
     7
100
AcDbLine
 10
168.9386607121
 20
144.9453180351
 30
0.0
 11
168.9386607121
 21
155.2362196153
 31
0.0
  0
LINE
  5
1D4
330
1C2
100
AcDbEntity
  8
SLD-0
 62
     7
100
AcDbLine
 10
168.9386607121
 20
144.9453180351
 30
0.0
 11
168.9386607121
 21
137.4453180351
 31
0.0
  0
LINE
  5
1D5
330
1C2
100
AcDbEntity
  8
SLD-0
 62
     7
100
AcDbLine
 10
168.9386607121
 20
137.4453180351
 30
0.0
 11
168.9386607121
 21
132.4453180351
 31
0.0
  0
LINE
  5
1D6
330
1C2
100
AcDbEntity
  8
SLD-0
 62
     7
100
AcDbLine
 10
169.7425077121
 20
147.9453180351
 30
0.0
 11
168.9386607121
 21
144.9453180351
 31
0.0
  0
LINE
  5
1D7
330
1C2
100
AcDbEntity
  8
SLD-0
 62
     7
100
AcDbLine
 10
168.9386607121
 20
144.9453180351
 30
0.0
 11
168.1348137121
 21
147.9453180351
 31
0.0
  0
LINE
  5
1D8
330
1C2
100
AcDbEntity
  8
SLD-0
 62
     7
100
AcDbLine
 10
168.9386607121
 20
144.9453180351
 30
0.0
 11
168.9386607121
 21
147.9453180351
 31
0.0
  0
LINE
  5
1D9
330
1C2
100
AcDbEntity
  8
SLD-0
 62
     7
100
AcDbLine
 10
168.1348137121
 20
134.4453180351
 30
0.0
 11
168.9386607121
 21
137.4453180351
 31
0.0
  0
LINE
  5
1DA
330
1C2
100
AcDbEntity
  8
SLD-0
 62
     7
100
AcDbLine
 10
168.9386607121
 20
137.4453180351
 30
0.0
 11
169.7425077121
 21
134.4453180351
 31
0.0
  0
LINE
  5
1DB
330
1C2
100
AcDbEntity
  8
SLD-0
 62
     7
100
AcDbLine
 10
168.9386607121
 20
137.4453180351
 30
0.0
 11
168.9386607121
 21
134.4453180351
 31
0.0
  0
MTEXT
  5
1DC
330
1C2
100
AcDbEntity
  8
SLD-0
 62
     7
100
AcDbMText
 10
164.4119670161
 20
147.5402415169
 30
0.1
 40
3.5
 41
0.0
 71
     1
 72
     1
  1
7.5
  7
SLDTEXTSTYLE0
 11
6.123031769111886E-17
 21
1.0
 31
0.0
 73
     1
 44
1.0
  0
ENDBLK
  5
1CF
330
1C2
100
AcDbEntity
  8
0
100
AcDbBlockEnd
  0
BLOCK
  5
1E9
330
1DE
100
AcDbEntity
  8
0
100
AcDbBlockBegin
  2
*D20
 70
     1
 71
     0
 10
0.0
 20
0.0
 30
0.0
  3
*D20
  1

  0
LINE
  5
1EB
330
1DE
100
AcDbEntity
  8
SLD-0
 62
     7
100
AcDbLine
 10
158.6083678716
 20
141.1953180351
 30
0.0
 11
178.6455159631
 21
141.1953180351
 31
0.0
  0
LINE
  5
1EC
330
1DE
100
AcDbEntity
  8
SLD-0
 62
     7
100
AcDbLine
 10
158.8583678716
 20
156.1953180351
 30
0.0
 11
178.6455159631
 21
156.1953180351
 31
0.0
  0
LINE
  5
1ED
330
1DE
100
AcDbEntity
  8
SLD-0
 62
     7
100
AcDbLine
 10
177.6455159631
 20
141.1953180351
 30
0.0
 11
177.6455159631
 21
156.1953180351
 31
0.0
  0
LINE
  5
1EE
330
1DE
100
AcDbEntity
  8
SLD-0
 62
     7
100
AcDbLine
 10
178.4493629631
 20
144.1953180351
 30
0.0
 11
177.6455159631
 21
141.1953180351
 31
0.0
  0
LINE
  5
1EF
330
1DE
100
AcDbEntity
  8
SLD-0
 62
     7
100
AcDbLine
 10
177.6455159631
 20
141.1953180351
 30
0.0
 11
176.8416689631
 21
144.1953180351
 31
0.0
  0
LINE
  5
1F0
330
1DE
100
AcDbEntity
  8
SLD-0
 62
     7
100
AcDbLine
 10
177.6455159631
 20
141.1953180351
 30
0.0
 11
177.6455159631
 21
144.1953180351
 31
0.0
  0
LINE
  5
1F1
330
1DE
100
AcDbEntity
  8
SLD-0
 62
     7
100
AcDbLine
 10
176.8416689631
 20
153.1953180351
 30
0.0
 11
177.6455159631
 21
156.1953180351
 31
0.0
  0
LINE
  5
1F2
330
1DE
100
AcDbEntity
  8
SLD-0
 62
     7
100
AcDbLine
 10
177.6455159631
 20
156.1953180351
 30
0.0
 11
178.4493629631
 21
153.1953180351
 31
0.0
  0
LINE
  5
1F3
330
1DE
100
AcDbEntity
  8
SLD-0
 62
     7
100
AcDbLine
 10
177.6455159631
 20
156.1953180351
 30
0.0
 11
177.6455159631
 21
153.1953180351
 31
0.0
  0
MTEXT
  5
1F4
330
1DE
100
AcDbEntity
  8
SLD-0
 62
     7
100
AcDbMText
 10
173.1188222672
 20
146.6596089474
 30
0.1
 40
3.5
 41
0.0
 71
     1
 72
     1
  1
15
  7
SLDTEXTSTYLE0
 11
6.123031769111886E-17
 21
1.0
 31
0.0
 73
     1
 44
1.0
  0
ENDBLK
  5
1EA
330
1DE
100
AcDbEntity
  8
0
100
AcDbBlockEnd
  0
BLOCK
  5
201
330
1F6
100
AcDbEntity
  8
0
100
AcDbBlockBegin
  2
*D21
 70
     1
 71
     0
 10
0.0
 20
0.0
 30
0.0
  3
*D21
  1

  0
LINE
  5
203
330
1F6
100
AcDbEntity
  8
SLD-0
 62
     7
100
AcDbLine
 10
152.1083678716
 20
126.7953180351
 30
0.0
 11
178.6455159631
 21
126.7953180351
 31
0.0
  0
LINE
  5
204
330
1F6
100
AcDbEntity
  8
SLD-0
 62
     7
100
AcDbLine
 10
158.6083678716
 20
141.1953180351
 30
0.0
 11
178.6455159631
 21
141.1953180351
 31
0.0
  0
LINE
  5
205
330
1F6
100
AcDbEntity
  8
SLD-0
 62
     7
100
AcDbLine
 10
177.6455159631
 20
126.7953180351
 30
0.0
 11
177.6455159631
 21
121.7953180351
 31
0.0
  0
LINE
  5
206
330
1F6
100
AcDbEntity
  8
SLD-0
 62
     7
100
AcDbLine
 10
177.6455159631
 20
126.7953180351
 30
0.0
 11
177.6455159631
 21
141.1953180351
 31
0.0
  0
LINE
  5
207
330
1F6
100
AcDbEntity
  8
SLD-0
 62
     7
100
AcDbLine
 10
177.6455159631
 20
141.1953180351
 30
0.0
 11
177.6455159631
 21
146.1953180351
 31
0.0
  0
LINE
  5
208
330
1F6
100
AcDbEntity
  8
SLD-0
 62
     7
100
AcDbLine
 10
176.8416689631
 20
123.7953180351
 30
0.0
 11
177.6455159631
 21
126.7953180351
 31
0.0
  0
LINE
  5
209
330
1F6
100
AcDbEntity
  8
SLD-0
 62
     7
100
AcDbLine
 10
177.6455159631
 20
126.7953180351
 30
0.0
 11
178.4493629631
 21
123.7953180351
 31
0.0
  0
LINE
  5
20A
330
1F6
100
AcDbEntity
  8
SLD-0
 62
     7
100
AcDbLine
 10
177.6455159631
 20
126.7953180351
 30
0.0
 11
177.6455159631
 21
123.7953180351
 31
0.0
  0
LINE
  5
20B
330
1F6
100
AcDbEntity
  8
SLD-0
 62
     7
100
AcDbLine
 10
178.4493629631
 20
144.1953180351
 30
0.0
 11
177.6455159631
 21
141.1953180351
 31
0.0
  0
LINE
  5
20C
330
1F6
100
AcDbEntity
  8
SLD-0
 62
     7
100
AcDbLine
 10
177.6455159631
 20
141.1953180351
 30
0.0
 11
176.8416689631
 21
144.1953180351
 31
0.0
  0
LINE
  5
20D
330
1F6
100
AcDbEntity
  8
SLD-0
 62
     7
100
AcDbLine
 10
177.6455159631
 20
141.1953180351
 30
0.0
 11
177.6455159631
 21
144.1953180351
 31
0.0
  0
MTEXT
  5
20E
330
1F6
100
AcDbEntity
  8
SLD-0
 62
     7
100
AcDbMText
 10
173.1188222672
 20
129.9225490243
 30
0.1
 40
3.5
 41
0.0
 71
     1
 72
     1
  1
14.4
  7
SLDTEXTSTYLE0
 11
6.123031769111886E-17
 21
1.0
 31
0.0
 73
     1
 44
1.0
  0
ENDBLK
  5
202
330
1F6
100
AcDbEntity
  8
0
100
AcDbBlockEnd
  0
BLOCK
  5
217
330
210
100
AcDbEntity
  8
0
100
AcDbBlockBegin
  2
*D22
 70
     1
 71
     0
 10
0.0
 20
0.0
 30
0.0
  3
*D22
  1

  0
LINE
  5
21A
330
210
100
AcDbEntity
  8
SLD-0
 62
     7
100
AcDbLine
 10
147.2663513358
 20
124.1643297986
 30
0.0
 11
165.3214895453
 21
99.2674388512
 31
0.0
  0
LINE
  5
21B
330
210
100
AcDbEntity
  8
SLD-0
 62
     7
100
AcDbLine
 10
165.3214895453
 20
99.2674388512
 30
0.0
 11
184.3407073361
 21
99.2674388512
 31
0.0
  0
LINE
  5
21C
330
210
100
AcDbEntity
  8
SLD-0
 62
     7
100
AcDbLine
 10
148.3768246871
 20
121.2638093392
 30
0.0
 11
147.2663513358
 21
124.1643297986
 31
0.0
  0
LINE
  5
21D
330
210
100
AcDbEntity
  8
SLD-0
 62
     7
100
AcDbLine
 10
147.2663513358
 20
124.1643297986
 30
0.0
 11
149.6783089953
 21
122.2076412061
 31
0.0
  0
LINE
  5
21E
330
210
100
AcDbEntity
  8
SLD-0
 62
     7
100
AcDbLine
 10
147.2663513358
 20
124.1643297986
 30
0.0
 11
149.0275668412
 21
121.7357252726
 31
0.0
  0
MTEXT
  5
21F
330
210
100
AcDbEntity
  8
SLD-0
 62
     7
100
AcDbMText
 10
168.5991530427
 20
107.8655507224
 30
0.1
 40
3.5
 41
0.0
 71
     1
 72
     1
  1
2-
  7
SLDTEXTSTYLE0
 73
     1
 44
1.0
  0
MTEXT
  5
220
330
210
100
AcDbEntity
  8
SLD-0
 62
     7
100
AcDbMText
 10
170.9227640377
 20
107.8655504896
 30
0.1
 40
3.5
 41
0.0
 71
     1
 72
     1
  1
%%c
  7
SLDTEXTSTYLE0
 73
     1
 44
1.0
  0
MTEXT
  5
221
330
210
100
AcDbEntity
  8
SLD-0
 62
     7
100
AcDbMText
 10
176.5420657403
 20
107.8655507224
 30
0.1
 40
3.5
 41
0.0
 71
     1
 72
     1
  1
6.5
  7
SLDTEXTSTYLE0
 73
     1
 44
1.0
  0
MTEXT
  5
222
330
210
100
AcDbEntity
  8
SLD-0
 62
     7
100
AcDbMText
 10
168.8933645453
 20
103.7941325472
 30
0.1
 40
3.5
 41
0.0
 71
     1
 72
     1
  1
（両側)
  7
SLDTEXTSTYLE0
 73
     1
 44
1.0
  0
ENDBLK
  5
218
330
210
100
AcDbEntity
  8
0
100
AcDbBlockEnd
  0
BLOCK
  5
22E
330
224
100
AcDbEntity
  8
0
100
AcDbBlockBegin
  2
*D23
 70
     1
 71
     0
 10
0.0
 20
0.0
 30
0.0
  3
*D23
  1

  0
ARC
  5
230
330
224
100
AcDbEntity
  8
SLD-0
 62
     7
100
AcDbCircle
 10
146.8065769593
 20
103.3538985917
 30
0.0
 40
4.55198390230001
100
AcDbArc
 50
153.4349488229
 51
206.5650511771
  0
ARC
  5
231
330
224
100
AcDbEntity
  8
SLD-0
 62
     7
100
AcDbCircle
 10
145.910158784
 20
103.3538985917
 30
0.0
 40
4.55198390230001
100
AcDbArc
 50
333.4349488229
 51
26.5650511771
  0
LINE
  5
232
330
224
100
AcDbEntity
  8
SLD-0
 62
     7
100
AcDbLine
 10
134.8583678716
 20
129.1953180351
 30
0.0
 11
134.8583678716
 21
100.318189504
 31
0.0
  0
LINE
  5
233
330
224
100
AcDbEntity
  8
SLD-0
 62
     7
100
AcDbLine
 10
157.8583678716
 20
129.1953180351
 30
0.0
 11
157.8583678716
 21
100.318189504
 31
0.0
  0
LINE
  5
234
330
224
100
AcDbEntity
  8
SLD-0
 62
     7
100
AcDbLine
 10
134.8583678716
 20
101.318189504
 30
0.0
 11
157.8583678716
 21
101.318189504
 31
0.0
  0
LINE
  5
235
330
224
100
AcDbEntity
  8
SLD-0
 62
     7
100
AcDbLine
 10
137.8583678716
 20
100.514342504
 30
0.0
 11
134.8583678716
 21
101.318189504
 31
0.0
  0
LINE
  5
236
330
224
100
AcDbEntity
  8
SLD-0
 62
     7
100
AcDbLine
 10
134.8583678716
 20
101.318189504
 30
0.0
 11
137.8583678716
 21
102.122036504
 31
0.0
  0
LINE
  5
237
330
224
100
AcDbEntity
  8
SLD-0
 62
     7
100
AcDbLine
 10
134.8583678716
 20
101.318189504
 30
0.0
 11
137.8583678716
 21
101.318189504
 31
0.0
  0
LINE
  5
238
330
224
100
AcDbEntity
  8
SLD-0
 62
     7
100
AcDbLine
 10
154.8583678716
 20
102.122036504
 30
0.0
 11
157.8583678716
 21
101.318189504
 31
0.0
  0
LINE
  5
239
330
224
100
AcDbEntity
  8
SLD-0
 62
     7
100
AcDbLine
 10
157.8583678716
 20
101.318189504
 30
0.0
 11
154.8583678716
 21
100.514342504
 31
0.0
  0
LINE
  5
23A
330
224
100
AcDbEntity
  8
SLD-0
 62
     7
100
AcDbLine
 10
157.8583678716
 20
101.318189504
 30
0.0
 11
154.8583678716
 21
101.318189504
 31
0.0
  0
MTEXT
  5
23B
330
224
100
AcDbEntity
  8
SLD-0
 62
     7
100
AcDbMText
 10
144.322658784
 20
105.8448832
 30
0.1
 40
3.5
 41
0.0
 71
     1
 72
     1
  1
23
  7
SLDTEXTSTYLE0
 73
     1
 44
1.0
  0
ENDBLK
  5
22F
330
224
100
AcDbEntity
  8
0
100
AcDbBlockEnd
  0
BLOCK
  5
247
330
23D
100
AcDbEntity
  8
0
100
AcDbBlockBegin
  2
*D24
 70
     1
 71
     0
 10
0.0
 20
0.0
 30
0.0
  3
*D24
  1

  0
LINE
  5
249
330
23D
100
AcDbEntity
  8
SLD-0
 62
     7
100
AcDbLine
 10
122.3583678716
 20
149.1953180351
 30
0.0
 11
122.3583678716
 21
100.318189504
 31
0.0
  0
LINE
  5
24A
330
23D
100
AcDbEntity
  8
SLD-0
 62
     7
100
AcDbLine
 10
134.8583678716
 20
129.1953180351
 30
0.0
 11
134.8583678716
 21
100.318189504
 31
0.0
  0
LINE
  5
24B
330
23D
100
AcDbEntity
  8
SLD-0
 62
     7
100
AcDbLine
 10
122.3583678716
 20
101.318189504
 30
0.0
 11
117.3583678716
 21
101.318189504
 31
0.0
  0
LINE
  5
24C
330
23D
100
AcDbEntity
  8
SLD-0
 62
     7
100
AcDbLine
 10
122.3583678716
 20
101.318189504
 30
0.0
 11
134.8583678716
 21
101.318189504
 31
0.0
  0
LINE
  5
24D
330
23D
100
AcDbEntity
  8
SLD-0
 62
     7
100
AcDbLine
 10
134.8583678716
 20
101.318189504
 30
0.0
 11
139.8583678716
 21
101.318189504
 31
0.0
  0
LINE
  5
24E
330
23D
100
AcDbEntity
  8
SLD-0
 62
     7
100
AcDbLine
 10
119.3583678716
 20
102.122036504
 30
0.0
 11
122.3583678716
 21
101.318189504
 31
0.0
  0
LINE
  5
24F
330
23D
100
AcDbEntity
  8
SLD-0
 62
     7
100
AcDbLine
 10
122.3583678716
 20
101.318189504
 30
0.0
 11
119.3583678716
 21
100.514342504
 31
0.0
  0
LINE
  5
250
330
23D
100
AcDbEntity
  8
SLD-0
 62
     7
100
AcDbLine
 10
122.3583678716
 20
101.318189504
 30
0.0
 11
119.3583678716
 21
101.318189504
 31
0.0
  0
LINE
  5
251
330
23D
100
AcDbEntity
  8
SLD-0
 62
     7
100
AcDbLine
 10
137.8583678716
 20
100.514342504
 30
0.0
 11
134.8583678716
 21
101.318189504
 31
0.0
  0
LINE
  5
252
330
23D
100
AcDbEntity
  8
SLD-0
 62
     7
100
AcDbLine
 10
134.8583678716
 20
101.318189504
 30
0.0
 11
137.8583678716
 21
102.122036504
 31
0.0
  0
LINE
  5
253
330
23D
100
AcDbEntity
  8
SLD-0
 62
     7
100
AcDbLine
 10
134.8583678716
 20
101.318189504
 30
0.0
 11
137.8583678716
 21
101.318189504
 31
0.0
  0
MTEXT
  5
254
330
23D
100
AcDbEntity
  8
SLD-0
 62
     7
100
AcDbMText
 10
124.5355988609
 20
105.8448832
 30
0.1
 40
3.5
 41
0.0
 71
     1
 72
     1
  1
12.5
  7
SLDTEXTSTYLE0
 73
     1
 44
1.0
  0
ENDBLK
  5
248
330
23D
100
AcDbEntity
  8
0
100
AcDbBlockEnd
  0
BLOCK
  5
261
330
256
100
AcDbEntity
  8
0
100
AcDbBlockBegin
  2
*D25
 70
     1
 71
     0
 10
0.0
 20
0.0
 30
0.0
  3
*D25
  1

  0
LINE
  5
263
330
256
100
AcDbEntity
  8
SLD-0
 62
     7
100
AcDbLine
 10
121.3583678716
 20
150.1953180351
 30
0.0
 11
110.2506174084
 21
150.1953180351
 31
0.0
  0
LINE
  5
264
330
256
100
AcDbEntity
  8
SLD-0
 62
     7
100
AcDbLine
 10
121.3583678716
 20
156.1953180351
 30
0.0
 11
110.2506174084
 21
156.1953180351
 31
0.0
  0
LINE
  5
265
330
256
100
AcDbEntity
  8
SLD-0
 62
     7
100
AcDbLine
 10
111.2506174084
 20
150.1953180351
 30
0.0
 11
111.2506174084
 21
145.1953180351
 31
0.0
  0
LINE
  5
266
330
256
100
AcDbEntity
  8
SLD-0
 62
     7
100
AcDbLine
 10
111.2506174084
 20
150.1953180351
 30
0.0
 11
111.2506174084
 21
156.1953180351
 31
0.0
  0
LINE
  5
267
330
256
100
AcDbEntity
  8
SLD-0
 62
     7
100
AcDbLine
 10
111.2506174084
 20
156.1953180351
 30
0.0
 11
111.2506174084
 21
161.1953180351
 31
0.0
  0
LINE
  5
268
330
256
100
AcDbEntity
  8
SLD-0
 62
     7
100
AcDbLine
 10
110.4467704084
 20
147.1953180351
 30
0.0
 11
111.2506174084
 21
150.1953180351
 31
0.0
  0
LINE
  5
269
330
256
100
AcDbEntity
  8
SLD-0
 62
     7
100
AcDbLine
 10
111.2506174084
 20
150.1953180351
 30
0.0
 11
112.0544644084
 21
147.1953180351
 31
0.0
  0
LINE
  5
26A
330
256
100
AcDbEntity
  8
SLD-0
 62
     7
100
AcDbLine
 10
111.2506174084
 20
150.1953180351
 30
0.0
 11
111.2506174084
 21
147.1953180351
 31
0.0
  0
LINE
  5
26B
330
256
100
AcDbEntity
  8
SLD-0
 62
     7
100
AcDbLine
 10
112.0544644084
 20
159.1953180351
 30
0.0
 11
111.2506174084
 21
156.1953180351
 31
0.0
  0
LINE
  5
26C
330
256
100
AcDbEntity
  8
SLD-0
 62
     7
100
AcDbLine
 10
111.2506174084
 20
156.1953180351
 30
0.0
 11
110.4467704084
 21
159.1953180351
 31
0.0
  0
LINE
  5
26D
330
256
100
AcDbEntity
  8
SLD-0
 62
     7
100
AcDbLine
 10
111.2506174084
 20
156.1953180351
 30
0.0
 11
111.2506174084
 21
159.1953180351
 31
0.0
  0
MTEXT
  5
26E
330
256
100
AcDbEntity
  8
SLD-0
 62
     7
100
AcDbMText
 10
106.7239237124
 20
152.178138909
 30
0.1
 40
3.5
 41
0.0
 71
     1
 72
     1
  1
6
  7
SLDTEXTSTYLE0
 11
6.123031769111886E-17
 21
1.0
 31
0.0
 73
     1
 44
1.0
  0
ENDBLK
  5
262
330
256
100
AcDbEntity
  8
0
100
AcDbBlockEnd
  0
BLOCK
  5
277
330
270
100
AcDbEntity
  8
0
100
AcDbBlockBegin
  2
*D26
 70
     1
 71
     0
 10
0.0
 20
0.0
 30
0.0
  3
*D26
  1

  0
LINE
  5
27A
330
270
100
AcDbEntity
  8
SLD-0
 62
     7
100
AcDbLine
 10
155.673261407
 20
123.9561322685
 30
0.0
 11
170.8701810267
 21
111.8233496327
 31
0.0
  0
LINE
  5
27B
330
270
100
AcDbEntity
  8
SLD-0
 62
     7
100
AcDbLine
 10
157.5161943915
 20
121.4561786661
 30
0.0
 11
155.673261407
 21
123.9561322685
 31
0.0
  0
LINE
  5
27C
330
270
100
AcDbEntity
  8
SLD-0
 62
     7
100
AcDbLine
 10
155.673261407
 20
123.9561322685
 30
0.0
 11
158.5192645437
 21
122.7125744109
 31
0.0
  0
LINE
  5
27D
330
270
100
AcDbEntity
  8
SLD-0
 62
     7
100
AcDbLine
 10
155.673261407
 20
123.9561322685
 30
0.0
 11
158.0177294676
 21
122.0843765385
 31
0.0
  0
MTEXT
  5
27E
330
270
100
AcDbEntity
  8
SLD-0
 62
     7
100
AcDbMText
 10
164.4933675444
 20
122.6965383491
 30
0.1
 40
3.5
 41
0.0
 71
     1
 72
     1
  1
2-R
  7
SLDTEXTSTYLE0
 11
0.7814893535057823
 21
-0.6239185767046165
 31
0.0
 73
     1
 44
1.0
  0
MTEXT
  5
27F
330
270
100
AcDbEntity
  8
SLD-0
 62
     7
100
AcDbMText
 10
169.2670781446
 20
118.8853453884
 30
0.1
 40
3.5
 41
0.0
 71
     1
 72
     1
  1
10
  7
SLDTEXTSTYLE0
 11
0.7814893535057823
 21
-0.6239185767046165
 31
0.0
 73
     1
 44
1.0
  0
ENDBLK
  5
278
330
270
100
AcDbEntity
  8
0
100
AcDbBlockEnd
  0
BLOCK
  5
288
330
281
100
AcDbEntity
  8
0
100
AcDbBlockBegin
  2
*D27
 70
     1
 71
     0
 10
0.0
 20
0.0
 30
0.0
  3
*D27
  1

  0
LINE
  5
28A
330
281
100
AcDbEntity
  8
SLD-0
 62
     7
100
AcDbLine
 10
153.8296635317
 20
144.0158140483
 30
0.0
 11
154.1419200846
 21
144.3721932452
 31
0.0
  0
LINE
  5
28B
330
281
100
AcDbEntity
  8
SLD-0
 62
     7
100
AcDbLine
 10
155.1462546409
 20
145.518442825
 30
0.0
 11
163.999078558
 21
155.6221932452
 31
0.0
  0
LINE
  5
28C
330
281
100
AcDbEntity
  8
SLD-0
 62
     7
100
AcDbLine
 10
165.0034131143
 20
156.768442825
 30
0.0
 11
180.9058540127
 21
174.91793901
 31
0.0
  0
LINE
  5
28D
330
281
100
AcDbEntity
  8
SLD-0
 62
     7
100
AcDbLine
 10
156.4112993287
 20
145.7424658982
 30
0.0
 11
153.8296635317
 21
144.0158140483
 31
0.0
  0
LINE
  5
28E
330
281
100
AcDbEntity
  8
SLD-0
 62
     7
100
AcDbLine
 10
153.8296635317
 20
144.0158140483
 30
0.0
 11
155.2021007908
 21
146.8019558195
 31
0.0
  0
LINE
  5
28F
330
281
100
AcDbEntity
  8
SLD-0
 62
     7
100
AcDbLine
 10
153.8296635317
 20
144.0158140483
 30
0.0
 11
155.8067000598
 21
146.2722108589
 31
0.0
  0
MTEXT
  5
290
330
281
100
AcDbEntity
  8
SLD-0
 62
     7
100
AcDbMText
 10
161.6947078758
 20
159.8549280984
 30
0.1
 40
3.5
 41
0.0
 71
     1
 72
     1
  1
2x2-R(両側)
  7
SLDTEXTSTYLE0
 11
0.6590121760024842
 21
0.7521322702028352
 31
0.0
 73
     1
 44
1.0
  0
ENDBLK
  5
289
330
281
100
AcDbEntity
  8
0
100
AcDbBlockEnd
  0
BLOCK
  5
29C
330
292
100
AcDbEntity
  8
0
100
AcDbBlockBegin
  2
*D28
 70
     1
 71
     0
 10
0.0
 20
0.0
 30
0.0
  3
*D28
  1

  0
LINE
  5
29E
330
292
100
AcDbEntity
  8
SLD-0
 62
     7
100
AcDbLine
 10
122.3583678716
 20
157.1953180351
 30
0.0
 11
122.3583678716
 21
167.6135350536
 31
0.0
  0
LINE
  5
29F
330
292
100
AcDbEntity
  8
SLD-0
 62
     7
100
AcDbLine
 10
141.3583678716
 20
148.4453180351
 30
0.0
 11
141.3583678716
 21
167.6135350536
 31
0.0
  0
LINE
  5
2A0
330
292
100
AcDbEntity
  8
SLD-0
 62
     7
100
AcDbLine
 10
122.3583678716
 20
166.6135350536
 30
0.0
 11
141.3583678716
 21
166.6135350536
 31
0.0
  0
LINE
  5
2A1
330
292
100
AcDbEntity
  8
SLD-0
 62
     7
100
AcDbLine
 10
125.3583678716
 20
165.8096880536
 30
0.0
 11
122.3583678716
 21
166.6135350536
 31
0.0
  0
LINE
  5
2A2
330
292
100
AcDbEntity
  8
SLD-0
 62
     7
100
AcDbLine
 10
122.3583678716
 20
166.6135350536
 30
0.0
 11
125.3583678716
 21
167.4173820536
 31
0.0
  0
LINE
  5
2A3
330
292
100
AcDbEntity
  8
SLD-0
 62
     7
100
AcDbLine
 10
122.3583678716
 20
166.6135350536
 30
0.0
 11
125.3583678716
 21
166.6135350536
 31
0.0
  0
LINE
  5
2A4
330
292
100
AcDbEntity
  8
SLD-0
 62
     7
100
AcDbLine
 10
138.3583678716
 20
167.4173820536
 30
0.0
 11
141.3583678716
 21
166.6135350536
 31
0.0
  0
LINE
  5
2A5
330
292
100
AcDbEntity
  8
SLD-0
 62
     7
100
AcDbLine
 10
141.3583678716
 20
166.6135350536
 30
0.0
 11
138.3583678716
 21
165.8096880536
 31
0.0
  0
LINE
  5
2A6
330
292
100
AcDbEntity
  8
SLD-0
 62
     7
100
AcDbLine
 10
141.3583678716
 20
166.6135350536
 30
0.0
 11
138.3583678716
 21
166.6135350536
 31
0.0
  0
MTEXT
  5
2A7
330
292
100
AcDbEntity
  8
SLD-0
 62
     7
100
AcDbMText
 10
129.822658784
 20
171.1402287496
 30
0.1
 40
3.5
 41
0.0
 71
     1
 72
     1
  1
19
  7
SLDTEXTSTYLE0
 73
     1
 44
1.0
  0
ENDBLK
  5
29D
330
292
100
AcDbEntity
  8
0
100
AcDbBlockEnd
  0
BLOCK
  5
2B3
330
2A9
100
AcDbEntity
  8
0
100
AcDbBlockBegin
  2
*D29
 70
     1
 71
     0
 10
0.0
 20
0.0
 30
0.0
  3
*D29
  1

  0
LINE
  5
2B5
330
2A9
100
AcDbEntity
  8
SLD-0
 62
     7
100
AcDbLine
 10
122.3583678716
 20
149.1953180351
 30
0.0
 11
122.3583678716
 21
110.2660706869
 31
0.0
  0
LINE
  5
2B6
330
2A9
100
AcDbEntity
  8
SLD-0
 62
     7
100
AcDbLine
 10
145.3583678716
 20
120.0453180351
 30
0.0
 11
145.3583678716
 21
110.2660706869
 31
0.0
  0
LINE
  5
2B7
330
2A9
100
AcDbEntity
  8
SLD-0
 62
     7
100
AcDbLine
 10
122.3583678716
 20
111.2660706869
 30
0.0
 11
145.3583678716
 21
111.2660706869
 31
0.0
  0
LINE
  5
2B8
330
2A9
100
AcDbEntity
  8
SLD-0
 62
     7
100
AcDbLine
 10
125.3583678716
 20
110.4622236869
 30
0.0
 11
122.3583678716
 21
111.2660706869
 31
0.0
  0
LINE
  5
2B9
330
2A9
100
AcDbEntity
  8
SLD-0
 62
     7
100
AcDbLine
 10
122.3583678716
 20
111.2660706869
 30
0.0
 11
125.3583678716
 21
112.0699176869
 31
0.0
  0
LINE
  5
2BA
330
2A9
100
AcDbEntity
  8
SLD-0
 62
     7
100
AcDbLine
 10
122.3583678716
 20
111.2660706869
 30
0.0
 11
125.3583678716
 21
111.2660706869
 31
0.0
  0
LINE
  5
2BB
330
2A9
100
AcDbEntity
  8
SLD-0
 62
     7
100
AcDbLine
 10
142.3583678716
 20
112.0699176869
 30
0.0
 11
145.3583678716
 21
111.2660706869
 31
0.0
  0
LINE
  5
2BC
330
2A9
100
AcDbEntity
  8
SLD-0
 62
     7
100
AcDbLine
 10
145.3583678716
 20
111.2660706869
 30
0.0
 11
142.3583678716
 21
110.4622236869
 31
0.0
  0
LINE
  5
2BD
330
2A9
100
AcDbEntity
  8
SLD-0
 62
     7
100
AcDbLine
 10
145.3583678716
 20
111.2660706869
 30
0.0
 11
142.3583678716
 21
111.2660706869
 31
0.0
  0
MTEXT
  5
2BE
330
2A9
100
AcDbEntity
  8
SLD-0
 62
     7
100
AcDbMText
 10
130.210306021
 20
115.7927643828
 30
0.1
 40
3.5
 41
0.0
 71
     1
 72
     1
  1
23
  7
SLDTEXTSTYLE0
 73
     1
 44
1.0
  0
ENDBLK
  5
2B4
330
2A9
100
AcDbEntity
  8
0
100
AcDbBlockEnd
  0
BLOCK
  5
2CA
330
2C0
100
AcDbEntity
  8
0
100
AcDbBlockBegin
  2
*D30
 70
     1
 71
     0
 10
0.0
 20
0.0
 30
0.0
  3
*D30
  1

  0
LINE
  5
2CC
330
2C0
100
AcDbEntity
  8
SLD-0
 62
     7
100
AcDbLine
 10
47.5400527528
 20
223.4573585927
 30
0.0
 11
47.5400527528
 21
243.3554474224
 31
0.0
  0
LINE
  5
2CD
330
2C0
100
AcDbEntity
  8
SLD-0
 62
     7
100
AcDbLine
 10
90.5400527528
 20
223.4573585927
 30
0.0
 11
90.5400527528
 21
243.3554474224
 31
0.0
  0
LINE
  5
2CE
330
2C0
100
AcDbEntity
  8
SLD-0
 62
     7
100
AcDbLine
 10
47.5400527528
 20
242.3554474224
 30
0.0
 11
90.5400527528
 21
242.3554474224
 31
0.0
  0
LINE
  5
2CF
330
2C0
100
AcDbEntity
  8
SLD-0
 62
     7
100
AcDbLine
 10
50.5400527528
 20
241.5516004224
 30
0.0
 11
47.5400527528
 21
242.3554474224
 31
0.0
  0
LINE
  5
2D0
330
2C0
100
AcDbEntity
  8
SLD-0
 62
     7
100
AcDbLine
 10
47.5400527528
 20
242.3554474224
 30
0.0
 11
50.5400527528
 21
243.1592944224
 31
0.0
  0
LINE
  5
2D1
330
2C0
100
AcDbEntity
  8
SLD-0
 62
     7
100
AcDbLine
 10
47.5400527528
 20
242.3554474224
 30
0.0
 11
50.5400527528
 21
242.3554474224
 31
0.0
  0
LINE
  5
2D2
330
2C0
100
AcDbEntity
  8
SLD-0
 62
     7
100
AcDbLine
 10
87.5400527528
 20
243.1592944224
 30
0.0
 11
90.5400527528
 21
242.3554474224
 31
0.0
  0
LINE
  5
2D3
330
2C0
100
AcDbEntity
  8
SLD-0
 62
     7
100
AcDbLine
 10
90.5400527528
 20
242.3554474224
 30
0.0
 11
87.5400527528
 21
241.5516004224
 31
0.0
  0
LINE
  5
2D4
330
2C0
100
AcDbEntity
  8
SLD-0
 62
     7
100
AcDbLine
 10
90.5400527528
 20
242.3554474224
 30
0.0
 11
87.5400527528
 21
242.3554474224
 31
0.0
  0
MTEXT
  5
2D5
330
2C0
100
AcDbEntity
  8
SLD-0
 62
     7
100
AcDbMText
 10
67.0043436652
 20
246.8821411184
 30
0.1
 40
3.5
 41
0.0
 71
     1
 72
     1
  1
43
  7
SLDTEXTSTYLE0
 73
     1
 44
1.0
  0
ENDBLK
  5
2CB
330
2C0
100
AcDbEntity
  8
0
100
AcDbBlockEnd
  0
BLOCK
  5
2E2
330
2D7
100
AcDbEntity
  8
0
100
AcDbBlockBegin
  2
*D31
 70
     1
 71
     0
 10
0.0
 20
0.0
 30
0.0
  3
*D31
  1

  0
LINE
  5
2E4
330
2D7
100
AcDbEntity
  8
SLD-0
 62
     7
100
AcDbLine
 10
91.5400527528
 20
222.4573585927
 30
0.0
 11
102.6556671273
 21
222.4573585927
 31
0.0
  0
LINE
  5
2E5
330
2D7
100
AcDbEntity
  8
SLD-0
 62
     7
100
AcDbLine
 10
91.5400527528
 20
186.9573585927
 30
0.0
 11
102.6556671273
 21
186.9573585927
 31
0.0
  0
LINE
  5
2E6
330
2D7
100
AcDbEntity
  8
SLD-0
 62
     7
100
AcDbLine
 10
101.6556671273
 20
222.4573585927
 30
0.0
 11
101.6556671273
 21
186.9573585927
 31
0.0
  0
LINE
  5
2E7
330
2D7
100
AcDbEntity
  8
SLD-0
 62
     7
100
AcDbLine
 10
100.8518201273
 20
219.4573585927
 30
0.0
 11
101.6556671273
 21
222.4573585927
 31
0.0
  0
LINE
  5
2E8
330
2D7
100
AcDbEntity
  8
SLD-0
 62
     7
100
AcDbLine
 10
101.6556671273
 20
222.4573585927
 30
0.0
 11
102.4595141273
 21
219.4573585927
 31
0.0
  0
LINE
  5
2E9
330
2D7
100
AcDbEntity
  8
SLD-0
 62
     7
100
AcDbLine
 10
101.6556671273
 20
222.4573585927
 30
0.0
 11
101.6556671273
 21
219.4573585927
 31
0.0
  0
LINE
  5
2EA
330
2D7
100
AcDbEntity
  8
SLD-0
 62
     7
100
AcDbLine
 10
102.4595141273
 20
189.9573585927
 30
0.0
 11
101.6556671273
 21
186.9573585927
 31
0.0
  0
LINE
  5
2EB
330
2D7
100
AcDbEntity
  8
SLD-0
 62
     7
100
AcDbLine
 10
101.6556671273
 20
186.9573585927
 30
0.0
 11
100.8518201273
 21
189.9573585927
 31
0.0
  0
LINE
  5
2EC
330
2D7
100
AcDbEntity
  8
SLD-0
 62
     7
100
AcDbLine
 10
101.6556671273
 20
186.9573585927
 30
0.0
 11
101.6556671273
 21
189.9573585927
 31
0.0
  0
MTEXT
  5
2ED
330
2D7
100
AcDbEntity
  8
SLD-0
 62
     7
100
AcDbMText
 10
97.1289734314
 20
200.634589582
 30
0.1
 40
3.5
 41
0.0
 71
     1
 72
     1
  1
35.5
  7
SLDTEXTSTYLE0
 11
6.123031769111886E-17
 21
1.0
 31
0.0
 73
     1
 44
1.0
  0
ENDBLK
  5
2E3
330
2D7
100
AcDbEntity
  8
0
100
AcDbBlockEnd
  0
BLOCK
  5
2FA
330
2EF
100
AcDbEntity
  8
0
100
AcDbBlockBegin
  2
*D32
 70
     1
 71
     0
 10
0.0
 20
0.0
 30
0.0
  3
*D32
  1

  0
LINE
  5
2FC
330
2EF
100
AcDbEntity
  8
SLD-0
 62
     7
100
AcDbLine
 10
46.7900527528
 20
192.9573585927
 30
0.0
 11
39.2710879476
 21
192.9573585927
 31
0.0
  0
LINE
  5
2FD
330
2EF
100
AcDbEntity
  8
SLD-0
 62
     7
100
AcDbLine
 10
46.5400527528
 20
186.9573585927
 30
0.0
 11
39.2710879476
 21
186.9573585927
 31
0.0
  0
LINE
  5
2FE
330
2EF
100
AcDbEntity
  8
SLD-0
 62
     7
100
AcDbLine
 10
40.2710879476
 20
192.9573585927
 30
0.0
 11
40.2710879476
 21
197.9573585927
 31
0.0
  0
LINE
  5
2FF
330
2EF
100
AcDbEntity
  8
SLD-0
 62
     7
100
AcDbLine
 10
40.2710879476
 20
192.9573585927
 30
0.0
 11
40.2710879476
 21
186.9573585927
 31
0.0
  0
LINE
  5
300
330
2EF
100
AcDbEntity
  8
SLD-0
 62
     7
100
AcDbLine
 10
40.2710879476
 20
186.9573585927
 30
0.0
 11
40.2710879476
 21
181.9573585927
 31
0.0
  0
LINE
  5
301
330
2EF
100
AcDbEntity
  8
SLD-0
 62
     7
100
AcDbLine
 10
41.0749349476
 20
195.9573585927
 30
0.0
 11
40.2710879476
 21
192.9573585927
 31
0.0
  0
LINE
  5
302
330
2EF
100
AcDbEntity
  8
SLD-0
 62
     7
100
AcDbLine
 10
40.2710879476
 20
192.9573585927
 30
0.0
 11
39.4672409476
 21
195.9573585927
 31
0.0
  0
LINE
  5
303
330
2EF
100
AcDbEntity
  8
SLD-0
 62
     7
100
AcDbLine
 10
40.2710879476
 20
192.9573585927
 30
0.0
 11
40.2710879476
 21
195.9573585927
 31
0.0
  0
LINE
  5
304
330
2EF
100
AcDbEntity
  8
SLD-0
 62
     7
100
AcDbLine
 10
39.4672409476
 20
183.9573585927
 30
0.0
 11
40.2710879476
 21
186.9573585927
 31
0.0
  0
LINE
  5
305
330
2EF
100
AcDbEntity
  8
SLD-0
 62
     7
100
AcDbLine
 10
40.2710879476
 20
186.9573585927
 30
0.0
 11
41.0749349476
 21
183.9573585927
 31
0.0
  0
LINE
  5
306
330
2EF
100
AcDbEntity
  8
SLD-0
 62
     7
100
AcDbLine
 10
40.2710879476
 20
186.9573585927
 30
0.0
 11
40.2710879476
 21
183.9573585927
 31
0.0
  0
MTEXT
  5
307
330
2EF
100
AcDbEntity
  8
SLD-0
 62
     7
100
AcDbMText
 10
35.7443942516
 20
188.9401794667
 30
0.1
 40
3.5
 41
0.0
 71
     1
 72
     1
  1
6
  7
SLDTEXTSTYLE0
 11
6.123031769111886E-17
 21
1.0
 31
0.0
 73
     1
 44
1.0
  0
ENDBLK
  5
2FB
330
2EF
100
AcDbEntity
  8
0
100
AcDbBlockEnd
  0
BLOCK
  5
313
330
309
100
AcDbEntity
  8
0
100
AcDbBlockBegin
  2
*D33
 70
     1
 71
     0
 10
0.0
 20
0.0
 30
0.0
  3
*D33
  1

  0
LINE
  5
315
330
309
100
AcDbEntity
  8
SLD-0
 62
     7
100
AcDbLine
 10
53.0400527528
 20
199.2073585927
 30
0.0
 11
53.0400527528
 21
173.7095521509
 31
0.0
  0
LINE
  5
316
330
309
100
AcDbEntity
  8
SLD-0
 62
     7
100
AcDbLine
 10
85.0400527528
 20
199.2073585927
 30
0.0
 11
85.0400527528
 21
173.7095521509
 31
0.0
  0
LINE
  5
317
330
309
100
AcDbEntity
  8
SLD-0
 62
     7
100
AcDbLine
 10
53.0400527528
 20
174.7095521509
 30
0.0
 11
85.0400527528
 21
174.7095521509
 31
0.0
  0
LINE
  5
318
330
309
100
AcDbEntity
  8
SLD-0
 62
     7
100
AcDbLine
 10
56.0400527528
 20
173.9057051509
 30
0.0
 11
53.0400527528
 21
174.7095521509
 31
0.0
  0
LINE
  5
319
330
309
100
AcDbEntity
  8
SLD-0
 62
     7
100
AcDbLine
 10
53.0400527528
 20
174.7095521509
 30
0.0
 11
56.0400527528
 21
175.5133991509
 31
0.0
  0
LINE
  5
31A
330
309
100
AcDbEntity
  8
SLD-0
 62
     7
100
AcDbLine
 10
53.0400527528
 20
174.7095521509
 30
0.0
 11
56.0400527528
 21
174.7095521509
 31
0.0
  0
LINE
  5
31B
330
309
100
AcDbEntity
  8
SLD-0
 62
     7
100
AcDbLine
 10
82.0400527528
 20
175.5133991509
 30
0.0
 11
85.0400527528
 21
174.7095521509
 31
0.0
  0
LINE
  5
31C
330
309
100
AcDbEntity
  8
SLD-0
 62
     7
100
AcDbLine
 10
85.0400527528
 20
174.7095521509
 30
0.0
 11
82.0400527528
 21
173.9057051509
 31
0.0
  0
LINE
  5
31D
330
309
100
AcDbEntity
  8
SLD-0
 62
     7
100
AcDbLine
 10
85.0400527528
 20
174.7095521509
 30
0.0
 11
82.0400527528
 21
174.7095521509
 31
0.0
  0
MTEXT
  5
31E
330
309
100
AcDbEntity
  8
SLD-0
 62
     7
100
AcDbMText
 10
67.0043436652
 20
179.2362458469
 30
0.1
 40
3.5
 41
0.0
 71
     1
 72
     1
  1
32
  7
SLDTEXTSTYLE0
 73
     1
 44
1.0
  0
ENDBLK
  5
314
330
309
100
AcDbEntity
  8
0
100
AcDbBlockEnd
  0
BLOCK
  5
32A
330
320
100
AcDbEntity
  8
0
100
AcDbBlockBegin
  2
*D34
 70
     1
 71
     0
 10
0.0
 20
0.0
 30
0.0
  3
*D34
  1

  0
LINE
  5
32C
330
320
100
AcDbEntity
  8
SLD-0
 62
     7
100
AcDbLine
 10
83.0400527528
 20
215.9573585927
 30
0.0
 11
83.0400527528
 21
234.089631055
 31
0.0
  0
LINE
  5
32D
330
320
100
AcDbEntity
  8
SLD-0
 62
     7
100
AcDbLine
 10
55.0400527528
 20
215.9573585927
 30
0.0
 11
55.0400527528
 21
234.089631055
 31
0.0
  0
LINE
  5
32E
330
320
100
AcDbEntity
  8
SLD-0
 62
     7
100
AcDbLine
 10
83.0400527528
 20
233.089631055
 30
0.0
 11
55.0400527528
 21
233.089631055
 31
0.0
  0
LINE
  5
32F
330
320
100
AcDbEntity
  8
SLD-0
 62
     7
100
AcDbLine
 10
80.0400527528
 20
233.893478055
 30
0.0
 11
83.0400527528
 21
233.089631055
 31
0.0
  0
LINE
  5
330
330
320
100
AcDbEntity
  8
SLD-0
 62
     7
100
AcDbLine
 10
83.0400527528
 20
233.089631055
 30
0.0
 11
80.0400527528
 21
232.285784055
 31
0.0
  0
LINE
  5
331
330
320
100
AcDbEntity
  8
SLD-0
 62
     7
100
AcDbLine
 10
83.0400527528
 20
233.089631055
 30
0.0
 11
80.0400527528
 21
233.089631055
 31
0.0
  0
LINE
  5
332
330
320
100
AcDbEntity
  8
SLD-0
 62
     7
100
AcDbLine
 10
58.0400527528
 20
232.285784055
 30
0.0
 11
55.0400527528
 21
233.089631055
 31
0.0
  0
LINE
  5
333
330
320
100
AcDbEntity
  8
SLD-0
 62
     7
100
AcDbLine
 10
55.0400527528
 20
233.089631055
 30
0.0
 11
58.0400527528
 21
233.893478055
 31
0.0
  0
LINE
  5
334
330
320
100
AcDbEntity
  8
SLD-0
 62
     7
100
AcDbLine
 10
55.0400527528
 20
233.089631055
 30
0.0
 11
58.0400527528
 21
233.089631055
 31
0.0
  0
MTEXT
  5
335
330
320
100
AcDbEntity
  8
SLD-0
 62
     7
100
AcDbMText
 10
67.0043436652
 20
237.6163247509
 30
0.1
 40
3.5
 41
0.0
 71
     1
 72
     1
  1
28
  7
SLDTEXTSTYLE0
 73
     1
 44
1.0
  0
ENDBLK
  5
32B
330
320
100
AcDbEntity
  8
0
100
AcDbBlockEnd
  0
BLOCK
  5
342
330
337
100
AcDbEntity
  8
0
100
AcDbBlockBegin
  2
*D35
 70
     1
 71
     0
 10
0.0
 20
0.0
 30
0.0
  3
*D35
  1

  0
LINE
  5
344
330
337
100
AcDbEntity
  8
SLD-0
 62
     7
100
AcDbLine
 10
90.5400527528
 20
223.4573585927
 30
0.0
 11
90.5400527528
 21
234.089631055
 31
0.0
  0
LINE
  5
345
330
337
100
AcDbEntity
  8
SLD-0
 62
     7
100
AcDbLine
 10
83.0400527528
 20
215.5573585927
 30
0.0
 11
83.0400527528
 21
234.089631055
 31
0.0
  0
LINE
  5
346
330
337
100
AcDbEntity
  8
SLD-0
 62
     7
100
AcDbLine
 10
90.5400527528
 20
233.089631055
 30
0.0
 11
95.5400527528
 21
233.089631055
 31
0.0
  0
LINE
  5
347
330
337
100
AcDbEntity
  8
SLD-0
 62
     7
100
AcDbLine
 10
90.5400527528
 20
233.089631055
 30
0.0
 11
83.0400527528
 21
233.089631055
 31
0.0
  0
LINE
  5
348
330
337
100
AcDbEntity
  8
SLD-0
 62
     7
100
AcDbLine
 10
83.0400527528
 20
233.089631055
 30
0.0
 11
78.0400527528
 21
233.089631055
 31
0.0
  0
LINE
  5
349
330
337
100
AcDbEntity
  8
SLD-0
 62
     7
100
AcDbLine
 10
93.5400527528
 20
232.285784055
 30
0.0
 11
90.5400527528
 21
233.089631055
 31
0.0
  0
LINE
  5
34A
330
337
100
AcDbEntity
  8
SLD-0
 62
     7
100
AcDbLine
 10
90.5400527528
 20
233.089631055
 30
0.0
 11
93.5400527528
 21
233.893478055
 31
0.0
  0
LINE
  5
34B
330
337
100
AcDbEntity
  8
SLD-0
 62
     7
100
AcDbLine
 10
90.5400527528
 20
233.089631055
 30
0.0
 11
93.5400527528
 21
233.089631055
 31
0.0
  0
LINE
  5
34C
330
337
100
AcDbEntity
  8
SLD-0
 62
     7
100
AcDbLine
 10
80.0400527528
 20
233.893478055
 30
0.0
 11
83.0400527528
 21
233.089631055
 31
0.0
  0
LINE
  5
34D
330
337
100
AcDbEntity
  8
SLD-0
 62
     7
100
AcDbLine
 10
83.0400527528
 20
233.089631055
 30
0.0
 11
80.0400527528
 21
232.285784055
 31
0.0
  0
LINE
  5
34E
330
337
100
AcDbEntity
  8
SLD-0
 62
     7
100
AcDbLine
 10
83.0400527528
 20
233.089631055
 30
0.0
 11
80.0400527528
 21
233.089631055
 31
0.0
  0
MTEXT
  5
34F
330
337
100
AcDbEntity
  8
SLD-0
 62
     7
100
AcDbMText
 10
83.7358137036
 20
237.6163247509
 30
0.1
 40
3.5
 41
0.0
 71
     1
 72
     1
  1
7.5
  7
SLDTEXTSTYLE0
 73
     1
 44
1.0
  0
ENDBLK
  5
343
330
337
100
AcDbEntity
  8
0
100
AcDbBlockEnd
  0
BLOCK
  5
35E
330
351
100
AcDbEntity
  8
0
100
AcDbBlockBegin
  2
*D36
 70
     1
 71
     0
 10
0.0
 20
0.0
 30
0.0
  3
*D36
  1

  0
LINE
  5
360
330
351
100
AcDbEntity
  8
SLD-0
 62
     7
100
AcDbLine
 10
90.5400527528
 20
185.9573585927
 30
0.0
 11
90.5400527528
 21
173.7095521509
 31
0.0
  0
LINE
  5
361
330
351
100
AcDbEntity
  8
SLD-0
 62
     7
100
AcDbLine
 10
85.0400527528
 20
186.7073585927
 30
0.0
 11
85.0400527528
 21
173.7095521509
 31
0.0
  0
LINE
  5
362
330
351
100
AcDbEntity
  8
SLD-0
 62
     7
100
AcDbLine
 10
90.5400527528
 20
174.7095521509
 30
0.0
 11
104.276738654
 21
174.7095521509
 31
0.0
  0
LINE
  5
363
330
351
100
AcDbEntity
  8
SLD-0
 62
     7
100
AcDbLine
 10
90.5400527528
 20
174.7095521509
 30
0.0
 11
85.0400527528
 21
174.7095521509
 31
0.0
  0
LINE
  5
364
330
351
100
AcDbEntity
  8
SLD-0
 62
     7
100
AcDbLine
 10
85.0400527528
 20
174.7095521509
 30
0.0
 11
80.0400527528
 21
174.7095521509
 31
0.0
  0
LINE
  5
365
330
351
100
AcDbEntity
  8
SLD-0
 62
     7
100
AcDbLine
 10
93.5400527528
 20
173.9057051509
 30
0.0
 11
90.5400527528
 21
174.7095521509
 31
0.0
  0
LINE
  5
366
330
351
100
AcDbEntity
  8
SLD-0
 62
     7
100
AcDbLine
 10
90.5400527528
 20
174.7095521509
 30
0.0
 11
93.5400527528
 21
175.5133991509
 31
0.0
  0
LINE
  5
367
330
351
100
AcDbEntity
  8
SLD-0
 62
     7
100
AcDbLine
 10
90.5400527528
 20
174.7095521509
 30
0.0
 11
93.5400527528
 21
174.7095521509
 31
0.0
  0
LINE
  5
368
330
351
100
AcDbEntity
  8
SLD-0
 62
     7
100
AcDbLine
 10
82.0400527528
 20
175.5133991509
 30
0.0
 11
85.0400527528
 21
174.7095521509
 31
0.0
  0
LINE
  5
369
330
351
100
AcDbEntity
  8
SLD-0
 62
     7
100
AcDbLine
 10
85.0400527528
 20
174.7095521509
 30
0.0
 11
82.0400527528
 21
173.9057051509
 31
0.0
  0
LINE
  5
36A
330
351
100
AcDbEntity
  8
SLD-0
 62
     7
100
AcDbLine
 10
85.0400527528
 20
174.7095521509
 30
0.0
 11
82.0400527528
 21
174.7095521509
 31
0.0
  0
MTEXT
  5
36B
330
351
100
AcDbEntity
  8
SLD-0
 62
     7
100
AcDbMText
 10
96.5807605557
 20
179.2362458469
 30
0.1
 40
3.5
 41
0.0
 71
     1
 72
     1
  1
5.5
  7
SLDTEXTSTYLE0
 73
     1
 44
1.0
  0
ENDBLK
  5
35F
330
351
100
AcDbEntity
  8
0
100
AcDbBlockEnd
  0
BLOCK
  5
378
330
36D
100
AcDbEntity
  8
0
100
AcDbBlockBegin
  2
*D37
 70
     1
 71
     0
 10
0.0
 20
0.0
 30
0.0
  3
*D37
  1

  0
LINE
  5
37A
330
36D
100
AcDbEntity
  8
SLD-0
 62
     7
100
AcDbLine
 10
46.5400527528
 20
186.9573585927
 30
0.0
 11
32.0759429041
 21
186.9573585927
 31
0.0
  0
LINE
  5
37B
330
36D
100
AcDbEntity
  8
SLD-0
 62
     7
100
AcDbLine
 10
49.4400527528
 20
209.9573585927
 30
0.0
 11
32.0759429041
 21
209.9573585927
 31
0.0
  0
LINE
  5
37C
330
36D
100
AcDbEntity
  8
SLD-0
 62
     7
100
AcDbLine
 10
33.0759429041
 20
186.9573585927
 30
0.0
 11
33.0759429041
 21
209.9573585927
 31
0.0
  0
LINE
  5
37D
330
36D
100
AcDbEntity
  8
SLD-0
 62
     7
100
AcDbLine
 10
33.8797899041
 20
189.9573585927
 30
0.0
 11
33.0759429041
 21
186.9573585927
 31
0.0
  0
LINE
  5
37E
330
36D
100
AcDbEntity
  8
SLD-0
 62
     7
100
AcDbLine
 10
33.0759429041
 20
186.9573585927
 30
0.0
 11
32.2720959041
 21
189.9573585927
 31
0.0
  0
LINE
  5
37F
330
36D
100
AcDbEntity
  8
SLD-0
 62
     7
100
AcDbLine
 10
33.0759429041
 20
186.9573585927
 30
0.0
 11
33.0759429041
 21
189.9573585927
 31
0.0
  0
LINE
  5
380
330
36D
100
AcDbEntity
  8
SLD-0
 62
     7
100
AcDbLine
 10
32.2720959041
 20
206.9573585927
 30
0.0
 11
33.0759429041
 21
209.9573585927
 31
0.0
  0
LINE
  5
381
330
36D
100
AcDbEntity
  8
SLD-0
 62
     7
100
AcDbLine
 10
33.0759429041
 20
209.9573585927
 30
0.0
 11
33.8797899041
 21
206.9573585927
 31
0.0
  0
LINE
  5
382
330
36D
100
AcDbEntity
  8
SLD-0
 62
     7
100
AcDbLine
 10
33.0759429041
 20
209.9573585927
 30
0.0
 11
33.0759429041
 21
206.9573585927
 31
0.0
  0
MTEXT
  5
383
330
36D
100
AcDbEntity
  8
SLD-0
 62
     7
100
AcDbMText
 10
28.5492492082
 20
196.4216495051
 30
0.1
 40
3.5
 41
0.0
 71
     1
 72
     1
  1
23
  7
SLDTEXTSTYLE0
 11
6.123031769111886E-17
 21
1.0
 31
0.0
 73
     1
 44
1.0
  0
ENDBLK
  5
379
330
36D
100
AcDbEntity
  8
0
100
AcDbBlockEnd
  0
BLOCK
  5
38C
330
385
100
AcDbEntity
  8
0
100
AcDbBlockBegin
  2
*D38
 70
     1
 71
     0
 10
0.0
 20
0.0
 30
0.0
  3
*D38
  1

  0
LINE
  5
38F
330
385
100
AcDbEntity
  8
SLD-0
 62
     7
100
AcDbLine
 10
53.2935918757
 20
211.7461778694
 30
0.0
 11
43.9563111704
 21
221.3099235775
 31
0.0
  0
LINE
  5
390
330
385
100
AcDbEntity
  8
SLD-0
 62
     7
100
AcDbLine
 10
43.9563111704
 20
221.3099235775
 30
0.0
 11
31.0482731489
 21
221.3099235775
 31
0.0
  0
LINE
  5
391
330
385
100
AcDbEntity
  8
SLD-0
 62
     7
100
AcDbLine
 10
51.7730136268
 20
214.4543159361
 30
0.0
 11
53.2935918757
 21
211.7461778694
 31
0.0
  0
LINE
  5
392
330
385
100
AcDbEntity
  8
SLD-0
 62
     7
100
AcDbLine
 10
53.2935918757
 20
211.7461778694
 30
0.0
 11
50.6226640195
 21
213.3312060668
 31
0.0
  0
LINE
  5
393
330
385
100
AcDbEntity
  8
SLD-0
 62
     7
100
AcDbLine
 10
53.2935918757
 20
211.7461778694
 30
0.0
 11
51.1978388232
 21
213.8927610015
 31
0.0
  0
MTEXT
  5
394
330
385
100
AcDbEntity
  8
SLD-0
 62
     7
100
AcDbMText
 10
32.6357731489
 20
225.8366172734
 30
0.1
 40
3.5
 41
0.0
 71
     1
 72
     1
  1
2-M5
  7
SLDTEXTSTYLE0
 73
     1
 44
1.0
  0
ENDBLK
  5
38D
330
385
100
AcDbEntity
  8
0
100
AcDbBlockEnd
  0
BLOCK
  5
3A0
330
396
100
AcDbEntity
  8
0
100
AcDbBlockBegin
  2
*D39
 70
     1
 71
     0
 10
0.0
 20
0.0
 30
0.0
  3
*D39
  1

  0
LINE
  5
3A2
330
396
100
AcDbEntity
  8
SLD-0
 62
     7
100
AcDbLine
 10
51.5481780746
 20
190.6472049302
 30
0.0
 11
41.2499633641
 21
174.7005180012
 31
0.0
  0
LINE
  5
3A3
330
396
100
AcDbEntity
  8
SLD-0
 62
     7
100
AcDbLine
 10
41.2499633641
 20
174.7005180012
 30
0.0
 11
22.4360725682
 21
174.7005180012
 31
0.0
  0
LINE
  5
3A4
330
396
100
AcDbEntity
  8
SLD-0
 62
     7
100
AcDbLine
 10
49.2454020288
 20
188.5631242018
 30
0.0
 11
51.5481780746
 21
190.6472049302
 31
0.0
  0
LINE
  5
3A5
330
396
100
AcDbEntity
  8
SLD-0
 62
     7
100
AcDbLine
 10
51.5481780746
 20
190.6472049302
 30
0.0
 11
50.5959548224
 21
187.6909503949
 31
0.0
  0
LINE
  5
3A6
330
396
100
AcDbEntity
  8
SLD-0
 62
     7
100
AcDbLine
 10
51.5481780746
 20
190.6472049302
 30
0.0
 11
49.9206784256
 21
188.1270372984
 31
0.0
  0
MTEXT
  5
3A7
330
396
100
AcDbEntity
  8
SLD-0
 62
     7
100
AcDbMText
 10
24.0235725682
 20
179.2272116972
 30
0.1
 40
3.5
 41
0.0
 71
     1
 72
     1
  1
2-
  7
SLDTEXTSTYLE0
 73
     1
 44
1.0
  0
MTEXT
  5
3A8
330
396
100
AcDbEntity
  8
SLD-0
 62
     7
100
AcDbMText
 10
26.3471835631
 20
179.2272114644
 30
0.1
 40
3.5
 41
0.0
 71
     1
 72
     1
  1
%%c
  7
SLDTEXTSTYLE0
 73
     1
 44
1.0
  0
MTEXT
  5
3A9
330
396
100
AcDbEntity
  8
SLD-0
 62
     7
100
AcDbMText
 10
31.9664852657
 20
179.2272116972
 30
0.1
 40
3.5
 41
0.0
 71
     1
 72
     1
  1
5.5
  7
SLDTEXTSTYLE0
 73
     1
 44
1.0
  0
ENDBLK
  5
3A1
330
396
100
AcDbEntity
  8
0
100
AcDbBlockEnd
  0
ENDSEC
  0
SECTION
  2
ENTITIES
  0
LINE
  5
A2
330
1F
100
AcDbEntity
  8
SLD-0
100
AcDbLine
 10
20.2604743903
 20
285.0
 30
0.0
 11
196.7604743903
 21
285.0
 31
0.0
  0
LINE
  5
A3
330
1F
100
AcDbEntity
  8
SLD-0
  6
Continuous
 62
   179
100
AcDbLine
 10
20.2604743903
 20
285.0
 30
0.0
 11
20.2604743903
 21
10.0
 31
0.0
  0
LINE
  5
A4
330
1F
100
AcDbEntity
  8
SLD-0
  6
Continuous
 62
   179
100
AcDbLine
 10
20.2604743903
 20
10.0
 30
0.0
 11
196.7604743903
 21
10.0
 31
0.0
  0
LINE
  5
A5
330
1F
100
AcDbEntity
  8
SLD-0
  6
Continuous
 62
   179
100
AcDbLine
 10
196.7604743903
 20
285.0
 30
0.0
 11
196.7604743903
 21
10.0
 31
0.0
  0
LINE
  5
A6
330
1F
100
AcDbEntity
  8
SLD-0
  6
Continuous
 62
   179
100
AcDbLine
 10
127.0104743903
 20
50.75
 30
0.0
 11
196.7604743903
 21
50.75
 31
0.0
  0
LINE
  5
A7
330
1F
100
AcDbEntity
  8
SLD-0
  6
Continuous
 62
   179
100
AcDbLine
 10
118.0104743903
 20
60.75
 30
0.0
 11
196.7604743903
 21
60.75
 31
0.0
  0
LINE
  5
A8
330
1F
100
AcDbEntity
  8
SLD-0
  6
Continuous
 62
   179
100
AcDbLine
 10
127.0104743903
 20
50.75
 30
0.0
 11
127.0104743903
 21
10.0
 31
0.0
  0
LINE
  5
A9
330
1F
100
AcDbEntity
  8
SLD-0
  6
Continuous
 62
   179
100
AcDbLine
 10
127.0104743903
 20
22.75
 30
0.0
 11
196.7604743903
 21
22.75
 31
0.0
  0
LINE
  5
AA
330
1F
100
AcDbEntity
  8
SLD-0
  6
Continuous
 62
   179
100
AcDbLine
 10
127.0104743903
 20
36.75
 30
0.0
 11
196.7604743903
 21
36.75
 31
0.0
  0
LINE
  5
AB
330
1F
100
AcDbEntity
  8
SLD-0
  6
Continuous
 62
   179
100
AcDbLine
 10
118.0104743903
 20
70.75
 30
0.0
 11
196.7604743903
 21
70.75
 31
0.0
  0
LINE
  5
AC
330
1F
100
AcDbEntity
  8
SLD-0
  6
Continuous
 62
   179
100
AcDbLine
 10
118.0104743903
 20
80.75
 30
0.0
 11
196.7604743903
 21
80.75
 31
0.0
  0
LINE
  5
AD
330
1F
100
AcDbEntity
  8
SLD-0
  6
Continuous
 62
   179
100
AcDbLine
 10
118.0104743903
 20
80.75
 30
0.0
 11
118.0104743903
 21
60.75
 31
0.0
  0
LINE
  5
AE
330
1F
100
AcDbEntity
  8
SLD-0
  6
Continuous
 62
   179
100
AcDbLine
 10
158.0104743903
 20
80.75
 30
0.0
 11
158.0104743903
 21
60.75
 31
0.0
  0
LINE
  5
AF
330
1F
100
AcDbEntity
  8
SLD-0
  6
Continuous
 62
   179
100
AcDbLine
 10
118.0104743903
 20
65.75
 30
0.0
 11
196.7604743903
 21
65.75
 31
0.0
  0
LINE
  5
B0
330
1F
100
AcDbEntity
  8
SLD-0
  6
Continuous
 62
   179
100
AcDbLine
 10
47.5400527528
 20
156.1953180351
 30
0.0
 11
90.5400527528
 21
156.1953180351
 31
0.0
  0
LINE
  5
B1
330
1F
100
AcDbEntity
  8
SLD-0
  6
Continuous
 62
   179
100
AcDbLine
 10
47.5400527528
 20
156.1953180351
 30
0.0
 11
47.5400527528
 21
150.1953180351
 31
0.0
  0
LINE
  5
B2
330
1F
100
AcDbEntity
  8
SLD-0
  6
Continuous
 62
   179
100
AcDbLine
 10
47.5400527528
 20
150.1953180351
 30
0.0
 11
90.5400527528
 21
150.1953180351
 31
0.0
  0
LINE
  5
B3
330
1F
100
AcDbEntity
  8
SLD-0
  6
Continuous
 62
   179
100
AcDbLine
 10
90.5400527528
 20
156.1953180351
 30
0.0
 11
90.5400527528
 21
150.1953180351
 31
0.0
  0
LINE
  5
B4
330
1F
100
AcDbEntity
  8
SLD-0
  6
Continuous
 62
   179
100
AcDbLine
 10
81.5400527528
 20
150.1953180351
 30
0.0
 11
81.5400527528
 21
130.1953180351
 31
0.0
  0
LINE
  5
B5
330
1F
100
AcDbEntity
  8
SLD-0
  6
Continuous
 62
   179
100
AcDbLine
 10
90.5400527528
 20
150.1953180351
 30
0.0
 11
90.5400527528
 21
130.1953180351
 31
0.0
  0
LINE
  5
B6
330
1F
100
AcDbEntity
  8
SLD-0
  6
Continuous
 62
   179
100
AcDbLine
 10
81.5400527528
 20
120.1953180351
 30
0.0
 11
90.5400527528
 21
120.1953180351
 31
0.0
  0
LINE
  5
B7
330
1F
100
AcDbEntity
  8
SLD-0
  6
Continuous
 62
   179
100
AcDbLine
 10
81.5400527528
 20
130.1953180351
 30
0.0
 11
81.5400527528
 21
120.1953180351
 31
0.0
  0
LINE
  5
B8
330
1F
100
AcDbEntity
  8
SLD-0
  6
Continuous
 62
   179
100
AcDbLine
 10
90.5400527528
 20
130.1953180351
 30
0.0
 11
90.5400527528
 21
120.1953180351
 31
0.0
  0
LINE
  5
B9
330
1F
100
AcDbEntity
  8
SLD-0
  6
Continuous
 62
   179
100
AcDbLine
 10
56.5400527528
 20
130.1953180351
 30
0.0
 11
56.5400527528
 21
150.1953180351
 31
0.0
  0
LINE
  5
BA
330
1F
100
AcDbEntity
  8
SLD-0
  6
Continuous
 62
   179
100
AcDbLine
 10
47.5400527528
 20
130.1953180351
 30
0.0
 11
47.5400527528
 21
150.1953180351
 31
0.0
  0
LINE
  5
BB
330
1F
100
AcDbEntity
  8
SLD-0
  6
Continuous
 62
   179
100
AcDbLine
 10
56.5400527528
 20
120.1953180351
 30
0.0
 11
47.5400527528
 21
120.1953180351
 31
0.0
  0
LINE
  5
BC
330
1F
100
AcDbEntity
  8
SLD-0
  6
Continuous
 62
   179
100
AcDbLine
 10
56.5400527528
 20
120.1953180351
 30
0.0
 11
56.5400527528
 21
130.1953180351
 31
0.0
  0
LINE
  5
BD
330
1F
100
AcDbEntity
  8
SLD-0
  6
Continuous
 62
   179
100
AcDbLine
 10
47.5400527528
 20
120.1953180351
 30
0.0
 11
47.5400527528
 21
130.1953180351
 31
0.0
  0
LINE
  5
BE
330
1F
100
AcDbEntity
  8
SLD-0
  6
CENTERX2
 62
   179
100
AcDbLine
 10
45.5400527528
 20
141.1953180351
 30
0.0
 11
58.5400527528
 21
141.1953180351
 31
0.0
  0
LINE
  5
BF
330
1F
100
AcDbEntity
  8
SLD-0
  6
CENTERX2
 62
   179
100
AcDbLine
 10
79.5400527528
 20
141.1953180351
 30
0.0
 11
92.5400527528
 21
141.1953180351
 31
0.0
  0
LINE
  5
C0
330
1F
100
AcDbEntity
  8
SLD-0
  6
CENTERX2
 62
   179
100
AcDbLine
 10
45.5400527528
 20
126.7953180351
 30
0.0
 11
58.5400527528
 21
126.7953180351
 31
0.0
  0
LINE
  5
C1
330
1F
100
AcDbEntity
  8
SLD-0
  6
CENTERX2
 62
   179
100
AcDbLine
 10
79.5400527528
 20
126.7953180351
 30
0.0
 11
92.5400527528
 21
126.7953180351
 31
0.0
  0
LINE
  5
C2
330
1F
100
AcDbEntity
  8
SLD-0
  6
CENTERX2
 62
   179
100
AcDbLine
 10
85.0400527528
 20
148.1953180351
 30
0.0
 11
85.0400527528
 21
158.1953180351
 31
0.0
  0
LINE
  5
C3
330
1F
100
AcDbEntity
  8
SLD-0
  6
CENTERX2
 62
   179
100
AcDbLine
 10
53.0400527528
 20
148.1953180351
 30
0.0
 11
53.0400527528
 21
158.1953180351
 31
0.0
  0
LINE
  5
C4
330
1F
100
AcDbEntity
  8
SLD-0
  6
CENTERX2
 62
   179
100
AcDbLine
 10
55.0400527528
 20
148.1953180351
 30
0.0
 11
55.0400527528
 21
158.1953180351
 31
0.0
  0
LINE
  5
C5
330
1F
100
AcDbEntity
  8
SLD-0
  6
CENTERX2
 62
   179
100
AcDbLine
 10
83.0400527528
 20
148.1953180351
 30
0.0
 11
83.0400527528
 21
152.1953180351
 31
0.0
  0
LINE
  5
C6
330
1F
100
AcDbEntity
  8
SLD-0
  6
Continuous
 62
   179
100
AcDbLine
 10
122.3583678716
 20
156.1953180351
 30
0.0
 11
122.3583678716
 21
150.1953180351
 31
0.0
  0
LINE
  5
C7
330
1F
100
AcDbEntity
  8
SLD-0
  6
Continuous
 62
   179
100
AcDbLine
 10
122.3583678716
 20
156.1953180351
 30
0.0
 11
157.8583678716
 21
156.1953180351
 31
0.0
  0
LINE
  5
C8
330
1F
100
AcDbEntity
  8
SLD-0
  6
Continuous
 62
   179
100
AcDbLine
 10
157.8583678716
 20
156.1953180351
 30
0.0
 11
157.8583678716
 21
130.1953180351
 31
0.0
  0
LINE
  5
C9
330
1F
100
AcDbEntity
  8
SLD-0
  6
Continuous
 62
   179
100
AcDbLine
 10
144.8583678716
 20
120.1953180351
 30
0.0
 11
147.8583678716
 21
120.1953180351
 31
0.0
  0
LINE
  5
CA
330
1F
100
AcDbEntity
  8
SLD-0
  6
Continuous
 62
   179
100
AcDbLine
 10
134.8583678716
 20
150.1953180351
 30
0.0
 11
134.8583678716
 21
130.1953180351
 31
0.0
  0
LINE
  5
CB
330
1F
100
AcDbEntity
  8
SLD-0
  6
Continuous
 62
   179
100
AcDbLine
 10
122.3583678716
 20
150.1953180351
 30
0.0
 11
134.8583678716
 21
150.1953180351
 31
0.0
  0
LINE
  5
CC
330
1F
100
AcDbEntity
  8
SLD-0
  6
Continuous
 62
   179
100
AcDbLine
 10
151.3583678716
 20
144.9453180351
 30
0.0
 11
141.3583678716
 21
144.9453180351
 31
0.0
  0
LINE
  5
CD
330
1F
100
AcDbEntity
  8
SLD-0
  6
Continuous
 62
   179
100
AcDbLine
 10
141.3583678716
 20
137.4453180351
 30
0.0
 11
151.3583678716
 21
137.4453180351
 31
0.0
  0
LINE
  5
CE
330
1F
100
AcDbEntity
  8
SLD-0
  6
HIDDEN
 62
   179
100
AcDbLine
 10
125.6083678716
 20
156.1953180351
 30
0.0
 11
131.1083678716
 21
156.1953180351
 31
0.0
  0
LINE
  5
CF
330
1F
100
AcDbEntity
  8
SLD-0
  6
HIDDEN
 62
   179
100
AcDbLine
 10
125.6083678716
 20
150.1953180351
 30
0.0
 11
131.1083678716
 21
150.1953180351
 31
0.0
  0
LINE
  5
D0
330
1F
100
AcDbEntity
  8
SLD-0
  6
HIDDEN
 62
   179
100
AcDbLine
 10
146.8280617173
 20
150.1953180351
 30
0.0
 11
146.8280617173
 21
148.1953180351
 31
0.0
  0
LINE
  5
D1
330
1F
100
AcDbEntity
  8
SLD-0
  6
HIDDEN
 62
   179
100
AcDbLine
 10
143.888674026
 20
148.1953180351
 30
0.0
 11
143.888674026
 21
150.1953180351
 31
0.0
  0
LINE
  5
D2
330
1F
100
AcDbEntity
  8
SLD-0
  6
HIDDEN
 62
   179
100
AcDbLine
 10
143.2583678716
 20
156.1953180351
 30
0.0
 11
147.449913889
 21
156.1953180351
 31
0.0
  0
LINE
  5
D3
330
1F
100
AcDbEntity
  8
SLD-0
  6
HIDDEN
 62
   179
100
AcDbLine
 10
144.8583678716
 20
120.1953180351
 30
0.0
 11
147.8583678716
 21
120.1953180351
 31
0.0
  0
LINE
  5
D4
330
1F
100
AcDbEntity
  8
SLD-0
  6
HIDDEN
 62
   179
100
AcDbLine
 10
141.3583678716
 20
144.9453180351
 30
0.0
 11
151.3583678716
 21
144.9453180351
 31
0.0
  0
LINE
  5
D5
330
1F
100
AcDbEntity
  8
SLD-0
  6
HIDDEN
 62
   179
100
AcDbLine
 10
151.3583678716
 20
137.4453180351
 30
0.0
 11
141.3583678716
 21
137.4453180351
 31
0.0
  0
LINE
  5
D6
330
1F
100
AcDbEntity
  8
SLD-0
  6
HIDDEN
 62
   179
100
AcDbLine
 10
157.8583678716
 20
130.1953180351
 30
0.0
 11
157.8583678716
 21
150.1953180351
 31
0.0
  0
LINE
  5
D7
330
1F
100
AcDbEntity
  8
SLD-0
  6
HIDDEN
 62
   179
100
AcDbLine
 10
134.8583678716
 20
150.1953180351
 30
0.0
 11
134.8583678716
 21
130.1953180351
 31
0.0
  0
LINE
  5
D8
330
1F
100
AcDbEntity
  8
SLD-0
  6
HIDDEN
 62
   179
100
AcDbLine
 10
143.888674026
 20
150.1953180351
 30
0.0
 11
134.8583678716
 21
150.1953180351
 31
0.0
  0
LINE
  5
D9
330
1F
100
AcDbEntity
  8
SLD-0
  6
HIDDEN
 62
   179
100
AcDbLine
 10
157.8583678716
 20
150.1953180351
 30
0.0
 11
146.8280617173
 21
150.1953180351
 31
0.0
  0
LINE
  5
DA
330
1F
100
AcDbEntity
  8
SLD-0
  6
HIDDEN
 62
   179
100
AcDbLine
 10
143.888674026
 20
148.1953180351
 30
0.0
 11
143.888674026
 21
150.1953180351
 31
0.0
  0
LINE
  5
DB
330
1F
100
AcDbEntity
  8
SLD-0
  6
HIDDEN
 62
   179
100
AcDbLine
 10
146.8280617173
 20
150.1953180351
 30
0.0
 11
146.8280617173
 21
148.1953180351
 31
0.0
  0
LINE
  5
DC
330
1F
100
AcDbEntity
  8
SLD-0
  6
HIDDEN
 62
   179
100
AcDbLine
 10
143.2583678716
 20
156.1953180351
 30
0.0
 11
147.449913889
 21
156.1953180351
 31
0.0
  0
LINE
  5
DD
330
1F
100
AcDbEntity
  8
SLD-0
  6
HIDDEN
 62
   179
100
AcDbLine
 10
143.888674026
 20
150.1953180351
 30
0.0
 11
146.8280617173
 21
150.1953180351
 31
0.0
  0
LINE
  5
DE
330
1F
100
AcDbEntity
  8
SLD-0
  6
HIDDEN
 62
   179
100
AcDbLine
 10
147.8583678716
 20
120.1953180351
 30
0.0
 11
144.8583678716
 21
120.1953180351
 31
0.0
  0
LINE
  5
DF
330
1F
100
AcDbEntity
  8
SLD-0
  6
HIDDEN
 62
   179
100
AcDbLine
 10
134.8583678716
 20
130.1953180351
 30
0.0
 11
134.8583678716
 21
150.1953180351
 31
0.0
  0
LINE
  5
E0
330
1F
100
AcDbEntity
  8
SLD-0
  6
HIDDEN
 62
   179
100
AcDbLine
 10
141.3583678716
 20
144.9453180351
 30
0.0
 11
151.3583678716
 21
144.9453180351
 31
0.0
  0
LINE
  5
E1
330
1F
100
AcDbEntity
  8
SLD-0
  6
HIDDEN
 62
   179
100
AcDbLine
 10
151.3583678716
 20
137.4453180351
 30
0.0
 11
141.3583678716
 21
137.4453180351
 31
0.0
  0
LINE
  5
E2
330
1F
100
AcDbEntity
  8
SLD-0
  6
HIDDEN
 62
   179
100
AcDbLine
 10
157.8583678716
 20
150.1953180351
 30
0.0
 11
157.8583678716
 21
130.1953180351
 31
0.0
  0
LINE
  5
E3
330
1F
100
AcDbEntity
  8
SLD-0
  6
HIDDEN
 62
   179
100
AcDbLine
 10
146.8280617173
 20
150.1953180351
 30
0.0
 11
157.8583678716
 21
150.1953180351
 31
0.0
  0
LINE
  5
E4
330
1F
100
AcDbEntity
  8
SLD-0
  6
HIDDEN
 62
   179
100
AcDbLine
 10
134.8583678716
 20
150.1953180351
 30
0.0
 11
143.888674026
 21
150.1953180351
 31
0.0
  0
LINE
  5
E5
330
1F
100
AcDbEntity
  8
SLD-0
  6
HIDDEN
 62
   179
100
AcDbLine
 10
125.6083678716
 20
156.1953180351
 30
0.0
 11
131.1083678716
 21
156.1953180351
 31
0.0
  0
LINE
  5
E6
330
1F
100
AcDbEntity
  8
SLD-0
  6
HIDDEN
 62
   179
100
AcDbLine
 10
125.6083678716
 20
150.1953180351
 30
0.0
 11
131.1083678716
 21
150.1953180351
 31
0.0
  0
LINE
  5
E7
330
1F
100
AcDbEntity
  8
SLD-0
  6
HIDDEN
 62
   179
100
AcDbLine
 10
134.8583678716
 20
130.1953180351
 30
0.0
 11
134.8583678716
 21
150.1953180351
 31
0.0
  0
LINE
  5
E8
330
1F
100
AcDbEntity
  8
SLD-0
  6
HIDDEN
 62
   179
100
AcDbLine
 10
147.8583678716
 20
120.1953180351
 30
0.0
 11
144.8583678716
 21
120.1953180351
 31
0.0
  0
LINE
  5
E9
330
1F
100
AcDbEntity
  8
SLD-0
  6
HIDDEN
 62
   179
100
AcDbLine
 10
151.3583678716
 20
144.9453180351
 30
0.0
 11
141.3583678716
 21
144.9453180351
 31
0.0
  0
LINE
  5
EA
330
1F
100
AcDbEntity
  8
SLD-0
  6
HIDDEN
 62
   179
100
AcDbLine
 10
141.3583678716
 20
137.4453180351
 30
0.0
 11
151.3583678716
 21
137.4453180351
 31
0.0
  0
LINE
  5
EB
330
1F
100
AcDbEntity
  8
SLD-0
  6
HIDDEN
 62
   179
100
AcDbLine
 10
122.3583678716
 20
156.1953180351
 30
0.0
 11
122.3583678716
 21
150.1953180351
 31
0.0
  0
LINE
  5
EC
330
1F
100
AcDbEntity
  8
SLD-0
  6
HIDDEN
 62
   179
100
AcDbLine
 10
157.8583678716
 20
156.1953180351
 30
0.0
 11
157.8583678716
 21
130.1953180351
 31
0.0
  0
LINE
  5
ED
330
1F
100
AcDbEntity
  8
SLD-0
  6
HIDDEN
 62
   179
100
AcDbLine
 10
157.8583678716
 20
156.1953180351
 30
0.0
 11
122.3583678716
 21
156.1953180351
 31
0.0
  0
LINE
  5
EE
330
1F
100
AcDbEntity
  8
SLD-0
  6
HIDDEN
 62
   179
100
AcDbLine
 10
134.8583678716
 20
150.1953180351
 30
0.0
 11
122.3583678716
 21
150.1953180351
 31
0.0
  0
LINE
  5
EF
330
1F
100
AcDbEntity
  8
SLD-0
  6
HIDDEN
 62
   179
100
AcDbLine
 10
125.6083678716
 20
156.1953180351
 30
0.0
 11
125.6083678716
 21
150.1953180351
 31
0.0
  0
LINE
  5
F0
330
1F
100
AcDbEntity
  8
SLD-0
  6
HIDDEN
 62
   179
100
AcDbLine
 10
131.1083678716
 20
150.1953180351
 30
0.0
 11
131.1083678716
 21
156.1953180351
 31
0.0
  0
LINE
  5
F1
330
1F
100
AcDbEntity
  8
SLD-0
  6
HIDDEN
 62
   179
100
AcDbLine
 10
143.2583678716
 20
156.1953180351
 30
0.0
 11
143.2583678716
 21
148.1953180351
 31
0.0
  0
LINE
  5
F2
330
1F
100
AcDbEntity
  8
SLD-0
  6
HIDDEN
 62
   179
100
AcDbLine
 10
147.4583678716
 20
148.1953180351
 30
0.0
 11
147.4583678716
 21
156.1953180351
 31
0.0
  0
LINE
  5
F3
330
1F
100
AcDbEntity
  8
SLD-0
  6
HIDDEN
 62
   179
100
AcDbLine
 10
143.2583678716
 20
148.1953180351
 30
0.0
 11
145.3583678716
 21
146.9335107351
 31
0.0
  0
LINE
  5
F4
330
1F
100
AcDbEntity
  8
SLD-0
  6
HIDDEN
 62
   179
100
AcDbLine
 10
145.3583678716
 20
146.9335107351
 30
0.0
 11
147.4583678716
 21
148.1953180351
 31
0.0
  0
LINE
  5
F5
330
1F
100
AcDbEntity
  8
SLD-0
  6
HIDDEN
 62
   179
100
AcDbLine
 10
143.2583678716
 20
156.1953180351
 30
0.0
 11
143.2583678716
 21
148.1953180351
 31
0.0
  0
LINE
  5
F6
330
1F
100
AcDbEntity
  8
SLD-0
  6
HIDDEN
 62
   179
100
AcDbLine
 10
147.4583678716
 20
148.1953180351
 30
0.0
 11
147.4583678716
 21
156.1953180351
 31
0.0
  0
LINE
  5
F7
330
1F
100
AcDbEntity
  8
SLD-0
  6
HIDDEN
 62
   179
100
AcDbLine
 10
143.2583678716
 20
148.1953180351
 30
0.0
 11
145.3583678716
 21
146.9335107351
 31
0.0
  0
LINE
  5
F8
330
1F
100
AcDbEntity
  8
SLD-0
  6
HIDDEN
 62
   179
100
AcDbLine
 10
145.3583678716
 20
146.9335107351
 30
0.0
 11
147.4583678716
 21
148.1953180351
 31
0.0
  0
LINE
  5
F9
330
1F
100
AcDbEntity
  8
SLD-0
  6
HIDDEN
 62
   179
100
AcDbLine
 10
125.6083678716
 20
156.1953180351
 30
0.0
 11
125.6083678716
 21
150.1953180351
 31
0.0
  0
LINE
  5
FA
330
1F
100
AcDbEntity
  8
SLD-0
  6
HIDDEN
 62
   179
100
AcDbLine
 10
131.1083678716
 20
150.1953180351
 30
0.0
 11
131.1083678716
 21
156.1953180351
 31
0.0
  0
LINE
  5
FB
330
1F
100
AcDbEntity
  8
SLD-0
  6
HIDDEN
 62
   179
100
AcDbLine
 10
147.8583678716
 20
148.1953180351
 30
0.0
 11
147.8583678716
 21
156.1953180351
 31
0.0
  0
LINE
  5
FC
330
1F
100
AcDbEntity
  8
SLD-0
  6
HIDDEN
 62
   179
100
AcDbLine
 10
142.8583678716
 20
156.1953180351
 30
0.0
 11
142.8583678716
 21
148.1953180351
 31
0.0
  0
LINE
  5
FD
330
1F
100
AcDbEntity
  8
SLD-0
  6
HIDDEN
 62
   179
100
AcDbLine
 10
147.8583678716
 20
148.1953180351
 30
0.0
 11
147.8581698329
 21
148.1953180351
 31
0.0
  0
LINE
  5
FE
330
1F
100
AcDbEntity
  8
SLD-0
  6
HIDDEN
 62
   179
100
AcDbLine
 10
147.8581698329
 20
148.1953180351
 30
0.0
 11
142.8583678716
 21
148.1953180351
 31
0.0
  0
LINE
  5
FF
330
1F
100
AcDbEntity
  8
SLD-0
  6
HIDDEN
 62
   179
100
AcDbLine
 10
143.3583678716
 20
150.1953180351
 30
0.0
 11
143.3583678716
 21
148.1953180351
 31
0.0
  0
LINE
  5
100
330
1F
100
AcDbEntity
  8
SLD-0
  6
HIDDEN
 62
   179
100
AcDbLine
 10
147.3583678716
 20
148.1953180351
 30
0.0
 11
147.3583678716
 21
150.1953180351
 31
0.0
  0
LINE
  5
101
330
1F
100
AcDbEntity
  8
SLD-0
  6
CENTERX2
 62
   179
100
AcDbLine
 10
128.3583678716
 20
148.1953180351
 30
0.0
 11
128.3583678716
 21
158.1953180351
 31
0.0
  0
LINE
  5
102
330
1F
100
AcDbEntity
  8
SLD-0
  6
CENTERX2
 62
   179
100
AcDbLine
 10
145.3583678716
 20
148.1953180351
 30
0.0
 11
145.3583678716
 21
158.1953180351
 31
0.0
  0
LINE
  5
103
330
1F
100
AcDbEntity
  8
SLD-0
  6
CENTERX2
 62
   179
100
AcDbLine
 10
139.3583678716
 20
141.1953180351
 30
0.0
 11
153.3583678716
 21
141.1953180351
 31
0.0
  0
LINE
  5
104
330
1F
100
AcDbEntity
  8
SLD-0
  6
Continuous
 62
   179
100
AcDbLine
 10
90.5400527528
 20
222.4573585927
 30
0.0
 11
47.5400527528
 21
222.4573585927
 31
0.0
  0
LINE
  5
105
330
1F
100
AcDbEntity
  8
SLD-0
  6
Continuous
 62
   179
100
AcDbLine
 10
90.5400527528
 20
186.9573585927
 30
0.0
 11
90.5400527528
 21
222.4573585927
 31
0.0
  0
LINE
  5
106
330
1F
100
AcDbEntity
  8
SLD-0
  6
Continuous
 62
   179
100
AcDbLine
 10
47.5400527528
 20
186.9573585927
 30
0.0
 11
90.5400527528
 21
186.9573585927
 31
0.0
  0
LINE
  5
107
330
1F
100
AcDbEntity
  8
SLD-0
  6
Continuous
 62
   179
100
AcDbLine
 10
47.5400527528
 20
222.4573585927
 30
0.0
 11
47.5400527528
 21
186.9573585927
 31
0.0
  0
LINE
  5
108
330
1F
100
AcDbEntity
  8
SLD-0
  6
Continuous
 62
   179
100
AcDbLine
 10
81.5400527528
 20
211.4270524384
 30
0.0
 11
81.5400527528
 21
208.4876647471
 31
0.0
  0
LINE
  5
109
330
1F
100
AcDbEntity
  8
SLD-0
  6
Continuous
 62
   179
100
AcDbLine
 10
56.5400527528
 20
211.4270524384
 30
0.0
 11
56.5400527528
 21
208.4876647471
 31
0.0
  0
LINE
  5
10A
330
1F
100
AcDbEntity
  8
SLD-0
  6
HIDDEN
 62
   179
100
AcDbLine
 10
47.5400527528
 20
186.9573585927
 30
0.0
 11
90.5400527528
 21
186.9573585927
 31
0.0
  0
LINE
  5
10B
330
1F
100
AcDbEntity
  8
SLD-0
  6
HIDDEN
 62
   179
100
AcDbLine
 10
47.5400527528
 20
199.4573585927
 30
0.0
 11
47.5400527528
 21
186.9573585927
 31
0.0
  0
LINE
  5
10C
330
1F
100
AcDbEntity
  8
SLD-0
  6
HIDDEN
 62
   179
100
AcDbLine
 10
90.5400527528
 20
186.9573585927
 30
0.0
 11
90.5400527528
 21
199.4573585927
 31
0.0
  0
LINE
  5
10D
330
1F
100
AcDbEntity
  8
SLD-0
  6
HIDDEN
 62
   179
100
AcDbLine
 10
81.5400527528
 20
222.4573585927
 30
0.0
 11
56.5400527528
 21
222.4573585927
 31
0.0
  0
LINE
  5
10E
330
1F
100
AcDbEntity
  8
SLD-0
  6
HIDDEN
 62
   179
100
AcDbLine
 10
81.5400527528
 20
208.4876647471
 30
0.0
 11
81.5400527528
 21
199.4573585927
 31
0.0
  0
LINE
  5
10F
330
1F
100
AcDbEntity
  8
SLD-0
  6
HIDDEN
 62
   179
100
AcDbLine
 10
81.5400527528
 20
222.4573585927
 30
0.0
 11
81.5400527528
 21
211.4270524384
 31
0.0
  0
LINE
  5
110
330
1F
100
AcDbEntity
  8
SLD-0
  6
HIDDEN
 62
   179
100
AcDbLine
 10
81.5400527528
 20
199.4573585927
 30
0.0
 11
90.5400527528
 21
199.4573585927
 31
0.0
  0
LINE
  5
111
330
1F
100
AcDbEntity
  8
SLD-0
  6
HIDDEN
 62
   179
100
AcDbLine
 10
56.5400527528
 20
211.4270524384
 30
0.0
 11
56.5400527528
 21
222.4573585927
 31
0.0
  0
LINE
  5
112
330
1F
100
AcDbEntity
  8
SLD-0
  6
HIDDEN
 62
   179
100
AcDbLine
 10
56.5400527528
 20
199.4573585927
 30
0.0
 11
56.5400527528
 21
208.4876647471
 31
0.0
  0
LINE
  5
113
330
1F
100
AcDbEntity
  8
SLD-0
  6
HIDDEN
 62
   179
100
AcDbLine
 10
56.5400527528
 20
199.4573585927
 30
0.0
 11
47.5400527528
 21
199.4573585927
 31
0.0
  0
LINE
  5
114
330
1F
100
AcDbEntity
  8
SLD-0
  6
CENTERX2
 62
   179
100
AcDbLine
 10
45.5400527528
 20
209.9573585927
 30
0.0
 11
58.5400527528
 21
209.9573585927
 31
0.0
  0
LINE
  5
115
330
1F
100
AcDbEntity
  8
SLD-0
  6
CENTERX2
 62
   179
100
AcDbLine
 10
79.5400527528
 20
210.9573585927
 30
0.0
 11
92.5400527528
 21
210.9573585927
 31
0.0
  0
LINE
  5
116
330
1F
100
AcDbEntity
  8
SLD-0
  6
CENTERX2
 62
   179
100
AcDbLine
 10
45.5400527528
 20
210.9573585927
 30
0.0
 11
58.5400527528
 21
210.9573585927
 31
0.0
  0
ARC
  5
117
330
1F
100
AcDbEntity
  8
SLD-0
  6
Continuous
 62
   179
100
AcDbCircle
 10
147.8583678716
 20
130.1953180351
 30
0.0
 40
10.00000000000003
100
AcDbArc
 50
270.0
 51
0.0
  0
ARC
  5
118
330
1F
100
AcDbEntity
  8
SLD-0
  6
Continuous
 62
   179
100
AcDbCircle
 10
144.8583678716
 20
130.1953180351
 30
0.0
 40
10.00000000000001
100
AcDbArc
 50
180.0
 51
270.0
  0
ARC
  5
119
330
1F
100
AcDbEntity
  8
SLD-0
  6
Continuous
 62
   179
100
AcDbCircle
 10
151.3583678716
 20
141.1953180351
 30
0.0
 40
3.75
100
AcDbArc
 50
270.0
 51
90.0
  0
ARC
  5
11A
330
1F
100
AcDbEntity
  8
SLD-0
  6
Continuous
 62
   179
100
AcDbCircle
 10
141.3583678716
 20
141.1953180351
 30
0.0
 40
3.75
100
AcDbArc
 50
90.0
 51
270.0
  0
CIRCLE
  5
11B
330
1F
100
AcDbEntity
  8
SLD-0
  6
Continuous
 62
   179
100
AcDbCircle
 10
145.3583678716
 20
126.7953180351
 30
0.0
 40
3.25
  0
ARC
  5
11C
330
1F
100
AcDbEntity
  8
SLD-0
  6
HIDDEN
 62
   179
100
AcDbCircle
 10
145.3583678716
 20
151.0381552505
 30
0.0
 40
3.200269275108763
100
AcDbArc
 50
242.66187903
 51
297.3381209716
  0
ARC
  5
11D
330
1F
100
AcDbEntity
  8
SLD-0
  6
HIDDEN
 62
   179
100
AcDbCircle
 10
141.3583678716
 20
141.1953180351
 30
0.0
 40
3.75
100
AcDbArc
 50
90.0
 51
270.0
  0
ARC
  5
11E
330
1F
100
AcDbEntity
  8
SLD-0
  6
HIDDEN
 62
   179
100
AcDbCircle
 10
144.8583678716
 20
130.1953180351
 30
0.0
 40
10.00000000000001
100
AcDbArc
 50
180.0
 51
270.0
  0
CIRCLE
  5
11F
330
1F
100
AcDbEntity
  8
SLD-0
  6
HIDDEN
 62
   179
100
AcDbCircle
 10
145.3583678716
 20
126.7953180351
 30
0.0
 40
3.25
  0
ARC
  5
120
330
1F
100
AcDbEntity
  8
SLD-0
  6
HIDDEN
 62
   179
100
AcDbCircle
 10
151.3583678716
 20
141.1953180351
 30
0.0
 40
3.75
100
AcDbArc
 50
270.0
 51
90.0
  0
ARC
  5
121
330
1F
100
AcDbEntity
  8
SLD-0
  6
HIDDEN
 62
   179
100
AcDbCircle
 10
147.8583678716
 20
130.1953180351
 30
0.0
 40
10.00000000000003
100
AcDbArc
 50
270.0
 51
0.0
  0
ARC
  5
122
330
1F
100
AcDbEntity
  8
SLD-0
  6
HIDDEN
 62
   179
100
AcDbCircle
 10
147.8583678716
 20
130.1953180351
 30
0.0
 40
10.00000000000003
100
AcDbArc
 50
270.0
 51
0.0
  0
ARC
  5
123
330
1F
100
AcDbEntity
  8
SLD-0
  6
HIDDEN
 62
   179
100
AcDbCircle
 10
144.8583678716
 20
130.1953180351
 30
0.0
 40
10.00000000000001
100
AcDbArc
 50
180.0
 51
270.0
  0
ARC
  5
124
330
1F
100
AcDbEntity
  8
SLD-0
  6
HIDDEN
 62
   179
100
AcDbCircle
 10
145.3583678716
 20
151.0268457126
 30
0.0
 40
3.190227106083522
100
AcDbArc
 50
242.568599481
 51
297.4314005206
  0
ARC
  5
125
330
1F
100
AcDbEntity
  8
SLD-0
  6
HIDDEN
 62
   179
100
AcDbCircle
 10
151.3583678716
 20
141.1953180351
 30
0.0
 40
3.75
100
AcDbArc
 50
270.0
 51
90.0
  0
ARC
  5
126
330
1F
100
AcDbEntity
  8
SLD-0
  6
HIDDEN
 62
   179
100
AcDbCircle
 10
141.3583678716
 20
141.1953180351
 30
0.0
 40
3.75
100
AcDbArc
 50
90.0
 51
270.0
  0
CIRCLE
  5
127
330
1F
100
AcDbEntity
  8
SLD-0
  6
HIDDEN
 62
   179
100
AcDbCircle
 10
145.3583678716
 20
126.7953180351
 30
0.0
 40
3.25
  0
ARC
  5
128
330
1F
100
AcDbEntity
  8
SLD-0
  6
HIDDEN
 62
   179
100
AcDbCircle
 10
141.3583678716
 20
141.1953180351
 30
0.0
 40
3.75
100
AcDbArc
 50
90.0
 51
270.0
  0
ARC
  5
129
330
1F
100
AcDbEntity
  8
SLD-0
  6
HIDDEN
 62
   179
100
AcDbCircle
 10
144.8583678716
 20
130.1953180351
 30
0.0
 40
10.00000000000001
100
AcDbArc
 50
180.0
 51
270.0
  0
CIRCLE
  5
12A
330
1F
100
AcDbEntity
  8
SLD-0
  6
HIDDEN
 62
   179
100
AcDbCircle
 10
145.3583678716
 20
126.7953180351
 30
0.0
 40
3.25
  0
ARC
  5
12B
330
1F
100
AcDbEntity
  8
SLD-0
  6
HIDDEN
 62
   179
100
AcDbCircle
 10
151.3583678716
 20
141.1953180351
 30
0.0
 40
3.75
100
AcDbArc
 50
270.0
 51
90.0
  0
ARC
  5
12C
330
1F
100
AcDbEntity
  8
SLD-0
  6
HIDDEN
 62
   179
100
AcDbCircle
 10
147.8583678716
 20
130.1953180351
 30
0.0
 40
10.00000000000003
100
AcDbArc
 50
270.0
 51
0.0
  0
CIRCLE
  5
12D
330
1F
100
AcDbEntity
  8
SLD-0
  6
Continuous
 62
   179
100
AcDbCircle
 10
85.0400527528
 20
192.9573585927
 30
0.0
 40
2.75
  0
CIRCLE
  5
12E
330
1F
100
AcDbEntity
  8
SLD-0
  6
Continuous
 62
   179
100
AcDbCircle
 10
53.0400527528
 20
192.9573585927
 30
0.0
 40
2.75
  0
CIRCLE
  5
12F
330
1F
100
AcDbEntity
  8
SLD-0
  6
Continuous
 62
   179
100
AcDbCircle
 10
55.0400527528
 20
209.9573585928
 30
0.0
 40
2.100000000000001
  0
CIRCLE
  5
130
330
1F
100
AcDbEntity
  8
SLD-0
  6
Continuous
 62
   179
100
AcDbCircle
 10
83.0400527528
 20
209.9573585928
 30
0.0
 40
2.100000000000009
  0
CIRCLE
  5
131
330
1F
100
AcDbEntity
  8
SLD-0
  6
HIDDEN
 62
   179
100
AcDbCircle
 10
85.0400527528
 20
192.9573585927
 30
0.0
 40
2.75
  0
CIRCLE
  5
132
330
1F
100
AcDbEntity
  8
SLD-0
  6
HIDDEN
 62
   179
100
AcDbCircle
 10
53.0400527528
 20
192.9573585927
 30
0.0
 40
2.75
  0
ARC
  5
133
330
1F
100
AcDbEntity
  8
SLD-0
  6
HIDDEN
 62
   179
100
AcDbCircle
 10
55.0400527528
 20
209.9573585928
 30
0.0
 40
2.099999999986068
100
AcDbArc
 50
315.5846914032
 51
44.4153085968
  0
ARC
  5
134
330
1F
100
AcDbEntity
  8
SLD-0
  6
HIDDEN
 62
   179
100
AcDbCircle
 10
83.0400527528
 20
209.9573585928
 30
0.0
 40
2.099999999986068
100
AcDbArc
 50
135.5846914032
 51
224.4153085968
  0
CIRCLE
  5
135
330
1F
100
AcDbEntity
  8
SLD-0
 62
   179
100
AcDbCircle
 10
55.0400527528
 20
209.9573585928
 30
0.0
 40
2.5
  0
CIRCLE
  5
136
330
1F
100
AcDbEntity
  8
SLD-0
 62
   179
100
AcDbCircle
 10
83.0400527528
 20
209.9573585928
 30
0.0
 40
2.5
  0
DIMENSION
  5
137
330
1F
100
AcDbEntity
  8
SLD-0
 62
     7
100
AcDbDimension
  2
*D13
 10
90.5400527528
 20
101.4856035164
 30
0.0
 11
86.0400527528
 21
101.4856035164
 31
0.0
 70
   160
 71
     1
 42
9.0
  3
SLDDIMSTYLE0
100
AcDbAlignedDimension
 13
81.5400527528
 23
130.1953180351
 33
0.0
 14
90.5400527528
 24
130.1953180351
 34
0.0
100
AcDbRotatedDimension
1001
ACAD
1000
DSTYLE
1002
{
1070
    77
1070
     3
1070
   143
1040
0.0393700787
1070
    41
1040
3.0
1070
    44
1040
1.0
1070
    42
1040
1.0
1070
   147
1040
1.524
1070
    73
1070
     0
1070
    74
1070
     0
1070
   140
1040
3.5
1070
   284
1070
    12
1070
    78
1070
    12
1002
}
  0
DIMENSION
  5
156
330
1F
100
AcDbEntity
  8
SLD-0
 62
     7
100
AcDbDimension
  2
*D15
 10
47.5400527528
 20
101.4856035164
 30
0.0
 11
52.0400527528
 21
101.4856035164
 31
0.0
 70
   160
  1
(<>)
 71
     1
 42
9.0
  3
SLDDIMSTYLE1
100
AcDbAlignedDimension
 13
56.5400527528
 23
150.1953180351
 33
0.0
 14
47.5400527528
 24
150.1953180351
 34
0.0
100
AcDbRotatedDimension
1001
ACAD
1000
DSTYLE
1002
{
1070
    77
1070
     3
1070
   143
1040
0.0393700787
1070
    41
1040
3.0
1070
    44
1040
1.0
1070
    42
1040
1.0
1070
   147
1040
1.524
1070
    73
1070
     0
1070
    74
1070
     0
1070
   140
1040
3.5
1070
   284
1070
    12
1070
    78
1070
    12
1002
}
  0
DIMENSION
  5
173
330
1F
100
AcDbEntity
  8
SLD-0
 62
     7
100
AcDbDimension
  2
*D16
 10
56.5400527528
 20
101.4856035164
 30
0.0
 11
69.0400527528
 21
101.4856035164
 31
0.0
 70
   160
 71
     1
 42
25.0
  3
SLDDIMSTYLE2
100
AcDbAlignedDimension
 13
81.5400527528
 23
120.1953180351
 33
0.0
 14
56.5400527528
 24
120.1953180351
 34
0.0
100
AcDbRotatedDimension
1001
ACAD
1000
DSTYLE
1002
{
1070
    77
1070
     3
1070
   143
1040
0.0393700787
1070
    41
1040
3.0
1070
    44
1040
1.0
1070
    42
1040
1.0
1070
   147
1040
1.524
1070
    73
1070
     0
1070
    74
1070
     0
1070
   140
1040
3.5
1070
   284
1070
     0
1070
    78
1070
    12
1002
}
  0
DIMENSION
  5
18E
330
1F
100
AcDbEntity
  8
SLD-0
 62
     7
100
AcDbDimension
  2
*D17
 10
111.2506174084
 20
120.1953180351
 30
0.0
 11
111.2506174084
 21
135.1953180351
 31
0.0
 70
   160
  1
(<>)
 71
     1
 42
30.0
  3
SLDDIMSTYLE1
100
AcDbAlignedDimension
 13
134.8583678716
 23
150.1953180351
 33
0.0
 14
144.8583678716
 24
120.1953180351
 34
0.0
 50
90.0
100
AcDbRotatedDimension
1001
ACAD
1000
DSTYLE
1002
{
1070
    77
1070
     3
1070
   143
1040
0.0393700787
1070
    41
1040
3.0
1070
    44
1040
1.0
1070
    42
1040
1.0
1070
   147
1040
1.524
1070
    73
1070
     0
1070
    74
1070
     0
1070
   140
1040
3.5
1070
   284
1070
    12
1070
    78
1070
    12
1002
}
  0
DIMENSION
  5
1A8
330
1F
100
AcDbEntity
  8
SLD-0
 62
     7
100
AcDbDimension
  2
*D18
 10
151.3583678716
 20
166.6135350536
 30
0.0
 11
146.3583678716
 21
166.6135350536
 31
0.0
 70
   160
 71
     1
 42
10.0
  3
SLDDIMSTYLE1
100
AcDbAlignedDimension
 13
141.3583678716
 23
141.1953180351
 33
0.0
 14
151.3583678716
 24
141.1953180351
 34
0.0
100
AcDbRotatedDimension
1001
ACAD
1000
DSTYLE
1002
{
1070
    77
1070
     3
1070
   143
1040
0.0393700787
1070
    41
1040
3.0
1070
    44
1040
1.0
1070
    42
1040
1.0
1070
   147
1040
1.524
1070
    73
1070
     0
1070
    74
1070
     0
1070
   140
1040
3.5
1070
   284
1070
    12
1070
    78
1070
    12
1002
}
  0
DIMENSION
  5
1C1
330
1F
100
AcDbEntity
  8
SLD-0
 62
     7
100
AcDbDimension
  2
*D19
 10
168.9386607121
 20
144.9453180351
 30
0.0
 11
168.9386607121
 21
150.5944805661
 31
0.0
 70
   160
 71
     1
 42
7.5
  3
SLDDIMSTYLE3
100
AcDbAlignedDimension
 13
151.3583678716
 23
137.4453180351
 33
0.0
 14
151.3583678716
 24
144.9453180351
 34
0.0
 50
90.0
100
AcDbRotatedDimension
1001
ACAD
1000
DSTYLE
1002
{
1070
    77
1070
     3
1070
   143
1040
0.0393700787
1070
    41
1040
3.0
1070
    44
1040
1.0
1070
    42
1040
1.0
1070
   147
1040
1.524
1070
    73
1070
     0
1070
    74
1070
     0
1070
   140
1040
3.5
1070
   284
1070
    12
1070
    78
1070
    12
1002
}
  0
DIMENSION
  5
1DD
330
1F
100
AcDbEntity
  8
SLD-0
 62
     7
100
AcDbDimension
  2
*D20
 10
177.6455159631
 20
141.1953180351
 30
0.0
 11
177.6455159631
 21
148.6953180351
 31
0.0
 70
   160
 71
     1
 42
15.0
  3
SLDDIMSTYLE1
100
AcDbAlignedDimension
 13
157.8583678716
 23
156.1953180351
 33
0.0
 14
151.3583678716
 24
141.1953180351
 34
0.0
 50
90.0
100
AcDbRotatedDimension
1001
ACAD
1000
DSTYLE
1002
{
1070
    77
1070
     3
1070
   143
1040
0.0393700787
1070
    41
1040
3.0
1070
    44
1040
1.0
1070
    42
1040
1.0
1070
   147
1040
1.524
1070
    73
1070
     0
1070
    74
1070
     0
1070
   140
1040
3.5
1070
   284
1070
    12
1070
    78
1070
    12
1002
}
  0
DIMENSION
  5
1F5
330
1F
100
AcDbEntity
  8
SLD-0
 62
     7
100
AcDbDimension
  2
*D21
 10
177.6455159631
 20
126.7953180351
 30
0.0
 11
177.6455159631
 21
133.9953180351
 31
0.0
 70
   160
 71
     1
 42
14.4
  3
SLDDIMSTYLE3
100
AcDbAlignedDimension
 13
151.3583678716
 23
141.1953180351
 33
0.0
 14
145.3583678716
 24
126.7953180351
 34
0.0
 50
90.0
100
AcDbRotatedDimension
1001
ACAD
1000
DSTYLE
1002
{
1070
    77
1070
     3
1070
   143
1040
0.0393700787
1070
    41
1040
3.0
1070
    44
1040
1.0
1070
    42
1040
1.0
1070
   147
1040
1.524
1070
    73
1070
     0
1070
    74
1070
     0
1070
   140
1040
3.5
1070
   284
1070
    12
1070
    78
1070
    12
1002
}
  0
DIMENSION
  5
20F
330
1F
100
AcDbEntity
  8
SLD-0
 62
     7
100
AcDbDimension
  2
*D22
 10
4.8983094288
 20
4.2727688193
 30
0.0
 11
175.6248484407
 21
-3.9440948248
 31
0.0
 70
   163
  1
2-<>\P（両側)
 71
     1
 42
6.4999991264
  3
SLDDIMSTYLE4
100
AcDbDiametricDimension
 15
0.0
 25
0.0
 35
0.0
 40
0.0
1001
ACAD
1000
DSTYLE
1002
{
1070
    77
1070
     0
1070
   143
1040
0.0393700787
1070
    41
1040
3.0
1070
    44
1040
1.0
1070
    42
1040
1.0
1070
   147
1040
1.524
1070
    73
1070
     1
1070
    74
1070
     1
1070
   140
1040
3.5
1070
   284
1070
    12
1070
    78
1070
    12
1002
}
  0
DIMENSION
  5
223
330
1F
100
AcDbEntity
  8
SLD-0
 62
     7
100
AcDbDimension
  2
*D23
 10
134.8583678716
 20
101.318189504
 30
0.0
 11
146.3583678716
 21
101.318189504
 31
0.0
 70
   160
  1
(<>)
 71
     1
 42
23.0
  3
SLDDIMSTYLE1
100
AcDbAlignedDimension
 13
157.8583678716
 23
130.1953180351
 33
0.0
 14
134.8583678716
 24
130.1953180351
 34
0.0
100
AcDbRotatedDimension
1001
ACAD
1000
DSTYLE
1002
{
1070
    77
1070
     3
1070
   143
1040
0.0393700787
1070
    41
1040
3.0
1070
    44
1040
1.0
1070
    42
1040
1.0
1070
   147
1040
1.524
1070
    73
1070
     0
1070
    74
1070
     0
1070
   140
1040
3.5
1070
   284
1070
    12
1070
    78
1070
    12
1002
}
  0
DIMENSION
  5
23C
330
1F
100
AcDbEntity
  8
SLD-0
 62
     7
100
AcDbDimension
  2
*D24
 10
122.3583678716
 20
101.318189504
 30
0.0
 11
128.6083678716
 21
101.318189504
 31
0.0
 70
   160
 71
     1
 42
12.5
  3
SLDDIMSTYLE3
100
AcDbAlignedDimension
 13
134.8583678716
 23
130.1953180351
 33
0.0
 14
122.3583678716
 24
150.1953180351
 34
0.0
100
AcDbRotatedDimension
1001
ACAD
1000
DSTYLE
1002
{
1070
    77
1070
     3
1070
   143
1040
0.0393700787
1070
    41
1040
3.0
1070
    44
1040
1.0
1070
    42
1040
1.0
1070
   147
1040
1.524
1070
    73
1070
     0
1070
    74
1070
     0
1070
   140
1040
3.5
1070
   284
1070
    12
1070
    78
1070
    12
1002
}
  0
DIMENSION
  5
255
330
1F
100
AcDbEntity
  8
SLD-0
 62
     7
100
AcDbDimension
  2
*D25
 10
111.2506174084
 20
150.1953180351
 30
0.0
 11
111.2506174084
 21
153.1953180351
 31
0.0
 70
   160
 71
     1
 42
6.0
  3
SLDDIMSTYLE1
100
AcDbAlignedDimension
 13
122.3583678716
 23
156.1953180351
 33
0.0
 14
122.3583678716
 24
150.1953180351
 34
0.0
 50
90.0
100
AcDbRotatedDimension
1001
ACAD
1000
DSTYLE
1002
{
1070
    77
1070
     3
1070
   143
1040
0.0393700787
1070
    41
1040
3.0
1070
    44
1040
1.0
1070
    42
1040
1.0
1070
   147
1040
1.524
1070
    73
1070
     0
1070
    74
1070
     0
1070
   140
1040
3.5
1070
   284
1070
    12
1070
    78
1070
    12
1002
}
  0
DIMENSION
  5
26F
330
1F
100
AcDbEntity
  8
SLD-0
 62
     7
100
AcDbDimension
  2
*D26
 10
147.8583678716
 20
130.1953180351
 30
0.0
 11
165.722246698
 21
115.9333120327
 31
0.0
 70
   164
  1
2-<>
 71
     1
 42
197.0099433732
  3
SLDDIMSTYLE5
100
AcDbRadialDimension
 15
0.0
 25
0.0
 35
0.0
 40
0.0
1001
ACAD
1000
DSTYLE
1002
{
1070
    77
1070
     0
1070
   143
1040
0.0393700787
1070
    41
1040
3.0
1070
    44
1040
1.0
1070
    42
1040
1.0
1070
   147
1040
1.524
1070
    73
1070
     1
1070
    74
1070
     1
1070
   140
1040
3.5
1070
   284
1070
    12
1070
    78
1070
    12
1002
}
  0
DIMENSION
  5
280
330
1F
100
AcDbEntity
  8
SLD-0
 62
     7
100
AcDbDimension
  2
*D27
 10
151.3583678716
 20
141.1953180351
 30
0.0
 11
172.5203884759
 21
165.3475858961
 31
0.0
 70
   164
  1
<>x2-R(両側)
 71
     1
 42
206.9914813701
  3
SLDDIMSTYLE5
100
AcDbRadialDimension
 15
0.0
 25
0.0
 35
0.0
 40
0.0
1001
ACAD
1000
DSTYLE
1002
{
1070
    77
1070
     0
1070
   143
1040
0.0393700787
1070
    41
1040
3.0
1070
    44
1040
1.0
1070
    42
1040
1.0
1070
   147
1040
1.524
1070
    73
1070
     1
1070
    74
1070
     1
1070
   140
1040
3.5
1070
   284
1070
    12
1070
    78
1070
    12
1002
}
  0
DIMENSION
  5
291
330
1F
100
AcDbEntity
  8
SLD-0
 62
     7
100
AcDbDimension
  2
*D28
 10
122.3583678716
 20
166.6135350536
 30
0.0
 11
131.8583678716
 21
166.6135350536
 31
0.0
 70
   160
 71
     1
 42
19.0
  3
SLDDIMSTYLE1
100
AcDbAlignedDimension
 13
141.3583678716
 23
147.4453180351
 33
0.0
 14
122.3583678716
 24
156.1953180351
 34
0.0
100
AcDbRotatedDimension
1001
ACAD
1000
DSTYLE
1002
{
1070
    77
1070
     3
1070
   143
1040
0.0393700787
1070
    41
1040
3.0
1070
    44
1040
1.0
1070
    42
1040
1.0
1070
   147
1040
1.524
1070
    73
1070
     0
1070
    74
1070
     0
1070
   140
1040
3.5
1070
   284
1070
    12
1070
    78
1070
    12
1002
}
  0
DIMENSION
  5
2A8
330
1F
100
AcDbEntity
  8
SLD-0
 62
     7
100
AcDbDimension
  2
*D29
 10
122.3583678716
 20
111.2660706869
 30
0.0
 11
133.8583678716
 21
111.2660706869
 31
0.0
 70
   160
 71
     1
 42
23.0
  3
SLDDIMSTYLE1
100
AcDbAlignedDimension
 13
145.3583678716
 23
121.0453180351
 33
0.0
 14
122.3583678716
 24
150.1953180351
 34
0.0
100
AcDbRotatedDimension
1001
ACAD
1000
DSTYLE
1002
{
1070
    77
1070
     3
1070
   143
1040
0.0393700787
1070
    41
1040
3.0
1070
    44
1040
1.0
1070
    42
1040
1.0
1070
   147
1040
1.524
1070
    73
1070
     0
1070
    74
1070
     0
1070
   140
1040
3.5
1070
   284
1070
    12
1070
    78
1070
    12
1002
}
  0
DIMENSION
  5
2BF
330
1F
100
AcDbEntity
  8
SLD-0
 62
     7
100
AcDbDimension
  2
*D30
 10
47.5400527528
 20
242.3554474224
 30
0.0
 11
69.0400527528
 21
242.3554474224
 31
0.0
 70
   160
 71
     1
 42
43.0
  3
SLDDIMSTYLE1
100
AcDbAlignedDimension
 13
90.5400527528
 23
222.4573585927
 33
0.0
 14
47.5400527528
 24
222.4573585927
 34
0.0
100
AcDbRotatedDimension
1001
ACAD
1000
DSTYLE
1002
{
1070
    77
1070
     3
1070
   143
1040
0.0393700787
1070
    41
1040
3.0
1070
    44
1040
1.0
1070
    42
1040
1.0
1070
   147
1040
1.524
1070
    73
1070
     0
1070
    74
1070
     0
1070
   140
1040
3.5
1070
   284
1070
    12
1070
    78
1070
    12
1002
}
  0
DIMENSION
  5
2D6
330
1F
100
AcDbEntity
  8
SLD-0
 62
     7
100
AcDbDimension
  2
*D31
 10
101.6556671273
 20
222.4573585927
 30
0.0
 11
101.6556671273
 21
204.7073585927
 31
0.0
 70
   160
 71
     1
 42
35.5
  3
SLDDIMSTYLE3
100
AcDbAlignedDimension
 13
90.5400527528
 23
186.9573585927
 33
0.0
 14
90.5400527528
 24
222.4573585927
 34
0.0
 50
90.0
100
AcDbRotatedDimension
1001
ACAD
1000
DSTYLE
1002
{
1070
    77
1070
     3
1070
   143
1040
0.0393700787
1070
    41
1040
3.0
1070
    44
1040
1.0
1070
    42
1040
1.0
1070
   147
1040
1.524
1070
    73
1070
     0
1070
    74
1070
     0
1070
   140
1040
3.5
1070
   284
1070
    12
1070
    78
1070
    12
1002
}
  0
DIMENSION
  5
2EE
330
1F
100
AcDbEntity
  8
SLD-0
 62
     7
100
AcDbDimension
  2
*D32
 10
40.2710879476
 20
192.9573585927
 30
0.0
 11
40.2710879476
 21
189.9573585927
 31
0.0
 70
   160
 71
     1
 42
6.0
  3
SLDDIMSTYLE1
100
AcDbAlignedDimension
 13
47.5400527528
 23
186.9573585927
 33
0.0
 14
53.0400527528
 24
192.9573585927
 34
0.0
 50
90.0
100
AcDbRotatedDimension
1001
ACAD
1000
DSTYLE
1002
{
1070
    77
1070
     3
1070
   143
1040
0.0393700787
1070
    41
1040
3.0
1070
    44
1040
1.0
1070
    42
1040
1.0
1070
   147
1040
1.524
1070
    73
1070
     0
1070
    74
1070
     0
1070
   140
1040
3.5
1070
   284
1070
    12
1070
    78
1070
    12
1002
}
  0
DIMENSION
  5
308
330
1F
100
AcDbEntity
  8
SLD-0
 62
     7
100
AcDbDimension
  2
*D33
 10
53.0400527528
 20
174.7095521509
 30
0.0
 11
69.0400527528
 21
174.7095521509
 31
0.0
 70
   160
 71
     1
 42
32.0
  3
SLDDIMSTYLE1
100
AcDbAlignedDimension
 13
85.0400527528
 23
192.9573585927
 33
0.0
 14
53.0400527528
 24
192.9573585927
 34
0.0
100
AcDbRotatedDimension
1001
ACAD
1000
DSTYLE
1002
{
1070
    77
1070
     3
1070
   143
1040
0.0393700787
1070
    41
1040
3.0
1070
    44
1040
1.0
1070
    42
1040
1.0
1070
   147
1040
1.524
1070
    73
1070
     0
1070
    74
1070
     0
1070
   140
1040
3.5
1070
   284
1070
    12
1070
    78
1070
    12
1002
}
  0
DIMENSION
  5
31F
330
1F
100
AcDbEntity
  8
SLD-0
 62
     7
100
AcDbDimension
  2
*D34
 10
83.0400527528
 20
233.089631055
 30
0.0
 11
69.0400527528
 21
233.089631055
 31
0.0
 70
   160
 71
     1
 42
28.0
  3
SLDDIMSTYLE1
100
AcDbAlignedDimension
 13
55.0400527528
 23
209.9573585927
 33
0.0
 14
83.0400527528
 24
209.9573585927
 34
0.0
100
AcDbRotatedDimension
1001
ACAD
1000
DSTYLE
1002
{
1070
    77
1070
     3
1070
   143
1040
0.0393700787
1070
    41
1040
3.0
1070
    44
1040
1.0
1070
    42
1040
1.0
1070
   147
1040
1.524
1070
    73
1070
     0
1070
    74
1070
     0
1070
   140
1040
3.5
1070
   284
1070
    12
1070
    78
1070
    12
1002
}
  0
DIMENSION
  5
336
330
1F
100
AcDbEntity
  8
SLD-0
 62
     7
100
AcDbDimension
  2
*D35
 10
90.5400527528
 20
233.089631055
 30
0.0
 11
86.7900527528
 21
233.089631055
 31
0.0
 70
   160
 71
     1
 42
7.5
  3
SLDDIMSTYLE3
100
AcDbAlignedDimension
 13
83.0400527528
 23
214.5573585927
 33
0.0
 14
90.5400527528
 24
222.4573585927
 34
0.0
100
AcDbRotatedDimension
1001
ACAD
1000
DSTYLE
1002
{
1070
    77
1070
     3
1070
   143
1040
0.0393700787
1070
    41
1040
3.0
1070
    44
1040
1.0
1070
    42
1040
1.0
1070
   147
1040
1.524
1070
    73
1070
     0
1070
    74
1070
     0
1070
   140
1040
3.5
1070
   284
1070
    12
1070
    78
1070
    12
1002
}
  0
DIMENSION
  5
350
330
1F
100
AcDbEntity
  8
SLD-0
 62
     7
100
AcDbDimension
  2
*D36
 10
90.5400527528
 20
174.7095521509
 30
0.0
 11
99.6349996048
 21
174.7095521509
 31
0.0
 70
   160
 71
     1
 42
5.5
  3
SLDDIMSTYLE3
100
AcDbAlignedDimension
 13
85.0400527528
 23
187.7073585927
 33
0.0
 14
90.5400527528
 24
186.9573585927
 34
0.0
100
AcDbRotatedDimension
1001
ACAD
1000
DSTYLE
1002
{
1070
    77
1070
     3
1070
   143
1040
0.0393700787
1070
    41
1040
3.0
1070
    44
1040
1.0
1070
    42
1040
1.0
1070
   147
1040
1.524
1070
    73
1070
     0
1070
    74
1070
     0
1070
   140
1040
3.5
1070
   284
1070
    12
1070
    78
1070
    12
1002
}
  0
DIMENSION
  5
36C
330
1F
100
AcDbEntity
  8
SLD-0
 62
     7
100
AcDbDimension
  2
*D37
 10
33.0759429041
 20
186.9573585927
 30
0.0
 11
33.0759429041
 21
198.4573585927
 31
0.0
 70
   160
 71
     1
 42
23.0
  3
SLDDIMSTYLE1
100
AcDbAlignedDimension
 13
50.4400527528
 23
209.9573585927
 33
0.0
 14
47.5400527528
 24
186.9573585927
 34
0.0
 50
90.0
100
AcDbRotatedDimension
1001
ACAD
1000
DSTYLE
1002
{
1070
    77
1070
     3
1070
   143
1040
0.0393700787
1070
    41
1040
3.0
1070
    44
1040
1.0
1070
    42
1040
1.0
1070
   147
1040
1.524
1070
    73
1070
     0
1070
    74
1070
     0
1070
   140
1040
3.5
1070
   284
1070
    12
1070
    78
1070
    12
1002
}
  0
DIMENSION
  5
384
330
1F
100
AcDbEntity
  8
SLD-0
 62
     7
100
AcDbDimension
  2
*D38
 10
1.267900971
 20
4.8365712877
 30
0.0
 11
36.7085421597
 21
-5.8038861612
 31
0.0
 70
   163
  1
2-M<><>
 71
     1
 42
4.9999994693
  3
SLDDIMSTYLE6
100
AcDbDiametricDimension
 15
0.0
 25
0.0
 35
0.0
 40
0.0
1001
ACAD
1000
DSTYLE
1002
{
1070
    77
1070
     0
1070
   143
1040
0.0393700787
1070
    41
1040
3.0
1070
    44
1040
1.0
1070
    42
1040
1.0
1070
   147
1040
1.524
1070
    73
1070
     1
1070
    74
1070
     1
1070
   140
1040
3.5
1070
   284
1070
    12
1070
    78
1070
    12
1002
}
  0
DIMENSION
  5
395
330
1F
100
AcDbEntity
  8
SLD-0
 62
     7
100
AcDbDimension
  2
*D39
 10
1.4577671281
 20
5.3032921329
 30
0.0
 11
31.0492679661
 21
-5.7854103218
 31
0.0
 70
   163
  1
2-<>
 71
     1
 42
5.4999993133
  3
SLDDIMSTYLE4
100
AcDbDiametricDimension
 15
0.0
 25
0.0
 35
0.0
 40
0.0
1001
ACAD
1000
DSTYLE
1002
{
1070
    77
1070
     0
1070
   143
1040
0.0393700787
1070
    41
1040
3.0
1070
    44
1040
1.0
1070
    42
1040
1.0
1070
   147
1040
1.524
1070
    73
1070
     1
1070
    74
1070
     1
1070
   140
1040
3.5
1070
   284
1070
    12
1070
    78
1070
    12
1002
}
  0
MTEXT
  5
3AA
330
1F
100
AcDbEntity
  8
SLD-0
 62
     7
100
AcDbMText
 10
169.1923262367
 20
249.8928761438
 30
0.0
 40
4.2333333333
 41
0.0
 71
     1
 72
     1
  1
(　　　)
  7
SLDTEXTSTYLE1
 73
     1
 44
1.0
  0
MTEXT
  5
3AB
330
1F
100
AcDbEntity
  8
SLD-0
 62
     7
100
AcDbMText
 10
151.000064959
 20
18.9109745242
 30
0.0
 40
3.5
 41
0.0
 71
     1
 72
     1
  1
131020
  7
SLDTEXTSTYLE0
 73
     1
 44
1.0
  0
MTEXT
  5
3AC
330
1F
100
AcDbEntity
  8
SLD-0
 62
     7
100
AcDbMText
 10
147.3872852046
 20
29.7138882404
 30
0.0
 40
4.2333333333
 41
0.0
 71
     1
 72
     1
  1
N01911-104-2
  7
SLDTEXTSTYLE1
 73
     1
 44
1.0
  0
MTEXT
  5
3AE
330
1F
100
AcDbEntity
  8
SLD-0
 62
     7
100
AcDbMText
 10
139.4528249859
 20
43.2377018572
 30
0.0
 40
4.2333333333
 41
0.0
 71
     1
 72
     1
  1
25 CYL Connecter A
  7
SLDTEXTSTYLE2
 73
     1
 44
1.0
  0
MTEXT
  5
3AF
330
1F
100
AcDbEntity
  8
SLD-0
 62
     7
100
AcDbMText
 10
121.1010158259
 20
79.5144870442
 30
0.0
 40
3.5
 41
0.0
 71
     1
 72
     1
  1
ｺﾝﾃﾅｼﾘﾝﾀﾞｰｶﾞｲﾄﾞ付
  7
SLDTEXTSTYLE1
 73
     1
 44
1.0
  0
MTEXT
  5
3B0
330
1F
100
AcDbEntity
  8
SLD-0
 62
     7
100
AcDbMText
 10
131.9439050965
 20
74.6762391582
 30
0.0
 40
2.6458333333
 41
0.0
 71
     1
 72
     1
  1
(複動型 )
  7
SLDTEXTSTYLE1
 73
     1
 44
1.0
  0
MTEXT
  5
3B1
330
1F
100
AcDbEntity
  8
SLD-0
 62
     7
100
AcDbMText
 10
134.4323869781
 20
69.706159717
 30
0.0
 40
3.5
 41
0.0
 71
     1
 72
     1
  1
GCYL
  7
SLDTEXTSTYLE1
 73
     1
 44
1.0
  0
MTEXT
  5
3B2
330
1F
100
AcDbEntity
  8
SLD-0
 62
     7
100
AcDbMText
 10
165.2327193702
 20
79.5144870442
 30
0.0
 40
3.5
 41
0.0
 71
     1
 72
     1
  1
ﾐﾆｺﾝﾃﾅｼﾘﾝﾀﾞｰ
  7
SLDTEXTSTYLE1
 73
     1
 44
1.0
  0
MTEXT
  5
3B3
330
1F
100
AcDbEntity
  8
SLD-0
 62
     7
100
AcDbMText
 10
173.3981628095
 20
69.9050021724
 30
0.0
 40
3.5
 41
0.0
 71
     1
 72
     1
  1
NCON
  7
SLDTEXTSTYLE1
 73
     1
 44
1.0
  0
MTEXT
  5
3B4
330
1F
100
AcDbEntity
  8
SLD-0
 62
     7
100
AcDbMText
 10
169.6172049677
 20
74.8714376031
 30
0.0
 40
2.6458333333
 41
0.0
 71
     1
 72
     1
  1
(複動型 )
  7
SLDTEXTSTYLE1
 73
     1
 44
1.0
  0
MTEXT
  5
3B5
330
1F
100
AcDbEntity
  8
SLD-0
 62
     7
100
AcDbMText
 10
133.3711257864
 20
64.9546852102
 30
0.0
 40
3.5
 41
0.0
 71
     1
 72
     1
  1
M5x35
  7
SLDTEXTSTYLE1
 73
     1
 44
1.0
  0
MTEXT
  5
3B6
330
1F
100
AcDbEntity
  8
SLD-0
 62
     7
100
AcDbMText
 10
167.015953149
 20
64.9058367488
 30
0.0
 40
3.5
 41
0.0
 71
     1
 72
     1
  1
M5x20(W,SW)
  7
SLDTEXTSTYLE1
 73
     1
 44
1.0
  0
INSERT
  5
3B7
330
1F
100
AcDbEntity
  8
0
  6
Continuous
 62
     7
370
     0
100
AcDbBlockReference
  2
SURFACEFINISH54
 10
159.4444925231
 20
250.5737216301
 30
0.0
  0
INSERT
  5
3B8
330
1F
100
AcDbEntity
  8
0
  6
Continuous
 62
     7
370
     0
100
AcDbBlockReference
  2
SURFACEFINISH55
 10
175.4763824704
 20
250.9037216301
 30
0.0
  0
INSERT
  5
3B9
330
1F
100
AcDbEntity
  8
0
  6
Continuous
 62
     7
370
     0
100
AcDbBlockReference
  2
注記
 10
22.1879884144
 20
66.4290584666
 30
0.0
  0
INSERT
  5
3BA
330
1F
100
AcDbEntity
  8
0
  6
Continuous
 62
     7
370
     0
100
AcDbBlockReference
  2
SURFACEFINISH56
 10
63.3897451801
 20
111.8470543287
 30
0.0
  0
INSERT
  5
3BB
330
1F
100
AcDbEntity
  8
0
  6
Continuous
 62
     7
370
     0
100
AcDbBlockReference
  2
SURFACEFINISH57
 10
77.5109050091
 20
110.9404430987
 30
0.0
  0
INSERT
  5
3BC
330
1F
100
AcDbEntity
  8
0
  6
Continuous
 62
     7
370
     0
100
AcDbBlockReference
  2
SW_CENTERMARK0
 10
0.0
 20
0.0
 30
0.0
  0
INSERT
  5
3BD
330
1F
100
AcDbEntity
  8
0
  6
Continuous
 62
     7
370
     0
100
AcDbBlockReference
  2
SW_CENTERMARK1
 10
0.0
 20
0.0
 30
0.0
  0
INSERT
  5
3BE
330
1F
100
AcDbEntity
  8
0
  6
Continuous
 62
     7
370
     0
100
AcDbBlockReference
  2
SW_CENTERMARK2
 10
0.0
 20
0.0
 30
0.0
  0
INSERT
  5
3BF
330
1F
100
AcDbEntity
  8
0
  6
Continuous
 62
     7
370
     0
100
AcDbBlockReference
  2
SW_CENTERMARK3
 10
0.0
 20
0.0
 30
0.0
  0
INSERT
  5
3C0
330
1F
100
AcDbEntity
  8
0
  6
Continuous
 62
     7
370
     0
100
AcDbBlockReference
  2
SW_CENTERMARK4
 10
0.0
 20
0.0
 30
0.0
  0
INSERT
  5
3C1
330
1F
100
AcDbEntity
  8
0
  6
Continuous
 62
     7
370
     0
100
AcDbBlockReference
  2
SW_CENTERMARK5
 10
0.0
 20
0.0
 30
0.0
  0
INSERT
  5
3C2
330
1F
100
AcDbEntity
  8
0
  6
Continuous
 62
     7
370
     0
100
AcDbBlockReference
  2
SW_CENTERMARK6
 10
0.0
 20
0.0
 30
0.0
  0
ENDSEC
  0
SECTION
  2
OBJECTS
  0
DICTIONARY
  5
C
330
0
100
AcDbDictionary
281
     1
  3
ACAD_GROUP
350
D
  3
ACAD_LAYOUT
350
1A
  3
ACAD_MLINESTYLE
350
17
  3
ACAD_PLOTSETTINGS
350
19
  3
ACAD_PLOTSTYLENAME
350
E
  0
DICTIONARY
  5
D
102
{ACAD_REACTORS
330
C
102
}
330
C
100
AcDbDictionary
281
     1
  0
DICTIONARY
  5
1A
102
{ACAD_REACTORS
330
C
102
}
330
C
100
AcDbDictionary
281
     1
  3
Layout1
350
1E
  3
Layout2
350
26
  3
Model
350
22
  0
DICTIONARY
  5
17
102
{ACAD_REACTORS
330
C
102
}
330
C
100
AcDbDictionary
281
     1
  3
Standard
350
18
  0
DICTIONARY
  5
19
102
{ACAD_REACTORS
330
C
102
}
330
C
100
AcDbDictionary
281
     1
  0
ACDBDICTIONARYWDFLT
  5
E
102
{ACAD_REACTORS
330
C
102
}
330
C
100
AcDbDictionary
281
     1
  3
Normal
350
F
100
AcDbDictionaryWithDefault
340
F
  0
LAYOUT
  5
1E
102
{ACAD_REACTORS
330
1A
102
}
330
1A
100
AcDbPlotSettings
  1

  2

  4

  6

 40
0.0
 41
0.0
 42
0.0
 43
0.0
 44
0.0
 45
0.0
 46
0.0
 47
0.0
 48
0.0
 49
0.0
140
0.0
141
0.0
142
1.0
143
1.0
 70
   688
 72
     0
 73
     0
 74
     5
  7

 75
    16
147
1.0
148
0.0
149
0.0
100
AcDbLayout
  1
Layout1
 70
     1
 71
     1
 10
0.0
 20
0.0
 11
0.0
 21
0.0
 12
0.0
 22
0.0
 32
0.0
 14
0.0
 24
0.0
 34
0.0
 15
0.0
 25
0.0
 35
0.0
146
0.0
 13
0.0
 23
0.0
 33
0.0
 16
1.0
 26
0.0
 36
0.0
 17
0.0
 27
1.0
 37
0.0
 76
     0
330
1B
  0
LAYOUT
  5
26
102
{ACAD_REACTORS
330
1A
102
}
330
1A
100
AcDbPlotSettings
  1

  2

  4

  6

 40
0.0
 41
0.0
 42
0.0
 43
0.0
 44
0.0
 45
0.0
 46
0.0
 47
0.0
 48
0.0
 49
0.0
140
0.0
141
0.0
142
1.0
143
1.0
 70
   688
 72
     0
 73
     0
 74
     5
  7

 75
    16
147
1.0
148
0.0
149
0.0
100
AcDbLayout
  1
Layout2
 70
     1
 71
     2
 10
0.0
 20
0.0
 11
0.0
 21
0.0
 12
0.0
 22
0.0
 32
0.0
 14
0.0
 24
0.0
 34
0.0
 15
0.0
 25
0.0
 35
0.0
146
0.0
 13
0.0
 23
0.0
 33
0.0
 16
1.0
 26
0.0
 36
0.0
 17
0.0
 27
1.0
 37
0.0
 76
     0
330
23
  0
LAYOUT
  5
22
102
{ACAD_REACTORS
330
1A
102
}
330
1A
100
AcDbPlotSettings
  1

  2

  4

  6

 40
0.0
 41
0.0
 42
0.0
 43
0.0
 44
0.0
 45
0.0
 46
0.0
 47
0.0
 48
0.0
 49
0.0
140
0.0
141
0.0
142
1.0
143
1.0
 70
  1712
 72
     0
 73
     0
 74
     0
  7

 75
     0
147
1.0
148
0.0
149
0.0
100
AcDbLayout
  1
Model
 70
     1
 71
     0
 10
0.0
 20
0.0
 11
0.0
 21
0.0
 12
0.0
 22
0.0
 32
0.0
 14
0.0
 24
0.0
 34
0.0
 15
210.0
 25
297.0
 35
0.0
146
0.0
 13
0.0
 23
0.0
 33
0.0
 16
1.0
 26
0.0
 36
0.0
 17
0.0
 27
1.0
 37
0.0
 76
     0
330
1F
  0
MLINESTYLE
  5
18
102
{ACAD_REACTORS
330
17
102
}
330
17
100
AcDbMlineStyle
  2
Standard
 70
     0
  3

 62
   256
 51
90.0
 52
90.0
 71
     2
 49
0.5
 62
   256
  6
BYLAYER
 49
-0.5
 62
   256
  6
BYLAYER
  0
ACDBPLACEHOLDER
  5
F
102
{ACAD_REACTORS
330
E
102
}
330
E
  0
ENDSEC
  0
EOF
