  0
SECTION
  2
HEADER
  9
$ACADVER
  1
AC1015
  9
$ACADMAINTVER
 70
     6
  9
$DWGCODEPAGE
  3
DOS932
  9
$INSBASE
 10
0.0
 20
0.0
 30
0.0
  9
$EXTMIN
 10
0.0
 20
0.0
 30
0.0
  9
$EXTMAX
 10
210.0
 20
297.0
 30
0.0
  9
$LIMMIN
 10
0.0
 20
0.0
  9
$LIMMAX
 10
0.0
 20
0.0
  9
$ORTHOMODE
 70
     0
  9
$REGENMODE
 70
     1
  9
$FILLMODE
 70
     1
  9
$QTEXTMODE
 70
     0
  9
$MIRRTEXT
 70
     1
  9
$LTSCALE
 40
1.0
  9
$ATTMODE
 70
     1
  9
$TEXTSIZE
 40
3.5
  9
$TRACEWID
 40
1.0
  9
$TEXTSTYLE
  7
Standard
  9
$CLAYER
  8
0
  9
$CELTYPE
  6
ByLayer
  9
$CECOLOR
 62
   256
  9
$CELTSCALE
 40
1.0
  9
$DISPSILH
 70
     0
  9
$DIMSCALE
 40
1.0
  9
$DIMASZ
 40
3.0
  9
$DIMEXO
 40
1.0
  9
$DIMDLI
 40
3.75
  9
$DIMRND
 40
0.0
  9
$DIMDLE
 40
0.0
  9
$DIMEXE
 40
1.0
  9
$DIMTP
 40
0.0
  9
$DIMTM
 40
0.0
  9
$DIMTXT
 40
3.5
  9
$DIMCEN
 40
2.5
  9
$DIMTSZ
 40
0.0
  9
$DIMTOL
 70
     0
  9
$DIMLIM
 70
     0
  9
$DIMTIH
 70
     1
  9
$DIMTOH
 70
     1
  9
$DIMSE1
 70
     0
  9
$DIMSE2
 70
     0
  9
$DIMTAD
 70
     1
  9
$DIMZIN
 70
     1
  9
$DIMBLK
  1

  9
$DIMASO
 70
     1
  9
$DIMSHO
 70
     1
  9
$DIMPOST
  1

  9
$DIMAPOST
  1

  9
$DIMALT
 70
     0
  9
$DIMALTD
 70
     3
  9
$DIMALTF
 40
0.0393700787
  9
$DIMLFAC
 40
1.0
  9
$DIMTOFL
 70
     1
  9
$DIMTVP
 40
0.0
  9
$DIMTIX
 70
     0
  9
$DIMSOXD
 70
     0
  9
$DIMSAH
 70
     0
  9
$DIMBLK1
  1

  9
$DIMBLK2
  1

  9
$DIMSTYLE
  2
ISO-25
  9
$DIMCLRD
 70
     0
  9
$DIMCLRE
 70
     0
  9
$DIMCLRT
 70
     0
  9
$DIMTFAC
 40
1.0
  9
$DIMGAP
 40
1.524
  9
$DIMJUST
 70
     0
  9
$DIMSD1
 70
     0
  9
$DIMSD2
 70
     0
  9
$DIMTOLJ
 70
     0
  9
$DIMTZIN
 70
     1
  9
$DIMALTZ
 70
     0
  9
$DIMALTTZ
 70
     0
  9
$DIMUPT
 70
     0
  9
$DIMDEC
 70
     2
  9
$DIMTDEC
 70
     2
  9
$DIMALTU
 70
     2
  9
$DIMALTTD
 70
     3
  9
$DIMTXSTY
  7
Standard
  9
$DIMAUNIT
 70
     0
  9
$DIMADEC
 70
     0
  9
$DIMALTRND
 40
0.0
  9
$DIMAZIN
 70
     0
  9
$DIMDSEP
 70
    44
  9
$DIMATFIT
 70
     3
  9
$DIMFRAC
 70
     0
  9
$DIMLDRBLK
  1

  9
$DIMLUNIT
 70
     2
  9
$DIMLWD
 70
    -2
  9
$DIMLWE
 70
    -2
  9
$DIMTMOVE
 70
     0
  9
$LUNITS
 70
     2
  9
$LUPREC
 70
     1
  9
$SKETCHINC
 40
1.0
  9
$FILLETRAD
 40
10.0
  9
$AUNITS
 70
     0
  9
$AUPREC
 70
     0
  9
$MENU
  1
.
  9
$ELEVATION
 40
0.0
  9
$PELEVATION
 40
0.0
  9
$THICKNESS
 40
0.0
  9
$LIMCHECK
 70
     0
  9
$CHAMFERA
 40
10.0
  9
$CHAMFERB
 40
10.0
  9
$CHAMFERC
 40
20.0
  9
$CHAMFERD
 40
0.0
  9
$SKPOLY
 70
     0
  9
$TDCREATE
 40
2454308.468243264
  9
$TDUCREATE
 40
2454308.093243264
  9
$TDUPDATE
 40
2454308.468243275
  9
$TDUUPDATE
 40
2454308.093243275
  9
$TDINDWG
 40
0.0000000116
  9
$TDUSRTIMER
 40
0.0000000116
  9
$USRTIMER
 70
     1
  9
$ANGBASE
 50
0.0
  9
$ANGDIR
 70
     0
  9
$PDMODE
 70
     0
  9
$PDSIZE
 40
-1.0
  9
$PLINEWID
 40
0.0
  9
$SPLFRAME
 70
     0
  9
$SPLINETYPE
 70
     6
  9
$SPLINESEGS
 70
     8
  9
$HANDSEED
  5
36D
  9
$SURFTAB1
 70
     6
  9
$SURFTAB2
 70
     6
  9
$SURFTYPE
 70
     6
  9
$SURFU
 70
     6
  9
$SURFV
 70
     6
  9
$UCSBASE
  2

  9
$UCSNAME
  2

  9
$UCSORG
 10
0.0
 20
0.0
 30
0.0
  9
$UCSXDIR
 10
1.0
 20
0.0
 30
0.0
  9
$UCSYDIR
 10
0.0
 20
1.0
 30
0.0
  9
$UCSORTHOREF
  2

  9
$UCSORTHOVIEW
 70
     0
  9
$UCSORGTOP
 10
0.0
 20
0.0
 30
0.0
  9
$UCSORGBOTTOM
 10
0.0
 20
0.0
 30
0.0
  9
$UCSORGLEFT
 10
0.0
 20
0.0
 30
0.0
  9
$UCSORGRIGHT
 10
0.0
 20
0.0
 30
0.0
  9
$UCSORGFRONT
 10
0.0
 20
0.0
 30
0.0
  9
$UCSORGBACK
 10
0.0
 20
0.0
 30
0.0
  9
$PUCSBASE
  2

  9
$PUCSNAME
  2

  9
$PUCSORG
 10
0.0
 20
0.0
 30
0.0
  9
$PUCSXDIR
 10
1.0
 20
0.0
 30
0.0
  9
$PUCSYDIR
 10
0.0
 20
1.0
 30
0.0
  9
$PUCSORTHOREF
  2

  9
$PUCSORTHOVIEW
 70
     0
  9
$PUCSORGTOP
 10
0.0
 20
0.0
 30
0.0
  9
$PUCSORGBOTTOM
 10
0.0
 20
0.0
 30
0.0
  9
$PUCSORGLEFT
 10
0.0
 20
0.0
 30
0.0
  9
$PUCSORGRIGHT
 10
0.0
 20
0.0
 30
0.0
  9
$PUCSORGFRONT
 10
0.0
 20
0.0
 30
0.0
  9
$PUCSORGBACK
 10
0.0
 20
0.0
 30
0.0
  9
$USERI1
 70
     0
  9
$USERI2
 70
     0
  9
$USERI3
 70
     0
  9
$USERI4
 70
     0
  9
$USERI5
 70
     0
  9
$USERR1
 40
0.0
  9
$USERR2
 40
0.0
  9
$USERR3
 40
0.0
  9
$USERR4
 40
0.0
  9
$USERR5
 40
0.0
  9
$WORLDVIEW
 70
     1
  9
$SHADEDGE
 70
     3
  9
$SHADEDIF
 70
    70
  9
$TILEMODE
 70
     1
  9
$MAXACTVP
 70
    64
  9
$PINSBASE
 10
0.0
 20
0.0
 30
0.0
  9
$PLIMCHECK
 70
     0
  9
$PEXTMIN
 10
1.0000000000E+20
 20
1.0000000000E+20
 30
1.0000000000E+20
  9
$PEXTMAX
 10
-1.0000000000E+20
 20
-1.0000000000E+20
 30
-1.0000000000E+20
  9
$PLIMMIN
 10
0.0
 20
0.0
  9
$PLIMMAX
 10
420.0
 20
297.0
  9
$UNITMODE
 70
     0
  9
$VISRETAIN
 70
     1
  9
$PLINEGEN
 70
     0
  9
$PSLTSCALE
 70
     1
  9
$TREEDEPTH
 70
  3020
  9
$CMLSTYLE
  2
Standard
  9
$CMLJUST
 70
     0
  9
$CMLSCALE
 40
20.0
  9
$PROXYGRAPHICS
 70
     1
  9
$MEASUREMENT
 70
     1
  9
$CELWEIGHT
370
    -1
  9
$ENDCAPS
280
     0
  9
$JOINSTYLE
280
     0
  9
$LWDISPLAY
290
     1
  9
$INSUNITS
 70
     4
  9
$HYPERLINKBASE
  1

  9
$STYLESHEET
  1

  9
$XEDIT
290
     1
  9
$CEPSNTYPE
380
     0
  9
$PSTYLEMODE
290
     1
  9
$FINGERPRINTGUID
  2
{AEBD10D1-9A67-4BFA-81D5-6A3A0C6448CB}
  9
$VERSIONGUID
  2
{FAEB1C32-E019-11D5-929B-00C0DF256EC4}
  9
$EXTNAMES
290
     1
  9
$PSVPSCALE
 40
0.0
  9
$OLESTARTUP
290
     0
  0
ENDSEC
  0
SECTION
  2
CLASSES
  0
CLASS
  1
ACDBDICTIONARYWDFLT
  2
AcDbDictionaryWithDefault
  3
ObjectDBX Classes
 90
        0
280
     0
281
     0
  0
CLASS
  1
ACDBPLACEHOLDER
  2
AcDbPlaceHolder
  3
ObjectDBX Classes
 90
        0
280
     0
281
     0
  0
CLASS
  1
LAYOUT
  2
AcDbLayout
  3
ObjectDBX Classes
 90
        0
280
     0
281
     0
  0
ENDSEC
  0
SECTION
  2
TABLES
  0
TABLE
  2
VPORT
  5
8
330
0
100
AcDbSymbolTable
 70
     1
  0
VPORT
  5
29
330
8
100
AcDbSymbolTableRecord
100
AcDbViewportTableRecord
  2
*Active
 70
     0
 10
0.0
 20
0.0
 11
1.0
 21
1.0
 12
105.0
 22
148.5
 13
0.0
 23
0.0
 14
10.0
 24
10.0
 15
10.0
 25
10.0
 16
0.0
 26
0.0
 36
1.0
 17
0.0
 27
0.0
 37
0.0
 40
297.0
 41
1.9729729729
 42
50.0
 43
0.0
 44
0.0
 50
0.0
 51
0.0
 71
     0
 72
  2000
 73
     1
 74
     3
 75
     0
 76
     0
 77
     0
 78
     0
281
     0
 65
     1
110
0.0
120
0.0
130
0.0
111
1.0
121
0.0
131
0.0
112
0.0
122
1.0
132
0.0
 79
     0
146
0.0
  0
ENDTAB
  0
TABLE
  2
LTYPE
  5
5
330
0
100
AcDbSymbolTable
 70
     6
  0
LTYPE
  5
14
330
5
100
AcDbSymbolTableRecord
100
AcDbLinetypeTableRecord
  2
ByBlock
 70
     0
  3

 72
    65
 73
     0
 40
0.0
  0
LTYPE
  5
15
330
5
100
AcDbSymbolTableRecord
100
AcDbLinetypeTableRecord
  2
ByLayer
 70
     0
  3

 72
    65
 73
     0
 40
0.0
  0
LTYPE
  5
16
330
5
100
AcDbSymbolTableRecord
100
AcDbLinetypeTableRecord
  2
Continuous
 70
     0
  3
Solid line
 72
    65
 73
     0
 40
0.0
  0
LTYPE
  5
2A
330
5
100
AcDbSymbolTableRecord
100
AcDbLinetypeTableRecord
  2
HIDDEN
 70
     0
  3
Hidden __ __ __ __ __ __ __ __ __ __ __ __ __ __
 72
    65
 73
     2
 40
1.905
 49
1.27
 74
     0
 49
-0.635
 74
     0
  0
LTYPE
  5
2B
330
5
100
AcDbSymbolTableRecord
100
AcDbLinetypeTableRecord
  2
PHANTOM
 70
     0
  3
Phantom ______  __  __  ______  __  __  ______
 72
    65
 73
     6
 40
12.7
 49
6.35
 74
     0
 49
-1.27
 74
     0
 49
1.27
 74
     0
 49
-1.27
 74
     0
 49
1.27
 74
     0
 49
-1.27
 74
     0
  0
LTYPE
  5
2C
330
5
100
AcDbSymbolTableRecord
100
AcDbLinetypeTableRecord
  2
CENTER
 70
     0
  3
Center ____ _ ____ _ ____ _ ____ _ ____ _ ____
 72
    65
 73
     4
 40
10.16
 49
6.35
 74
     0
 49
-1.27
 74
     0
 49
1.27
 74
     0
 49
-1.27
 74
     0
  0
LTYPE
  5
2D
330
5
100
AcDbSymbolTableRecord
100
AcDbLinetypeTableRecord
  2
CENTERX2
 70
     0
  3
Center (2x) ________  __  ________  __  _____
 72
    65
 73
     4
 40
20.32
 49
12.7
 74
     0
 49
-2.54
 74
     0
 49
2.54
 74
     0
 49
-2.54
 74
     0
  0
LTYPE
  5
2E
330
5
100
AcDbSymbolTableRecord
100
AcDbLinetypeTableRecord
  2
DOT2
 70
     0
  3
Dot (.5x) ........................................
 72
    65
 73
     2
 40
0.635
 49
0.0
 74
     0
 49
-0.635
 74
     0
  0
ENDTAB
  0
TABLE
  2
LAYER
  5
2
330
0
100
AcDbSymbolTable
 70
     4
  0
LAYER
  5
10
330
2
100
AcDbSymbolTableRecord
100
AcDbLayerTableRecord
  2
0
 70
     0
 62
     7
  6
Continuous
370
    -3
390
F
  0
LAYER
  5
2F
330
2
100
AcDbSymbolTableRecord
100
AcDbLayerTableRecord
  2
SLD-0
 70
     0
 62
   179
  6
Continuous
370
     0
390
F
  0
LAYER
  5
30
330
2
100
AcDbSymbolTableRecord
100
AcDbLayerTableRecord
  2
SLD-DEFPOINTS
 70
     0
 62
   179
  6
Continuous
370
     0
390
F
  0
LAYER
  5
134
330
2
100
AcDbSymbolTableRecord
100
AcDbLayerTableRecord
  2
Defpoints
 70
     0
 62
     7
  6
Continuous
290
     0
370
    -3
390
F
  0
ENDTAB
  0
TABLE
  2
STYLE
  5
3
330
0
100
AcDbSymbolTable
 70
     4
  0
STYLE
  5
11
330
3
100
AcDbSymbolTableRecord
100
AcDbTextStyleTableRecord
  2
Standard
 70
     0
 40
0.0
 41
1.0
 50
0.0
 71
     0
 42
2.5
  3
txt
  4
bigfont
  0
STYLE
  5
34
330
3
100
AcDbSymbolTableRecord
100
AcDbTextStyleTableRecord
  2
SLDTEXTSTYLE0
 70
     0
 40
0.0
 41
0.7
 50
0.0
 71
     0
 42
0.2
  3
TXT
  4
bigfont
  0
STYLE
  5
3C
330
3
100
AcDbSymbolTableRecord
100
AcDbTextStyleTableRecord
  2
SLDTEXTSTYLE1
 70
     0
 40
0.0
 41
0.5526315789
 50
0.0
 71
     0
 42
0.2
  3
TXT
  4
bigfont
  0
STYLE
  5
35A
330
3
100
AcDbSymbolTableRecord
100
AcDbTextStyleTableRecord
  2
SLDTEXTSTYLE2
 70
     0
 40
0.0
 41
0.4823159946
 50
0.0
 71
     0
 42
0.2
  3
TXT
  4
bigfont
  0
ENDTAB
  0
TABLE
  2
VIEW
  5
6
330
0
100
AcDbSymbolTable
 70
     0
  0
ENDTAB
  0
TABLE
  2
UCS
  5
7
330
0
100
AcDbSymbolTable
 70
     0
  0
ENDTAB
  0
TABLE
  2
APPID
  5
9
330
0
100
AcDbSymbolTable
 70
     1
  0
APPID
  5
12
330
9
100
AcDbSymbolTableRecord
100
AcDbRegAppTableRecord
  2
ACAD
 70
     0
  0
ENDTAB
  0
TABLE
  2
DIMSTYLE
  5
A
330
0
100
AcDbSymbolTable
 70
     7
100
AcDbDimStyleTable
  0
DIMSTYLE
105
27
330
A
100
AcDbSymbolTableRecord
100
AcDbDimStyleTableRecord
  2
ISO-25
 70
     0
 41
2.5
 42
0.625
 43
3.75
 44
1.25
 73
     0
 74
     0
 77
     1
 78
     8
140
2.5
141
2.5
143
0.0393700787
147
0.625
171
     3
172
     1
271
     2
272
     2
274
     3
278
    44
283
     0
284
     8
340
11
  0
DIMSTYLE
105
144
102
{ACAD_REACTORS
330
133
330
154
330
1C0
330
1F3
102
}
330
A
100
AcDbSymbolTableRecord
100
AcDbDimStyleTableRecord
  2
SLDDIMSTYLE0
 70
     0
 41
3.0
 44
0.0
 73
     0
 74
     0
 77
     3
 78
    12
140
3.5
147
0.875
173
     1
271
     1
272
     3
284
    12
340
3C
341
145
343
145
344
145
  0
DIMSTYLE
105
17F
102
{ACAD_REACTORS
330
172
102
}
330
A
100
AcDbSymbolTableRecord
100
AcDbDimStyleTableRecord
  2
SLDDIMSTYLE1
 70
     0
 41
3.0
 44
0.0
 47
0.1
 71
     1
 73
     0
 74
     0
 77
     3
 78
    12
140
3.5
147
0.875
173
     1
271
     0
272
     1
340
3C
341
145
343
145
344
145
  0
DIMSTYLE
105
19C
102
{ACAD_REACTORS
330
18D
330
1A9
330
1DB
330
221
330
239
330
252
330
289
330
2A0
330
2B8
330
2CF
330
2E6
330
2FF
330
33D
102
}
330
A
100
AcDbSymbolTableRecord
100
AcDbDimStyleTableRecord
  2
SLDDIMSTYLE2
 70
     0
 41
3.0
 44
0.0
 73
     0
 74
     0
 77
     3
 78
    12
140
3.5
147
0.875
173
     1
271
     0
272
     3
284
    12
340
3C
341
145
343
145
344
145
  0
DIMSTYLE
105
217
102
{ACAD_REACTORS
330
20D
102
}
330
A
100
AcDbSymbolTableRecord
100
AcDbDimStyleTableRecord
  2
SLDDIMSTYLE3
 70
     0
 41
3.0
 44
0.0
 78
    12
140
3.5
147
0.875
172
     1
173
     1
271
     1
272
     3
284
    12
340
3C
341
145
343
145
344
145
  0
DIMSTYLE
105
273
102
{ACAD_REACTORS
330
269
330
279
102
}
330
A
100
AcDbSymbolTableRecord
100
AcDbDimStyleTableRecord
  2
SLDDIMSTYLE4
 70
     0
 41
3.0
 44
0.0
 78
    12
140
3.5
147
0.875
173
     1
271
     0
272
     3
284
    12
340
3C
341
145
343
145
344
145
  0
DIMSTYLE
105
325
102
{ACAD_REACTORS
330
31B
330
32D
102
}
330
A
100
AcDbSymbolTableRecord
100
AcDbDimStyleTableRecord
  2
SLDDIMSTYLE5
 70
     0
 41
3.0
 44
0.0
 78
    12
140
3.5
147
0.875
172
     1
173
     1
271
     0
272
     3
284
    12
340
3C
341
145
343
145
344
145
  0
ENDTAB
  0
TABLE
  2
BLOCK_RECORD
  5
1
330
0
100
AcDbSymbolTable
 70
    37
  0
BLOCK_RECORD
  5
1F
330
1
100
AcDbSymbolTableRecord
100
AcDbBlockTableRecord
  2
*Model_Space
340
22
  0
BLOCK_RECORD
  5
1B
330
1
100
AcDbSymbolTableRecord
100
AcDbBlockTableRecord
  2
*Paper_Space
340
1E
  0
BLOCK_RECORD
  5
23
330
1
100
AcDbSymbolTableRecord
100
AcDbBlockTableRecord
  2
*Paper_Space0
340
26
  0
BLOCK_RECORD
  5
31
330
1
100
AcDbSymbolTableRecord
100
AcDbBlockTableRecord
  2
注記
340
0
102
{BLKREFS
331
363
102
}
  0
BLOCK_RECORD
  5
37
330
1
100
AcDbSymbolTableRecord
100
AcDbBlockTableRecord
  2
SURFACEFINISH45
340
0
102
{BLKREFS
331
361
102
}
  0
BLOCK_RECORD
  5
3E
330
1
100
AcDbSymbolTableRecord
100
AcDbBlockTableRecord
  2
SURFACEFINISH46
340
0
102
{BLKREFS
331
362
102
}
  0
BLOCK_RECORD
  5
45
330
1
100
AcDbSymbolTableRecord
100
AcDbBlockTableRecord
  2
SURFACEFINISH47
340
0
102
{BLKREFS
331
364
102
}
  0
BLOCK_RECORD
  5
4D
330
1
100
AcDbSymbolTableRecord
100
AcDbBlockTableRecord
  2
SURFACEFINISH48
340
0
102
{BLKREFS
331
365
102
}
  0
BLOCK_RECORD
  5
55
330
1
100
AcDbSymbolTableRecord
100
AcDbBlockTableRecord
  2
SW_CENTERMARK0
340
0
102
{BLKREFS
331
366
102
}
  0
BLOCK_RECORD
  5
60
330
1
100
AcDbSymbolTableRecord
100
AcDbBlockTableRecord
  2
SW_CENTERMARK1
340
0
102
{BLKREFS
331
367
102
}
  0
BLOCK_RECORD
  5
6B
330
1
100
AcDbSymbolTableRecord
100
AcDbBlockTableRecord
  2
SW_CENTERMARK2
340
0
102
{BLKREFS
331
368
102
}
  0
BLOCK_RECORD
  5
76
330
1
100
AcDbSymbolTableRecord
100
AcDbBlockTableRecord
  2
SW_CENTERMARK3
340
0
102
{BLKREFS
331
369
102
}
  0
BLOCK_RECORD
  5
81
330
1
100
AcDbSymbolTableRecord
100
AcDbBlockTableRecord
  2
SW_CENTERMARK4
340
0
102
{BLKREFS
331
36A
102
}
  0
BLOCK_RECORD
  5
8C
330
1
100
AcDbSymbolTableRecord
100
AcDbBlockTableRecord
  2
SW_CENTERMARK5
340
0
102
{BLKREFS
331
36B
102
}
  0
BLOCK_RECORD
  5
97
330
1
100
AcDbSymbolTableRecord
100
AcDbBlockTableRecord
  2
SW_CENTERMARK6
340
0
102
{BLKREFS
331
36C
102
}
  0
BLOCK_RECORD
  5
135
330
1
100
AcDbSymbolTableRecord
100
AcDbBlockTableRecord
  2
*D13
340
0
  0
BLOCK_RECORD
  5
145
330
1
100
AcDbSymbolTableRecord
100
AcDbBlockTableRecord
  2
_None
340
0
102
{BLKREFS
331
13B
331
13A
331
15B
331
15A
331
178
331
177
331
194
331
193
331
1AF
331
1AE
331
1C7
331
1C6
331
1E1
331
1E0
331
1F9
331
1F8
331
212
331
227
331
226
331
23F
331
23E
331
258
331
257
331
26E
331
27E
331
28F
331
28E
331
2A6
331
2A5
331
2BE
331
2BD
331
2D5
331
2D4
331
2EC
331
2EB
331
306
331
305
331
320
331
332
331
343
331
342
102
}
  0
BLOCK_RECORD
  5
155
330
1
100
AcDbSymbolTableRecord
100
AcDbBlockTableRecord
  2
*D15
340
0
  0
BLOCK_RECORD
  5
173
330
1
100
AcDbSymbolTableRecord
100
AcDbBlockTableRecord
  2
*D16
340
0
  0
BLOCK_RECORD
  5
18E
330
1
100
AcDbSymbolTableRecord
100
AcDbBlockTableRecord
  2
*D17
340
0
  0
BLOCK_RECORD
  5
1AA
330
1
100
AcDbSymbolTableRecord
100
AcDbBlockTableRecord
  2
*D18
340
0
  0
BLOCK_RECORD
  5
1C1
330
1
100
AcDbSymbolTableRecord
100
AcDbBlockTableRecord
  2
*D19
340
0
  0
BLOCK_RECORD
  5
1DC
330
1
100
AcDbSymbolTableRecord
100
AcDbBlockTableRecord
  2
*D20
340
0
  0
BLOCK_RECORD
  5
1F4
330
1
100
AcDbSymbolTableRecord
100
AcDbBlockTableRecord
  2
*D21
340
0
  0
BLOCK_RECORD
  5
20E
330
1
100
AcDbSymbolTableRecord
100
AcDbBlockTableRecord
  2
*D22
340
0
  0
BLOCK_RECORD
  5
222
330
1
100
AcDbSymbolTableRecord
100
AcDbBlockTableRecord
  2
*D23
340
0
  0
BLOCK_RECORD
  5
23A
330
1
100
AcDbSymbolTableRecord
100
AcDbBlockTableRecord
  2
*D24
340
0
  0
BLOCK_RECORD
  5
253
330
1
100
AcDbSymbolTableRecord
100
AcDbBlockTableRecord
  2
*D25
340
0
  0
BLOCK_RECORD
  5
26A
330
1
100
AcDbSymbolTableRecord
100
AcDbBlockTableRecord
  2
*D26
340
0
  0
BLOCK_RECORD
  5
27A
330
1
100
AcDbSymbolTableRecord
100
AcDbBlockTableRecord
  2
*D27
340
0
  0
BLOCK_RECORD
  5
28A
330
1
100
AcDbSymbolTableRecord
100
AcDbBlockTableRecord
  2
*D28
340
0
  0
BLOCK_RECORD
  5
2A1
330
1
100
AcDbSymbolTableRecord
100
AcDbBlockTableRecord
  2
*D29
340
0
  0
BLOCK_RECORD
  5
2B9
330
1
100
AcDbSymbolTableRecord
100
AcDbBlockTableRecord
  2
*D30
340
0
  0
BLOCK_RECORD
  5
2D0
330
1
100
AcDbSymbolTableRecord
100
AcDbBlockTableRecord
  2
*D31
340
0
  0
BLOCK_RECORD
  5
2E7
330
1
100
AcDbSymbolTableRecord
100
AcDbBlockTableRecord
  2
*D32
340
0
  0
BLOCK_RECORD
  5
300
330
1
100
AcDbSymbolTableRecord
100
AcDbBlockTableRecord
  2
*D33
340
0
  0
BLOCK_RECORD
  5
31C
330
1
100
AcDbSymbolTableRecord
100
AcDbBlockTableRecord
  2
*D34
340
0
  0
BLOCK_RECORD
  5
32E
330
1
100
AcDbSymbolTableRecord
100
AcDbBlockTableRecord
  2
*D35
340
0
  0
BLOCK_RECORD
  5
33E
330
1
100
AcDbSymbolTableRecord
100
AcDbBlockTableRecord
  2
*D36
340
0
  0
ENDTAB
  0
ENDSEC
  0
SECTION
  2
BLOCKS
  0
BLOCK
  5
20
330
1F
100
AcDbEntity
  8
0
100
AcDbBlockBegin
  2
*Model_Space
 70
     0
 71
     0
 10
0.0
 20
0.0
 30
0.0
  3
*Model_Space
  1

  0
ENDBLK
  5
21
330
1F
100
AcDbEntity
  8
0
100
AcDbBlockEnd
  0
BLOCK
  5
1C
330
1B
100
AcDbEntity
 67
     1
  8
0
100
AcDbBlockBegin
  2
*Paper_Space
 70
     0
 71
     0
 10
0.0
 20
0.0
 30
0.0
  3
*Paper_Space
  1

  0
ENDBLK
  5
1D
330
1B
100
AcDbEntity
 67
     1
  8
0
100
AcDbBlockEnd
  0
BLOCK
  5
24
330
23
100
AcDbEntity
  8
0
100
AcDbBlockBegin
  2
*Paper_Space0
 70
     0
 71
     0
 10
0.0
 20
0.0
 30
0.0
  3
*Paper_Space0
  1

  0
ENDBLK
  5
25
330
23
100
AcDbEntity
  8
0
100
AcDbBlockEnd
  0
BLOCK
  5
32
330
31
100
AcDbEntity
  8
0
100
AcDbBlockBegin
  2
注記
 70
     0
 71
     0
 10
0.0
 20
0.0
 30
0.0
  3
注記
  1

  0
MTEXT
  5
35
330
31
100
AcDbEntity
  8
0
  6
Continuous
 62
     7
370
     0
100
AcDbMText
 10
0.2636785918
 20
9.0739778448
 30
0.0
 40
3.5
 41
0.0
 71
     1
 72
     1
  1
１．特記ナキ角部ハ、バリ　カエリノ無キコト。
  7
SLDTEXTSTYLE0
 73
     1
 44
1.0
  0
MTEXT
  5
36
330
31
100
AcDbEntity
  8
0
  6
Continuous
 62
     7
370
     0
100
AcDbMText
 10
0.2636785918
 20
3.5759549983
 30
0.0
 40
3.5
 41
0.0
 71
     1
 72
     1
  1
２．特記ナキ隅部ハ、Ｒ０．４ＭＡＸトスル。
  7
SLDTEXTSTYLE0
 73
     1
 44
1.0
  0
ENDBLK
  5
33
330
31
100
AcDbEntity
  8
0
100
AcDbBlockEnd
  0
BLOCK
  5
38
330
37
100
AcDbEntity
  8
0
100
AcDbBlockBegin
  2
SURFACEFINISH45
 70
     0
 71
     0
 10
0.0
 20
0.0
 30
0.0
  3
SURFACEFINISH45
  1

  0
LINE
  5
3A
330
37
100
AcDbEntity
  8
SLD-0
  6
Continuous
 62
   179
100
AcDbLine
 10
0.6656399396
 20
-6.0449245738
 30
0.0
 11
-2.9003789868
 21
0.0000001164
 31
0.0
  0
LINE
  5
3B
330
37
100
AcDbEntity
  8
SLD-0
  6
Continuous
 62
   179
100
AcDbLine
 10
0.6656399396
 20
-6.0449245738
 30
0.0
 11
7.7976777926
 21
6.0449248066
 31
0.0
  0
MTEXT
  5
3D
330
37
100
AcDbEntity
  8
SLD-0
100
AcDbMText
 10
0.0
 20
4.9341236929
 30
0.0
 40
3.175
 41
0.0
 71
     1
 72
     1
  1
25
  7
SLDTEXTSTYLE1
 73
     1
 44
1.0
  0
ENDBLK
  5
39
330
37
100
AcDbEntity
  8
0
100
AcDbBlockEnd
  0
BLOCK
  5
3F
330
3E
100
AcDbEntity
  8
0
100
AcDbBlockBegin
  2
SURFACEFINISH46
 70
     0
 71
     0
 10
0.0
 20
0.0
 30
0.0
  3
SURFACEFINISH46
  1

  0
LINE
  5
41
330
3E
100
AcDbEntity
  8
SLD-0
  6
Continuous
 62
   179
100
AcDbLine
 10
2.7814693727
 20
-6.0449245738
 30
0.0
 11
-0.7845495538
 21
0.0000001164
 31
0.0
  0
LINE
  5
42
330
3E
100
AcDbEntity
  8
SLD-0
  6
Continuous
 62
   179
100
AcDbLine
 10
6.3474882992
 20
0.0000001164
 30
0.0
 11
-0.7845495538
 21
0.0000001164
 31
0.0
  0
LINE
  5
43
330
3E
100
AcDbEntity
  8
SLD-0
  6
Continuous
 62
   179
100
AcDbLine
 10
2.7814693727
 20
-6.0449245738
 30
0.0
 11
9.9135072256
 21
6.0449248066
 31
0.0
  0
MTEXT
  5
44
330
3E
100
AcDbEntity
  8
SLD-0
100
AcDbMText
 10
0.0
 20
4.9341236929
 30
0.0
 40
3.175
 41
0.0
 71
     1
 72
     1
  1
6.3
  7
SLDTEXTSTYLE1
 73
     1
 44
1.0
  0
ENDBLK
  5
40
330
3E
100
AcDbEntity
  8
0
100
AcDbBlockEnd
  0
BLOCK
  5
46
330
45
100
AcDbEntity
  8
0
100
AcDbBlockBegin
  2
SURFACEFINISH47
 70
     0
 71
     0
 10
0.0
 20
0.0
 30
0.0
  3
SURFACEFINISH47
  1

  0
LINE
  5
48
330
45
100
AcDbEntity
  8
SLD-0
  6
Continuous
 62
   179
100
AcDbLine
 10
-6.8510557915
 20
17.3487367997
 30
0.0
 11
-6.8510557915
 21
1.377345951
 31
0.0
  0
LINE
  5
49
330
45
100
AcDbEntity
  8
SLD-0
  6
Continuous
 62
   179
100
AcDbLine
 10
-6.8510557915
 20
2.377345951
 30
0.0
 11
-2.821105998
 21
4.754691902
 31
0.0
  0
LINE
  5
4A
330
45
100
AcDbEntity
  8
SLD-0
  6
Continuous
 62
   179
100
AcDbLine
 10
-2.821105998
 20
0.0
 30
0.0
 11
-2.821105998
 21
4.754691902
 31
0.0
  0
LINE
  5
4B
330
45
100
AcDbEntity
  8
SLD-0
  6
Continuous
 62
   179
100
AcDbLine
 10
-6.8510557915
 20
2.377345951
 30
0.0
 11
1.2088437954
 21
-2.377345951
 31
0.0
  0
MTEXT
  5
4C
330
45
100
AcDbEntity
  8
SLD-0
100
AcDbMText
 10
-2.9130973836
 20
0.0
 30
0.0
 40
2.1166666667
 41
0.0
 71
     1
 72
     1
  1
6.3
  7
SLDTEXTSTYLE1
 11
6.123031769111886E-17
 21
1.0
 31
0.0
 73
     1
 44
1.0
  0
ENDBLK
  5
47
330
45
100
AcDbEntity
  8
0
100
AcDbBlockEnd
  0
BLOCK
  5
4E
330
4D
100
AcDbEntity
  8
0
100
AcDbBlockBegin
  2
SURFACEFINISH48
 70
     0
 71
     0
 10
0.0
 20
0.0
 30
0.0
  3
SURFACEFINISH48
  1

  0
LINE
  5
50
330
4D
100
AcDbEntity
  8
SLD-0
  6
Continuous
 62
   179
100
AcDbLine
 10
4.0299497062
 20
18.2552439458
 30
0.0
 11
4.0299497062
 21
0.8543129151
 31
0.0
  0
LINE
  5
51
330
4D
100
AcDbEntity
  8
SLD-0
  6
Continuous
 62
   179
100
AcDbLine
 10
4.0299497062
 20
1.8543129151
 30
0.0
 11
-0.0000000873
 21
-0.5230330359
 31
0.0
  0
LINE
  5
52
330
4D
100
AcDbEntity
  8
SLD-0
  6
Continuous
 62
   179
100
AcDbLine
 10
-0.0000000873
 20
4.2316588661
 30
0.0
 11
-0.0000000873
 21
-0.5230330359
 31
0.0
  0
LINE
  5
53
330
4D
100
AcDbEntity
  8
SLD-0
  6
Continuous
 62
   179
100
AcDbLine
 10
4.0299497062
 20
1.8543129151
 30
0.0
 11
-4.0299498808
 21
6.6090048171
 31
0.0
  0
MTEXT
  5
54
330
4D
100
AcDbEntity
  8
SLD-0
100
AcDbMText
 10
-2.9130973836
 20
0.0
 30
0.0
 40
2.1166666667
 41
0.0
 71
     1
 72
     1
  1
6.3
  7
SLDTEXTSTYLE1
 11
6.123031769111886E-17
 21
1.0
 31
0.0
 73
     1
 44
1.0
  0
ENDBLK
  5
4F
330
4D
100
AcDbEntity
  8
0
100
AcDbBlockEnd
  0
BLOCK
  5
56
330
55
100
AcDbEntity
  8
0
100
AcDbBlockBegin
  2
SW_CENTERMARK0
 70
     0
 71
     0
 10
0.0
 20
0.0
 30
0.0
  3
SW_CENTERMARK0
  1

  0
LINE
  5
58
330
55
100
AcDbEntity
  8
SLD-0
  6
Continuous
 62
   179
100
AcDbLine
 10
147.5239797041
 20
138.8211091607
 30
0.0
 11
147.5239797041
 21
141.3211091607
 31
0.0
  0
LINE
  5
59
330
55
100
AcDbEntity
  8
SLD-0
  6
Continuous
 62
   179
100
AcDbLine
 10
147.5239797041
 20
138.8211091607
 30
0.0
 11
145.0239797041
 21
138.8211091607
 31
0.0
  0
LINE
  5
5A
330
55
100
AcDbEntity
  8
SLD-0
  6
Continuous
 62
   179
100
AcDbLine
 10
147.5239797041
 20
138.8211091607
 30
0.0
 11
147.5239797041
 21
136.3211091607
 31
0.0
  0
LINE
  5
5B
330
55
100
AcDbEntity
  8
SLD-0
  6
Continuous
 62
   179
100
AcDbLine
 10
147.5239797041
 20
138.8211091607
 30
0.0
 11
150.0239797041
 21
138.8211091607
 31
0.0
  0
LINE
  5
5C
330
55
100
AcDbEntity
  8
SLD-0
  6
Continuous
 62
   179
100
AcDbLine
 10
147.5239797041
 20
143.8211091607
 30
0.0
 11
147.5239797041
 21
145.0711091607
 31
0.0
  0
LINE
  5
5D
330
55
100
AcDbEntity
  8
SLD-0
  6
Continuous
 62
   179
100
AcDbLine
 10
142.5239797041
 20
138.8211091607
 30
0.0
 11
141.2739797041
 21
138.8211091607
 31
0.0
  0
LINE
  5
5E
330
55
100
AcDbEntity
  8
SLD-0
  6
Continuous
 62
   179
100
AcDbLine
 10
147.5239797041
 20
133.8211091607
 30
0.0
 11
147.5239797041
 21
132.5711091607
 31
0.0
  0
LINE
  5
5F
330
55
100
AcDbEntity
  8
SLD-0
  6
Continuous
 62
   179
100
AcDbLine
 10
152.5239797041
 20
138.8211091607
 30
0.0
 11
153.7739797041
 21
138.8211091607
 31
0.0
  0
ENDBLK
  5
57
330
55
100
AcDbEntity
  8
0
100
AcDbBlockEnd
  0
BLOCK
  5
61
330
60
100
AcDbEntity
  8
0
100
AcDbBlockBegin
  2
SW_CENTERMARK1
 70
     0
 71
     0
 10
0.0
 20
0.0
 30
0.0
  3
SW_CENTERMARK1
  1

  0
LINE
  5
63
330
60
100
AcDbEntity
  8
SLD-0
  6
Continuous
 62
   179
100
AcDbLine
 10
135.5239797041
 20
138.8211091607
 30
0.0
 11
135.5239797041
 21
141.3211091607
 31
0.0
  0
LINE
  5
64
330
60
100
AcDbEntity
  8
SLD-0
  6
Continuous
 62
   179
100
AcDbLine
 10
135.5239797041
 20
138.8211091607
 30
0.0
 11
133.0239797041
 21
138.8211091607
 31
0.0
  0
LINE
  5
65
330
60
100
AcDbEntity
  8
SLD-0
  6
Continuous
 62
   179
100
AcDbLine
 10
135.5239797041
 20
138.8211091607
 30
0.0
 11
135.5239797041
 21
136.3211091607
 31
0.0
  0
LINE
  5
66
330
60
100
AcDbEntity
  8
SLD-0
  6
Continuous
 62
   179
100
AcDbLine
 10
135.5239797041
 20
138.8211091607
 30
0.0
 11
138.0239797041
 21
138.8211091607
 31
0.0
  0
LINE
  5
67
330
60
100
AcDbEntity
  8
SLD-0
  6
Continuous
 62
   179
100
AcDbLine
 10
135.5239797041
 20
143.8211091607
 30
0.0
 11
135.5239797041
 21
145.0711091607
 31
0.0
  0
LINE
  5
68
330
60
100
AcDbEntity
  8
SLD-0
  6
Continuous
 62
   179
100
AcDbLine
 10
130.5239797041
 20
138.8211091607
 30
0.0
 11
129.2739797041
 21
138.8211091607
 31
0.0
  0
LINE
  5
69
330
60
100
AcDbEntity
  8
SLD-0
  6
Continuous
 62
   179
100
AcDbLine
 10
135.5239797041
 20
133.8211091607
 30
0.0
 11
135.5239797041
 21
132.5711091607
 31
0.0
  0
LINE
  5
6A
330
60
100
AcDbEntity
  8
SLD-0
  6
Continuous
 62
   179
100
AcDbLine
 10
140.5239797041
 20
138.8211091607
 30
0.0
 11
141.7739797041
 21
138.8211091607
 31
0.0
  0
ENDBLK
  5
62
330
60
100
AcDbEntity
  8
0
100
AcDbBlockEnd
  0
BLOCK
  5
6C
330
6B
100
AcDbEntity
  8
0
100
AcDbBlockBegin
  2
SW_CENTERMARK2
 70
     0
 71
     0
 10
0.0
 20
0.0
 30
0.0
  3
SW_CENTERMARK2
  1

  0
LINE
  5
6E
330
6B
100
AcDbEntity
  8
SLD-0
  6
Continuous
 62
   179
100
AcDbLine
 10
141.5239797041
 20
124.4211091607
 30
0.0
 11
141.5239797041
 21
126.9211091607
 31
0.0
  0
LINE
  5
6F
330
6B
100
AcDbEntity
  8
SLD-0
  6
Continuous
 62
   179
100
AcDbLine
 10
141.5239797041
 20
124.4211091607
 30
0.0
 11
139.0239797041
 21
124.4211091607
 31
0.0
  0
LINE
  5
70
330
6B
100
AcDbEntity
  8
SLD-0
  6
Continuous
 62
   179
100
AcDbLine
 10
141.5239797041
 20
124.4211091607
 30
0.0
 11
141.5239797041
 21
121.9211091607
 31
0.0
  0
LINE
  5
71
330
6B
100
AcDbEntity
  8
SLD-0
  6
Continuous
 62
   179
100
AcDbLine
 10
141.5239797041
 20
124.4211091607
 30
0.0
 11
144.0239797041
 21
124.4211091607
 31
0.0
  0
LINE
  5
72
330
6B
100
AcDbEntity
  8
SLD-0
  6
Continuous
 62
   179
100
AcDbLine
 10
141.5239797041
 20
129.4211091607
 30
0.0
 11
141.5239797041
 21
130.1711091607
 31
0.0
  0
LINE
  5
73
330
6B
100
AcDbEntity
  8
SLD-0
  6
Continuous
 62
   179
100
AcDbLine
 10
136.5239797041
 20
124.4211091607
 30
0.0
 11
135.7739797041
 21
124.4211091607
 31
0.0
  0
LINE
  5
74
330
6B
100
AcDbEntity
  8
SLD-0
  6
Continuous
 62
   179
100
AcDbLine
 10
141.5239797041
 20
119.4211091607
 30
0.0
 11
141.5239797041
 21
118.6711091607
 31
0.0
  0
LINE
  5
75
330
6B
100
AcDbEntity
  8
SLD-0
  6
Continuous
 62
   179
100
AcDbLine
 10
146.5239797041
 20
124.4211091607
 30
0.0
 11
147.2739797041
 21
124.4211091607
 31
0.0
  0
ENDBLK
  5
6D
330
6B
100
AcDbEntity
  8
0
100
AcDbBlockEnd
  0
BLOCK
  5
77
330
76
100
AcDbEntity
  8
0
100
AcDbBlockBegin
  2
SW_CENTERMARK3
 70
     0
 71
     0
 10
0.0
 20
0.0
 30
0.0
  3
SW_CENTERMARK3
  1

  0
LINE
  5
79
330
76
100
AcDbEntity
  8
SLD-0
  6
Continuous
 62
   179
100
AcDbLine
 10
91.9970675434
 20
203.4849605648
 30
0.0
 11
91.9970675434
 21
205.9849605648
 31
0.0
  0
LINE
  5
7A
330
76
100
AcDbEntity
  8
SLD-0
  6
Continuous
 62
   179
100
AcDbLine
 10
91.9970675434
 20
203.4849605648
 30
0.0
 11
89.4970675434
 21
203.4849605648
 31
0.0
  0
LINE
  5
7B
330
76
100
AcDbEntity
  8
SLD-0
  6
Continuous
 62
   179
100
AcDbLine
 10
91.9970675434
 20
203.4849605648
 30
0.0
 11
91.9970675434
 21
200.9849605648
 31
0.0
  0
LINE
  5
7C
330
76
100
AcDbEntity
  8
SLD-0
  6
Continuous
 62
   179
100
AcDbLine
 10
91.9970675434
 20
203.4849605648
 30
0.0
 11
94.4970675434
 21
203.4849605648
 31
0.0
  0
LINE
  5
7D
330
76
100
AcDbEntity
  8
SLD-0
  6
Continuous
 62
   179
100
AcDbLine
 10
91.9970675434
 20
205.9849605648
 30
0.0
 11
91.9970675434
 21
207.6349605648
 31
0.0
  0
LINE
  5
7E
330
76
100
AcDbEntity
  8
SLD-0
  6
Continuous
 62
   179
100
AcDbLine
 10
89.4970675434
 20
203.4849605648
 30
0.0
 11
87.8470675434
 21
203.4849605648
 31
0.0
  0
LINE
  5
7F
330
76
100
AcDbEntity
  8
SLD-0
  6
Continuous
 62
   179
100
AcDbLine
 10
91.9970675434
 20
200.9849605648
 30
0.0
 11
91.9970675434
 21
199.3349605648
 31
0.0
  0
LINE
  5
80
330
76
100
AcDbEntity
  8
SLD-0
  6
Continuous
 62
   179
100
AcDbLine
 10
94.4970675434
 20
203.4849605648
 30
0.0
 11
96.1470675434
 21
203.4849605648
 31
0.0
  0
ENDBLK
  5
78
330
76
100
AcDbEntity
  8
0
100
AcDbBlockEnd
  0
BLOCK
  5
82
330
81
100
AcDbEntity
  8
0
100
AcDbBlockBegin
  2
SW_CENTERMARK4
 70
     0
 71
     0
 10
0.0
 20
0.0
 30
0.0
  3
SW_CENTERMARK4
  1

  0
LINE
  5
84
330
81
100
AcDbEntity
  8
SLD-0
  6
Continuous
 62
   179
100
AcDbLine
 10
82.9970675434
 20
203.4849605648
 30
0.0
 11
82.9970675434
 21
205.9849605648
 31
0.0
  0
LINE
  5
85
330
81
100
AcDbEntity
  8
SLD-0
  6
Continuous
 62
   179
100
AcDbLine
 10
82.9970675434
 20
203.4849605648
 30
0.0
 11
80.4970675434
 21
203.4849605648
 31
0.0
  0
LINE
  5
86
330
81
100
AcDbEntity
  8
SLD-0
  6
Continuous
 62
   179
100
AcDbLine
 10
82.9970675434
 20
203.4849605648
 30
0.0
 11
82.9970675434
 21
200.9849605648
 31
0.0
  0
LINE
  5
87
330
81
100
AcDbEntity
  8
SLD-0
  6
Continuous
 62
   179
100
AcDbLine
 10
82.9970675434
 20
203.4849605648
 30
0.0
 11
85.4970675434
 21
203.4849605648
 31
0.0
  0
LINE
  5
88
330
81
100
AcDbEntity
  8
SLD-0
  6
Continuous
 62
   179
100
AcDbLine
 10
82.9970675434
 20
205.9849605648
 30
0.0
 11
82.9970675434
 21
207.2349605648
 31
0.0
  0
LINE
  5
89
330
81
100
AcDbEntity
  8
SLD-0
  6
Continuous
 62
   179
100
AcDbLine
 10
80.4970675434
 20
203.4849605648
 30
0.0
 11
79.2470675434
 21
203.4849605648
 31
0.0
  0
LINE
  5
8A
330
81
100
AcDbEntity
  8
SLD-0
  6
Continuous
 62
   179
100
AcDbLine
 10
82.9970675434
 20
200.9849605648
 30
0.0
 11
82.9970675434
 21
199.7349605648
 31
0.0
  0
LINE
  5
8B
330
81
100
AcDbEntity
  8
SLD-0
  6
Continuous
 62
   179
100
AcDbLine
 10
85.4970675434
 20
203.4849605648
 30
0.0
 11
86.7470675434
 21
203.4849605648
 31
0.0
  0
ENDBLK
  5
83
330
81
100
AcDbEntity
  8
0
100
AcDbBlockEnd
  0
BLOCK
  5
8D
330
8C
100
AcDbEntity
  8
0
100
AcDbBlockBegin
  2
SW_CENTERMARK5
 70
     0
 71
     0
 10
0.0
 20
0.0
 30
0.0
  3
SW_CENTERMARK5
  1

  0
LINE
  5
8F
330
8C
100
AcDbEntity
  8
SLD-0
  6
Continuous
 62
   179
100
AcDbLine
 10
62.9970675434
 20
203.4849605648
 30
0.0
 11
62.9970675434
 21
205.9849605648
 31
0.0
  0
LINE
  5
90
330
8C
100
AcDbEntity
  8
SLD-0
  6
Continuous
 62
   179
100
AcDbLine
 10
62.9970675434
 20
203.4849605648
 30
0.0
 11
60.4970675434
 21
203.4849605648
 31
0.0
  0
LINE
  5
91
330
8C
100
AcDbEntity
  8
SLD-0
  6
Continuous
 62
   179
100
AcDbLine
 10
62.9970675434
 20
203.4849605648
 30
0.0
 11
62.9970675434
 21
200.9849605648
 31
0.0
  0
LINE
  5
92
330
8C
100
AcDbEntity
  8
SLD-0
  6
Continuous
 62
   179
100
AcDbLine
 10
62.9970675434
 20
203.4849605648
 30
0.0
 11
65.4970675434
 21
203.4849605648
 31
0.0
  0
LINE
  5
93
330
8C
100
AcDbEntity
  8
SLD-0
  6
Continuous
 62
   179
100
AcDbLine
 10
62.9970675434
 20
205.9849605648
 30
0.0
 11
62.9970675434
 21
207.2349605648
 31
0.0
  0
LINE
  5
94
330
8C
100
AcDbEntity
  8
SLD-0
  6
Continuous
 62
   179
100
AcDbLine
 10
60.4970675434
 20
203.4849605648
 30
0.0
 11
59.2470675434
 21
203.4849605648
 31
0.0
  0
LINE
  5
95
330
8C
100
AcDbEntity
  8
SLD-0
  6
Continuous
 62
   179
100
AcDbLine
 10
62.9970675434
 20
200.9849605648
 30
0.0
 11
62.9970675434
 21
199.7349605648
 31
0.0
  0
LINE
  5
96
330
8C
100
AcDbEntity
  8
SLD-0
  6
Continuous
 62
   179
100
AcDbLine
 10
65.4970675434
 20
203.4849605648
 30
0.0
 11
66.7470675434
 21
203.4849605648
 31
0.0
  0
ENDBLK
  5
8E
330
8C
100
AcDbEntity
  8
0
100
AcDbBlockEnd
  0
BLOCK
  5
98
330
97
100
AcDbEntity
  8
0
100
AcDbBlockBegin
  2
SW_CENTERMARK6
 70
     0
 71
     0
 10
0.0
 20
0.0
 30
0.0
  3
SW_CENTERMARK6
  1

  0
LINE
  5
9A
330
97
100
AcDbEntity
  8
SLD-0
  6
Continuous
 62
   179
100
AcDbLine
 10
53.9970675434
 20
203.4849605648
 30
0.0
 11
53.9970675434
 21
205.9849605648
 31
0.0
  0
LINE
  5
9B
330
97
100
AcDbEntity
  8
SLD-0
  6
Continuous
 62
   179
100
AcDbLine
 10
53.9970675434
 20
203.4849605648
 30
0.0
 11
51.4970675434
 21
203.4849605648
 31
0.0
  0
LINE
  5
9C
330
97
100
AcDbEntity
  8
SLD-0
  6
Continuous
 62
   179
100
AcDbLine
 10
53.9970675434
 20
203.4849605648
 30
0.0
 11
53.9970675434
 21
200.9849605648
 31
0.0
  0
LINE
  5
9D
330
97
100
AcDbEntity
  8
SLD-0
  6
Continuous
 62
   179
100
AcDbLine
 10
53.9970675434
 20
203.4849605648
 30
0.0
 11
56.4970675434
 21
203.4849605648
 31
0.0
  0
LINE
  5
9E
330
97
100
AcDbEntity
  8
SLD-0
  6
Continuous
 62
   179
100
AcDbLine
 10
53.9970675434
 20
205.9849605648
 30
0.0
 11
53.9970675434
 21
207.6349605648
 31
0.0
  0
LINE
  5
9F
330
97
100
AcDbEntity
  8
SLD-0
  6
Continuous
 62
   179
100
AcDbLine
 10
51.4970675434
 20
203.4849605648
 30
0.0
 11
49.8470675434
 21
203.4849605648
 31
0.0
  0
LINE
  5
A0
330
97
100
AcDbEntity
  8
SLD-0
  6
Continuous
 62
   179
100
AcDbLine
 10
53.9970675434
 20
200.9849605648
 30
0.0
 11
53.9970675434
 21
199.3349605648
 31
0.0
  0
LINE
  5
A1
330
97
100
AcDbEntity
  8
SLD-0
  6
Continuous
 62
   179
100
AcDbLine
 10
56.4970675434
 20
203.4849605648
 30
0.0
 11
58.1470675434
 21
203.4849605648
 31
0.0
  0
ENDBLK
  5
99
330
97
100
AcDbEntity
  8
0
100
AcDbBlockEnd
  0
BLOCK
  5
142
330
135
100
AcDbEntity
  8
0
100
AcDbBlockBegin
  2
*D13
 70
     1
 71
     0
 10
0.0
 20
0.0
 30
0.0
  3
*D13
  1

  0
LINE
  5
148
330
135
100
AcDbEntity
  8
SLD-0
 62
     7
100
AcDbLine
 10
89.9970675434
 20
126.8211091607
 30
0.0
 11
89.9970675434
 21
98.0983123657
 31
0.0
  0
LINE
  5
149
330
135
100
AcDbEntity
  8
SLD-0
 62
     7
100
AcDbLine
 10
85.4970675434
 20
126.8211091607
 30
0.0
 11
85.4970675434
 21
98.0983123657
 31
0.0
  0
LINE
  5
14A
330
135
100
AcDbEntity
  8
SLD-0
 62
     7
100
AcDbLine
 10
89.9970675434
 20
99.0983123657
 30
0.0
 11
100.8311790724
 21
99.0983123657
 31
0.0
  0
LINE
  5
14B
330
135
100
AcDbEntity
  8
SLD-0
 62
     7
100
AcDbLine
 10
89.9970675434
 20
99.0983123657
 30
0.0
 11
85.4970675434
 21
99.0983123657
 31
0.0
  0
LINE
  5
14C
330
135
100
AcDbEntity
  8
SLD-0
 62
     7
100
AcDbLine
 10
85.4970675434
 20
99.0983123657
 30
0.0
 11
80.4970675434
 21
99.0983123657
 31
0.0
  0
LINE
  5
14D
330
135
100
AcDbEntity
  8
SLD-0
 62
     7
100
AcDbLine
 10
92.9970675434
 20
98.2944653657
 30
0.0
 11
89.9970675434
 21
99.0983123657
 31
0.0
  0
LINE
  5
14E
330
135
100
AcDbEntity
  8
SLD-0
 62
     7
100
AcDbLine
 10
89.9970675434
 20
99.0983123657
 30
0.0
 11
92.9970675434
 21
99.9021593657
 31
0.0
  0
LINE
  5
14F
330
135
100
AcDbEntity
  8
SLD-0
 62
     7
100
AcDbLine
 10
89.9970675434
 20
99.0983123657
 30
0.0
 11
92.9970675434
 21
99.0983123657
 31
0.0
  0
LINE
  5
150
330
135
100
AcDbEntity
  8
SLD-0
 62
     7
100
AcDbLine
 10
82.4970675434
 20
99.9021593657
 30
0.0
 11
85.4970675434
 21
99.0983123657
 31
0.0
  0
LINE
  5
151
330
135
100
AcDbEntity
  8
SLD-0
 62
     7
100
AcDbLine
 10
85.4970675434
 20
99.0983123657
 30
0.0
 11
82.4970675434
 21
98.2944653657
 31
0.0
  0
LINE
  5
152
330
135
100
AcDbEntity
  8
SLD-0
 62
     7
100
AcDbLine
 10
85.4970675434
 20
99.0983123657
 30
0.0
 11
82.4970675434
 21
99.0983123657
 31
0.0
  0
MTEXT
  5
153
330
135
100
AcDbEntity
  8
SLD-0
 62
     7
100
AcDbMText
 10
93.1337191207
 20
103.6250060617
 30
0.1
 40
3.5
 41
0.0
 71
     1
 72
     1
  1
4.5
  7
SLDTEXTSTYLE0
 73
     1
 44
1.0
  0
ENDBLK
  5
143
330
135
100
AcDbEntity
  8
0
100
AcDbBlockEnd
  0
BLOCK
  5
146
330
145
100
AcDbEntity
  8
0
100
AcDbBlockBegin
  2
_None
 70
     0
 71
     0
 10
0.0
 20
0.0
 30
0.0
  3
_None
  1

  0
ENDBLK
  5
147
330
145
100
AcDbEntity
  8
0
100
AcDbBlockEnd
  0
BLOCK
  5
162
330
155
100
AcDbEntity
  8
0
100
AcDbBlockBegin
  2
*D15
 70
     1
 71
     0
 10
0.0
 20
0.0
 30
0.0
  3
*D15
  1

  0
ARC
  5
164
330
155
100
AcDbEntity
  8
SLD-0
 62
     7
100
AcDbCircle
 10
48.1786225165
 20
101.1337475889
 30
0.0
 40
4.551371522800003
100
AcDbArc
 50
153.4349488229
 51
206.5650511771
  0
ARC
  5
165
330
155
100
AcDbEntity
  8
SLD-0
 62
     7
100
AcDbCircle
 10
49.3218415756
 20
101.1337475889
 30
0.0
 40
4.551371522800009
100
AcDbArc
 50
333.4349488229
 51
26.5650511771
  0
LINE
  5
166
330
155
100
AcDbEntity
  8
SLD-0
 62
     7
100
AcDbLine
 10
55.9970675434
 20
146.8211091607
 30
0.0
 11
55.9970675434
 21
98.0983123657
 31
0.0
  0
LINE
  5
167
330
155
100
AcDbEntity
  8
SLD-0
 62
     7
100
AcDbLine
 10
60.4970675434
 20
146.8211091607
 30
0.0
 11
60.4970675434
 21
98.0983123657
 31
0.0
  0
LINE
  5
168
330
155
100
AcDbEntity
  8
SLD-0
 62
     7
100
AcDbLine
 10
55.9970675434
 20
99.0983123657
 30
0.0
 11
42.5202520702
 21
99.0983123657
 31
0.0
  0
LINE
  5
169
330
155
100
AcDbEntity
  8
SLD-0
 62
     7
100
AcDbLine
 10
55.9970675434
 20
99.0983123657
 30
0.0
 11
60.4970675434
 21
99.0983123657
 31
0.0
  0
LINE
  5
16A
330
155
100
AcDbEntity
  8
SLD-0
 62
     7
100
AcDbLine
 10
60.4970675434
 20
99.0983123657
 30
0.0
 11
65.4970675434
 21
99.0983123657
 31
0.0
  0
LINE
  5
16B
330
155
100
AcDbEntity
  8
SLD-0
 62
     7
100
AcDbLine
 10
52.9970675434
 20
99.9021593657
 30
0.0
 11
55.9970675434
 21
99.0983123657
 31
0.0
  0
LINE
  5
16C
330
155
100
AcDbEntity
  8
SLD-0
 62
     7
100
AcDbLine
 10
55.9970675434
 20
99.0983123657
 30
0.0
 11
52.9970675434
 21
98.2944653657
 31
0.0
  0
LINE
  5
16D
330
155
100
AcDbEntity
  8
SLD-0
 62
     7
100
AcDbLine
 10
55.9970675434
 20
99.0983123657
 30
0.0
 11
52.9970675434
 21
99.0983123657
 31
0.0
  0
LINE
  5
16E
330
155
100
AcDbEntity
  8
SLD-0
 62
     7
100
AcDbLine
 10
63.4970675434
 20
98.2944653657
 30
0.0
 11
60.4970675434
 21
99.0983123657
 31
0.0
  0
LINE
  5
16F
330
155
100
AcDbEntity
  8
SLD-0
 62
     7
100
AcDbLine
 10
60.4970675434
 20
99.0983123657
 30
0.0
 11
63.4970675434
 21
99.9021593657
 31
0.0
  0
LINE
  5
170
330
155
100
AcDbEntity
  8
SLD-0
 62
     7
100
AcDbLine
 10
60.4970675434
 20
99.0983123657
 30
0.0
 11
63.4970675434
 21
99.0983123657
 31
0.0
  0
MTEXT
  5
171
330
155
100
AcDbEntity
  8
SLD-0
 62
     7
100
AcDbMText
 10
45.6952520702
 20
103.6250060617
 30
0.1
 40
3.5
 41
0.0
 71
     1
 72
     1
  1
4.5
  7
SLDTEXTSTYLE0
 73
     1
 44
1.0
  0
ENDBLK
  5
163
330
155
100
AcDbEntity
  8
0
100
AcDbBlockEnd
  0
BLOCK
  5
17D
330
173
100
AcDbEntity
  8
0
100
AcDbBlockBegin
  2
*D16
 70
     1
 71
     0
 10
0.0
 20
0.0
 30
0.0
  3
*D16
  1

  0
LINE
  5
180
330
173
100
AcDbEntity
  8
SLD-0
 62
     7
100
AcDbLine
 10
60.4970675434
 20
116.8211091607
 30
0.0
 11
60.4970675434
 21
98.0983123657
 31
0.0
  0
LINE
  5
181
330
173
100
AcDbEntity
  8
SLD-0
 62
     7
100
AcDbLine
 10
85.4970675434
 20
116.8211091607
 30
0.0
 11
85.4970675434
 21
98.0983123657
 31
0.0
  0
LINE
  5
182
330
173
100
AcDbEntity
  8
SLD-0
 62
     7
100
AcDbLine
 10
60.4970675434
 20
99.0983123657
 30
0.0
 11
85.4970675434
 21
99.0983123657
 31
0.0
  0
LINE
  5
183
330
173
100
AcDbEntity
  8
SLD-0
 62
     7
100
AcDbLine
 10
63.4970675434
 20
98.2944653657
 30
0.0
 11
60.4970675434
 21
99.0983123657
 31
0.0
  0
LINE
  5
184
330
173
100
AcDbEntity
  8
SLD-0
 62
     7
100
AcDbLine
 10
60.4970675434
 20
99.0983123657
 30
0.0
 11
63.4970675434
 21
99.9021593657
 31
0.0
  0
LINE
  5
185
330
173
100
AcDbEntity
  8
SLD-0
 62
     7
100
AcDbLine
 10
60.4970675434
 20
99.0983123657
 30
0.0
 11
63.4970675434
 21
99.0983123657
 31
0.0
  0
LINE
  5
186
330
173
100
AcDbEntity
  8
SLD-0
 62
     7
100
AcDbLine
 10
82.4970675434
 20
99.9021593657
 30
0.0
 11
85.4970675434
 21
99.0983123657
 31
0.0
  0
LINE
  5
187
330
173
100
AcDbEntity
  8
SLD-0
 62
     7
100
AcDbLine
 10
85.4970675434
 20
99.0983123657
 30
0.0
 11
82.4970675434
 21
98.2944653657
 31
0.0
  0
LINE
  5
188
330
173
100
AcDbEntity
  8
SLD-0
 62
     7
100
AcDbLine
 10
85.4970675434
 20
99.0983123657
 30
0.0
 11
82.4970675434
 21
99.0983123657
 31
0.0
  0
MTEXT
  5
189
330
173
100
AcDbEntity
  8
SLD-0
 62
     7
100
AcDbMText
 10
67.9084794855
 20
103.6250060617
 30
0.1
 40
3.5
 41
0.0
 71
     1
 72
     1
  1
25
  7
SLDTEXTSTYLE0
 73
     1
 44
1.0
  0
MTEXT
  5
18A
330
173
100
AcDbEntity
  8
SLD-0
 62
     7
100
AcDbMText
 10
74.4204104867
 20
102.4285322359
 30
0.1
 40
2.1
 41
0.0
 71
     1
 72
     1
  1
0
  7
SLDTEXTSTYLE0
 73
     1
 44
1.0
  0
MTEXT
  5
18B
330
173
100
AcDbEntity
  8
SLD-0
 62
     7
100
AcDbMText
 10
73.1998802092
 20
104.8695927908
 30
0.1
 40
2.1
 41
0.0
 71
     1
 72
     1
  1
+
  7
SLDTEXTSTYLE0
 73
     1
 44
1.0
  0
MTEXT
  5
18C
330
173
100
AcDbEntity
  8
SLD-0
 62
     7
100
AcDbMText
 10
74.4204104867
 20
104.8695927908
 30
0.1
 40
2.1
 41
0.0
 71
     1
 72
     1
  1
0.1
  7
SLDTEXTSTYLE0
 73
     1
 44
1.0
  0
ENDBLK
  5
17E
330
173
100
AcDbEntity
  8
0
100
AcDbBlockEnd
  0
BLOCK
  5
19A
330
18E
100
AcDbEntity
  8
0
100
AcDbBlockBegin
  2
*D17
 70
     1
 71
     0
 10
0.0
 20
0.0
 30
0.0
  3
*D17
  1

  0
LINE
  5
19D
330
18E
100
AcDbEntity
  8
SLD-0
 62
     7
100
AcDbLine
 10
59.4970675434
 20
147.8211091607
 30
0.0
 11
43.5458353836
 21
147.8211091607
 31
0.0
  0
LINE
  5
19E
330
18E
100
AcDbEntity
  8
SLD-0
 62
     7
100
AcDbLine
 10
47.9970675434
 20
153.8211091607
 30
0.0
 11
43.5458353836
 21
153.8211091607
 31
0.0
  0
LINE
  5
19F
330
18E
100
AcDbEntity
  8
SLD-0
 62
     7
100
AcDbLine
 10
44.5458353836
 20
147.8211091607
 30
0.0
 11
44.5458353836
 21
142.8211091607
 31
0.0
  0
LINE
  5
1A0
330
18E
100
AcDbEntity
  8
SLD-0
 62
     7
100
AcDbLine
 10
44.5458353836
 20
147.8211091607
 30
0.0
 11
44.5458353836
 21
153.8211091607
 31
0.0
  0
LINE
  5
1A1
330
18E
100
AcDbEntity
  8
SLD-0
 62
     7
100
AcDbLine
 10
44.5458353836
 20
153.8211091607
 30
0.0
 11
44.5458353836
 21
165.8219757728
 31
0.0
  0
LINE
  5
1A2
330
18E
100
AcDbEntity
  8
SLD-0
 62
     7
100
AcDbLine
 10
43.7419883836
 20
144.8211091607
 30
0.0
 11
44.5458353836
 21
147.8211091607
 31
0.0
  0
LINE
  5
1A3
330
18E
100
AcDbEntity
  8
SLD-0
 62
     7
100
AcDbLine
 10
44.5458353836
 20
147.8211091607
 30
0.0
 11
45.3496823836
 21
144.8211091607
 31
0.0
  0
LINE
  5
1A4
330
18E
100
AcDbEntity
  8
SLD-0
 62
     7
100
AcDbLine
 10
44.5458353836
 20
147.8211091607
 30
0.0
 11
44.5458353836
 21
144.8211091607
 31
0.0
  0
LINE
  5
1A5
330
18E
100
AcDbEntity
  8
SLD-0
 62
     7
100
AcDbLine
 10
45.3496823836
 20
156.8211091607
 30
0.0
 11
44.5458353836
 21
153.8211091607
 31
0.0
  0
LINE
  5
1A6
330
18E
100
AcDbEntity
  8
SLD-0
 62
     7
100
AcDbLine
 10
44.5458353836
 20
153.8211091607
 30
0.0
 11
43.7419883836
 21
156.8211091607
 31
0.0
  0
LINE
  5
1A7
330
18E
100
AcDbEntity
  8
SLD-0
 62
     7
100
AcDbLine
 10
44.5458353836
 20
153.8211091607
 30
0.0
 11
44.5458353836
 21
156.8211091607
 31
0.0
  0
MTEXT
  5
1A8
330
18E
100
AcDbEntity
  8
SLD-0
 62
     7
100
AcDbMText
 10
40.0191416877
 20
162.1990405496
 30
0.1
 40
3.5
 41
0.0
 71
     1
 72
     1
  1
6
  7
SLDTEXTSTYLE0
 11
6.123031769111886E-17
 21
1.0
 31
0.0
 73
     1
 44
1.0
  0
ENDBLK
  5
19B
330
18E
100
AcDbEntity
  8
0
100
AcDbBlockEnd
  0
BLOCK
  5
1B4
330
1AA
100
AcDbEntity
  8
0
100
AcDbBlockBegin
  2
*D18
 70
     1
 71
     0
 10
0.0
 20
0.0
 30
0.0
  3
*D18
  1

  0
LINE
  5
1B6
330
1AA
100
AcDbEntity
  8
SLD-0
 62
     7
100
AcDbLine
 10
147.5239797041
 20
146.0711091607
 30
0.0
 11
147.5239797041
 21
163.2186586568
 31
0.0
  0
LINE
  5
1B7
330
1AA
100
AcDbEntity
  8
SLD-0
 62
     7
100
AcDbLine
 10
135.5239797041
 20
146.0711091607
 30
0.0
 11
135.5239797041
 21
163.2186586568
 31
0.0
  0
LINE
  5
1B8
330
1AA
100
AcDbEntity
  8
SLD-0
 62
     7
100
AcDbLine
 10
147.5239797041
 20
162.2186586568
 30
0.0
 11
135.5239797041
 21
162.2186586568
 31
0.0
  0
LINE
  5
1B9
330
1AA
100
AcDbEntity
  8
SLD-0
 62
     7
100
AcDbLine
 10
144.5239797041
 20
163.0225056568
 30
0.0
 11
147.5239797041
 21
162.2186586568
 31
0.0
  0
LINE
  5
1BA
330
1AA
100
AcDbEntity
  8
SLD-0
 62
     7
100
AcDbLine
 10
147.5239797041
 20
162.2186586568
 30
0.0
 11
144.5239797041
 21
161.4148116568
 31
0.0
  0
LINE
  5
1BB
330
1AA
100
AcDbEntity
  8
SLD-0
 62
     7
100
AcDbLine
 10
147.5239797041
 20
162.2186586568
 30
0.0
 11
144.5239797041
 21
162.2186586568
 31
0.0
  0
LINE
  5
1BC
330
1AA
100
AcDbEntity
  8
SLD-0
 62
     7
100
AcDbLine
 10
138.5239797041
 20
161.4148116568
 30
0.0
 11
135.5239797041
 21
162.2186586568
 31
0.0
  0
LINE
  5
1BD
330
1AA
100
AcDbEntity
  8
SLD-0
 62
     7
100
AcDbLine
 10
135.5239797041
 20
162.2186586568
 30
0.0
 11
138.5239797041
 21
163.0225056568
 31
0.0
  0
LINE
  5
1BE
330
1AA
100
AcDbEntity
  8
SLD-0
 62
     7
100
AcDbLine
 10
135.5239797041
 20
162.2186586568
 30
0.0
 11
138.5239797041
 21
162.2186586568
 31
0.0
  0
MTEXT
  5
1BF
330
1AA
100
AcDbEntity
  8
SLD-0
 62
     7
100
AcDbMText
 10
139.4885444809
 20
166.7453523528
 30
0.1
 40
3.5
 41
0.0
 71
     1
 72
     1
  1
12
  7
SLDTEXTSTYLE0
 73
     1
 44
1.0
  0
ENDBLK
  5
1B5
330
1AA
100
AcDbEntity
  8
0
100
AcDbBlockEnd
  0
BLOCK
  5
1CD
330
1C1
100
AcDbEntity
  8
0
100
AcDbBlockBegin
  2
*D19
 70
     1
 71
     0
 10
0.0
 20
0.0
 30
0.0
  3
*D19
  1

  0
LINE
  5
1CF
330
1C1
100
AcDbEntity
  8
SLD-0
 62
     7
100
AcDbLine
 10
148.5239797041
 20
142.5711091607
 30
0.0
 11
167.9352541654
 21
142.5711091607
 31
0.0
  0
LINE
  5
1D0
330
1C1
100
AcDbEntity
  8
SLD-0
 62
     7
100
AcDbLine
 10
148.5239797041
 20
135.0711091607
 30
0.0
 11
167.9352541654
 21
135.0711091607
 31
0.0
  0
LINE
  5
1D1
330
1C1
100
AcDbEntity
  8
SLD-0
 62
     7
100
AcDbLine
 10
166.9352541654
 20
142.5711091607
 30
0.0
 11
166.9352541654
 21
152.8796863727
 31
0.0
  0
LINE
  5
1D2
330
1C1
100
AcDbEntity
  8
SLD-0
 62
     7
100
AcDbLine
 10
166.9352541654
 20
142.5711091607
 30
0.0
 11
166.9352541654
 21
135.0711091607
 31
0.0
  0
LINE
  5
1D3
330
1C1
100
AcDbEntity
  8
SLD-0
 62
     7
100
AcDbLine
 10
166.9352541654
 20
135.0711091607
 30
0.0
 11
166.9352541654
 21
130.0711091607
 31
0.0
  0
LINE
  5
1D4
330
1C1
100
AcDbEntity
  8
SLD-0
 62
     7
100
AcDbLine
 10
167.7391011654
 20
145.5711091607
 30
0.0
 11
166.9352541654
 21
142.5711091607
 31
0.0
  0
LINE
  5
1D5
330
1C1
100
AcDbEntity
  8
SLD-0
 62
     7
100
AcDbLine
 10
166.9352541654
 20
142.5711091607
 30
0.0
 11
166.1314071654
 21
145.5711091607
 31
0.0
  0
LINE
  5
1D6
330
1C1
100
AcDbEntity
  8
SLD-0
 62
     7
100
AcDbLine
 10
166.9352541654
 20
142.5711091607
 30
0.0
 11
166.9352541654
 21
145.5711091607
 31
0.0
  0
LINE
  5
1D7
330
1C1
100
AcDbEntity
  8
SLD-0
 62
     7
100
AcDbLine
 10
166.1314071654
 20
132.0711091607
 30
0.0
 11
166.9352541654
 21
135.0711091607
 31
0.0
  0
LINE
  5
1D8
330
1C1
100
AcDbEntity
  8
SLD-0
 62
     7
100
AcDbLine
 10
166.9352541654
 20
135.0711091607
 30
0.0
 11
167.7391011654
 21
132.0711091607
 31
0.0
  0
LINE
  5
1D9
330
1C1
100
AcDbEntity
  8
SLD-0
 62
     7
100
AcDbLine
 10
166.9352541654
 20
135.0711091607
 30
0.0
 11
166.9352541654
 21
132.0711091607
 31
0.0
  0
MTEXT
  5
1DA
330
1C1
100
AcDbEntity
  8
SLD-0
 62
     7
100
AcDbMText
 10
162.4085604694
 20
145.182226421
 30
0.1
 40
3.5
 41
0.0
 71
     1
 72
     1
  1
7.5
  7
SLDTEXTSTYLE0
 11
6.123031769111886E-17
 21
1.0
 31
0.0
 73
     1
 44
1.0
  0
ENDBLK
  5
1CE
330
1C1
100
AcDbEntity
  8
0
100
AcDbBlockEnd
  0
BLOCK
  5
1E7
330
1DC
100
AcDbEntity
  8
0
100
AcDbBlockBegin
  2
*D20
 70
     1
 71
     0
 10
0.0
 20
0.0
 30
0.0
  3
*D20
  1

  0
LINE
  5
1E9
330
1DC
100
AcDbEntity
  8
SLD-0
 62
     7
100
AcDbLine
 10
154.7739797041
 20
138.8211091607
 30
0.0
 11
176.1784931558
 21
138.8211091607
 31
0.0
  0
LINE
  5
1EA
330
1DC
100
AcDbEntity
  8
SLD-0
 62
     7
100
AcDbLine
 10
158.5239797041
 20
153.8211091607
 30
0.0
 11
176.1784931558
 21
153.8211091607
 31
0.0
  0
LINE
  5
1EB
330
1DC
100
AcDbEntity
  8
SLD-0
 62
     7
100
AcDbLine
 10
175.1784931558
 20
138.8211091607
 30
0.0
 11
175.1784931558
 21
153.8211091607
 31
0.0
  0
LINE
  5
1EC
330
1DC
100
AcDbEntity
  8
SLD-0
 62
     7
100
AcDbLine
 10
175.9823401558
 20
141.8211091607
 30
0.0
 11
175.1784931558
 21
138.8211091607
 31
0.0
  0
LINE
  5
1ED
330
1DC
100
AcDbEntity
  8
SLD-0
 62
     7
100
AcDbLine
 10
175.1784931558
 20
138.8211091607
 30
0.0
 11
174.3746461558
 21
141.8211091607
 31
0.0
  0
LINE
  5
1EE
330
1DC
100
AcDbEntity
  8
SLD-0
 62
     7
100
AcDbLine
 10
175.1784931558
 20
138.8211091607
 30
0.0
 11
175.1784931558
 21
141.8211091607
 31
0.0
  0
LINE
  5
1EF
330
1DC
100
AcDbEntity
  8
SLD-0
 62
     7
100
AcDbLine
 10
174.3746461558
 20
150.8211091607
 30
0.0
 11
175.1784931558
 21
153.8211091607
 31
0.0
  0
LINE
  5
1F0
330
1DC
100
AcDbEntity
  8
SLD-0
 62
     7
100
AcDbLine
 10
175.1784931558
 20
153.8211091607
 30
0.0
 11
175.9823401558
 21
150.8211091607
 31
0.0
  0
LINE
  5
1F1
330
1DC
100
AcDbEntity
  8
SLD-0
 62
     7
100
AcDbLine
 10
175.1784931558
 20
153.8211091607
 30
0.0
 11
175.1784931558
 21
150.8211091607
 31
0.0
  0
MTEXT
  5
1F2
330
1DC
100
AcDbEntity
  8
SLD-0
 62
     7
100
AcDbMText
 10
170.6517994599
 20
144.2856739376
 30
0.1
 40
3.5
 41
0.0
 71
     1
 72
     1
  1
15
  7
SLDTEXTSTYLE0
 11
6.123031769111886E-17
 21
1.0
 31
0.0
 73
     1
 44
1.0
  0
ENDBLK
  5
1E8
330
1DC
100
AcDbEntity
  8
0
100
AcDbBlockEnd
  0
BLOCK
  5
1FF
330
1F4
100
AcDbEntity
  8
0
100
AcDbBlockBegin
  2
*D21
 70
     1
 71
     0
 10
0.0
 20
0.0
 30
0.0
  3
*D21
  1

  0
LINE
  5
201
330
1F4
100
AcDbEntity
  8
SLD-0
 62
     7
100
AcDbLine
 10
148.2739797041
 20
124.4211091607
 30
0.0
 11
176.1784931558
 21
124.4211091607
 31
0.0
  0
LINE
  5
202
330
1F4
100
AcDbEntity
  8
SLD-0
 62
     7
100
AcDbLine
 10
154.7739797041
 20
138.8211091607
 30
0.0
 11
176.1784931558
 21
138.8211091607
 31
0.0
  0
LINE
  5
203
330
1F4
100
AcDbEntity
  8
SLD-0
 62
     7
100
AcDbLine
 10
175.1784931558
 20
124.4211091607
 30
0.0
 11
175.1784931558
 21
119.4211091607
 31
0.0
  0
LINE
  5
204
330
1F4
100
AcDbEntity
  8
SLD-0
 62
     7
100
AcDbLine
 10
175.1784931558
 20
124.4211091607
 30
0.0
 11
175.1784931558
 21
138.8211091607
 31
0.0
  0
LINE
  5
205
330
1F4
100
AcDbEntity
  8
SLD-0
 62
     7
100
AcDbLine
 10
175.1784931558
 20
138.8211091607
 30
0.0
 11
175.1784931558
 21
143.8211091607
 31
0.0
  0
LINE
  5
206
330
1F4
100
AcDbEntity
  8
SLD-0
 62
     7
100
AcDbLine
 10
174.3746461558
 20
121.4211091607
 30
0.0
 11
175.1784931558
 21
124.4211091607
 31
0.0
  0
LINE
  5
207
330
1F4
100
AcDbEntity
  8
SLD-0
 62
     7
100
AcDbLine
 10
175.1784931558
 20
124.4211091607
 30
0.0
 11
175.9823401558
 21
121.4211091607
 31
0.0
  0
LINE
  5
208
330
1F4
100
AcDbEntity
  8
SLD-0
 62
     7
100
AcDbLine
 10
175.1784931558
 20
124.4211091607
 30
0.0
 11
175.1784931558
 21
121.4211091607
 31
0.0
  0
LINE
  5
209
330
1F4
100
AcDbEntity
  8
SLD-0
 62
     7
100
AcDbLine
 10
175.9823401558
 20
141.8211091607
 30
0.0
 11
175.1784931558
 21
138.8211091607
 31
0.0
  0
LINE
  5
20A
330
1F4
100
AcDbEntity
  8
SLD-0
 62
     7
100
AcDbLine
 10
175.1784931558
 20
138.8211091607
 30
0.0
 11
174.3746461558
 21
141.8211091607
 31
0.0
  0
LINE
  5
20B
330
1F4
100
AcDbEntity
  8
SLD-0
 62
     7
100
AcDbLine
 10
175.1784931558
 20
138.8211091607
 30
0.0
 11
175.1784931558
 21
141.8211091607
 31
0.0
  0
MTEXT
  5
20C
330
1F4
100
AcDbEntity
  8
SLD-0
 62
     7
100
AcDbMText
 10
170.6517994599
 20
127.5484115733
 30
0.1
 40
3.5
 41
0.0
 71
     1
 72
     1
  1
14.4
  7
SLDTEXTSTYLE0
 11
6.123031769111886E-17
 21
1.0
 31
0.0
 73
     1
 44
1.0
  0
ENDBLK
  5
200
330
1F4
100
AcDbEntity
  8
0
100
AcDbBlockEnd
  0
BLOCK
  5
215
330
20E
100
AcDbEntity
  8
0
100
AcDbBlockBegin
  2
*D22
 70
     1
 71
     0
 10
0.0
 20
0.0
 30
0.0
  3
*D22
  1

  0
LINE
  5
218
330
20E
100
AcDbEntity
  8
SLD-0
 62
     7
100
AcDbLine
 10
140.3131648394
 20
121.4050807518
 30
0.0
 11
132.661045435
 21
102.3443554625
 31
0.0
  0
LINE
  5
219
330
20E
100
AcDbEntity
  8
SLD-0
 62
     7
100
AcDbLine
 10
132.661045435
 20
102.3443554625
 30
0.0
 11
113.6431903083
 21
102.3443554625
 31
0.0
  0
LINE
  5
21A
330
20E
100
AcDbEntity
  8
SLD-0
 62
     7
100
AcDbLine
 10
138.4495125371
 20
118.9205344963
 30
0.0
 11
140.3131648394
 21
121.4050807518
 31
0.0
  0
LINE
  5
21B
330
20E
100
AcDbEntity
  8
SLD-0
 62
     7
100
AcDbLine
 10
140.3131648394
 20
121.4050807518
 30
0.0
 11
139.9414666223
 21
118.32157456
 31
0.0
  0
LINE
  5
21C
330
20E
100
AcDbEntity
  8
SLD-0
 62
     7
100
AcDbLine
 10
140.3131648394
 20
121.4050807518
 30
0.0
 11
139.1954895797
 21
118.6210545282
 31
0.0
  0
MTEXT
  5
21D
330
20E
100
AcDbEntity
  8
SLD-0
 62
     7
100
AcDbMText
 10
115.3330102118
 20
110.9419196048
 30
0.1
 40
3.5
 41
0.0
 71
     1
 72
     1
  1
2-
  7
SLDTEXTSTYLE0
 73
     1
 44
1.0
  0
MTEXT
  5
21E
330
20E
100
AcDbEntity
  8
SLD-0
 62
     7
100
AcDbMText
 10
117.6566212068
 20
110.941919372
 30
0.1
 40
3.5
 41
0.0
 71
     1
 72
     1
  1
%%c
  7
SLDTEXTSTYLE0
 73
     1
 44
1.0
  0
MTEXT
  5
21F
330
20E
100
AcDbEntity
  8
SLD-0
 62
     7
100
AcDbMText
 10
123.2737655797
 20
110.9419196048
 30
0.1
 40
3.5
 41
0.0
 71
     1
 72
     1
  1
6.5
  7
SLDTEXTSTYLE0
 73
     1
 44
1.0
  0
MTEXT
  5
220
330
20E
100
AcDbEntity
  8
SLD-0
 62
     7
100
AcDbMText
 10
115.6275653083
 20
106.8710491585
 30
0.1
 40
3.5
 41
0.0
 71
     1
 72
     1
  1
（両側)
  7
SLDTEXTSTYLE0
 73
     1
 44
1.0
  0
ENDBLK
  5
216
330
20E
100
AcDbEntity
  8
0
100
AcDbBlockEnd
  0
BLOCK
  5
22D
330
222
100
AcDbEntity
  8
0
100
AcDbBlockBegin
  2
*D23
 70
     1
 71
     0
 10
0.0
 20
0.0
 30
0.0
  3
*D23
  1

  0
LINE
  5
22F
330
222
100
AcDbEntity
  8
SLD-0
 62
     7
100
AcDbLine
 10
148.5239797041
 20
117.8211091607
 30
0.0
 11
184.0925227369
 21
117.8211091607
 31
0.0
  0
LINE
  5
230
330
222
100
AcDbEntity
  8
SLD-0
 62
     7
100
AcDbLine
 10
158.5239797041
 20
153.8211091607
 30
0.0
 11
184.0925227369
 21
153.8211091607
 31
0.0
  0
LINE
  5
231
330
222
100
AcDbEntity
  8
SLD-0
 62
     7
100
AcDbLine
 10
183.0925227369
 20
117.8211091607
 30
0.0
 11
183.0925227369
 21
153.8211091607
 31
0.0
  0
LINE
  5
232
330
222
100
AcDbEntity
  8
SLD-0
 62
     7
100
AcDbLine
 10
183.8963697369
 20
120.8211091607
 30
0.0
 11
183.0925227369
 21
117.8211091607
 31
0.0
  0
LINE
  5
233
330
222
100
AcDbEntity
  8
SLD-0
 62
     7
100
AcDbLine
 10
183.0925227369
 20
117.8211091607
 30
0.0
 11
182.2886757369
 21
120.8211091607
 31
0.0
  0
LINE
  5
234
330
222
100
AcDbEntity
  8
SLD-0
 62
     7
100
AcDbLine
 10
183.0925227369
 20
117.8211091607
 30
0.0
 11
183.0925227369
 21
120.8211091607
 31
0.0
  0
LINE
  5
235
330
222
100
AcDbEntity
  8
SLD-0
 62
     7
100
AcDbLine
 10
182.2886757369
 20
150.8211091607
 30
0.0
 11
183.0925227369
 21
153.8211091607
 31
0.0
  0
LINE
  5
236
330
222
100
AcDbEntity
  8
SLD-0
 62
     7
100
AcDbLine
 10
183.0925227369
 20
153.8211091607
 30
0.0
 11
183.8963697369
 21
150.8211091607
 31
0.0
  0
LINE
  5
237
330
222
100
AcDbEntity
  8
SLD-0
 62
     7
100
AcDbLine
 10
183.0925227369
 20
153.8211091607
 30
0.0
 11
183.0925227369
 21
150.8211091607
 31
0.0
  0
MTEXT
  5
238
330
222
100
AcDbEntity
  8
SLD-0
 62
     7
100
AcDbMText
 10
178.565829041
 20
133.7856739376
 30
0.1
 40
3.5
 41
0.0
 71
     1
 72
     1
  1
36
  7
SLDTEXTSTYLE0
 11
6.123031769111886E-17
 21
1.0
 31
0.0
 73
     1
 44
1.0
  0
ENDBLK
  5
22E
330
222
100
AcDbEntity
  8
0
100
AcDbBlockEnd
  0
BLOCK
  5
244
330
23A
100
AcDbEntity
  8
0
100
AcDbBlockBegin
  2
*D24
 70
     1
 71
     0
 10
0.0
 20
0.0
 30
0.0
  3
*D24
  1

  0
LINE
  5
246
330
23A
100
AcDbEntity
  8
SLD-0
 62
     7
100
AcDbLine
 10
157.5239797041
 20
154.8211091607
 30
0.0
 11
157.5239797041
 21
163.2186586568
 31
0.0
  0
LINE
  5
247
330
23A
100
AcDbEntity
  8
SLD-0
 62
     7
100
AcDbLine
 10
147.5239797041
 20
146.0711091607
 30
0.0
 11
147.5239797041
 21
163.2186586568
 31
0.0
  0
LINE
  5
248
330
23A
100
AcDbEntity
  8
SLD-0
 62
     7
100
AcDbLine
 10
157.5239797041
 20
162.2186586568
 30
0.0
 11
162.5239797041
 21
162.2186586568
 31
0.0
  0
LINE
  5
249
330
23A
100
AcDbEntity
  8
SLD-0
 62
     7
100
AcDbLine
 10
157.5239797041
 20
162.2186586568
 30
0.0
 11
147.5239797041
 21
162.2186586568
 31
0.0
  0
LINE
  5
24A
330
23A
100
AcDbEntity
  8
SLD-0
 62
     7
100
AcDbLine
 10
147.5239797041
 20
162.2186586568
 30
0.0
 11
142.5239797041
 21
162.2186586568
 31
0.0
  0
LINE
  5
24B
330
23A
100
AcDbEntity
  8
SLD-0
 62
     7
100
AcDbLine
 10
160.5239797041
 20
161.4148116568
 30
0.0
 11
157.5239797041
 21
162.2186586568
 31
0.0
  0
LINE
  5
24C
330
23A
100
AcDbEntity
  8
SLD-0
 62
     7
100
AcDbLine
 10
157.5239797041
 20
162.2186586568
 30
0.0
 11
160.5239797041
 21
163.0225056568
 31
0.0
  0
LINE
  5
24D
330
23A
100
AcDbEntity
  8
SLD-0
 62
     7
100
AcDbLine
 10
157.5239797041
 20
162.2186586568
 30
0.0
 11
160.5239797041
 21
162.2186586568
 31
0.0
  0
LINE
  5
24E
330
23A
100
AcDbEntity
  8
SLD-0
 62
     7
100
AcDbLine
 10
144.5239797041
 20
163.0225056568
 30
0.0
 11
147.5239797041
 21
162.2186586568
 31
0.0
  0
LINE
  5
24F
330
23A
100
AcDbEntity
  8
SLD-0
 62
     7
100
AcDbLine
 10
147.5239797041
 20
162.2186586568
 30
0.0
 11
144.5239797041
 21
161.4148116568
 31
0.0
  0
LINE
  5
250
330
23A
100
AcDbEntity
  8
SLD-0
 62
     7
100
AcDbLine
 10
147.5239797041
 20
162.2186586568
 30
0.0
 11
144.5239797041
 21
162.2186586568
 31
0.0
  0
MTEXT
  5
251
330
23A
100
AcDbEntity
  8
SLD-0
 62
     7
100
AcDbMText
 10
150.4885444809
 20
166.7453523528
 30
0.1
 40
3.5
 41
0.0
 71
     1
 72
     1
  1
10
  7
SLDTEXTSTYLE0
 73
     1
 44
1.0
  0
ENDBLK
  5
245
330
23A
100
AcDbEntity
  8
0
100
AcDbBlockEnd
  0
BLOCK
  5
25D
330
253
100
AcDbEntity
  8
0
100
AcDbBlockBegin
  2
*D25
 70
     1
 71
     0
 10
0.0
 20
0.0
 30
0.0
  3
*D25
  1

  0
LINE
  5
25F
330
253
100
AcDbEntity
  8
SLD-0
 62
     7
100
AcDbLine
 10
157.5239797041
 20
146.8211091607
 30
0.0
 11
157.5239797041
 21
107.4358934313
 31
0.0
  0
LINE
  5
260
330
253
100
AcDbEntity
  8
SLD-0
 62
     7
100
AcDbLine
 10
141.5239797041
 20
117.6711091607
 30
0.0
 11
141.5239797041
 21
107.4358934313
 31
0.0
  0
LINE
  5
261
330
253
100
AcDbEntity
  8
SLD-0
 62
     7
100
AcDbLine
 10
157.5239797041
 20
108.4358934313
 30
0.0
 11
141.5239797041
 21
108.4358934313
 31
0.0
  0
LINE
  5
262
330
253
100
AcDbEntity
  8
SLD-0
 62
     7
100
AcDbLine
 10
154.5239797041
 20
109.2397404313
 30
0.0
 11
157.5239797041
 21
108.4358934313
 31
0.0
  0
LINE
  5
263
330
253
100
AcDbEntity
  8
SLD-0
 62
     7
100
AcDbLine
 10
157.5239797041
 20
108.4358934313
 30
0.0
 11
154.5239797041
 21
107.6320464313
 31
0.0
  0
LINE
  5
264
330
253
100
AcDbEntity
  8
SLD-0
 62
     7
100
AcDbLine
 10
157.5239797041
 20
108.4358934313
 30
0.0
 11
154.5239797041
 21
108.4358934313
 31
0.0
  0
LINE
  5
265
330
253
100
AcDbEntity
  8
SLD-0
 62
     7
100
AcDbLine
 10
144.5239797041
 20
107.6320464313
 30
0.0
 11
141.5239797041
 21
108.4358934313
 31
0.0
  0
LINE
  5
266
330
253
100
AcDbEntity
  8
SLD-0
 62
     7
100
AcDbLine
 10
141.5239797041
 20
108.4358934313
 30
0.0
 11
144.5239797041
 21
109.2397404313
 31
0.0
  0
LINE
  5
267
330
253
100
AcDbEntity
  8
SLD-0
 62
     7
100
AcDbLine
 10
141.5239797041
 20
108.4358934313
 30
0.0
 11
144.5239797041
 21
108.4358934313
 31
0.0
  0
MTEXT
  5
268
330
253
100
AcDbEntity
  8
SLD-0
 62
     7
100
AcDbMText
 10
147.4885444809
 20
112.9625871273
 30
0.1
 40
3.5
 41
0.0
 71
     1
 72
     1
  1
16
  7
SLDTEXTSTYLE0
 73
     1
 44
1.0
  0
ENDBLK
  5
25E
330
253
100
AcDbEntity
  8
0
100
AcDbBlockEnd
  0
BLOCK
  5
271
330
26A
100
AcDbEntity
  8
0
100
AcDbBlockBegin
  2
*D26
 70
     1
 71
     0
 10
0.0
 20
0.0
 30
0.0
  3
*D26
  1

  0
LINE
  5
274
330
26A
100
AcDbEntity
  8
SLD-0
 62
     7
100
AcDbLine
 10
127.2792041871
 20
122.1621625561
 30
0.0
 11
113.9420944447
 21
113.0080028416
 31
0.0
  0
LINE
  5
275
330
26A
100
AcDbEntity
  8
SLD-0
 62
     7
100
AcDbLine
 10
124.3508788069
 20
121.1272323812
 30
0.0
 11
127.2792041871
 21
122.1621625561
 31
0.0
  0
LINE
  5
276
330
26A
100
AcDbEntity
  8
SLD-0
 62
     7
100
AcDbLine
 10
127.2792041871
 20
122.1621625561
 30
0.0
 11
125.2606642571
 21
119.8017247682
 31
0.0
  0
LINE
  5
277
330
26A
100
AcDbEntity
  8
SLD-0
 62
     7
100
AcDbLine
 10
127.2792041871
 20
122.1621625561
 30
0.0
 11
124.805771532
 21
120.4644785747
 31
0.0
  0
MTEXT
  5
278
330
26A
100
AcDbEntity
  8
SLD-0
 62
     7
100
AcDbMText
 10
112.6954799433
 20
117.6295443665
 30
0.1
 40
3.5
 41
0.0
 71
     1
 72
     1
  1
2x2-R
  7
SLDTEXTSTYLE0
 11
0.8244775516836603
 21
0.565894660488785
 31
0.0
 73
     1
 44
1.0
  0
ENDBLK
  5
272
330
26A
100
AcDbEntity
  8
0
100
AcDbBlockEnd
  0
BLOCK
  5
281
330
27A
100
AcDbEntity
  8
0
100
AcDbBlockBegin
  2
*D27
 70
     1
 71
     0
 10
0.0
 20
0.0
 30
0.0
  3
*D27
  1

  0
LINE
  5
283
330
27A
100
AcDbEntity
  8
SLD-0
 62
     7
100
AcDbLine
 10
132.3089959413
 20
140.7514923883
 30
0.0
 11
109.4151907388
 21
154.4976948077
 31
0.0
  0
LINE
  5
284
330
27A
100
AcDbEntity
  8
SLD-0
 62
     7
100
AcDbLine
 10
130.1508043355
 20
142.9849603177
 30
0.0
 11
132.3089959413
 21
140.7514923883
 31
0.0
  0
LINE
  5
285
330
27A
100
AcDbEntity
  8
SLD-0
 62
     7
100
AcDbLine
 10
132.3089959413
 20
140.7514923883
 30
0.0
 11
129.3232135267
 21
141.606637623
 31
0.0
  0
LINE
  5
286
330
27A
100
AcDbEntity
  8
SLD-0
 62
     7
100
AcDbLine
 10
132.3089959413
 20
140.7514923883
 30
0.0
 11
129.7370089311
 21
142.2957989703
 31
0.0
  0
MTEXT
  5
287
330
27A
100
AcDbEntity
  8
SLD-0
 62
     7
100
AcDbMText
 10
113.0745766405
 20
157.5083618984
 30
0.1
 40
3.5
 41
0.0
 71
     1
 72
     1
  1
2x2-R
  7
SLDTEXTSTYLE0
 11
0.8573290033926212
 21
-0.5147688606955697
 31
0.0
 73
     1
 44
1.0
  0
MTEXT
  5
288
330
27A
100
AcDbEntity
  8
SLD-0
 62
     7
100
AcDbMText
 10
110.9776085498
 20
154.0159370439
 30
0.1
 40
3.5
 41
0.0
 71
     1
 72
     1
  1
(両側)
  7
SLDTEXTSTYLE0
 11
0.8573290033926212
 21
-0.5147688606955697
 31
0.0
 73
     1
 44
1.0
  0
ENDBLK
  5
282
330
27A
100
AcDbEntity
  8
0
100
AcDbBlockEnd
  0
BLOCK
  5
294
330
28A
100
AcDbEntity
  8
0
100
AcDbBlockBegin
  2
*D28
 70
     1
 71
     0
 10
0.0
 20
0.0
 30
0.0
  3
*D28
  1

  0
LINE
  5
296
330
28A
100
AcDbEntity
  8
SLD-0
 62
     7
100
AcDbLine
 10
48.9970675434
 20
220.4849605648
 30
0.0
 11
48.9970675434
 21
242.6269688452
 31
0.0
  0
LINE
  5
297
330
28A
100
AcDbEntity
  8
SLD-0
 62
     7
100
AcDbLine
 10
96.9970675434
 20
220.4849605648
 30
0.0
 11
96.9970675434
 21
242.6269688452
 31
0.0
  0
LINE
  5
298
330
28A
100
AcDbEntity
  8
SLD-0
 62
     7
100
AcDbLine
 10
48.9970675434
 20
241.6269688452
 30
0.0
 11
96.9970675434
 21
241.6269688452
 31
0.0
  0
LINE
  5
299
330
28A
100
AcDbEntity
  8
SLD-0
 62
     7
100
AcDbLine
 10
51.9970675434
 20
240.8231218452
 30
0.0
 11
48.9970675434
 21
241.6269688452
 31
0.0
  0
LINE
  5
29A
330
28A
100
AcDbEntity
  8
SLD-0
 62
     7
100
AcDbLine
 10
48.9970675434
 20
241.6269688452
 30
0.0
 11
51.9970675434
 21
242.4308158452
 31
0.0
  0
LINE
  5
29B
330
28A
100
AcDbEntity
  8
SLD-0
 62
     7
100
AcDbLine
 10
48.9970675434
 20
241.6269688452
 30
0.0
 11
51.9970675434
 21
241.6269688452
 31
0.0
  0
LINE
  5
29C
330
28A
100
AcDbEntity
  8
SLD-0
 62
     7
100
AcDbLine
 10
93.9970675434
 20
242.4308158452
 30
0.0
 11
96.9970675434
 21
241.6269688452
 31
0.0
  0
LINE
  5
29D
330
28A
100
AcDbEntity
  8
SLD-0
 62
     7
100
AcDbLine
 10
96.9970675434
 20
241.6269688452
 30
0.0
 11
93.9970675434
 21
240.8231218452
 31
0.0
  0
LINE
  5
29E
330
28A
100
AcDbEntity
  8
SLD-0
 62
     7
100
AcDbLine
 10
96.9970675434
 20
241.6269688452
 30
0.0
 11
93.9970675434
 21
241.6269688452
 31
0.0
  0
MTEXT
  5
29F
330
28A
100
AcDbEntity
  8
SLD-0
 62
     7
100
AcDbMText
 10
70.9616323202
 20
246.1536625412
 30
0.1
 40
3.5
 41
0.0
 71
     1
 72
     1
  1
48
  7
SLDTEXTSTYLE0
 73
     1
 44
1.0
  0
ENDBLK
  5
295
330
28A
100
AcDbEntity
  8
0
100
AcDbBlockEnd
  0
BLOCK
  5
2AC
330
2A1
100
AcDbEntity
  8
0
100
AcDbBlockBegin
  2
*D29
 70
     1
 71
     0
 10
0.0
 20
0.0
 30
0.0
  3
*D29
  1

  0
LINE
  5
2AE
330
2A1
100
AcDbEntity
  8
SLD-0
 62
     7
100
AcDbLine
 10
97.9970675434
 20
219.4849605648
 30
0.0
 11
118.7431363865
 21
219.4849605648
 31
0.0
  0
LINE
  5
2AF
330
2A1
100
AcDbEntity
  8
SLD-0
 62
     7
100
AcDbLine
 10
97.9970675434
 20
187.4849605648
 30
0.0
 11
118.7431363865
 21
187.4849605648
 31
0.0
  0
LINE
  5
2B0
330
2A1
100
AcDbEntity
  8
SLD-0
 62
     7
100
AcDbLine
 10
117.7431363865
 20
219.4849605648
 30
0.0
 11
117.7431363865
 21
187.4849605648
 31
0.0
  0
LINE
  5
2B1
330
2A1
100
AcDbEntity
  8
SLD-0
 62
     7
100
AcDbLine
 10
116.9392893865
 20
216.4849605648
 30
0.0
 11
117.7431363865
 21
219.4849605648
 31
0.0
  0
LINE
  5
2B2
330
2A1
100
AcDbEntity
  8
SLD-0
 62
     7
100
AcDbLine
 10
117.7431363865
 20
219.4849605648
 30
0.0
 11
118.5469833865
 21
216.4849605648
 31
0.0
  0
LINE
  5
2B3
330
2A1
100
AcDbEntity
  8
SLD-0
 62
     7
100
AcDbLine
 10
117.7431363865
 20
219.4849605648
 30
0.0
 11
117.7431363865
 21
216.4849605648
 31
0.0
  0
LINE
  5
2B4
330
2A1
100
AcDbEntity
  8
SLD-0
 62
     7
100
AcDbLine
 10
118.5469833865
 20
190.4849605648
 30
0.0
 11
117.7431363865
 21
187.4849605648
 31
0.0
  0
LINE
  5
2B5
330
2A1
100
AcDbEntity
  8
SLD-0
 62
     7
100
AcDbLine
 10
117.7431363865
 20
187.4849605648
 30
0.0
 11
116.9392893865
 21
190.4849605648
 31
0.0
  0
LINE
  5
2B6
330
2A1
100
AcDbEntity
  8
SLD-0
 62
     7
100
AcDbLine
 10
117.7431363865
 20
187.4849605648
 30
0.0
 11
117.7431363865
 21
190.4849605648
 31
0.0
  0
MTEXT
  5
2B7
330
2A1
100
AcDbEntity
  8
SLD-0
 62
     7
100
AcDbMText
 10
113.2164426905
 20
201.4495253416
 30
0.1
 40
3.5
 41
0.0
 71
     1
 72
     1
  1
32
  7
SLDTEXTSTYLE0
 11
6.123031769111886E-17
 21
1.0
 31
0.0
 73
     1
 44
1.0
  0
ENDBLK
  5
2AD
330
2A1
100
AcDbEntity
  8
0
100
AcDbBlockEnd
  0
BLOCK
  5
2C3
330
2B9
100
AcDbEntity
  8
0
100
AcDbBlockBegin
  2
*D30
 70
     1
 71
     0
 10
0.0
 20
0.0
 30
0.0
  3
*D30
  1

  0
LINE
  5
2C5
330
2B9
100
AcDbEntity
  8
SLD-0
 62
     7
100
AcDbLine
 10
53.9970675434
 20
197.2349605648
 30
0.0
 11
53.9970675434
 21
234.1084225511
 31
0.0
  0
LINE
  5
2C6
330
2B9
100
AcDbEntity
  8
SLD-0
 62
     7
100
AcDbLine
 10
91.9970675434
 20
197.2349605648
 30
0.0
 11
91.9970675434
 21
234.1084225511
 31
0.0
  0
LINE
  5
2C7
330
2B9
100
AcDbEntity
  8
SLD-0
 62
     7
100
AcDbLine
 10
53.9970675434
 20
233.1084225511
 30
0.0
 11
91.9970675434
 21
233.1084225511
 31
0.0
  0
LINE
  5
2C8
330
2B9
100
AcDbEntity
  8
SLD-0
 62
     7
100
AcDbLine
 10
56.9970675434
 20
232.3045755511
 30
0.0
 11
53.9970675434
 21
233.1084225511
 31
0.0
  0
LINE
  5
2C9
330
2B9
100
AcDbEntity
  8
SLD-0
 62
     7
100
AcDbLine
 10
53.9970675434
 20
233.1084225511
 30
0.0
 11
56.9970675434
 21
233.9122695511
 31
0.0
  0
LINE
  5
2CA
330
2B9
100
AcDbEntity
  8
SLD-0
 62
     7
100
AcDbLine
 10
53.9970675434
 20
233.1084225511
 30
0.0
 11
56.9970675434
 21
233.1084225511
 31
0.0
  0
LINE
  5
2CB
330
2B9
100
AcDbEntity
  8
SLD-0
 62
     7
100
AcDbLine
 10
88.9970675434
 20
233.9122695511
 30
0.0
 11
91.9970675434
 21
233.1084225511
 31
0.0
  0
LINE
  5
2CC
330
2B9
100
AcDbEntity
  8
SLD-0
 62
     7
100
AcDbLine
 10
91.9970675434
 20
233.1084225511
 30
0.0
 11
88.9970675434
 21
232.3045755511
 31
0.0
  0
LINE
  5
2CD
330
2B9
100
AcDbEntity
  8
SLD-0
 62
     7
100
AcDbLine
 10
91.9970675434
 20
233.1084225511
 30
0.0
 11
88.9970675434
 21
233.1084225511
 31
0.0
  0
MTEXT
  5
2CE
330
2B9
100
AcDbEntity
  8
SLD-0
 62
     7
100
AcDbMText
 10
70.9616323202
 20
237.635116247
 30
0.1
 40
3.5
 41
0.0
 71
     1
 72
     1
  1
38
  7
SLDTEXTSTYLE0
 73
     1
 44
1.0
  0
ENDBLK
  5
2C4
330
2B9
100
AcDbEntity
  8
0
100
AcDbBlockEnd
  0
BLOCK
  5
2DA
330
2D0
100
AcDbEntity
  8
0
100
AcDbBlockBegin
  2
*D31
 70
     1
 71
     0
 10
0.0
 20
0.0
 30
0.0
  3
*D31
  1

  0
LINE
  5
2DC
330
2D0
100
AcDbEntity
  8
SLD-0
 62
     7
100
AcDbLine
 10
82.9970675434
 20
197.4849605648
 30
0.0
 11
82.9970675434
 21
174.3486053748
 31
0.0
  0
LINE
  5
2DD
330
2D0
100
AcDbEntity
  8
SLD-0
 62
     7
100
AcDbLine
 10
62.9970675434
 20
197.4849605648
 30
0.0
 11
62.9970675434
 21
174.3486053748
 31
0.0
  0
LINE
  5
2DE
330
2D0
100
AcDbEntity
  8
SLD-0
 62
     7
100
AcDbLine
 10
82.9970675434
 20
175.3486053748
 30
0.0
 11
62.9970675434
 21
175.3486053748
 31
0.0
  0
LINE
  5
2DF
330
2D0
100
AcDbEntity
  8
SLD-0
 62
     7
100
AcDbLine
 10
79.9970675434
 20
176.1524523748
 30
0.0
 11
82.9970675434
 21
175.3486053748
 31
0.0
  0
LINE
  5
2E0
330
2D0
100
AcDbEntity
  8
SLD-0
 62
     7
100
AcDbLine
 10
82.9970675434
 20
175.3486053748
 30
0.0
 11
79.9970675434
 21
174.5447583748
 31
0.0
  0
LINE
  5
2E1
330
2D0
100
AcDbEntity
  8
SLD-0
 62
     7
100
AcDbLine
 10
82.9970675434
 20
175.3486053748
 30
0.0
 11
79.9970675434
 21
175.3486053748
 31
0.0
  0
LINE
  5
2E2
330
2D0
100
AcDbEntity
  8
SLD-0
 62
     7
100
AcDbLine
 10
65.9970675434
 20
174.5447583748
 30
0.0
 11
62.9970675434
 21
175.3486053748
 31
0.0
  0
LINE
  5
2E3
330
2D0
100
AcDbEntity
  8
SLD-0
 62
     7
100
AcDbLine
 10
62.9970675434
 20
175.3486053748
 30
0.0
 11
65.9970675434
 21
176.1524523748
 31
0.0
  0
LINE
  5
2E4
330
2D0
100
AcDbEntity
  8
SLD-0
 62
     7
100
AcDbLine
 10
62.9970675434
 20
175.3486053748
 30
0.0
 11
65.9970675434
 21
175.3486053748
 31
0.0
  0
MTEXT
  5
2E5
330
2D0
100
AcDbEntity
  8
SLD-0
 62
     7
100
AcDbMText
 10
70.9616323202
 20
179.8752990707
 30
0.1
 40
3.5
 41
0.0
 71
     1
 72
     1
  1
20
  7
SLDTEXTSTYLE0
 73
     1
 44
1.0
  0
ENDBLK
  5
2DB
330
2D0
100
AcDbEntity
  8
0
100
AcDbBlockEnd
  0
BLOCK
  5
2F1
330
2E7
100
AcDbEntity
  8
0
100
AcDbBlockBegin
  2
*D32
 70
     1
 71
     0
 10
0.0
 20
0.0
 30
0.0
  3
*D32
  1

  0
LINE
  5
2F3
330
2E7
100
AcDbEntity
  8
SLD-0
 62
     7
100
AcDbLine
 10
96.9970675434
 20
186.4849605648
 30
0.0
 11
96.9970675434
 21
174.3486053748
 31
0.0
  0
LINE
  5
2F4
330
2E7
100
AcDbEntity
  8
SLD-0
 62
     7
100
AcDbLine
 10
82.9970675434
 20
198.7349605648
 30
0.0
 11
82.9970675434
 21
174.3486053748
 31
0.0
  0
LINE
  5
2F5
330
2E7
100
AcDbEntity
  8
SLD-0
 62
     7
100
AcDbLine
 10
96.9970675434
 20
175.3486053748
 30
0.0
 11
101.9970675434
 21
175.3486053748
 31
0.0
  0
LINE
  5
2F6
330
2E7
100
AcDbEntity
  8
SLD-0
 62
     7
100
AcDbLine
 10
96.9970675434
 20
175.3486053748
 30
0.0
 11
82.9970675434
 21
175.3486053748
 31
0.0
  0
LINE
  5
2F7
330
2E7
100
AcDbEntity
  8
SLD-0
 62
     7
100
AcDbLine
 10
82.9970675434
 20
175.3486053748
 30
0.0
 11
77.9970675434
 21
175.3486053748
 31
0.0
  0
LINE
  5
2F8
330
2E7
100
AcDbEntity
  8
SLD-0
 62
     7
100
AcDbLine
 10
99.9970675434
 20
174.5447583748
 30
0.0
 11
96.9970675434
 21
175.3486053748
 31
0.0
  0
LINE
  5
2F9
330
2E7
100
AcDbEntity
  8
SLD-0
 62
     7
100
AcDbLine
 10
96.9970675434
 20
175.3486053748
 30
0.0
 11
99.9970675434
 21
176.1524523748
 31
0.0
  0
LINE
  5
2FA
330
2E7
100
AcDbEntity
  8
SLD-0
 62
     7
100
AcDbLine
 10
96.9970675434
 20
175.3486053748
 30
0.0
 11
99.9970675434
 21
175.3486053748
 31
0.0
  0
LINE
  5
2FB
330
2E7
100
AcDbEntity
  8
SLD-0
 62
     7
100
AcDbLine
 10
79.9970675434
 20
176.1524523748
 30
0.0
 11
82.9970675434
 21
175.3486053748
 31
0.0
  0
LINE
  5
2FC
330
2E7
100
AcDbEntity
  8
SLD-0
 62
     7
100
AcDbLine
 10
82.9970675434
 20
175.3486053748
 30
0.0
 11
79.9970675434
 21
174.5447583748
 31
0.0
  0
LINE
  5
2FD
330
2E7
100
AcDbEntity
  8
SLD-0
 62
     7
100
AcDbLine
 10
82.9970675434
 20
175.3486053748
 30
0.0
 11
79.9970675434
 21
175.3486053748
 31
0.0
  0
MTEXT
  5
2FE
330
2E7
100
AcDbEntity
  8
SLD-0
 62
     7
100
AcDbMText
 10
87.9616323202
 20
179.8752990707
 30
0.1
 40
3.5
 41
0.0
 71
     1
 72
     1
  1
14
  7
SLDTEXTSTYLE0
 73
     1
 44
1.0
  0
ENDBLK
  5
2F2
330
2E7
100
AcDbEntity
  8
0
100
AcDbBlockEnd
  0
BLOCK
  5
30D
330
300
100
AcDbEntity
  8
0
100
AcDbBlockBegin
  2
*D33
 70
     1
 71
     0
 10
0.0
 20
0.0
 30
0.0
  3
*D33
  1

  0
LINE
  5
30F
330
300
100
AcDbEntity
  8
SLD-0
 62
     7
100
AcDbLine
 10
96.9970675434
 20
220.4849605648
 30
0.0
 11
96.9970675434
 21
234.1084225511
 31
0.0
  0
LINE
  5
310
330
300
100
AcDbEntity
  8
SLD-0
 62
     7
100
AcDbLine
 10
91.9970675434
 20
208.6349605648
 30
0.0
 11
91.9970675434
 21
234.1084225511
 31
0.0
  0
LINE
  5
311
330
300
100
AcDbEntity
  8
SLD-0
 62
     7
100
AcDbLine
 10
96.9970675434
 20
233.1084225511
 30
0.0
 11
107.0906732042
 21
233.1084225511
 31
0.0
  0
LINE
  5
312
330
300
100
AcDbEntity
  8
SLD-0
 62
     7
100
AcDbLine
 10
96.9970675434
 20
233.1084225511
 30
0.0
 11
91.9970675434
 21
233.1084225511
 31
0.0
  0
LINE
  5
313
330
300
100
AcDbEntity
  8
SLD-0
 62
     7
100
AcDbLine
 10
91.9970675434
 20
233.1084225511
 30
0.0
 11
86.9970675434
 21
233.1084225511
 31
0.0
  0
LINE
  5
314
330
300
100
AcDbEntity
  8
SLD-0
 62
     7
100
AcDbLine
 10
99.9970675434
 20
232.3045755511
 30
0.0
 11
96.9970675434
 21
233.1084225511
 31
0.0
  0
LINE
  5
315
330
300
100
AcDbEntity
  8
SLD-0
 62
     7
100
AcDbLine
 10
96.9970675434
 20
233.1084225511
 30
0.0
 11
99.9970675434
 21
233.9122695511
 31
0.0
  0
LINE
  5
316
330
300
100
AcDbEntity
  8
SLD-0
 62
     7
100
AcDbLine
 10
96.9970675434
 20
233.1084225511
 30
0.0
 11
99.9970675434
 21
233.1084225511
 31
0.0
  0
LINE
  5
317
330
300
100
AcDbEntity
  8
SLD-0
 62
     7
100
AcDbLine
 10
88.9970675434
 20
233.9122695511
 30
0.0
 11
91.9970675434
 21
233.1084225511
 31
0.0
  0
LINE
  5
318
330
300
100
AcDbEntity
  8
SLD-0
 62
     7
100
AcDbLine
 10
91.9970675434
 20
233.1084225511
 30
0.0
 11
88.9970675434
 21
232.3045755511
 31
0.0
  0
LINE
  5
319
330
300
100
AcDbEntity
  8
SLD-0
 62
     7
100
AcDbLine
 10
91.9970675434
 20
233.1084225511
 30
0.0
 11
88.9970675434
 21
233.1084225511
 31
0.0
  0
MTEXT
  5
31A
330
300
100
AcDbEntity
  8
SLD-0
 62
     7
100
AcDbMText
 10
103.467737981
 20
237.635116247
 30
0.1
 40
3.5
 41
0.0
 71
     1
 72
     1
  1
5
  7
SLDTEXTSTYLE0
 73
     1
 44
1.0
  0
ENDBLK
  5
30E
330
300
100
AcDbEntity
  8
0
100
AcDbBlockEnd
  0
BLOCK
  5
323
330
31C
100
AcDbEntity
  8
0
100
AcDbBlockBegin
  2
*D34
 70
     1
 71
     0
 10
0.0
 20
0.0
 30
0.0
  3
*D34
  1

  0
LINE
  5
326
330
31C
100
AcDbEntity
  8
SLD-0
 62
     7
100
AcDbLine
 10
62.1645190403
 20
204.7327037235
 30
0.0
 11
49.420002183
 21
223.8329527295
 31
0.0
  0
LINE
  5
327
330
31C
100
AcDbEntity
  8
SLD-0
 62
     7
100
AcDbLine
 10
48.5741329038
 20
225.1006597787
 30
0.0
 11
44.5891362106
 21
231.0729873279
 31
0.0
  0
LINE
  5
328
330
31C
100
AcDbEntity
  8
SLD-0
 62
     7
100
AcDbLine
 10
44.5891362106
 20
231.0729873279
 30
0.0
 11
31.6812410357
 21
231.0729873279
 31
0.0
  0
LINE
  5
329
330
31C
100
AcDbEntity
  8
SLD-0
 62
     7
100
AcDbLine
 10
61.1680850973
 20
207.6743511185
 30
0.0
 11
62.1645190403
 21
204.7327037235
 31
0.0
  0
LINE
  5
32A
330
31C
100
AcDbEntity
  8
SLD-0
 62
     7
100
AcDbLine
 10
62.1645190403
 20
204.7327037235
 30
0.0
 11
59.8307589708
 21
206.7820289631
 31
0.0
  0
LINE
  5
32B
330
31C
100
AcDbEntity
  8
SLD-0
 62
     7
100
AcDbLine
 10
62.1645190403
 20
204.7327037235
 30
0.0
 11
60.4994220341
 21
207.2281900408
 31
0.0
  0
MTEXT
  5
32C
330
31C
100
AcDbEntity
  8
SLD-0
 62
     7
100
AcDbMText
 10
33.2687410357
 20
235.5996810239
 30
0.1
 40
3.5
 41
0.0
 71
     1
 72
     1
  1
2-M3
  7
SLDTEXTSTYLE0
 73
     1
 44
1.0
  0
ENDBLK
  5
324
330
31C
100
AcDbEntity
  8
0
100
AcDbBlockEnd
  0
BLOCK
  5
335
330
32E
100
AcDbEntity
  8
0
100
AcDbBlockBegin
  2
*D35
 70
     1
 71
     0
 10
0.0
 20
0.0
 30
0.0
  3
*D35
  1

  0
LINE
  5
337
330
32E
100
AcDbEntity
  8
SLD-0
 62
     7
100
AcDbLine
 10
52.595185832
 20
204.9113993709
 30
0.0
 11
44.5891362106
 21
213.0576928641
 31
0.0
  0
LINE
  5
338
330
32E
100
AcDbEntity
  8
SLD-0
 62
     7
100
AcDbLine
 10
44.5891362106
 20
213.0576928641
 30
0.0
 11
31.6812410357
 21
213.0576928641
 31
0.0
  0
LINE
  5
339
330
32E
100
AcDbEntity
  8
SLD-0
 62
     7
100
AcDbLine
 10
51.0656825425
 20
207.614506784
 30
0.0
 11
52.595185832
 21
204.9113993709
 31
0.0
  0
LINE
  5
33A
330
32E
100
AcDbEntity
  8
SLD-0
 62
     7
100
AcDbLine
 10
52.595185832
 20
204.9113993709
 30
0.0
 11
49.9190439875
 21
206.487608376
 31
0.0
  0
LINE
  5
33B
330
32E
100
AcDbEntity
  8
SLD-0
 62
     7
100
AcDbLine
 10
52.595185832
 20
204.9113993709
 30
0.0
 11
50.492363265
 21
207.05105758
 31
0.0
  0
MTEXT
  5
33C
330
32E
100
AcDbEntity
  8
SLD-0
 62
     7
100
AcDbMText
 10
33.2687410357
 20
217.5843865601
 30
0.1
 40
3.5
 41
0.0
 71
     1
 72
     1
  1
2-M4
  7
SLDTEXTSTYLE0
 73
     1
 44
1.0
  0
ENDBLK
  5
336
330
32E
100
AcDbEntity
  8
0
100
AcDbBlockEnd
  0
BLOCK
  5
349
330
33E
100
AcDbEntity
  8
0
100
AcDbBlockBegin
  2
*D36
 70
     1
 71
     0
 10
0.0
 20
0.0
 30
0.0
  3
*D36
  1

  0
LINE
  5
34B
330
33E
100
AcDbEntity
  8
SLD-0
 62
     7
100
AcDbLine
 10
97.9970675434
 20
219.4849605648
 30
0.0
 11
110.1039568763
 21
219.4849605648
 31
0.0
  0
LINE
  5
34C
330
33E
100
AcDbEntity
  8
SLD-0
 62
     7
100
AcDbLine
 10
97.1470675434
 20
203.4849605648
 30
0.0
 11
110.1039568763
 21
203.4849605648
 31
0.0
  0
LINE
  5
34D
330
33E
100
AcDbEntity
  8
SLD-0
 62
     7
100
AcDbLine
 10
109.1039568763
 20
219.4849605648
 30
0.0
 11
109.1039568763
 21
203.4849605648
 31
0.0
  0
LINE
  5
34E
330
33E
100
AcDbEntity
  8
SLD-0
 62
     7
100
AcDbLine
 10
108.3001098763
 20
216.4849605648
 30
0.0
 11
109.1039568763
 21
219.4849605648
 31
0.0
  0
LINE
  5
34F
330
33E
100
AcDbEntity
  8
SLD-0
 62
     7
100
AcDbLine
 10
109.1039568763
 20
219.4849605648
 30
0.0
 11
109.9078038763
 21
216.4849605648
 31
0.0
  0
LINE
  5
350
330
33E
100
AcDbEntity
  8
SLD-0
 62
     7
100
AcDbLine
 10
109.1039568763
 20
219.4849605648
 30
0.0
 11
109.1039568763
 21
216.4849605648
 31
0.0
  0
LINE
  5
351
330
33E
100
AcDbEntity
  8
SLD-0
 62
     7
100
AcDbLine
 10
109.9078038763
 20
206.4849605648
 30
0.0
 11
109.1039568763
 21
203.4849605648
 31
0.0
  0
LINE
  5
352
330
33E
100
AcDbEntity
  8
SLD-0
 62
     7
100
AcDbLine
 10
109.1039568763
 20
203.4849605648
 30
0.0
 11
108.3001098763
 21
206.4849605648
 31
0.0
  0
LINE
  5
353
330
33E
100
AcDbEntity
  8
SLD-0
 62
     7
100
AcDbLine
 10
109.1039568763
 20
203.4849605648
 30
0.0
 11
109.1039568763
 21
206.4849605648
 31
0.0
  0
MTEXT
  5
354
330
33E
100
AcDbEntity
  8
SLD-0
 62
     7
100
AcDbMText
 10
104.5772631804
 20
209.4495253416
 30
0.1
 40
3.5
 41
0.0
 71
     1
 72
     1
  1
16
  7
SLDTEXTSTYLE0
 11
6.123031769111886E-17
 21
1.0
 31
0.0
 73
     1
 44
1.0
  0
ENDBLK
  5
34A
330
33E
100
AcDbEntity
  8
0
100
AcDbBlockEnd
  0
ENDSEC
  0
SECTION
  2
ENTITIES
  0
LINE
  5
A2
330
1F
100
AcDbEntity
  8
SLD-0
  6
Continuous
 62
   179
100
AcDbLine
 10
20.2604743903
 20
285.0
 30
0.0
 11
196.7604743903
 21
285.0
 31
0.0
  0
LINE
  5
A3
330
1F
100
AcDbEntity
  8
SLD-0
  6
Continuous
 62
   179
100
AcDbLine
 10
20.2604743903
 20
285.0
 30
0.0
 11
20.2604743903
 21
10.0
 31
0.0
  0
LINE
  5
A4
330
1F
100
AcDbEntity
  8
SLD-0
  6
Continuous
 62
   179
100
AcDbLine
 10
20.2604743903
 20
10.0
 30
0.0
 11
196.7604743903
 21
10.0
 31
0.0
  0
LINE
  5
A5
330
1F
100
AcDbEntity
  8
SLD-0
  6
Continuous
 62
   179
100
AcDbLine
 10
196.7604743903
 20
285.0
 30
0.0
 11
196.7604743903
 21
10.0
 31
0.0
  0
LINE
  5
A6
330
1F
100
AcDbEntity
  8
SLD-0
  6
Continuous
 62
   179
100
AcDbLine
 10
65.7604743903
 20
285.0
 30
0.0
 11
196.7604743903
 21
285.0
 31
0.0
  0
LINE
  5
A7
330
1F
100
AcDbEntity
  8
SLD-0
  6
Continuous
 62
   179
100
AcDbLine
 10
196.7604743903
 20
285.0
 30
0.0
 11
196.7604743903
 21
264.25
 31
0.0
  0
LINE
  5
A8
330
1F
100
AcDbEntity
  8
SLD-0
  6
Continuous
 62
   179
100
AcDbLine
 10
116.7604743903
 20
60.75
 30
0.0
 11
196.7604743903
 21
60.75
 31
0.0
  0
LINE
  5
A9
330
1F
100
AcDbEntity
  8
SLD-0
  6
Continuous
 62
   179
100
AcDbLine
 10
127.0104743903
 20
50.75
 30
0.0
 11
127.0104743903
 21
10.0
 31
0.0
  0
LINE
  5
AA
330
1F
100
AcDbEntity
  8
SLD-0
  6
Continuous
 62
   179
100
AcDbLine
 10
127.0104743903
 20
22.75
 30
0.0
 11
196.7604743903
 21
22.75
 31
0.0
  0
LINE
  5
AB
330
1F
100
AcDbEntity
  8
SLD-0
  6
Continuous
 62
   179
100
AcDbLine
 10
127.0104743903
 20
36.75
 30
0.0
 11
196.7604743903
 21
36.75
 31
0.0
  0
LINE
  5
AC
330
1F
100
AcDbEntity
  8
SLD-0
  6
Continuous
 62
   179
100
AcDbLine
 10
127.0104743903
 20
50.75
 30
0.0
 11
196.6403604103
 21
50.75
 31
0.0
  0
LINE
  5
AD
330
1F
100
AcDbEntity
  8
SLD-0
  6
Continuous
 62
   179
100
AcDbLine
 10
116.7604743903
 20
70.75
 30
0.0
 11
196.7604743903
 21
70.75
 31
0.0
  0
LINE
  5
AE
330
1F
100
AcDbEntity
  8
SLD-0
  6
Continuous
 62
   179
100
AcDbLine
 10
116.7604743903
 20
80.75
 30
0.0
 11
196.7604743903
 21
80.75
 31
0.0
  0
LINE
  5
AF
330
1F
100
AcDbEntity
  8
SLD-0
  6
Continuous
 62
   179
100
AcDbLine
 10
116.7604743903
 20
80.75
 30
0.0
 11
116.7604743903
 21
60.75
 31
0.0
  0
LINE
  5
B0
330
1F
100
AcDbEntity
  8
SLD-0
  6
Continuous
 62
   179
100
AcDbLine
 10
158.1289077041
 20
80.75
 30
0.0
 11
158.1289077041
 21
60.75
 31
0.0
  0
LINE
  5
B1
330
1F
100
AcDbEntity
  8
SLD-0
  6
Continuous
 62
   179
100
AcDbLine
 10
48.9970673348
 20
153.8211092129
 30
0.0
 11
48.9970673348
 21
147.8211091607
 31
0.0
  0
LINE
  5
B2
330
1F
100
AcDbEntity
  8
SLD-0
  6
Continuous
 62
   179
100
AcDbLine
 10
48.9970673348
 20
153.8211092129
 30
0.0
 11
96.997067752
 21
153.8211092129
 31
0.0
  0
LINE
  5
B3
330
1F
100
AcDbEntity
  8
SLD-0
  6
Continuous
 62
   179
100
AcDbLine
 10
96.997067752
 20
153.8211092129
 30
0.0
 11
96.997067752
 21
147.8211091607
 31
0.0
  0
LINE
  5
B4
330
1F
100
AcDbEntity
  8
SLD-0
  6
Continuous
 62
   179
100
AcDbLine
 10
89.9970684672
 20
147.8211091607
 30
0.0
 11
96.997067752
 21
147.8211091607
 31
0.0
  0
LINE
  5
B5
330
1F
100
AcDbEntity
  8
SLD-0
  6
Continuous
 62
   179
100
AcDbLine
 10
89.9970684672
 20
147.8211091607
 30
0.0
 11
89.9970675434
 21
127.8211091607
 31
0.0
  0
LINE
  5
B6
330
1F
100
AcDbEntity
  8
SLD-0
  6
Continuous
 62
   179
100
AcDbLine
 10
85.4970677296
 20
147.8211091607
 30
0.0
 11
85.4970675434
 21
127.8211091607
 31
0.0
  0
LINE
  5
B7
330
1F
100
AcDbEntity
  8
SLD-0
  6
Continuous
 62
   179
100
AcDbLine
 10
60.4970675434
 20
127.8211091607
 30
0.0
 11
60.4970673571
 21
147.8211091607
 31
0.0
  0
LINE
  5
B8
330
1F
100
AcDbEntity
  8
SLD-0
  6
Continuous
 62
   179
100
AcDbLine
 10
55.9970675434
 20
127.8211091607
 30
0.0
 11
55.9970666195
 21
147.8211091607
 31
0.0
  0
LINE
  5
B9
330
1F
100
AcDbEntity
  8
SLD-0
  6
Continuous
 62
   179
100
AcDbLine
 10
48.9970673348
 20
147.8211091607
 30
0.0
 11
55.9970666195
 21
147.8211091607
 31
0.0
  0
LINE
  5
BA
330
1F
100
AcDbEntity
  8
SLD-0
  6
Continuous
 62
   179
100
AcDbLine
 10
60.4970673571
 20
147.8211091607
 30
0.0
 11
85.4970677296
 21
147.8211091607
 31
0.0
  0
LINE
  5
BB
330
1F
100
AcDbEntity
  8
SLD-0
  6
Continuous
 62
   179
100
AcDbLine
 10
85.4970675434
 20
117.8211091607
 30
0.0
 11
89.9970675434
 21
117.8211091607
 31
0.0
  0
LINE
  5
BC
330
1F
100
AcDbEntity
  8
SLD-0
  6
Continuous
 62
   179
100
AcDbLine
 10
89.9970675434
 20
127.8211091607
 30
0.0
 11
89.9970675434
 21
117.8211091607
 31
0.0
  0
LINE
  5
BD
330
1F
100
AcDbEntity
  8
SLD-0
  6
Continuous
 62
   179
100
AcDbLine
 10
85.4970675434
 20
127.8211091607
 30
0.0
 11
85.4970675434
 21
117.8211091607
 31
0.0
  0
LINE
  5
BE
330
1F
100
AcDbEntity
  8
SLD-0
  6
Continuous
 62
   179
100
AcDbLine
 10
60.4970675434
 20
117.8211091607
 30
0.0
 11
60.4970675434
 21
127.8211091607
 31
0.0
  0
LINE
  5
BF
330
1F
100
AcDbEntity
  8
SLD-0
  6
Continuous
 62
   179
100
AcDbLine
 10
60.4970675434
 20
117.8211091607
 30
0.0
 11
55.9970675434
 21
117.8211091607
 31
0.0
  0
LINE
  5
C0
330
1F
100
AcDbEntity
  8
SLD-0
  6
Continuous
 62
   179
100
AcDbLine
 10
55.9970675434
 20
117.8211091607
 30
0.0
 11
55.9970675434
 21
127.8211091607
 31
0.0
  0
LINE
  5
C1
330
1F
100
AcDbEntity
  8
SLD-0
  6
CENTERX2
 62
   179
100
AcDbLine
 10
53.9970675434
 20
138.8211091607
 30
0.0
 11
62.4970675434
 21
138.8211091607
 31
0.0
  0
LINE
  5
C2
330
1F
100
AcDbEntity
  8
SLD-0
  6
CENTERX2
 62
   179
100
AcDbLine
 10
83.4970675434
 20
138.8211091607
 30
0.0
 11
91.9970675434
 21
138.8211091607
 31
0.0
  0
LINE
  5
C3
330
1F
100
AcDbEntity
  8
SLD-0
  6
CENTERX2
 62
   179
100
AcDbLine
 10
53.9970675434
 20
124.4211091607
 30
0.0
 11
62.4970675434
 21
124.4211091607
 31
0.0
  0
LINE
  5
C4
330
1F
100
AcDbEntity
  8
SLD-0
  6
CENTERX2
 62
   179
100
AcDbLine
 10
83.4970675434
 20
124.4211091607
 30
0.0
 11
91.9970675434
 21
124.4211091607
 31
0.0
  0
LINE
  5
C5
330
1F
100
AcDbEntity
  8
SLD-0
  6
CENTERX2
 62
   179
100
AcDbLine
 10
91.9970675434
 20
145.8211091607
 30
0.0
 11
91.9970675434
 21
155.8211091607
 31
0.0
  0
LINE
  5
C6
330
1F
100
AcDbEntity
  8
SLD-0
  6
CENTERX2
 62
   179
100
AcDbLine
 10
53.9970675434
 20
145.8211091607
 30
0.0
 11
53.9970675434
 21
155.8211091607
 31
0.0
  0
LINE
  5
C7
330
1F
100
AcDbEntity
  8
SLD-0
  6
CENTERX2
 62
   179
100
AcDbLine
 10
62.9970675434
 20
147.8211091607
 30
0.0
 11
62.9970675434
 21
155.8211091607
 31
0.0
  0
LINE
  5
C8
330
1F
100
AcDbEntity
  8
SLD-0
  6
CENTERX2
 62
   179
100
AcDbLine
 10
82.9970675434
 20
147.8211091607
 30
0.0
 11
82.9970675434
 21
155.8211091607
 31
0.0
  0
LINE
  5
C9
330
1F
100
AcDbEntity
  8
SLD-0
  6
Continuous
 62
   179
100
AcDbLine
 10
125.5239797041
 20
153.8211092129
 30
0.0
 11
157.523981224
 21
153.8211092129
 31
0.0
  0
LINE
  5
CA
330
1F
100
AcDbEntity
  8
SLD-0
  6
Continuous
 62
   179
100
AcDbLine
 10
125.5239797041
 20
153.8211092129
 30
0.0
 11
125.5239797041
 21
147.8211091607
 31
0.0
  0
LINE
  5
CB
330
1F
100
AcDbEntity
  8
SLD-0
  6
Continuous
 62
   179
100
AcDbLine
 10
157.523981224
 20
153.8211092129
 30
0.0
 11
157.523981224
 21
147.8211091607
 31
0.0
  0
LINE
  5
CC
330
1F
100
AcDbEntity
  8
SLD-0
  6
Continuous
 62
   179
100
AcDbLine
 10
125.5239797041
 20
147.8211091607
 30
0.0
 11
157.523981224
 21
147.8211091607
 31
0.0
  0
LINE
  5
CD
330
1F
100
AcDbEntity
  8
SLD-0
  6
Continuous
 62
   179
100
AcDbLine
 10
135.5239797041
 20
117.8211091607
 30
0.0
 11
147.5239797041
 21
117.8211091607
 31
0.0
  0
LINE
  5
CE
330
1F
100
AcDbEntity
  8
SLD-0
  6
Continuous
 62
   179
100
AcDbLine
 10
135.5239797041
 20
142.5711091607
 30
0.0
 11
147.5239797041
 21
142.5711091607
 31
0.0
  0
LINE
  5
CF
330
1F
100
AcDbEntity
  8
SLD-0
  6
Continuous
 62
   179
100
AcDbLine
 10
147.5239797041
 20
135.0711091607
 30
0.0
 11
135.5239797041
 21
135.0711091607
 31
0.0
  0
LINE
  5
D0
330
1F
100
AcDbEntity
  8
SLD-0
  6
Continuous
 62
   179
100
AcDbLine
 10
125.5239797041
 20
147.8211091607
 30
0.0
 11
125.5239797041
 21
127.8211091607
 31
0.0
  0
LINE
  5
D1
330
1F
100
AcDbEntity
  8
SLD-0
  6
Continuous
 62
   179
100
AcDbLine
 10
157.5239797041
 20
127.8211091607
 30
0.0
 11
157.523981224
 21
147.8211091607
 31
0.0
  0
LINE
  5
D2
330
1F
100
AcDbEntity
  8
SLD-0
  6
HIDDEN
 62
     8
100
AcDbLine
 10
139.8739797041
 20
153.8211091607
 30
0.0
 11
143.1739804551
 21
153.8211092129
 31
0.0
  0
LINE
  5
D3
330
1F
100
AcDbEntity
  8
SLD-0
  6
HIDDEN
 62
     8
100
AcDbLine
 10
139.8739797041
 20
147.8211091607
 30
0.0
 11
143.1739804551
 21
147.8211091607
 31
0.0
  0
LINE
  5
D4
330
1F
100
AcDbEntity
  8
SLD-0
  6
HIDDEN
 62
     8
100
AcDbLine
 10
157.523981224
 20
147.8211091607
 30
0.0
 11
125.5239797041
 21
147.8211091607
 31
0.0
  0
LINE
  5
D5
330
1F
100
AcDbEntity
  8
SLD-0
  6
HIDDEN
 62
     8
100
AcDbLine
 10
135.5239797041
 20
142.5711091607
 30
0.0
 11
147.5239797041
 21
142.5711091607
 31
0.0
  0
LINE
  5
D6
330
1F
100
AcDbEntity
  8
SLD-0
  6
HIDDEN
 62
     8
100
AcDbLine
 10
147.5239797041
 20
135.0711091607
 30
0.0
 11
135.5239797041
 21
135.0711091607
 31
0.0
  0
LINE
  5
D7
330
1F
100
AcDbEntity
  8
SLD-0
  6
HIDDEN
 62
     8
100
AcDbLine
 10
135.5239797041
 20
117.8211091607
 30
0.0
 11
147.5239797041
 21
117.8211091607
 31
0.0
  0
LINE
  5
D8
330
1F
100
AcDbEntity
  8
SLD-0
  6
HIDDEN
 62
     8
100
AcDbLine
 10
125.5239797041
 20
147.8211091607
 30
0.0
 11
125.5239797041
 21
127.8211091607
 31
0.0
  0
LINE
  5
D9
330
1F
100
AcDbEntity
  8
SLD-0
  6
HIDDEN
 62
     8
100
AcDbLine
 10
157.5239797041
 20
127.8211091607
 30
0.0
 11
157.523981224
 21
147.8211091607
 31
0.0
  0
LINE
  5
DA
330
1F
100
AcDbEntity
  8
SLD-0
  6
HIDDEN
 62
     8
100
AcDbLine
 10
157.523981224
 20
147.8211091607
 30
0.0
 11
125.5239797041
 21
147.8211091607
 31
0.0
  0
LINE
  5
DB
330
1F
100
AcDbEntity
  8
SLD-0
  6
HIDDEN
 62
     8
100
AcDbLine
 10
140.2739797041
 20
153.8211091607
 30
0.0
 11
142.7739792719
 21
153.8211092129
 31
0.0
  0
LINE
  5
DC
330
1F
100
AcDbEntity
  8
SLD-0
  6
HIDDEN
 62
     8
100
AcDbLine
 10
140.2739797041
 20
147.8211091607
 30
0.0
 11
142.7739792719
 21
147.8211091607
 31
0.0
  0
LINE
  5
DD
330
1F
100
AcDbEntity
  8
SLD-0
  6
HIDDEN
 62
     8
100
AcDbLine
 10
140.2739797041
 20
153.8211091607
 30
0.0
 11
142.7739792719
 21
153.8211092129
 31
0.0
  0
LINE
  5
DE
330
1F
100
AcDbEntity
  8
SLD-0
  6
HIDDEN
 62
     8
100
AcDbLine
 10
147.5239797041
 20
117.8211091607
 30
0.0
 11
135.5239797041
 21
117.8211091607
 31
0.0
  0
LINE
  5
DF
330
1F
100
AcDbEntity
  8
SLD-0
  6
HIDDEN
 62
     8
100
AcDbLine
 10
135.5239797041
 20
142.5711091607
 30
0.0
 11
147.5239797041
 21
142.5711091607
 31
0.0
  0
LINE
  5
E0
330
1F
100
AcDbEntity
  8
SLD-0
  6
HIDDEN
 62
     8
100
AcDbLine
 10
147.5239797041
 20
135.0711091607
 30
0.0
 11
135.5239797041
 21
135.0711091607
 31
0.0
  0
LINE
  5
E1
330
1F
100
AcDbEntity
  8
SLD-0
  6
HIDDEN
 62
     8
100
AcDbLine
 10
125.5239797041
 20
147.8211091607
 30
0.0
 11
157.523981224
 21
147.8211091607
 31
0.0
  0
LINE
  5
E2
330
1F
100
AcDbEntity
  8
SLD-0
  6
HIDDEN
 62
     8
100
AcDbLine
 10
125.5239797041
 20
127.8211091607
 30
0.0
 11
125.5239797041
 21
147.8211091607
 31
0.0
  0
LINE
  5
E3
330
1F
100
AcDbEntity
  8
SLD-0
  6
HIDDEN
 62
     8
100
AcDbLine
 10
157.523981224
 20
147.8211091607
 30
0.0
 11
157.5239797041
 21
127.8211091607
 31
0.0
  0
LINE
  5
E4
330
1F
100
AcDbEntity
  8
SLD-0
  6
HIDDEN
 62
     8
100
AcDbLine
 10
135.5239797041
 20
142.5711091607
 30
0.0
 11
147.5239797041
 21
142.5711091607
 31
0.0
  0
LINE
  5
E5
330
1F
100
AcDbEntity
  8
SLD-0
  6
HIDDEN
 62
     8
100
AcDbLine
 10
147.5239797041
 20
135.0711091607
 30
0.0
 11
135.5239797041
 21
135.0711091607
 31
0.0
  0
LINE
  5
E6
330
1F
100
AcDbEntity
  8
SLD-0
  6
HIDDEN
 62
     8
100
AcDbLine
 10
147.5239797041
 20
117.8211091607
 30
0.0
 11
135.5239797041
 21
117.8211091607
 31
0.0
  0
LINE
  5
E7
330
1F
100
AcDbEntity
  8
SLD-0
  6
HIDDEN
 62
     8
100
AcDbLine
 10
125.5239797041
 20
127.8211091607
 30
0.0
 11
125.5239797041
 21
147.8211091607
 31
0.0
  0
LINE
  5
E8
330
1F
100
AcDbEntity
  8
SLD-0
  6
HIDDEN
 62
     8
100
AcDbLine
 10
157.523981224
 20
147.8211091607
 30
0.0
 11
157.5239797041
 21
127.8211091607
 31
0.0
  0
LINE
  5
E9
330
1F
100
AcDbEntity
  8
SLD-0
  6
HIDDEN
 62
     8
100
AcDbLine
 10
125.5239797041
 20
147.8211091607
 30
0.0
 11
157.523981224
 21
147.8211091607
 31
0.0
  0
LINE
  5
EA
330
1F
100
AcDbEntity
  8
SLD-0
  6
HIDDEN
 62
     8
100
AcDbLine
 10
139.8739797041
 20
147.8211091607
 30
0.0
 11
143.1739804551
 21
147.8211091607
 31
0.0
  0
LINE
  5
EB
330
1F
100
AcDbEntity
  8
SLD-0
  6
HIDDEN
 62
     8
100
AcDbLine
 10
139.8739797041
 20
153.8211091607
 30
0.0
 11
143.1739804551
 21
153.8211092129
 31
0.0
  0
LINE
  5
EC
330
1F
100
AcDbEntity
  8
SLD-0
  6
HIDDEN
 62
     8
100
AcDbLine
 10
157.523981224
 20
147.8211091607
 30
0.0
 11
125.5239797041
 21
147.8211091607
 31
0.0
  0
LINE
  5
ED
330
1F
100
AcDbEntity
  8
SLD-0
  6
HIDDEN
 62
     8
100
AcDbLine
 10
157.523981224
 20
153.8211092129
 30
0.0
 11
125.5239797041
 21
153.8211092129
 31
0.0
  0
LINE
  5
EE
330
1F
100
AcDbEntity
  8
SLD-0
  6
HIDDEN
 62
     8
100
AcDbLine
 10
125.5239797041
 20
153.8211092129
 30
0.0
 11
125.5239797041
 21
147.8211091607
 31
0.0
  0
LINE
  5
EF
330
1F
100
AcDbEntity
  8
SLD-0
  6
HIDDEN
 62
     8
100
AcDbLine
 10
157.523981224
 20
153.8211092129
 30
0.0
 11
157.523981224
 21
147.8211091607
 31
0.0
  0
LINE
  5
F0
330
1F
100
AcDbEntity
  8
SLD-0
  6
HIDDEN
 62
     8
100
AcDbLine
 10
139.8739797041
 20
153.8211091607
 30
0.0
 11
139.8739797041
 21
147.8211091607
 31
0.0
  0
LINE
  5
F1
330
1F
100
AcDbEntity
  8
SLD-0
  6
HIDDEN
 62
     8
100
AcDbLine
 10
143.1739804551
 20
147.8211091607
 30
0.0
 11
143.1739804551
 21
153.8211092129
 31
0.0
  0
LINE
  5
F2
330
1F
100
AcDbEntity
  8
SLD-0
  6
HIDDEN
 62
     8
100
AcDbLine
 10
140.2739797041
 20
153.8211091607
 30
0.0
 11
140.2739797041
 21
147.8211091607
 31
0.0
  0
LINE
  5
F3
330
1F
100
AcDbEntity
  8
SLD-0
  6
HIDDEN
 62
     8
100
AcDbLine
 10
142.7739792719
 20
147.8211091607
 30
0.0
 11
142.7739792719
 21
153.8211092129
 31
0.0
  0
LINE
  5
F4
330
1F
100
AcDbEntity
  8
SLD-0
  6
HIDDEN
 62
     8
100
AcDbLine
 10
140.2739797041
 20
153.8211091607
 30
0.0
 11
140.2739797041
 21
147.8211091607
 31
0.0
  0
LINE
  5
F5
330
1F
100
AcDbEntity
  8
SLD-0
  6
HIDDEN
 62
     8
100
AcDbLine
 10
142.7739792719
 20
147.8211091607
 30
0.0
 11
142.7739792719
 21
153.8211092129
 31
0.0
  0
LINE
  5
F6
330
1F
100
AcDbEntity
  8
SLD-0
  6
HIDDEN
 62
     8
100
AcDbLine
 10
139.8739797041
 20
153.8211091607
 30
0.0
 11
139.8739797041
 21
147.8211091607
 31
0.0
  0
LINE
  5
F7
330
1F
100
AcDbEntity
  8
SLD-0
  6
HIDDEN
 62
     8
100
AcDbLine
 10
143.1739804551
 20
147.8211091607
 30
0.0
 11
143.1739804551
 21
153.8211092129
 31
0.0
  0
LINE
  5
F8
330
1F
100
AcDbEntity
  8
SLD-0
  6
HIDDEN
 62
   179
100
AcDbLine
 10
143.0239797786
 20
147.8211091607
 30
0.0
 11
143.0239797786
 21
153.8211092129
 31
0.0
  0
LINE
  5
F9
330
1F
100
AcDbEntity
  8
SLD-0
  6
HIDDEN
 62
   179
100
AcDbLine
 10
140.0239792868
 20
153.8211092129
 30
0.0
 11
140.0239792868
 21
147.8211091607
 31
0.0
  0
LINE
  5
FA
330
1F
100
AcDbEntity
  8
SLD-0
  6
HIDDEN
 62
   179
100
AcDbLine
 10
143.5239789292
 20
147.8211091607
 30
0.0
 11
143.5239789292
 21
153.8211092129
 31
0.0
  0
LINE
  5
FB
330
1F
100
AcDbEntity
  8
SLD-0
  6
HIDDEN
 62
   179
100
AcDbLine
 10
139.5239801362
 20
153.8211092129
 30
0.0
 11
139.5239801362
 21
147.8211091607
 31
0.0
  0
LINE
  5
FC
330
1F
100
AcDbEntity
  8
SLD-0
  6
CENTERX2
 62
   179
100
AcDbLine
 10
141.5239797041
 20
145.8211091607
 30
0.0
 11
141.5239797041
 21
155.8211091607
 31
0.0
  0
LINE
  5
FD
330
1F
100
AcDbEntity
  8
SLD-0
  6
CENTERX2
 62
   179
100
AcDbLine
 10
141.5239797041
 20
147.8211091607
 30
0.0
 11
141.5239797041
 21
155.8211091607
 31
0.0
  0
LINE
  5
FE
330
1F
100
AcDbEntity
  8
SLD-0
  6
CENTERX2
 62
   179
100
AcDbLine
 10
133.5239797041
 20
138.8211091607
 30
0.0
 11
149.5239797041
 21
138.8211091607
 31
0.0
  0
LINE
  5
FF
330
1F
100
AcDbEntity
  8
SLD-0
  6
Continuous
 62
   179
100
AcDbLine
 10
96.997067752
 20
219.4849620847
 30
0.0
 11
48.9970673348
 21
219.4849620847
 31
0.0
  0
LINE
  5
100
330
1F
100
AcDbEntity
  8
SLD-0
  6
Continuous
 62
   179
100
AcDbLine
 10
96.997067752
 20
187.4849605648
 30
0.0
 11
96.997067752
 21
219.4849620847
 31
0.0
  0
LINE
  5
101
330
1F
100
AcDbEntity
  8
SLD-0
  6
Continuous
 62
   179
100
AcDbLine
 10
48.9970673348
 20
187.4849605648
 30
0.0
 11
96.997067752
 21
187.4849605648
 31
0.0
  0
LINE
  5
102
330
1F
100
AcDbEntity
  8
SLD-0
  6
Continuous
 62
   179
100
AcDbLine
 10
48.9970673348
 20
219.4849620847
 30
0.0
 11
48.9970673348
 21
187.4849605648
 31
0.0
  0
LINE
  5
103
330
1F
100
AcDbEntity
  8
SLD-0
  6
HIDDEN
 62
     8
100
AcDbLine
 10
89.9970684672
 20
187.4849605648
 30
0.0
 11
96.997067752
 21
187.4849605648
 31
0.0
  0
LINE
  5
104
330
1F
100
AcDbEntity
  8
SLD-0
  6
HIDDEN
 62
     8
100
AcDbLine
 10
96.997067752
 20
187.4849605648
 30
0.0
 11
96.997067752
 21
219.4849620847
 31
0.0
  0
LINE
  5
105
330
1F
100
AcDbEntity
  8
SLD-0
  6
HIDDEN
 62
     8
100
AcDbLine
 10
96.997067752
 20
219.4849620847
 30
0.0
 11
89.9970684672
 21
219.4849620847
 31
0.0
  0
LINE
  5
106
330
1F
100
AcDbEntity
  8
SLD-0
  6
HIDDEN
 62
     8
100
AcDbLine
 10
60.4970673571
 20
187.4849605648
 30
0.0
 11
85.4970677296
 21
187.4849605648
 31
0.0
  0
LINE
  5
107
330
1F
100
AcDbEntity
  8
SLD-0
  6
HIDDEN
 62
     8
100
AcDbLine
 10
85.4970677296
 20
219.4849620847
 30
0.0
 11
60.4970673571
 21
219.4849620847
 31
0.0
  0
LINE
  5
108
330
1F
100
AcDbEntity
  8
SLD-0
  6
HIDDEN
 62
     8
100
AcDbLine
 10
85.4970677296
 20
219.4849620847
 30
0.0
 11
85.4970677296
 21
187.4849605648
 31
0.0
  0
LINE
  5
109
330
1F
100
AcDbEntity
  8
SLD-0
  6
HIDDEN
 62
     8
100
AcDbLine
 10
89.9970684672
 20
219.4849620847
 30
0.0
 11
89.9970684672
 21
187.4849605648
 31
0.0
  0
LINE
  5
10A
330
1F
100
AcDbEntity
  8
SLD-0
  6
HIDDEN
 62
     8
100
AcDbLine
 10
60.4970673571
 20
187.4849605648
 30
0.0
 11
60.4970673571
 21
219.4849620847
 31
0.0
  0
LINE
  5
10B
330
1F
100
AcDbEntity
  8
SLD-0
  6
HIDDEN
 62
     8
100
AcDbLine
 10
55.9970666195
 20
187.4849605648
 30
0.0
 11
55.9970666195
 21
219.4849620847
 31
0.0
  0
LINE
  5
10C
330
1F
100
AcDbEntity
  8
SLD-0
  6
HIDDEN
 62
     8
100
AcDbLine
 10
48.9970673348
 20
187.4849605648
 30
0.0
 11
55.9970666195
 21
187.4849605648
 31
0.0
  0
LINE
  5
10D
330
1F
100
AcDbEntity
  8
SLD-0
  6
HIDDEN
 62
     8
100
AcDbLine
 10
48.9970673348
 20
219.4849620847
 30
0.0
 11
48.9970673348
 21
187.4849605648
 31
0.0
  0
LINE
  5
10E
330
1F
100
AcDbEntity
  8
SLD-0
  6
HIDDEN
 62
     8
100
AcDbLine
 10
55.9970666195
 20
219.4849620847
 30
0.0
 11
48.9970673348
 21
219.4849620847
 31
0.0
  0
LINE
  5
10F
330
1F
100
AcDbEntity
  8
SLD-0
  6
CENTERX2
 62
   179
100
AcDbLine
 10
83.4970675434
 20
203.4849605648
 30
0.0
 11
91.9970675434
 21
203.4849605648
 31
0.0
  0
LINE
  5
110
330
1F
100
AcDbEntity
  8
SLD-0
  6
CENTERX2
 62
   179
100
AcDbLine
 10
53.9970675434
 20
203.4849605648
 30
0.0
 11
62.4970675434
 21
203.4849605648
 31
0.0
  0
LINE
  5
111
330
1F
100
AcDbEntity
  8
SLD-0
  6
CENTERX2
 62
   179
100
AcDbLine
 10
87.9970675434
 20
203.4849605648
 30
0.0
 11
96.9970675434
 21
203.4849605648
 31
0.0
  0
LINE
  5
112
330
1F
100
AcDbEntity
  8
SLD-0
  6
CENTERX2
 62
   179
100
AcDbLine
 10
48.9970675434
 20
203.4849605648
 30
0.0
 11
57.9970675434
 21
203.4849605648
 31
0.0
  0
ARC
  5
113
330
1F
100
AcDbEntity
  8
SLD-0
  6
Continuous
 62
   179
100
AcDbCircle
 10
147.5239797041
 20
127.8211091607
 30
0.0
 40
10.0
100
AcDbArc
 50
270.0
 51
0.0
  0
ARC
  5
114
330
1F
100
AcDbEntity
  8
SLD-0
  6
Continuous
 62
   179
100
AcDbCircle
 10
135.5239797041
 20
127.8211091607
 30
0.0
 40
10.0
100
AcDbArc
 50
180.0
 51
270.0
  0
ARC
  5
115
330
1F
100
AcDbEntity
  8
SLD-0
  6
Continuous
 62
   179
100
AcDbCircle
 10
147.5239797041
 20
138.8211091607
 30
0.0
 40
3.75
100
AcDbArc
 50
270.0
 51
90.0
  0
ARC
  5
116
330
1F
100
AcDbEntity
  8
SLD-0
  6
Continuous
 62
   179
100
AcDbCircle
 10
135.5239797041
 20
138.8211091607
 30
0.0
 40
3.75
100
AcDbArc
 50
90.0
 51
270.0
  0
CIRCLE
  5
117
330
1F
100
AcDbEntity
  8
SLD-0
  6
Continuous
 62
   179
100
AcDbCircle
 10
141.5239797041
 20
124.4211091607
 30
0.0
 40
3.25
  0
ARC
  5
118
330
1F
100
AcDbEntity
  8
SLD-0
  6
HIDDEN
 62
     8
100
AcDbCircle
 10
135.5239797041
 20
138.8211091607
 30
0.0
 40
3.75
100
AcDbArc
 50
90.0
 51
270.0
  0
ARC
  5
119
330
1F
100
AcDbEntity
  8
SLD-0
  6
HIDDEN
 62
     8
100
AcDbCircle
 10
135.5239797041
 20
127.8211091607
 30
0.0
 40
10.0
100
AcDbArc
 50
180.0
 51
270.0
  0
CIRCLE
  5
11A
330
1F
100
AcDbEntity
  8
SLD-0
  6
HIDDEN
 62
     8
100
AcDbCircle
 10
141.5239797041
 20
124.4211091607
 30
0.0
 40
3.25
  0
ARC
  5
11B
330
1F
100
AcDbEntity
  8
SLD-0
  6
HIDDEN
 62
     8
100
AcDbCircle
 10
147.5239797041
 20
138.8211091607
 30
0.0
 40
3.75
100
AcDbArc
 50
270.0
 51
90.0
  0
ARC
  5
11C
330
1F
100
AcDbEntity
  8
SLD-0
  6
HIDDEN
 62
     8
100
AcDbCircle
 10
147.5239797041
 20
127.8211091607
 30
0.0
 40
10.0
100
AcDbArc
 50
270.0
 51
0.0
  0
ARC
  5
11D
330
1F
100
AcDbEntity
  8
SLD-0
  6
HIDDEN
 62
     8
100
AcDbCircle
 10
135.5239797041
 20
127.8211091607
 30
0.0
 40
10.0
100
AcDbArc
 50
180.0
 51
270.0
  0
ARC
  5
11E
330
1F
100
AcDbEntity
  8
SLD-0
  6
HIDDEN
 62
     8
100
AcDbCircle
 10
147.5239797041
 20
138.8211091607
 30
0.0
 40
3.75
100
AcDbArc
 50
270.0
 51
90.0
  0
ARC
  5
11F
330
1F
100
AcDbEntity
  8
SLD-0
  6
HIDDEN
 62
     8
100
AcDbCircle
 10
135.5239797041
 20
138.8211091607
 30
0.0
 40
3.75
100
AcDbArc
 50
90.0
 51
270.0
  0
CIRCLE
  5
120
330
1F
100
AcDbEntity
  8
SLD-0
  6
HIDDEN
 62
     8
100
AcDbCircle
 10
141.5239797041
 20
124.4211091607
 30
0.0
 40
3.25
  0
ARC
  5
121
330
1F
100
AcDbEntity
  8
SLD-0
  6
HIDDEN
 62
     8
100
AcDbCircle
 10
147.5239797041
 20
127.8211091607
 30
0.0
 40
10.0
100
AcDbArc
 50
270.0
 51
0.0
  0
ARC
  5
122
330
1F
100
AcDbEntity
  8
SLD-0
  6
HIDDEN
 62
     8
100
AcDbCircle
 10
135.5239797041
 20
127.8211091607
 30
0.0
 40
10.0
100
AcDbArc
 50
180.0
 51
270.0
  0
ARC
  5
123
330
1F
100
AcDbEntity
  8
SLD-0
  6
HIDDEN
 62
     8
100
AcDbCircle
 10
135.5239797041
 20
138.8211091607
 30
0.0
 40
3.75
100
AcDbArc
 50
90.0
 51
270.0
  0
CIRCLE
  5
124
330
1F
100
AcDbEntity
  8
SLD-0
  6
HIDDEN
 62
     8
100
AcDbCircle
 10
141.5239797041
 20
124.4211091607
 30
0.0
 40
3.25
  0
ARC
  5
125
330
1F
100
AcDbEntity
  8
SLD-0
  6
HIDDEN
 62
     8
100
AcDbCircle
 10
147.5239797041
 20
138.8211091607
 30
0.0
 40
3.75
100
AcDbArc
 50
270.0
 51
90.0
  0
ARC
  5
126
330
1F
100
AcDbEntity
  8
SLD-0
  6
HIDDEN
 62
     8
100
AcDbCircle
 10
147.5239797041
 20
127.8211091607
 30
0.0
 40
10.0
100
AcDbArc
 50
270.0
 51
0.0
  0
CIRCLE
  5
127
330
1F
100
AcDbEntity
  8
SLD-0
  6
Continuous
 62
   179
100
AcDbCircle
 10
91.9970675434
 20
203.4849605648
 30
0.0
 40
1.650000000000006
  0
CIRCLE
  5
128
330
1F
100
AcDbEntity
  8
SLD-0
  6
Continuous
 62
   179
100
AcDbCircle
 10
53.9970675434
 20
203.4849605648
 30
0.0
 40
1.649999999999999
  0
CIRCLE
  5
129
330
1F
100
AcDbEntity
  8
SLD-0
  6
Continuous
 62
   179
100
AcDbCircle
 10
62.9970675434
 20
203.4849605648
 30
0.0
 40
1.25
  0
CIRCLE
  5
12A
330
1F
100
AcDbEntity
  8
SLD-0
  6
Continuous
 62
   179
100
AcDbCircle
 10
82.9970675434
 20
203.4849605648
 30
0.0
 40
1.250000000000014
  0
CIRCLE
  5
12B
330
1F
100
AcDbEntity
  8
SLD-0
  6
HIDDEN
 62
     8
100
AcDbCircle
 10
91.9970675434
 20
203.4849605648
 30
0.0
 40
1.650000000000006
  0
CIRCLE
  5
12C
330
1F
100
AcDbEntity
  8
SLD-0
  6
HIDDEN
 62
     8
100
AcDbCircle
 10
62.9970675434
 20
203.4849605648
 30
0.0
 40
1.25
  0
CIRCLE
  5
12D
330
1F
100
AcDbEntity
  8
SLD-0
  6
HIDDEN
 62
     8
100
AcDbCircle
 10
82.9970675434
 20
203.4849605648
 30
0.0
 40
1.250000000000014
  0
CIRCLE
  5
12E
330
1F
100
AcDbEntity
  8
SLD-0
  6
HIDDEN
 62
     8
100
AcDbCircle
 10
53.9970675434
 20
203.4849605648
 30
0.0
 40
1.649999999999999
  0
CIRCLE
  5
12F
330
1F
100
AcDbEntity
  8
SLD-0
 62
   179
100
AcDbCircle
 10
62.9970675434
 20
203.4849605648
 30
0.0
 40
1.499999538099999
  0
CIRCLE
  5
130
330
1F
100
AcDbEntity
  8
SLD-0
 62
   179
100
AcDbCircle
 10
82.9970675434
 20
203.4849605648
 30
0.0
 40
1.500000022400002
  0
CIRCLE
  5
131
330
1F
100
AcDbEntity
  8
SLD-0
 62
   179
100
AcDbCircle
 10
91.9970675434
 20
203.4849605648
 30
0.0
 40
1.999999716900007
  0
CIRCLE
  5
132
330
1F
100
AcDbEntity
  8
SLD-0
 62
   179
100
AcDbCircle
 10
53.9970675434
 20
203.4849605648
 30
0.0
 40
1.999999076100004
  0
DIMENSION
  5
133
330
1F
100
AcDbEntity
  8
SLD-0
 62
     7
100
AcDbDimension
  2
*D13
 10
89.9970675434
 20
99.0983123657
 30
0.0
 11
96.1886990966
 21
99.0983123657
 31
0.0
 70
   160
 71
     1
 42
4.5
  3
SLDDIMSTYLE0
100
AcDbAlignedDimension
 13
85.4970675434
 23
127.8211091607
 33
0.0
 14
89.9970675434
 24
127.8211091607
 34
0.0
100
AcDbRotatedDimension
1001
ACAD
1000
DSTYLE
1002
{
1070
    77
1070
     3
1070
   143
1040
0.0393700787
1070
    41
1040
3.0
1070
    44
1040
1.0
1070
    42
1040
1.0
1070
   147
1040
1.524
1070
    73
1070
     0
1070
    74
1070
     0
1070
   140
1040
3.5
1070
   284
1070
    12
1070
    78
1070
    12
1002
}
  0
DIMENSION
  5
154
330
1F
100
AcDbEntity
  8
SLD-0
 62
     7
100
AcDbDimension
  2
*D15
 10
55.9970675434
 20
99.0983123657
 30
0.0
 11
48.750232046
 21
99.0983123657
 31
0.0
 70
   160
  1
(<>)
 71
     1
 42
4.5
  3
SLDDIMSTYLE0
100
AcDbAlignedDimension
 13
60.4970675434
 23
147.8211091607
 33
0.0
 14
55.9970675434
 24
147.8211091607
 34
0.0
100
AcDbRotatedDimension
1001
ACAD
1000
DSTYLE
1002
{
1070
    77
1070
     3
1070
   143
1040
0.0393700787
1070
    41
1040
3.0
1070
    44
1040
1.0
1070
    42
1040
1.0
1070
   147
1040
1.524
1070
    73
1070
     0
1070
    74
1070
     0
1070
   140
1040
3.5
1070
   284
1070
    12
1070
    78
1070
    12
1002
}
  0
DIMENSION
  5
172
330
1F
100
AcDbEntity
  8
SLD-0
 62
     7
100
AcDbDimension
  2
*D16
 10
60.4970675434
 20
99.0983123657
 30
0.0
 11
72.9970675434
 21
99.0983123657
 31
0.0
 70
   160
 71
     1
 42
25.0
  3
SLDDIMSTYLE1
100
AcDbAlignedDimension
 13
85.4970675434
 23
117.8211091607
 33
0.0
 14
60.4970675434
 24
117.8211091607
 34
0.0
100
AcDbRotatedDimension
1001
ACAD
1000
DSTYLE
1002
{
1070
    77
1070
     3
1070
   143
1040
0.0393700787
1070
    41
1040
3.0
1070
    44
1040
1.0
1070
    42
1040
1.0
1070
   147
1040
1.524
1070
    73
1070
     0
1070
    74
1070
     0
1070
   140
1040
3.5
1070
   284
1070
     0
1070
    78
1070
    12
1002
}
  0
DIMENSION
  5
18D
330
1F
100
AcDbEntity
  8
SLD-0
 62
     7
100
AcDbDimension
  2
*D17
 10
44.5458353836
 20
147.8211091607
 30
0.0
 11
44.5458353836
 21
163.2167581612
 31
0.0
 70
   160
 71
     1
 42
6.0
  3
SLDDIMSTYLE2
100
AcDbAlignedDimension
 13
48.9970675434
 23
153.8211091607
 33
0.0
 14
60.4970675434
 24
147.8211091607
 34
0.0
 50
90.0
100
AcDbRotatedDimension
1001
ACAD
1000
DSTYLE
1002
{
1070
    77
1070
     3
1070
   143
1040
0.0393700787
1070
    41
1040
3.0
1070
    44
1040
1.0
1070
    42
1040
1.0
1070
   147
1040
1.524
1070
    73
1070
     0
1070
    74
1070
     0
1070
   140
1040
3.5
1070
   284
1070
    12
1070
    78
1070
    12
1002
}
  0
DIMENSION
  5
1A9
330
1F
100
AcDbEntity
  8
SLD-0
 62
     7
100
AcDbDimension
  2
*D18
 10
147.5239797041
 20
162.2186586568
 30
0.0
 11
141.5239797041
 21
162.2186586568
 31
0.0
 70
   160
 71
     1
 42
12.0
  3
SLDDIMSTYLE2
100
AcDbAlignedDimension
 13
135.5239797041
 23
138.8211091607
 33
0.0
 14
147.5239797041
 24
138.8211091607
 34
0.0
100
AcDbRotatedDimension
1001
ACAD
1000
DSTYLE
1002
{
1070
    77
1070
     3
1070
   143
1040
0.0393700787
1070
    41
1040
3.0
1070
    44
1040
1.0
1070
    42
1040
1.0
1070
   147
1040
1.524
1070
    73
1070
     0
1070
    74
1070
     0
1070
   140
1040
3.5
1070
   284
1070
    12
1070
    78
1070
    12
1002
}
  0
DIMENSION
  5
1C0
330
1F
100
AcDbEntity
  8
SLD-0
 62
     7
100
AcDbDimension
  2
*D19
 10
166.9352541654
 20
142.5711091607
 30
0.0
 11
166.9352541654
 21
148.2372063968
 31
0.0
 70
   160
 71
     1
 42
7.5
  3
SLDDIMSTYLE0
100
AcDbAlignedDimension
 13
147.5239797041
 23
135.0711091607
 33
0.0
 14
147.5239797041
 24
142.5711091607
 34
0.0
 50
90.0
100
AcDbRotatedDimension
1001
ACAD
1000
DSTYLE
1002
{
1070
    77
1070
     3
1070
   143
1040
0.0393700787
1070
    41
1040
3.0
1070
    44
1040
1.0
1070
    42
1040
1.0
1070
   147
1040
1.524
1070
    73
1070
     0
1070
    74
1070
     0
1070
   140
1040
3.5
1070
   284
1070
    12
1070
    78
1070
    12
1002
}
  0
DIMENSION
  5
1DB
330
1F
100
AcDbEntity
  8
SLD-0
 62
     7
100
AcDbDimension
  2
*D20
 10
175.1784931558
 20
138.8211091607
 30
0.0
 11
175.1784931558
 21
146.3211091607
 31
0.0
 70
   160
 71
     1
 42
15.0
  3
SLDDIMSTYLE2
100
AcDbAlignedDimension
 13
157.5239797041
 23
153.8211091607
 33
0.0
 14
147.5239797041
 24
138.8211091607
 34
0.0
 50
90.0
100
AcDbRotatedDimension
1001
ACAD
1000
DSTYLE
1002
{
1070
    77
1070
     3
1070
   143
1040
0.0393700787
1070
    41
1040
3.0
1070
    44
1040
1.0
1070
    42
1040
1.0
1070
   147
1040
1.524
1070
    73
1070
     0
1070
    74
1070
     0
1070
   140
1040
3.5
1070
   284
1070
    12
1070
    78
1070
    12
1002
}
  0
DIMENSION
  5
1F3
330
1F
100
AcDbEntity
  8
SLD-0
 62
     7
100
AcDbDimension
  2
*D21
 10
175.1784931558
 20
124.4211091607
 30
0.0
 11
175.1784931558
 21
131.6211091607
 31
0.0
 70
   160
 71
     1
 42
14.4
  3
SLDDIMSTYLE0
100
AcDbAlignedDimension
 13
147.5239797041
 23
138.8211091607
 33
0.0
 14
141.5239797041
 24
124.4211091607
 34
0.0
 50
90.0
100
AcDbRotatedDimension
1001
ACAD
1000
DSTYLE
1002
{
1070
    77
1070
     3
1070
   143
1040
0.0393700787
1070
    41
1040
3.0
1070
    44
1040
1.0
1070
    42
1040
1.0
1070
   147
1040
1.524
1070
    73
1070
     0
1070
    74
1070
     0
1070
   140
1040
3.5
1070
   284
1070
    12
1070
    78
1070
    12
1002
}
  0
DIMENSION
  5
20D
330
1F
100
AcDbEntity
  8
SLD-0
 62
     7
100
AcDbDimension
  2
*D22
 10
4.881689323
 20
4.2917475993
 30
0.0
 11
122.3583678716
 21
-3.9616137264
 31
0.0
 70
   163
  1
2-<>\P（両側)
 71
     1
 42
6.4999990848
  3
SLDDIMSTYLE3
100
AcDbDiametricDimension
 15
0.0
 25
0.0
 35
0.0
 40
0.0
1001
ACAD
1000
DSTYLE
1002
{
1070
    77
1070
     0
1070
   143
1040
0.0393700787
1070
    41
1040
3.0
1070
    44
1040
1.0
1070
    42
1040
1.0
1070
   147
1040
1.524
1070
    73
1070
     1
1070
    74
1070
     1
1070
   140
1040
3.5
1070
   284
1070
    12
1070
    78
1070
    12
1002
}
  0
DIMENSION
  5
221
330
1F
100
AcDbEntity
  8
SLD-0
 62
     7
100
AcDbDimension
  2
*D23
 10
183.0925227369
 20
117.8211091607
 30
0.0
 11
183.0925227369
 21
135.8211091607
 31
0.0
 70
   160
 71
     1
 42
36.0
  3
SLDDIMSTYLE2
100
AcDbAlignedDimension
 13
157.5239797041
 23
153.8211091607
 33
0.0
 14
147.5239797041
 24
117.8211091607
 34
0.0
 50
90.0
100
AcDbRotatedDimension
1001
ACAD
1000
DSTYLE
1002
{
1070
    77
1070
     3
1070
   143
1040
0.0393700787
1070
    41
1040
3.0
1070
    44
1040
1.0
1070
    42
1040
1.0
1070
   147
1040
1.524
1070
    73
1070
     0
1070
    74
1070
     0
1070
   140
1040
3.5
1070
   284
1070
    12
1070
    78
1070
    12
1002
}
  0
DIMENSION
  5
239
330
1F
100
AcDbEntity
  8
SLD-0
 62
     7
100
AcDbDimension
  2
*D24
 10
157.5239797041
 20
162.2186586568
 30
0.0
 11
152.5239797041
 21
162.2186586568
 31
0.0
 70
   160
 71
     1
 42
10.0
  3
SLDDIMSTYLE2
100
AcDbAlignedDimension
 13
147.5239797041
 23
145.0711091607
 33
0.0
 14
157.5239797041
 24
153.8211091607
 34
0.0
100
AcDbRotatedDimension
1001
ACAD
1000
DSTYLE
1002
{
1070
    77
1070
     3
1070
   143
1040
0.0393700787
1070
    41
1040
3.0
1070
    44
1040
1.0
1070
    42
1040
1.0
1070
   147
1040
1.524
1070
    73
1070
     0
1070
    74
1070
     0
1070
   140
1040
3.5
1070
   284
1070
    12
1070
    78
1070
    12
1002
}
  0
DIMENSION
  5
252
330
1F
100
AcDbEntity
  8
SLD-0
 62
     7
100
AcDbDimension
  2
*D25
 10
157.5239797041
 20
108.4358934313
 30
0.0
 11
149.5239797041
 21
108.4358934313
 31
0.0
 70
   160
 71
     1
 42
16.0
  3
SLDDIMSTYLE2
100
AcDbAlignedDimension
 13
141.5239797041
 23
118.6711091607
 33
0.0
 14
157.5239797041
 24
147.8211091607
 34
0.0
100
AcDbRotatedDimension
1001
ACAD
1000
DSTYLE
1002
{
1070
    77
1070
     3
1070
   143
1040
0.0393700787
1070
    41
1040
3.0
1070
    44
1040
1.0
1070
    42
1040
1.0
1070
   147
1040
1.524
1070
    73
1070
     0
1070
    74
1070
     0
1070
   140
1040
3.5
1070
   284
1070
    12
1070
    78
1070
    12
1002
}
  0
DIMENSION
  5
269
330
1F
100
AcDbEntity
  8
SLD-0
 62
     7
100
AcDbDimension
  2
*D26
 10
135.5239797041
 20
127.8211091607
 30
0.0
 11
119.3614607206
 21
116.7276801479
 31
0.0
 70
   164
  1
<>x2-R
 71
     1
 42
186.2927401213
  3
SLDDIMSTYLE4
100
AcDbRadialDimension
 15
0.0
 25
0.0
 35
0.0
 40
0.0
1001
ACAD
1000
DSTYLE
1002
{
1070
    77
1070
     0
1070
   143
1040
0.0393700787
1070
    41
1040
3.0
1070
    44
1040
1.0
1070
    42
1040
1.0
1070
   147
1040
1.524
1070
    73
1070
     1
1070
    74
1070
     1
1070
   140
1040
3.5
1070
   284
1070
    12
1070
    78
1070
    12
1002
}
  0
DIMENSION
  5
279
330
1F
100
AcDbEntity
  8
SLD-0
 62
     7
100
AcDbDimension
  2
*D27
 10
135.5239797041
 20
138.8211091607
 30
0.0
 11
115.7137266761
 21
150.7158442515
 31
0.0
 70
   164
  1
<>x2-R (両側)
 71
     1
 42
194.0052819473
  3
SLDDIMSTYLE4
100
AcDbRadialDimension
 15
0.0
 25
0.0
 35
0.0
 40
0.0
1001
ACAD
1000
DSTYLE
1002
{
1070
    77
1070
     0
1070
   143
1040
0.0393700787
1070
    41
1040
3.0
1070
    44
1040
1.0
1070
    42
1040
1.0
1070
   147
1040
1.524
1070
    73
1070
     1
1070
    74
1070
     1
1070
   140
1040
3.5
1070
   284
1070
    12
1070
    78
1070
    12
1002
}
  0
DIMENSION
  5
289
330
1F
100
AcDbEntity
  8
SLD-0
 62
     7
100
AcDbDimension
  2
*D28
 10
48.9970675434
 20
241.6269688452
 30
0.0
 11
72.9970675434
 21
241.6269688452
 31
0.0
 70
   160
 71
     1
 42
48.0
  3
SLDDIMSTYLE2
100
AcDbAlignedDimension
 13
96.9970675434
 23
219.4849605648
 33
0.0
 14
48.9970675434
 24
219.4849605648
 34
0.0
100
AcDbRotatedDimension
1001
ACAD
1000
DSTYLE
1002
{
1070
    77
1070
     3
1070
   143
1040
0.0393700787
1070
    41
1040
3.0
1070
    44
1040
1.0
1070
    42
1040
1.0
1070
   147
1040
1.524
1070
    73
1070
     0
1070
    74
1070
     0
1070
   140
1040
3.5
1070
   284
1070
    12
1070
    78
1070
    12
1002
}
  0
DIMENSION
  5
2A0
330
1F
100
AcDbEntity
  8
SLD-0
 62
     7
100
AcDbDimension
  2
*D29
 10
117.7431363865
 20
219.4849605648
 30
0.0
 11
117.7431363865
 21
203.4849605648
 31
0.0
 70
   160
 71
     1
 42
32.0
  3
SLDDIMSTYLE2
100
AcDbAlignedDimension
 13
96.9970675434
 23
187.4849605648
 33
0.0
 14
96.9970675434
 24
219.4849605648
 34
0.0
 50
90.0
100
AcDbRotatedDimension
1001
ACAD
1000
DSTYLE
1002
{
1070
    77
1070
     3
1070
   143
1040
0.0393700787
1070
    41
1040
3.0
1070
    44
1040
1.0
1070
    42
1040
1.0
1070
   147
1040
1.524
1070
    73
1070
     0
1070
    74
1070
     0
1070
   140
1040
3.5
1070
   284
1070
    12
1070
    78
1070
    12
1002
}
  0
DIMENSION
  5
2B8
330
1F
100
AcDbEntity
  8
SLD-0
 62
     7
100
AcDbDimension
  2
*D30
 10
53.9970675434
 20
233.1084225511
 30
0.0
 11
72.9970675434
 21
233.1084225511
 31
0.0
 70
   160
 71
     1
 42
38.0
  3
SLDDIMSTYLE2
100
AcDbAlignedDimension
 13
91.9970675434
 23
203.4849605648
 33
0.0
 14
53.9970675434
 24
203.4849605648
 34
0.0
100
AcDbRotatedDimension
1001
ACAD
1000
DSTYLE
1002
{
1070
    77
1070
     3
1070
   143
1040
0.0393700787
1070
    41
1040
3.0
1070
    44
1040
1.0
1070
    42
1040
1.0
1070
   147
1040
1.524
1070
    73
1070
     0
1070
    74
1070
     0
1070
   140
1040
3.5
1070
   284
1070
    12
1070
    78
1070
    12
1002
}
  0
DIMENSION
  5
2CF
330
1F
100
AcDbEntity
  8
SLD-0
 62
     7
100
AcDbDimension
  2
*D31
 10
82.9970675434
 20
175.3486053748
 30
0.0
 11
72.9970675434
 21
175.3486053748
 31
0.0
 70
   160
 71
     1
 42
20.0
  3
SLDDIMSTYLE2
100
AcDbAlignedDimension
 13
62.9970675434
 23
203.4849605648
 33
0.0
 14
82.9970675434
 24
203.4849605648
 34
0.0
100
AcDbRotatedDimension
1001
ACAD
1000
DSTYLE
1002
{
1070
    77
1070
     3
1070
   143
1040
0.0393700787
1070
    41
1040
3.0
1070
    44
1040
1.0
1070
    42
1040
1.0
1070
   147
1040
1.524
1070
    73
1070
     0
1070
    74
1070
     0
1070
   140
1040
3.5
1070
   284
1070
    12
1070
    78
1070
    12
1002
}
  0
DIMENSION
  5
2E6
330
1F
100
AcDbEntity
  8
SLD-0
 62
     7
100
AcDbDimension
  2
*D32
 10
96.9970675434
 20
175.3486053748
 30
0.0
 11
89.9970675434
 21
175.3486053748
 31
0.0
 70
   160
 71
     1
 42
14.0
  3
SLDDIMSTYLE2
100
AcDbAlignedDimension
 13
82.9970675434
 23
199.7349605648
 33
0.0
 14
96.9970675434
 24
187.4849605648
 34
0.0
100
AcDbRotatedDimension
1001
ACAD
1000
DSTYLE
1002
{
1070
    77
1070
     3
1070
   143
1040
0.0393700787
1070
    41
1040
3.0
1070
    44
1040
1.0
1070
    42
1040
1.0
1070
   147
1040
1.524
1070
    73
1070
     0
1070
    74
1070
     0
1070
   140
1040
3.5
1070
   284
1070
    12
1070
    78
1070
    12
1002
}
  0
DIMENSION
  5
2FF
330
1F
100
AcDbEntity
  8
SLD-0
 62
     7
100
AcDbDimension
  2
*D33
 10
96.9970675434
 20
233.1084225511
 30
0.0
 11
104.4854555926
 21
233.1084225511
 31
0.0
 70
   160
 71
     1
 42
5.0
  3
SLDDIMSTYLE2
100
AcDbAlignedDimension
 13
91.9970675434
 23
207.6349605648
 33
0.0
 14
96.9970675434
 24
219.4849605648
 34
0.0
100
AcDbRotatedDimension
1001
ACAD
1000
DSTYLE
1002
{
1070
    77
1070
     3
1070
   143
1040
0.0393700787
1070
    41
1040
3.0
1070
    44
1040
1.0
1070
    42
1040
1.0
1070
   147
1040
1.524
1070
    73
1070
     0
1070
    74
1070
     0
1070
   140
1040
3.5
1070
   284
1070
    12
1070
    78
1070
    12
1002
}
  0
DIMENSION
  5
31B
330
1F
100
AcDbEntity
  8
SLD-0
 62
     7
100
AcDbDimension
  2
*D34
 10
0.8872262278
 20
2.86580314
 30
0.0
 11
37.3414386231
 21
-5.7316069116
 31
0.0
 70
   163
  1
2-M<><>
 71
     1
 42
2.9999996694
  3
SLDDIMSTYLE5
100
AcDbDiametricDimension
 15
0.0
 25
0.0
 35
0.0
 40
0.0
1001
ACAD
1000
DSTYLE
1002
{
1070
    77
1070
     0
1070
   143
1040
0.0393700787
1070
    41
1040
3.0
1070
    44
1040
1.0
1070
    42
1040
1.0
1070
   147
1040
1.524
1070
    73
1070
     1
1070
    74
1070
     1
1070
   140
1040
3.5
1070
   284
1070
    12
1070
    78
1070
    12
1002
}
  0
DIMENSION
  5
32D
330
1F
100
AcDbEntity
  8
SLD-0
 62
     7
100
AcDbDimension
  2
*D35
 10
1.0259385793
 20
3.8661927554
 30
0.0
 11
37.3414386231
 21
-5.7992897873
 31
0.0
 70
   163
  1
2-M<><>
 71
     1
 42
3.9999995488
  3
SLDDIMSTYLE5
100
AcDbDiametricDimension
 15
0.0
 25
0.0
 35
0.0
 40
0.0
1001
ACAD
1000
DSTYLE
1002
{
1070
    77
1070
     0
1070
   143
1040
0.0393700787
1070
    41
1040
3.0
1070
    44
1040
1.0
1070
    42
1040
1.0
1070
   147
1040
1.524
1070
    73
1070
     1
1070
    74
1070
     1
1070
   140
1040
3.5
1070
   284
1070
    12
1070
    78
1070
    12
1002
}
  0
DIMENSION
  5
33D
330
1F
100
AcDbEntity
  8
SLD-0
 62
     7
100
AcDbDimension
  2
*D36
 10
109.1039568763
 20
219.4849605648
 30
0.0
 11
109.1039568763
 21
211.4849605648
 31
0.0
 70
   160
 71
     1
 42
16.0
  3
SLDDIMSTYLE2
100
AcDbAlignedDimension
 13
96.1470675434
 23
203.4849605648
 33
0.0
 14
96.9970675434
 24
219.4849605648
 34
0.0
 50
90.0
100
AcDbRotatedDimension
1001
ACAD
1000
DSTYLE
1002
{
1070
    77
1070
     3
1070
   143
1040
0.0393700787
1070
    41
1040
3.0
1070
    44
1040
1.0
1070
    42
1040
1.0
1070
   147
1040
1.524
1070
    73
1070
     0
1070
    74
1070
     0
1070
   140
1040
3.5
1070
   284
1070
    12
1070
    78
1070
    12
1002
}
  0
MTEXT
  5
355
330
1F
100
AcDbEntity
  8
SLD-0
 62
     7
100
AcDbMText
 10
169.1923262367
 20
249.8878123479
 30
0.0
 40
4.2333333333
 41
0.0
 71
     1
 72
     1
  1
(　　　)
  7
SLDTEXTSTYLE1
 73
     1
 44
1.0
  0
MTEXT
  5
356
330
1F
100
AcDbEntity
  8
SLD-0
 62
     7
100
AcDbMText
 10
127.6394364786
 20
49.9570234228
 30
0.0
 40
2.6458333333
 41
0.0
 71
     1
 72
     1
  1
品　名ARTICLE
  7
SLDTEXTSTYLE1
 73
     1
 44
1.0
  0
MTEXT
  5
357
330
1F
100
AcDbEntity
  8
SLD-0
 62
     7
100
AcDbMText
 10
127.5928604848
 20
35.8635674927
 30
0.0
 40
2.6458333333
 41
0.0
 71
     1
 72
     1
  1
図　番DWG　NO．
  7
SLDTEXTSTYLE1
 73
     1
 44
1.0
  0
MTEXT
  5
358
330
1F
100
AcDbEntity
  8
SLD-0
 62
     7
100
AcDbMText
 10
146.5376273242
 20
19.1216563236
 30
0.0
 40
3.5
 41
0.0
 71
     1
 72
     1
  1
131021
  7
SLDTEXTSTYLE0
 73
     1
 44
1.0
  0
MTEXT
  5
359
330
1F
100
AcDbEntity
  8
SLD-0
 62
     7
100
AcDbMText
 10
147.388752969
 20
29.7138882404
 30
0.0
 40
4.2333333333
 41
0.0
 71
     1
 72
     1
  1
N01911-105-0
  7
SLDTEXTSTYLE1
 73
     1
 44
1.0
  0
MTEXT
  5
35B
330
1F
100
AcDbEntity
  8
SLD-0
 62
     7
100
AcDbMText
 10
139.4822231143
 20
43.2377018572
 30
0.0
 40
4.2333333333
 41
0.0
 71
     1
 72
     1
  1
25 CYL Connecter B
  7
SLDTEXTSTYLE2
 73
     1
 44
1.0
  0
MTEXT
  5
35C
330
1F
100
AcDbEntity
  8
SLD-0
 62
     7
100
AcDbMText
 10
130.1282028726
 20
79.5144870442
 30
0.0
 40
3.5
 41
0.0
 71
     1
 72
     1
  1
ﾐﾆｼﾘﾝﾀﾞｰ
  7
SLDTEXTSTYLE1
 73
     1
 44
1.0
  0
MTEXT
  5
35D
330
1F
100
AcDbEntity
  8
SLD-0
 62
     7
100
AcDbMText
 10
121.0836920833
 20
74.6762391582
 30
0.0
 40
2.6458333333
 41
0.0
 71
     1
 72
     1
  1
(配管用継手BF-5付属)
  7
SLDTEXTSTYLE1
 73
     1
 44
1.0
  0
MTEXT
  5
35E
330
1F
100
AcDbEntity
  8
SLD-0
 62
     7
100
AcDbMText
 10
135.7490532936
 20
67.0217865688
 30
0.0
 40
3.5
 41
0.0
 71
     1
 72
     1
  1
MCD
  7
SLDTEXTSTYLE1
 73
     1
 44
1.0
  0
MTEXT
  5
35F
330
1F
100
AcDbEntity
  8
SLD-0
 62
     7
100
AcDbMText
 10
164.9558395624
 20
76.8841288706
 30
0.0
 40
3.5
 41
0.0
 71
     1
 72
     1
  1
ﾏｲｸﾛﾐﾆｼﾘﾝﾀﾞｰ
  7
SLDTEXTSTYLE1
 73
     1
 44
1.0
  0
MTEXT
  5
360
330
1F
100
AcDbEntity
  8
SLD-0
 62
     7
100
AcDbMText
 10
172.4039505324
 20
67.0217865688
 30
0.0
 40
3.5
 41
0.0
 71
     1
 72
     1
  1
UMCD
  7
SLDTEXTSTYLE1
 73
     1
 44
1.0
  0
INSERT
  5
361
330
1F
100
AcDbEntity
  8
0
  6
Continuous
 62
     7
370
     0
100
AcDbBlockReference
  2
SURFACEFINISH45
 10
159.4443600604
 20
250.5749245738
 30
0.0
  0
INSERT
  5
362
330
1F
100
AcDbEntity
  8
0
  6
Continuous
 62
     7
370
     0
100
AcDbBlockReference
  2
SURFACEFINISH46
 10
175.4785306273
 20
250.9049245738
 30
0.0
  0
INSERT
  5
363
330
1F
100
AcDbEntity
  8
0
  6
Continuous
 62
     7
370
     0
100
AcDbBlockReference
  2
注記
 10
22.1879884144
 20
66.4290584666
 30
0.0
  0
INSERT
  5
364
330
1F
100
AcDbEntity
  8
0
  6
Continuous
 62
     7
370
     0
100
AcDbBlockReference
  2
SURFACEFINISH47
 10
67.3481233349
 20
109.472372361
 30
0.0
  0
INSERT
  5
365
330
1F
100
AcDbEntity
  8
0
  6
Continuous
 62
     7
370
     0
100
AcDbBlockReference
  2
SURFACEFINISH48
 10
81.4671178372
 20
108.5658652149
 30
0.0
  0
INSERT
  5
366
330
1F
100
AcDbEntity
  8
0
  6
Continuous
 62
     7
370
     0
100
AcDbBlockReference
  2
SW_CENTERMARK0
 10
0.0
 20
0.0
 30
0.0
  0
INSERT
  5
367
330
1F
100
AcDbEntity
  8
0
  6
Continuous
 62
     7
370
     0
100
AcDbBlockReference
  2
SW_CENTERMARK1
 10
0.0
 20
0.0
 30
0.0
  0
INSERT
  5
368
330
1F
100
AcDbEntity
  8
0
  6
Continuous
 62
     7
370
     0
100
AcDbBlockReference
  2
SW_CENTERMARK2
 10
0.0
 20
0.0
 30
0.0
  0
INSERT
  5
369
330
1F
100
AcDbEntity
  8
0
  6
Continuous
 62
     7
370
     0
100
AcDbBlockReference
  2
SW_CENTERMARK3
 10
0.0
 20
0.0
 30
0.0
  0
INSERT
  5
36A
330
1F
100
AcDbEntity
  8
0
  6
Continuous
 62
     7
370
     0
100
AcDbBlockReference
  2
SW_CENTERMARK4
 10
0.0
 20
0.0
 30
0.0
  0
INSERT
  5
36B
330
1F
100
AcDbEntity
  8
0
  6
Continuous
 62
     7
370
     0
100
AcDbBlockReference
  2
SW_CENTERMARK5
 10
0.0
 20
0.0
 30
0.0
  0
INSERT
  5
36C
330
1F
100
AcDbEntity
  8
0
  6
Continuous
 62
     7
370
     0
100
AcDbBlockReference
  2
SW_CENTERMARK6
 10
0.0
 20
0.0
 30
0.0
  0
ENDSEC
  0
SECTION
  2
OBJECTS
  0
DICTIONARY
  5
C
330
0
100
AcDbDictionary
281
     1
  3
ACAD_GROUP
350
D
  3
ACAD_LAYOUT
350
1A
  3
ACAD_MLINESTYLE
350
17
  3
ACAD_PLOTSETTINGS
350
19
  3
ACAD_PLOTSTYLENAME
350
E
  0
DICTIONARY
  5
D
102
{ACAD_REACTORS
330
C
102
}
330
C
100
AcDbDictionary
281
     1
  0
DICTIONARY
  5
1A
102
{ACAD_REACTORS
330
C
102
}
330
C
100
AcDbDictionary
281
     1
  3
Layout1
350
1E
  3
Layout2
350
26
  3
Model
350
22
  0
DICTIONARY
  5
17
102
{ACAD_REACTORS
330
C
102
}
330
C
100
AcDbDictionary
281
     1
  3
Standard
350
18
  0
DICTIONARY
  5
19
102
{ACAD_REACTORS
330
C
102
}
330
C
100
AcDbDictionary
281
     1
  0
ACDBDICTIONARYWDFLT
  5
E
102
{ACAD_REACTORS
330
C
102
}
330
C
100
AcDbDictionary
281
     1
  3
Normal
350
F
100
AcDbDictionaryWithDefault
340
F
  0
LAYOUT
  5
1E
102
{ACAD_REACTORS
330
1A
102
}
330
1A
100
AcDbPlotSettings
  1

  2

  4

  6

 40
0.0
 41
0.0
 42
0.0
 43
0.0
 44
0.0
 45
0.0
 46
0.0
 47
0.0
 48
0.0
 49
0.0
140
0.0
141
0.0
142
1.0
143
1.0
 70
   688
 72
     0
 73
     0
 74
     5
  7

 75
    16
147
1.0
148
0.0
149
0.0
100
AcDbLayout
  1
Layout1
 70
     1
 71
     1
 10
0.0
 20
0.0
 11
0.0
 21
0.0
 12
0.0
 22
0.0
 32
0.0
 14
0.0
 24
0.0
 34
0.0
 15
0.0
 25
0.0
 35
0.0
146
0.0
 13
0.0
 23
0.0
 33
0.0
 16
1.0
 26
0.0
 36
0.0
 17
0.0
 27
1.0
 37
0.0
 76
     0
330
1B
  0
LAYOUT
  5
26
102
{ACAD_REACTORS
330
1A
102
}
330
1A
100
AcDbPlotSettings
  1

  2

  4

  6

 40
0.0
 41
0.0
 42
0.0
 43
0.0
 44
0.0
 45
0.0
 46
0.0
 47
0.0
 48
0.0
 49
0.0
140
0.0
141
0.0
142
1.0
143
1.0
 70
   688
 72
     0
 73
     0
 74
     5
  7

 75
    16
147
1.0
148
0.0
149
0.0
100
AcDbLayout
  1
Layout2
 70
     1
 71
     2
 10
0.0
 20
0.0
 11
0.0
 21
0.0
 12
0.0
 22
0.0
 32
0.0
 14
0.0
 24
0.0
 34
0.0
 15
0.0
 25
0.0
 35
0.0
146
0.0
 13
0.0
 23
0.0
 33
0.0
 16
1.0
 26
0.0
 36
0.0
 17
0.0
 27
1.0
 37
0.0
 76
     0
330
23
  0
LAYOUT
  5
22
102
{ACAD_REACTORS
330
1A
102
}
330
1A
100
AcDbPlotSettings
  1

  2

  4

  6

 40
0.0
 41
0.0
 42
0.0
 43
0.0
 44
0.0
 45
0.0
 46
0.0
 47
0.0
 48
0.0
 49
0.0
140
0.0
141
0.0
142
1.0
143
1.0
 70
  1712
 72
     0
 73
     0
 74
     0
  7

 75
     0
147
1.0
148
0.0
149
0.0
100
AcDbLayout
  1
Model
 70
     1
 71
     0
 10
0.0
 20
0.0
 11
0.0
 21
0.0
 12
0.0
 22
0.0
 32
0.0
 14
0.0
 24
0.0
 34
0.0
 15
210.0
 25
297.0
 35
0.0
146
0.0
 13
0.0
 23
0.0
 33
0.0
 16
1.0
 26
0.0
 36
0.0
 17
0.0
 27
1.0
 37
0.0
 76
     0
330
1F
  0
MLINESTYLE
  5
18
102
{ACAD_REACTORS
330
17
102
}
330
17
100
AcDbMlineStyle
  2
Standard
 70
     0
  3

 62
   256
 51
90.0
 52
90.0
 71
     2
 49
0.5
 62
   256
  6
BYLAYER
 49
-0.5
 62
   256
  6
BYLAYER
  0
ACDBPLACEHOLDER
  5
F
102
{ACAD_REACTORS
330
E
102
}
330
E
  0
ENDSEC
  0
EOF
