  0
SECTION
  2
HEADER
  9
$ACADVER
  1
AC1015
  9
$ACADMAINTVER
 70
     6
  9
$DWGCODEPAGE
  3
DOS932
  9
$INSBASE
 10
0.0
 20
0.0
 30
0.0
  9
$EXTMIN
 10
0.0
 20
0.0
 30
0.0
  9
$EXTMAX
 10
210.0
 20
297.0
 30
0.0
  9
$LIMMIN
 10
0.0
 20
0.0
  9
$LIMMAX
 10
0.0
 20
0.0
  9
$ORTHOMODE
 70
     0
  9
$REGENMODE
 70
     1
  9
$FILLMODE
 70
     1
  9
$QTEXTMODE
 70
     0
  9
$MIRRTEXT
 70
     1
  9
$LTSCALE
 40
1.0
  9
$ATTMODE
 70
     1
  9
$TEXTSIZE
 40
3.5
  9
$TRACEWID
 40
1.0
  9
$TEXTSTYLE
  7
Standard
  9
$CLAYER
  8
0
  9
$CELTYPE
  6
ByLayer
  9
$CECOLOR
 62
   256
  9
$CELTSCALE
 40
1.0
  9
$DISPSILH
 70
     0
  9
$DIMSCALE
 40
1.0
  9
$DIMASZ
 40
3.0
  9
$DIMEXO
 40
1.0
  9
$DIMDLI
 40
3.75
  9
$DIMRND
 40
0.0
  9
$DIMDLE
 40
0.0
  9
$DIMEXE
 40
1.0
  9
$DIMTP
 40
0.0
  9
$DIMTM
 40
0.0
  9
$DIMTXT
 40
3.5
  9
$DIMCEN
 40
2.5
  9
$DIMTSZ
 40
0.0
  9
$DIMTOL
 70
     0
  9
$DIMLIM
 70
     0
  9
$DIMTIH
 70
     1
  9
$DIMTOH
 70
     1
  9
$DIMSE1
 70
     0
  9
$DIMSE2
 70
     0
  9
$DIMTAD
 70
     1
  9
$DIMZIN
 70
     1
  9
$DIMBLK
  1

  9
$DIMASO
 70
     1
  9
$DIMSHO
 70
     1
  9
$DIMPOST
  1

  9
$DIMAPOST
  1

  9
$DIMALT
 70
     0
  9
$DIMALTD
 70
     3
  9
$DIMALTF
 40
0.0393700787
  9
$DIMLFAC
 40
1.0
  9
$DIMTOFL
 70
     1
  9
$DIMTVP
 40
0.0
  9
$DIMTIX
 70
     0
  9
$DIMSOXD
 70
     0
  9
$DIMSAH
 70
     0
  9
$DIMBLK1
  1

  9
$DIMBLK2
  1

  9
$DIMSTYLE
  2
ISO-25
  9
$DIMCLRD
 70
     0
  9
$DIMCLRE
 70
     0
  9
$DIMCLRT
 70
     0
  9
$DIMTFAC
 40
1.0
  9
$DIMGAP
 40
1.524
  9
$DIMJUST
 70
     0
  9
$DIMSD1
 70
     0
  9
$DIMSD2
 70
     0
  9
$DIMTOLJ
 70
     0
  9
$DIMTZIN
 70
     1
  9
$DIMALTZ
 70
     0
  9
$DIMALTTZ
 70
     0
  9
$DIMUPT
 70
     0
  9
$DIMDEC
 70
     2
  9
$DIMTDEC
 70
     2
  9
$DIMALTU
 70
     2
  9
$DIMALTTD
 70
     3
  9
$DIMTXSTY
  7
Standard
  9
$DIMAUNIT
 70
     0
  9
$DIMADEC
 70
     0
  9
$DIMALTRND
 40
0.0
  9
$DIMAZIN
 70
     0
  9
$DIMDSEP
 70
    44
  9
$DIMATFIT
 70
     3
  9
$DIMFRAC
 70
     0
  9
$DIMLDRBLK
  1

  9
$DIMLUNIT
 70
     2
  9
$DIMLWD
 70
    -2
  9
$DIMLWE
 70
    -2
  9
$DIMTMOVE
 70
     0
  9
$LUNITS
 70
     2
  9
$LUPREC
 70
     1
  9
$SKETCHINC
 40
1.0
  9
$FILLETRAD
 40
10.0
  9
$AUNITS
 70
     0
  9
$AUPREC
 70
     0
  9
$MENU
  1
.
  9
$ELEVATION
 40
0.0
  9
$PELEVATION
 40
0.0
  9
$THICKNESS
 40
0.0
  9
$LIMCHECK
 70
     0
  9
$CHAMFERA
 40
10.0
  9
$CHAMFERB
 40
10.0
  9
$CHAMFERC
 40
20.0
  9
$CHAMFERD
 40
0.0
  9
$SKPOLY
 70
     0
  9
$TDCREATE
 40
2454309.377227095
  9
$TDUCREATE
 40
2454309.002227095
  9
$TDUPDATE
 40
2454309.377227107
  9
$TDUUPDATE
 40
2454309.002227107
  9
$TDINDWG
 40
0.0000000116
  9
$TDUSRTIMER
 40
0.0000000116
  9
$USRTIMER
 70
     1
  9
$ANGBASE
 50
0.0
  9
$ANGDIR
 70
     0
  9
$PDMODE
 70
     0
  9
$PDSIZE
 40
-1.0
  9
$PLINEWID
 40
0.0
  9
$SPLFRAME
 70
     0
  9
$SPLINETYPE
 70
     6
  9
$SPLINESEGS
 70
     8
  9
$HANDSEED
  5
2CB
  9
$SURFTAB1
 70
     6
  9
$SURFTAB2
 70
     6
  9
$SURFTYPE
 70
     6
  9
$SURFU
 70
     6
  9
$SURFV
 70
     6
  9
$UCSBASE
  2

  9
$UCSNAME
  2

  9
$UCSORG
 10
0.0
 20
0.0
 30
0.0
  9
$UCSXDIR
 10
1.0
 20
0.0
 30
0.0
  9
$UCSYDIR
 10
0.0
 20
1.0
 30
0.0
  9
$UCSORTHOREF
  2

  9
$UCSORTHOVIEW
 70
     0
  9
$UCSORGTOP
 10
0.0
 20
0.0
 30
0.0
  9
$UCSORGBOTTOM
 10
0.0
 20
0.0
 30
0.0
  9
$UCSORGLEFT
 10
0.0
 20
0.0
 30
0.0
  9
$UCSORGRIGHT
 10
0.0
 20
0.0
 30
0.0
  9
$UCSORGFRONT
 10
0.0
 20
0.0
 30
0.0
  9
$UCSORGBACK
 10
0.0
 20
0.0
 30
0.0
  9
$PUCSBASE
  2

  9
$PUCSNAME
  2

  9
$PUCSORG
 10
0.0
 20
0.0
 30
0.0
  9
$PUCSXDIR
 10
1.0
 20
0.0
 30
0.0
  9
$PUCSYDIR
 10
0.0
 20
1.0
 30
0.0
  9
$PUCSORTHOREF
  2

  9
$PUCSORTHOVIEW
 70
     0
  9
$PUCSORGTOP
 10
0.0
 20
0.0
 30
0.0
  9
$PUCSORGBOTTOM
 10
0.0
 20
0.0
 30
0.0
  9
$PUCSORGLEFT
 10
0.0
 20
0.0
 30
0.0
  9
$PUCSORGRIGHT
 10
0.0
 20
0.0
 30
0.0
  9
$PUCSORGFRONT
 10
0.0
 20
0.0
 30
0.0
  9
$PUCSORGBACK
 10
0.0
 20
0.0
 30
0.0
  9
$USERI1
 70
     0
  9
$USERI2
 70
     0
  9
$USERI3
 70
     0
  9
$USERI4
 70
     0
  9
$USERI5
 70
     0
  9
$USERR1
 40
0.0
  9
$USERR2
 40
0.0
  9
$USERR3
 40
0.0
  9
$USERR4
 40
0.0
  9
$USERR5
 40
0.0
  9
$WORLDVIEW
 70
     1
  9
$SHADEDGE
 70
     3
  9
$SHADEDIF
 70
    70
  9
$TILEMODE
 70
     1
  9
$MAXACTVP
 70
    64
  9
$PINSBASE
 10
0.0
 20
0.0
 30
0.0
  9
$PLIMCHECK
 70
     0
  9
$PEXTMIN
 10
1.0000000000E+20
 20
1.0000000000E+20
 30
1.0000000000E+20
  9
$PEXTMAX
 10
-1.0000000000E+20
 20
-1.0000000000E+20
 30
-1.0000000000E+20
  9
$PLIMMIN
 10
0.0
 20
0.0
  9
$PLIMMAX
 10
420.0
 20
297.0
  9
$UNITMODE
 70
     0
  9
$VISRETAIN
 70
     1
  9
$PLINEGEN
 70
     0
  9
$PSLTSCALE
 70
     1
  9
$TREEDEPTH
 70
  3020
  9
$CMLSTYLE
  2
Standard
  9
$CMLJUST
 70
     0
  9
$CMLSCALE
 40
20.0
  9
$PROXYGRAPHICS
 70
     1
  9
$MEASUREMENT
 70
     1
  9
$CELWEIGHT
370
    -1
  9
$ENDCAPS
280
     0
  9
$JOINSTYLE
280
     0
  9
$LWDISPLAY
290
     1
  9
$INSUNITS
 70
     4
  9
$HYPERLINKBASE
  1

  9
$STYLESHEET
  1

  9
$XEDIT
290
     1
  9
$CEPSNTYPE
380
     0
  9
$PSTYLEMODE
290
     1
  9
$FINGERPRINTGUID
  2
{51B32724-2C5A-49BE-81A6-5F14240270A6}
  9
$VERSIONGUID
  2
{FAEB1C32-E019-11D5-929B-00C0DF256EC4}
  9
$EXTNAMES
290
     1
  9
$PSVPSCALE
 40
0.0
  9
$OLESTARTUP
290
     0
  0
ENDSEC
  0
SECTION
  2
CLASSES
  0
CLASS
  1
ACDBDICTIONARYWDFLT
  2
AcDbDictionaryWithDefault
  3
ObjectDBX Classes
 90
        0
280
     0
281
     0
  0
CLASS
  1
ACDBPLACEHOLDER
  2
AcDbPlaceHolder
  3
ObjectDBX Classes
 90
        0
280
     0
281
     0
  0
CLASS
  1
LAYOUT
  2
AcDbLayout
  3
ObjectDBX Classes
 90
        0
280
     0
281
     0
  0
ENDSEC
  0
SECTION
  2
TABLES
  0
TABLE
  2
VPORT
  5
8
330
0
100
AcDbSymbolTable
 70
     1
  0
VPORT
  5
29
330
8
100
AcDbSymbolTableRecord
100
AcDbViewportTableRecord
  2
*Active
 70
     0
 10
0.0
 20
0.0
 11
1.0
 21
1.0
 12
105.0
 22
148.5
 13
0.0
 23
0.0
 14
10.0
 24
10.0
 15
10.0
 25
10.0
 16
0.0
 26
0.0
 36
1.0
 17
0.0
 27
0.0
 37
0.0
 40
297.0
 41
1.9729729729
 42
50.0
 43
0.0
 44
0.0
 50
0.0
 51
0.0
 71
     0
 72
  2000
 73
     1
 74
     3
 75
     0
 76
     0
 77
     0
 78
     0
281
     0
 65
     1
110
0.0
120
0.0
130
0.0
111
1.0
121
0.0
131
0.0
112
0.0
122
1.0
132
0.0
 79
     0
146
0.0
  0
ENDTAB
  0
TABLE
  2
LTYPE
  5
5
330
0
100
AcDbSymbolTable
 70
     6
  0
LTYPE
  5
14
330
5
100
AcDbSymbolTableRecord
100
AcDbLinetypeTableRecord
  2
ByBlock
 70
     0
  3

 72
    65
 73
     0
 40
0.0
  0
LTYPE
  5
15
330
5
100
AcDbSymbolTableRecord
100
AcDbLinetypeTableRecord
  2
ByLayer
 70
     0
  3

 72
    65
 73
     0
 40
0.0
  0
LTYPE
  5
16
330
5
100
AcDbSymbolTableRecord
100
AcDbLinetypeTableRecord
  2
Continuous
 70
     0
  3
Solid line
 72
    65
 73
     0
 40
0.0
  0
LTYPE
  5
2A
330
5
100
AcDbSymbolTableRecord
100
AcDbLinetypeTableRecord
  2
HIDDEN
 70
     0
  3
Hidden __ __ __ __ __ __ __ __ __ __ __ __ __ __
 72
    65
 73
     2
 40
1.905
 49
1.27
 74
     0
 49
-0.635
 74
     0
  0
LTYPE
  5
2B
330
5
100
AcDbSymbolTableRecord
100
AcDbLinetypeTableRecord
  2
PHANTOM
 70
     0
  3
Phantom ______  __  __  ______  __  __  ______
 72
    65
 73
     6
 40
12.7
 49
6.35
 74
     0
 49
-1.27
 74
     0
 49
1.27
 74
     0
 49
-1.27
 74
     0
 49
1.27
 74
     0
 49
-1.27
 74
     0
  0
LTYPE
  5
2C
330
5
100
AcDbSymbolTableRecord
100
AcDbLinetypeTableRecord
  2
CENTER
 70
     0
  3
Center ____ _ ____ _ ____ _ ____ _ ____ _ ____
 72
    65
 73
     4
 40
10.16
 49
6.35
 74
     0
 49
-1.27
 74
     0
 49
1.27
 74
     0
 49
-1.27
 74
     0
  0
LTYPE
  5
2D
330
5
100
AcDbSymbolTableRecord
100
AcDbLinetypeTableRecord
  2
CENTERX2
 70
     0
  3
Center (2x) ________  __  ________  __  _____
 72
    65
 73
     4
 40
20.32
 49
12.7
 74
     0
 49
-2.54
 74
     0
 49
2.54
 74
     0
 49
-2.54
 74
     0
  0
LTYPE
  5
2E
330
5
100
AcDbSymbolTableRecord
100
AcDbLinetypeTableRecord
  2
DOT2
 70
     0
  3
Dot (.5x) ........................................
 72
    65
 73
     2
 40
0.635
 49
0.0
 74
     0
 49
-0.635
 74
     0
  0
ENDTAB
  0
TABLE
  2
LAYER
  5
2
330
0
100
AcDbSymbolTable
 70
     4
  0
LAYER
  5
10
330
2
100
AcDbSymbolTableRecord
100
AcDbLayerTableRecord
  2
0
 70
     0
 62
     7
  6
Continuous
370
    -3
390
F
  0
LAYER
  5
2F
330
2
100
AcDbSymbolTableRecord
100
AcDbLayerTableRecord
  2
SLD-0
 70
     0
 62
   179
  6
Continuous
370
     0
390
F
  0
LAYER
  5
30
330
2
100
AcDbSymbolTableRecord
100
AcDbLayerTableRecord
  2
SLD-DEFPOINTS
 70
     0
 62
   179
  6
Continuous
370
     0
390
F
  0
LAYER
  5
F2
330
2
100
AcDbSymbolTableRecord
100
AcDbLayerTableRecord
  2
Defpoints
 70
     0
 62
     7
  6
Continuous
290
     0
370
    -3
390
F
  0
ENDTAB
  0
TABLE
  2
STYLE
  5
3
330
0
100
AcDbSymbolTable
 70
     4
  0
STYLE
  5
11
330
3
100
AcDbSymbolTableRecord
100
AcDbTextStyleTableRecord
  2
Standard
 70
     0
 40
0.0
 41
1.0
 50
0.0
 71
     0
 42
2.5
  3
txt
  4
bigfont
  0
STYLE
  5
34
330
3
100
AcDbSymbolTableRecord
100
AcDbTextStyleTableRecord
  2
SLDTEXTSTYLE0
 70
     0
 40
0.0
 41
0.7
 50
0.0
 71
     0
 42
0.2
  3
TXT
  4
bigfont
  0
STYLE
  5
3C
330
3
100
AcDbSymbolTableRecord
100
AcDbTextStyleTableRecord
  2
SLDTEXTSTYLE1
 70
     0
 40
0.0
 41
0.5526315789
 50
0.0
 71
     0
 42
0.2
  3
TXT
  4
bigfont
  0
STYLE
  5
2B9
330
3
100
AcDbSymbolTableRecord
100
AcDbTextStyleTableRecord
  2
SLDTEXTSTYLE2
 70
     0
 40
0.0
 41
0.4989588608
 50
0.0
 71
     0
 42
0.2
  3
TXT
  4
bigfont
  0
ENDTAB
  0
TABLE
  2
VIEW
  5
6
330
0
100
AcDbSymbolTable
 70
     0
  0
ENDTAB
  0
TABLE
  2
UCS
  5
7
330
0
100
AcDbSymbolTable
 70
     0
  0
ENDTAB
  0
TABLE
  2
APPID
  5
9
330
0
100
AcDbSymbolTable
 70
     1
  0
APPID
  5
12
330
9
100
AcDbSymbolTableRecord
100
AcDbRegAppTableRecord
  2
ACAD
 70
     0
  0
ENDTAB
  0
TABLE
  2
DIMSTYLE
  5
A
330
0
100
AcDbSymbolTable
 70
     5
100
AcDbDimStyleTable
  0
DIMSTYLE
105
27
330
A
100
AcDbSymbolTableRecord
100
AcDbDimStyleTableRecord
  2
ISO-25
 70
     0
 41
2.5
 42
0.625
 43
3.75
 44
1.25
 73
     0
 74
     0
 77
     1
 78
     8
140
2.5
141
2.5
143
0.0393700787
147
0.625
171
     3
172
     1
271
     2
272
     2
274
     3
278
    44
283
     0
284
     8
340
11
  0
DIMSTYLE
105
FF
102
{ACAD_REACTORS
330
F1
330
10D
330
1CE
330
1E6
330
200
330
232
330
24D
330
284
330
29C
102
}
330
A
100
AcDbSymbolTableRecord
100
AcDbDimStyleTableRecord
  2
SLDDIMSTYLE0
 70
     0
 41
3.0
 44
0.0
 73
     0
 74
     0
 77
     3
 78
    12
140
3.5
147
0.875
173
     1
271
     0
272
     3
284
    12
340
3C
341
100
343
100
344
100
  0
DIMSTYLE
105
133
102
{ACAD_REACTORS
330
125
330
13E
330
156
330
16D
330
184
330
1A0
102
}
330
A
100
AcDbSymbolTableRecord
100
AcDbDimStyleTableRecord
  2
SLDDIMSTYLE1
 70
     0
 41
3.0
 44
0.0
 73
     0
 74
     0
 77
     3
 78
    12
140
3.5
147
0.875
173
     1
271
     1
272
     3
284
    12
340
3C
341
100
343
100
344
100
  0
DIMSTYLE
105
1C5
102
{ACAD_REACTORS
330
1BB
102
}
330
A
100
AcDbSymbolTableRecord
100
AcDbDimStyleTableRecord
  2
SLDDIMSTYLE2
 70
     0
 41
3.0
 44
0.0
 78
    12
140
3.5
147
0.875
172
     1
173
     1
271
     1
272
     3
284
    12
340
3C
341
100
343
100
344
100
  0
DIMSTYLE
105
224
102
{ACAD_REACTORS
330
217
330
269
102
}
330
A
100
AcDbSymbolTableRecord
100
AcDbDimStyleTableRecord
  2
SLDDIMSTYLE3
 70
     0
 41
3.0
 44
0.0
 47
0.1
 71
     1
 73
     0
 74
     0
 77
     3
 78
    12
140
3.5
147
0.875
173
     1
271
     0
272
     1
340
3C
341
100
343
100
344
100
  0
ENDTAB
  0
TABLE
  2
BLOCK_RECORD
  5
1
330
0
100
AcDbSymbolTable
 70
    33
  0
BLOCK_RECORD
  5
1F
330
1
100
AcDbSymbolTableRecord
100
AcDbBlockTableRecord
  2
*Model_Space
340
22
  0
BLOCK_RECORD
  5
1B
330
1
100
AcDbSymbolTableRecord
100
AcDbBlockTableRecord
  2
*Paper_Space
340
1E
  0
BLOCK_RECORD
  5
23
330
1
100
AcDbSymbolTableRecord
100
AcDbBlockTableRecord
  2
*Paper_Space0
340
26
  0
BLOCK_RECORD
  5
31
330
1
100
AcDbSymbolTableRecord
100
AcDbBlockTableRecord
  2
注記
340
0
102
{BLKREFS
331
2C0
102
}
  0
BLOCK_RECORD
  5
37
330
1
100
AcDbSymbolTableRecord
100
AcDbBlockTableRecord
  2
SURFACEFINISH40
340
0
102
{BLKREFS
331
2BE
102
}
  0
BLOCK_RECORD
  5
3E
330
1
100
AcDbSymbolTableRecord
100
AcDbBlockTableRecord
  2
SURFACEFINISH41
340
0
102
{BLKREFS
331
2BF
102
}
  0
BLOCK_RECORD
  5
45
330
1
100
AcDbSymbolTableRecord
100
AcDbBlockTableRecord
  2
_OPEN30
340
0
102
{BLKREFS
331
2C1
102
}
  0
BLOCK_RECORD
  5
4B
330
1
100
AcDbSymbolTableRecord
100
AcDbBlockTableRecord
  2
SW_CENTERMARK0
340
0
102
{BLKREFS
331
2C2
102
}
  0
BLOCK_RECORD
  5
56
330
1
100
AcDbSymbolTableRecord
100
AcDbBlockTableRecord
  2
SW_CENTERMARK1
340
0
102
{BLKREFS
331
2C3
102
}
  0
BLOCK_RECORD
  5
61
330
1
100
AcDbSymbolTableRecord
100
AcDbBlockTableRecord
  2
SW_CENTERMARK2
340
0
102
{BLKREFS
331
2C4
102
}
  0
BLOCK_RECORD
  5
6C
330
1
100
AcDbSymbolTableRecord
100
AcDbBlockTableRecord
  2
SW_CENTERMARK3
340
0
102
{BLKREFS
331
2C5
102
}
  0
BLOCK_RECORD
  5
77
330
1
100
AcDbSymbolTableRecord
100
AcDbBlockTableRecord
  2
SW_CENTERMARK4
340
0
102
{BLKREFS
331
2C6
102
}
  0
BLOCK_RECORD
  5
82
330
1
100
AcDbSymbolTableRecord
100
AcDbBlockTableRecord
  2
SURFACEFINISH42
340
0
102
{BLKREFS
331
2C7
102
}
  0
BLOCK_RECORD
  5
8A
330
1
100
AcDbSymbolTableRecord
100
AcDbBlockTableRecord
  2
SURFACEFINISH43
340
0
102
{BLKREFS
331
2C8
102
}
  0
BLOCK_RECORD
  5
92
330
1
100
AcDbSymbolTableRecord
100
AcDbBlockTableRecord
  2
SURFACEFINISH44
340
0
102
{BLKREFS
331
2C9
102
}
  0
BLOCK_RECORD
  5
9A
330
1
100
AcDbSymbolTableRecord
100
AcDbBlockTableRecord
  2
SURFACEFINISH45
340
0
102
{BLKREFS
331
2CA
102
}
  0
BLOCK_RECORD
  5
F3
330
1
100
AcDbSymbolTableRecord
100
AcDbBlockTableRecord
  2
*D14
340
0
  0
BLOCK_RECORD
  5
100
330
1
100
AcDbSymbolTableRecord
100
AcDbBlockTableRecord
  2
_None
340
0
102
{BLKREFS
331
F8
331
F7
331
113
331
112
331
12B
331
12A
331
144
331
143
331
15C
331
15B
331
173
331
172
331
18B
331
18A
331
1A7
331
1A6
331
1C0
331
1D4
331
1D3
331
1EC
331
1EB
331
206
331
205
331
21D
331
21C
331
238
331
237
331
253
331
252
331
26F
331
26E
331
28A
331
289
331
2A2
331
2A1
102
}
  0
BLOCK_RECORD
  5
10E
330
1
100
AcDbSymbolTableRecord
100
AcDbBlockTableRecord
  2
*D16
340
0
  0
BLOCK_RECORD
  5
126
330
1
100
AcDbSymbolTableRecord
100
AcDbBlockTableRecord
  2
*D17
340
0
  0
BLOCK_RECORD
  5
13F
330
1
100
AcDbSymbolTableRecord
100
AcDbBlockTableRecord
  2
*D18
340
0
  0
BLOCK_RECORD
  5
157
330
1
100
AcDbSymbolTableRecord
100
AcDbBlockTableRecord
  2
*D19
340
0
  0
BLOCK_RECORD
  5
16E
330
1
100
AcDbSymbolTableRecord
100
AcDbBlockTableRecord
  2
*D20
340
0
  0
BLOCK_RECORD
  5
185
330
1
100
AcDbSymbolTableRecord
100
AcDbBlockTableRecord
  2
*D21
340
0
  0
BLOCK_RECORD
  5
1A1
330
1
100
AcDbSymbolTableRecord
100
AcDbBlockTableRecord
  2
*D22
340
0
  0
BLOCK_RECORD
  5
1BC
330
1
100
AcDbSymbolTableRecord
100
AcDbBlockTableRecord
  2
*D23
340
0
  0
BLOCK_RECORD
  5
1CF
330
1
100
AcDbSymbolTableRecord
100
AcDbBlockTableRecord
  2
*D24
340
0
  0
BLOCK_RECORD
  5
1E7
330
1
100
AcDbSymbolTableRecord
100
AcDbBlockTableRecord
  2
*D25
340
0
  0
BLOCK_RECORD
  5
201
330
1
100
AcDbSymbolTableRecord
100
AcDbBlockTableRecord
  2
*D26
340
0
  0
BLOCK_RECORD
  5
218
330
1
100
AcDbSymbolTableRecord
100
AcDbBlockTableRecord
  2
*D27
340
0
  0
BLOCK_RECORD
  5
233
330
1
100
AcDbSymbolTableRecord
100
AcDbBlockTableRecord
  2
*D28
340
0
  0
BLOCK_RECORD
  5
24E
330
1
100
AcDbSymbolTableRecord
100
AcDbBlockTableRecord
  2
*D29
340
0
  0
BLOCK_RECORD
  5
26A
330
1
100
AcDbSymbolTableRecord
100
AcDbBlockTableRecord
  2
*D30
340
0
  0
BLOCK_RECORD
  5
285
330
1
100
AcDbSymbolTableRecord
100
AcDbBlockTableRecord
  2
*D31
340
0
  0
BLOCK_RECORD
  5
29D
330
1
100
AcDbSymbolTableRecord
100
AcDbBlockTableRecord
  2
*D32
340
0
  0
ENDTAB
  0
ENDSEC
  0
SECTION
  2
BLOCKS
  0
BLOCK
  5
20
330
1F
100
AcDbEntity
  8
0
100
AcDbBlockBegin
  2
*Model_Space
 70
     0
 71
     0
 10
0.0
 20
0.0
 30
0.0
  3
*Model_Space
  1

  0
ENDBLK
  5
21
330
1F
100
AcDbEntity
  8
0
100
AcDbBlockEnd
  0
BLOCK
  5
1C
330
1B
100
AcDbEntity
 67
     1
  8
0
100
AcDbBlockBegin
  2
*Paper_Space
 70
     0
 71
     0
 10
0.0
 20
0.0
 30
0.0
  3
*Paper_Space
  1

  0
ENDBLK
  5
1D
330
1B
100
AcDbEntity
 67
     1
  8
0
100
AcDbBlockEnd
  0
BLOCK
  5
24
330
23
100
AcDbEntity
  8
0
100
AcDbBlockBegin
  2
*Paper_Space0
 70
     0
 71
     0
 10
0.0
 20
0.0
 30
0.0
  3
*Paper_Space0
  1

  0
ENDBLK
  5
25
330
23
100
AcDbEntity
  8
0
100
AcDbBlockEnd
  0
BLOCK
  5
32
330
31
100
AcDbEntity
  8
0
100
AcDbBlockBegin
  2
注記
 70
     0
 71
     0
 10
0.0
 20
0.0
 30
0.0
  3
注記
  1

  0
MTEXT
  5
35
330
31
100
AcDbEntity
  8
0
  6
Continuous
 62
     7
370
     0
100
AcDbMText
 10
0.2636785918
 20
9.0739778448
 30
0.0
 40
3.5
 41
0.0
 71
     1
 72
     1
  1
１．特記ナキ角部ハ、バリ　カエリノ無キコト。
  7
SLDTEXTSTYLE0
 73
     1
 44
1.0
  0
MTEXT
  5
36
330
31
100
AcDbEntity
  8
0
  6
Continuous
 62
     7
370
     0
100
AcDbMText
 10
0.2636785918
 20
3.5759549983
 30
0.0
 40
3.5
 41
0.0
 71
     1
 72
     1
  1
２．特記ナキ隅部ハ、Ｒ０．４ＭＡＸトスル。
  7
SLDTEXTSTYLE0
 73
     1
 44
1.0
  0
ENDBLK
  5
33
330
31
100
AcDbEntity
  8
0
100
AcDbBlockEnd
  0
BLOCK
  5
38
330
37
100
AcDbEntity
  8
0
100
AcDbBlockBegin
  2
SURFACEFINISH40
 70
     0
 71
     0
 10
0.0
 20
0.0
 30
0.0
  3
SURFACEFINISH40
  1

  0
LINE
  5
3A
330
37
100
AcDbEntity
  8
SLD-0
  6
Continuous
 62
   179
100
AcDbLine
 10
0.6656399396
 20
-6.0449245738
 30
0.0
 11
-2.9003789868
 21
0.0000001164
 31
0.0
  0
LINE
  5
3B
330
37
100
AcDbEntity
  8
SLD-0
  6
Continuous
 62
   179
100
AcDbLine
 10
0.6656399396
 20
-6.0449245738
 30
0.0
 11
7.7976777926
 21
6.0449248066
 31
0.0
  0
MTEXT
  5
3D
330
37
100
AcDbEntity
  8
SLD-0
100
AcDbMText
 10
0.0
 20
4.9341236929
 30
0.0
 40
3.175
 41
0.0
 71
     1
 72
     1
  1
25
  7
SLDTEXTSTYLE1
 73
     1
 44
1.0
  0
ENDBLK
  5
39
330
37
100
AcDbEntity
  8
0
100
AcDbBlockEnd
  0
BLOCK
  5
3F
330
3E
100
AcDbEntity
  8
0
100
AcDbBlockBegin
  2
SURFACEFINISH41
 70
     0
 71
     0
 10
0.0
 20
0.0
 30
0.0
  3
SURFACEFINISH41
  1

  0
LINE
  5
41
330
3E
100
AcDbEntity
  8
SLD-0
  6
Continuous
 62
   179
100
AcDbLine
 10
2.7814693727
 20
-6.0449245738
 30
0.0
 11
-0.7845495538
 21
0.0000001164
 31
0.0
  0
LINE
  5
42
330
3E
100
AcDbEntity
  8
SLD-0
  6
Continuous
 62
   179
100
AcDbLine
 10
6.3474882992
 20
0.0000001164
 30
0.0
 11
-0.7845495538
 21
0.0000001164
 31
0.0
  0
LINE
  5
43
330
3E
100
AcDbEntity
  8
SLD-0
  6
Continuous
 62
   179
100
AcDbLine
 10
2.7814693727
 20
-6.0449245738
 30
0.0
 11
9.9135072256
 21
6.0449248066
 31
0.0
  0
MTEXT
  5
44
330
3E
100
AcDbEntity
  8
SLD-0
100
AcDbMText
 10
0.0
 20
4.9341236929
 30
0.0
 40
3.175
 41
0.0
 71
     1
 72
     1
  1
6.3
  7
SLDTEXTSTYLE1
 73
     1
 44
1.0
  0
ENDBLK
  5
40
330
3E
100
AcDbEntity
  8
0
100
AcDbBlockEnd
  0
BLOCK
  5
46
330
45
100
AcDbEntity
  8
0
100
AcDbBlockBegin
  2
_OPEN30
 70
     0
 71
     0
 10
0.0
 20
0.0
 30
0.0
  3
_OPEN30
  1

  0
LINE
  5
48
330
45
100
AcDbEntity
  8
SLD-0
  6
Continuous
100
AcDbLine
 10
-1.0
 20
0.267949
 30
0.0
 11
0.0
 21
0.0
 31
0.0
  0
LINE
  5
49
330
45
100
AcDbEntity
  8
SLD-0
  6
Continuous
100
AcDbLine
 10
0.0
 20
0.0
 30
0.0
 11
-1.0
 21
-0.267949
 31
0.0
  0
LINE
  5
4A
330
45
100
AcDbEntity
  8
SLD-0
  6
Continuous
100
AcDbLine
 10
0.0
 20
0.0
 30
0.0
 11
-1.0
 21
0.0
 31
0.0
  0
ENDBLK
  5
47
330
45
100
AcDbEntity
  8
0
100
AcDbBlockEnd
  0
BLOCK
  5
4C
330
4B
100
AcDbEntity
  8
0
100
AcDbBlockBegin
  2
SW_CENTERMARK0
 70
     0
 71
     0
 10
0.0
 20
0.0
 30
0.0
  3
SW_CENTERMARK0
  1

  0
LINE
  5
4E
330
4B
100
AcDbEntity
  8
SLD-0
  6
Continuous
 62
   179
100
AcDbLine
 10
85.7401764631
 20
150.1592441857
 30
0.0
 11
85.7401764631
 21
152.6592441857
 31
0.0
  0
LINE
  5
4F
330
4B
100
AcDbEntity
  8
SLD-0
  6
Continuous
 62
   179
100
AcDbLine
 10
85.7401764631
 20
150.1592441857
 30
0.0
 11
83.2401764631
 21
150.1592441857
 31
0.0
  0
LINE
  5
50
330
4B
100
AcDbEntity
  8
SLD-0
  6
Continuous
 62
   179
100
AcDbLine
 10
85.7401764631
 20
150.1592441857
 30
0.0
 11
85.7401764631
 21
147.6592441857
 31
0.0
  0
LINE
  5
51
330
4B
100
AcDbEntity
  8
SLD-0
  6
Continuous
 62
   179
100
AcDbLine
 10
85.7401764631
 20
150.1592441857
 30
0.0
 11
88.2401764631
 21
150.1592441857
 31
0.0
  0
LINE
  5
52
330
4B
100
AcDbEntity
  8
SLD-0
  6
Continuous
 62
   179
100
AcDbLine
 10
85.7401764631
 20
155.1592441857
 30
0.0
 11
85.7401764631
 21
155.9092441857
 31
0.0
  0
LINE
  5
53
330
4B
100
AcDbEntity
  8
SLD-0
  6
Continuous
 62
   179
100
AcDbLine
 10
80.7401764631
 20
150.1592441857
 30
0.0
 11
79.9901764631
 21
150.1592441857
 31
0.0
  0
LINE
  5
54
330
4B
100
AcDbEntity
  8
SLD-0
  6
Continuous
 62
   179
100
AcDbLine
 10
85.7401764631
 20
145.1592441857
 30
0.0
 11
85.7401764631
 21
144.4092441857
 31
0.0
  0
LINE
  5
55
330
4B
100
AcDbEntity
  8
SLD-0
  6
Continuous
 62
   179
100
AcDbLine
 10
90.7401764631
 20
150.1592441857
 30
0.0
 11
91.4901764631
 21
150.1592441857
 31
0.0
  0
ENDBLK
  5
4D
330
4B
100
AcDbEntity
  8
0
100
AcDbBlockEnd
  0
BLOCK
  5
57
330
56
100
AcDbEntity
  8
0
100
AcDbBlockBegin
  2
SW_CENTERMARK1
 70
     0
 71
     0
 10
0.0
 20
0.0
 30
0.0
  3
SW_CENTERMARK1
  1

  0
LINE
  5
59
330
56
100
AcDbEntity
  8
SLD-0
  6
Continuous
 62
   179
100
AcDbLine
 10
85.7401764631
 20
133.6592441857
 30
0.0
 11
85.7401764631
 21
136.1592441857
 31
0.0
  0
LINE
  5
5A
330
56
100
AcDbEntity
  8
SLD-0
  6
Continuous
 62
   179
100
AcDbLine
 10
85.7401764631
 20
133.6592441857
 30
0.0
 11
83.2401764631
 21
133.6592441857
 31
0.0
  0
LINE
  5
5B
330
56
100
AcDbEntity
  8
SLD-0
  6
Continuous
 62
   179
100
AcDbLine
 10
85.7401764631
 20
133.6592441857
 30
0.0
 11
85.7401764631
 21
131.1592441857
 31
0.0
  0
LINE
  5
5C
330
56
100
AcDbEntity
  8
SLD-0
  6
Continuous
 62
   179
100
AcDbLine
 10
85.7401764631
 20
133.6592441857
 30
0.0
 11
88.2401764631
 21
133.6592441857
 31
0.0
  0
LINE
  5
5D
330
56
100
AcDbEntity
  8
SLD-0
  6
Continuous
 62
   179
100
AcDbLine
 10
85.7401764631
 20
138.6592441857
 30
0.0
 11
85.7401764631
 21
139.4092441857
 31
0.0
  0
LINE
  5
5E
330
56
100
AcDbEntity
  8
SLD-0
  6
Continuous
 62
   179
100
AcDbLine
 10
80.7401764631
 20
133.6592441857
 30
0.0
 11
79.9901764631
 21
133.6592441857
 31
0.0
  0
LINE
  5
5F
330
56
100
AcDbEntity
  8
SLD-0
  6
Continuous
 62
   179
100
AcDbLine
 10
85.7401764631
 20
128.6592441857
 30
0.0
 11
85.7401764631
 21
127.9092441857
 31
0.0
  0
LINE
  5
60
330
56
100
AcDbEntity
  8
SLD-0
  6
Continuous
 62
   179
100
AcDbLine
 10
90.7401764631
 20
133.6592441857
 30
0.0
 11
91.4901764631
 21
133.6592441857
 31
0.0
  0
ENDBLK
  5
58
330
56
100
AcDbEntity
  8
0
100
AcDbBlockEnd
  0
BLOCK
  5
62
330
61
100
AcDbEntity
  8
0
100
AcDbBlockBegin
  2
SW_CENTERMARK2
 70
     0
 71
     0
 10
0.0
 20
0.0
 30
0.0
  3
SW_CENTERMARK2
  1

  0
LINE
  5
64
330
61
100
AcDbEntity
  8
SLD-0
  6
Continuous
 62
   179
100
AcDbLine
 10
102.2401764631
 20
133.6592441857
 30
0.0
 11
102.2401764631
 21
136.1592441857
 31
0.0
  0
LINE
  5
65
330
61
100
AcDbEntity
  8
SLD-0
  6
Continuous
 62
   179
100
AcDbLine
 10
102.2401764631
 20
133.6592441857
 30
0.0
 11
99.7401764631
 21
133.6592441857
 31
0.0
  0
LINE
  5
66
330
61
100
AcDbEntity
  8
SLD-0
  6
Continuous
 62
   179
100
AcDbLine
 10
102.2401764631
 20
133.6592441857
 30
0.0
 11
102.2401764631
 21
131.1592441857
 31
0.0
  0
LINE
  5
67
330
61
100
AcDbEntity
  8
SLD-0
  6
Continuous
 62
   179
100
AcDbLine
 10
102.2401764631
 20
133.6592441857
 30
0.0
 11
104.7401764631
 21
133.6592441857
 31
0.0
  0
LINE
  5
68
330
61
100
AcDbEntity
  8
SLD-0
  6
Continuous
 62
   179
100
AcDbLine
 10
102.2401764631
 20
138.6592441857
 30
0.0
 11
102.2401764631
 21
139.4092441857
 31
0.0
  0
LINE
  5
69
330
61
100
AcDbEntity
  8
SLD-0
  6
Continuous
 62
   179
100
AcDbLine
 10
97.2401764631
 20
133.6592441857
 30
0.0
 11
96.4901764631
 21
133.6592441857
 31
0.0
  0
LINE
  5
6A
330
61
100
AcDbEntity
  8
SLD-0
  6
Continuous
 62
   179
100
AcDbLine
 10
102.2401764631
 20
128.6592441857
 30
0.0
 11
102.2401764631
 21
127.9092441857
 31
0.0
  0
LINE
  5
6B
330
61
100
AcDbEntity
  8
SLD-0
  6
Continuous
 62
   179
100
AcDbLine
 10
107.2401764631
 20
133.6592441857
 30
0.0
 11
107.9901764631
 21
133.6592441857
 31
0.0
  0
ENDBLK
  5
63
330
61
100
AcDbEntity
  8
0
100
AcDbBlockEnd
  0
BLOCK
  5
6D
330
6C
100
AcDbEntity
  8
0
100
AcDbBlockBegin
  2
SW_CENTERMARK3
 70
     0
 71
     0
 10
0.0
 20
0.0
 30
0.0
  3
SW_CENTERMARK3
  1

  0
LINE
  5
6F
330
6C
100
AcDbEntity
  8
SLD-0
  6
Continuous
 62
   179
100
AcDbLine
 10
85.7401764631
 20
117.1592441857
 30
0.0
 11
85.7401764631
 21
119.6592441857
 31
0.0
  0
LINE
  5
70
330
6C
100
AcDbEntity
  8
SLD-0
  6
Continuous
 62
   179
100
AcDbLine
 10
85.7401764631
 20
117.1592441857
 30
0.0
 11
83.2401764631
 21
117.1592441857
 31
0.0
  0
LINE
  5
71
330
6C
100
AcDbEntity
  8
SLD-0
  6
Continuous
 62
   179
100
AcDbLine
 10
85.7401764631
 20
117.1592441857
 30
0.0
 11
85.7401764631
 21
114.6592441857
 31
0.0
  0
LINE
  5
72
330
6C
100
AcDbEntity
  8
SLD-0
  6
Continuous
 62
   179
100
AcDbLine
 10
85.7401764631
 20
117.1592441857
 30
0.0
 11
88.2401764631
 21
117.1592441857
 31
0.0
  0
LINE
  5
73
330
6C
100
AcDbEntity
  8
SLD-0
  6
Continuous
 62
   179
100
AcDbLine
 10
85.7401764631
 20
122.1592441857
 30
0.0
 11
85.7401764631
 21
122.9092441857
 31
0.0
  0
LINE
  5
74
330
6C
100
AcDbEntity
  8
SLD-0
  6
Continuous
 62
   179
100
AcDbLine
 10
80.7401764631
 20
117.1592441857
 30
0.0
 11
79.9901764631
 21
117.1592441857
 31
0.0
  0
LINE
  5
75
330
6C
100
AcDbEntity
  8
SLD-0
  6
Continuous
 62
   179
100
AcDbLine
 10
85.7401764631
 20
112.1592441857
 30
0.0
 11
85.7401764631
 21
111.4092441857
 31
0.0
  0
LINE
  5
76
330
6C
100
AcDbEntity
  8
SLD-0
  6
Continuous
 62
   179
100
AcDbLine
 10
90.7401764631
 20
117.1592441857
 30
0.0
 11
91.4901764631
 21
117.1592441857
 31
0.0
  0
ENDBLK
  5
6E
330
6C
100
AcDbEntity
  8
0
100
AcDbBlockEnd
  0
BLOCK
  5
78
330
77
100
AcDbEntity
  8
0
100
AcDbBlockBegin
  2
SW_CENTERMARK4
 70
     0
 71
     0
 10
0.0
 20
0.0
 30
0.0
  3
SW_CENTERMARK4
  1

  0
LINE
  5
7A
330
77
100
AcDbEntity
  8
SLD-0
  6
Continuous
 62
   179
100
AcDbLine
 10
69.2401764631
 20
133.6592441857
 30
0.0
 11
69.2401764631
 21
136.1592441857
 31
0.0
  0
LINE
  5
7B
330
77
100
AcDbEntity
  8
SLD-0
  6
Continuous
 62
   179
100
AcDbLine
 10
69.2401764631
 20
133.6592441857
 30
0.0
 11
66.7401764631
 21
133.6592441857
 31
0.0
  0
LINE
  5
7C
330
77
100
AcDbEntity
  8
SLD-0
  6
Continuous
 62
   179
100
AcDbLine
 10
69.2401764631
 20
133.6592441857
 30
0.0
 11
69.2401764631
 21
131.1592441857
 31
0.0
  0
LINE
  5
7D
330
77
100
AcDbEntity
  8
SLD-0
  6
Continuous
 62
   179
100
AcDbLine
 10
69.2401764631
 20
133.6592441857
 30
0.0
 11
71.7401764631
 21
133.6592441857
 31
0.0
  0
LINE
  5
7E
330
77
100
AcDbEntity
  8
SLD-0
  6
Continuous
 62
   179
100
AcDbLine
 10
69.2401764631
 20
138.6592441857
 30
0.0
 11
69.2401764631
 21
139.4092441857
 31
0.0
  0
LINE
  5
7F
330
77
100
AcDbEntity
  8
SLD-0
  6
Continuous
 62
   179
100
AcDbLine
 10
64.2401764631
 20
133.6592441857
 30
0.0
 11
63.4901764631
 21
133.6592441857
 31
0.0
  0
LINE
  5
80
330
77
100
AcDbEntity
  8
SLD-0
  6
Continuous
 62
   179
100
AcDbLine
 10
69.2401764631
 20
128.6592441857
 30
0.0
 11
69.2401764631
 21
127.9092441857
 31
0.0
  0
LINE
  5
81
330
77
100
AcDbEntity
  8
SLD-0
  6
Continuous
 62
   179
100
AcDbLine
 10
74.2401764631
 20
133.6592441857
 30
0.0
 11
74.9901764631
 21
133.6592441857
 31
0.0
  0
ENDBLK
  5
79
330
77
100
AcDbEntity
  8
0
100
AcDbBlockEnd
  0
BLOCK
  5
83
330
82
100
AcDbEntity
  8
0
100
AcDbBlockBegin
  2
SURFACEFINISH42
 70
     0
 71
     0
 10
0.0
 20
0.0
 30
0.0
  3
SURFACEFINISH42
  1

  0
LINE
  5
85
330
82
100
AcDbEntity
  8
SLD-0
  6
Continuous
 62
   179
100
AcDbLine
 10
-6.8510557915
 20
7.2014681826
 30
0.0
 11
-6.8510557915
 21
1.377345951
 31
0.0
  0
LINE
  5
86
330
82
100
AcDbEntity
  8
SLD-0
  6
Continuous
 62
   179
100
AcDbLine
 10
-6.8510557915
 20
2.377345951
 30
0.0
 11
-2.821105998
 21
4.754691902
 31
0.0
  0
LINE
  5
87
330
82
100
AcDbEntity
  8
SLD-0
  6
Continuous
 62
   179
100
AcDbLine
 10
-2.821105998
 20
0.0
 30
0.0
 11
-2.821105998
 21
4.754691902
 31
0.0
  0
LINE
  5
88
330
82
100
AcDbEntity
  8
SLD-0
  6
Continuous
 62
   179
100
AcDbLine
 10
-6.8510557915
 20
2.377345951
 30
0.0
 11
1.2088437954
 21
-2.377345951
 31
0.0
  0
MTEXT
  5
89
330
82
100
AcDbEntity
  8
SLD-0
100
AcDbMText
 10
-2.9130973836
 20
0.0
 30
0.0
 40
2.1166666667
 41
0.0
 71
     1
 72
     1
  1
6.3
  7
SLDTEXTSTYLE1
 11
6.123031769111886E-17
 21
1.0
 31
0.0
 73
     1
 44
1.0
  0
ENDBLK
  5
84
330
82
100
AcDbEntity
  8
0
100
AcDbBlockEnd
  0
BLOCK
  5
8B
330
8A
100
AcDbEntity
  8
0
100
AcDbBlockBegin
  2
SURFACEFINISH43
 70
     0
 71
     0
 10
0.0
 20
0.0
 30
0.0
  3
SURFACEFINISH43
  1

  0
LINE
  5
8D
330
8A
100
AcDbEntity
  8
SLD-0
  6
Continuous
 62
   179
100
AcDbLine
 10
4.0299497062
 20
7.9574065413
 30
0.0
 11
4.0299497062
 21
0.8543129151
 31
0.0
  0
LINE
  5
8E
330
8A
100
AcDbEntity
  8
SLD-0
  6
Continuous
 62
   179
100
AcDbLine
 10
4.0299497062
 20
1.8543129151
 30
0.0
 11
-0.0000000873
 21
-0.5230330359
 31
0.0
  0
LINE
  5
8F
330
8A
100
AcDbEntity
  8
SLD-0
  6
Continuous
 62
   179
100
AcDbLine
 10
-0.0000000873
 20
4.2316588661
 30
0.0
 11
-0.0000000873
 21
-0.5230330359
 31
0.0
  0
LINE
  5
90
330
8A
100
AcDbEntity
  8
SLD-0
  6
Continuous
 62
   179
100
AcDbLine
 10
4.0299497062
 20
1.8543129151
 30
0.0
 11
-4.0299498808
 21
6.6090048171
 31
0.0
  0
MTEXT
  5
91
330
8A
100
AcDbEntity
  8
SLD-0
100
AcDbMText
 10
-2.9130973836
 20
0.0
 30
0.0
 40
2.1166666667
 41
0.0
 71
     1
 72
     1
  1
6.3
  7
SLDTEXTSTYLE1
 11
6.123031769111886E-17
 21
1.0
 31
0.0
 73
     1
 44
1.0
  0
ENDBLK
  5
8C
330
8A
100
AcDbEntity
  8
0
100
AcDbBlockEnd
  0
BLOCK
  5
93
330
92
100
AcDbEntity
  8
0
100
AcDbBlockBegin
  2
SURFACEFINISH44
 70
     0
 71
     0
 10
0.0
 20
0.0
 30
0.0
  3
SURFACEFINISH44
  1

  0
LINE
  5
95
330
92
100
AcDbEntity
  8
SLD-0
  6
Continuous
 62
   179
100
AcDbLine
 10
-3.5178966139
 20
7.1331663826
 30
0.0
 11
3.8005118376
 21
7.1331663826
 31
0.0
  0
LINE
  5
96
330
92
100
AcDbEntity
  8
SLD-0
  6
Continuous
 62
   179
100
AcDbLine
 10
2.8005118376
 20
7.1331663826
 30
0.0
 11
5.1778577886
 21
3.1032165891
 31
0.0
  0
LINE
  5
97
330
92
100
AcDbEntity
  8
SLD-0
  6
Continuous
 62
   179
100
AcDbLine
 10
0.4231658866
 20
3.1032165891
 30
0.0
 11
5.1778577886
 21
3.1032165891
 31
0.0
  0
LINE
  5
98
330
92
100
AcDbEntity
  8
SLD-0
  6
Continuous
 62
   179
100
AcDbLine
 10
2.8005118376
 20
7.1331663826
 30
0.0
 11
-1.9541800644
 21
-0.9267332044
 31
0.0
  0
MTEXT
  5
99
330
92
100
AcDbEntity
  8
SLD-0
100
AcDbMText
 10
0.0
 20
2.9130973836
 30
0.0
 40
2.1166666667
 41
0.0
 71
     1
 72
     1
  1
6.3
  7
SLDTEXTSTYLE1
 73
     1
 44
1.0
  0
ENDBLK
  5
94
330
92
100
AcDbEntity
  8
0
100
AcDbBlockEnd
  0
BLOCK
  5
9B
330
9A
100
AcDbEntity
  8
0
100
AcDbBlockBegin
  2
SURFACEFINISH45
 70
     0
 71
     0
 10
0.0
 20
0.0
 30
0.0
  3
SURFACEFINISH45
  1

  0
LINE
  5
9D
330
9A
100
AcDbEntity
  8
SLD-0
  6
Continuous
 62
   179
100
AcDbLine
 10
-3.4521189907
 20
-4.0299497062
 30
0.0
 11
2.8543129151
 21
-4.0299497062
 31
0.0
  0
LINE
  5
9E
330
9A
100
AcDbEntity
  8
SLD-0
  6
Continuous
 62
   179
100
AcDbLine
 10
1.8543129151
 20
-4.0299497062
 30
0.0
 11
-0.5230330359
 21
0.0000000873
 31
0.0
  0
LINE
  5
9F
330
9A
100
AcDbEntity
  8
SLD-0
  6
Continuous
 62
   179
100
AcDbLine
 10
4.2316588661
 20
0.0000000873
 30
0.0
 11
-0.5230330359
 21
0.0000000873
 31
0.0
  0
LINE
  5
A0
330
9A
100
AcDbEntity
  8
SLD-0
  6
Continuous
 62
   179
100
AcDbLine
 10
1.8543129151
 20
-4.0299497062
 30
0.0
 11
6.6090048171
 21
4.0299498808
 31
0.0
  0
MTEXT
  5
A1
330
9A
100
AcDbEntity
  8
SLD-0
100
AcDbMText
 10
0.0
 20
2.9130973836
 30
0.0
 40
2.1166666667
 41
0.0
 71
     1
 72
     1
  1
6.3
  7
SLDTEXTSTYLE1
 73
     1
 44
1.0
  0
ENDBLK
  5
9C
330
9A
100
AcDbEntity
  8
0
100
AcDbBlockEnd
  0
BLOCK
  5
FD
330
F3
100
AcDbEntity
  8
0
100
AcDbBlockBegin
  2
*D14
 70
     1
 71
     0
 10
0.0
 20
0.0
 30
0.0
  3
*D14
  1

  0
LINE
  5
103
330
F3
100
AcDbEntity
  8
SLD-0
 62
     7
100
AcDbLine
 10
62.7401764631
 20
149.6592441857
 30
0.0
 11
62.7401764631
 21
181.3428990554
 31
0.0
  0
LINE
  5
104
330
F3
100
AcDbEntity
  8
SLD-0
 62
     7
100
AcDbLine
 10
108.7401764631
 20
149.6592441857
 30
0.0
 11
108.7401764631
 21
181.3428990554
 31
0.0
  0
LINE
  5
105
330
F3
100
AcDbEntity
  8
SLD-0
 62
     7
100
AcDbLine
 10
62.7401764631
 20
180.3428990554
 30
0.0
 11
108.7401764631
 21
180.3428990554
 31
0.0
  0
LINE
  5
106
330
F3
100
AcDbEntity
  8
SLD-0
 62
     7
100
AcDbLine
 10
65.7401764631
 20
179.5390520554
 30
0.0
 11
62.7401764631
 21
180.3428990554
 31
0.0
  0
LINE
  5
107
330
F3
100
AcDbEntity
  8
SLD-0
 62
     7
100
AcDbLine
 10
62.7401764631
 20
180.3428990554
 30
0.0
 11
65.7401764631
 21
181.1467460554
 31
0.0
  0
LINE
  5
108
330
F3
100
AcDbEntity
  8
SLD-0
 62
     7
100
AcDbLine
 10
62.7401764631
 20
180.3428990554
 30
0.0
 11
65.7401764631
 21
180.3428990554
 31
0.0
  0
LINE
  5
109
330
F3
100
AcDbEntity
  8
SLD-0
 62
     7
100
AcDbLine
 10
105.7401764631
 20
181.1467460554
 30
0.0
 11
108.7401764631
 21
180.3428990554
 31
0.0
  0
LINE
  5
10A
330
F3
100
AcDbEntity
  8
SLD-0
 62
     7
100
AcDbLine
 10
108.7401764631
 20
180.3428990554
 30
0.0
 11
105.7401764631
 21
179.5390520554
 31
0.0
  0
LINE
  5
10B
330
F3
100
AcDbEntity
  8
SLD-0
 62
     7
100
AcDbLine
 10
108.7401764631
 20
180.3428990554
 30
0.0
 11
105.7401764631
 21
180.3428990554
 31
0.0
  0
MTEXT
  5
10C
330
F3
100
AcDbEntity
  8
SLD-0
 62
     7
100
AcDbMText
 10
83.70474124
 20
184.8695927514
 30
0.1
 40
3.5
 41
0.0
 71
     1
 72
     1
  1
46
  7
SLDTEXTSTYLE0
 73
     1
 44
1.0
  0
ENDBLK
  5
FE
330
F3
100
AcDbEntity
  8
0
100
AcDbBlockEnd
  0
BLOCK
  5
101
330
100
100
AcDbEntity
  8
0
100
AcDbBlockBegin
  2
_None
 70
     0
 71
     0
 10
0.0
 20
0.0
 30
0.0
  3
_None
  1

  0
ENDBLK
  5
102
330
100
100
AcDbEntity
  8
0
100
AcDbBlockEnd
  0
BLOCK
  5
119
330
10E
100
AcDbEntity
  8
0
100
AcDbBlockBegin
  2
*D16
 70
     1
 71
     0
 10
0.0
 20
0.0
 30
0.0
  3
*D16
  1

  0
LINE
  5
11B
330
10E
100
AcDbEntity
  8
SLD-0
 62
     7
100
AcDbLine
 10
69.7401764631
 20
156.6592441857
 30
0.0
 11
39.0142019326
 21
156.6592441857
 31
0.0
  0
LINE
  5
11C
330
10E
100
AcDbEntity
  8
SLD-0
 62
     7
100
AcDbLine
 10
69.7401764631
 20
110.6592441857
 30
0.0
 11
39.0142019326
 21
110.6592441857
 31
0.0
  0
LINE
  5
11D
330
10E
100
AcDbEntity
  8
SLD-0
 62
     7
100
AcDbLine
 10
40.0142019326
 20
156.6592441857
 30
0.0
 11
40.0142019326
 21
110.6592441857
 31
0.0
  0
LINE
  5
11E
330
10E
100
AcDbEntity
  8
SLD-0
 62
     7
100
AcDbLine
 10
39.2103549326
 20
153.6592441857
 30
0.0
 11
40.0142019326
 21
156.6592441857
 31
0.0
  0
LINE
  5
11F
330
10E
100
AcDbEntity
  8
SLD-0
 62
     7
100
AcDbLine
 10
40.0142019326
 20
156.6592441857
 30
0.0
 11
40.8180489326
 21
153.6592441857
 31
0.0
  0
LINE
  5
120
330
10E
100
AcDbEntity
  8
SLD-0
 62
     7
100
AcDbLine
 10
40.0142019326
 20
156.6592441857
 30
0.0
 11
40.0142019326
 21
153.6592441857
 31
0.0
  0
LINE
  5
121
330
10E
100
AcDbEntity
  8
SLD-0
 62
     7
100
AcDbLine
 10
40.8180489326
 20
113.6592441857
 30
0.0
 11
40.0142019326
 21
110.6592441857
 31
0.0
  0
LINE
  5
122
330
10E
100
AcDbEntity
  8
SLD-0
 62
     7
100
AcDbLine
 10
40.0142019326
 20
110.6592441857
 30
0.0
 11
39.2103549326
 21
113.6592441857
 31
0.0
  0
LINE
  5
123
330
10E
100
AcDbEntity
  8
SLD-0
 62
     7
100
AcDbLine
 10
40.0142019326
 20
110.6592441857
 30
0.0
 11
40.0142019326
 21
113.6592441857
 31
0.0
  0
MTEXT
  5
124
330
10E
100
AcDbEntity
  8
SLD-0
 62
     7
100
AcDbMText
 10
35.4875082366
 20
131.6238089625
 30
0.1
 40
3.5
 41
0.0
 71
     1
 72
     1
  1
46
  7
SLDTEXTSTYLE0
 11
6.123031769111886E-17
 21
1.0
 31
0.0
 73
     1
 44
1.0
  0
ENDBLK
  5
11A
330
10E
100
AcDbEntity
  8
0
100
AcDbBlockEnd
  0
BLOCK
  5
131
330
126
100
AcDbEntity
  8
0
100
AcDbBlockBegin
  2
*D17
 70
     1
 71
     0
 10
0.0
 20
0.0
 30
0.0
  3
*D17
  1

  0
LINE
  5
134
330
126
100
AcDbEntity
  8
SLD-0
 62
     7
100
AcDbLine
 10
84.7401764631
 20
150.1592441857
 30
0.0
 11
49.9832487781
 21
150.1592441857
 31
0.0
  0
LINE
  5
135
330
126
100
AcDbEntity
  8
SLD-0
 62
     7
100
AcDbLine
 10
84.7401764631
 20
133.6592441857
 30
0.0
 11
49.9832487781
 21
133.6592441857
 31
0.0
  0
LINE
  5
136
330
126
100
AcDbEntity
  8
SLD-0
 62
     7
100
AcDbLine
 10
50.9832487781
 20
150.1592441857
 30
0.0
 11
50.9832487781
 21
133.6592441857
 31
0.0
  0
LINE
  5
137
330
126
100
AcDbEntity
  8
SLD-0
 62
     7
100
AcDbLine
 10
50.1794017781
 20
147.1592441857
 30
0.0
 11
50.9832487781
 21
150.1592441857
 31
0.0
  0
LINE
  5
138
330
126
100
AcDbEntity
  8
SLD-0
 62
     7
100
AcDbLine
 10
50.9832487781
 20
150.1592441857
 30
0.0
 11
51.7870957781
 21
147.1592441857
 31
0.0
  0
LINE
  5
139
330
126
100
AcDbEntity
  8
SLD-0
 62
     7
100
AcDbLine
 10
50.9832487781
 20
150.1592441857
 30
0.0
 11
50.9832487781
 21
147.1592441857
 31
0.0
  0
LINE
  5
13A
330
126
100
AcDbEntity
  8
SLD-0
 62
     7
100
AcDbLine
 10
51.7870957781
 20
136.6592441857
 30
0.0
 11
50.9832487781
 21
133.6592441857
 31
0.0
  0
LINE
  5
13B
330
126
100
AcDbEntity
  8
SLD-0
 62
     7
100
AcDbLine
 10
50.9832487781
 20
133.6592441857
 30
0.0
 11
50.1794017781
 21
136.6592441857
 31
0.0
  0
LINE
  5
13C
330
126
100
AcDbEntity
  8
SLD-0
 62
     7
100
AcDbLine
 10
50.9832487781
 20
133.6592441857
 30
0.0
 11
50.9832487781
 21
136.6592441857
 31
0.0
  0
MTEXT
  5
13D
330
126
100
AcDbEntity
  8
SLD-0
 62
     7
100
AcDbMText
 10
46.4565550821
 20
137.8365465982
 30
0.1
 40
3.5
 41
0.0
 71
     1
 72
     1
  1
16.5
  7
SLDTEXTSTYLE0
 11
6.123031769111886E-17
 21
1.0
 31
0.0
 73
     1
 44
1.0
  0
ENDBLK
  5
132
330
126
100
AcDbEntity
  8
0
100
AcDbBlockEnd
  0
BLOCK
  5
14A
330
13F
100
AcDbEntity
  8
0
100
AcDbBlockBegin
  2
*D18
 70
     1
 71
     0
 10
0.0
 20
0.0
 30
0.0
  3
*D18
  1

  0
LINE
  5
14C
330
13F
100
AcDbEntity
  8
SLD-0
 62
     7
100
AcDbLine
 10
84.7401764631
 20
117.1592441857
 30
0.0
 11
49.9832487781
 21
117.1592441857
 31
0.0
  0
LINE
  5
14D
330
13F
100
AcDbEntity
  8
SLD-0
 62
     7
100
AcDbLine
 10
84.7401764631
 20
133.6592441857
 30
0.0
 11
49.9832487781
 21
133.6592441857
 31
0.0
  0
LINE
  5
14E
330
13F
100
AcDbEntity
  8
SLD-0
 62
     7
100
AcDbLine
 10
50.9832487781
 20
117.1592441857
 30
0.0
 11
50.9832487781
 21
133.6592441857
 31
0.0
  0
LINE
  5
14F
330
13F
100
AcDbEntity
  8
SLD-0
 62
     7
100
AcDbLine
 10
51.7870957781
 20
120.1592441857
 30
0.0
 11
50.9832487781
 21
117.1592441857
 31
0.0
  0
LINE
  5
150
330
13F
100
AcDbEntity
  8
SLD-0
 62
     7
100
AcDbLine
 10
50.9832487781
 20
117.1592441857
 30
0.0
 11
50.1794017781
 21
120.1592441857
 31
0.0
  0
LINE
  5
151
330
13F
100
AcDbEntity
  8
SLD-0
 62
     7
100
AcDbLine
 10
50.9832487781
 20
117.1592441857
 30
0.0
 11
50.9832487781
 21
120.1592441857
 31
0.0
  0
LINE
  5
152
330
13F
100
AcDbEntity
  8
SLD-0
 62
     7
100
AcDbLine
 10
50.1794017781
 20
130.6592441857
 30
0.0
 11
50.9832487781
 21
133.6592441857
 31
0.0
  0
LINE
  5
153
330
13F
100
AcDbEntity
  8
SLD-0
 62
     7
100
AcDbLine
 10
50.9832487781
 20
133.6592441857
 30
0.0
 11
51.7870957781
 21
130.6592441857
 31
0.0
  0
LINE
  5
154
330
13F
100
AcDbEntity
  8
SLD-0
 62
     7
100
AcDbLine
 10
50.9832487781
 20
133.6592441857
 30
0.0
 11
50.9832487781
 21
130.6592441857
 31
0.0
  0
MTEXT
  5
155
330
13F
100
AcDbEntity
  8
SLD-0
 62
     7
100
AcDbMText
 10
46.4565550821
 20
121.3365465982
 30
0.1
 40
3.5
 41
0.0
 71
     1
 72
     1
  1
16.5
  7
SLDTEXTSTYLE0
 11
6.123031769111886E-17
 21
1.0
 31
0.0
 73
     1
 44
1.0
  0
ENDBLK
  5
14B
330
13F
100
AcDbEntity
  8
0
100
AcDbBlockEnd
  0
BLOCK
  5
161
330
157
100
AcDbEntity
  8
0
100
AcDbBlockBegin
  2
*D19
 70
     1
 71
     0
 10
0.0
 20
0.0
 30
0.0
  3
*D19
  1

  0
LINE
  5
163
330
157
100
AcDbEntity
  8
SLD-0
 62
     7
100
AcDbLine
 10
69.2401764631
 20
134.6592441857
 30
0.0
 11
69.2401764631
 21
171.4368393932
 31
0.0
  0
LINE
  5
164
330
157
100
AcDbEntity
  8
SLD-0
 62
     7
100
AcDbLine
 10
85.7401764631
 20
134.6592441857
 30
0.0
 11
85.7401764631
 21
171.4368393932
 31
0.0
  0
LINE
  5
165
330
157
100
AcDbEntity
  8
SLD-0
 62
     7
100
AcDbLine
 10
69.2401764631
 20
170.4368393932
 30
0.0
 11
85.7401764631
 21
170.4368393932
 31
0.0
  0
LINE
  5
166
330
157
100
AcDbEntity
  8
SLD-0
 62
     7
100
AcDbLine
 10
72.2401764631
 20
169.6329923932
 30
0.0
 11
69.2401764631
 21
170.4368393932
 31
0.0
  0
LINE
  5
167
330
157
100
AcDbEntity
  8
SLD-0
 62
     7
100
AcDbLine
 10
69.2401764631
 20
170.4368393932
 30
0.0
 11
72.2401764631
 21
171.2406863932
 31
0.0
  0
LINE
  5
168
330
157
100
AcDbEntity
  8
SLD-0
 62
     7
100
AcDbLine
 10
69.2401764631
 20
170.4368393932
 30
0.0
 11
72.2401764631
 21
170.4368393932
 31
0.0
  0
LINE
  5
169
330
157
100
AcDbEntity
  8
SLD-0
 62
     7
100
AcDbLine
 10
82.7401764631
 20
171.2406863932
 30
0.0
 11
85.7401764631
 21
170.4368393932
 31
0.0
  0
LINE
  5
16A
330
157
100
AcDbEntity
  8
SLD-0
 62
     7
100
AcDbLine
 10
85.7401764631
 20
170.4368393932
 30
0.0
 11
82.7401764631
 21
169.6329923932
 31
0.0
  0
LINE
  5
16B
330
157
100
AcDbEntity
  8
SLD-0
 62
     7
100
AcDbLine
 10
85.7401764631
 20
170.4368393932
 30
0.0
 11
82.7401764631
 21
170.4368393932
 31
0.0
  0
MTEXT
  5
16C
330
157
100
AcDbEntity
  8
SLD-0
 62
     7
100
AcDbMText
 10
73.4174788757
 20
174.9635330891
 30
0.1
 40
3.5
 41
0.0
 71
     1
 72
     1
  1
16.5
  7
SLDTEXTSTYLE0
 73
     1
 44
1.0
  0
ENDBLK
  5
162
330
157
100
AcDbEntity
  8
0
100
AcDbBlockEnd
  0
BLOCK
  5
178
330
16E
100
AcDbEntity
  8
0
100
AcDbBlockBegin
  2
*D20
 70
     1
 71
     0
 10
0.0
 20
0.0
 30
0.0
  3
*D20
  1

  0
LINE
  5
17A
330
16E
100
AcDbEntity
  8
SLD-0
 62
     7
100
AcDbLine
 10
102.2401764631
 20
134.6592441857
 30
0.0
 11
102.2401764631
 21
171.4368393932
 31
0.0
  0
LINE
  5
17B
330
16E
100
AcDbEntity
  8
SLD-0
 62
     7
100
AcDbLine
 10
85.7401764631
 20
134.6592441857
 30
0.0
 11
85.7401764631
 21
171.4368393932
 31
0.0
  0
LINE
  5
17C
330
16E
100
AcDbEntity
  8
SLD-0
 62
     7
100
AcDbLine
 10
102.2401764631
 20
170.4368393932
 30
0.0
 11
85.7401764631
 21
170.4368393932
 31
0.0
  0
LINE
  5
17D
330
16E
100
AcDbEntity
  8
SLD-0
 62
     7
100
AcDbLine
 10
99.2401764631
 20
171.2406863932
 30
0.0
 11
102.2401764631
 21
170.4368393932
 31
0.0
  0
LINE
  5
17E
330
16E
100
AcDbEntity
  8
SLD-0
 62
     7
100
AcDbLine
 10
102.2401764631
 20
170.4368393932
 30
0.0
 11
99.2401764631
 21
169.6329923932
 31
0.0
  0
LINE
  5
17F
330
16E
100
AcDbEntity
  8
SLD-0
 62
     7
100
AcDbLine
 10
102.2401764631
 20
170.4368393932
 30
0.0
 11
99.2401764631
 21
170.4368393932
 31
0.0
  0
LINE
  5
180
330
16E
100
AcDbEntity
  8
SLD-0
 62
     7
100
AcDbLine
 10
88.7401764631
 20
169.6329923932
 30
0.0
 11
85.7401764631
 21
170.4368393932
 31
0.0
  0
LINE
  5
181
330
16E
100
AcDbEntity
  8
SLD-0
 62
     7
100
AcDbLine
 10
85.7401764631
 20
170.4368393932
 30
0.0
 11
88.7401764631
 21
171.2406863932
 31
0.0
  0
LINE
  5
182
330
16E
100
AcDbEntity
  8
SLD-0
 62
     7
100
AcDbLine
 10
85.7401764631
 20
170.4368393932
 30
0.0
 11
88.7401764631
 21
170.4368393932
 31
0.0
  0
MTEXT
  5
183
330
16E
100
AcDbEntity
  8
SLD-0
 62
     7
100
AcDbMText
 10
89.9174788757
 20
174.9635330891
 30
0.1
 40
3.5
 41
0.0
 71
     1
 72
     1
  1
16.5
  7
SLDTEXTSTYLE0
 73
     1
 44
1.0
  0
ENDBLK
  5
179
330
16E
100
AcDbEntity
  8
0
100
AcDbBlockEnd
  0
BLOCK
  5
192
330
185
100
AcDbEntity
  8
0
100
AcDbBlockBegin
  2
*D21
 70
     1
 71
     0
 10
0.0
 20
0.0
 30
0.0
  3
*D21
  1

  0
LINE
  5
194
330
185
100
AcDbEntity
  8
SLD-0
 62
     7
100
AcDbLine
 10
108.7401764631
 20
149.6592441857
 30
0.0
 11
108.7401764631
 21
171.4368393932
 31
0.0
  0
LINE
  5
195
330
185
100
AcDbEntity
  8
SLD-0
 62
     7
100
AcDbLine
 10
102.2401764631
 20
134.6592441857
 30
0.0
 11
102.2401764631
 21
171.4368393932
 31
0.0
  0
LINE
  5
196
330
185
100
AcDbEntity
  8
SLD-0
 62
     7
100
AcDbLine
 10
108.7401764631
 20
170.4368393932
 30
0.0
 11
121.8441337452
 21
170.4368393932
 31
0.0
  0
LINE
  5
197
330
185
100
AcDbEntity
  8
SLD-0
 62
     7
100
AcDbLine
 10
108.7401764631
 20
170.4368393932
 30
0.0
 11
102.2401764631
 21
170.4368393932
 31
0.0
  0
LINE
  5
198
330
185
100
AcDbEntity
  8
SLD-0
 62
     7
100
AcDbLine
 10
102.2401764631
 20
170.4368393932
 30
0.0
 11
97.2401764631
 21
170.4368393932
 31
0.0
  0
LINE
  5
199
330
185
100
AcDbEntity
  8
SLD-0
 62
     7
100
AcDbLine
 10
111.7401764631
 20
169.6329923932
 30
0.0
 11
108.7401764631
 21
170.4368393932
 31
0.0
  0
LINE
  5
19A
330
185
100
AcDbEntity
  8
SLD-0
 62
     7
100
AcDbLine
 10
108.7401764631
 20
170.4368393932
 30
0.0
 11
111.7401764631
 21
171.2406863932
 31
0.0
  0
LINE
  5
19B
330
185
100
AcDbEntity
  8
SLD-0
 62
     7
100
AcDbLine
 10
108.7401764631
 20
170.4368393932
 30
0.0
 11
111.7401764631
 21
170.4368393932
 31
0.0
  0
LINE
  5
19C
330
185
100
AcDbEntity
  8
SLD-0
 62
     7
100
AcDbLine
 10
99.2401764631
 20
171.2406863932
 30
0.0
 11
102.2401764631
 21
170.4368393932
 31
0.0
  0
LINE
  5
19D
330
185
100
AcDbEntity
  8
SLD-0
 62
     7
100
AcDbLine
 10
102.2401764631
 20
170.4368393932
 30
0.0
 11
99.2401764631
 21
169.6329923932
 31
0.0
  0
LINE
  5
19E
330
185
100
AcDbEntity
  8
SLD-0
 62
     7
100
AcDbLine
 10
102.2401764631
 20
170.4368393932
 30
0.0
 11
99.2401764631
 21
170.4368393932
 31
0.0
  0
MTEXT
  5
19F
330
185
100
AcDbEntity
  8
SLD-0
 62
     7
100
AcDbMText
 10
114.1466737934
 20
174.9635330891
 30
0.1
 40
3.5
 41
0.0
 71
     1
 72
     1
  1
6.5
  7
SLDTEXTSTYLE0
 73
     1
 44
1.0
  0
ENDBLK
  5
193
330
185
100
AcDbEntity
  8
0
100
AcDbBlockEnd
  0
BLOCK
  5
1AD
330
1A1
100
AcDbEntity
  8
0
100
AcDbBlockBegin
  2
*D22
 70
     1
 71
     0
 10
0.0
 20
0.0
 30
0.0
  3
*D22
  1

  0
LINE
  5
1AF
330
1A1
100
AcDbEntity
  8
SLD-0
 62
     7
100
AcDbLine
 10
69.7401764631
 20
156.6592441857
 30
0.0
 11
49.9832487781
 21
156.6592441857
 31
0.0
  0
LINE
  5
1B0
330
1A1
100
AcDbEntity
  8
SLD-0
 62
     7
100
AcDbLine
 10
84.7401764631
 20
150.1592441857
 30
0.0
 11
49.9832487781
 21
150.1592441857
 31
0.0
  0
LINE
  5
1B1
330
1A1
100
AcDbEntity
  8
SLD-0
 62
     7
100
AcDbLine
 10
50.9832487781
 20
156.6592441857
 30
0.0
 11
50.9832487781
 21
170.5918893849
 31
0.0
  0
LINE
  5
1B2
330
1A1
100
AcDbEntity
  8
SLD-0
 62
     7
100
AcDbLine
 10
50.9832487781
 20
156.6592441857
 30
0.0
 11
50.9832487781
 21
150.1592441857
 31
0.0
  0
LINE
  5
1B3
330
1A1
100
AcDbEntity
  8
SLD-0
 62
     7
100
AcDbLine
 10
50.9832487781
 20
150.1592441857
 30
0.0
 11
50.9832487781
 21
145.1592441857
 31
0.0
  0
LINE
  5
1B4
330
1A1
100
AcDbEntity
  8
SLD-0
 62
     7
100
AcDbLine
 10
51.7870957781
 20
159.6592441857
 30
0.0
 11
50.9832487781
 21
156.6592441857
 31
0.0
  0
LINE
  5
1B5
330
1A1
100
AcDbEntity
  8
SLD-0
 62
     7
100
AcDbLine
 10
50.9832487781
 20
156.6592441857
 30
0.0
 11
50.1794017781
 21
159.6592441857
 31
0.0
  0
LINE
  5
1B6
330
1A1
100
AcDbEntity
  8
SLD-0
 62
     7
100
AcDbLine
 10
50.9832487781
 20
156.6592441857
 30
0.0
 11
50.9832487781
 21
159.6592441857
 31
0.0
  0
LINE
  5
1B7
330
1A1
100
AcDbEntity
  8
SLD-0
 62
     7
100
AcDbLine
 10
50.1794017781
 20
147.1592441857
 30
0.0
 11
50.9832487781
 21
150.1592441857
 31
0.0
  0
LINE
  5
1B8
330
1A1
100
AcDbEntity
  8
SLD-0
 62
     7
100
AcDbLine
 10
50.9832487781
 20
150.1592441857
 30
0.0
 11
51.7870957781
 21
147.1592441857
 31
0.0
  0
LINE
  5
1B9
330
1A1
100
AcDbEntity
  8
SLD-0
 62
     7
100
AcDbLine
 10
50.9832487781
 20
150.1592441857
 30
0.0
 11
50.9832487781
 21
147.1592441857
 31
0.0
  0
MTEXT
  5
1BA
330
1A1
100
AcDbEntity
  8
SLD-0
 62
     7
100
AcDbMText
 10
46.4565550821
 20
162.8944294332
 30
0.1
 40
3.5
 41
0.0
 71
     1
 72
     1
  1
6.5
  7
SLDTEXTSTYLE0
 11
6.123031769111886E-17
 21
1.0
 31
0.0
 73
     1
 44
1.0
  0
ENDBLK
  5
1AE
330
1A1
100
AcDbEntity
  8
0
100
AcDbBlockEnd
  0
BLOCK
  5
1C3
330
1BC
100
AcDbEntity
  8
0
100
AcDbBlockBegin
  2
*D23
 70
     1
 71
     0
 10
0.0
 20
0.0
 30
0.0
  3
*D23
  1

  0
LINE
  5
1C6
330
1BC
100
AcDbEntity
  8
SLD-0
 62
     7
100
AcDbLine
 10
104.1630183896
 20
136.2793928314
 30
0.0
 11
113.5574897832
 21
149.0807111101
 31
0.0
  0
LINE
  5
1C7
330
1BC
100
AcDbEntity
  8
SLD-0
 62
     7
100
AcDbLine
 10
113.5574897832
 20
149.0807111101
 30
0.0
 11
132.3707051029
 21
149.0807111101
 31
0.0
  0
LINE
  5
1C8
330
1BC
100
AcDbEntity
  8
SLD-0
 62
     7
100
AcDbLine
 10
106.5860105151
 20
138.2224005924
 30
0.0
 11
104.1630183896
 21
136.2793928314
 31
0.0
  0
LINE
  5
1C9
330
1BC
100
AcDbEntity
  8
SLD-0
 62
     7
100
AcDbLine
 10
104.1630183896
 20
136.2793928314
 30
0.0
 11
105.2898882822
 21
139.1735825703
 31
0.0
  0
LINE
  5
1CA
330
1BC
100
AcDbEntity
  8
SLD-0
 62
     7
100
AcDbLine
 10
104.1630183896
 20
136.2793928314
 30
0.0
 11
105.9379493986
 21
138.6979915813
 31
0.0
  0
MTEXT
  5
1CB
330
1BC
100
AcDbEntity
  8
SLD-0
 62
     7
100
AcDbMText
 10
116.7324897832
 20
153.607404806
 30
0.1
 40
3.5
 41
0.0
 71
     1
 72
     1
  1
5-
  7
SLDTEXTSTYLE0
 73
     1
 44
1.0
  0
MTEXT
  5
1CC
330
1BC
100
AcDbEntity
  8
SLD-0
 62
     7
100
AcDbMText
 10
119.0561007782
 20
153.6074045732
 30
0.1
 40
3.5
 41
0.0
 71
     1
 72
     1
  1
%%c
  7
SLDTEXTSTYLE0
 73
     1
 44
1.0
  0
MTEXT
  5
1CD
330
1BC
100
AcDbEntity
  8
SLD-0
 62
     7
100
AcDbMText
 10
124.6732451511
 20
153.607404806
 30
0.1
 40
3.5
 41
0.0
 71
     1
 72
     1
  1
6.5
  7
SLDTEXTSTYLE0
 73
     1
 44
1.0
  0
ENDBLK
  5
1C4
330
1BC
100
AcDbEntity
  8
0
100
AcDbBlockEnd
  0
BLOCK
  5
1DA
330
1CF
100
AcDbEntity
  8
0
100
AcDbBlockBegin
  2
*D24
 70
     1
 71
     0
 10
0.0
 20
0.0
 30
0.0
  3
*D24
  1

  0
LINE
  5
1DC
330
1CF
100
AcDbEntity
  8
SLD-0
 62
     7
100
AcDbLine
 10
109.7401764631
 20
232.2494516949
 30
0.0
 11
134.4655091705
 21
232.2494516949
 31
0.0
  0
LINE
  5
1DD
330
1CF
100
AcDbEntity
  8
SLD-0
 62
     7
100
AcDbLine
 10
109.7401764631
 20
217.2494516949
 30
0.0
 11
134.4655091705
 21
217.2494516949
 31
0.0
  0
LINE
  5
1DE
330
1CF
100
AcDbEntity
  8
SLD-0
 62
     7
100
AcDbLine
 10
133.4655091705
 20
232.2494516949
 30
0.0
 11
133.4655091705
 21
217.2494516949
 31
0.0
  0
LINE
  5
1DF
330
1CF
100
AcDbEntity
  8
SLD-0
 62
     7
100
AcDbLine
 10
132.6616621705
 20
229.2494516949
 30
0.0
 11
133.4655091705
 21
232.2494516949
 31
0.0
  0
LINE
  5
1E0
330
1CF
100
AcDbEntity
  8
SLD-0
 62
     7
100
AcDbLine
 10
133.4655091705
 20
232.2494516949
 30
0.0
 11
134.2693561705
 21
229.2494516949
 31
0.0
  0
LINE
  5
1E1
330
1CF
100
AcDbEntity
  8
SLD-0
 62
     7
100
AcDbLine
 10
133.4655091705
 20
232.2494516949
 30
0.0
 11
133.4655091705
 21
229.2494516949
 31
0.0
  0
LINE
  5
1E2
330
1CF
100
AcDbEntity
  8
SLD-0
 62
     7
100
AcDbLine
 10
134.2693561705
 20
220.2494516949
 30
0.0
 11
133.4655091705
 21
217.2494516949
 31
0.0
  0
LINE
  5
1E3
330
1CF
100
AcDbEntity
  8
SLD-0
 62
     7
100
AcDbLine
 10
133.4655091705
 20
217.2494516949
 30
0.0
 11
132.6616621705
 21
220.2494516949
 31
0.0
  0
LINE
  5
1E4
330
1CF
100
AcDbEntity
  8
SLD-0
 62
     7
100
AcDbLine
 10
133.4655091705
 20
217.2494516949
 30
0.0
 11
133.4655091705
 21
220.2494516949
 31
0.0
  0
MTEXT
  5
1E5
330
1CF
100
AcDbEntity
  8
SLD-0
 62
     7
100
AcDbMText
 10
128.9388154746
 20
222.7140164717
 30
0.1
 40
3.5
 41
0.0
 71
     1
 72
     1
  1
15
  7
SLDTEXTSTYLE0
 11
6.123031769111886E-17
 21
1.0
 31
0.0
 73
     1
 44
1.0
  0
ENDBLK
  5
1DB
330
1CF
100
AcDbEntity
  8
0
100
AcDbBlockEnd
  0
BLOCK
  5
1F2
330
1E7
100
AcDbEntity
  8
0
100
AcDbBlockBegin
  2
*D25
 70
     1
 71
     0
 10
0.0
 20
0.0
 30
0.0
  3
*D25
  1

  0
LINE
  5
1F4
330
1E7
100
AcDbEntity
  8
SLD-0
 62
     7
100
AcDbLine
 10
96.7401764631
 20
217.2494516949
 30
0.0
 11
122.1831189419
 21
217.2494516949
 31
0.0
  0
LINE
  5
1F5
330
1E7
100
AcDbEntity
  8
SLD-0
 62
     7
100
AcDbLine
 10
96.7401764631
 20
222.2494516949
 30
0.0
 11
122.1831189419
 21
222.2494516949
 31
0.0
  0
LINE
  5
1F6
330
1E7
100
AcDbEntity
  8
SLD-0
 62
     7
100
AcDbLine
 10
121.1831189419
 20
217.2494516949
 30
0.0
 11
121.1831189419
 21
212.2494516949
 31
0.0
  0
LINE
  5
1F7
330
1E7
100
AcDbEntity
  8
SLD-0
 62
     7
100
AcDbLine
 10
121.1831189419
 20
217.2494516949
 30
0.0
 11
121.1831189419
 21
222.2494516949
 31
0.0
  0
LINE
  5
1F8
330
1E7
100
AcDbEntity
  8
SLD-0
 62
     7
100
AcDbLine
 10
121.1831189419
 20
222.2494516949
 30
0.0
 11
121.1831189419
 21
227.2494516949
 31
0.0
  0
LINE
  5
1F9
330
1E7
100
AcDbEntity
  8
SLD-0
 62
     7
100
AcDbLine
 10
120.3792719419
 20
214.2494516949
 30
0.0
 11
121.1831189419
 21
217.2494516949
 31
0.0
  0
LINE
  5
1FA
330
1E7
100
AcDbEntity
  8
SLD-0
 62
     7
100
AcDbLine
 10
121.1831189419
 20
217.2494516949
 30
0.0
 11
121.9869659419
 21
214.2494516949
 31
0.0
  0
LINE
  5
1FB
330
1E7
100
AcDbEntity
  8
SLD-0
 62
     7
100
AcDbLine
 10
121.1831189419
 20
217.2494516949
 30
0.0
 11
121.1831189419
 21
214.2494516949
 31
0.0
  0
LINE
  5
1FC
330
1E7
100
AcDbEntity
  8
SLD-0
 62
     7
100
AcDbLine
 10
121.9869659419
 20
225.2494516949
 30
0.0
 11
121.1831189419
 21
222.2494516949
 31
0.0
  0
LINE
  5
1FD
330
1E7
100
AcDbEntity
  8
SLD-0
 62
     7
100
AcDbLine
 10
121.1831189419
 20
222.2494516949
 30
0.0
 11
120.3792719419
 21
225.2494516949
 31
0.0
  0
LINE
  5
1FE
330
1E7
100
AcDbEntity
  8
SLD-0
 62
     7
100
AcDbLine
 10
121.1831189419
 20
222.2494516949
 30
0.0
 11
121.1831189419
 21
225.2494516949
 31
0.0
  0
MTEXT
  5
1FF
330
1E7
100
AcDbEntity
  8
SLD-0
 62
     7
100
AcDbMText
 10
116.6564252459
 20
218.7317340833
 30
0.1
 40
3.5
 41
0.0
 71
     1
 72
     1
  1
5
  7
SLDTEXTSTYLE0
 11
6.123031769111886E-17
 21
1.0
 31
0.0
 73
     1
 44
1.0
  0
ENDBLK
  5
1F3
330
1E7
100
AcDbEntity
  8
0
100
AcDbBlockEnd
  0
BLOCK
  5
20B
330
201
100
AcDbEntity
  8
0
100
AcDbBlockBegin
  2
*D26
 70
     1
 71
     0
 10
0.0
 20
0.0
 30
0.0
  3
*D26
  1

  0
LINE
  5
20D
330
201
100
AcDbEntity
  8
SLD-0
 62
     7
100
AcDbLine
 10
108.7401764631
 20
216.2494516949
 30
0.0
 11
108.7401764631
 21
194.8984580464
 31
0.0
  0
LINE
  5
20E
330
201
100
AcDbEntity
  8
SLD-0
 62
     7
100
AcDbLine
 10
95.7401764631
 20
216.2494516949
 30
0.0
 11
95.7401764631
 21
194.8984580464
 31
0.0
  0
LINE
  5
20F
330
201
100
AcDbEntity
  8
SLD-0
 62
     7
100
AcDbLine
 10
108.7401764631
 20
195.8984580464
 30
0.0
 11
95.7401764631
 21
195.8984580464
 31
0.0
  0
LINE
  5
210
330
201
100
AcDbEntity
  8
SLD-0
 62
     7
100
AcDbLine
 10
105.7401764631
 20
196.7023050464
 30
0.0
 11
108.7401764631
 21
195.8984580464
 31
0.0
  0
LINE
  5
211
330
201
100
AcDbEntity
  8
SLD-0
 62
     7
100
AcDbLine
 10
108.7401764631
 20
195.8984580464
 30
0.0
 11
105.7401764631
 21
195.0946110464
 31
0.0
  0
LINE
  5
212
330
201
100
AcDbEntity
  8
SLD-0
 62
     7
100
AcDbLine
 10
108.7401764631
 20
195.8984580464
 30
0.0
 11
105.7401764631
 21
195.8984580464
 31
0.0
  0
LINE
  5
213
330
201
100
AcDbEntity
  8
SLD-0
 62
     7
100
AcDbLine
 10
98.7401764631
 20
195.0946110464
 30
0.0
 11
95.7401764631
 21
195.8984580464
 31
0.0
  0
LINE
  5
214
330
201
100
AcDbEntity
  8
SLD-0
 62
     7
100
AcDbLine
 10
95.7401764631
 20
195.8984580464
 30
0.0
 11
98.7401764631
 21
196.7023050464
 31
0.0
  0
LINE
  5
215
330
201
100
AcDbEntity
  8
SLD-0
 62
     7
100
AcDbLine
 10
95.7401764631
 20
195.8984580464
 30
0.0
 11
98.7401764631
 21
195.8984580464
 31
0.0
  0
MTEXT
  5
216
330
201
100
AcDbEntity
  8
SLD-0
 62
     7
100
AcDbMText
 10
100.20474124
 20
200.4251517424
 30
0.1
 40
3.5
 41
0.0
 71
     1
 72
     1
  1
13
  7
SLDTEXTSTYLE0
 73
     1
 44
1.0
  0
ENDBLK
  5
20C
330
201
100
AcDbEntity
  8
0
100
AcDbBlockEnd
  0
BLOCK
  5
222
330
218
100
AcDbEntity
  8
0
100
AcDbBlockBegin
  2
*D27
 70
     1
 71
     0
 10
0.0
 20
0.0
 30
0.0
  3
*D27
  1

  0
LINE
  5
225
330
218
100
AcDbEntity
  8
SLD-0
 62
     7
100
AcDbLine
 10
95.7401764631
 20
216.2494516949
 30
0.0
 11
95.7401764631
 21
194.8984580464
 31
0.0
  0
LINE
  5
226
330
218
100
AcDbEntity
  8
SLD-0
 62
     7
100
AcDbLine
 10
75.7401764631
 20
216.2494516949
 30
0.0
 11
75.7401764631
 21
194.8984580464
 31
0.0
  0
LINE
  5
227
330
218
100
AcDbEntity
  8
SLD-0
 62
     7
100
AcDbLine
 10
95.7401764631
 20
195.8984580464
 30
0.0
 11
75.7401764631
 21
195.8984580464
 31
0.0
  0
LINE
  5
228
330
218
100
AcDbEntity
  8
SLD-0
 62
     7
100
AcDbLine
 10
92.7401764631
 20
196.7023050464
 30
0.0
 11
95.7401764631
 21
195.8984580464
 31
0.0
  0
LINE
  5
229
330
218
100
AcDbEntity
  8
SLD-0
 62
     7
100
AcDbLine
 10
95.7401764631
 20
195.8984580464
 30
0.0
 11
92.7401764631
 21
195.0946110464
 31
0.0
  0
LINE
  5
22A
330
218
100
AcDbEntity
  8
SLD-0
 62
     7
100
AcDbLine
 10
95.7401764631
 20
195.8984580464
 30
0.0
 11
92.7401764631
 21
195.8984580464
 31
0.0
  0
LINE
  5
22B
330
218
100
AcDbEntity
  8
SLD-0
 62
     7
100
AcDbLine
 10
78.7401764631
 20
195.0946110464
 30
0.0
 11
75.7401764631
 21
195.8984580464
 31
0.0
  0
LINE
  5
22C
330
218
100
AcDbEntity
  8
SLD-0
 62
     7
100
AcDbLine
 10
75.7401764631
 20
195.8984580464
 30
0.0
 11
78.7401764631
 21
196.7023050464
 31
0.0
  0
LINE
  5
22D
330
218
100
AcDbEntity
  8
SLD-0
 62
     7
100
AcDbLine
 10
75.7401764631
 20
195.8984580464
 30
0.0
 11
78.7401764631
 21
195.8984580464
 31
0.0
  0
MTEXT
  5
22E
330
218
100
AcDbEntity
  8
SLD-0
 62
     7
100
AcDbMText
 10
80.6515884052
 20
200.4251517424
 30
0.1
 40
3.5
 41
0.0
 71
     1
 72
     1
  1
20
  7
SLDTEXTSTYLE0
 73
     1
 44
1.0
  0
MTEXT
  5
22F
330
218
100
AcDbEntity
  8
SLD-0
 62
     7
100
AcDbMText
 10
87.1635194064
 20
199.2286779166
 30
0.1
 40
2.1
 41
0.0
 71
     1
 72
     1
  1
0
  7
SLDTEXTSTYLE0
 73
     1
 44
1.0
  0
MTEXT
  5
230
330
218
100
AcDbEntity
  8
SLD-0
 62
     7
100
AcDbMText
 10
85.942989129
 20
201.6697384715
 30
0.1
 40
2.1
 41
0.0
 71
     1
 72
     1
  1
+
  7
SLDTEXTSTYLE0
 73
     1
 44
1.0
  0
MTEXT
  5
231
330
218
100
AcDbEntity
  8
SLD-0
 62
     7
100
AcDbMText
 10
87.1635194064
 20
201.6697384715
 30
0.1
 40
2.1
 41
0.0
 71
     1
 72
     1
  1
0.1
  7
SLDTEXTSTYLE0
 73
     1
 44
1.0
  0
ENDBLK
  5
223
330
218
100
AcDbEntity
  8
0
100
AcDbBlockEnd
  0
BLOCK
  5
23D
330
233
100
AcDbEntity
  8
0
100
AcDbBlockBegin
  2
*D28
 70
     1
 71
     0
 10
0.0
 20
0.0
 30
0.0
  3
*D28
  1

  0
ARC
  5
23F
330
233
100
AcDbEntity
  8
SLD-0
 62
     7
100
AcDbCircle
 10
69.6881116863
 20
197.9338932696
 30
0.0
 40
4.551371522800003
100
AcDbArc
 50
153.4349488229
 51
206.5650511771
  0
ARC
  5
240
330
233
100
AcDbEntity
  8
SLD-0
 62
     7
100
AcDbCircle
 10
68.79224124
 20
197.9338932696
 30
0.0
 40
4.551371522800003
100
AcDbArc
 50
333.4349488229
 51
26.5650511771
  0
LINE
  5
241
330
233
100
AcDbEntity
  8
SLD-0
 62
     7
100
AcDbLine
 10
75.7401764631
 20
216.2494516949
 30
0.0
 11
75.7401764631
 21
194.8984580464
 31
0.0
  0
LINE
  5
242
330
233
100
AcDbEntity
  8
SLD-0
 62
     7
100
AcDbLine
 10
62.7401764631
 20
216.2494516949
 30
0.0
 11
62.7401764631
 21
194.8984580464
 31
0.0
  0
LINE
  5
243
330
233
100
AcDbEntity
  8
SLD-0
 62
     7
100
AcDbLine
 10
75.7401764631
 20
195.8984580464
 30
0.0
 11
80.7401764631
 21
195.8984580464
 31
0.0
  0
LINE
  5
244
330
233
100
AcDbEntity
  8
SLD-0
 62
     7
100
AcDbLine
 10
75.7401764631
 20
195.8984580464
 30
0.0
 11
62.7401764631
 21
195.8984580464
 31
0.0
  0
LINE
  5
245
330
233
100
AcDbEntity
  8
SLD-0
 62
     7
100
AcDbLine
 10
62.7401764631
 20
195.8984580464
 30
0.0
 11
57.7401764631
 21
195.8984580464
 31
0.0
  0
LINE
  5
246
330
233
100
AcDbEntity
  8
SLD-0
 62
     7
100
AcDbLine
 10
78.7401764631
 20
195.0946110464
 30
0.0
 11
75.7401764631
 21
195.8984580464
 31
0.0
  0
LINE
  5
247
330
233
100
AcDbEntity
  8
SLD-0
 62
     7
100
AcDbLine
 10
75.7401764631
 20
195.8984580464
 30
0.0
 11
78.7401764631
 21
196.7023050464
 31
0.0
  0
LINE
  5
248
330
233
100
AcDbEntity
  8
SLD-0
 62
     7
100
AcDbLine
 10
75.7401764631
 20
195.8984580464
 30
0.0
 11
78.7401764631
 21
195.8984580464
 31
0.0
  0
LINE
  5
249
330
233
100
AcDbEntity
  8
SLD-0
 62
     7
100
AcDbLine
 10
59.7401764631
 20
196.7023050464
 30
0.0
 11
62.7401764631
 21
195.8984580464
 31
0.0
  0
LINE
  5
24A
330
233
100
AcDbEntity
  8
SLD-0
 62
     7
100
AcDbLine
 10
62.7401764631
 20
195.8984580464
 30
0.0
 11
59.7401764631
 21
195.0946110464
 31
0.0
  0
LINE
  5
24B
330
233
100
AcDbEntity
  8
SLD-0
 62
     7
100
AcDbLine
 10
62.7401764631
 20
195.8984580464
 30
0.0
 11
59.7401764631
 21
195.8984580464
 31
0.0
  0
MTEXT
  5
24C
330
233
100
AcDbEntity
  8
SLD-0
 62
     7
100
AcDbMText
 10
67.20474124
 20
200.4251517424
 30
0.1
 40
3.5
 41
0.0
 71
     1
 72
     1
  1
13
  7
SLDTEXTSTYLE0
 73
     1
 44
1.0
  0
ENDBLK
  5
23E
330
233
100
AcDbEntity
  8
0
100
AcDbBlockEnd
  0
BLOCK
  5
259
330
24E
100
AcDbEntity
  8
0
100
AcDbBlockBegin
  2
*D29
 70
     1
 71
     0
 10
0.0
 20
0.0
 30
0.0
  3
*D29
  1

  0
ARC
  5
25B
330
24E
100
AcDbEntity
  8
SLD-0
 62
     7
100
AcDbCircle
 10
182.9449471803
 20
117.6071794088
 30
0.0
 40
4.55137152279999
100
AcDbArc
 50
243.4349488229
 51
296.5650511771
  0
ARC
  5
25C
330
24E
100
AcDbEntity
  8
SLD-0
 62
     7
100
AcDbCircle
 10
182.9449471803
 20
116.7113089625
 30
0.0
 40
4.551371522800015
100
AcDbArc
 50
63.4349488229
 51
116.5650511771
  0
LINE
  5
25D
330
24E
100
AcDbEntity
  8
SLD-0
 62
     7
100
AcDbLine
 10
164.7445171016
 20
110.6592441857
 30
0.0
 11
185.9803824035
 21
110.6592441857
 31
0.0
  0
LINE
  5
25E
330
24E
100
AcDbEntity
  8
SLD-0
 62
     7
100
AcDbLine
 10
159.7445171016
 20
123.6592441857
 30
0.0
 11
185.9803824035
 21
123.6592441857
 31
0.0
  0
LINE
  5
25F
330
24E
100
AcDbEntity
  8
SLD-0
 62
     7
100
AcDbLine
 10
184.9803824035
 20
110.6592441857
 30
0.0
 11
184.9803824035
 21
105.6592441857
 31
0.0
  0
LINE
  5
260
330
24E
100
AcDbEntity
  8
SLD-0
 62
     7
100
AcDbLine
 10
184.9803824035
 20
110.6592441857
 30
0.0
 11
184.9803824035
 21
123.6592441857
 31
0.0
  0
LINE
  5
261
330
24E
100
AcDbEntity
  8
SLD-0
 62
     7
100
AcDbLine
 10
184.9803824035
 20
123.6592441857
 30
0.0
 11
184.9803824035
 21
128.6592441857
 31
0.0
  0
LINE
  5
262
330
24E
100
AcDbEntity
  8
SLD-0
 62
     7
100
AcDbLine
 10
184.1765354035
 20
107.6592441857
 30
0.0
 11
184.9803824035
 21
110.6592441857
 31
0.0
  0
LINE
  5
263
330
24E
100
AcDbEntity
  8
SLD-0
 62
     7
100
AcDbLine
 10
184.9803824035
 20
110.6592441857
 30
0.0
 11
185.7842294035
 21
107.6592441857
 31
0.0
  0
LINE
  5
264
330
24E
100
AcDbEntity
  8
SLD-0
 62
     7
100
AcDbLine
 10
184.9803824035
 20
110.6592441857
 30
0.0
 11
184.9803824035
 21
107.6592441857
 31
0.0
  0
LINE
  5
265
330
24E
100
AcDbEntity
  8
SLD-0
 62
     7
100
AcDbLine
 10
185.7842294035
 20
126.6592441857
 30
0.0
 11
184.9803824035
 21
123.6592441857
 31
0.0
  0
LINE
  5
266
330
24E
100
AcDbEntity
  8
SLD-0
 62
     7
100
AcDbLine
 10
184.9803824035
 20
123.6592441857
 30
0.0
 11
184.1765354035
 21
126.6592441857
 31
0.0
  0
LINE
  5
267
330
24E
100
AcDbEntity
  8
SLD-0
 62
     7
100
AcDbLine
 10
184.9803824035
 20
123.6592441857
 30
0.0
 11
184.9803824035
 21
126.6592441857
 31
0.0
  0
MTEXT
  5
268
330
24E
100
AcDbEntity
  8
SLD-0
 62
     7
100
AcDbMText
 10
180.4536887075
 20
115.1238089625
 30
0.1
 40
3.5
 41
0.0
 71
     1
 72
     1
  1
13
  7
SLDTEXTSTYLE0
 11
6.123031769111886E-17
 21
1.0
 31
0.0
 73
     1
 44
1.0
  0
ENDBLK
  5
25A
330
24E
100
AcDbEntity
  8
0
100
AcDbBlockEnd
  0
BLOCK
  5
275
330
26A
100
AcDbEntity
  8
0
100
AcDbBlockBegin
  2
*D30
 70
     1
 71
     0
 10
0.0
 20
0.0
 30
0.0
  3
*D30
  1

  0
LINE
  5
277
330
26A
100
AcDbEntity
  8
SLD-0
 62
     7
100
AcDbLine
 10
159.7445171016
 20
143.6592441857
 30
0.0
 11
185.9803824035
 21
143.6592441857
 31
0.0
  0
LINE
  5
278
330
26A
100
AcDbEntity
  8
SLD-0
 62
     7
100
AcDbLine
 10
159.7445171016
 20
123.6592441857
 30
0.0
 11
185.9803824035
 21
123.6592441857
 31
0.0
  0
LINE
  5
279
330
26A
100
AcDbEntity
  8
SLD-0
 62
     7
100
AcDbLine
 10
184.9803824035
 20
143.6592441857
 30
0.0
 11
184.9803824035
 21
123.6592441857
 31
0.0
  0
LINE
  5
27A
330
26A
100
AcDbEntity
  8
SLD-0
 62
     7
100
AcDbLine
 10
184.1765354035
 20
140.6592441857
 30
0.0
 11
184.9803824035
 21
143.6592441857
 31
0.0
  0
LINE
  5
27B
330
26A
100
AcDbEntity
  8
SLD-0
 62
     7
100
AcDbLine
 10
184.9803824035
 20
143.6592441857
 30
0.0
 11
185.7842294035
 21
140.6592441857
 31
0.0
  0
LINE
  5
27C
330
26A
100
AcDbEntity
  8
SLD-0
 62
     7
100
AcDbLine
 10
184.9803824035
 20
143.6592441857
 30
0.0
 11
184.9803824035
 21
140.6592441857
 31
0.0
  0
LINE
  5
27D
330
26A
100
AcDbEntity
  8
SLD-0
 62
     7
100
AcDbLine
 10
185.7842294035
 20
126.6592441857
 30
0.0
 11
184.9803824035
 21
123.6592441857
 31
0.0
  0
LINE
  5
27E
330
26A
100
AcDbEntity
  8
SLD-0
 62
     7
100
AcDbLine
 10
184.9803824035
 20
123.6592441857
 30
0.0
 11
184.1765354035
 21
126.6592441857
 31
0.0
  0
LINE
  5
27F
330
26A
100
AcDbEntity
  8
SLD-0
 62
     7
100
AcDbLine
 10
184.9803824035
 20
123.6592441857
 30
0.0
 11
184.9803824035
 21
126.6592441857
 31
0.0
  0
MTEXT
  5
280
330
26A
100
AcDbEntity
  8
SLD-0
 62
     7
100
AcDbMText
 10
180.4536887075
 20
128.5706561278
 30
0.1
 40
3.5
 41
0.0
 71
     1
 72
     1
  1
20
  7
SLDTEXTSTYLE0
 11
6.123031769111886E-17
 21
1.0
 31
0.0
 73
     1
 44
1.0
  0
MTEXT
  5
281
330
26A
100
AcDbEntity
  8
SLD-0
 62
     7
100
AcDbMText
 10
181.6501625333
 20
135.082587129
 30
0.1
 40
2.1
 41
0.0
 71
     1
 72
     1
  1
0
  7
SLDTEXTSTYLE0
 11
6.123031769111886E-17
 21
1.0
 31
0.0
 73
     1
 44
1.0
  0
MTEXT
  5
282
330
26A
100
AcDbEntity
  8
SLD-0
 62
     7
100
AcDbMText
 10
179.2091019784
 20
133.8620568515
 30
0.1
 40
2.1
 41
0.0
 71
     1
 72
     1
  1
+
  7
SLDTEXTSTYLE0
 11
6.123031769111886E-17
 21
1.0
 31
0.0
 73
     1
 44
1.0
  0
MTEXT
  5
283
330
26A
100
AcDbEntity
  8
SLD-0
 62
     7
100
AcDbMText
 10
179.2091019784
 20
135.082587129
 30
0.1
 40
2.1
 41
0.0
 71
     1
 72
     1
  1
0.1
  7
SLDTEXTSTYLE0
 11
6.123031769111886E-17
 21
1.0
 31
0.0
 73
     1
 44
1.0
  0
ENDBLK
  5
276
330
26A
100
AcDbEntity
  8
0
100
AcDbBlockEnd
  0
BLOCK
  5
290
330
285
100
AcDbEntity
  8
0
100
AcDbBlockBegin
  2
*D31
 70
     1
 71
     0
 10
0.0
 20
0.0
 30
0.0
  3
*D31
  1

  0
LINE
  5
292
330
285
100
AcDbEntity
  8
SLD-0
 62
     7
100
AcDbLine
 10
164.7445171016
 20
156.6592441857
 30
0.0
 11
185.9803824035
 21
156.6592441857
 31
0.0
  0
LINE
  5
293
330
285
100
AcDbEntity
  8
SLD-0
 62
     7
100
AcDbLine
 10
159.7445171016
 20
143.6592441857
 30
0.0
 11
185.9803824035
 21
143.6592441857
 31
0.0
  0
LINE
  5
294
330
285
100
AcDbEntity
  8
SLD-0
 62
     7
100
AcDbLine
 10
184.9803824035
 20
156.6592441857
 30
0.0
 11
184.9803824035
 21
143.6592441857
 31
0.0
  0
LINE
  5
295
330
285
100
AcDbEntity
  8
SLD-0
 62
     7
100
AcDbLine
 10
184.1765354035
 20
153.6592441857
 30
0.0
 11
184.9803824035
 21
156.6592441857
 31
0.0
  0
LINE
  5
296
330
285
100
AcDbEntity
  8
SLD-0
 62
     7
100
AcDbLine
 10
184.9803824035
 20
156.6592441857
 30
0.0
 11
185.7842294035
 21
153.6592441857
 31
0.0
  0
LINE
  5
297
330
285
100
AcDbEntity
  8
SLD-0
 62
     7
100
AcDbLine
 10
184.9803824035
 20
156.6592441857
 30
0.0
 11
184.9803824035
 21
153.6592441857
 31
0.0
  0
LINE
  5
298
330
285
100
AcDbEntity
  8
SLD-0
 62
     7
100
AcDbLine
 10
185.7842294035
 20
146.6592441857
 30
0.0
 11
184.9803824035
 21
143.6592441857
 31
0.0
  0
LINE
  5
299
330
285
100
AcDbEntity
  8
SLD-0
 62
     7
100
AcDbLine
 10
184.9803824035
 20
143.6592441857
 30
0.0
 11
184.1765354035
 21
146.6592441857
 31
0.0
  0
LINE
  5
29A
330
285
100
AcDbEntity
  8
SLD-0
 62
     7
100
AcDbLine
 10
184.9803824035
 20
143.6592441857
 30
0.0
 11
184.9803824035
 21
146.6592441857
 31
0.0
  0
MTEXT
  5
29B
330
285
100
AcDbEntity
  8
SLD-0
 62
     7
100
AcDbMText
 10
180.4536887075
 20
148.1238089625
 30
0.1
 40
3.5
 41
0.0
 71
     1
 72
     1
  1
13
  7
SLDTEXTSTYLE0
 11
6.123031769111886E-17
 21
1.0
 31
0.0
 73
     1
 44
1.0
  0
ENDBLK
  5
291
330
285
100
AcDbEntity
  8
0
100
AcDbBlockEnd
  0
BLOCK
  5
2A8
330
29D
100
AcDbEntity
  8
0
100
AcDbBlockBegin
  2
*D32
 70
     1
 71
     0
 10
0.0
 20
0.0
 30
0.0
  3
*D32
  1

  0
LINE
  5
2AA
330
29D
100
AcDbEntity
  8
SLD-0
 62
     7
100
AcDbLine
 10
163.7445171016
 20
109.6592441857
 30
0.0
 11
163.7445171016
 21
99.2775841134
 31
0.0
  0
LINE
  5
2AB
330
29D
100
AcDbEntity
  8
SLD-0
 62
     7
100
AcDbLine
 10
158.7445171016
 20
122.6592441857
 30
0.0
 11
158.7445171016
 21
99.2775841134
 31
0.0
  0
LINE
  5
2AC
330
29D
100
AcDbEntity
  8
SLD-0
 62
     7
100
AcDbLine
 10
163.7445171016
 20
100.2775841134
 30
0.0
 11
168.7445171016
 21
100.2775841134
 31
0.0
  0
LINE
  5
2AD
330
29D
100
AcDbEntity
  8
SLD-0
 62
     7
100
AcDbLine
 10
163.7445171016
 20
100.2775841134
 30
0.0
 11
158.7445171016
 21
100.2775841134
 31
0.0
  0
LINE
  5
2AE
330
29D
100
AcDbEntity
  8
SLD-0
 62
     7
100
AcDbLine
 10
158.7445171016
 20
100.2775841134
 30
0.0
 11
153.7445171016
 21
100.2775841134
 31
0.0
  0
LINE
  5
2AF
330
29D
100
AcDbEntity
  8
SLD-0
 62
     7
100
AcDbLine
 10
166.7445171016
 20
99.4737371134
 30
0.0
 11
163.7445171016
 21
100.2775841134
 31
0.0
  0
LINE
  5
2B0
330
29D
100
AcDbEntity
  8
SLD-0
 62
     7
100
AcDbLine
 10
163.7445171016
 20
100.2775841134
 30
0.0
 11
166.7445171016
 21
101.0814311134
 31
0.0
  0
LINE
  5
2B1
330
29D
100
AcDbEntity
  8
SLD-0
 62
     7
100
AcDbLine
 10
163.7445171016
 20
100.2775841134
 30
0.0
 11
166.7445171016
 21
100.2775841134
 31
0.0
  0
LINE
  5
2B2
330
29D
100
AcDbEntity
  8
SLD-0
 62
     7
100
AcDbLine
 10
155.7445171016
 20
101.0814311134
 30
0.0
 11
158.7445171016
 21
100.2775841134
 31
0.0
  0
LINE
  5
2B3
330
29D
100
AcDbEntity
  8
SLD-0
 62
     7
100
AcDbLine
 10
158.7445171016
 20
100.2775841134
 30
0.0
 11
155.7445171016
 21
99.4737371134
 31
0.0
  0
LINE
  5
2B4
330
29D
100
AcDbEntity
  8
SLD-0
 62
     7
100
AcDbLine
 10
158.7445171016
 20
100.2775841134
 30
0.0
 11
155.7445171016
 21
100.2775841134
 31
0.0
  0
MTEXT
  5
2B5
330
29D
100
AcDbEntity
  8
SLD-0
 62
     7
100
AcDbMText
 10
160.22679949
 20
104.8042778093
 30
0.1
 40
3.5
 41
0.0
 71
     1
 72
     1
  1
5
  7
SLDTEXTSTYLE0
 73
     1
 44
1.0
  0
ENDBLK
  5
2A9
330
29D
100
AcDbEntity
  8
0
100
AcDbBlockEnd
  0
ENDSEC
  0
SECTION
  2
ENTITIES
  0
LINE
  5
A2
330
1F
100
AcDbEntity
  8
SLD-0
  6
Continuous
 62
   179
100
AcDbLine
 10
20.2604743903
 20
285.0
 30
0.0
 11
196.7604743903
 21
285.0
 31
0.0
  0
LINE
  5
A3
330
1F
100
AcDbEntity
  8
SLD-0
  6
Continuous
 62
   179
100
AcDbLine
 10
20.2604743903
 20
285.0
 30
0.0
 11
20.2604743903
 21
10.0
 31
0.0
  0
LINE
  5
A4
330
1F
100
AcDbEntity
  8
SLD-0
  6
Continuous
 62
   179
100
AcDbLine
 10
20.2604743903
 20
10.0
 30
0.0
 11
196.7604743903
 21
10.0
 31
0.0
  0
LINE
  5
A5
330
1F
100
AcDbEntity
  8
SLD-0
  6
Continuous
 62
   179
100
AcDbLine
 10
196.7604743903
 20
285.0
 30
0.0
 11
196.7604743903
 21
10.0
 31
0.0
  0
LINE
  5
A6
330
1F
100
AcDbEntity
  8
SLD-0
  6
Continuous
 62
   179
100
AcDbLine
 10
65.7604743903
 20
285.0
 30
0.0
 11
196.7604743903
 21
285.0
 31
0.0
  0
LINE
  5
A7
330
1F
100
AcDbEntity
  8
SLD-0
  6
Continuous
 62
   179
100
AcDbLine
 10
196.7604743903
 20
285.0
 30
0.0
 11
196.7604743903
 21
264.25
 31
0.0
  0
LINE
  5
A8
330
1F
100
AcDbEntity
  8
SLD-0
  6
Continuous
 62
   179
100
AcDbLine
 10
127.0104743903
 20
50.75
 30
0.0
 11
196.7604743903
 21
50.75
 31
0.0
  0
LINE
  5
A9
330
1F
100
AcDbEntity
  8
SLD-0
  6
Continuous
 62
   179
100
AcDbLine
 10
127.0104743903
 20
50.75
 30
0.0
 11
127.0104743903
 21
10.0
 31
0.0
  0
LINE
  5
AA
330
1F
100
AcDbEntity
  8
SLD-0
  6
Continuous
 62
   179
100
AcDbLine
 10
127.0104743903
 20
22.75
 30
0.0
 11
196.7604743903
 21
22.75
 31
0.0
  0
LINE
  5
AB
330
1F
100
AcDbEntity
  8
SLD-0
  6
Continuous
 62
   179
100
AcDbLine
 10
127.0104743903
 20
36.75
 30
0.0
 11
196.7604743903
 21
36.75
 31
0.0
  0
LINE
  5
AC
330
1F
100
AcDbEntity
  8
SLD-0
  6
Continuous
 62
   179
100
AcDbLine
 10
70.7401767984
 20
110.659244141
 30
0.0
 11
75.7401766867
 21
110.659244141
 31
0.0
  0
LINE
  5
AD
330
1F
100
AcDbEntity
  8
SLD-0
  6
Continuous
 62
   179
100
AcDbLine
 10
62.7401764184
 20
118.6592445209
 30
0.0
 11
70.7401767984
 21
110.659244141
 31
0.0
  0
LINE
  5
AE
330
1F
100
AcDbEntity
  8
SLD-0
  6
Continuous
 62
   179
100
AcDbLine
 10
70.7401767984
 20
156.6592442304
 30
0.0
 11
62.7401764184
 21
148.6592438504
 31
0.0
  0
LINE
  5
AF
330
1F
100
AcDbEntity
  8
SLD-0
  6
Continuous
 62
   179
100
AcDbLine
 10
75.7401766867
 20
156.6592442304
 30
0.0
 11
70.7401767984
 21
156.6592442304
 31
0.0
  0
LINE
  5
B0
330
1F
100
AcDbEntity
  8
SLD-0
  6
Continuous
 62
   179
100
AcDbLine
 10
75.7401766867
 20
156.6592442304
 30
0.0
 11
75.7401766867
 21
110.659244141
 31
0.0
  0
LINE
  5
B1
330
1F
100
AcDbEntity
  8
SLD-0
  6
Continuous
 62
   179
100
AcDbLine
 10
62.7401764184
 20
148.6592438504
 30
0.0
 11
62.7401764184
 21
118.6592445209
 31
0.0
  0
LINE
  5
B2
330
1F
100
AcDbEntity
  8
SLD-0
  6
Continuous
 62
   179
100
AcDbLine
 10
108.7401765078
 20
118.6592445209
 30
0.0
 11
108.7401765078
 21
148.6592438504
 31
0.0
  0
LINE
  5
B3
330
1F
100
AcDbEntity
  8
SLD-0
  6
Continuous
 62
   179
100
AcDbLine
 10
100.7401761279
 20
110.659244141
 30
0.0
 11
108.7401765078
 21
118.6592445209
 31
0.0
  0
LINE
  5
B4
330
1F
100
AcDbEntity
  8
SLD-0
  6
Continuous
 62
   179
100
AcDbLine
 10
95.7401762396
 20
110.659244141
 30
0.0
 11
100.7401761279
 21
110.659244141
 31
0.0
  0
LINE
  5
B5
330
1F
100
AcDbEntity
  8
SLD-0
  6
Continuous
 62
   179
100
AcDbLine
 10
95.7401762396
 20
110.659244141
 30
0.0
 11
95.7401762396
 21
156.6592442304
 31
0.0
  0
LINE
  5
B6
330
1F
100
AcDbEntity
  8
SLD-0
  6
Continuous
 62
   179
100
AcDbLine
 10
100.7401761279
 20
156.6592442304
 30
0.0
 11
95.7401762396
 21
156.6592442304
 31
0.0
  0
LINE
  5
B7
330
1F
100
AcDbEntity
  8
SLD-0
  6
Continuous
 62
   179
100
AcDbLine
 10
108.7401765078
 20
148.6592438504
 30
0.0
 11
100.7401761279
 21
156.6592442304
 31
0.0
  0
LINE
  5
B8
330
1F
100
AcDbEntity
  8
SLD-0
  6
Continuous
 62
   179
100
AcDbLine
 10
75.7401766867
 20
110.659244141
 30
0.0
 11
95.7401762396
 21
110.659244141
 31
0.0
  0
LINE
  5
B9
330
1F
100
AcDbEntity
  8
SLD-0
  6
Continuous
 62
   179
100
AcDbLine
 10
95.7401762396
 20
156.6592442304
 30
0.0
 11
75.7401766867
 21
156.6592442304
 31
0.0
  0
LINE
  5
BA
330
1F
100
AcDbEntity
  8
SLD-0
  6
HIDDEN
 62
     8
100
AcDbLine
 10
108.7401765078
 20
123.6592444092
 30
0.0
 11
62.7401764184
 21
123.6592444092
 31
0.0
  0
LINE
  5
BB
330
1F
100
AcDbEntity
  8
SLD-0
  6
HIDDEN
 62
     8
100
AcDbLine
 10
62.7401764184
 20
143.6592439621
 30
0.0
 11
108.7401765078
 21
143.6592439621
 31
0.0
  0
LINE
  5
BC
330
1F
100
AcDbEntity
  8
SLD-0
 62
   179
100
AcDbLine
 10
104.7401764631
 20
114.6592441857
 30
0.0
 11
110.61978191
 21
109.4059438269
 31
0.0
  0
LINE
  5
BD
330
1F
100
AcDbEntity
  8
SLD-0
 62
   179
100
AcDbLine
 10
110.61978191
 20
109.4059438269
 30
0.0
 11
119.0798856084
 21
101.8896102896
 31
0.0
  0
LINE
  5
BE
330
1F
100
AcDbEntity
  8
SLD-0
  6
Continuous
 62
   179
100
AcDbLine
 10
70.7401767984
 20
217.2494520302
 30
0.0
 11
70.7401767984
 21
232.2494516949
 31
0.0
  0
LINE
  5
BF
330
1F
100
AcDbEntity
  8
SLD-0
  6
Continuous
 62
   179
100
AcDbLine
 10
100.7401761279
 20
217.2494520302
 30
0.0
 11
100.7401761279
 21
232.2494516949
 31
0.0
  0
LINE
  5
C0
330
1F
100
AcDbEntity
  8
SLD-0
  6
Continuous
 62
   179
100
AcDbLine
 10
100.7401761279
 20
217.2494520302
 30
0.0
 11
95.7401762396
 21
217.2494520302
 31
0.0
  0
LINE
  5
C1
330
1F
100
AcDbEntity
  8
SLD-0
  6
Continuous
 62
   179
100
AcDbLine
 10
95.7401762396
 20
222.2494519184
 30
0.0
 11
95.7401762396
 21
217.2494520302
 31
0.0
  0
LINE
  5
C2
330
1F
100
AcDbEntity
  8
SLD-0
  6
Continuous
 62
   179
100
AcDbLine
 10
95.7401762396
 20
222.2494519184
 30
0.0
 11
75.7401766867
 21
222.2494519184
 31
0.0
  0
LINE
  5
C3
330
1F
100
AcDbEntity
  8
SLD-0
  6
Continuous
 62
   179
100
AcDbLine
 10
75.7401766867
 20
222.2494519184
 30
0.0
 11
75.7401766867
 21
217.2494520302
 31
0.0
  0
LINE
  5
C4
330
1F
100
AcDbEntity
  8
SLD-0
  6
Continuous
 62
   179
100
AcDbLine
 10
75.7401766867
 20
217.2494520302
 30
0.0
 11
70.7401767984
 21
217.2494520302
 31
0.0
  0
LINE
  5
C5
330
1F
100
AcDbEntity
  8
SLD-0
  6
Continuous
 62
   179
100
AcDbLine
 10
100.7401761279
 20
232.2494516949
 30
0.0
 11
70.7401767984
 21
232.2494516949
 31
0.0
  0
LINE
  5
C6
330
1F
100
AcDbEntity
  8
SLD-0
  6
Continuous
 62
   179
100
AcDbLine
 10
108.7401765078
 20
217.2494520302
 30
0.0
 11
108.7401765078
 21
232.2494516949
 31
0.0
  0
LINE
  5
C7
330
1F
100
AcDbEntity
  8
SLD-0
  6
Continuous
 62
   179
100
AcDbLine
 10
108.7401765078
 20
217.2494520302
 30
0.0
 11
100.7401761279
 21
217.2494520302
 31
0.0
  0
LINE
  5
C8
330
1F
100
AcDbEntity
  8
SLD-0
  6
Continuous
 62
   179
100
AcDbLine
 10
108.7401765078
 20
232.2494516949
 30
0.0
 11
100.7401761279
 21
232.2494516949
 31
0.0
  0
LINE
  5
C9
330
1F
100
AcDbEntity
  8
SLD-0
  6
Continuous
 62
   179
100
AcDbLine
 10
70.7401767984
 20
217.2494520302
 30
0.0
 11
62.7401764184
 21
217.2494520302
 31
0.0
  0
LINE
  5
CA
330
1F
100
AcDbEntity
  8
SLD-0
  6
Continuous
 62
   179
100
AcDbLine
 10
62.7401764184
 20
217.2494520302
 30
0.0
 11
62.7401764184
 21
232.2494516949
 31
0.0
  0
LINE
  5
CB
330
1F
100
AcDbEntity
  8
SLD-0
  6
Continuous
 62
   179
100
AcDbLine
 10
70.7401767984
 20
232.2494516949
 30
0.0
 11
62.7401764184
 21
232.2494516949
 31
0.0
  0
LINE
  5
CC
330
1F
100
AcDbEntity
  8
SLD-0
  6
HIDDEN
 62
     8
100
AcDbLine
 10
62.7401764184
 20
227.2494518066
 30
0.0
 11
108.7401765078
 21
227.2494518066
 31
0.0
  0
LINE
  5
CD
330
1F
100
AcDbEntity
  8
SLD-0
  6
HIDDEN
 62
     8
100
AcDbLine
 10
65.9901755542
 20
227.2494518066
 30
0.0
 11
65.9901755542
 21
217.2494520302
 31
0.0
  0
LINE
  5
CE
330
1F
100
AcDbEntity
  8
SLD-0
  6
HIDDEN
 62
     8
100
AcDbLine
 10
72.4901766196
 20
217.2494520302
 30
0.0
 11
72.4901766196
 21
227.2494518066
 31
0.0
  0
LINE
  5
CF
330
1F
100
AcDbEntity
  8
SLD-0
  6
HIDDEN
 62
     8
100
AcDbLine
 10
98.9901763067
 20
227.2494518066
 30
0.0
 11
98.9901763067
 21
217.2494520302
 31
0.0
  0
LINE
  5
D0
330
1F
100
AcDbEntity
  8
SLD-0
  6
HIDDEN
 62
     8
100
AcDbLine
 10
105.4901773721
 20
217.2494520302
 30
0.0
 11
105.4901773721
 21
227.2494518066
 31
0.0
  0
LINE
  5
D1
330
1F
100
AcDbEntity
  8
SLD-0
  6
CENTERX2
 62
   179
100
AcDbLine
 10
85.7401764631
 20
220.2494516949
 30
0.0
 11
85.7401764631
 21
234.2494516949
 31
0.0
  0
LINE
  5
D2
330
1F
100
AcDbEntity
  8
SLD-0
  6
CENTERX2
 62
   179
100
AcDbLine
 10
102.2401764631
 20
215.2494516949
 30
0.0
 11
102.2401764631
 21
229.2494516949
 31
0.0
  0
LINE
  5
D3
330
1F
100
AcDbEntity
  8
SLD-0
  6
CENTERX2
 62
   179
100
AcDbLine
 10
69.2401764631
 20
215.2494516949
 30
0.0
 11
69.2401764631
 21
229.2494516949
 31
0.0
  0
LINE
  5
D4
330
1F
100
AcDbEntity
  8
SLD-0
  6
Continuous
 62
   179
100
AcDbLine
 10
148.7445174369
 20
110.659244141
 30
0.0
 11
163.7445171016
 21
110.659244141
 31
0.0
  0
LINE
  5
D5
330
1F
100
AcDbEntity
  8
SLD-0
  6
Continuous
 62
   179
100
AcDbLine
 10
148.7445174369
 20
110.659244141
 30
0.0
 11
148.7445174369
 21
118.6592445209
 31
0.0
  0
LINE
  5
D6
330
1F
100
AcDbEntity
  8
SLD-0
  6
Continuous
 62
   179
100
AcDbLine
 10
148.7445174369
 20
118.6592445209
 30
0.0
 11
163.7445171016
 21
118.6592445209
 31
0.0
  0
LINE
  5
D7
330
1F
100
AcDbEntity
  8
SLD-0
  6
Continuous
 62
   179
100
AcDbLine
 10
163.7445171016
 20
110.659244141
 30
0.0
 11
163.7445171016
 21
118.6592445209
 31
0.0
  0
LINE
  5
D8
330
1F
100
AcDbEntity
  8
SLD-0
  6
Continuous
 62
   179
100
AcDbLine
 10
158.7445172134
 20
123.6592444092
 30
0.0
 11
163.7445171016
 21
123.6592444092
 31
0.0
  0
LINE
  5
D9
330
1F
100
AcDbEntity
  8
SLD-0
  6
Continuous
 62
   179
100
AcDbLine
 10
148.7445174369
 20
118.6592445209
 30
0.0
 11
148.7445174369
 21
148.6592438504
 31
0.0
  0
LINE
  5
DA
330
1F
100
AcDbEntity
  8
SLD-0
  6
Continuous
 62
   179
100
AcDbLine
 10
148.7445174369
 20
148.6592438504
 30
0.0
 11
163.7445171016
 21
148.6592438504
 31
0.0
  0
LINE
  5
DB
330
1F
100
AcDbEntity
  8
SLD-0
  6
Continuous
 62
   179
100
AcDbLine
 10
163.7445171016
 20
143.6592439621
 30
0.0
 11
163.7445171016
 21
148.6592438504
 31
0.0
  0
LINE
  5
DC
330
1F
100
AcDbEntity
  8
SLD-0
  6
Continuous
 62
   179
100
AcDbLine
 10
158.7445172134
 20
143.6592439621
 30
0.0
 11
163.7445171016
 21
143.6592439621
 31
0.0
  0
LINE
  5
DD
330
1F
100
AcDbEntity
  8
SLD-0
  6
Continuous
 62
   179
100
AcDbLine
 10
158.7445172134
 20
143.6592439621
 30
0.0
 11
158.7445172134
 21
123.6592444092
 31
0.0
  0
LINE
  5
DE
330
1F
100
AcDbEntity
  8
SLD-0
  6
Continuous
 62
   179
100
AcDbLine
 10
163.7445171016
 20
118.6592445209
 30
0.0
 11
163.7445171016
 21
123.6592444092
 31
0.0
  0
LINE
  5
DF
330
1F
100
AcDbEntity
  8
SLD-0
  6
Continuous
 62
   179
100
AcDbLine
 10
148.7445174369
 20
148.6592438504
 30
0.0
 11
148.7445174369
 21
156.6592442304
 31
0.0
  0
LINE
  5
E0
330
1F
100
AcDbEntity
  8
SLD-0
  6
Continuous
 62
   179
100
AcDbLine
 10
148.7445174369
 20
156.6592442304
 30
0.0
 11
163.7445171016
 21
156.6592442304
 31
0.0
  0
LINE
  5
E1
330
1F
100
AcDbEntity
  8
SLD-0
  6
Continuous
 62
   179
100
AcDbLine
 10
163.7445171016
 20
148.6592438504
 30
0.0
 11
163.7445171016
 21
156.6592442304
 31
0.0
  0
LINE
  5
E2
330
1F
100
AcDbEntity
  8
SLD-0
  6
HIDDEN
 62
     8
100
AcDbLine
 10
153.7445173251
 20
110.659244141
 30
0.0
 11
153.7445173251
 21
156.6592442304
 31
0.0
  0
LINE
  5
E3
330
1F
100
AcDbEntity
  8
SLD-0
  6
HIDDEN
 62
     8
100
AcDbLine
 10
158.7445172134
 20
136.9092442527
 30
0.0
 11
148.7445174369
 21
136.9092442527
 31
0.0
  0
LINE
  5
E4
330
1F
100
AcDbEntity
  8
SLD-0
  6
HIDDEN
 62
     8
100
AcDbLine
 10
148.7445174369
 20
130.4092441186
 30
0.0
 11
158.7445172134
 21
130.4092441186
 31
0.0
  0
LINE
  5
E5
330
1F
100
AcDbEntity
  8
SLD-0
  6
HIDDEN
 62
     8
100
AcDbLine
 10
163.7445171016
 20
153.4092450946
 30
0.0
 11
153.7445173251
 21
153.4092450946
 31
0.0
  0
LINE
  5
E6
330
1F
100
AcDbEntity
  8
SLD-0
  6
HIDDEN
 62
     8
100
AcDbLine
 10
153.7445173251
 20
146.9092440292
 30
0.0
 11
163.7445171016
 21
146.9092440292
 31
0.0
  0
LINE
  5
E7
330
1F
100
AcDbEntity
  8
SLD-0
  6
HIDDEN
 62
     8
100
AcDbLine
 10
163.7445171016
 20
120.4092443421
 30
0.0
 11
153.7445173251
 21
120.4092443421
 31
0.0
  0
LINE
  5
E8
330
1F
100
AcDbEntity
  8
SLD-0
  6
HIDDEN
 62
     8
100
AcDbLine
 10
153.7445173251
 20
113.9092432767
 30
0.0
 11
163.7445171016
 21
113.9092432767
 31
0.0
  0
LINE
  5
E9
330
1F
100
AcDbEntity
  8
SLD-0
  6
CENTERX2
 62
   179
100
AcDbLine
 10
146.7445171016
 20
133.6592441857
 30
0.0
 11
160.7445171016
 21
133.6592441857
 31
0.0
  0
LINE
  5
EA
330
1F
100
AcDbEntity
  8
SLD-0
  6
CENTERX2
 62
   179
100
AcDbLine
 10
151.7445171016
 20
117.1592441857
 30
0.0
 11
165.7445171016
 21
117.1592441857
 31
0.0
  0
LINE
  5
EB
330
1F
100
AcDbEntity
  8
SLD-0
  6
CENTERX2
 62
   179
100
AcDbLine
 10
151.7445171016
 20
150.1592441857
 30
0.0
 11
165.7445171016
 21
150.1592441857
 31
0.0
  0
CIRCLE
  5
EC
330
1F
100
AcDbEntity
  8
SLD-0
  6
Continuous
 62
   179
100
AcDbCircle
 10
69.2401764631
 20
133.6592441857
 30
0.0
 40
3.25
  0
CIRCLE
  5
ED
330
1F
100
AcDbEntity
  8
SLD-0
  6
Continuous
 62
   179
100
AcDbCircle
 10
102.2401764631
 20
133.6592441857
 30
0.0
 40
3.250000000000014
  0
CIRCLE
  5
EE
330
1F
100
AcDbEntity
  8
SLD-0
  6
Continuous
 62
   179
100
AcDbCircle
 10
85.7401764631
 20
133.6592441857
 30
0.0
 40
3.250000000000014
  0
CIRCLE
  5
EF
330
1F
100
AcDbEntity
  8
SLD-0
  6
Continuous
 62
   179
100
AcDbCircle
 10
85.7401764631
 20
150.1592441857
 30
0.0
 40
3.250000000000014
  0
CIRCLE
  5
F0
330
1F
100
AcDbEntity
  8
SLD-0
  6
Continuous
 62
   179
100
AcDbCircle
 10
85.7401764631
 20
117.1592441857
 30
0.0
 40
3.250000000000014
  0
DIMENSION
  5
F1
330
1F
100
AcDbEntity
  8
SLD-0
 62
     7
100
AcDbDimension
  2
*D14
 10
62.7401764631
 20
180.3428990554
 30
0.0
 11
85.7401764631
 21
180.3428990554
 31
0.0
 70
   160
 71
     1
 42
46.0
  3
SLDDIMSTYLE0
100
AcDbAlignedDimension
 13
108.7401764631
 23
148.6592441857
 33
0.0
 14
62.7401764631
 24
148.6592441857
 34
0.0
100
AcDbRotatedDimension
1001
ACAD
1000
DSTYLE
1002
{
1070
    77
1070
     3
1070
   143
1040
0.0393700787
1070
    41
1040
3.0
1070
    44
1040
1.0
1070
    42
1040
1.0
1070
   147
1040
1.524
1070
    73
1070
     0
1070
    74
1070
     0
1070
   140
1040
3.5
1070
   284
1070
    12
1070
    78
1070
    12
1002
}
  0
DIMENSION
  5
10D
330
1F
100
AcDbEntity
  8
SLD-0
 62
     7
100
AcDbDimension
  2
*D16
 10
40.0142019326
 20
156.6592441857
 30
0.0
 11
40.0142019326
 21
133.6592441857
 31
0.0
 70
   160
 71
     1
 42
46.0
  3
SLDDIMSTYLE0
100
AcDbAlignedDimension
 13
70.7401764631
 23
110.6592441857
 33
0.0
 14
70.7401764631
 24
156.6592441857
 34
0.0
 50
90.0
100
AcDbRotatedDimension
1001
ACAD
1000
DSTYLE
1002
{
1070
    77
1070
     3
1070
   143
1040
0.0393700787
1070
    41
1040
3.0
1070
    44
1040
1.0
1070
    42
1040
1.0
1070
   147
1040
1.524
1070
    73
1070
     0
1070
    74
1070
     0
1070
   140
1040
3.5
1070
   284
1070
    12
1070
    78
1070
    12
1002
}
  0
DIMENSION
  5
125
330
1F
100
AcDbEntity
  8
SLD-0
 62
     7
100
AcDbDimension
  2
*D17
 10
50.9832487781
 20
150.1592441857
 30
0.0
 11
50.9832487781
 21
141.9092441857
 31
0.0
 70
   160
 71
     1
 42
16.5
  3
SLDDIMSTYLE1
100
AcDbAlignedDimension
 13
85.7401764631
 23
133.6592441857
 33
0.0
 14
85.7401764631
 24
150.1592441857
 34
0.0
 50
90.0
100
AcDbRotatedDimension
1001
ACAD
1000
DSTYLE
1002
{
1070
    77
1070
     3
1070
   143
1040
0.0393700787
1070
    41
1040
3.0
1070
    44
1040
1.0
1070
    42
1040
1.0
1070
   147
1040
1.524
1070
    73
1070
     0
1070
    74
1070
     0
1070
   140
1040
3.5
1070
   284
1070
    12
1070
    78
1070
    12
1002
}
  0
DIMENSION
  5
13E
330
1F
100
AcDbEntity
  8
SLD-0
 62
     7
100
AcDbDimension
  2
*D18
 10
50.9832487781
 20
117.1592441857
 30
0.0
 11
50.9832487781
 21
125.4092441857
 31
0.0
 70
   160
 71
     1
 42
16.5
  3
SLDDIMSTYLE1
100
AcDbAlignedDimension
 13
85.7401764631
 23
133.6592441857
 33
0.0
 14
85.7401764631
 24
117.1592441857
 34
0.0
 50
90.0
100
AcDbRotatedDimension
1001
ACAD
1000
DSTYLE
1002
{
1070
    77
1070
     3
1070
   143
1040
0.0393700787
1070
    41
1040
3.0
1070
    44
1040
1.0
1070
    42
1040
1.0
1070
   147
1040
1.524
1070
    73
1070
     0
1070
    74
1070
     0
1070
   140
1040
3.5
1070
   284
1070
    12
1070
    78
1070
    12
1002
}
  0
DIMENSION
  5
156
330
1F
100
AcDbEntity
  8
SLD-0
 62
     7
100
AcDbDimension
  2
*D19
 10
69.2401764631
 20
170.4368393932
 30
0.0
 11
77.4901764631
 21
170.4368393932
 31
0.0
 70
   160
 71
     1
 42
16.5
  3
SLDDIMSTYLE1
100
AcDbAlignedDimension
 13
85.7401764631
 23
133.6592441857
 33
0.0
 14
69.2401764631
 24
133.6592441857
 34
0.0
100
AcDbRotatedDimension
1001
ACAD
1000
DSTYLE
1002
{
1070
    77
1070
     3
1070
   143
1040
0.0393700787
1070
    41
1040
3.0
1070
    44
1040
1.0
1070
    42
1040
1.0
1070
   147
1040
1.524
1070
    73
1070
     0
1070
    74
1070
     0
1070
   140
1040
3.5
1070
   284
1070
    12
1070
    78
1070
    12
1002
}
  0
DIMENSION
  5
16D
330
1F
100
AcDbEntity
  8
SLD-0
 62
     7
100
AcDbDimension
  2
*D20
 10
102.2401764631
 20
170.4368393932
 30
0.0
 11
93.9901764631
 21
170.4368393932
 31
0.0
 70
   160
 71
     1
 42
16.5
  3
SLDDIMSTYLE1
100
AcDbAlignedDimension
 13
85.7401764631
 23
133.6592441857
 33
0.0
 14
102.2401764631
 24
133.6592441857
 34
0.0
100
AcDbRotatedDimension
1001
ACAD
1000
DSTYLE
1002
{
1070
    77
1070
     3
1070
   143
1040
0.0393700787
1070
    41
1040
3.0
1070
    44
1040
1.0
1070
    42
1040
1.0
1070
   147
1040
1.524
1070
    73
1070
     0
1070
    74
1070
     0
1070
   140
1040
3.5
1070
   284
1070
    12
1070
    78
1070
    12
1002
}
  0
DIMENSION
  5
184
330
1F
100
AcDbEntity
  8
SLD-0
 62
     7
100
AcDbDimension
  2
*D21
 10
108.7401764631
 20
170.4368393932
 30
0.0
 11
117.2016537693
 21
170.4368393932
 31
0.0
 70
   160
 71
     1
 42
6.5
  3
SLDDIMSTYLE1
100
AcDbAlignedDimension
 13
102.2401764631
 23
133.6592441857
 33
0.0
 14
108.7401764631
 24
148.6592441857
 34
0.0
100
AcDbRotatedDimension
1001
ACAD
1000
DSTYLE
1002
{
1070
    77
1070
     3
1070
   143
1040
0.0393700787
1070
    41
1040
3.0
1070
    44
1040
1.0
1070
    42
1040
1.0
1070
   147
1040
1.524
1070
    73
1070
     0
1070
    74
1070
     0
1070
   140
1040
3.5
1070
   284
1070
    12
1070
    78
1070
    12
1002
}
  0
DIMENSION
  5
1A0
330
1F
100
AcDbEntity
  8
SLD-0
 62
     7
100
AcDbDimension
  2
*D22
 10
50.9832487781
 20
156.6592441857
 30
0.0
 11
50.9832487781
 21
165.9494094091
 31
0.0
 70
   160
 71
     1
 42
6.5
  3
SLDDIMSTYLE1
100
AcDbAlignedDimension
 13
85.7401764631
 23
150.1592441857
 33
0.0
 14
70.7401764631
 24
156.6592441857
 34
0.0
 50
90.0
100
AcDbRotatedDimension
1001
ACAD
1000
DSTYLE
1002
{
1070
    77
1070
     3
1070
   143
1040
0.0393700787
1070
    41
1040
3.0
1070
    44
1040
1.0
1070
    42
1040
1.0
1070
   147
1040
1.524
1070
    73
1070
     0
1070
    74
1070
     0
1070
   140
1040
3.5
1070
   284
1070
    12
1070
    78
1070
    12
1002
}
  0
DIMENSION
  5
1BB
330
1F
100
AcDbEntity
  8
SLD-0
 62
     7
100
AcDbDimension
  2
*D23
 10
3.949160214
 20
5.1627626988
 30
0.0
 11
123.7578474431
 21
-4.7656279481
 31
0.0
 70
   163
  1
5-<>
 71
     1
 42
6.4999988523
  3
SLDDIMSTYLE2
100
AcDbDiametricDimension
 15
0.0
 25
0.0
 35
0.0
 40
0.0
1001
ACAD
1000
DSTYLE
1002
{
1070
    77
1070
     0
1070
   143
1040
0.0393700787
1070
    41
1040
3.0
1070
    44
1040
1.0
1070
    42
1040
1.0
1070
   147
1040
1.524
1070
    73
1070
     1
1070
    74
1070
     1
1070
   140
1040
3.5
1070
   284
1070
    12
1070
    78
1070
    12
1002
}
  0
DIMENSION
  5
1CE
330
1F
100
AcDbEntity
  8
SLD-0
 62
     7
100
AcDbDimension
  2
*D24
 10
133.4655091705
 20
232.2494516949
 30
0.0
 11
133.4655091705
 21
224.7494516949
 31
0.0
 70
   160
 71
     1
 42
15.0
  3
SLDDIMSTYLE0
100
AcDbAlignedDimension
 13
108.7401764631
 23
217.2494516949
 33
0.0
 14
108.7401764631
 24
232.2494516949
 34
0.0
 50
90.0
100
AcDbRotatedDimension
1001
ACAD
1000
DSTYLE
1002
{
1070
    77
1070
     3
1070
   143
1040
0.0393700787
1070
    41
1040
3.0
1070
    44
1040
1.0
1070
    42
1040
1.0
1070
   147
1040
1.524
1070
    73
1070
     0
1070
    74
1070
     0
1070
   140
1040
3.5
1070
   284
1070
    12
1070
    78
1070
    12
1002
}
  0
DIMENSION
  5
1E6
330
1F
100
AcDbEntity
  8
SLD-0
 62
     7
100
AcDbDimension
  2
*D25
 10
121.1831189419
 20
217.2494516949
 30
0.0
 11
121.1831189419
 21
219.7494516949
 31
0.0
 70
   160
 71
     1
 42
5.0
  3
SLDDIMSTYLE0
100
AcDbAlignedDimension
 13
95.7401764631
 23
222.2494516949
 33
0.0
 14
95.7401764631
 24
217.2494516949
 34
0.0
 50
90.0
100
AcDbRotatedDimension
1001
ACAD
1000
DSTYLE
1002
{
1070
    77
1070
     3
1070
   143
1040
0.0393700787
1070
    41
1040
3.0
1070
    44
1040
1.0
1070
    42
1040
1.0
1070
   147
1040
1.524
1070
    73
1070
     0
1070
    74
1070
     0
1070
   140
1040
3.5
1070
   284
1070
    12
1070
    78
1070
    12
1002
}
  0
DIMENSION
  5
200
330
1F
100
AcDbEntity
  8
SLD-0
 62
     7
100
AcDbDimension
  2
*D26
 10
108.7401764631
 20
195.8984580464
 30
0.0
 11
102.2401764631
 21
195.8984580464
 31
0.0
 70
   160
 71
     1
 42
13.0
  3
SLDDIMSTYLE0
100
AcDbAlignedDimension
 13
95.7401764631
 23
217.2494516949
 33
0.0
 14
108.7401764631
 24
217.2494516949
 34
0.0
100
AcDbRotatedDimension
1001
ACAD
1000
DSTYLE
1002
{
1070
    77
1070
     3
1070
   143
1040
0.0393700787
1070
    41
1040
3.0
1070
    44
1040
1.0
1070
    42
1040
1.0
1070
   147
1040
1.524
1070
    73
1070
     0
1070
    74
1070
     0
1070
   140
1040
3.5
1070
   284
1070
    12
1070
    78
1070
    12
1002
}
  0
DIMENSION
  5
217
330
1F
100
AcDbEntity
  8
SLD-0
 62
     7
100
AcDbDimension
  2
*D27
 10
95.7401764631
 20
195.8984580464
 30
0.0
 11
85.7401764631
 21
195.8984580464
 31
0.0
 70
   160
 71
     1
 42
20.0
  3
SLDDIMSTYLE3
100
AcDbAlignedDimension
 13
75.7401764631
 23
217.2494516949
 33
0.0
 14
95.7401764631
 24
217.2494516949
 34
0.0
100
AcDbRotatedDimension
1001
ACAD
1000
DSTYLE
1002
{
1070
    77
1070
     3
1070
   143
1040
0.0393700787
1070
    41
1040
3.0
1070
    44
1040
1.0
1070
    42
1040
1.0
1070
   147
1040
1.524
1070
    73
1070
     0
1070
    74
1070
     0
1070
   140
1040
3.5
1070
   284
1070
     0
1070
    78
1070
    12
1002
}
  0
DIMENSION
  5
232
330
1F
100
AcDbEntity
  8
SLD-0
 62
     7
100
AcDbDimension
  2
*D28
 10
75.7401764631
 20
195.8984580464
 30
0.0
 11
69.2401764631
 21
195.8984580464
 31
0.0
 70
   160
  1
(<>)
 71
     1
 42
13.0
  3
SLDDIMSTYLE0
100
AcDbAlignedDimension
 13
62.7401764631
 23
217.2494516949
 33
0.0
 14
75.7401764631
 24
217.2494516949
 34
0.0
100
AcDbRotatedDimension
1001
ACAD
1000
DSTYLE
1002
{
1070
    77
1070
     3
1070
   143
1040
0.0393700787
1070
    41
1040
3.0
1070
    44
1040
1.0
1070
    42
1040
1.0
1070
   147
1040
1.524
1070
    73
1070
     0
1070
    74
1070
     0
1070
   140
1040
3.5
1070
   284
1070
    12
1070
    78
1070
    12
1002
}
  0
DIMENSION
  5
24D
330
1F
100
AcDbEntity
  8
SLD-0
 62
     7
100
AcDbDimension
  2
*D29
 10
184.9803824035
 20
110.6592441857
 30
0.0
 11
184.9803824035
 21
117.1592441857
 31
0.0
 70
   160
  1
(<>)
 71
     1
 42
13.0
  3
SLDDIMSTYLE0
100
AcDbAlignedDimension
 13
158.7445171016
 23
123.6592441857
 33
0.0
 14
163.7445171016
 24
110.6592441857
 34
0.0
 50
90.0
100
AcDbRotatedDimension
1001
ACAD
1000
DSTYLE
1002
{
1070
    77
1070
     3
1070
   143
1040
0.0393700787
1070
    41
1040
3.0
1070
    44
1040
1.0
1070
    42
1040
1.0
1070
   147
1040
1.524
1070
    73
1070
     0
1070
    74
1070
     0
1070
   140
1040
3.5
1070
   284
1070
    12
1070
    78
1070
    12
1002
}
  0
DIMENSION
  5
269
330
1F
100
AcDbEntity
  8
SLD-0
 62
     7
100
AcDbDimension
  2
*D30
 10
184.9803824035
 20
143.6592441857
 30
0.0
 11
184.9803824035
 21
133.6592441857
 31
0.0
 70
   160
 71
     1
 42
20.0
  3
SLDDIMSTYLE3
100
AcDbAlignedDimension
 13
158.7445171016
 23
123.6592441857
 33
0.0
 14
158.7445171016
 24
143.6592441857
 34
0.0
 50
90.0
100
AcDbRotatedDimension
1001
ACAD
1000
DSTYLE
1002
{
1070
    77
1070
     3
1070
   143
1040
0.0393700787
1070
    41
1040
3.0
1070
    44
1040
1.0
1070
    42
1040
1.0
1070
   147
1040
1.524
1070
    73
1070
     0
1070
    74
1070
     0
1070
   140
1040
3.5
1070
   284
1070
     0
1070
    78
1070
    12
1002
}
  0
DIMENSION
  5
284
330
1F
100
AcDbEntity
  8
SLD-0
 62
     7
100
AcDbDimension
  2
*D31
 10
184.9803824035
 20
156.6592441857
 30
0.0
 11
184.9803824035
 21
150.1592441857
 31
0.0
 70
   160
 71
     1
 42
13.0
  3
SLDDIMSTYLE0
100
AcDbAlignedDimension
 13
158.7445171016
 23
143.6592441857
 33
0.0
 14
163.7445171016
 24
156.6592441857
 34
0.0
 50
90.0
100
AcDbRotatedDimension
1001
ACAD
1000
DSTYLE
1002
{
1070
    77
1070
     3
1070
   143
1040
0.0393700787
1070
    41
1040
3.0
1070
    44
1040
1.0
1070
    42
1040
1.0
1070
   147
1040
1.524
1070
    73
1070
     0
1070
    74
1070
     0
1070
   140
1040
3.5
1070
   284
1070
    12
1070
    78
1070
    12
1002
}
  0
DIMENSION
  5
29C
330
1F
100
AcDbEntity
  8
SLD-0
 62
     7
100
AcDbDimension
  2
*D32
 10
163.7445171016
 20
100.2775841134
 30
0.0
 11
161.2445171016
 21
100.2775841134
 31
0.0
 70
   160
 71
     1
 42
5.0
  3
SLDDIMSTYLE0
100
AcDbAlignedDimension
 13
158.7445171016
 23
123.6592441857
 33
0.0
 14
163.7445171016
 24
110.6592441857
 34
0.0
100
AcDbRotatedDimension
1001
ACAD
1000
DSTYLE
1002
{
1070
    77
1070
     3
1070
   143
1040
0.0393700787
1070
    41
1040
3.0
1070
    44
1040
1.0
1070
    42
1040
1.0
1070
   147
1040
1.524
1070
    73
1070
     0
1070
    74
1070
     0
1070
   140
1040
3.5
1070
   284
1070
    12
1070
    78
1070
    12
1002
}
  0
MTEXT
  5
2B6
330
1F
100
AcDbEntity
  8
SLD-0
 62
     7
100
AcDbMText
 10
169.1923262367
 20
249.8878123479
 30
0.0
 40
4.2333333333
 41
0.0
 71
     1
 72
     1
  1
(　　　)
  7
SLDTEXTSTYLE1
 73
     1
 44
1.0
  0
MTEXT
  5
2B7
330
1F
100
AcDbEntity
  8
SLD-0
 62
     7
100
AcDbMText
 10
156.7466578538
 20
17.4310916028
 30
0.0
 40
3.5
 41
0.0
 71
     1
 72
     1
  1
131028
  7
SLDTEXTSTYLE0
 73
     1
 44
1.0
  0
MTEXT
  5
2B8
330
1F
100
AcDbEntity
  8
SLD-0
 62
     7
100
AcDbMText
 10
147.4024732131
 20
29.7138882404
 30
0.0
 40
4.2333333333
 41
0.0
 71
     1
 72
     1
  1
N01911-206-1
  7
SLDTEXTSTYLE1
 73
     1
 44
1.0
  0
MTEXT
  5
2BA
330
1F
100
AcDbEntity
  8
SLD-0
 62
     7
100
AcDbMText
 10
140.3264409512
 20
43.2377018572
 30
0.0
 40
4.2333333333
 41
0.0
 71
     1
 72
     1
  1
20 Cross Connecter
  7
SLDTEXTSTYLE2
 73
     1
 44
1.0
  0
MTEXT
  5
2BB
330
1F
100
AcDbEntity
  8
SLD-0
 62
     7
100
AcDbMText
 10
114.4169712518
 20
111.2897465289
 30
0.0
 40
3.5
 41
0.0
 71
     1
 72
     1
  1
4-
  7
SLDTEXTSTYLE1
 11
0.7475742157987069
 21
-0.6641782831988325
 31
0.0
 73
     1
 44
1.0
  0
MTEXT
  5
2BC
330
1F
100
AcDbEntity
  8
SLD-0
 62
     7
100
AcDbMText
 10
117.4602490334
 20
108.5859627848
 30
0.0
 40
3.5
 41
0.0
 71
     1
 72
     1
  1
C
  7
SLDTEXTSTYLE1
 11
0.7475742157987069
 21
-0.6641782831988325
 31
0.0
 73
     1
 44
1.0
  0
MTEXT
  5
2BD
330
1F
100
AcDbEntity
  8
SLD-0
 62
     7
100
AcDbMText
 10
118.9818879242
 20
107.2340709128
 30
0.0
 40
3.5
 41
0.0
 71
     1
 72
     1
  1
8
  7
SLDTEXTSTYLE1
 11
0.7475742157987069
 21
-0.6641782831988325
 31
0.0
 73
     1
 44
1.0
  0
INSERT
  5
2BE
330
1F
100
AcDbEntity
  8
0
  6
Continuous
 62
     7
370
     0
100
AcDbBlockReference
  2
SURFACEFINISH40
 10
159.4443600604
 20
250.5749245738
 30
0.0
  0
INSERT
  5
2BF
330
1F
100
AcDbEntity
  8
0
  6
Continuous
 62
     7
370
     0
100
AcDbBlockReference
  2
SURFACEFINISH41
 10
175.4785306273
 20
250.9049245738
 30
0.0
  0
INSERT
  5
2C0
330
1F
100
AcDbEntity
  8
0
  6
Continuous
 62
     7
370
     0
100
AcDbBlockReference
  2
注記
 10
109.2653567435
 20
55.0118692728
 30
0.0
  0
INSERT
  5
2C1
330
1F
100
AcDbEntity
  8
0
  6
Continuous
 62
     7
370
     0
100
AcDbBlockReference
  2
_OPEN30
 10
104.7401764631
 20
114.6592441857
 30
0.0
 41
3.0
 42
3.0
 43
3.0
 50
138.2199008902
  0
INSERT
  5
2C2
330
1F
100
AcDbEntity
  8
0
  6
Continuous
 62
     7
370
     0
100
AcDbBlockReference
  2
SW_CENTERMARK0
 10
0.0
 20
0.0
 30
0.0
  0
INSERT
  5
2C3
330
1F
100
AcDbEntity
  8
0
  6
Continuous
 62
     7
370
     0
100
AcDbBlockReference
  2
SW_CENTERMARK1
 10
0.0
 20
0.0
 30
0.0
  0
INSERT
  5
2C4
330
1F
100
AcDbEntity
  8
0
  6
Continuous
 62
     7
370
     0
100
AcDbBlockReference
  2
SW_CENTERMARK2
 10
0.0
 20
0.0
 30
0.0
  0
INSERT
  5
2C5
330
1F
100
AcDbEntity
  8
0
  6
Continuous
 62
     7
370
     0
100
AcDbBlockReference
  2
SW_CENTERMARK3
 10
0.0
 20
0.0
 30
0.0
  0
INSERT
  5
2C6
330
1F
100
AcDbEntity
  8
0
  6
Continuous
 62
     7
370
     0
100
AcDbBlockReference
  2
SW_CENTERMARK4
 10
0.0
 20
0.0
 30
0.0
  0
INSERT
  5
2C7
330
1F
100
AcDbEntity
  8
0
  6
Continuous
 62
     7
370
     0
100
AcDbBlockReference
  2
SURFACEFINISH42
 10
82.5912322547
 20
209.0479835122
 30
0.0
  0
INSERT
  5
2C8
330
1F
100
AcDbEntity
  8
0
  6
Continuous
 62
     7
370
     0
100
AcDbBlockReference
  2
SURFACEFINISH43
 10
91.710226757
 20
208.2920451536
 30
0.0
  0
INSERT
  5
2C9
330
1F
100
AcDbEntity
  8
0
  6
Continuous
 62
     7
370
     0
100
AcDbBlockReference
  2
SURFACEFINISH44
 10
168.2624137156
 20
136.5260778031
 30
0.0
  0
INSERT
  5
2CA
330
1F
100
AcDbEntity
  8
0
  6
Continuous
 62
     7
370
     0
100
AcDbBlockReference
  2
SURFACEFINISH45
 10
168.1966360923
 20
127.6891938918
 30
0.0
  0
ENDSEC
  0
SECTION
  2
OBJECTS
  0
DICTIONARY
  5
C
330
0
100
AcDbDictionary
281
     1
  3
ACAD_GROUP
350
D
  3
ACAD_LAYOUT
350
1A
  3
ACAD_MLINESTYLE
350
17
  3
ACAD_PLOTSETTINGS
350
19
  3
ACAD_PLOTSTYLENAME
350
E
  0
DICTIONARY
  5
D
102
{ACAD_REACTORS
330
C
102
}
330
C
100
AcDbDictionary
281
     1
  0
DICTIONARY
  5
1A
102
{ACAD_REACTORS
330
C
102
}
330
C
100
AcDbDictionary
281
     1
  3
Layout1
350
1E
  3
Layout2
350
26
  3
Model
350
22
  0
DICTIONARY
  5
17
102
{ACAD_REACTORS
330
C
102
}
330
C
100
AcDbDictionary
281
     1
  3
Standard
350
18
  0
DICTIONARY
  5
19
102
{ACAD_REACTORS
330
C
102
}
330
C
100
AcDbDictionary
281
     1
  0
ACDBDICTIONARYWDFLT
  5
E
102
{ACAD_REACTORS
330
C
102
}
330
C
100
AcDbDictionary
281
     1
  3
Normal
350
F
100
AcDbDictionaryWithDefault
340
F
  0
LAYOUT
  5
1E
102
{ACAD_REACTORS
330
1A
102
}
330
1A
100
AcDbPlotSettings
  1

  2

  4

  6

 40
0.0
 41
0.0
 42
0.0
 43
0.0
 44
0.0
 45
0.0
 46
0.0
 47
0.0
 48
0.0
 49
0.0
140
0.0
141
0.0
142
1.0
143
1.0
 70
   688
 72
     0
 73
     0
 74
     5
  7

 75
    16
147
1.0
148
0.0
149
0.0
100
AcDbLayout
  1
Layout1
 70
     1
 71
     1
 10
0.0
 20
0.0
 11
0.0
 21
0.0
 12
0.0
 22
0.0
 32
0.0
 14
0.0
 24
0.0
 34
0.0
 15
0.0
 25
0.0
 35
0.0
146
0.0
 13
0.0
 23
0.0
 33
0.0
 16
1.0
 26
0.0
 36
0.0
 17
0.0
 27
1.0
 37
0.0
 76
     0
330
1B
  0
LAYOUT
  5
26
102
{ACAD_REACTORS
330
1A
102
}
330
1A
100
AcDbPlotSettings
  1

  2

  4

  6

 40
0.0
 41
0.0
 42
0.0
 43
0.0
 44
0.0
 45
0.0
 46
0.0
 47
0.0
 48
0.0
 49
0.0
140
0.0
141
0.0
142
1.0
143
1.0
 70
   688
 72
     0
 73
     0
 74
     5
  7

 75
    16
147
1.0
148
0.0
149
0.0
100
AcDbLayout
  1
Layout2
 70
     1
 71
     2
 10
0.0
 20
0.0
 11
0.0
 21
0.0
 12
0.0
 22
0.0
 32
0.0
 14
0.0
 24
0.0
 34
0.0
 15
0.0
 25
0.0
 35
0.0
146
0.0
 13
0.0
 23
0.0
 33
0.0
 16
1.0
 26
0.0
 36
0.0
 17
0.0
 27
1.0
 37
0.0
 76
     0
330
23
  0
LAYOUT
  5
22
102
{ACAD_REACTORS
330
1A
102
}
330
1A
100
AcDbPlotSettings
  1

  2

  4

  6

 40
0.0
 41
0.0
 42
0.0
 43
0.0
 44
0.0
 45
0.0
 46
0.0
 47
0.0
 48
0.0
 49
0.0
140
0.0
141
0.0
142
1.0
143
1.0
 70
  1712
 72
     0
 73
     0
 74
     0
  7

 75
     0
147
1.0
148
0.0
149
0.0
100
AcDbLayout
  1
Model
 70
     1
 71
     0
 10
0.0
 20
0.0
 11
0.0
 21
0.0
 12
0.0
 22
0.0
 32
0.0
 14
0.0
 24
0.0
 34
0.0
 15
210.0
 25
297.0
 35
0.0
146
0.0
 13
0.0
 23
0.0
 33
0.0
 16
1.0
 26
0.0
 36
0.0
 17
0.0
 27
1.0
 37
0.0
 76
     0
330
1F
  0
MLINESTYLE
  5
18
102
{ACAD_REACTORS
330
17
102
}
330
17
100
AcDbMlineStyle
  2
Standard
 70
     0
  3

 62
   256
 51
90.0
 52
90.0
 71
     2
 49
0.5
 62
   256
  6
BYLAYER
 49
-0.5
 62
   256
  6
BYLAYER
  0
ACDBPLACEHOLDER
  5
F
102
{ACAD_REACTORS
330
E
102
}
330
E
  0
ENDSEC
  0
EOF
