  0
SECTION
  2
HEADER
  9
$ACADVER
  1
AC1015
  9
$ACADMAINTVER
 70
     6
  9
$DWGCODEPAGE
  3
DOS932
  9
$INSBASE
 10
0.0
 20
0.0
 30
0.0
  9
$EXTMIN
 10
0.0
 20
0.0
 30
0.0
  9
$EXTMAX
 10
210.0
 20
297.0
 30
0.0
  9
$LIMMIN
 10
0.0
 20
0.0
  9
$LIMMAX
 10
0.0
 20
0.0
  9
$ORTHOMODE
 70
     0
  9
$REGENMODE
 70
     1
  9
$FILLMODE
 70
     1
  9
$QTEXTMODE
 70
     0
  9
$MIRRTEXT
 70
     1
  9
$LTSCALE
 40
1.0
  9
$ATTMODE
 70
     1
  9
$TEXTSIZE
 40
3.5
  9
$TRACEWID
 40
1.0
  9
$TEXTSTYLE
  7
Standard
  9
$CLAYER
  8
0
  9
$CELTYPE
  6
ByLayer
  9
$CECOLOR
 62
   256
  9
$CELTSCALE
 40
1.0
  9
$DISPSILH
 70
     0
  9
$DIMSCALE
 40
1.0
  9
$DIMASZ
 40
3.0
  9
$DIMEXO
 40
1.0
  9
$DIMDLI
 40
3.75
  9
$DIMRND
 40
0.0
  9
$DIMDLE
 40
0.0
  9
$DIMEXE
 40
1.0
  9
$DIMTP
 40
0.0
  9
$DIMTM
 40
0.0
  9
$DIMTXT
 40
3.5
  9
$DIMCEN
 40
2.5
  9
$DIMTSZ
 40
0.0
  9
$DIMTOL
 70
     0
  9
$DIMLIM
 70
     0
  9
$DIMTIH
 70
     1
  9
$DIMTOH
 70
     1
  9
$DIMSE1
 70
     0
  9
$DIMSE2
 70
     0
  9
$DIMTAD
 70
     1
  9
$DIMZIN
 70
     1
  9
$DIMBLK
  1

  9
$DIMASO
 70
     1
  9
$DIMSHO
 70
     1
  9
$DIMPOST
  1

  9
$DIMAPOST
  1

  9
$DIMALT
 70
     0
  9
$DIMALTD
 70
     3
  9
$DIMALTF
 40
0.0393700787
  9
$DIMLFAC
 40
1.0
  9
$DIMTOFL
 70
     1
  9
$DIMTVP
 40
0.0
  9
$DIMTIX
 70
     0
  9
$DIMSOXD
 70
     0
  9
$DIMSAH
 70
     0
  9
$DIMBLK1
  1

  9
$DIMBLK2
  1

  9
$DIMSTYLE
  2
ISO-25
  9
$DIMCLRD
 70
     0
  9
$DIMCLRE
 70
     0
  9
$DIMCLRT
 70
     0
  9
$DIMTFAC
 40
1.0
  9
$DIMGAP
 40
1.524
  9
$DIMJUST
 70
     0
  9
$DIMSD1
 70
     0
  9
$DIMSD2
 70
     0
  9
$DIMTOLJ
 70
     0
  9
$DIMTZIN
 70
     1
  9
$DIMALTZ
 70
     0
  9
$DIMALTTZ
 70
     0
  9
$DIMUPT
 70
     0
  9
$DIMDEC
 70
     2
  9
$DIMTDEC
 70
     2
  9
$DIMALTU
 70
     2
  9
$DIMALTTD
 70
     3
  9
$DIMTXSTY
  7
Standard
  9
$DIMAUNIT
 70
     0
  9
$DIMADEC
 70
     0
  9
$DIMALTRND
 40
0.0
  9
$DIMAZIN
 70
     0
  9
$DIMDSEP
 70
    44
  9
$DIMATFIT
 70
     3
  9
$DIMFRAC
 70
     0
  9
$DIMLDRBLK
  1

  9
$DIMLUNIT
 70
     2
  9
$DIMLWD
 70
    -2
  9
$DIMLWE
 70
    -2
  9
$DIMTMOVE
 70
     0
  9
$LUNITS
 70
     2
  9
$LUPREC
 70
     1
  9
$SKETCHINC
 40
1.0
  9
$FILLETRAD
 40
10.0
  9
$AUNITS
 70
     0
  9
$AUPREC
 70
     0
  9
$MENU
  1
.
  9
$ELEVATION
 40
0.0
  9
$PELEVATION
 40
0.0
  9
$THICKNESS
 40
0.0
  9
$LIMCHECK
 70
     0
  9
$CHAMFERA
 40
10.0
  9
$CHAMFERB
 40
10.0
  9
$CHAMFERC
 40
20.0
  9
$CHAMFERD
 40
0.0
  9
$SKPOLY
 70
     0
  9
$TDCREATE
 40
2454309.392034676
  9
$TDUCREATE
 40
2454309.017034676
  9
$TDUPDATE
 40
2454309.392034688
  9
$TDUUPDATE
 40
2454309.017034688
  9
$TDINDWG
 40
0.0000000116
  9
$TDUSRTIMER
 40
0.0000000116
  9
$USRTIMER
 70
     1
  9
$ANGBASE
 50
0.0
  9
$ANGDIR
 70
     0
  9
$PDMODE
 70
     0
  9
$PDSIZE
 40
-1.0
  9
$PLINEWID
 40
0.0
  9
$SPLFRAME
 70
     0
  9
$SPLINETYPE
 70
     6
  9
$SPLINESEGS
 70
     8
  9
$HANDSEED
  5
27A
  9
$SURFTAB1
 70
     6
  9
$SURFTAB2
 70
     6
  9
$SURFTYPE
 70
     6
  9
$SURFU
 70
     6
  9
$SURFV
 70
     6
  9
$UCSBASE
  2

  9
$UCSNAME
  2

  9
$UCSORG
 10
0.0
 20
0.0
 30
0.0
  9
$UCSXDIR
 10
1.0
 20
0.0
 30
0.0
  9
$UCSYDIR
 10
0.0
 20
1.0
 30
0.0
  9
$UCSORTHOREF
  2

  9
$UCSORTHOVIEW
 70
     0
  9
$UCSORGTOP
 10
0.0
 20
0.0
 30
0.0
  9
$UCSORGBOTTOM
 10
0.0
 20
0.0
 30
0.0
  9
$UCSORGLEFT
 10
0.0
 20
0.0
 30
0.0
  9
$UCSORGRIGHT
 10
0.0
 20
0.0
 30
0.0
  9
$UCSORGFRONT
 10
0.0
 20
0.0
 30
0.0
  9
$UCSORGBACK
 10
0.0
 20
0.0
 30
0.0
  9
$PUCSBASE
  2

  9
$PUCSNAME
  2

  9
$PUCSORG
 10
0.0
 20
0.0
 30
0.0
  9
$PUCSXDIR
 10
1.0
 20
0.0
 30
0.0
  9
$PUCSYDIR
 10
0.0
 20
1.0
 30
0.0
  9
$PUCSORTHOREF
  2

  9
$PUCSORTHOVIEW
 70
     0
  9
$PUCSORGTOP
 10
0.0
 20
0.0
 30
0.0
  9
$PUCSORGBOTTOM
 10
0.0
 20
0.0
 30
0.0
  9
$PUCSORGLEFT
 10
0.0
 20
0.0
 30
0.0
  9
$PUCSORGRIGHT
 10
0.0
 20
0.0
 30
0.0
  9
$PUCSORGFRONT
 10
0.0
 20
0.0
 30
0.0
  9
$PUCSORGBACK
 10
0.0
 20
0.0
 30
0.0
  9
$USERI1
 70
     0
  9
$USERI2
 70
     0
  9
$USERI3
 70
     0
  9
$USERI4
 70
     0
  9
$USERI5
 70
     0
  9
$USERR1
 40
0.0
  9
$USERR2
 40
0.0
  9
$USERR3
 40
0.0
  9
$USERR4
 40
0.0
  9
$USERR5
 40
0.0
  9
$WORLDVIEW
 70
     1
  9
$SHADEDGE
 70
     3
  9
$SHADEDIF
 70
    70
  9
$TILEMODE
 70
     1
  9
$MAXACTVP
 70
    64
  9
$PINSBASE
 10
0.0
 20
0.0
 30
0.0
  9
$PLIMCHECK
 70
     0
  9
$PEXTMIN
 10
1.0000000000E+20
 20
1.0000000000E+20
 30
1.0000000000E+20
  9
$PEXTMAX
 10
-1.0000000000E+20
 20
-1.0000000000E+20
 30
-1.0000000000E+20
  9
$PLIMMIN
 10
0.0
 20
0.0
  9
$PLIMMAX
 10
420.0
 20
297.0
  9
$UNITMODE
 70
     0
  9
$VISRETAIN
 70
     1
  9
$PLINEGEN
 70
     0
  9
$PSLTSCALE
 70
     1
  9
$TREEDEPTH
 70
  3020
  9
$CMLSTYLE
  2
Standard
  9
$CMLJUST
 70
     0
  9
$CMLSCALE
 40
20.0
  9
$PROXYGRAPHICS
 70
     1
  9
$MEASUREMENT
 70
     1
  9
$CELWEIGHT
370
    -1
  9
$ENDCAPS
280
     0
  9
$JOINSTYLE
280
     0
  9
$LWDISPLAY
290
     1
  9
$INSUNITS
 70
     4
  9
$HYPERLINKBASE
  1

  9
$STYLESHEET
  1

  9
$XEDIT
290
     1
  9
$CEPSNTYPE
380
     0
  9
$PSTYLEMODE
290
     1
  9
$FINGERPRINTGUID
  2
{9439B719-3FCD-4A8A-901B-E48D8A9C043A}
  9
$VERSIONGUID
  2
{FAEB1C32-E019-11D5-929B-00C0DF256EC4}
  9
$EXTNAMES
290
     1
  9
$PSVPSCALE
 40
0.0
  9
$OLESTARTUP
290
     0
  0
ENDSEC
  0
SECTION
  2
CLASSES
  0
CLASS
  1
ACDBDICTIONARYWDFLT
  2
AcDbDictionaryWithDefault
  3
ObjectDBX Classes
 90
        0
280
     0
281
     0
  0
CLASS
  1
ACDBPLACEHOLDER
  2
AcDbPlaceHolder
  3
ObjectDBX Classes
 90
        0
280
     0
281
     0
  0
CLASS
  1
LAYOUT
  2
AcDbLayout
  3
ObjectDBX Classes
 90
        0
280
     0
281
     0
  0
ENDSEC
  0
SECTION
  2
TABLES
  0
TABLE
  2
VPORT
  5
8
330
0
100
AcDbSymbolTable
 70
     1
  0
VPORT
  5
29
330
8
100
AcDbSymbolTableRecord
100
AcDbViewportTableRecord
  2
*Active
 70
     0
 10
0.0
 20
0.0
 11
1.0
 21
1.0
 12
105.0
 22
148.5
 13
0.0
 23
0.0
 14
10.0
 24
10.0
 15
10.0
 25
10.0
 16
0.0
 26
0.0
 36
1.0
 17
0.0
 27
0.0
 37
0.0
 40
297.0
 41
1.9729729729
 42
50.0
 43
0.0
 44
0.0
 50
0.0
 51
0.0
 71
     0
 72
  2000
 73
     1
 74
     3
 75
     0
 76
     0
 77
     0
 78
     0
281
     0
 65
     1
110
0.0
120
0.0
130
0.0
111
1.0
121
0.0
131
0.0
112
0.0
122
1.0
132
0.0
 79
     0
146
0.0
  0
ENDTAB
  0
TABLE
  2
LTYPE
  5
5
330
0
100
AcDbSymbolTable
 70
     6
  0
LTYPE
  5
14
330
5
100
AcDbSymbolTableRecord
100
AcDbLinetypeTableRecord
  2
ByBlock
 70
     0
  3

 72
    65
 73
     0
 40
0.0
  0
LTYPE
  5
15
330
5
100
AcDbSymbolTableRecord
100
AcDbLinetypeTableRecord
  2
ByLayer
 70
     0
  3

 72
    65
 73
     0
 40
0.0
  0
LTYPE
  5
16
330
5
100
AcDbSymbolTableRecord
100
AcDbLinetypeTableRecord
  2
Continuous
 70
     0
  3
Solid line
 72
    65
 73
     0
 40
0.0
  0
LTYPE
  5
2A
330
5
100
AcDbSymbolTableRecord
100
AcDbLinetypeTableRecord
  2
HIDDEN
 70
     0
  3
Hidden __ __ __ __ __ __ __ __ __ __ __ __ __ __
 72
    65
 73
     2
 40
1.905
 49
1.27
 74
     0
 49
-0.635
 74
     0
  0
LTYPE
  5
2B
330
5
100
AcDbSymbolTableRecord
100
AcDbLinetypeTableRecord
  2
PHANTOM
 70
     0
  3
Phantom ______  __  __  ______  __  __  ______
 72
    65
 73
     6
 40
12.7
 49
6.35
 74
     0
 49
-1.27
 74
     0
 49
1.27
 74
     0
 49
-1.27
 74
     0
 49
1.27
 74
     0
 49
-1.27
 74
     0
  0
LTYPE
  5
2C
330
5
100
AcDbSymbolTableRecord
100
AcDbLinetypeTableRecord
  2
CENTER
 70
     0
  3
Center ____ _ ____ _ ____ _ ____ _ ____ _ ____
 72
    65
 73
     4
 40
10.16
 49
6.35
 74
     0
 49
-1.27
 74
     0
 49
1.27
 74
     0
 49
-1.27
 74
     0
  0
LTYPE
  5
2D
330
5
100
AcDbSymbolTableRecord
100
AcDbLinetypeTableRecord
  2
CENTERX2
 70
     0
  3
Center (2x) ________  __  ________  __  _____
 72
    65
 73
     4
 40
20.32
 49
12.7
 74
     0
 49
-2.54
 74
     0
 49
2.54
 74
     0
 49
-2.54
 74
     0
  0
LTYPE
  5
2E
330
5
100
AcDbSymbolTableRecord
100
AcDbLinetypeTableRecord
  2
DOT2
 70
     0
  3
Dot (.5x) ........................................
 72
    65
 73
     2
 40
0.635
 49
0.0
 74
     0
 49
-0.635
 74
     0
  0
ENDTAB
  0
TABLE
  2
LAYER
  5
2
330
0
100
AcDbSymbolTable
 70
     4
  0
LAYER
  5
10
330
2
100
AcDbSymbolTableRecord
100
AcDbLayerTableRecord
  2
0
 70
     0
 62
     7
  6
Continuous
370
    -3
390
F
  0
LAYER
  5
2F
330
2
100
AcDbSymbolTableRecord
100
AcDbLayerTableRecord
  2
SLD-0
 70
     0
 62
   179
  6
Continuous
370
     0
390
F
  0
LAYER
  5
30
330
2
100
AcDbSymbolTableRecord
100
AcDbLayerTableRecord
  2
SLD-DEFPOINTS
 70
     0
 62
   179
  6
Continuous
370
     0
390
F
  0
LAYER
  5
AA
330
2
100
AcDbSymbolTableRecord
100
AcDbLayerTableRecord
  2
Defpoints
 70
     0
 62
     7
  6
Continuous
290
     0
370
    -3
390
F
  0
ENDTAB
  0
TABLE
  2
STYLE
  5
3
330
0
100
AcDbSymbolTable
 70
     4
  0
STYLE
  5
11
330
3
100
AcDbSymbolTableRecord
100
AcDbTextStyleTableRecord
  2
Standard
 70
     0
 40
0.0
 41
1.0
 50
0.0
 71
     0
 42
2.5
  3
txt
  4
bigfont
  0
STYLE
  5
34
330
3
100
AcDbSymbolTableRecord
100
AcDbTextStyleTableRecord
  2
SLDTEXTSTYLE0
 70
     0
 40
0.0
 41
0.7
 50
0.0
 71
     0
 42
0.2
  3
TXT
  4
bigfont
  0
STYLE
  5
3C
330
3
100
AcDbSymbolTableRecord
100
AcDbTextStyleTableRecord
  2
SLDTEXTSTYLE1
 70
     0
 40
0.0
 41
0.5526315789
 50
0.0
 71
     0
 42
0.2
  3
TXT
  4
bigfont
  0
STYLE
  5
26D
330
3
100
AcDbSymbolTableRecord
100
AcDbTextStyleTableRecord
  2
SLDTEXTSTYLE2
 70
     0
 40
0.0
 41
0.48895
 50
0.0
 71
     0
 42
0.2
  3
TXT
  4
bigfont
  0
ENDTAB
  0
TABLE
  2
VIEW
  5
6
330
0
100
AcDbSymbolTable
 70
     0
  0
ENDTAB
  0
TABLE
  2
UCS
  5
7
330
0
100
AcDbSymbolTable
 70
     0
  0
ENDTAB
  0
TABLE
  2
APPID
  5
9
330
0
100
AcDbSymbolTable
 70
     1
  0
APPID
  5
12
330
9
100
AcDbSymbolTableRecord
100
AcDbRegAppTableRecord
  2
ACAD
 70
     0
  0
ENDTAB
  0
TABLE
  2
DIMSTYLE
  5
A
330
0
100
AcDbSymbolTable
 70
     5
100
AcDbDimStyleTable
  0
DIMSTYLE
105
27
330
A
100
AcDbSymbolTableRecord
100
AcDbDimStyleTableRecord
  2
ISO-25
 70
     0
 41
2.5
 42
0.625
 43
3.75
 44
1.25
 73
     0
 74
     0
 77
     1
 78
     8
140
2.5
141
2.5
143
0.0393700787
147
0.625
171
     3
172
     1
271
     2
272
     2
274
     3
278
    44
283
     0
284
     8
340
11
  0
DIMSTYLE
105
B8
102
{ACAD_REACTORS
330
A9
330
C6
330
F9
330
12C
330
189
102
}
330
A
100
AcDbSymbolTableRecord
100
AcDbDimStyleTableRecord
  2
SLDDIMSTYLE0
 70
     0
 41
3.0
 44
0.0
 73
     0
 74
     0
 77
     3
 78
    12
140
3.5
147
0.875
173
     1
271
     0
272
     3
284
    12
340
3C
341
B9
343
B9
344
B9
  0
DIMSTYLE
105
EC
102
{ACAD_REACTORS
330
DD
330
115
330
145
330
171
330
1A1
330
1B8
330
1D3
330
1FE
330
216
330
251
102
}
330
A
100
AcDbSymbolTableRecord
100
AcDbDimStyleTableRecord
  2
SLDDIMSTYLE1
 70
     0
 41
3.0
 44
0.0
 73
     0
 74
     0
 77
     3
 78
    12
140
3.5
147
0.875
173
     1
271
     1
272
     3
284
    12
340
3C
341
B9
343
B9
344
B9
  0
DIMSTYLE
105
169
102
{ACAD_REACTORS
330
15F
330
1ED
330
22F
102
}
330
A
100
AcDbSymbolTableRecord
100
AcDbDimStyleTableRecord
  2
SLDDIMSTYLE2
 70
     0
 41
3.0
 44
0.0
 78
    12
140
3.5
147
0.875
172
     1
173
     1
271
     1
272
     3
284
    12
340
3C
341
B9
343
B9
344
B9
  0
DIMSTYLE
105
24A
102
{ACAD_REACTORS
330
240
102
}
330
A
100
AcDbSymbolTableRecord
100
AcDbDimStyleTableRecord
  2
SLDDIMSTYLE3
 70
     0
 41
3.0
 44
0.0
 78
    12
140
3.5
147
0.875
173
     1
271
     0
272
     3
284
    12
340
3C
341
B9
343
B9
344
B9
  0
ENDTAB
  0
TABLE
  2
BLOCK_RECORD
  5
1
330
0
100
AcDbSymbolTable
 70
    27
  0
BLOCK_RECORD
  5
1F
330
1
100
AcDbSymbolTableRecord
100
AcDbBlockTableRecord
  2
*Model_Space
340
22
  0
BLOCK_RECORD
  5
1B
330
1
100
AcDbSymbolTableRecord
100
AcDbBlockTableRecord
  2
*Paper_Space
340
1E
  0
BLOCK_RECORD
  5
23
330
1
100
AcDbSymbolTableRecord
100
AcDbBlockTableRecord
  2
*Paper_Space0
340
26
  0
BLOCK_RECORD
  5
31
330
1
100
AcDbSymbolTableRecord
100
AcDbBlockTableRecord
  2
注記
340
0
102
{BLKREFS
331
274
102
}
  0
BLOCK_RECORD
  5
37
330
1
100
AcDbSymbolTableRecord
100
AcDbBlockTableRecord
  2
SURFACEFINISH39
340
0
102
{BLKREFS
331
273
102
}
  0
BLOCK_RECORD
  5
3E
330
1
100
AcDbSymbolTableRecord
100
AcDbBlockTableRecord
  2
_OPEN30
340
0
102
{BLKREFS
331
275
331
277
102
}
  0
BLOCK_RECORD
  5
44
330
1
100
AcDbSymbolTableRecord
100
AcDbBlockTableRecord
  2
SW_CENTERMARK0
340
0
102
{BLKREFS
331
276
102
}
  0
BLOCK_RECORD
  5
4F
330
1
100
AcDbSymbolTableRecord
100
AcDbBlockTableRecord
  2
SW_CENTERMARK1
340
0
102
{BLKREFS
331
278
102
}
  0
BLOCK_RECORD
  5
5A
330
1
100
AcDbSymbolTableRecord
100
AcDbBlockTableRecord
  2
SW_CENTERMARK2
340
0
102
{BLKREFS
331
279
102
}
  0
BLOCK_RECORD
  5
AB
330
1
100
AcDbSymbolTableRecord
100
AcDbBlockTableRecord
  2
*D7
340
0
  0
BLOCK_RECORD
  5
B9
330
1
100
AcDbSymbolTableRecord
100
AcDbBlockTableRecord
  2
_None
340
0
102
{BLKREFS
331
B0
331
AF
331
CC
331
CB
331
E4
331
E3
331
100
331
FF
331
11B
331
11A
331
132
331
131
331
14B
331
14A
331
164
331
177
331
176
331
18F
331
18E
331
1A7
331
1A6
331
1BF
331
1BE
331
1D9
331
1D8
331
1F2
331
204
331
203
331
21C
331
21B
331
234
331
245
331
257
331
256
102
}
  0
BLOCK_RECORD
  5
C7
330
1
100
AcDbSymbolTableRecord
100
AcDbBlockTableRecord
  2
*D9
340
0
  0
BLOCK_RECORD
  5
DE
330
1
100
AcDbSymbolTableRecord
100
AcDbBlockTableRecord
  2
*D10
340
0
  0
BLOCK_RECORD
  5
FA
330
1
100
AcDbSymbolTableRecord
100
AcDbBlockTableRecord
  2
*D11
340
0
  0
BLOCK_RECORD
  5
116
330
1
100
AcDbSymbolTableRecord
100
AcDbBlockTableRecord
  2
*D12
340
0
  0
BLOCK_RECORD
  5
12D
330
1
100
AcDbSymbolTableRecord
100
AcDbBlockTableRecord
  2
*D13
340
0
  0
BLOCK_RECORD
  5
146
330
1
100
AcDbSymbolTableRecord
100
AcDbBlockTableRecord
  2
*D14
340
0
  0
BLOCK_RECORD
  5
160
330
1
100
AcDbSymbolTableRecord
100
AcDbBlockTableRecord
  2
*D15
340
0
  0
BLOCK_RECORD
  5
172
330
1
100
AcDbSymbolTableRecord
100
AcDbBlockTableRecord
  2
*D16
340
0
  0
BLOCK_RECORD
  5
18A
330
1
100
AcDbSymbolTableRecord
100
AcDbBlockTableRecord
  2
*D17
340
0
  0
BLOCK_RECORD
  5
1A2
330
1
100
AcDbSymbolTableRecord
100
AcDbBlockTableRecord
  2
*D18
340
0
  0
BLOCK_RECORD
  5
1B9
330
1
100
AcDbSymbolTableRecord
100
AcDbBlockTableRecord
  2
*D19
340
0
  0
BLOCK_RECORD
  5
1D4
330
1
100
AcDbSymbolTableRecord
100
AcDbBlockTableRecord
  2
*D20
340
0
  0
BLOCK_RECORD
  5
1EE
330
1
100
AcDbSymbolTableRecord
100
AcDbBlockTableRecord
  2
*D21
340
0
  0
BLOCK_RECORD
  5
1FF
330
1
100
AcDbSymbolTableRecord
100
AcDbBlockTableRecord
  2
*D22
340
0
  0
BLOCK_RECORD
  5
217
330
1
100
AcDbSymbolTableRecord
100
AcDbBlockTableRecord
  2
*D23
340
0
  0
BLOCK_RECORD
  5
230
330
1
100
AcDbSymbolTableRecord
100
AcDbBlockTableRecord
  2
*D24
340
0
  0
BLOCK_RECORD
  5
241
330
1
100
AcDbSymbolTableRecord
100
AcDbBlockTableRecord
  2
*D25
340
0
  0
BLOCK_RECORD
  5
252
330
1
100
AcDbSymbolTableRecord
100
AcDbBlockTableRecord
  2
*D26
340
0
  0
ENDTAB
  0
ENDSEC
  0
SECTION
  2
BLOCKS
  0
BLOCK
  5
20
330
1F
100
AcDbEntity
  8
0
100
AcDbBlockBegin
  2
*Model_Space
 70
     0
 71
     0
 10
0.0
 20
0.0
 30
0.0
  3
*Model_Space
  1

  0
ENDBLK
  5
21
330
1F
100
AcDbEntity
  8
0
100
AcDbBlockEnd
  0
BLOCK
  5
1C
330
1B
100
AcDbEntity
 67
     1
  8
0
100
AcDbBlockBegin
  2
*Paper_Space
 70
     0
 71
     0
 10
0.0
 20
0.0
 30
0.0
  3
*Paper_Space
  1

  0
ENDBLK
  5
1D
330
1B
100
AcDbEntity
 67
     1
  8
0
100
AcDbBlockEnd
  0
BLOCK
  5
24
330
23
100
AcDbEntity
  8
0
100
AcDbBlockBegin
  2
*Paper_Space0
 70
     0
 71
     0
 10
0.0
 20
0.0
 30
0.0
  3
*Paper_Space0
  1

  0
ENDBLK
  5
25
330
23
100
AcDbEntity
  8
0
100
AcDbBlockEnd
  0
BLOCK
  5
32
330
31
100
AcDbEntity
  8
0
100
AcDbBlockBegin
  2
注記
 70
     0
 71
     0
 10
0.0
 20
0.0
 30
0.0
  3
注記
  1

  0
MTEXT
  5
35
330
31
100
AcDbEntity
  8
0
  6
Continuous
 62
     7
370
     0
100
AcDbMText
 10
0.2636785918
 20
9.0739778448
 30
0.0
 40
3.5
 41
0.0
 71
     1
 72
     1
  1
１．特記ナキ角部ハ、バリ　カエリノ無キコト。
  7
SLDTEXTSTYLE0
 73
     1
 44
1.0
  0
MTEXT
  5
36
330
31
100
AcDbEntity
  8
0
  6
Continuous
 62
     7
370
     0
100
AcDbMText
 10
0.2636785918
 20
3.5759549983
 30
0.0
 40
3.5
 41
0.0
 71
     1
 72
     1
  1
２．特記ナキ隅部ハ、Ｒ０．４ＭＡＸトスル。
  7
SLDTEXTSTYLE0
 73
     1
 44
1.0
  0
ENDBLK
  5
33
330
31
100
AcDbEntity
  8
0
100
AcDbBlockEnd
  0
BLOCK
  5
38
330
37
100
AcDbEntity
  8
0
100
AcDbBlockBegin
  2
SURFACEFINISH39
 70
     0
 71
     0
 10
0.0
 20
0.0
 30
0.0
  3
SURFACEFINISH39
  1

  0
LINE
  5
3A
330
37
100
AcDbEntity
  8
SLD-0
  6
Continuous
 62
   179
100
AcDbLine
 10
0.6656399396
 20
-6.0449245738
 30
0.0
 11
-2.9003789868
 21
0.0000001164
 31
0.0
  0
LINE
  5
3B
330
37
100
AcDbEntity
  8
SLD-0
  6
Continuous
 62
   179
100
AcDbLine
 10
0.6656399396
 20
-6.0449245738
 30
0.0
 11
7.7976777926
 21
6.0449248066
 31
0.0
  0
MTEXT
  5
3D
330
37
100
AcDbEntity
  8
SLD-0
100
AcDbMText
 10
0.0
 20
4.9341236929
 30
0.0
 40
3.175
 41
0.0
 71
     1
 72
     1
  1
25
  7
SLDTEXTSTYLE1
 73
     1
 44
1.0
  0
ENDBLK
  5
39
330
37
100
AcDbEntity
  8
0
100
AcDbBlockEnd
  0
BLOCK
  5
3F
330
3E
100
AcDbEntity
  8
0
100
AcDbBlockBegin
  2
_OPEN30
 70
     0
 71
     0
 10
0.0
 20
0.0
 30
0.0
  3
_OPEN30
  1

  0
LINE
  5
41
330
3E
100
AcDbEntity
  8
SLD-0
  6
Continuous
100
AcDbLine
 10
-1.0
 20
0.267949
 30
0.0
 11
0.0
 21
0.0
 31
0.0
  0
LINE
  5
42
330
3E
100
AcDbEntity
  8
SLD-0
  6
Continuous
100
AcDbLine
 10
0.0
 20
0.0
 30
0.0
 11
-1.0
 21
-0.267949
 31
0.0
  0
LINE
  5
43
330
3E
100
AcDbEntity
  8
SLD-0
  6
Continuous
100
AcDbLine
 10
0.0
 20
0.0
 30
0.0
 11
-1.0
 21
0.0
 31
0.0
  0
ENDBLK
  5
40
330
3E
100
AcDbEntity
  8
0
100
AcDbBlockEnd
  0
BLOCK
  5
45
330
44
100
AcDbEntity
  8
0
100
AcDbBlockBegin
  2
SW_CENTERMARK0
 70
     0
 71
     0
 10
0.0
 20
0.0
 30
0.0
  3
SW_CENTERMARK0
  1

  0
LINE
  5
47
330
44
100
AcDbEntity
  8
SLD-0
  6
Continuous
 62
   179
100
AcDbLine
 10
131.88671706
 20
128.0806259736
 30
0.0
 11
131.88671706
 21
130.5806259736
 31
0.0
  0
LINE
  5
48
330
44
100
AcDbEntity
  8
SLD-0
  6
Continuous
 62
   179
100
AcDbLine
 10
131.88671706
 20
128.0806259736
 30
0.0
 11
129.38671706
 21
128.0806259736
 31
0.0
  0
LINE
  5
49
330
44
100
AcDbEntity
  8
SLD-0
  6
Continuous
 62
   179
100
AcDbLine
 10
131.88671706
 20
128.0806259736
 30
0.0
 11
131.88671706
 21
125.5806259736
 31
0.0
  0
LINE
  5
4A
330
44
100
AcDbEntity
  8
SLD-0
  6
Continuous
 62
   179
100
AcDbLine
 10
131.88671706
 20
128.0806259736
 30
0.0
 11
134.38671706
 21
128.0806259736
 31
0.0
  0
LINE
  5
4B
330
44
100
AcDbEntity
  8
SLD-0
  6
Continuous
 62
   179
100
AcDbLine
 10
131.88671706
 20
133.0806259736
 30
0.0
 11
131.88671706
 21
133.8306259736
 31
0.0
  0
LINE
  5
4C
330
44
100
AcDbEntity
  8
SLD-0
  6
Continuous
 62
   179
100
AcDbLine
 10
126.88671706
 20
128.0806259736
 30
0.0
 11
126.13671706
 21
128.0806259736
 31
0.0
  0
LINE
  5
4D
330
44
100
AcDbEntity
  8
SLD-0
  6
Continuous
 62
   179
100
AcDbLine
 10
131.88671706
 20
123.0806259736
 30
0.0
 11
131.88671706
 21
122.3306259736
 31
0.0
  0
LINE
  5
4E
330
44
100
AcDbEntity
  8
SLD-0
  6
Continuous
 62
   179
100
AcDbLine
 10
136.88671706
 20
128.0806259736
 30
0.0
 11
137.63671706
 21
128.0806259736
 31
0.0
  0
ENDBLK
  5
46
330
44
100
AcDbEntity
  8
0
100
AcDbBlockEnd
  0
BLOCK
  5
50
330
4F
100
AcDbEntity
  8
0
100
AcDbBlockBegin
  2
SW_CENTERMARK1
 70
     0
 71
     0
 10
0.0
 20
0.0
 30
0.0
  3
SW_CENTERMARK1
  1

  0
LINE
  5
52
330
4F
100
AcDbEntity
  8
SLD-0
  6
Continuous
 62
   179
100
AcDbLine
 10
131.88671706
 20
201.7679925158
 30
0.0
 11
131.88671706
 21
204.2679925158
 31
0.0
  0
LINE
  5
53
330
4F
100
AcDbEntity
  8
SLD-0
  6
Continuous
 62
   179
100
AcDbLine
 10
131.88671706
 20
201.7679925158
 30
0.0
 11
129.38671706
 21
201.7679925158
 31
0.0
  0
LINE
  5
54
330
4F
100
AcDbEntity
  8
SLD-0
  6
Continuous
 62
   179
100
AcDbLine
 10
131.88671706
 20
201.7679925158
 30
0.0
 11
131.88671706
 21
199.2679925158
 31
0.0
  0
LINE
  5
55
330
4F
100
AcDbEntity
  8
SLD-0
  6
Continuous
 62
   179
100
AcDbLine
 10
131.88671706
 20
201.7679925158
 30
0.0
 11
134.38671706
 21
201.7679925158
 31
0.0
  0
LINE
  5
56
330
4F
100
AcDbEntity
  8
SLD-0
  6
Continuous
 62
   179
100
AcDbLine
 10
131.88671706
 20
206.7679925158
 30
0.0
 11
131.88671706
 21
207.5179925158
 31
0.0
  0
LINE
  5
57
330
4F
100
AcDbEntity
  8
SLD-0
  6
Continuous
 62
   179
100
AcDbLine
 10
126.88671706
 20
201.7679925158
 30
0.0
 11
126.13671706
 21
201.7679925158
 31
0.0
  0
LINE
  5
58
330
4F
100
AcDbEntity
  8
SLD-0
  6
Continuous
 62
   179
100
AcDbLine
 10
131.88671706
 20
196.7679925158
 30
0.0
 11
131.88671706
 21
196.0179925158
 31
0.0
  0
LINE
  5
59
330
4F
100
AcDbEntity
  8
SLD-0
  6
Continuous
 62
   179
100
AcDbLine
 10
136.88671706
 20
201.7679925158
 30
0.0
 11
137.63671706
 21
201.7679925158
 31
0.0
  0
ENDBLK
  5
51
330
4F
100
AcDbEntity
  8
0
100
AcDbBlockEnd
  0
BLOCK
  5
5B
330
5A
100
AcDbEntity
  8
0
100
AcDbBlockBegin
  2
SW_CENTERMARK2
 70
     0
 71
     0
 10
0.0
 20
0.0
 30
0.0
  3
SW_CENTERMARK2
  1

  0
LINE
  5
5D
330
5A
100
AcDbEntity
  8
SLD-0
  6
Continuous
 62
   179
100
AcDbLine
 10
56.0133552575
 20
123.0806259736
 30
0.0
 11
56.0133552575
 21
125.5806259736
 31
0.0
  0
LINE
  5
5E
330
5A
100
AcDbEntity
  8
SLD-0
  6
Continuous
 62
   179
100
AcDbLine
 10
56.0133552575
 20
123.0806259736
 30
0.0
 11
53.5133552575
 21
123.0806259736
 31
0.0
  0
LINE
  5
5F
330
5A
100
AcDbEntity
  8
SLD-0
  6
Continuous
 62
   179
100
AcDbLine
 10
56.0133552575
 20
123.0806259736
 30
0.0
 11
56.0133552575
 21
120.5806259736
 31
0.0
  0
LINE
  5
60
330
5A
100
AcDbEntity
  8
SLD-0
  6
Continuous
 62
   179
100
AcDbLine
 10
56.0133552575
 20
123.0806259736
 30
0.0
 11
58.5133552575
 21
123.0806259736
 31
0.0
  0
LINE
  5
61
330
5A
100
AcDbEntity
  8
SLD-0
  6
Continuous
 62
   179
100
AcDbLine
 10
56.0133552575
 20
128.0806259736
 30
0.0
 11
56.0133552575
 21
128.8306259736
 31
0.0
  0
LINE
  5
62
330
5A
100
AcDbEntity
  8
SLD-0
  6
Continuous
 62
   179
100
AcDbLine
 10
51.0133552575
 20
123.0806259736
 30
0.0
 11
50.2633552575
 21
123.0806259736
 31
0.0
  0
LINE
  5
63
330
5A
100
AcDbEntity
  8
SLD-0
  6
Continuous
 62
   179
100
AcDbLine
 10
56.0133552575
 20
118.0806259736
 30
0.0
 11
56.0133552575
 21
117.3306259736
 31
0.0
  0
LINE
  5
64
330
5A
100
AcDbEntity
  8
SLD-0
  6
Continuous
 62
   179
100
AcDbLine
 10
61.0133552575
 20
123.0806259736
 30
0.0
 11
61.7633552575
 21
123.0806259736
 31
0.0
  0
ENDBLK
  5
5C
330
5A
100
AcDbEntity
  8
0
100
AcDbBlockEnd
  0
BLOCK
  5
B6
330
AB
100
AcDbEntity
  8
0
100
AcDbBlockBegin
  2
*D7
 70
     1
 71
     0
 10
0.0
 20
0.0
 30
0.0
  3
*D7
  1

  0
LINE
  5
BC
330
AB
100
AcDbEntity
  8
SLD-0
 62
     7
100
AcDbLine
 10
155.38671706
 20
135.5806259736
 30
0.0
 11
166.0888766925
 21
135.5806259736
 31
0.0
  0
LINE
  5
BD
330
AB
100
AcDbEntity
  8
SLD-0
 62
     7
100
AcDbLine
 10
155.38671706
 20
110.5806259736
 30
0.0
 11
166.0888766925
 21
110.5806259736
 31
0.0
  0
LINE
  5
BE
330
AB
100
AcDbEntity
  8
SLD-0
 62
     7
100
AcDbLine
 10
165.0888766925
 20
135.5806259736
 30
0.0
 11
165.0888766925
 21
110.5806259736
 31
0.0
  0
LINE
  5
BF
330
AB
100
AcDbEntity
  8
SLD-0
 62
     7
100
AcDbLine
 10
164.2850296925
 20
132.5806259736
 30
0.0
 11
165.0888766925
 21
135.5806259736
 31
0.0
  0
LINE
  5
C0
330
AB
100
AcDbEntity
  8
SLD-0
 62
     7
100
AcDbLine
 10
165.0888766925
 20
135.5806259736
 30
0.0
 11
165.8927236925
 21
132.5806259736
 31
0.0
  0
LINE
  5
C1
330
AB
100
AcDbEntity
  8
SLD-0
 62
     7
100
AcDbLine
 10
165.0888766925
 20
135.5806259736
 30
0.0
 11
165.0888766925
 21
132.5806259736
 31
0.0
  0
LINE
  5
C2
330
AB
100
AcDbEntity
  8
SLD-0
 62
     7
100
AcDbLine
 10
165.8927236925
 20
113.5806259736
 30
0.0
 11
165.0888766925
 21
110.5806259736
 31
0.0
  0
LINE
  5
C3
330
AB
100
AcDbEntity
  8
SLD-0
 62
     7
100
AcDbLine
 10
165.0888766925
 20
110.5806259736
 30
0.0
 11
164.2850296925
 21
113.5806259736
 31
0.0
  0
LINE
  5
C4
330
AB
100
AcDbEntity
  8
SLD-0
 62
     7
100
AcDbLine
 10
165.0888766925
 20
110.5806259736
 30
0.0
 11
165.0888766925
 21
113.5806259736
 31
0.0
  0
MTEXT
  5
C5
330
AB
100
AcDbEntity
  8
SLD-0
 62
     7
100
AcDbMText
 10
160.5621829966
 20
121.0451907505
 30
0.1
 40
3.5
 41
0.0
 71
     1
 72
     1
  1
25
  7
SLDTEXTSTYLE0
 11
6.123031769111886E-17
 21
1.0
 31
0.0
 73
     1
 44
1.0
  0
ENDBLK
  5
B7
330
AB
100
AcDbEntity
  8
0
100
AcDbBlockEnd
  0
BLOCK
  5
BA
330
B9
100
AcDbEntity
  8
0
100
AcDbBlockBegin
  2
_None
 70
     0
 71
     0
 10
0.0
 20
0.0
 30
0.0
  3
_None
  1

  0
ENDBLK
  5
BB
330
B9
100
AcDbEntity
  8
0
100
AcDbBlockEnd
  0
BLOCK
  5
D1
330
C7
100
AcDbEntity
  8
0
100
AcDbBlockBegin
  2
*D9
 70
     1
 71
     0
 10
0.0
 20
0.0
 30
0.0
  3
*D9
  1

  0
LINE
  5
D3
330
C7
100
AcDbEntity
  8
SLD-0
 62
     7
100
AcDbLine
 10
154.38671706
 20
136.5806259736
 30
0.0
 11
154.38671706
 21
163.8650402886
 31
0.0
  0
LINE
  5
D4
330
C7
100
AcDbEntity
  8
SLD-0
 62
     7
100
AcDbLine
 10
124.38671706
 20
136.5806259736
 30
0.0
 11
124.38671706
 21
163.8650402886
 31
0.0
  0
LINE
  5
D5
330
C7
100
AcDbEntity
  8
SLD-0
 62
     7
100
AcDbLine
 10
154.38671706
 20
162.8650402886
 30
0.0
 11
124.38671706
 21
162.8650402886
 31
0.0
  0
LINE
  5
D6
330
C7
100
AcDbEntity
  8
SLD-0
 62
     7
100
AcDbLine
 10
151.38671706
 20
163.6688872886
 30
0.0
 11
154.38671706
 21
162.8650402886
 31
0.0
  0
LINE
  5
D7
330
C7
100
AcDbEntity
  8
SLD-0
 62
     7
100
AcDbLine
 10
154.38671706
 20
162.8650402886
 30
0.0
 11
151.38671706
 21
162.0611932886
 31
0.0
  0
LINE
  5
D8
330
C7
100
AcDbEntity
  8
SLD-0
 62
     7
100
AcDbLine
 10
154.38671706
 20
162.8650402886
 30
0.0
 11
151.38671706
 21
162.8650402886
 31
0.0
  0
LINE
  5
D9
330
C7
100
AcDbEntity
  8
SLD-0
 62
     7
100
AcDbLine
 10
127.38671706
 20
162.0611932886
 30
0.0
 11
124.38671706
 21
162.8650402886
 31
0.0
  0
LINE
  5
DA
330
C7
100
AcDbEntity
  8
SLD-0
 62
     7
100
AcDbLine
 10
124.38671706
 20
162.8650402886
 30
0.0
 11
127.38671706
 21
163.6688872886
 31
0.0
  0
LINE
  5
DB
330
C7
100
AcDbEntity
  8
SLD-0
 62
     7
100
AcDbLine
 10
124.38671706
 20
162.8650402886
 30
0.0
 11
127.38671706
 21
162.8650402886
 31
0.0
  0
MTEXT
  5
DC
330
C7
100
AcDbEntity
  8
SLD-0
 62
     7
100
AcDbMText
 10
137.3512818369
 20
167.3917339845
 30
0.1
 40
3.5
 41
0.0
 71
     1
 72
     1
  1
30
  7
SLDTEXTSTYLE0
 73
     1
 44
1.0
  0
ENDBLK
  5
D2
330
C7
100
AcDbEntity
  8
0
100
AcDbBlockEnd
  0
BLOCK
  5
EA
330
DE
100
AcDbEntity
  8
0
100
AcDbBlockBegin
  2
*D10
 70
     1
 71
     0
 10
0.0
 20
0.0
 30
0.0
  3
*D10
  1

  0
LINE
  5
ED
330
DE
100
AcDbEntity
  8
SLD-0
 62
     7
100
AcDbLine
 10
123.38671706
 20
110.5806259736
 30
0.0
 11
103.2423576343
 21
110.5806259736
 31
0.0
  0
LINE
  5
EE
330
DE
100
AcDbEntity
  8
SLD-0
 62
     7
100
AcDbLine
 10
123.38671706
 20
115.0806259736
 30
0.0
 11
103.2423576343
 21
115.0806259736
 31
0.0
  0
LINE
  5
EF
330
DE
100
AcDbEntity
  8
SLD-0
 62
     7
100
AcDbLine
 10
104.2423576343
 20
110.5806259736
 30
0.0
 11
104.2423576343
 21
96.7027926977
 31
0.0
  0
LINE
  5
F0
330
DE
100
AcDbEntity
  8
SLD-0
 62
     7
100
AcDbLine
 10
104.2423576343
 20
110.5806259736
 30
0.0
 11
104.2423576343
 21
115.0806259736
 31
0.0
  0
LINE
  5
F1
330
DE
100
AcDbEntity
  8
SLD-0
 62
     7
100
AcDbLine
 10
104.2423576343
 20
115.0806259736
 30
0.0
 11
104.2423576343
 21
120.0806259736
 31
0.0
  0
LINE
  5
F2
330
DE
100
AcDbEntity
  8
SLD-0
 62
     7
100
AcDbLine
 10
103.4385106343
 20
107.5806259736
 30
0.0
 11
104.2423576343
 21
110.5806259736
 31
0.0
  0
LINE
  5
F3
330
DE
100
AcDbEntity
  8
SLD-0
 62
     7
100
AcDbLine
 10
104.2423576343
 20
110.5806259736
 30
0.0
 11
105.0462046343
 21
107.5806259736
 31
0.0
  0
LINE
  5
F4
330
DE
100
AcDbEntity
  8
SLD-0
 62
     7
100
AcDbLine
 10
104.2423576343
 20
110.5806259736
 30
0.0
 11
104.2423576343
 21
107.5806259736
 31
0.0
  0
LINE
  5
F5
330
DE
100
AcDbEntity
  8
SLD-0
 62
     7
100
AcDbLine
 10
105.0462046343
 20
118.0806259736
 30
0.0
 11
104.2423576343
 21
115.0806259736
 31
0.0
  0
LINE
  5
F6
330
DE
100
AcDbEntity
  8
SLD-0
 62
     7
100
AcDbLine
 10
104.2423576343
 20
115.0806259736
 30
0.0
 11
103.4385106343
 21
118.0806259736
 31
0.0
  0
LINE
  5
F7
330
DE
100
AcDbEntity
  8
SLD-0
 62
     7
100
AcDbLine
 10
104.2423576343
 20
115.0806259736
 30
0.0
 11
104.2423576343
 21
118.0806259736
 31
0.0
  0
MTEXT
  5
F8
330
DE
100
AcDbEntity
  8
SLD-0
 62
     7
100
AcDbMText
 10
99.7156639383
 20
98.2902926977
 30
0.1
 40
3.5
 41
0.0
 71
     1
 72
     1
  1
4.5
  7
SLDTEXTSTYLE0
 11
6.123031769111886E-17
 21
1.0
 31
0.0
 73
     1
 44
1.0
  0
ENDBLK
  5
EB
330
DE
100
AcDbEntity
  8
0
100
AcDbBlockEnd
  0
BLOCK
  5
107
330
FA
100
AcDbEntity
  8
0
100
AcDbBlockBegin
  2
*D11
 70
     1
 71
     0
 10
0.0
 20
0.0
 30
0.0
  3
*D11
  1

  0
LINE
  5
109
330
FA
100
AcDbEntity
  8
SLD-0
 62
     7
100
AcDbLine
 10
149.38671706
 20
136.5806259736
 30
0.0
 11
149.38671706
 21
155.3094054979
 31
0.0
  0
LINE
  5
10A
330
FA
100
AcDbEntity
  8
SLD-0
 62
     7
100
AcDbLine
 10
154.38671706
 20
136.5806259736
 30
0.0
 11
154.38671706
 21
155.3094054979
 31
0.0
  0
LINE
  5
10B
330
FA
100
AcDbEntity
  8
SLD-0
 62
     7
100
AcDbLine
 10
149.38671706
 20
154.3094054979
 30
0.0
 11
144.38671706
 21
154.3094054979
 31
0.0
  0
LINE
  5
10C
330
FA
100
AcDbEntity
  8
SLD-0
 62
     7
100
AcDbLine
 10
149.38671706
 20
154.3094054979
 30
0.0
 11
154.38671706
 21
154.3094054979
 31
0.0
  0
LINE
  5
10D
330
FA
100
AcDbEntity
  8
SLD-0
 62
     7
100
AcDbLine
 10
154.38671706
 20
154.3094054979
 30
0.0
 11
165.6608424703
 21
154.3094054979
 31
0.0
  0
LINE
  5
10E
330
FA
100
AcDbEntity
  8
SLD-0
 62
     7
100
AcDbLine
 10
146.38671706
 20
155.1132524979
 30
0.0
 11
149.38671706
 21
154.3094054979
 31
0.0
  0
LINE
  5
10F
330
FA
100
AcDbEntity
  8
SLD-0
 62
     7
100
AcDbLine
 10
149.38671706
 20
154.3094054979
 30
0.0
 11
146.38671706
 21
153.5055584979
 31
0.0
  0
LINE
  5
110
330
FA
100
AcDbEntity
  8
SLD-0
 62
     7
100
AcDbLine
 10
149.38671706
 20
154.3094054979
 30
0.0
 11
146.38671706
 21
154.3094054979
 31
0.0
  0
LINE
  5
111
330
FA
100
AcDbEntity
  8
SLD-0
 62
     7
100
AcDbLine
 10
157.38671706
 20
153.5055584979
 30
0.0
 11
154.38671706
 21
154.3094054979
 31
0.0
  0
LINE
  5
112
330
FA
100
AcDbEntity
  8
SLD-0
 62
     7
100
AcDbLine
 10
154.38671706
 20
154.3094054979
 30
0.0
 11
157.38671706
 21
155.1132524979
 31
0.0
  0
LINE
  5
113
330
FA
100
AcDbEntity
  8
SLD-0
 62
     7
100
AcDbLine
 10
154.38671706
 20
154.3094054979
 30
0.0
 11
157.38671706
 21
154.3094054979
 31
0.0
  0
MTEXT
  5
114
330
FA
100
AcDbEntity
  8
SLD-0
 62
     7
100
AcDbMText
 10
162.0379072472
 20
158.8360991938
 30
0.1
 40
3.5
 41
0.0
 71
     1
 72
     1
  1
5
  7
SLDTEXTSTYLE0
 73
     1
 44
1.0
  0
ENDBLK
  5
108
330
FA
100
AcDbEntity
  8
0
100
AcDbBlockEnd
  0
BLOCK
  5
120
330
116
100
AcDbEntity
  8
0
100
AcDbBlockBegin
  2
*D12
 70
     1
 71
     0
 10
0.0
 20
0.0
 30
0.0
  3
*D12
  1

  0
LINE
  5
122
330
116
100
AcDbEntity
  8
SLD-0
 62
     7
100
AcDbLine
 10
131.88671706
 20
129.0806259736
 30
0.0
 11
131.88671706
 21
145.2015207015
 31
0.0
  0
LINE
  5
123
330
116
100
AcDbEntity
  8
SLD-0
 62
     7
100
AcDbLine
 10
154.38671706
 20
136.5806259736
 30
0.0
 11
154.38671706
 21
145.2015207015
 31
0.0
  0
LINE
  5
124
330
116
100
AcDbEntity
  8
SLD-0
 62
     7
100
AcDbLine
 10
131.88671706
 20
144.2015207015
 30
0.0
 11
154.38671706
 21
144.2015207015
 31
0.0
  0
LINE
  5
125
330
116
100
AcDbEntity
  8
SLD-0
 62
     7
100
AcDbLine
 10
134.88671706
 20
143.3976737015
 30
0.0
 11
131.88671706
 21
144.2015207015
 31
0.0
  0
LINE
  5
126
330
116
100
AcDbEntity
  8
SLD-0
 62
     7
100
AcDbLine
 10
131.88671706
 20
144.2015207015
 30
0.0
 11
134.88671706
 21
145.0053677015
 31
0.0
  0
LINE
  5
127
330
116
100
AcDbEntity
  8
SLD-0
 62
     7
100
AcDbLine
 10
131.88671706
 20
144.2015207015
 30
0.0
 11
134.88671706
 21
144.2015207015
 31
0.0
  0
LINE
  5
128
330
116
100
AcDbEntity
  8
SLD-0
 62
     7
100
AcDbLine
 10
151.38671706
 20
145.0053677015
 30
0.0
 11
154.38671706
 21
144.2015207015
 31
0.0
  0
LINE
  5
129
330
116
100
AcDbEntity
  8
SLD-0
 62
     7
100
AcDbLine
 10
154.38671706
 20
144.2015207015
 30
0.0
 11
151.38671706
 21
143.3976737015
 31
0.0
  0
LINE
  5
12A
330
116
100
AcDbEntity
  8
SLD-0
 62
     7
100
AcDbLine
 10
154.38671706
 20
144.2015207015
 30
0.0
 11
151.38671706
 21
144.2015207015
 31
0.0
  0
MTEXT
  5
12B
330
116
100
AcDbEntity
  8
SLD-0
 62
     7
100
AcDbMText
 10
139.0640194726
 20
148.7282143975
 30
0.1
 40
3.5
 41
0.0
 71
     1
 72
     1
  1
22.5
  7
SLDTEXTSTYLE0
 73
     1
 44
1.0
  0
ENDBLK
  5
121
330
116
100
AcDbEntity
  8
0
100
AcDbBlockEnd
  0
BLOCK
  5
137
330
12D
100
AcDbEntity
  8
0
100
AcDbBlockBegin
  2
*D13
 70
     1
 71
     0
 10
0.0
 20
0.0
 30
0.0
  3
*D13
  1

  0
ARC
  5
139
330
12D
100
AcDbEntity
  8
SLD-0
 62
     7
100
AcDbCircle
 10
137.3346522832
 20
156.344840721
 30
0.0
 40
4.55137152279999
100
AcDbArc
 50
153.4349488229
 51
206.5650511771
  0
ARC
  5
13A
330
12D
100
AcDbEntity
  8
SLD-0
 62
     7
100
AcDbCircle
 10
136.4387818369
 20
156.344840721
 30
0.0
 40
4.55137152279999
100
AcDbArc
 50
333.4349488229
 51
26.5650511771
  0
LINE
  5
13B
330
12D
100
AcDbEntity
  8
SLD-0
 62
     7
100
AcDbLine
 10
149.38671706
 20
136.5806259736
 30
0.0
 11
149.38671706
 21
155.3094054979
 31
0.0
  0
LINE
  5
13C
330
12D
100
AcDbEntity
  8
SLD-0
 62
     7
100
AcDbLine
 10
124.38671706
 20
131.5806259736
 30
0.0
 11
124.38671706
 21
155.3094054979
 31
0.0
  0
LINE
  5
13D
330
12D
100
AcDbEntity
  8
SLD-0
 62
     7
100
AcDbLine
 10
149.38671706
 20
154.3094054979
 30
0.0
 11
124.38671706
 21
154.3094054979
 31
0.0
  0
LINE
  5
13E
330
12D
100
AcDbEntity
  8
SLD-0
 62
     7
100
AcDbLine
 10
146.38671706
 20
155.1132524979
 30
0.0
 11
149.38671706
 21
154.3094054979
 31
0.0
  0
LINE
  5
13F
330
12D
100
AcDbEntity
  8
SLD-0
 62
     7
100
AcDbLine
 10
149.38671706
 20
154.3094054979
 30
0.0
 11
146.38671706
 21
153.5055584979
 31
0.0
  0
LINE
  5
140
330
12D
100
AcDbEntity
  8
SLD-0
 62
     7
100
AcDbLine
 10
149.38671706
 20
154.3094054979
 30
0.0
 11
146.38671706
 21
154.3094054979
 31
0.0
  0
LINE
  5
141
330
12D
100
AcDbEntity
  8
SLD-0
 62
     7
100
AcDbLine
 10
127.38671706
 20
153.5055584979
 30
0.0
 11
124.38671706
 21
154.3094054979
 31
0.0
  0
LINE
  5
142
330
12D
100
AcDbEntity
  8
SLD-0
 62
     7
100
AcDbLine
 10
124.38671706
 20
154.3094054979
 30
0.0
 11
127.38671706
 21
155.1132524979
 31
0.0
  0
LINE
  5
143
330
12D
100
AcDbEntity
  8
SLD-0
 62
     7
100
AcDbLine
 10
124.38671706
 20
154.3094054979
 30
0.0
 11
127.38671706
 21
154.3094054979
 31
0.0
  0
MTEXT
  5
144
330
12D
100
AcDbEntity
  8
SLD-0
 62
     7
100
AcDbMText
 10
134.8512818369
 20
158.8360991938
 30
0.1
 40
3.5
 41
0.0
 71
     1
 72
     1
  1
25
  7
SLDTEXTSTYLE0
 73
     1
 44
1.0
  0
ENDBLK
  5
138
330
12D
100
AcDbEntity
  8
0
100
AcDbBlockEnd
  0
BLOCK
  5
151
330
146
100
AcDbEntity
  8
0
100
AcDbBlockBegin
  2
*D14
 70
     1
 71
     0
 10
0.0
 20
0.0
 30
0.0
  3
*D14
  1

  0
ARC
  5
153
330
146
100
AcDbEntity
  8
SLD-0
 62
     7
100
AcDbCircle
 10
102.2069224111
 20
123.7412988325
 30
0.0
 40
4.551371522799997
100
AcDbArc
 50
243.4349488229
 51
296.5650511771
  0
ARC
  5
154
330
146
100
AcDbEntity
  8
SLD-0
 62
     7
100
AcDbCircle
 10
102.2069224111
 20
126.9199531148
 30
0.0
 40
4.551371522799983
100
AcDbArc
 50
63.4349488229
 51
116.5650511771
  0
LINE
  5
155
330
146
100
AcDbEntity
  8
SLD-0
 62
     7
100
AcDbLine
 10
128.38671706
 20
135.5806259736
 30
0.0
 11
103.2423576343
 21
135.5806259736
 31
0.0
  0
LINE
  5
156
330
146
100
AcDbEntity
  8
SLD-0
 62
     7
100
AcDbLine
 10
128.38671706
 20
115.0806259736
 30
0.0
 11
103.2423576343
 21
115.0806259736
 31
0.0
  0
LINE
  5
157
330
146
100
AcDbEntity
  8
SLD-0
 62
     7
100
AcDbLine
 10
104.2423576343
 20
135.5806259736
 30
0.0
 11
104.2423576343
 21
115.0806259736
 31
0.0
  0
LINE
  5
158
330
146
100
AcDbEntity
  8
SLD-0
 62
     7
100
AcDbLine
 10
103.4385106343
 20
132.5806259736
 30
0.0
 11
104.2423576343
 21
135.5806259736
 31
0.0
  0
LINE
  5
159
330
146
100
AcDbEntity
  8
SLD-0
 62
     7
100
AcDbLine
 10
104.2423576343
 20
135.5806259736
 30
0.0
 11
105.0462046343
 21
132.5806259736
 31
0.0
  0
LINE
  5
15A
330
146
100
AcDbEntity
  8
SLD-0
 62
     7
100
AcDbLine
 10
104.2423576343
 20
135.5806259736
 30
0.0
 11
104.2423576343
 21
132.5806259736
 31
0.0
  0
LINE
  5
15B
330
146
100
AcDbEntity
  8
SLD-0
 62
     7
100
AcDbLine
 10
105.0462046343
 20
118.0806259736
 30
0.0
 11
104.2423576343
 21
115.0806259736
 31
0.0
  0
LINE
  5
15C
330
146
100
AcDbEntity
  8
SLD-0
 62
     7
100
AcDbLine
 10
104.2423576343
 20
115.0806259736
 30
0.0
 11
103.4385106343
 21
118.0806259736
 31
0.0
  0
LINE
  5
15D
330
146
100
AcDbEntity
  8
SLD-0
 62
     7
100
AcDbLine
 10
104.2423576343
 20
115.0806259736
 30
0.0
 11
104.2423576343
 21
118.0806259736
 31
0.0
  0
MTEXT
  5
15E
330
146
100
AcDbEntity
  8
SLD-0
 62
     7
100
AcDbMText
 10
99.7156639383
 20
121.2579283862
 30
0.1
 40
3.5
 41
0.0
 71
     1
 72
     1
  1
20.5
  7
SLDTEXTSTYLE0
 11
6.123031769111886E-17
 21
1.0
 31
0.0
 73
     1
 44
1.0
  0
ENDBLK
  5
152
330
146
100
AcDbEntity
  8
0
100
AcDbBlockEnd
  0
BLOCK
  5
167
330
160
100
AcDbEntity
  8
0
100
AcDbBlockBegin
  2
*D15
 70
     1
 71
     0
 10
0.0
 20
0.0
 30
0.0
  3
*D15
  1

  0
LINE
  5
16A
330
160
100
AcDbEntity
  8
SLD-0
 62
     7
100
AcDbLine
 10
132.9902475141
 20
125.0237124098
 30
0.0
 11
142.2728273178
 21
99.3098374504
 31
0.0
  0
LINE
  5
16B
330
160
100
AcDbEntity
  8
SLD-0
 62
     7
100
AcDbLine
 10
142.2728273178
 20
99.3098374504
 30
0.0
 11
157.0151721912
 21
99.3098374504
 31
0.0
  0
LINE
  5
16C
330
160
100
AcDbEntity
  8
SLD-0
 62
     7
100
AcDbLine
 10
133.252801534
 20
121.929001537
 30
0.0
 11
132.9902475141
 21
125.0237124098
 31
0.0
  0
LINE
  5
16D
330
160
100
AcDbEntity
  8
SLD-0
 62
     7
100
AcDbLine
 10
132.9902475141
 20
125.0237124098
 30
0.0
 11
134.7649804863
 21
122.4748905493
 31
0.0
  0
LINE
  5
16E
330
160
100
AcDbEntity
  8
SLD-0
 62
     7
100
AcDbLine
 10
132.9902475141
 20
125.0237124098
 30
0.0
 11
134.0088910102
 21
122.2019460432
 31
0.0
  0
MTEXT
  5
16F
330
160
100
AcDbEntity
  8
SLD-0
 62
     7
100
AcDbMText
 10
143.6978273178
 20
103.8365309135
 30
0.1
 40
3.5
 41
0.0
 71
     1
 72
     1
  1
%%c
  7
SLDTEXTSTYLE0
 73
     1
 44
1.0
  0
MTEXT
  5
170
330
160
100
AcDbEntity
  8
SLD-0
 62
     7
100
AcDbMText
 10
149.3177122394
 20
103.8365311463
 30
0.1
 40
3.5
 41
0.0
 71
     1
 72
     1
  1
6.5
  7
SLDTEXTSTYLE0
 73
     1
 44
1.0
  0
ENDBLK
  5
168
330
160
100
AcDbEntity
  8
0
100
AcDbBlockEnd
  0
BLOCK
  5
17D
330
172
100
AcDbEntity
  8
0
100
AcDbBlockBegin
  2
*D16
 70
     1
 71
     0
 10
0.0
 20
0.0
 30
0.0
  3
*D16
  1

  0
LINE
  5
17F
330
172
100
AcDbEntity
  8
SLD-0
 62
     7
100
AcDbLine
 10
123.38671706
 20
110.5806259736
 30
0.0
 11
113.1244334165
 21
110.5806259736
 31
0.0
  0
LINE
  5
180
330
172
100
AcDbEntity
  8
SLD-0
 62
     7
100
AcDbLine
 10
125.13671706
 20
128.0806259736
 30
0.0
 11
113.1244334165
 21
128.0806259736
 31
0.0
  0
LINE
  5
181
330
172
100
AcDbEntity
  8
SLD-0
 62
     7
100
AcDbLine
 10
114.1244334165
 20
110.5806259736
 30
0.0
 11
114.1244334165
 21
128.0806259736
 31
0.0
  0
LINE
  5
182
330
172
100
AcDbEntity
  8
SLD-0
 62
     7
100
AcDbLine
 10
114.9282804165
 20
113.5806259736
 30
0.0
 11
114.1244334165
 21
110.5806259736
 31
0.0
  0
LINE
  5
183
330
172
100
AcDbEntity
  8
SLD-0
 62
     7
100
AcDbLine
 10
114.1244334165
 20
110.5806259736
 30
0.0
 11
113.3205864165
 21
113.5806259736
 31
0.0
  0
LINE
  5
184
330
172
100
AcDbEntity
  8
SLD-0
 62
     7
100
AcDbLine
 10
114.1244334165
 20
110.5806259736
 30
0.0
 11
114.1244334165
 21
113.5806259736
 31
0.0
  0
LINE
  5
185
330
172
100
AcDbEntity
  8
SLD-0
 62
     7
100
AcDbLine
 10
113.3205864165
 20
125.0806259736
 30
0.0
 11
114.1244334165
 21
128.0806259736
 31
0.0
  0
LINE
  5
186
330
172
100
AcDbEntity
  8
SLD-0
 62
     7
100
AcDbLine
 10
114.1244334165
 20
128.0806259736
 30
0.0
 11
114.9282804165
 21
125.0806259736
 31
0.0
  0
LINE
  5
187
330
172
100
AcDbEntity
  8
SLD-0
 62
     7
100
AcDbLine
 10
114.1244334165
 20
128.0806259736
 30
0.0
 11
114.1244334165
 21
125.0806259736
 31
0.0
  0
MTEXT
  5
188
330
172
100
AcDbEntity
  8
SLD-0
 62
     7
100
AcDbMText
 10
109.5977397206
 20
115.2579283862
 30
0.1
 40
3.5
 41
0.0
 71
     1
 72
     1
  1
17.5
  7
SLDTEXTSTYLE0
 11
6.123031769111886E-17
 21
1.0
 31
0.0
 73
     1
 44
1.0
  0
ENDBLK
  5
17E
330
172
100
AcDbEntity
  8
0
100
AcDbBlockEnd
  0
BLOCK
  5
195
330
18A
100
AcDbEntity
  8
0
100
AcDbBlockBegin
  2
*D17
 70
     1
 71
     0
 10
0.0
 20
0.0
 30
0.0
  3
*D17
  1

  0
LINE
  5
197
330
18A
100
AcDbEntity
  8
SLD-0
 62
     7
100
AcDbLine
 10
155.38671706
 20
219.2679925158
 30
0.0
 11
175.0011847677
 21
219.2679925158
 31
0.0
  0
LINE
  5
198
330
18A
100
AcDbEntity
  8
SLD-0
 62
     7
100
AcDbLine
 10
155.38671706
 20
194.2679925158
 30
0.0
 11
175.0011847677
 21
194.2679925158
 31
0.0
  0
LINE
  5
199
330
18A
100
AcDbEntity
  8
SLD-0
 62
     7
100
AcDbLine
 10
174.0011847677
 20
219.2679925158
 30
0.0
 11
174.0011847677
 21
194.2679925158
 31
0.0
  0
LINE
  5
19A
330
18A
100
AcDbEntity
  8
SLD-0
 62
     7
100
AcDbLine
 10
173.1973377677
 20
216.2679925158
 30
0.0
 11
174.0011847677
 21
219.2679925158
 31
0.0
  0
LINE
  5
19B
330
18A
100
AcDbEntity
  8
SLD-0
 62
     7
100
AcDbLine
 10
174.0011847677
 20
219.2679925158
 30
0.0
 11
174.8050317677
 21
216.2679925158
 31
0.0
  0
LINE
  5
19C
330
18A
100
AcDbEntity
  8
SLD-0
 62
     7
100
AcDbLine
 10
174.0011847677
 20
219.2679925158
 30
0.0
 11
174.0011847677
 21
216.2679925158
 31
0.0
  0
LINE
  5
19D
330
18A
100
AcDbEntity
  8
SLD-0
 62
     7
100
AcDbLine
 10
174.8050317677
 20
197.2679925158
 30
0.0
 11
174.0011847677
 21
194.2679925158
 31
0.0
  0
LINE
  5
19E
330
18A
100
AcDbEntity
  8
SLD-0
 62
     7
100
AcDbLine
 10
174.0011847677
 20
194.2679925158
 30
0.0
 11
173.1973377677
 21
197.2679925158
 31
0.0
  0
LINE
  5
19F
330
18A
100
AcDbEntity
  8
SLD-0
 62
     7
100
AcDbLine
 10
174.0011847677
 20
194.2679925158
 30
0.0
 11
174.0011847677
 21
197.2679925158
 31
0.0
  0
MTEXT
  5
1A0
330
18A
100
AcDbEntity
  8
SLD-0
 62
     7
100
AcDbMText
 10
169.4744910717
 20
204.7325572926
 30
0.1
 40
3.5
 41
0.0
 71
     1
 72
     1
  1
25
  7
SLDTEXTSTYLE0
 11
6.123031769111886E-17
 21
1.0
 31
0.0
 73
     1
 44
1.0
  0
ENDBLK
  5
196
330
18A
100
AcDbEntity
  8
0
100
AcDbBlockEnd
  0
BLOCK
  5
1AC
330
1A2
100
AcDbEntity
  8
0
100
AcDbBlockBegin
  2
*D18
 70
     1
 71
     0
 10
0.0
 20
0.0
 30
0.0
  3
*D18
  1

  0
LINE
  5
1AE
330
1A2
100
AcDbEntity
  8
SLD-0
 62
     7
100
AcDbLine
 10
131.88671706
 20
200.7679925158
 30
0.0
 11
131.88671706
 21
177.5530891127
 31
0.0
  0
LINE
  5
1AF
330
1A2
100
AcDbEntity
  8
SLD-0
 62
     7
100
AcDbLine
 10
154.38671706
 20
193.2679925158
 30
0.0
 11
154.38671706
 21
177.5530891127
 31
0.0
  0
LINE
  5
1B0
330
1A2
100
AcDbEntity
  8
SLD-0
 62
     7
100
AcDbLine
 10
131.88671706
 20
178.5530891127
 30
0.0
 11
154.38671706
 21
178.5530891127
 31
0.0
  0
LINE
  5
1B1
330
1A2
100
AcDbEntity
  8
SLD-0
 62
     7
100
AcDbLine
 10
134.88671706
 20
177.7492421127
 30
0.0
 11
131.88671706
 21
178.5530891127
 31
0.0
  0
LINE
  5
1B2
330
1A2
100
AcDbEntity
  8
SLD-0
 62
     7
100
AcDbLine
 10
131.88671706
 20
178.5530891127
 30
0.0
 11
134.88671706
 21
179.3569361127
 31
0.0
  0
LINE
  5
1B3
330
1A2
100
AcDbEntity
  8
SLD-0
 62
     7
100
AcDbLine
 10
131.88671706
 20
178.5530891127
 30
0.0
 11
134.88671706
 21
178.5530891127
 31
0.0
  0
LINE
  5
1B4
330
1A2
100
AcDbEntity
  8
SLD-0
 62
     7
100
AcDbLine
 10
151.38671706
 20
179.3569361127
 30
0.0
 11
154.38671706
 21
178.5530891127
 31
0.0
  0
LINE
  5
1B5
330
1A2
100
AcDbEntity
  8
SLD-0
 62
     7
100
AcDbLine
 10
154.38671706
 20
178.5530891127
 30
0.0
 11
151.38671706
 21
177.7492421127
 31
0.0
  0
LINE
  5
1B6
330
1A2
100
AcDbEntity
  8
SLD-0
 62
     7
100
AcDbLine
 10
154.38671706
 20
178.5530891127
 30
0.0
 11
151.38671706
 21
178.5530891127
 31
0.0
  0
MTEXT
  5
1B7
330
1A2
100
AcDbEntity
  8
SLD-0
 62
     7
100
AcDbMText
 10
139.0640194726
 20
183.0797828087
 30
0.1
 40
3.5
 41
0.0
 71
     1
 72
     1
  1
22.5
  7
SLDTEXTSTYLE0
 73
     1
 44
1.0
  0
ENDBLK
  5
1AD
330
1A2
100
AcDbEntity
  8
0
100
AcDbBlockEnd
  0
BLOCK
  5
1C5
330
1B9
100
AcDbEntity
  8
0
100
AcDbBlockBegin
  2
*D19
 70
     1
 71
     0
 10
0.0
 20
0.0
 30
0.0
  3
*D19
  1

  0
LINE
  5
1C7
330
1B9
100
AcDbEntity
  8
SLD-0
 62
     7
100
AcDbLine
 10
150.38671706
 20
214.7679925158
 30
0.0
 11
165.0356380343
 21
214.7679925158
 31
0.0
  0
LINE
  5
1C8
330
1B9
100
AcDbEntity
  8
SLD-0
 62
     7
100
AcDbLine
 10
155.38671706
 20
219.2679925158
 30
0.0
 11
165.0356380343
 21
219.2679925158
 31
0.0
  0
LINE
  5
1C9
330
1B9
100
AcDbEntity
  8
SLD-0
 62
     7
100
AcDbLine
 10
164.0356380343
 20
214.7679925158
 30
0.0
 11
164.0356380343
 21
209.7679925158
 31
0.0
  0
LINE
  5
1CA
330
1B9
100
AcDbEntity
  8
SLD-0
 62
     7
100
AcDbLine
 10
164.0356380343
 20
214.7679925158
 30
0.0
 11
164.0356380343
 21
219.2679925158
 31
0.0
  0
LINE
  5
1CB
330
1B9
100
AcDbEntity
  8
SLD-0
 62
     7
100
AcDbLine
 10
164.0356380343
 20
219.2679925158
 30
0.0
 11
164.0356380343
 21
232.1681853776
 31
0.0
  0
LINE
  5
1CC
330
1B9
100
AcDbEntity
  8
SLD-0
 62
     7
100
AcDbLine
 10
163.2317910343
 20
211.7679925158
 30
0.0
 11
164.0356380343
 21
214.7679925158
 31
0.0
  0
LINE
  5
1CD
330
1B9
100
AcDbEntity
  8
SLD-0
 62
     7
100
AcDbLine
 10
164.0356380343
 20
214.7679925158
 30
0.0
 11
164.8394850343
 21
211.7679925158
 31
0.0
  0
LINE
  5
1CE
330
1B9
100
AcDbEntity
  8
SLD-0
 62
     7
100
AcDbLine
 10
164.0356380343
 20
214.7679925158
 30
0.0
 11
164.0356380343
 21
211.7679925158
 31
0.0
  0
LINE
  5
1CF
330
1B9
100
AcDbEntity
  8
SLD-0
 62
     7
100
AcDbLine
 10
164.8394850343
 20
222.2679925158
 30
0.0
 11
164.0356380343
 21
219.2679925158
 31
0.0
  0
LINE
  5
1D0
330
1B9
100
AcDbEntity
  8
SLD-0
 62
     7
100
AcDbLine
 10
164.0356380343
 20
219.2679925158
 30
0.0
 11
163.2317910343
 21
222.2679925158
 31
0.0
  0
LINE
  5
1D1
330
1B9
100
AcDbEntity
  8
SLD-0
 62
     7
100
AcDbLine
 10
164.0356380343
 20
219.2679925158
 30
0.0
 11
164.0356380343
 21
222.2679925158
 31
0.0
  0
MTEXT
  5
1D2
330
1B9
100
AcDbEntity
  8
SLD-0
 62
     7
100
AcDbMText
 10
159.5089443384
 20
224.4707254259
 30
0.1
 40
3.5
 41
0.0
 71
     1
 72
     1
  1
4.5
  7
SLDTEXTSTYLE0
 11
6.123031769111886E-17
 21
1.0
 31
0.0
 73
     1
 44
1.0
  0
ENDBLK
  5
1C6
330
1B9
100
AcDbEntity
  8
0
100
AcDbBlockEnd
  0
BLOCK
  5
1DF
330
1D4
100
AcDbEntity
  8
0
100
AcDbBlockBegin
  2
*D20
 70
     1
 71
     0
 10
0.0
 20
0.0
 30
0.0
  3
*D20
  1

  0
ARC
  5
1E1
330
1D4
100
AcDbEntity
  8
SLD-0
 62
     7
100
AcDbCircle
 10
162.0002028112
 20
202.9286653746
 30
0.0
 40
4.55137152279999
100
AcDbArc
 50
243.4349488229
 51
296.5650511771
  0
ARC
  5
1E2
330
1D4
100
AcDbEntity
  8
SLD-0
 62
     7
100
AcDbCircle
 10
162.0002028112
 20
206.1073196569
 30
0.0
 40
4.55137152279999
100
AcDbArc
 50
63.4349488229
 51
116.5650511771
  0
LINE
  5
1E3
330
1D4
100
AcDbEntity
  8
SLD-0
 62
     7
100
AcDbLine
 10
150.38671706
 20
194.2679925158
 30
0.0
 11
165.0356380343
 21
194.2679925158
 31
0.0
  0
LINE
  5
1E4
330
1D4
100
AcDbEntity
  8
SLD-0
 62
     7
100
AcDbLine
 10
150.38671706
 20
214.7679925158
 30
0.0
 11
165.0356380343
 21
214.7679925158
 31
0.0
  0
LINE
  5
1E5
330
1D4
100
AcDbEntity
  8
SLD-0
 62
     7
100
AcDbLine
 10
164.0356380343
 20
194.2679925158
 30
0.0
 11
164.0356380343
 21
214.7679925158
 31
0.0
  0
LINE
  5
1E6
330
1D4
100
AcDbEntity
  8
SLD-0
 62
     7
100
AcDbLine
 10
164.8394850343
 20
197.2679925158
 30
0.0
 11
164.0356380343
 21
194.2679925158
 31
0.0
  0
LINE
  5
1E7
330
1D4
100
AcDbEntity
  8
SLD-0
 62
     7
100
AcDbLine
 10
164.0356380343
 20
194.2679925158
 30
0.0
 11
163.2317910343
 21
197.2679925158
 31
0.0
  0
LINE
  5
1E8
330
1D4
100
AcDbEntity
  8
SLD-0
 62
     7
100
AcDbLine
 10
164.0356380343
 20
194.2679925158
 30
0.0
 11
164.0356380343
 21
197.2679925158
 31
0.0
  0
LINE
  5
1E9
330
1D4
100
AcDbEntity
  8
SLD-0
 62
     7
100
AcDbLine
 10
163.2317910343
 20
211.7679925158
 30
0.0
 11
164.0356380343
 21
214.7679925158
 31
0.0
  0
LINE
  5
1EA
330
1D4
100
AcDbEntity
  8
SLD-0
 62
     7
100
AcDbLine
 10
164.0356380343
 20
214.7679925158
 30
0.0
 11
164.8394850343
 21
211.7679925158
 31
0.0
  0
LINE
  5
1EB
330
1D4
100
AcDbEntity
  8
SLD-0
 62
     7
100
AcDbLine
 10
164.0356380343
 20
214.7679925158
 30
0.0
 11
164.0356380343
 21
211.7679925158
 31
0.0
  0
MTEXT
  5
1EC
330
1D4
100
AcDbEntity
  8
SLD-0
 62
     7
100
AcDbMText
 10
159.5089443384
 20
200.4452949283
 30
0.1
 40
3.5
 41
0.0
 71
     1
 72
     1
  1
20.5
  7
SLDTEXTSTYLE0
 11
6.123031769111886E-17
 21
1.0
 31
0.0
 73
     1
 44
1.0
  0
ENDBLK
  5
1E0
330
1D4
100
AcDbEntity
  8
0
100
AcDbBlockEnd
  0
BLOCK
  5
1F5
330
1EE
100
AcDbEntity
  8
0
100
AcDbBlockBegin
  2
*D21
 70
     1
 71
     0
 10
0.0
 20
0.0
 30
0.0
  3
*D21
  1

  0
LINE
  5
1F7
330
1EE
100
AcDbEntity
  8
SLD-0
 62
     7
100
AcDbLine
 10
132.8551256654
 20
204.8703601234
 30
0.0
 11
138.6326794443
 21
223.3791750978
 31
0.0
  0
LINE
  5
1F8
330
1EE
100
AcDbEntity
  8
SLD-0
 62
     7
100
AcDbLine
 10
138.6326794443
 20
223.3791750978
 30
0.0
 11
153.3750243177
 21
223.3791750978
 31
0.0
  0
LINE
  5
1F9
330
1EE
100
AcDbEntity
  8
SLD-0
 62
     7
100
AcDbLine
 10
134.5163732686
 20
207.4945602683
 30
0.0
 11
132.8551256654
 21
204.8703601234
 31
0.0
  0
LINE
  5
1FA
330
1EE
100
AcDbEntity
  8
SLD-0
 62
     7
100
AcDbLine
 10
132.8551256654
 20
204.8703601234
 30
0.0
 11
132.9817093336
 21
207.9736078696
 31
0.0
  0
LINE
  5
1FB
330
1EE
100
AcDbEntity
  8
SLD-0
 62
     7
100
AcDbLine
 10
132.8551256654
 20
204.8703601234
 30
0.0
 11
133.7490413011
 21
207.7340840689
 31
0.0
  0
MTEXT
  5
1FC
330
1EE
100
AcDbEntity
  8
SLD-0
 62
     7
100
AcDbMText
 10
140.0576794443
 20
227.9058685609
 30
0.1
 40
3.5
 41
0.0
 71
     1
 72
     1
  1
%%c
  7
SLDTEXTSTYLE0
 73
     1
 44
1.0
  0
MTEXT
  5
1FD
330
1EE
100
AcDbEntity
  8
SLD-0
 62
     7
100
AcDbMText
 10
145.6775643659
 20
227.9058687937
 30
0.1
 40
3.5
 41
0.0
 71
     1
 72
     1
  1
6.5
  7
SLDTEXTSTYLE0
 73
     1
 44
1.0
  0
ENDBLK
  5
1F6
330
1EE
100
AcDbEntity
  8
0
100
AcDbBlockEnd
  0
BLOCK
  5
20A
330
1FF
100
AcDbEntity
  8
0
100
AcDbBlockBegin
  2
*D22
 70
     1
 71
     0
 10
0.0
 20
0.0
 30
0.0
  3
*D22
  1

  0
LINE
  5
20C
330
1FF
100
AcDbEntity
  8
SLD-0
 62
     7
100
AcDbLine
 10
123.38671706
 20
219.2679925158
 30
0.0
 11
113.1579722797
 21
219.2679925158
 31
0.0
  0
LINE
  5
20D
330
1FF
100
AcDbEntity
  8
SLD-0
 62
     7
100
AcDbLine
 10
125.13671706
 20
201.7679925158
 30
0.0
 11
113.1579722797
 21
201.7679925158
 31
0.0
  0
LINE
  5
20E
330
1FF
100
AcDbEntity
  8
SLD-0
 62
     7
100
AcDbLine
 10
114.1579722797
 20
219.2679925158
 30
0.0
 11
114.1579722797
 21
201.7679925158
 31
0.0
  0
LINE
  5
20F
330
1FF
100
AcDbEntity
  8
SLD-0
 62
     7
100
AcDbLine
 10
113.3541252797
 20
216.2679925158
 30
0.0
 11
114.1579722797
 21
219.2679925158
 31
0.0
  0
LINE
  5
210
330
1FF
100
AcDbEntity
  8
SLD-0
 62
     7
100
AcDbLine
 10
114.1579722797
 20
219.2679925158
 30
0.0
 11
114.9618192797
 21
216.2679925158
 31
0.0
  0
LINE
  5
211
330
1FF
100
AcDbEntity
  8
SLD-0
 62
     7
100
AcDbLine
 10
114.1579722797
 20
219.2679925158
 30
0.0
 11
114.1579722797
 21
216.2679925158
 31
0.0
  0
LINE
  5
212
330
1FF
100
AcDbEntity
  8
SLD-0
 62
     7
100
AcDbLine
 10
114.9618192797
 20
204.7679925158
 30
0.0
 11
114.1579722797
 21
201.7679925158
 31
0.0
  0
LINE
  5
213
330
1FF
100
AcDbEntity
  8
SLD-0
 62
     7
100
AcDbLine
 10
114.1579722797
 20
201.7679925158
 30
0.0
 11
113.3541252797
 21
204.7679925158
 31
0.0
  0
LINE
  5
214
330
1FF
100
AcDbEntity
  8
SLD-0
 62
     7
100
AcDbLine
 10
114.1579722797
 20
201.7679925158
 30
0.0
 11
114.1579722797
 21
204.7679925158
 31
0.0
  0
MTEXT
  5
215
330
1FF
100
AcDbEntity
  8
SLD-0
 62
     7
100
AcDbMText
 10
109.6312785837
 20
206.4452949283
 30
0.1
 40
3.5
 41
0.0
 71
     1
 72
     1
  1
17.5
  7
SLDTEXTSTYLE0
 11
6.123031769111886E-17
 21
1.0
 31
0.0
 73
     1
 44
1.0
  0
ENDBLK
  5
20B
330
1FF
100
AcDbEntity
  8
0
100
AcDbBlockEnd
  0
BLOCK
  5
221
330
217
100
AcDbEntity
  8
0
100
AcDbBlockBegin
  2
*D23
 70
     1
 71
     0
 10
0.0
 20
0.0
 30
0.0
  3
*D23
  1

  0
LINE
  5
223
330
217
100
AcDbEntity
  8
SLD-0
 62
     7
100
AcDbLine
 10
56.0133552575
 20
124.0806259736
 30
0.0
 11
56.0133552575
 21
150.4634735713
 31
0.0
  0
LINE
  5
224
330
217
100
AcDbEntity
  8
SLD-0
 62
     7
100
AcDbLine
 10
43.5133552575
 20
136.5806259736
 30
0.0
 11
43.5133552575
 21
150.4634735713
 31
0.0
  0
LINE
  5
225
330
217
100
AcDbEntity
  8
SLD-0
 62
     7
100
AcDbLine
 10
56.0133552575
 20
149.4634735713
 30
0.0
 11
61.0133552575
 21
149.4634735713
 31
0.0
  0
LINE
  5
226
330
217
100
AcDbEntity
  8
SLD-0
 62
     7
100
AcDbLine
 10
56.0133552575
 20
149.4634735713
 30
0.0
 11
43.5133552575
 21
149.4634735713
 31
0.0
  0
LINE
  5
227
330
217
100
AcDbEntity
  8
SLD-0
 62
     7
100
AcDbLine
 10
43.5133552575
 20
149.4634735713
 30
0.0
 11
38.5133552575
 21
149.4634735713
 31
0.0
  0
LINE
  5
228
330
217
100
AcDbEntity
  8
SLD-0
 62
     7
100
AcDbLine
 10
59.0133552575
 20
148.6596265713
 30
0.0
 11
56.0133552575
 21
149.4634735713
 31
0.0
  0
LINE
  5
229
330
217
100
AcDbEntity
  8
SLD-0
 62
     7
100
AcDbLine
 10
56.0133552575
 20
149.4634735713
 30
0.0
 11
59.0133552575
 21
150.2673205713
 31
0.0
  0
LINE
  5
22A
330
217
100
AcDbEntity
  8
SLD-0
 62
     7
100
AcDbLine
 10
56.0133552575
 20
149.4634735713
 30
0.0
 11
59.0133552575
 21
149.4634735713
 31
0.0
  0
LINE
  5
22B
330
217
100
AcDbEntity
  8
SLD-0
 62
     7
100
AcDbLine
 10
40.5133552575
 20
150.2673205713
 30
0.0
 11
43.5133552575
 21
149.4634735713
 31
0.0
  0
LINE
  5
22C
330
217
100
AcDbEntity
  8
SLD-0
 62
     7
100
AcDbLine
 10
43.5133552575
 20
149.4634735713
 30
0.0
 11
40.5133552575
 21
148.6596265713
 31
0.0
  0
LINE
  5
22D
330
217
100
AcDbEntity
  8
SLD-0
 62
     7
100
AcDbLine
 10
43.5133552575
 20
149.4634735713
 30
0.0
 11
40.5133552575
 21
149.4634735713
 31
0.0
  0
MTEXT
  5
22E
330
217
100
AcDbEntity
  8
SLD-0
 62
     7
100
AcDbMText
 10
45.6906576701
 20
153.9901672673
 30
0.1
 40
3.5
 41
0.0
 71
     1
 72
     1
  1
12.5
  7
SLDTEXTSTYLE0
 73
     1
 44
1.0
  0
ENDBLK
  5
222
330
217
100
AcDbEntity
  8
0
100
AcDbBlockEnd
  0
BLOCK
  5
237
330
230
100
AcDbEntity
  8
0
100
AcDbBlockBegin
  2
*D24
 70
     1
 71
     0
 10
0.0
 20
0.0
 30
0.0
  3
*D24
  1

  0
LINE
  5
239
330
230
100
AcDbEntity
  8
SLD-0
 62
     7
100
AcDbLine
 10
57.1524990601
 20
126.1244478142
 30
0.0
 11
64.3643820332
 21
145.3947865144
 31
0.0
  0
LINE
  5
23A
330
230
100
AcDbEntity
  8
SLD-0
 62
     7
100
AcDbLine
 10
64.3643820332
 20
145.3947865144
 30
0.0
 11
79.1067269066
 21
145.3947865144
 31
0.0
  0
LINE
  5
23B
330
230
100
AcDbEntity
  8
SLD-0
 62
     7
100
AcDbLine
 10
58.9568678179
 20
128.6523764891
 30
0.0
 11
57.1524990601
 21
126.1244478142
 31
0.0
  0
LINE
  5
23C
330
230
100
AcDbEntity
  8
SLD-0
 62
     7
100
AcDbLine
 10
57.1524990601
 20
126.1244478142
 30
0.0
 11
57.4511650148
 21
129.2158825373
 31
0.0
  0
LINE
  5
23D
330
230
100
AcDbEntity
  8
SLD-0
 62
     7
100
AcDbLine
 10
57.1524990601
 20
126.1244478142
 30
0.0
 11
58.2040164164
 21
128.9341295132
 31
0.0
  0
MTEXT
  5
23E
330
230
100
AcDbEntity
  8
SLD-0
 62
     7
100
AcDbMText
 10
65.7893820332
 20
149.9214799776
 30
0.1
 40
3.5
 41
0.0
 71
     1
 72
     1
  1
%%c
  7
SLDTEXTSTYLE0
 73
     1
 44
1.0
  0
MTEXT
  5
23F
330
230
100
AcDbEntity
  8
SLD-0
 62
     7
100
AcDbMText
 10
71.4092669548
 20
149.9214802104
 30
0.1
 40
3.5
 41
0.0
 71
     1
 72
     1
  1
6.5
  7
SLDTEXTSTYLE0
 73
     1
 44
1.0
  0
ENDBLK
  5
238
330
230
100
AcDbEntity
  8
0
100
AcDbBlockEnd
  0
BLOCK
  5
248
330
241
100
AcDbEntity
  8
0
100
AcDbBlockBegin
  2
*D25
 70
     1
 71
     0
 10
0.0
 20
0.0
 30
0.0
  3
*D25
  1

  0
LINE
  5
24B
330
241
100
AcDbEntity
  8
SLD-0
 62
     7
100
AcDbLine
 10
49.1519908327
 20
116.9041712237
 30
0.0
 11
67.5245039006
 21
131.9948002795
 31
0.0
  0
LINE
  5
24C
330
241
100
AcDbEntity
  8
SLD-0
 62
     7
100
AcDbLine
 10
51.9804479337
 20
118.1871367055
 30
0.0
 11
49.1519908327
 21
116.9041712237
 31
0.0
  0
LINE
  5
24D
330
241
100
AcDbEntity
  8
SLD-0
 62
     7
100
AcDbLine
 10
49.1519908327
 20
116.9041712237
 30
0.0
 11
50.9600247015
 21
119.4294798244
 31
0.0
  0
LINE
  5
24E
330
241
100
AcDbEntity
  8
SLD-0
 62
     7
100
AcDbLine
 10
49.1519908327
 20
116.9041712237
 30
0.0
 11
51.4702363176
 21
118.8083082649
 31
0.0
  0
MTEXT
  5
24F
330
241
100
AcDbEntity
  8
SLD-0
 62
     7
100
AcDbMText
 10
60.2789302934
 20
131.8959315432
 30
0.1
 40
3.5
 41
0.0
 71
     1
 72
     1
  1
R
  7
SLDTEXTSTYLE0
 11
0.7722728849775555
 21
0.6352909499815367
 31
0.0
 73
     1
 44
1.0
  0
MTEXT
  5
250
330
241
100
AcDbEntity
  8
SLD-0
 62
     7
100
AcDbMText
 10
61.8508417254
 20
133.1890251198
 30
0.1
 40
3.5
 41
0.0
 71
     1
 72
     1
  1
5
  7
SLDTEXTSTYLE0
 11
0.7722728849775555
 21
0.6352909499815367
 31
0.0
 73
     1
 44
1.0
  0
ENDBLK
  5
249
330
241
100
AcDbEntity
  8
0
100
AcDbBlockEnd
  0
BLOCK
  5
25D
330
252
100
AcDbEntity
  8
0
100
AcDbBlockBegin
  2
*D26
 70
     1
 71
     0
 10
0.0
 20
0.0
 30
0.0
  3
*D26
  1

  0
LINE
  5
25F
330
252
100
AcDbEntity
  8
SLD-0
 62
     7
100
AcDbLine
 10
69.5133552575
 20
110.5806259736
 30
0.0
 11
80.8949468107
 21
110.5806259736
 31
0.0
  0
LINE
  5
260
330
252
100
AcDbEntity
  8
SLD-0
 62
     7
100
AcDbLine
 10
62.7633552575
 20
123.0806259736
 30
0.0
 11
80.8949468107
 21
123.0806259736
 31
0.0
  0
LINE
  5
261
330
252
100
AcDbEntity
  8
SLD-0
 62
     7
100
AcDbLine
 10
79.8949468107
 20
110.5806259736
 30
0.0
 11
79.8949468107
 21
105.5806259736
 31
0.0
  0
LINE
  5
262
330
252
100
AcDbEntity
  8
SLD-0
 62
     7
100
AcDbLine
 10
79.8949468107
 20
110.5806259736
 30
0.0
 11
79.8949468107
 21
123.0806259736
 31
0.0
  0
LINE
  5
263
330
252
100
AcDbEntity
  8
SLD-0
 62
     7
100
AcDbLine
 10
79.8949468107
 20
123.0806259736
 30
0.0
 11
79.8949468107
 21
128.0806259736
 31
0.0
  0
LINE
  5
264
330
252
100
AcDbEntity
  8
SLD-0
 62
     7
100
AcDbLine
 10
79.0910998107
 20
107.5806259736
 30
0.0
 11
79.8949468107
 21
110.5806259736
 31
0.0
  0
LINE
  5
265
330
252
100
AcDbEntity
  8
SLD-0
 62
     7
100
AcDbLine
 10
79.8949468107
 20
110.5806259736
 30
0.0
 11
80.6987938107
 21
107.5806259736
 31
0.0
  0
LINE
  5
266
330
252
100
AcDbEntity
  8
SLD-0
 62
     7
100
AcDbLine
 10
79.8949468107
 20
110.5806259736
 30
0.0
 11
79.8949468107
 21
107.5806259736
 31
0.0
  0
LINE
  5
267
330
252
100
AcDbEntity
  8
SLD-0
 62
     7
100
AcDbLine
 10
80.6987938107
 20
126.0806259736
 30
0.0
 11
79.8949468107
 21
123.0806259736
 31
0.0
  0
LINE
  5
268
330
252
100
AcDbEntity
  8
SLD-0
 62
     7
100
AcDbLine
 10
79.8949468107
 20
123.0806259736
 30
0.0
 11
79.0910998107
 21
126.0806259736
 31
0.0
  0
LINE
  5
269
330
252
100
AcDbEntity
  8
SLD-0
 62
     7
100
AcDbLine
 10
79.8949468107
 20
123.0806259736
 30
0.0
 11
79.8949468107
 21
126.0806259736
 31
0.0
  0
MTEXT
  5
26A
330
252
100
AcDbEntity
  8
SLD-0
 62
     7
100
AcDbMText
 10
75.3682531147
 20
112.7579283862
 30
0.1
 40
3.5
 41
0.0
 71
     1
 72
     1
  1
12.5
  7
SLDTEXTSTYLE0
 11
6.123031769111886E-17
 21
1.0
 31
0.0
 73
     1
 44
1.0
  0
ENDBLK
  5
25E
330
252
100
AcDbEntity
  8
0
100
AcDbBlockEnd
  0
ENDSEC
  0
SECTION
  2
ENTITIES
  0
LINE
  5
65
330
1F
100
AcDbEntity
  8
SLD-0
  6
Continuous
 62
   179
100
AcDbLine
 10
20.2604743903
 20
285.0
 30
0.0
 11
196.7604743903
 21
285.0
 31
0.0
  0
LINE
  5
66
330
1F
100
AcDbEntity
  8
SLD-0
  6
Continuous
 62
   179
100
AcDbLine
 10
20.2604743903
 20
285.0
 30
0.0
 11
20.2604743903
 21
10.0
 31
0.0
  0
LINE
  5
67
330
1F
100
AcDbEntity
  8
SLD-0
  6
Continuous
 62
   179
100
AcDbLine
 10
20.2604743903
 20
10.0
 30
0.0
 11
196.7604743903
 21
10.0
 31
0.0
  0
LINE
  5
68
330
1F
100
AcDbEntity
  8
SLD-0
  6
Continuous
 62
   179
100
AcDbLine
 10
196.7604743903
 20
285.0
 30
0.0
 11
196.7604743903
 21
10.0
 31
0.0
  0
LINE
  5
69
330
1F
100
AcDbEntity
  8
SLD-0
  6
Continuous
 62
   179
100
AcDbLine
 10
65.7604743903
 20
285.0
 30
0.0
 11
196.7604743903
 21
285.0
 31
0.0
  0
LINE
  5
6A
330
1F
100
AcDbEntity
  8
SLD-0
  6
Continuous
 62
   179
100
AcDbLine
 10
196.7604743903
 20
285.0
 30
0.0
 11
196.7604743903
 21
264.25
 31
0.0
  0
LINE
  5
6B
330
1F
100
AcDbEntity
  8
SLD-0
  6
Continuous
 62
   179
100
AcDbLine
 10
127.0104743903
 20
50.75
 30
0.0
 11
196.7604743903
 21
50.75
 31
0.0
  0
LINE
  5
6C
330
1F
100
AcDbEntity
  8
SLD-0
  6
Continuous
 62
   179
100
AcDbLine
 10
127.0104743903
 20
50.75
 30
0.0
 11
127.0104743903
 21
10.0
 31
0.0
  0
LINE
  5
6D
330
1F
100
AcDbEntity
  8
SLD-0
  6
Continuous
 62
   179
100
AcDbLine
 10
127.0104743903
 20
22.75
 30
0.0
 11
196.7604743903
 21
22.75
 31
0.0
  0
LINE
  5
6E
330
1F
100
AcDbEntity
  8
SLD-0
  6
Continuous
 62
   179
100
AcDbLine
 10
127.0104743903
 20
36.75
 30
0.0
 11
196.7604743903
 21
36.75
 31
0.0
  0
LINE
  5
6F
330
1F
100
AcDbEntity
  8
SLD-0
  6
Continuous
 62
   179
100
AcDbLine
 10
149.3867171718
 20
115.0806257799
 30
0.0
 11
149.3867171718
 21
135.5806263462
 31
0.0
  0
LINE
  5
70
330
1F
100
AcDbEntity
  8
SLD-0
  6
Continuous
 62
   179
100
AcDbLine
 10
129.3867166875
 20
115.0806257799
 30
0.0
 11
129.3867166875
 21
110.5806259736
 31
0.0
  0
LINE
  5
71
330
1F
100
AcDbEntity
  8
SLD-0
  6
Continuous
 62
   179
100
AcDbLine
 10
129.3867166875
 20
115.0806257799
 30
0.0
 11
149.3867171718
 21
115.0806257799
 31
0.0
  0
LINE
  5
72
330
1F
100
AcDbEntity
  8
SLD-0
  6
Continuous
 62
   179
100
AcDbLine
 10
129.3867166875
 20
110.5806259736
 30
0.0
 11
154.38671706
 21
110.5806259736
 31
0.0
  0
LINE
  5
73
330
1F
100
AcDbEntity
  8
SLD-0
  6
Continuous
 62
   179
100
AcDbLine
 10
154.38671706
 20
135.5806263462
 30
0.0
 11
149.3867171718
 21
135.5806263462
 31
0.0
  0
LINE
  5
74
330
1F
100
AcDbEntity
  8
SLD-0
  6
Continuous
 62
   179
100
AcDbLine
 10
154.38671706
 20
110.5806259736
 30
0.0
 11
154.38671706
 21
135.5806263462
 31
0.0
  0
LINE
  5
75
330
1F
100
AcDbEntity
  8
SLD-0
  6
Continuous
 62
   179
100
AcDbLine
 10
124.3867177306
 20
110.5806259736
 30
0.0
 11
124.38671706
 21
115.0806259736
 31
0.0
  0
LINE
  5
76
330
1F
100
AcDbEntity
  8
SLD-0
  6
Continuous
 62
   179
100
AcDbLine
 10
124.38671706
 20
115.0806259736
 30
0.0
 11
129.3867166875
 21
115.0806257799
 31
0.0
  0
LINE
  5
77
330
1F
100
AcDbEntity
  8
SLD-0
  6
Continuous
 62
   179
100
AcDbLine
 10
129.3867166875
 20
110.5806259736
 30
0.0
 11
124.3867177306
 21
110.5806259736
 31
0.0
  0
LINE
  5
78
330
1F
100
AcDbEntity
  8
SLD-0
  6
Continuous
 62
   179
100
AcDbLine
 10
124.38671706
 20
115.0806259736
 30
0.0
 11
124.38671706
 21
120.0806259736
 31
0.0
  0
LINE
  5
79
330
1F
100
AcDbEntity
  8
SLD-0
  6
Continuous
 62
   179
100
AcDbLine
 10
129.3867166875
 20
135.5806263462
 30
0.0
 11
124.3867177306
 21
130.5806255266
 31
0.0
  0
LINE
  5
7A
330
1F
100
AcDbEntity
  8
SLD-0
  6
Continuous
 62
   179
100
AcDbLine
 10
124.3867177306
 20
130.5806255266
 30
0.0
 11
124.38671706
 21
120.0806259736
 31
0.0
  0
LINE
  5
7B
330
1F
100
AcDbEntity
  8
SLD-0
  6
Continuous
 62
   179
100
AcDbLine
 10
149.3867171718
 20
135.5806263462
 30
0.0
 11
129.3867166875
 21
135.5806263462
 31
0.0
  0
LINE
  5
7C
330
1F
100
AcDbEntity
  8
SLD-0
  6
HIDDEN
 62
     8
100
AcDbLine
 10
128.6367170302
 20
115.0806257799
 30
0.0
 11
128.6367170302
 21
110.5806259736
 31
0.0
  0
LINE
  5
7D
330
1F
100
AcDbEntity
  8
SLD-0
  6
HIDDEN
 62
     8
100
AcDbLine
 10
135.1367171644
 20
110.5806259736
 30
0.0
 11
135.1367171644
 21
115.0806257799
 31
0.0
  0
LINE
  5
7E
330
1F
100
AcDbEntity
  8
SLD-0
  6
HIDDEN
 62
     8
100
AcDbLine
 10
149.3867171718
 20
119.8306260928
 30
0.0
 11
154.38671706
 21
119.8306260928
 31
0.0
  0
LINE
  5
7F
330
1F
100
AcDbEntity
  8
SLD-0
  6
HIDDEN
 62
     8
100
AcDbLine
 10
154.38671706
 20
126.330626227
 30
0.0
 11
149.3867171718
 21
126.330626227
 31
0.0
  0
LINE
  5
80
330
1F
100
AcDbEntity
  8
SLD-0
 62
   179
100
AcDbLine
 10
126.88671706
 20
133.0806259736
 30
0.0
 11
115.9558973666
 21
143.6064734992
 31
0.0
  0
LINE
  5
81
330
1F
100
AcDbEntity
  8
SLD-0
 62
   179
100
AcDbLine
 10
115.9558973666
 20
143.6064734992
 30
0.0
 11
121.1653297048
 21
138.5701600421
 31
0.0
  0
LINE
  5
82
330
1F
100
AcDbEntity
  8
SLD-0
  6
CENTERX2
 62
   179
100
AcDbLine
 10
156.38671706
 20
123.0806259736
 30
0.0
 11
147.38671706
 21
123.0806259736
 31
0.0
  0
LINE
  5
83
330
1F
100
AcDbEntity
  8
SLD-0
  6
CENTERX2
 62
   179
100
AcDbLine
 10
131.88671706
 20
108.5806259736
 30
0.0
 11
131.88671706
 21
117.0806259736
 31
0.0
  0
LINE
  5
84
330
1F
100
AcDbEntity
  8
SLD-0
  6
Continuous
 62
   179
100
AcDbLine
 10
154.38671706
 20
194.2679921432
 30
0.0
 11
149.3867171718
 21
194.2679921432
 31
0.0
  0
LINE
  5
85
330
1F
100
AcDbEntity
  8
SLD-0
  6
Continuous
 62
   179
100
AcDbLine
 10
149.3867171718
 20
214.7679927095
 30
0.0
 11
149.3867171718
 21
194.2679921432
 31
0.0
  0
LINE
  5
86
330
1F
100
AcDbEntity
  8
SLD-0
  6
Continuous
 62
   179
100
AcDbLine
 10
149.3867171718
 20
214.7679927095
 30
0.0
 11
129.3867166875
 21
214.7679927095
 31
0.0
  0
LINE
  5
87
330
1F
100
AcDbEntity
  8
SLD-0
  6
Continuous
 62
   179
100
AcDbLine
 10
129.3867166875
 20
219.2679925158
 30
0.0
 11
129.3867166875
 21
214.7679927095
 31
0.0
  0
LINE
  5
88
330
1F
100
AcDbEntity
  8
SLD-0
  6
Continuous
 62
   179
100
AcDbLine
 10
154.38671706
 20
219.2679925158
 30
0.0
 11
129.3867166875
 21
219.2679925158
 31
0.0
  0
LINE
  5
89
330
1F
100
AcDbEntity
  8
SLD-0
  6
Continuous
 62
   179
100
AcDbLine
 10
154.38671706
 20
194.2679921432
 30
0.0
 11
154.38671706
 21
219.2679925158
 31
0.0
  0
LINE
  5
8A
330
1F
100
AcDbEntity
  8
SLD-0
  6
Continuous
 62
   179
100
AcDbLine
 10
124.38671706
 20
214.7679925158
 30
0.0
 11
124.3867177306
 21
219.2679925158
 31
0.0
  0
LINE
  5
8B
330
1F
100
AcDbEntity
  8
SLD-0
  6
Continuous
 62
   179
100
AcDbLine
 10
129.3867166875
 20
214.7679927095
 30
0.0
 11
124.38671706
 21
214.7679925158
 31
0.0
  0
LINE
  5
8C
330
1F
100
AcDbEntity
  8
SLD-0
  6
Continuous
 62
   179
100
AcDbLine
 10
124.3867177306
 20
219.2679925158
 30
0.0
 11
129.3867166875
 21
219.2679925158
 31
0.0
  0
LINE
  5
8D
330
1F
100
AcDbEntity
  8
SLD-0
  6
Continuous
 62
   179
100
AcDbLine
 10
124.38671706
 20
209.7679925158
 30
0.0
 11
124.38671706
 21
214.7679925158
 31
0.0
  0
LINE
  5
8E
330
1F
100
AcDbEntity
  8
SLD-0
  6
Continuous
 62
   179
100
AcDbLine
 10
124.3867177306
 20
199.2679929628
 30
0.0
 11
129.3867166875
 21
194.2679921432
 31
0.0
  0
LINE
  5
8F
330
1F
100
AcDbEntity
  8
SLD-0
  6
Continuous
 62
   179
100
AcDbLine
 10
124.38671706
 20
209.7679925158
 30
0.0
 11
124.3867177306
 21
199.2679929628
 31
0.0
  0
LINE
  5
90
330
1F
100
AcDbEntity
  8
SLD-0
  6
Continuous
 62
   179
100
AcDbLine
 10
129.3867166875
 20
194.2679921432
 30
0.0
 11
149.3867171718
 21
194.2679921432
 31
0.0
  0
LINE
  5
91
330
1F
100
AcDbEntity
  8
SLD-0
 62
   179
100
AcDbLine
 10
126.88671706
 20
196.7679925158
 30
0.0
 11
118.9621538788
 21
189.8860353532
 31
0.0
  0
LINE
  5
92
330
1F
100
AcDbEntity
  8
SLD-0
 62
   179
100
AcDbLine
 10
118.9621538788
 20
189.8860353532
 30
0.0
 11
124.4680882253
 21
194.5963777502
 31
0.0
  0
LINE
  5
93
330
1F
100
AcDbEntity
  8
SLD-0
  6
CENTERX2
 62
   179
100
AcDbLine
 10
156.38671706
 20
206.7679925158
 30
0.0
 11
147.38671706
 21
206.7679925158
 31
0.0
  0
LINE
  5
94
330
1F
100
AcDbEntity
  8
SLD-0
  6
CENTERX2
 62
   179
100
AcDbLine
 10
131.88671706
 20
221.2679925158
 30
0.0
 11
131.88671706
 21
212.7679925158
 31
0.0
  0
LINE
  5
95
330
1F
100
AcDbEntity
  8
SLD-0
  6
Continuous
 62
   179
100
AcDbLine
 10
48.0133550638
 20
130.5806255266
 30
0.0
 11
43.5133552575
 21
130.5806255266
 31
0.0
  0
LINE
  5
96
330
1F
100
AcDbEntity
  8
SLD-0
  6
Continuous
 62
   179
100
AcDbLine
 10
43.5133552575
 20
130.5806255266
 30
0.0
 11
43.5133552575
 21
135.5806263462
 31
0.0
  0
LINE
  5
97
330
1F
100
AcDbEntity
  8
SLD-0
  6
Continuous
 62
   179
100
AcDbLine
 10
43.5133552575
 20
135.5806263462
 30
0.0
 11
48.0133550638
 21
135.5806263462
 31
0.0
  0
LINE
  5
98
330
1F
100
AcDbEntity
  8
SLD-0
  6
Continuous
 62
   179
100
AcDbLine
 10
48.0133550638
 20
135.5806263462
 30
0.0
 11
48.0133550638
 21
130.5806255266
 31
0.0
  0
LINE
  5
99
330
1F
100
AcDbEntity
  8
SLD-0
  6
Continuous
 62
   179
100
AcDbLine
 10
43.5133552575
 20
130.5806255266
 30
0.0
 11
43.5133552575
 21
110.5806259736
 31
0.0
  0
LINE
  5
9A
330
1F
100
AcDbEntity
  8
SLD-0
  6
Continuous
 62
   179
100
AcDbLine
 10
48.0133550638
 20
130.5806255266
 30
0.0
 11
48.0133552575
 21
120.0806259736
 31
0.0
  0
LINE
  5
9B
330
1F
100
AcDbEntity
  8
SLD-0
  6
Continuous
 62
   179
100
AcDbLine
 10
53.0133552575
 20
115.0806259736
 30
0.0
 11
63.5133548105
 21
115.0806257799
 31
0.0
  0
LINE
  5
9C
330
1F
100
AcDbEntity
  8
SLD-0
  6
Continuous
 62
   179
100
AcDbLine
 10
63.5133548105
 20
110.5806259736
 30
0.0
 11
63.5133548105
 21
115.0806257799
 31
0.0
  0
LINE
  5
9D
330
1F
100
AcDbEntity
  8
SLD-0
  6
Continuous
 62
   179
100
AcDbLine
 10
63.5133548105
 20
110.5806259736
 30
0.0
 11
43.5133552575
 21
110.5806259736
 31
0.0
  0
LINE
  5
9E
330
1F
100
AcDbEntity
  8
SLD-0
  6
Continuous
 62
   179
100
AcDbLine
 10
68.51335563
 20
115.0806257799
 30
0.0
 11
68.51335563
 21
110.5806259736
 31
0.0
  0
LINE
  5
9F
330
1F
100
AcDbEntity
  8
SLD-0
  6
Continuous
 62
   179
100
AcDbLine
 10
63.5133548105
 20
115.0806257799
 30
0.0
 11
68.51335563
 21
115.0806257799
 31
0.0
  0
LINE
  5
A0
330
1F
100
AcDbEntity
  8
SLD-0
  6
Continuous
 62
   179
100
AcDbLine
 10
68.51335563
 20
110.5806259736
 30
0.0
 11
63.5133548105
 21
110.5806259736
 31
0.0
  0
LINE
  5
A1
330
1F
100
AcDbEntity
  8
SLD-0
  6
Continuous
 62
   179
100
AcDbLine
 10
68.51335563
 20
115.0806257799
 30
0.0
 11
68.51335563
 21
135.5806263462
 31
0.0
  0
LINE
  5
A2
330
1F
100
AcDbEntity
  8
SLD-0
  6
Continuous
 62
   179
100
AcDbLine
 10
48.0133550638
 20
135.5806263462
 30
0.0
 11
68.51335563
 21
135.5806263462
 31
0.0
  0
LINE
  5
A3
330
1F
100
AcDbEntity
  8
SLD-0
  6
CENTERX2
 62
   179
100
AcDbLine
 10
41.5133552575
 20
128.0806259736
 30
0.0
 11
50.0133552575
 21
128.0806259736
 31
0.0
  0
LINE
  5
A4
330
1F
100
AcDbEntity
  8
SLD-0
  6
CENTERX2
 62
   179
100
AcDbLine
 10
61.0133552575
 20
108.5806259736
 30
0.0
 11
61.0133552575
 21
117.0806259736
 31
0.0
  0
CIRCLE
  5
A5
330
1F
100
AcDbEntity
  8
SLD-0
  6
Continuous
 62
   179
100
AcDbCircle
 10
131.88671706
 20
128.0806259736
 30
0.0
 40
3.25
  0
CIRCLE
  5
A6
330
1F
100
AcDbEntity
  8
SLD-0
  6
Continuous
 62
   179
100
AcDbCircle
 10
131.88671706
 20
201.7679925158
 30
0.0
 40
3.25
  0
ARC
  5
A7
330
1F
100
AcDbEntity
  8
SLD-0
  6
Continuous
 62
   179
100
AcDbCircle
 10
53.0133552575
 20
120.0806259736
 30
0.0
 40
5.0
100
AcDbArc
 50
180.0
 51
270.0
  0
CIRCLE
  5
A8
330
1F
100
AcDbEntity
  8
SLD-0
  6
Continuous
 62
   179
100
AcDbCircle
 10
56.0133552575
 20
123.0806259736
 30
0.0
 40
3.25
  0
DIMENSION
  5
A9
330
1F
100
AcDbEntity
  8
SLD-0
 62
     7
100
AcDbDimension
  2
*D7
 10
165.0888766925
 20
135.5806259736
 30
0.0
 11
165.0888766925
 21
123.0806259736
 31
0.0
 70
   160
 71
     1
 42
25.0
  3
SLDDIMSTYLE0
100
AcDbAlignedDimension
 13
154.38671706
 23
110.5806259736
 33
0.0
 14
154.38671706
 24
135.5806259736
 34
0.0
 50
90.0
100
AcDbRotatedDimension
1001
ACAD
1000
DSTYLE
1002
{
1070
    77
1070
     3
1070
   143
1040
0.0393700787
1070
    41
1040
3.0
1070
    44
1040
1.0
1070
    42
1040
1.0
1070
   147
1040
1.524
1070
    73
1070
     0
1070
    74
1070
     0
1070
   140
1040
3.5
1070
   284
1070
    12
1070
    78
1070
    12
1002
}
  0
DIMENSION
  5
C6
330
1F
100
AcDbEntity
  8
SLD-0
 62
     7
100
AcDbDimension
  2
*D9
 10
154.38671706
 20
162.8650402886
 30
0.0
 11
139.38671706
 21
162.8650402886
 31
0.0
 70
   160
 71
     1
 42
30.0
  3
SLDDIMSTYLE0
100
AcDbAlignedDimension
 13
124.38671706
 23
135.5806259736
 33
0.0
 14
154.38671706
 24
135.5806259736
 34
0.0
100
AcDbRotatedDimension
1001
ACAD
1000
DSTYLE
1002
{
1070
    77
1070
     3
1070
   143
1040
0.0393700787
1070
    41
1040
3.0
1070
    44
1040
1.0
1070
    42
1040
1.0
1070
   147
1040
1.524
1070
    73
1070
     0
1070
    74
1070
     0
1070
   140
1040
3.5
1070
   284
1070
    12
1070
    78
1070
    12
1002
}
  0
DIMENSION
  5
DD
330
1F
100
AcDbEntity
  8
SLD-0
 62
     7
100
AcDbDimension
  2
*D10
 10
104.2423576343
 20
110.5806259736
 30
0.0
 11
104.2423576343
 21
101.3452726735
 31
0.0
 70
   160
 71
     1
 42
4.5
  3
SLDDIMSTYLE1
100
AcDbAlignedDimension
 13
124.38671706
 23
115.0806259736
 33
0.0
 14
124.38671706
 24
110.5806259736
 34
0.0
 50
90.0
100
AcDbRotatedDimension
1001
ACAD
1000
DSTYLE
1002
{
1070
    77
1070
     3
1070
   143
1040
0.0393700787
1070
    41
1040
3.0
1070
    44
1040
1.0
1070
    42
1040
1.0
1070
   147
1040
1.524
1070
    73
1070
     0
1070
    74
1070
     0
1070
   140
1040
3.5
1070
   284
1070
    12
1070
    78
1070
    12
1002
}
  0
DIMENSION
  5
F9
330
1F
100
AcDbEntity
  8
SLD-0
 62
     7
100
AcDbDimension
  2
*D11
 10
149.38671706
 20
154.3094054979
 30
0.0
 11
163.0556248588
 21
154.3094054979
 31
0.0
 70
   160
 71
     1
 42
5.0
  3
SLDDIMSTYLE0
100
AcDbAlignedDimension
 13
154.38671706
 23
135.5806259736
 33
0.0
 14
149.38671706
 24
135.5806259736
 34
0.0
100
AcDbRotatedDimension
1001
ACAD
1000
DSTYLE
1002
{
1070
    77
1070
     3
1070
   143
1040
0.0393700787
1070
    41
1040
3.0
1070
    44
1040
1.0
1070
    42
1040
1.0
1070
   147
1040
1.524
1070
    73
1070
     0
1070
    74
1070
     0
1070
   140
1040
3.5
1070
   284
1070
    12
1070
    78
1070
    12
1002
}
  0
DIMENSION
  5
115
330
1F
100
AcDbEntity
  8
SLD-0
 62
     7
100
AcDbDimension
  2
*D12
 10
131.88671706
 20
144.2015207015
 30
0.0
 11
143.13671706
 21
144.2015207015
 31
0.0
 70
   160
 71
     1
 42
22.5
  3
SLDDIMSTYLE1
100
AcDbAlignedDimension
 13
154.38671706
 23
135.5806259736
 33
0.0
 14
131.88671706
 24
128.0806259736
 34
0.0
100
AcDbRotatedDimension
1001
ACAD
1000
DSTYLE
1002
{
1070
    77
1070
     3
1070
   143
1040
0.0393700787
1070
    41
1040
3.0
1070
    44
1040
1.0
1070
    42
1040
1.0
1070
   147
1040
1.524
1070
    73
1070
     0
1070
    74
1070
     0
1070
   140
1040
3.5
1070
   284
1070
    12
1070
    78
1070
    12
1002
}
  0
DIMENSION
  5
12C
330
1F
100
AcDbEntity
  8
SLD-0
 62
     7
100
AcDbDimension
  2
*D13
 10
149.38671706
 20
154.3094054979
 30
0.0
 11
136.88671706
 21
154.3094054979
 31
0.0
 70
   160
  1
(<>)
 71
     1
 42
25.0
  3
SLDDIMSTYLE0
100
AcDbAlignedDimension
 13
124.38671706
 23
130.5806259736
 33
0.0
 14
149.38671706
 24
135.5806259736
 34
0.0
100
AcDbRotatedDimension
1001
ACAD
1000
DSTYLE
1002
{
1070
    77
1070
     3
1070
   143
1040
0.0393700787
1070
    41
1040
3.0
1070
    44
1040
1.0
1070
    42
1040
1.0
1070
   147
1040
1.524
1070
    73
1070
     0
1070
    74
1070
     0
1070
   140
1040
3.5
1070
   284
1070
    12
1070
    78
1070
    12
1002
}
  0
DIMENSION
  5
145
330
1F
100
AcDbEntity
  8
SLD-0
 62
     7
100
AcDbDimension
  2
*D14
 10
104.2423576343
 20
135.5806259736
 30
0.0
 11
104.2423576343
 21
125.3306259736
 31
0.0
 70
   160
  1
(<>)
 71
     1
 42
20.5
  3
SLDDIMSTYLE1
100
AcDbAlignedDimension
 13
129.38671706
 23
115.0806259736
 33
0.0
 14
129.38671706
 24
135.5806259736
 34
0.0
 50
90.0
100
AcDbRotatedDimension
1001
ACAD
1000
DSTYLE
1002
{
1070
    77
1070
     3
1070
   143
1040
0.0393700787
1070
    41
1040
3.0
1070
    44
1040
1.0
1070
    42
1040
1.0
1070
   147
1040
1.524
1070
    73
1070
     0
1070
    74
1070
     0
1070
   140
1040
3.5
1070
   284
1070
    12
1070
    78
1070
    12
1002
}
  0
DIMENSION
  5
15F
330
1F
100
AcDbEntity
  8
SLD-0
 62
     7
100
AcDbDimension
  2
*D15
 10
4.6629849348
 20
4.5284168312
 30
0.0
 11
150.4377497545
 21
-4.1800776934
 31
0.0
 70
   163
  1
<>
 71
     1
 42
6.4999990384
  3
SLDDIMSTYLE2
100
AcDbDiametricDimension
 15
0.0
 25
0.0
 35
0.0
 40
0.0
1001
ACAD
1000
DSTYLE
1002
{
1070
    77
1070
     0
1070
   143
1040
0.0393700787
1070
    41
1040
3.0
1070
    44
1040
1.0
1070
    42
1040
1.0
1070
   147
1040
1.524
1070
    73
1070
     1
1070
    74
1070
     1
1070
   140
1040
3.5
1070
   284
1070
    12
1070
    78
1070
    12
1002
}
  0
DIMENSION
  5
171
330
1F
100
AcDbEntity
  8
SLD-0
 62
     7
100
AcDbDimension
  2
*D16
 10
114.1244334165
 20
110.5806259736
 30
0.0
 11
114.1244334165
 21
119.3306259736
 31
0.0
 70
   160
 71
     1
 42
17.5
  3
SLDDIMSTYLE1
100
AcDbAlignedDimension
 13
126.13671706
 23
128.0806259736
 33
0.0
 14
124.38671706
 24
110.5806259736
 34
0.0
 50
90.0
100
AcDbRotatedDimension
1001
ACAD
1000
DSTYLE
1002
{
1070
    77
1070
     3
1070
   143
1040
0.0393700787
1070
    41
1040
3.0
1070
    44
1040
1.0
1070
    42
1040
1.0
1070
   147
1040
1.524
1070
    73
1070
     0
1070
    74
1070
     0
1070
   140
1040
3.5
1070
   284
1070
    12
1070
    78
1070
    12
1002
}
  0
DIMENSION
  5
189
330
1F
100
AcDbEntity
  8
SLD-0
 62
     7
100
AcDbDimension
  2
*D17
 10
174.0011847677
 20
219.2679925158
 30
0.0
 11
174.0011847677
 21
206.7679925158
 31
0.0
 70
   160
 71
     1
 42
25.0
  3
SLDDIMSTYLE0
100
AcDbAlignedDimension
 13
154.38671706
 23
194.2679925158
 33
0.0
 14
154.38671706
 24
219.2679925158
 34
0.0
 50
90.0
100
AcDbRotatedDimension
1001
ACAD
1000
DSTYLE
1002
{
1070
    77
1070
     3
1070
   143
1040
0.0393700787
1070
    41
1040
3.0
1070
    44
1040
1.0
1070
    42
1040
1.0
1070
   147
1040
1.524
1070
    73
1070
     0
1070
    74
1070
     0
1070
   140
1040
3.5
1070
   284
1070
    12
1070
    78
1070
    12
1002
}
  0
DIMENSION
  5
1A1
330
1F
100
AcDbEntity
  8
SLD-0
 62
     7
100
AcDbDimension
  2
*D18
 10
131.88671706
 20
178.5530891127
 30
0.0
 11
143.13671706
 21
178.5530891127
 31
0.0
 70
   160
 71
     1
 42
22.5
  3
SLDDIMSTYLE1
100
AcDbAlignedDimension
 13
154.38671706
 23
194.2679925158
 33
0.0
 14
131.88671706
 24
201.7679925158
 34
0.0
100
AcDbRotatedDimension
1001
ACAD
1000
DSTYLE
1002
{
1070
    77
1070
     3
1070
   143
1040
0.0393700787
1070
    41
1040
3.0
1070
    44
1040
1.0
1070
    42
1040
1.0
1070
   147
1040
1.524
1070
    73
1070
     0
1070
    74
1070
     0
1070
   140
1040
3.5
1070
   284
1070
    12
1070
    78
1070
    12
1002
}
  0
DIMENSION
  5
1B8
330
1F
100
AcDbEntity
  8
SLD-0
 62
     7
100
AcDbDimension
  2
*D19
 10
164.0356380343
 20
214.7679925158
 30
0.0
 11
164.0356380343
 21
227.5257054018
 31
0.0
 70
   160
 71
     1
 42
4.5
  3
SLDDIMSTYLE1
100
AcDbAlignedDimension
 13
154.38671706
 23
219.2679925158
 33
0.0
 14
149.38671706
 24
214.7679925158
 34
0.0
 50
90.0
100
AcDbRotatedDimension
1001
ACAD
1000
DSTYLE
1002
{
1070
    77
1070
     3
1070
   143
1040
0.0393700787
1070
    41
1040
3.0
1070
    44
1040
1.0
1070
    42
1040
1.0
1070
   147
1040
1.524
1070
    73
1070
     0
1070
    74
1070
     0
1070
   140
1040
3.5
1070
   284
1070
    12
1070
    78
1070
    12
1002
}
  0
DIMENSION
  5
1D3
330
1F
100
AcDbEntity
  8
SLD-0
 62
     7
100
AcDbDimension
  2
*D20
 10
164.0356380343
 20
194.2679925158
 30
0.0
 11
164.0356380343
 21
204.5179925158
 31
0.0
 70
   160
  1
(<>)
 71
     1
 42
20.5
  3
SLDDIMSTYLE1
100
AcDbAlignedDimension
 13
149.38671706
 23
214.7679925158
 33
0.0
 14
149.38671706
 24
194.2679925158
 34
0.0
 50
90.0
100
AcDbRotatedDimension
1001
ACAD
1000
DSTYLE
1002
{
1070
    77
1070
     3
1070
   143
1040
0.0393700787
1070
    41
1040
3.0
1070
    44
1040
1.0
1070
    42
1040
1.0
1070
   147
1040
1.524
1070
    73
1070
     0
1070
    74
1070
     0
1070
   140
1040
3.5
1070
   284
1070
    12
1070
    78
1070
    12
1002
}
  0
DIMENSION
  5
1ED
330
1F
100
AcDbEntity
  8
SLD-0
 62
     7
100
AcDbDimension
  2
*D21
 10
3.5563930964
 20
5.4407775981
 30
0.0
 11
146.797601881
 21
-5.0222566766
 31
0.0
 70
   163
  1
<>
 71
     1
 42
6.4999994406
  3
SLDDIMSTYLE2
100
AcDbDiametricDimension
 15
0.0
 25
0.0
 35
0.0
 40
0.0
1001
ACAD
1000
DSTYLE
1002
{
1070
    77
1070
     0
1070
   143
1040
0.0393700787
1070
    41
1040
3.0
1070
    44
1040
1.0
1070
    42
1040
1.0
1070
   147
1040
1.524
1070
    73
1070
     1
1070
    74
1070
     1
1070
   140
1040
3.5
1070
   284
1070
    12
1070
    78
1070
    12
1002
}
  0
DIMENSION
  5
1FE
330
1F
100
AcDbEntity
  8
SLD-0
 62
     7
100
AcDbDimension
  2
*D22
 10
114.1579722797
 20
219.2679925158
 30
0.0
 11
114.1579722797
 21
210.5179925158
 31
0.0
 70
   160
 71
     1
 42
17.5
  3
SLDDIMSTYLE1
100
AcDbAlignedDimension
 13
126.13671706
 23
201.7679925158
 33
0.0
 14
124.38671706
 24
219.2679925158
 34
0.0
 50
90.0
100
AcDbRotatedDimension
1001
ACAD
1000
DSTYLE
1002
{
1070
    77
1070
     3
1070
   143
1040
0.0393700787
1070
    41
1040
3.0
1070
    44
1040
1.0
1070
    42
1040
1.0
1070
   147
1040
1.524
1070
    73
1070
     0
1070
    74
1070
     0
1070
   140
1040
3.5
1070
   284
1070
    12
1070
    78
1070
    12
1002
}
  0
DIMENSION
  5
216
330
1F
100
AcDbEntity
  8
SLD-0
 62
     7
100
AcDbDimension
  2
*D23
 10
56.0133552575
 20
149.4634735713
 30
0.0
 11
49.7633552575
 21
149.4634735713
 31
0.0
 70
   160
 71
     1
 42
12.5
  3
SLDDIMSTYLE1
100
AcDbAlignedDimension
 13
43.5133552575
 23
135.5806259736
 33
0.0
 14
56.0133552575
 24
123.0806259736
 34
0.0
100
AcDbRotatedDimension
1001
ACAD
1000
DSTYLE
1002
{
1070
    77
1070
     3
1070
   143
1040
0.0393700787
1070
    41
1040
3.0
1070
    44
1040
1.0
1070
    42
1040
1.0
1070
   147
1040
1.524
1070
    73
1070
     0
1070
    74
1070
     0
1070
   140
1040
3.5
1070
   284
1070
    12
1070
    78
1070
    12
1002
}
  0
DIMENSION
  5
22F
330
1F
100
AcDbEntity
  8
SLD-0
 62
     7
100
AcDbDimension
  2
*D24
 10
2.6924117233
 20
5.9161555091
 30
0.0
 11
72.5293044699
 21
-5.461068117
 31
0.0
 70
   163
  1
<>
 71
     1
 42
6.4999982227
  3
SLDDIMSTYLE2
100
AcDbDiametricDimension
 15
0.0
 25
0.0
 35
0.0
 40
0.0
1001
ACAD
1000
DSTYLE
1002
{
1070
    77
1070
     0
1070
   143
1040
0.0393700787
1070
    41
1040
3.0
1070
    44
1040
1.0
1070
    42
1040
1.0
1070
   147
1040
1.524
1070
    73
1070
     1
1070
    74
1070
     1
1070
   140
1040
3.5
1070
   284
1070
    12
1070
    78
1070
    12
1002
}
  0
DIMENSION
  5
240
330
1F
100
AcDbEntity
  8
SLD-0
 62
     7
100
AcDbDimension
  2
*D25
 10
53.0133552575
 20
120.0806259736
 30
0.0
 11
64.8185779233
 21
129.7918967798
 31
0.0
 70
   164
  1
<>
 71
     1
 42
131.262228268
  3
SLDDIMSTYLE3
100
AcDbRadialDimension
 15
0.0
 25
0.0
 35
0.0
 40
0.0
1001
ACAD
1000
DSTYLE
1002
{
1070
    77
1070
     0
1070
   143
1040
0.0393700787
1070
    41
1040
3.0
1070
    44
1040
1.0
1070
    42
1040
1.0
1070
   147
1040
1.524
1070
    73
1070
     1
1070
    74
1070
     1
1070
   140
1040
3.5
1070
   284
1070
    12
1070
    78
1070
    12
1002
}
  0
DIMENSION
  5
251
330
1F
100
AcDbEntity
  8
SLD-0
 62
     7
100
AcDbDimension
  2
*D26
 10
79.8949468107
 20
110.5806259736
 30
0.0
 11
79.8949468107
 21
116.8306259736
 31
0.0
 70
   160
 71
     1
 42
12.5
  3
SLDDIMSTYLE1
100
AcDbAlignedDimension
 13
61.7633552575
 23
123.0806259736
 33
0.0
 14
68.5133552575
 24
110.5806259736
 34
0.0
 50
90.0
100
AcDbRotatedDimension
1001
ACAD
1000
DSTYLE
1002
{
1070
    77
1070
     3
1070
   143
1040
0.0393700787
1070
    41
1040
3.0
1070
    44
1040
1.0
1070
    42
1040
1.0
1070
   147
1040
1.524
1070
    73
1070
     0
1070
    74
1070
     0
1070
   140
1040
3.5
1070
   284
1070
    12
1070
    78
1070
    12
1002
}
  0
MTEXT
  5
26B
330
1F
100
AcDbEntity
  8
SLD-0
 62
     7
100
AcDbMText
 10
157.7537591258
 20
18.2317572055
 30
0.0
 40
3.5
 41
0.0
 71
     1
 72
     1
  1
131037
  7
SLDTEXTSTYLE0
 73
     1
 44
1.0
  0
MTEXT
  5
26C
330
1F
100
AcDbEntity
  8
SLD-0
 62
     7
100
AcDbMText
 10
147.3211389501
 20
29.7138882404
 30
0.0
 40
4.2333333333
 41
0.0
 71
     1
 72
     1
  1
N01912-105-0
  7
SLDTEXTSTYLE1
 73
     1
 44
1.0
  0
MTEXT
  5
26E
330
1F
100
AcDbEntity
  8
SLD-0
 62
     7
100
AcDbMText
 10
138.2984599679
 20
43.2377018572
 30
0.0
 40
4.2333333333
 41
0.0
 71
     1
 72
     1
  1
25 Connecter Block E
  7
SLDTEXTSTYLE2
 73
     1
 44
1.0
  0
MTEXT
  5
26F
330
1F
100
AcDbEntity
  8
SLD-0
 62
     7
100
AcDbMText
 10
119.8290223004
 20
145.3287576701
 30
0.0
 40
3.5
 41
0.0
 71
     1
 72
     1
  1
C
  7
SLDTEXTSTYLE1
 11
0.7189519018723756
 21
-0.6950598267732743
 31
0.0
 73
     1
 44
1.0
  0
MTEXT
  5
270
330
1F
100
AcDbEntity
  8
SLD-0
 62
     7
100
AcDbMText
 10
121.2924023252
 20
143.9140084165
 30
0.0
 40
3.5
 41
0.0
 71
     1
 72
     1
  1
5
  7
SLDTEXTSTYLE1
 11
0.7189519018723756
 21
-0.6950598267732743
 31
0.0
 73
     1
 44
1.0
  0
MTEXT
  5
271
330
1F
100
AcDbEntity
  8
SLD-0
 62
     7
100
AcDbMText
 10
117.6134746319
 20
193.9045455008
 30
0.0
 40
3.5
 41
0.0
 71
     1
 72
     1
  1
C
  7
SLDTEXTSTYLE1
 11
0.7598720384938972
 21
0.6500726767947791
 31
0.0
 73
     1
 44
1.0
  0
MTEXT
  5
272
330
1F
100
AcDbEntity
  8
SLD-0
 62
     7
100
AcDbMText
 10
119.1601449441
 20
195.2277263249
 30
0.0
 40
3.5
 41
0.0
 71
     1
 72
     1
  1
5
  7
SLDTEXTSTYLE1
 11
0.7598720384938972
 21
0.6500726767947791
 31
0.0
 73
     1
 44
1.0
  0
INSERT
  5
273
330
1F
100
AcDbEntity
  8
0
  6
Continuous
 62
     7
370
     0
100
AcDbBlockReference
  2
SURFACEFINISH39
 10
176.1663369538
 20
250.1860413902
 30
0.0
  0
INSERT
  5
274
330
1F
100
AcDbEntity
  8
0
  6
Continuous
 62
     7
370
     0
100
AcDbBlockReference
  2
注記
 10
108.7738427726
 20
55.655703316
 30
0.0
  0
INSERT
  5
275
330
1F
100
AcDbEntity
  8
0
  6
Continuous
 62
     7
370
     0
100
AcDbBlockReference
  2
_OPEN30
 10
126.88671706
 20
133.0806259736
 30
0.0
 41
3.0
 42
3.0
 43
3.0
 50
-43.9187304256
  0
INSERT
  5
276
330
1F
100
AcDbEntity
  8
0
  6
Continuous
 62
     7
370
     0
100
AcDbBlockReference
  2
SW_CENTERMARK0
 10
0.0
 20
0.0
 30
0.0
  0
INSERT
  5
277
330
1F
100
AcDbEntity
  8
0
  6
Continuous
 62
     7
370
     0
100
AcDbBlockReference
  2
_OPEN30
 10
126.88671706
 20
196.7679925158
 30
0.0
 41
3.0
 42
3.0
 43
3.0
 50
40.9721471152
  0
INSERT
  5
278
330
1F
100
AcDbEntity
  8
0
  6
Continuous
 62
     7
370
     0
100
AcDbBlockReference
  2
SW_CENTERMARK1
 10
0.0
 20
0.0
 30
0.0
  0
INSERT
  5
279
330
1F
100
AcDbEntity
  8
0
  6
Continuous
 62
     7
370
     0
100
AcDbBlockReference
  2
SW_CENTERMARK2
 10
0.0
 20
0.0
 30
0.0
  0
ENDSEC
  0
SECTION
  2
OBJECTS
  0
DICTIONARY
  5
C
330
0
100
AcDbDictionary
281
     1
  3
ACAD_GROUP
350
D
  3
ACAD_LAYOUT
350
1A
  3
ACAD_MLINESTYLE
350
17
  3
ACAD_PLOTSETTINGS
350
19
  3
ACAD_PLOTSTYLENAME
350
E
  0
DICTIONARY
  5
D
102
{ACAD_REACTORS
330
C
102
}
330
C
100
AcDbDictionary
281
     1
  0
DICTIONARY
  5
1A
102
{ACAD_REACTORS
330
C
102
}
330
C
100
AcDbDictionary
281
     1
  3
Layout1
350
1E
  3
Layout2
350
26
  3
Model
350
22
  0
DICTIONARY
  5
17
102
{ACAD_REACTORS
330
C
102
}
330
C
100
AcDbDictionary
281
     1
  3
Standard
350
18
  0
DICTIONARY
  5
19
102
{ACAD_REACTORS
330
C
102
}
330
C
100
AcDbDictionary
281
     1
  0
ACDBDICTIONARYWDFLT
  5
E
102
{ACAD_REACTORS
330
C
102
}
330
C
100
AcDbDictionary
281
     1
  3
Normal
350
F
100
AcDbDictionaryWithDefault
340
F
  0
LAYOUT
  5
1E
102
{ACAD_REACTORS
330
1A
102
}
330
1A
100
AcDbPlotSettings
  1

  2

  4

  6

 40
0.0
 41
0.0
 42
0.0
 43
0.0
 44
0.0
 45
0.0
 46
0.0
 47
0.0
 48
0.0
 49
0.0
140
0.0
141
0.0
142
1.0
143
1.0
 70
   688
 72
     0
 73
     0
 74
     5
  7

 75
    16
147
1.0
148
0.0
149
0.0
100
AcDbLayout
  1
Layout1
 70
     1
 71
     1
 10
0.0
 20
0.0
 11
0.0
 21
0.0
 12
0.0
 22
0.0
 32
0.0
 14
0.0
 24
0.0
 34
0.0
 15
0.0
 25
0.0
 35
0.0
146
0.0
 13
0.0
 23
0.0
 33
0.0
 16
1.0
 26
0.0
 36
0.0
 17
0.0
 27
1.0
 37
0.0
 76
     0
330
1B
  0
LAYOUT
  5
26
102
{ACAD_REACTORS
330
1A
102
}
330
1A
100
AcDbPlotSettings
  1

  2

  4

  6

 40
0.0
 41
0.0
 42
0.0
 43
0.0
 44
0.0
 45
0.0
 46
0.0
 47
0.0
 48
0.0
 49
0.0
140
0.0
141
0.0
142
1.0
143
1.0
 70
   688
 72
     0
 73
     0
 74
     5
  7

 75
    16
147
1.0
148
0.0
149
0.0
100
AcDbLayout
  1
Layout2
 70
     1
 71
     2
 10
0.0
 20
0.0
 11
0.0
 21
0.0
 12
0.0
 22
0.0
 32
0.0
 14
0.0
 24
0.0
 34
0.0
 15
0.0
 25
0.0
 35
0.0
146
0.0
 13
0.0
 23
0.0
 33
0.0
 16
1.0
 26
0.0
 36
0.0
 17
0.0
 27
1.0
 37
0.0
 76
     0
330
23
  0
LAYOUT
  5
22
102
{ACAD_REACTORS
330
1A
102
}
330
1A
100
AcDbPlotSettings
  1

  2

  4

  6

 40
0.0
 41
0.0
 42
0.0
 43
0.0
 44
0.0
 45
0.0
 46
0.0
 47
0.0
 48
0.0
 49
0.0
140
0.0
141
0.0
142
1.0
143
1.0
 70
  1712
 72
     0
 73
     0
 74
     0
  7

 75
     0
147
1.0
148
0.0
149
0.0
100
AcDbLayout
  1
Model
 70
     1
 71
     0
 10
0.0
 20
0.0
 11
0.0
 21
0.0
 12
0.0
 22
0.0
 32
0.0
 14
0.0
 24
0.0
 34
0.0
 15
210.0
 25
297.0
 35
0.0
146
0.0
 13
0.0
 23
0.0
 33
0.0
 16
1.0
 26
0.0
 36
0.0
 17
0.0
 27
1.0
 37
0.0
 76
     0
330
1F
  0
MLINESTYLE
  5
18
102
{ACAD_REACTORS
330
17
102
}
330
17
100
AcDbMlineStyle
  2
Standard
 70
     0
  3

 62
   256
 51
90.0
 52
90.0
 71
     2
 49
0.5
 62
   256
  6
BYLAYER
 49
-0.5
 62
   256
  6
BYLAYER
  0
ACDBPLACEHOLDER
  5
F
102
{ACAD_REACTORS
330
E
102
}
330
E
  0
ENDSEC
  0
EOF
