  0
SECTION
  2
HEADER
  9
$ACADVER
  1
AC1015
  9
$ACADMAINTVER
 70
     6
  9
$DWGCODEPAGE
  3
DOS932
  9
$INSBASE
 10
0.0
 20
0.0
 30
0.0
  9
$EXTMIN
 10
0.0
 20
0.0
 30
0.0
  9
$EXTMAX
 10
210.0
 20
297.0
 30
0.0
  9
$LIMMIN
 10
0.0
 20
0.0
  9
$LIMMAX
 10
0.0
 20
0.0
  9
$ORTHOMODE
 70
     0
  9
$REGENMODE
 70
     1
  9
$FILLMODE
 70
     1
  9
$QTEXTMODE
 70
     0
  9
$MIRRTEXT
 70
     1
  9
$LTSCALE
 40
1.0
  9
$ATTMODE
 70
     1
  9
$TEXTSIZE
 40
3.5
  9
$TRACEWID
 40
1.0
  9
$TEXTSTYLE
  7
Standard
  9
$CLAYER
  8
0
  9
$CELTYPE
  6
ByLayer
  9
$CECOLOR
 62
   256
  9
$CELTSCALE
 40
1.0
  9
$DISPSILH
 70
     0
  9
$DIMSCALE
 40
1.0
  9
$DIMASZ
 40
3.0
  9
$DIMEXO
 40
1.0
  9
$DIMDLI
 40
3.75
  9
$DIMRND
 40
0.0
  9
$DIMDLE
 40
0.0
  9
$DIMEXE
 40
1.0
  9
$DIMTP
 40
0.0
  9
$DIMTM
 40
0.0
  9
$DIMTXT
 40
3.5
  9
$DIMCEN
 40
2.5
  9
$DIMTSZ
 40
0.0
  9
$DIMTOL
 70
     0
  9
$DIMLIM
 70
     0
  9
$DIMTIH
 70
     1
  9
$DIMTOH
 70
     1
  9
$DIMSE1
 70
     0
  9
$DIMSE2
 70
     0
  9
$DIMTAD
 70
     1
  9
$DIMZIN
 70
     1
  9
$DIMBLK
  1

  9
$DIMASO
 70
     1
  9
$DIMSHO
 70
     1
  9
$DIMPOST
  1

  9
$DIMAPOST
  1

  9
$DIMALT
 70
     0
  9
$DIMALTD
 70
     3
  9
$DIMALTF
 40
0.0393700787
  9
$DIMLFAC
 40
1.0
  9
$DIMTOFL
 70
     1
  9
$DIMTVP
 40
0.0
  9
$DIMTIX
 70
     0
  9
$DIMSOXD
 70
     0
  9
$DIMSAH
 70
     0
  9
$DIMBLK1
  1

  9
$DIMBLK2
  1

  9
$DIMSTYLE
  2
ISO-25
  9
$DIMCLRD
 70
     0
  9
$DIMCLRE
 70
     0
  9
$DIMCLRT
 70
     0
  9
$DIMTFAC
 40
1.0
  9
$DIMGAP
 40
1.524
  9
$DIMJUST
 70
     0
  9
$DIMSD1
 70
     0
  9
$DIMSD2
 70
     0
  9
$DIMTOLJ
 70
     0
  9
$DIMTZIN
 70
     1
  9
$DIMALTZ
 70
     0
  9
$DIMALTTZ
 70
     0
  9
$DIMUPT
 70
     0
  9
$DIMDEC
 70
     2
  9
$DIMTDEC
 70
     2
  9
$DIMALTU
 70
     2
  9
$DIMALTTD
 70
     3
  9
$DIMTXSTY
  7
Standard
  9
$DIMAUNIT
 70
     0
  9
$DIMADEC
 70
     0
  9
$DIMALTRND
 40
0.0
  9
$DIMAZIN
 70
     0
  9
$DIMDSEP
 70
    44
  9
$DIMATFIT
 70
     3
  9
$DIMFRAC
 70
     0
  9
$DIMLDRBLK
  1

  9
$DIMLUNIT
 70
     2
  9
$DIMLWD
 70
    -2
  9
$DIMLWE
 70
    -2
  9
$DIMTMOVE
 70
     0
  9
$LUNITS
 70
     2
  9
$LUPREC
 70
     1
  9
$SKETCHINC
 40
1.0
  9
$FILLETRAD
 40
10.0
  9
$AUNITS
 70
     0
  9
$AUPREC
 70
     0
  9
$MENU
  1
.
  9
$ELEVATION
 40
0.0
  9
$PELEVATION
 40
0.0
  9
$THICKNESS
 40
0.0
  9
$LIMCHECK
 70
     0
  9
$CHAMFERA
 40
10.0
  9
$CHAMFERB
 40
10.0
  9
$CHAMFERC
 40
20.0
  9
$CHAMFERD
 40
0.0
  9
$SKPOLY
 70
     0
  9
$TDCREATE
 40
2454314.564340278
  9
$TDUCREATE
 40
2454314.189340278
  9
$TDUPDATE
 40
2454314.564340289
  9
$TDUUPDATE
 40
2454314.189340289
  9
$TDINDWG
 40
0.0000000116
  9
$TDUSRTIMER
 40
0.0000000116
  9
$USRTIMER
 70
     1
  9
$ANGBASE
 50
0.0
  9
$ANGDIR
 70
     0
  9
$PDMODE
 70
     0
  9
$PDSIZE
 40
-1.0
  9
$PLINEWID
 40
0.0
  9
$SPLFRAME
 70
     0
  9
$SPLINETYPE
 70
     6
  9
$SPLINESEGS
 70
     8
  9
$HANDSEED
  5
312
  9
$SURFTAB1
 70
     6
  9
$SURFTAB2
 70
     6
  9
$SURFTYPE
 70
     6
  9
$SURFU
 70
     6
  9
$SURFV
 70
     6
  9
$UCSBASE
  2

  9
$UCSNAME
  2

  9
$UCSORG
 10
0.0
 20
0.0
 30
0.0
  9
$UCSXDIR
 10
1.0
 20
0.0
 30
0.0
  9
$UCSYDIR
 10
0.0
 20
1.0
 30
0.0
  9
$UCSORTHOREF
  2

  9
$UCSORTHOVIEW
 70
     0
  9
$UCSORGTOP
 10
0.0
 20
0.0
 30
0.0
  9
$UCSORGBOTTOM
 10
0.0
 20
0.0
 30
0.0
  9
$UCSORGLEFT
 10
0.0
 20
0.0
 30
0.0
  9
$UCSORGRIGHT
 10
0.0
 20
0.0
 30
0.0
  9
$UCSORGFRONT
 10
0.0
 20
0.0
 30
0.0
  9
$UCSORGBACK
 10
0.0
 20
0.0
 30
0.0
  9
$PUCSBASE
  2

  9
$PUCSNAME
  2

  9
$PUCSORG
 10
0.0
 20
0.0
 30
0.0
  9
$PUCSXDIR
 10
1.0
 20
0.0
 30
0.0
  9
$PUCSYDIR
 10
0.0
 20
1.0
 30
0.0
  9
$PUCSORTHOREF
  2

  9
$PUCSORTHOVIEW
 70
     0
  9
$PUCSORGTOP
 10
0.0
 20
0.0
 30
0.0
  9
$PUCSORGBOTTOM
 10
0.0
 20
0.0
 30
0.0
  9
$PUCSORGLEFT
 10
0.0
 20
0.0
 30
0.0
  9
$PUCSORGRIGHT
 10
0.0
 20
0.0
 30
0.0
  9
$PUCSORGFRONT
 10
0.0
 20
0.0
 30
0.0
  9
$PUCSORGBACK
 10
0.0
 20
0.0
 30
0.0
  9
$USERI1
 70
     0
  9
$USERI2
 70
     0
  9
$USERI3
 70
     0
  9
$USERI4
 70
     0
  9
$USERI5
 70
     0
  9
$USERR1
 40
0.0
  9
$USERR2
 40
0.0
  9
$USERR3
 40
0.0
  9
$USERR4
 40
0.0
  9
$USERR5
 40
0.0
  9
$WORLDVIEW
 70
     1
  9
$SHADEDGE
 70
     3
  9
$SHADEDIF
 70
    70
  9
$TILEMODE
 70
     1
  9
$MAXACTVP
 70
    64
  9
$PINSBASE
 10
0.0
 20
0.0
 30
0.0
  9
$PLIMCHECK
 70
     0
  9
$PEXTMIN
 10
1.0000000000E+20
 20
1.0000000000E+20
 30
1.0000000000E+20
  9
$PEXTMAX
 10
-1.0000000000E+20
 20
-1.0000000000E+20
 30
-1.0000000000E+20
  9
$PLIMMIN
 10
0.0
 20
0.0
  9
$PLIMMAX
 10
420.0
 20
297.0
  9
$UNITMODE
 70
     0
  9
$VISRETAIN
 70
     1
  9
$PLINEGEN
 70
     0
  9
$PSLTSCALE
 70
     1
  9
$TREEDEPTH
 70
  3020
  9
$CMLSTYLE
  2
Standard
  9
$CMLJUST
 70
     0
  9
$CMLSCALE
 40
20.0
  9
$PROXYGRAPHICS
 70
     1
  9
$MEASUREMENT
 70
     1
  9
$CELWEIGHT
370
    -1
  9
$ENDCAPS
280
     0
  9
$JOINSTYLE
280
     0
  9
$LWDISPLAY
290
     1
  9
$INSUNITS
 70
     4
  9
$HYPERLINKBASE
  1

  9
$STYLESHEET
  1

  9
$XEDIT
290
     1
  9
$CEPSNTYPE
380
     0
  9
$PSTYLEMODE
290
     1
  9
$FINGERPRINTGUID
  2
{386CE61E-69D2-45C3-A408-1E9E2F6B19AC}
  9
$VERSIONGUID
  2
{FAEB1C32-E019-11D5-929B-00C0DF256EC4}
  9
$EXTNAMES
290
     1
  9
$PSVPSCALE
 40
0.0
  9
$OLESTARTUP
290
     0
  0
ENDSEC
  0
SECTION
  2
CLASSES
  0
CLASS
  1
ACDBDICTIONARYWDFLT
  2
AcDbDictionaryWithDefault
  3
ObjectDBX Classes
 90
        0
280
     0
281
     0
  0
CLASS
  1
ACDBPLACEHOLDER
  2
AcDbPlaceHolder
  3
ObjectDBX Classes
 90
        0
280
     0
281
     0
  0
CLASS
  1
LAYOUT
  2
AcDbLayout
  3
ObjectDBX Classes
 90
        0
280
     0
281
     0
  0
ENDSEC
  0
SECTION
  2
TABLES
  0
TABLE
  2
VPORT
  5
8
330
0
100
AcDbSymbolTable
 70
     1
  0
VPORT
  5
29
330
8
100
AcDbSymbolTableRecord
100
AcDbViewportTableRecord
  2
*Active
 70
     0
 10
0.0
 20
0.0
 11
1.0
 21
1.0
 12
105.0
 22
148.5
 13
0.0
 23
0.0
 14
10.0
 24
10.0
 15
10.0
 25
10.0
 16
0.0
 26
0.0
 36
1.0
 17
0.0
 27
0.0
 37
0.0
 40
297.0
 41
1.9729729729
 42
50.0
 43
0.0
 44
0.0
 50
0.0
 51
0.0
 71
     0
 72
  2000
 73
     1
 74
     3
 75
     0
 76
     0
 77
     0
 78
     0
281
     0
 65
     1
110
0.0
120
0.0
130
0.0
111
1.0
121
0.0
131
0.0
112
0.0
122
1.0
132
0.0
 79
     0
146
0.0
  0
ENDTAB
  0
TABLE
  2
LTYPE
  5
5
330
0
100
AcDbSymbolTable
 70
     6
  0
LTYPE
  5
14
330
5
100
AcDbSymbolTableRecord
100
AcDbLinetypeTableRecord
  2
ByBlock
 70
     0
  3

 72
    65
 73
     0
 40
0.0
  0
LTYPE
  5
15
330
5
100
AcDbSymbolTableRecord
100
AcDbLinetypeTableRecord
  2
ByLayer
 70
     0
  3

 72
    65
 73
     0
 40
0.0
  0
LTYPE
  5
16
330
5
100
AcDbSymbolTableRecord
100
AcDbLinetypeTableRecord
  2
Continuous
 70
     0
  3
Solid line
 72
    65
 73
     0
 40
0.0
  0
LTYPE
  5
2A
330
5
100
AcDbSymbolTableRecord
100
AcDbLinetypeTableRecord
  2
HIDDEN
 70
     0
  3
Hidden __ __ __ __ __ __ __ __ __ __ __ __ __ __
 72
    65
 73
     2
 40
1.905
 49
1.27
 74
     0
 49
-0.635
 74
     0
  0
LTYPE
  5
2B
330
5
100
AcDbSymbolTableRecord
100
AcDbLinetypeTableRecord
  2
PHANTOM
 70
     0
  3
Phantom ______  __  __  ______  __  __  ______
 72
    65
 73
     6
 40
12.7
 49
6.35
 74
     0
 49
-1.27
 74
     0
 49
1.27
 74
     0
 49
-1.27
 74
     0
 49
1.27
 74
     0
 49
-1.27
 74
     0
  0
LTYPE
  5
2C
330
5
100
AcDbSymbolTableRecord
100
AcDbLinetypeTableRecord
  2
CENTER
 70
     0
  3
Center ____ _ ____ _ ____ _ ____ _ ____ _ ____
 72
    65
 73
     4
 40
10.16
 49
6.35
 74
     0
 49
-1.27
 74
     0
 49
1.27
 74
     0
 49
-1.27
 74
     0
  0
LTYPE
  5
2D
330
5
100
AcDbSymbolTableRecord
100
AcDbLinetypeTableRecord
  2
CENTERX2
 70
     0
  3
Center (2x) ________  __  ________  __  _____
 72
    65
 73
     4
 40
20.32
 49
12.7
 74
     0
 49
-2.54
 74
     0
 49
2.54
 74
     0
 49
-2.54
 74
     0
  0
LTYPE
  5
2E
330
5
100
AcDbSymbolTableRecord
100
AcDbLinetypeTableRecord
  2
DOT2
 70
     0
  3
Dot (.5x) ........................................
 72
    65
 73
     2
 40
0.635
 49
0.0
 74
     0
 49
-0.635
 74
     0
  0
ENDTAB
  0
TABLE
  2
LAYER
  5
2
330
0
100
AcDbSymbolTable
 70
     8
  0
LAYER
  5
10
330
2
100
AcDbSymbolTableRecord
100
AcDbLayerTableRecord
  2
0
 70
     0
 62
     7
  6
Continuous
370
    -3
390
F
  0
LAYER
  5
2F
330
2
100
AcDbSymbolTableRecord
100
AcDbLayerTableRecord
  2
SLD-0_1
 70
     0
 62
   179
  6
Continuous
370
     0
390
F
  0
LAYER
  5
30
330
2
100
AcDbSymbolTableRecord
100
AcDbLayerTableRecord
  2
SLD-0_0
 70
     0
 62
   179
  6
Continuous
370
     0
390
F
  0
LAYER
  5
31
330
2
100
AcDbSymbolTableRecord
100
AcDbLayerTableRecord
  2
SLD-0
 70
     0
 62
   179
  6
Continuous
370
     0
390
F
  0
LAYER
  5
32
330
2
100
AcDbSymbolTableRecord
100
AcDbLayerTableRecord
  2
SLD-DEFPOINTS
 70
     0
 62
   179
  6
Continuous
370
     0
390
F
  0
LAYER
  5
33
330
2
100
AcDbSymbolTableRecord
100
AcDbLayerTableRecord
  2
SLD-DEFPOINTS_0
 70
     0
 62
   179
  6
Continuous
370
     0
390
F
  0
LAYER
  5
34
330
2
100
AcDbSymbolTableRecord
100
AcDbLayerTableRecord
  2
SLD-DEFPOINTS_1
 70
     0
 62
   179
  6
Continuous
370
     0
390
F
  0
LAYER
  5
15A
330
2
100
AcDbSymbolTableRecord
100
AcDbLayerTableRecord
  2
Defpoints
 70
     0
 62
     7
  6
Continuous
290
     0
370
    -3
390
F
  0
ENDTAB
  0
TABLE
  2
STYLE
  5
3
330
0
100
AcDbSymbolTable
 70
     5
  0
STYLE
  5
11
330
3
100
AcDbSymbolTableRecord
100
AcDbTextStyleTableRecord
  2
Standard
 70
     0
 40
0.0
 41
1.0
 50
0.0
 71
     0
 42
2.5
  3
txt
  4
bigfont
  0
STYLE
  5
38
330
3
100
AcDbSymbolTableRecord
100
AcDbTextStyleTableRecord
  2
SLDTEXTSTYLE0
 70
     0
 40
0.0
 41
0.7
 50
0.0
 71
     0
 42
0.2
  3
TXT
  4
bigfont
  0
STYLE
  5
40
330
3
100
AcDbSymbolTableRecord
100
AcDbTextStyleTableRecord
  2
SLDTEXTSTYLE1
 70
     0
 40
0.0
 41
0.3000437381
 50
0.0
 71
     0
 42
0.2
  3
TXT
  4
bigfont
  0
STYLE
  5
2FF
330
3
100
AcDbSymbolTableRecord
100
AcDbTextStyleTableRecord
  2
SLDTEXTSTYLE2
 70
     0
 40
0.0
 41
0.5157894737
 50
0.0
 71
     0
 42
0.2
  3
TXT
  4
bigfont
  0
STYLE
  5
302
330
3
100
AcDbSymbolTableRecord
100
AcDbTextStyleTableRecord
  2
SLDTEXTSTYLE3
 70
     0
 40
0.0
 41
0.4439915199
 50
0.0
 71
     0
 42
0.2
  3
TXT
  4
bigfont
  0
ENDTAB
  0
TABLE
  2
VIEW
  5
6
330
0
100
AcDbSymbolTable
 70
     0
  0
ENDTAB
  0
TABLE
  2
UCS
  5
7
330
0
100
AcDbSymbolTable
 70
     0
  0
ENDTAB
  0
TABLE
  2
APPID
  5
9
330
0
100
AcDbSymbolTable
 70
     1
  0
APPID
  5
12
330
9
100
AcDbSymbolTableRecord
100
AcDbRegAppTableRecord
  2
ACAD
 70
     0
  0
ENDTAB
  0
TABLE
  2
DIMSTYLE
  5
A
330
0
100
AcDbSymbolTable
 70
     3
100
AcDbDimStyleTable
  0
DIMSTYLE
105
27
330
A
100
AcDbSymbolTableRecord
100
AcDbDimStyleTableRecord
  2
ISO-25
 70
     0
 41
2.5
 42
0.625
 43
3.75
 44
1.25
 73
     0
 74
     0
 77
     1
 78
     8
140
2.5
141
2.5
143
0.0393700787
147
0.625
171
     3
172
     1
271
     2
272
     2
274
     3
278
    44
283
     0
284
     8
340
11
  0
DIMSTYLE
105
168
102
{ACAD_REACTORS
330
159
330
1AB
330
251
330
2B1
102
}
330
A
100
AcDbSymbolTableRecord
100
AcDbDimStyleTableRecord
  2
SLDDIMSTYLE0
 70
     0
 41
3.0
 44
0.0
 73
     0
 74
     0
 77
     3
 78
    12
140
3.5
147
0.875
173
     1
271
     1
272
     3
284
    12
340
40
341
169
343
169
344
169
  0
DIMSTYLE
105
184
102
{ACAD_REACTORS
330
176
330
18F
330
1C2
330
1DB
330
1F3
330
20A
330
222
330
23A
330
26A
330
281
330
299
330
2CB
330
2E5
102
}
330
A
100
AcDbSymbolTableRecord
100
AcDbDimStyleTableRecord
  2
SLDDIMSTYLE1
 70
     0
 41
3.0
 44
0.0
 73
     0
 74
     0
 77
     3
 78
    12
140
3.5
147
0.875
173
     1
271
     0
272
     3
284
    12
340
40
341
169
343
169
344
169
  0
ENDTAB
  0
TABLE
  2
BLOCK_RECORD
  5
1
330
0
100
AcDbSymbolTable
 70
    33
  0
BLOCK_RECORD
  5
1F
330
1
100
AcDbSymbolTableRecord
100
AcDbBlockTableRecord
  2
*Model_Space
340
22
  0
BLOCK_RECORD
  5
1B
330
1
100
AcDbSymbolTableRecord
100
AcDbBlockTableRecord
  2
*Paper_Space
340
1E
  0
BLOCK_RECORD
  5
23
330
1
100
AcDbSymbolTableRecord
100
AcDbBlockTableRecord
  2
*Paper_Space0
340
26
  0
BLOCK_RECORD
  5
35
330
1
100
AcDbSymbolTableRecord
100
AcDbBlockTableRecord
  2
注記
340
0
102
{BLKREFS
331
305
102
}
  0
BLOCK_RECORD
  5
3B
330
1
100
AcDbSymbolTableRecord
100
AcDbBlockTableRecord
  2
SURFACEFINISH39
340
0
102
{BLKREFS
331
304
102
}
  0
BLOCK_RECORD
  5
42
330
1
100
AcDbSymbolTableRecord
100
AcDbBlockTableRecord
  2
SW_CENTERMARK0
340
0
102
{BLKREFS
331
306
102
}
  0
BLOCK_RECORD
  5
4D
330
1
100
AcDbSymbolTableRecord
100
AcDbBlockTableRecord
  2
SW_CENTERMARK1
340
0
102
{BLKREFS
331
307
102
}
  0
BLOCK_RECORD
  5
58
330
1
100
AcDbSymbolTableRecord
100
AcDbBlockTableRecord
  2
SW_CENTERMARK2
340
0
102
{BLKREFS
331
308
102
}
  0
BLOCK_RECORD
  5
63
330
1
100
AcDbSymbolTableRecord
100
AcDbBlockTableRecord
  2
SW_CENTERMARK3
340
0
102
{BLKREFS
331
309
102
}
  0
BLOCK_RECORD
  5
6E
330
1
100
AcDbSymbolTableRecord
100
AcDbBlockTableRecord
  2
SW_CENTERMARK4
340
0
102
{BLKREFS
331
30A
102
}
  0
BLOCK_RECORD
  5
79
330
1
100
AcDbSymbolTableRecord
100
AcDbBlockTableRecord
  2
SW_CENTERMARK5
340
0
102
{BLKREFS
331
30B
102
}
  0
BLOCK_RECORD
  5
84
330
1
100
AcDbSymbolTableRecord
100
AcDbBlockTableRecord
  2
SW_CENTERMARK6
340
0
102
{BLKREFS
331
30C
102
}
  0
BLOCK_RECORD
  5
8F
330
1
100
AcDbSymbolTableRecord
100
AcDbBlockTableRecord
  2
SW_CENTERMARK7
340
0
102
{BLKREFS
331
30D
102
}
  0
BLOCK_RECORD
  5
9A
330
1
100
AcDbSymbolTableRecord
100
AcDbBlockTableRecord
  2
SW_CENTERMARK8
340
0
102
{BLKREFS
331
30E
102
}
  0
BLOCK_RECORD
  5
A5
330
1
100
AcDbSymbolTableRecord
100
AcDbBlockTableRecord
  2
SW_CENTERMARK9
340
0
102
{BLKREFS
331
30F
102
}
  0
BLOCK_RECORD
  5
B0
330
1
100
AcDbSymbolTableRecord
100
AcDbBlockTableRecord
  2
SW_CENTERMARK10
340
0
102
{BLKREFS
331
310
102
}
  0
BLOCK_RECORD
  5
BB
330
1
100
AcDbSymbolTableRecord
100
AcDbBlockTableRecord
  2
SW_CENTERMARK11
340
0
102
{BLKREFS
331
311
102
}
  0
BLOCK_RECORD
  5
15B
330
1
100
AcDbSymbolTableRecord
100
AcDbBlockTableRecord
  2
*D15
340
0
  0
BLOCK_RECORD
  5
169
330
1
100
AcDbSymbolTableRecord
100
AcDbBlockTableRecord
  2
_None
340
0
102
{BLKREFS
331
160
331
15F
331
17C
331
17B
331
196
331
195
331
1B1
331
1B0
331
1C8
331
1C7
331
1E1
331
1E0
331
1F9
331
1F8
331
210
331
20F
331
228
331
227
331
240
331
23F
331
257
331
256
331
270
331
26F
331
287
331
286
331
29F
331
29E
331
2B7
331
2B6
331
2D1
331
2D0
331
2EB
331
2EA
102
}
  0
BLOCK_RECORD
  5
177
330
1
100
AcDbSymbolTableRecord
100
AcDbBlockTableRecord
  2
*D17
340
0
  0
BLOCK_RECORD
  5
190
330
1
100
AcDbSymbolTableRecord
100
AcDbBlockTableRecord
  2
*D18
340
0
  0
BLOCK_RECORD
  5
1AC
330
1
100
AcDbSymbolTableRecord
100
AcDbBlockTableRecord
  2
*D19
340
0
  0
BLOCK_RECORD
  5
1C3
330
1
100
AcDbSymbolTableRecord
100
AcDbBlockTableRecord
  2
*D20
340
0
  0
BLOCK_RECORD
  5
1DC
330
1
100
AcDbSymbolTableRecord
100
AcDbBlockTableRecord
  2
*D21
340
0
  0
BLOCK_RECORD
  5
1F4
330
1
100
AcDbSymbolTableRecord
100
AcDbBlockTableRecord
  2
*D22
340
0
  0
BLOCK_RECORD
  5
20B
330
1
100
AcDbSymbolTableRecord
100
AcDbBlockTableRecord
  2
*D23
340
0
  0
BLOCK_RECORD
  5
223
330
1
100
AcDbSymbolTableRecord
100
AcDbBlockTableRecord
  2
*D24
340
0
  0
BLOCK_RECORD
  5
23B
330
1
100
AcDbSymbolTableRecord
100
AcDbBlockTableRecord
  2
*D25
340
0
  0
BLOCK_RECORD
  5
252
330
1
100
AcDbSymbolTableRecord
100
AcDbBlockTableRecord
  2
*D26
340
0
  0
BLOCK_RECORD
  5
26B
330
1
100
AcDbSymbolTableRecord
100
AcDbBlockTableRecord
  2
*D27
340
0
  0
BLOCK_RECORD
  5
282
330
1
100
AcDbSymbolTableRecord
100
AcDbBlockTableRecord
  2
*D28
340
0
  0
BLOCK_RECORD
  5
29A
330
1
100
AcDbSymbolTableRecord
100
AcDbBlockTableRecord
  2
*D29
340
0
  0
BLOCK_RECORD
  5
2B2
330
1
100
AcDbSymbolTableRecord
100
AcDbBlockTableRecord
  2
*D30
340
0
  0
BLOCK_RECORD
  5
2CC
330
1
100
AcDbSymbolTableRecord
100
AcDbBlockTableRecord
  2
*D31
340
0
  0
BLOCK_RECORD
  5
2E6
330
1
100
AcDbSymbolTableRecord
100
AcDbBlockTableRecord
  2
*D32
340
0
  0
ENDTAB
  0
ENDSEC
  0
SECTION
  2
BLOCKS
  0
BLOCK
  5
20
330
1F
100
AcDbEntity
  8
0
100
AcDbBlockBegin
  2
*Model_Space
 70
     0
 71
     0
 10
0.0
 20
0.0
 30
0.0
  3
*Model_Space
  1

  0
ENDBLK
  5
21
330
1F
100
AcDbEntity
  8
0
100
AcDbBlockEnd
  0
BLOCK
  5
1C
330
1B
100
AcDbEntity
 67
     1
  8
0
100
AcDbBlockBegin
  2
*Paper_Space
 70
     0
 71
     0
 10
0.0
 20
0.0
 30
0.0
  3
*Paper_Space
  1

  0
ENDBLK
  5
1D
330
1B
100
AcDbEntity
 67
     1
  8
0
100
AcDbBlockEnd
  0
BLOCK
  5
24
330
23
100
AcDbEntity
  8
0
100
AcDbBlockBegin
  2
*Paper_Space0
 70
     0
 71
     0
 10
0.0
 20
0.0
 30
0.0
  3
*Paper_Space0
  1

  0
ENDBLK
  5
25
330
23
100
AcDbEntity
  8
0
100
AcDbBlockEnd
  0
BLOCK
  5
36
330
35
100
AcDbEntity
  8
0
100
AcDbBlockBegin
  2
注記
 70
     0
 71
     0
 10
0.0
 20
0.0
 30
0.0
  3
注記
  1

  0
MTEXT
  5
39
330
35
100
AcDbEntity
  8
0
  6
Continuous
 62
     7
370
     0
100
AcDbMText
 10
0.2636785918
 20
9.0739778448
 30
0.0
 40
3.5
 41
0.0
 71
     1
 72
     1
  1
１．特記ナキ角部ハ、バリ　カエリノ無キコト。
  7
SLDTEXTSTYLE0
 73
     1
 44
1.0
  0
MTEXT
  5
3A
330
35
100
AcDbEntity
  8
0
  6
Continuous
 62
     7
370
     0
100
AcDbMText
 10
0.2636785918
 20
3.5759549983
 30
0.0
 40
3.5
 41
0.0
 71
     1
 72
     1
  1
２．特記ナキ隅部ハ、Ｒ０．４ＭＡＸトスル。
  7
SLDTEXTSTYLE0
 73
     1
 44
1.0
  0
ENDBLK
  5
37
330
35
100
AcDbEntity
  8
0
100
AcDbBlockEnd
  0
BLOCK
  5
3C
330
3B
100
AcDbEntity
  8
0
100
AcDbBlockBegin
  2
SURFACEFINISH39
 70
     0
 71
     0
 10
0.0
 20
0.0
 30
0.0
  3
SURFACEFINISH39
  1

  0
LINE
  5
3E
330
3B
100
AcDbEntity
  8
SLD-0
  6
Continuous
 62
   179
100
AcDbLine
 10
0.6656399396
 20
-6.0449245738
 30
0.0
 11
-2.9003789868
 21
0.0000001164
 31
0.0
  0
LINE
  5
3F
330
3B
100
AcDbEntity
  8
SLD-0
  6
Continuous
 62
   179
100
AcDbLine
 10
0.6656399396
 20
-6.0449245738
 30
0.0
 11
7.7976777926
 21
6.0449248066
 31
0.0
  0
MTEXT
  5
41
330
3B
100
AcDbEntity
  8
SLD-0
100
AcDbMText
 10
0.0
 20
3.8520826265
 30
0.0
 40
3.175
 41
0.0
 71
     1
 72
     1
  1
25
  7
SLDTEXTSTYLE1
 73
     1
 44
1.0
  0
ENDBLK
  5
3D
330
3B
100
AcDbEntity
  8
0
100
AcDbBlockEnd
  0
BLOCK
  5
43
330
42
100
AcDbEntity
  8
0
100
AcDbBlockBegin
  2
SW_CENTERMARK0
 70
     0
 71
     0
 10
0.0
 20
0.0
 30
0.0
  3
SW_CENTERMARK0
  1

  0
LINE
  5
45
330
42
100
AcDbEntity
  8
SLD-0
  6
Continuous
 62
   179
100
AcDbLine
 10
93.5110286444
 20
127.2424607339
 30
0.0
 11
93.5110286444
 21
129.7424607339
 31
0.0
  0
LINE
  5
46
330
42
100
AcDbEntity
  8
SLD-0
  6
Continuous
 62
   179
100
AcDbLine
 10
93.5110286444
 20
127.2424607339
 30
0.0
 11
91.0110286444
 21
127.2424607339
 31
0.0
  0
LINE
  5
47
330
42
100
AcDbEntity
  8
SLD-0
  6
Continuous
 62
   179
100
AcDbLine
 10
93.5110286444
 20
127.2424607339
 30
0.0
 11
93.5110286444
 21
124.7424607339
 31
0.0
  0
LINE
  5
48
330
42
100
AcDbEntity
  8
SLD-0
  6
Continuous
 62
   179
100
AcDbLine
 10
93.5110286444
 20
127.2424607339
 30
0.0
 11
96.0110286444
 21
127.2424607339
 31
0.0
  0
LINE
  5
49
330
42
100
AcDbEntity
  8
SLD-0
  6
Continuous
 62
   179
100
AcDbLine
 10
93.5110286444
 20
132.2424607339
 30
0.0
 11
93.5110286444
 21
132.9924607339
 31
0.0
  0
LINE
  5
4A
330
42
100
AcDbEntity
  8
SLD-0
  6
Continuous
 62
   179
100
AcDbLine
 10
88.5110286444
 20
127.2424607339
 30
0.0
 11
87.7610286444
 21
127.2424607339
 31
0.0
  0
LINE
  5
4B
330
42
100
AcDbEntity
  8
SLD-0
  6
Continuous
 62
   179
100
AcDbLine
 10
93.5110286444
 20
122.2424607339
 30
0.0
 11
93.5110286444
 21
121.4924607339
 31
0.0
  0
LINE
  5
4C
330
42
100
AcDbEntity
  8
SLD-0
  6
Continuous
 62
   179
100
AcDbLine
 10
98.5110286444
 20
127.2424607339
 30
0.0
 11
99.2610286444
 21
127.2424607339
 31
0.0
  0
ENDBLK
  5
44
330
42
100
AcDbEntity
  8
0
100
AcDbBlockEnd
  0
BLOCK
  5
4E
330
4D
100
AcDbEntity
  8
0
100
AcDbBlockBegin
  2
SW_CENTERMARK1
 70
     0
 71
     0
 10
0.0
 20
0.0
 30
0.0
  3
SW_CENTERMARK1
  1

  0
LINE
  5
50
330
4D
100
AcDbEntity
  8
SLD-0
  6
Continuous
 62
   179
100
AcDbLine
 10
93.5110286444
 20
110.2424607339
 30
0.0
 11
93.5110286444
 21
112.7424607339
 31
0.0
  0
LINE
  5
51
330
4D
100
AcDbEntity
  8
SLD-0
  6
Continuous
 62
   179
100
AcDbLine
 10
93.5110286444
 20
110.2424607339
 30
0.0
 11
91.0110286444
 21
110.2424607339
 31
0.0
  0
LINE
  5
52
330
4D
100
AcDbEntity
  8
SLD-0
  6
Continuous
 62
   179
100
AcDbLine
 10
93.5110286444
 20
110.2424607339
 30
0.0
 11
93.5110286444
 21
107.7424607339
 31
0.0
  0
LINE
  5
53
330
4D
100
AcDbEntity
  8
SLD-0
  6
Continuous
 62
   179
100
AcDbLine
 10
93.5110286444
 20
110.2424607339
 30
0.0
 11
96.0110286444
 21
110.2424607339
 31
0.0
  0
LINE
  5
54
330
4D
100
AcDbEntity
  8
SLD-0
  6
Continuous
 62
   179
100
AcDbLine
 10
93.5110286444
 20
115.2424607339
 30
0.0
 11
93.5110286444
 21
115.9924607339
 31
0.0
  0
LINE
  5
55
330
4D
100
AcDbEntity
  8
SLD-0
  6
Continuous
 62
   179
100
AcDbLine
 10
88.5110286444
 20
110.2424607339
 30
0.0
 11
87.7610286444
 21
110.2424607339
 31
0.0
  0
LINE
  5
56
330
4D
100
AcDbEntity
  8
SLD-0
  6
Continuous
 62
   179
100
AcDbLine
 10
93.5110286444
 20
105.2424607339
 30
0.0
 11
93.5110286444
 21
104.4924607339
 31
0.0
  0
LINE
  5
57
330
4D
100
AcDbEntity
  8
SLD-0
  6
Continuous
 62
   179
100
AcDbLine
 10
98.5110286444
 20
110.2424607339
 30
0.0
 11
99.2610286444
 21
110.2424607339
 31
0.0
  0
ENDBLK
  5
4F
330
4D
100
AcDbEntity
  8
0
100
AcDbBlockEnd
  0
BLOCK
  5
59
330
58
100
AcDbEntity
  8
0
100
AcDbBlockBegin
  2
SW_CENTERMARK2
 70
     0
 71
     0
 10
0.0
 20
0.0
 30
0.0
  3
SW_CENTERMARK2
  1

  0
LINE
  5
5B
330
58
100
AcDbEntity
  8
SLD-0
  6
Continuous
 62
   179
100
AcDbLine
 10
65.5110286444
 20
110.2424607339
 30
0.0
 11
65.5110286444
 21
112.7424607339
 31
0.0
  0
LINE
  5
5C
330
58
100
AcDbEntity
  8
SLD-0
  6
Continuous
 62
   179
100
AcDbLine
 10
65.5110286444
 20
110.2424607339
 30
0.0
 11
63.0110286444
 21
110.2424607339
 31
0.0
  0
LINE
  5
5D
330
58
100
AcDbEntity
  8
SLD-0
  6
Continuous
 62
   179
100
AcDbLine
 10
65.5110286444
 20
110.2424607339
 30
0.0
 11
65.5110286444
 21
107.7424607339
 31
0.0
  0
LINE
  5
5E
330
58
100
AcDbEntity
  8
SLD-0
  6
Continuous
 62
   179
100
AcDbLine
 10
65.5110286444
 20
110.2424607339
 30
0.0
 11
68.0110286444
 21
110.2424607339
 31
0.0
  0
LINE
  5
5F
330
58
100
AcDbEntity
  8
SLD-0
  6
Continuous
 62
   179
100
AcDbLine
 10
65.5110286444
 20
115.2424607339
 30
0.0
 11
65.5110286444
 21
115.9924607339
 31
0.0
  0
LINE
  5
60
330
58
100
AcDbEntity
  8
SLD-0
  6
Continuous
 62
   179
100
AcDbLine
 10
60.5110286444
 20
110.2424607339
 30
0.0
 11
59.7610286444
 21
110.2424607339
 31
0.0
  0
LINE
  5
61
330
58
100
AcDbEntity
  8
SLD-0
  6
Continuous
 62
   179
100
AcDbLine
 10
65.5110286444
 20
105.2424607339
 30
0.0
 11
65.5110286444
 21
104.4924607339
 31
0.0
  0
LINE
  5
62
330
58
100
AcDbEntity
  8
SLD-0
  6
Continuous
 62
   179
100
AcDbLine
 10
70.5110286444
 20
110.2424607339
 30
0.0
 11
71.2610286444
 21
110.2424607339
 31
0.0
  0
ENDBLK
  5
5A
330
58
100
AcDbEntity
  8
0
100
AcDbBlockEnd
  0
BLOCK
  5
64
330
63
100
AcDbEntity
  8
0
100
AcDbBlockBegin
  2
SW_CENTERMARK3
 70
     0
 71
     0
 10
0.0
 20
0.0
 30
0.0
  3
SW_CENTERMARK3
  1

  0
LINE
  5
66
330
63
100
AcDbEntity
  8
SLD-0
  6
Continuous
 62
   179
100
AcDbLine
 10
65.5110286444
 20
127.2424607339
 30
0.0
 11
65.5110286444
 21
129.7424607339
 31
0.0
  0
LINE
  5
67
330
63
100
AcDbEntity
  8
SLD-0
  6
Continuous
 62
   179
100
AcDbLine
 10
65.5110286444
 20
127.2424607339
 30
0.0
 11
63.0110286444
 21
127.2424607339
 31
0.0
  0
LINE
  5
68
330
63
100
AcDbEntity
  8
SLD-0
  6
Continuous
 62
   179
100
AcDbLine
 10
65.5110286444
 20
127.2424607339
 30
0.0
 11
65.5110286444
 21
124.7424607339
 31
0.0
  0
LINE
  5
69
330
63
100
AcDbEntity
  8
SLD-0
  6
Continuous
 62
   179
100
AcDbLine
 10
65.5110286444
 20
127.2424607339
 30
0.0
 11
68.0110286444
 21
127.2424607339
 31
0.0
  0
LINE
  5
6A
330
63
100
AcDbEntity
  8
SLD-0
  6
Continuous
 62
   179
100
AcDbLine
 10
65.5110286444
 20
132.2424607339
 30
0.0
 11
65.5110286444
 21
132.9924607339
 31
0.0
  0
LINE
  5
6B
330
63
100
AcDbEntity
  8
SLD-0
  6
Continuous
 62
   179
100
AcDbLine
 10
60.5110286444
 20
127.2424607339
 30
0.0
 11
59.7610286444
 21
127.2424607339
 31
0.0
  0
LINE
  5
6C
330
63
100
AcDbEntity
  8
SLD-0
  6
Continuous
 62
   179
100
AcDbLine
 10
65.5110286444
 20
122.2424607339
 30
0.0
 11
65.5110286444
 21
121.4924607339
 31
0.0
  0
LINE
  5
6D
330
63
100
AcDbEntity
  8
SLD-0
  6
Continuous
 62
   179
100
AcDbLine
 10
70.5110286444
 20
127.2424607339
 30
0.0
 11
71.2610286444
 21
127.2424607339
 31
0.0
  0
ENDBLK
  5
65
330
63
100
AcDbEntity
  8
0
100
AcDbBlockEnd
  0
BLOCK
  5
6F
330
6E
100
AcDbEntity
  8
0
100
AcDbBlockBegin
  2
SW_CENTERMARK4
 70
     0
 71
     0
 10
0.0
 20
0.0
 30
0.0
  3
SW_CENTERMARK4
  1

  0
LINE
  5
71
330
6E
100
AcDbEntity
  8
SLD-0
  6
Continuous
 62
   179
100
AcDbLine
 10
65.5110286444
 20
170.2424607339
 30
0.0
 11
65.5110286444
 21
172.7424607339
 31
0.0
  0
LINE
  5
72
330
6E
100
AcDbEntity
  8
SLD-0
  6
Continuous
 62
   179
100
AcDbLine
 10
65.5110286444
 20
170.2424607339
 30
0.0
 11
63.0110286444
 21
170.2424607339
 31
0.0
  0
LINE
  5
73
330
6E
100
AcDbEntity
  8
SLD-0
  6
Continuous
 62
   179
100
AcDbLine
 10
65.5110286444
 20
170.2424607339
 30
0.0
 11
65.5110286444
 21
167.7424607339
 31
0.0
  0
LINE
  5
74
330
6E
100
AcDbEntity
  8
SLD-0
  6
Continuous
 62
   179
100
AcDbLine
 10
65.5110286444
 20
170.2424607339
 30
0.0
 11
68.0110286444
 21
170.2424607339
 31
0.0
  0
LINE
  5
75
330
6E
100
AcDbEntity
  8
SLD-0
  6
Continuous
 62
   179
100
AcDbLine
 10
65.5110286444
 20
175.2424607339
 30
0.0
 11
65.5110286444
 21
175.9924607339
 31
0.0
  0
LINE
  5
76
330
6E
100
AcDbEntity
  8
SLD-0
  6
Continuous
 62
   179
100
AcDbLine
 10
60.5110286444
 20
170.2424607339
 30
0.0
 11
59.7610286444
 21
170.2424607339
 31
0.0
  0
LINE
  5
77
330
6E
100
AcDbEntity
  8
SLD-0
  6
Continuous
 62
   179
100
AcDbLine
 10
65.5110286444
 20
165.2424607339
 30
0.0
 11
65.5110286444
 21
164.4924607339
 31
0.0
  0
LINE
  5
78
330
6E
100
AcDbEntity
  8
SLD-0
  6
Continuous
 62
   179
100
AcDbLine
 10
70.5110286444
 20
170.2424607339
 30
0.0
 11
71.2610286444
 21
170.2424607339
 31
0.0
  0
ENDBLK
  5
70
330
6E
100
AcDbEntity
  8
0
100
AcDbBlockEnd
  0
BLOCK
  5
7A
330
79
100
AcDbEntity
  8
0
100
AcDbBlockBegin
  2
SW_CENTERMARK5
 70
     0
 71
     0
 10
0.0
 20
0.0
 30
0.0
  3
SW_CENTERMARK5
  1

  0
LINE
  5
7C
330
79
100
AcDbEntity
  8
SLD-0
  6
Continuous
 62
   179
100
AcDbLine
 10
93.5110286444
 20
170.2424607339
 30
0.0
 11
93.5110286444
 21
172.7424607339
 31
0.0
  0
LINE
  5
7D
330
79
100
AcDbEntity
  8
SLD-0
  6
Continuous
 62
   179
100
AcDbLine
 10
93.5110286444
 20
170.2424607339
 30
0.0
 11
91.0110286444
 21
170.2424607339
 31
0.0
  0
LINE
  5
7E
330
79
100
AcDbEntity
  8
SLD-0
  6
Continuous
 62
   179
100
AcDbLine
 10
93.5110286444
 20
170.2424607339
 30
0.0
 11
93.5110286444
 21
167.7424607339
 31
0.0
  0
LINE
  5
7F
330
79
100
AcDbEntity
  8
SLD-0
  6
Continuous
 62
   179
100
AcDbLine
 10
93.5110286444
 20
170.2424607339
 30
0.0
 11
96.0110286444
 21
170.2424607339
 31
0.0
  0
LINE
  5
80
330
79
100
AcDbEntity
  8
SLD-0
  6
Continuous
 62
   179
100
AcDbLine
 10
93.5110286444
 20
175.2424607339
 30
0.0
 11
93.5110286444
 21
175.9924607339
 31
0.0
  0
LINE
  5
81
330
79
100
AcDbEntity
  8
SLD-0
  6
Continuous
 62
   179
100
AcDbLine
 10
88.5110286444
 20
170.2424607339
 30
0.0
 11
87.7610286444
 21
170.2424607339
 31
0.0
  0
LINE
  5
82
330
79
100
AcDbEntity
  8
SLD-0
  6
Continuous
 62
   179
100
AcDbLine
 10
93.5110286444
 20
165.2424607339
 30
0.0
 11
93.5110286444
 21
164.4924607339
 31
0.0
  0
LINE
  5
83
330
79
100
AcDbEntity
  8
SLD-0
  6
Continuous
 62
   179
100
AcDbLine
 10
98.5110286444
 20
170.2424607339
 30
0.0
 11
99.2610286444
 21
170.2424607339
 31
0.0
  0
ENDBLK
  5
7B
330
79
100
AcDbEntity
  8
0
100
AcDbBlockEnd
  0
BLOCK
  5
85
330
84
100
AcDbEntity
  8
0
100
AcDbBlockBegin
  2
SW_CENTERMARK6
 70
     0
 71
     0
 10
0.0
 20
0.0
 30
0.0
  3
SW_CENTERMARK6
  1

  0
LINE
  5
87
330
84
100
AcDbEntity
  8
SLD-0
  6
Continuous
 62
   179
100
AcDbLine
 10
93.5110286444
 20
147.2424607339
 30
0.0
 11
93.5110286444
 21
149.7424607339
 31
0.0
  0
LINE
  5
88
330
84
100
AcDbEntity
  8
SLD-0
  6
Continuous
 62
   179
100
AcDbLine
 10
93.5110286444
 20
147.2424607339
 30
0.0
 11
91.0110286444
 21
147.2424607339
 31
0.0
  0
LINE
  5
89
330
84
100
AcDbEntity
  8
SLD-0
  6
Continuous
 62
   179
100
AcDbLine
 10
93.5110286444
 20
147.2424607339
 30
0.0
 11
93.5110286444
 21
144.7424607339
 31
0.0
  0
LINE
  5
8A
330
84
100
AcDbEntity
  8
SLD-0
  6
Continuous
 62
   179
100
AcDbLine
 10
93.5110286444
 20
147.2424607339
 30
0.0
 11
96.0110286444
 21
147.2424607339
 31
0.0
  0
LINE
  5
8B
330
84
100
AcDbEntity
  8
SLD-0
  6
Continuous
 62
   179
100
AcDbLine
 10
93.5110286444
 20
152.2424607339
 30
0.0
 11
93.5110286444
 21
152.9924607339
 31
0.0
  0
LINE
  5
8C
330
84
100
AcDbEntity
  8
SLD-0
  6
Continuous
 62
   179
100
AcDbLine
 10
88.5110286444
 20
147.2424607339
 30
0.0
 11
87.7610286444
 21
147.2424607339
 31
0.0
  0
LINE
  5
8D
330
84
100
AcDbEntity
  8
SLD-0
  6
Continuous
 62
   179
100
AcDbLine
 10
93.5110286444
 20
142.2424607339
 30
0.0
 11
93.5110286444
 21
141.4924607339
 31
0.0
  0
LINE
  5
8E
330
84
100
AcDbEntity
  8
SLD-0
  6
Continuous
 62
   179
100
AcDbLine
 10
98.5110286444
 20
147.2424607339
 30
0.0
 11
99.2610286444
 21
147.2424607339
 31
0.0
  0
ENDBLK
  5
86
330
84
100
AcDbEntity
  8
0
100
AcDbBlockEnd
  0
BLOCK
  5
90
330
8F
100
AcDbEntity
  8
0
100
AcDbBlockBegin
  2
SW_CENTERMARK7
 70
     0
 71
     0
 10
0.0
 20
0.0
 30
0.0
  3
SW_CENTERMARK7
  1

  0
LINE
  5
92
330
8F
100
AcDbEntity
  8
SLD-0
  6
Continuous
 62
   179
100
AcDbLine
 10
65.5110286444
 20
147.2424607339
 30
0.0
 11
65.5110286444
 21
149.7424607339
 31
0.0
  0
LINE
  5
93
330
8F
100
AcDbEntity
  8
SLD-0
  6
Continuous
 62
   179
100
AcDbLine
 10
65.5110286444
 20
147.2424607339
 30
0.0
 11
63.0110286444
 21
147.2424607339
 31
0.0
  0
LINE
  5
94
330
8F
100
AcDbEntity
  8
SLD-0
  6
Continuous
 62
   179
100
AcDbLine
 10
65.5110286444
 20
147.2424607339
 30
0.0
 11
65.5110286444
 21
144.7424607339
 31
0.0
  0
LINE
  5
95
330
8F
100
AcDbEntity
  8
SLD-0
  6
Continuous
 62
   179
100
AcDbLine
 10
65.5110286444
 20
147.2424607339
 30
0.0
 11
68.0110286444
 21
147.2424607339
 31
0.0
  0
LINE
  5
96
330
8F
100
AcDbEntity
  8
SLD-0
  6
Continuous
 62
   179
100
AcDbLine
 10
65.5110286444
 20
152.2424607339
 30
0.0
 11
65.5110286444
 21
152.9924607339
 31
0.0
  0
LINE
  5
97
330
8F
100
AcDbEntity
  8
SLD-0
  6
Continuous
 62
   179
100
AcDbLine
 10
60.5110286444
 20
147.2424607339
 30
0.0
 11
59.7610286444
 21
147.2424607339
 31
0.0
  0
LINE
  5
98
330
8F
100
AcDbEntity
  8
SLD-0
  6
Continuous
 62
   179
100
AcDbLine
 10
65.5110286444
 20
142.2424607339
 30
0.0
 11
65.5110286444
 21
141.4924607339
 31
0.0
  0
LINE
  5
99
330
8F
100
AcDbEntity
  8
SLD-0
  6
Continuous
 62
   179
100
AcDbLine
 10
70.5110286444
 20
147.2424607339
 30
0.0
 11
71.2610286444
 21
147.2424607339
 31
0.0
  0
ENDBLK
  5
91
330
8F
100
AcDbEntity
  8
0
100
AcDbBlockEnd
  0
BLOCK
  5
9B
330
9A
100
AcDbEntity
  8
0
100
AcDbBlockBegin
  2
SW_CENTERMARK8
 70
     0
 71
     0
 10
0.0
 20
0.0
 30
0.0
  3
SW_CENTERMARK8
  1

  0
LINE
  5
9D
330
9A
100
AcDbEntity
  8
SLD-0
  6
Continuous
 62
   179
100
AcDbLine
 10
67.0110286444
 20
214.5370877795
 30
0.0
 11
67.0110286444
 21
217.0370877795
 31
0.0
  0
LINE
  5
9E
330
9A
100
AcDbEntity
  8
SLD-0
  6
Continuous
 62
   179
100
AcDbLine
 10
67.0110286444
 20
214.5370877795
 30
0.0
 11
64.5110286444
 21
214.5370877795
 31
0.0
  0
LINE
  5
9F
330
9A
100
AcDbEntity
  8
SLD-0
  6
Continuous
 62
   179
100
AcDbLine
 10
67.0110286444
 20
214.5370877795
 30
0.0
 11
67.0110286444
 21
212.0370877795
 31
0.0
  0
LINE
  5
A0
330
9A
100
AcDbEntity
  8
SLD-0
  6
Continuous
 62
   179
100
AcDbLine
 10
67.0110286444
 20
214.5370877795
 30
0.0
 11
69.5110286444
 21
214.5370877795
 31
0.0
  0
LINE
  5
A1
330
9A
100
AcDbEntity
  8
SLD-0
  6
Continuous
 62
   179
100
AcDbLine
 10
67.0110286444
 20
219.5370877795
 30
0.0
 11
67.0110286444
 21
220.2870877795
 31
0.0
  0
LINE
  5
A2
330
9A
100
AcDbEntity
  8
SLD-0
  6
Continuous
 62
   179
100
AcDbLine
 10
62.0110286444
 20
214.5370877795
 30
0.0
 11
61.2610286444
 21
214.5370877795
 31
0.0
  0
LINE
  5
A3
330
9A
100
AcDbEntity
  8
SLD-0
  6
Continuous
 62
   179
100
AcDbLine
 10
67.0110286444
 20
209.5370877795
 30
0.0
 11
67.0110286444
 21
208.7870877795
 31
0.0
  0
LINE
  5
A4
330
9A
100
AcDbEntity
  8
SLD-0
  6
Continuous
 62
   179
100
AcDbLine
 10
72.0110286444
 20
214.5370877795
 30
0.0
 11
72.7610286444
 21
214.5370877795
 31
0.0
  0
ENDBLK
  5
9C
330
9A
100
AcDbEntity
  8
0
100
AcDbBlockEnd
  0
BLOCK
  5
A6
330
A5
100
AcDbEntity
  8
0
100
AcDbBlockBegin
  2
SW_CENTERMARK9
 70
     0
 71
     0
 10
0.0
 20
0.0
 30
0.0
  3
SW_CENTERMARK9
  1

  0
LINE
  5
A8
330
A5
100
AcDbEntity
  8
SLD-0
  6
Continuous
 62
   179
100
AcDbLine
 10
67.0110286444
 20
239.5370877795
 30
0.0
 11
67.0110286444
 21
242.0370877795
 31
0.0
  0
LINE
  5
A9
330
A5
100
AcDbEntity
  8
SLD-0
  6
Continuous
 62
   179
100
AcDbLine
 10
67.0110286444
 20
239.5370877795
 30
0.0
 11
64.5110286444
 21
239.5370877795
 31
0.0
  0
LINE
  5
AA
330
A5
100
AcDbEntity
  8
SLD-0
  6
Continuous
 62
   179
100
AcDbLine
 10
67.0110286444
 20
239.5370877795
 30
0.0
 11
67.0110286444
 21
237.0370877795
 31
0.0
  0
LINE
  5
AB
330
A5
100
AcDbEntity
  8
SLD-0
  6
Continuous
 62
   179
100
AcDbLine
 10
67.0110286444
 20
239.5370877795
 30
0.0
 11
69.5110286444
 21
239.5370877795
 31
0.0
  0
LINE
  5
AC
330
A5
100
AcDbEntity
  8
SLD-0
  6
Continuous
 62
   179
100
AcDbLine
 10
67.0110286444
 20
244.5370877795
 30
0.0
 11
67.0110286444
 21
245.2870877795
 31
0.0
  0
LINE
  5
AD
330
A5
100
AcDbEntity
  8
SLD-0
  6
Continuous
 62
   179
100
AcDbLine
 10
62.0110286444
 20
239.5370877795
 30
0.0
 11
61.2610286444
 21
239.5370877795
 31
0.0
  0
LINE
  5
AE
330
A5
100
AcDbEntity
  8
SLD-0
  6
Continuous
 62
   179
100
AcDbLine
 10
67.0110286444
 20
234.5370877795
 30
0.0
 11
67.0110286444
 21
233.7870877795
 31
0.0
  0
LINE
  5
AF
330
A5
100
AcDbEntity
  8
SLD-0
  6
Continuous
 62
   179
100
AcDbLine
 10
72.0110286444
 20
239.5370877795
 30
0.0
 11
72.7610286444
 21
239.5370877795
 31
0.0
  0
ENDBLK
  5
A7
330
A5
100
AcDbEntity
  8
0
100
AcDbBlockEnd
  0
BLOCK
  5
B1
330
B0
100
AcDbEntity
  8
0
100
AcDbBlockBegin
  2
SW_CENTERMARK10
 70
     0
 71
     0
 10
0.0
 20
0.0
 30
0.0
  3
SW_CENTERMARK10
  1

  0
LINE
  5
B3
330
B0
100
AcDbEntity
  8
SLD-0
  6
Continuous
 62
   179
100
AcDbLine
 10
92.0110286444
 20
239.5370877795
 30
0.0
 11
92.0110286444
 21
242.0370877795
 31
0.0
  0
LINE
  5
B4
330
B0
100
AcDbEntity
  8
SLD-0
  6
Continuous
 62
   179
100
AcDbLine
 10
92.0110286444
 20
239.5370877795
 30
0.0
 11
89.5110286444
 21
239.5370877795
 31
0.0
  0
LINE
  5
B5
330
B0
100
AcDbEntity
  8
SLD-0
  6
Continuous
 62
   179
100
AcDbLine
 10
92.0110286444
 20
239.5370877795
 30
0.0
 11
92.0110286444
 21
237.0370877795
 31
0.0
  0
LINE
  5
B6
330
B0
100
AcDbEntity
  8
SLD-0
  6
Continuous
 62
   179
100
AcDbLine
 10
92.0110286444
 20
239.5370877795
 30
0.0
 11
94.5110286444
 21
239.5370877795
 31
0.0
  0
LINE
  5
B7
330
B0
100
AcDbEntity
  8
SLD-0
  6
Continuous
 62
   179
100
AcDbLine
 10
92.0110286444
 20
244.5370877795
 30
0.0
 11
92.0110286444
 21
245.2870877795
 31
0.0
  0
LINE
  5
B8
330
B0
100
AcDbEntity
  8
SLD-0
  6
Continuous
 62
   179
100
AcDbLine
 10
87.0110286444
 20
239.5370877795
 30
0.0
 11
86.2610286444
 21
239.5370877795
 31
0.0
  0
LINE
  5
B9
330
B0
100
AcDbEntity
  8
SLD-0
  6
Continuous
 62
   179
100
AcDbLine
 10
92.0110286444
 20
234.5370877795
 30
0.0
 11
92.0110286444
 21
233.7870877795
 31
0.0
  0
LINE
  5
BA
330
B0
100
AcDbEntity
  8
SLD-0
  6
Continuous
 62
   179
100
AcDbLine
 10
97.0110286444
 20
239.5370877795
 30
0.0
 11
97.7610286444
 21
239.5370877795
 31
0.0
  0
ENDBLK
  5
B2
330
B0
100
AcDbEntity
  8
0
100
AcDbBlockEnd
  0
BLOCK
  5
BC
330
BB
100
AcDbEntity
  8
0
100
AcDbBlockBegin
  2
SW_CENTERMARK11
 70
     0
 71
     0
 10
0.0
 20
0.0
 30
0.0
  3
SW_CENTERMARK11
  1

  0
LINE
  5
BE
330
BB
100
AcDbEntity
  8
SLD-0
  6
Continuous
 62
   179
100
AcDbLine
 10
92.0110286444
 20
214.5370877795
 30
0.0
 11
92.0110286444
 21
217.0370877795
 31
0.0
  0
LINE
  5
BF
330
BB
100
AcDbEntity
  8
SLD-0
  6
Continuous
 62
   179
100
AcDbLine
 10
92.0110286444
 20
214.5370877795
 30
0.0
 11
89.5110286444
 21
214.5370877795
 31
0.0
  0
LINE
  5
C0
330
BB
100
AcDbEntity
  8
SLD-0
  6
Continuous
 62
   179
100
AcDbLine
 10
92.0110286444
 20
214.5370877795
 30
0.0
 11
92.0110286444
 21
212.0370877795
 31
0.0
  0
LINE
  5
C1
330
BB
100
AcDbEntity
  8
SLD-0
  6
Continuous
 62
   179
100
AcDbLine
 10
92.0110286444
 20
214.5370877795
 30
0.0
 11
94.5110286444
 21
214.5370877795
 31
0.0
  0
LINE
  5
C2
330
BB
100
AcDbEntity
  8
SLD-0
  6
Continuous
 62
   179
100
AcDbLine
 10
92.0110286444
 20
219.5370877795
 30
0.0
 11
92.0110286444
 21
220.2870877795
 31
0.0
  0
LINE
  5
C3
330
BB
100
AcDbEntity
  8
SLD-0
  6
Continuous
 62
   179
100
AcDbLine
 10
87.0110286444
 20
214.5370877795
 30
0.0
 11
86.2610286444
 21
214.5370877795
 31
0.0
  0
LINE
  5
C4
330
BB
100
AcDbEntity
  8
SLD-0
  6
Continuous
 62
   179
100
AcDbLine
 10
92.0110286444
 20
209.5370877795
 30
0.0
 11
92.0110286444
 21
208.7870877795
 31
0.0
  0
LINE
  5
C5
330
BB
100
AcDbEntity
  8
SLD-0
  6
Continuous
 62
   179
100
AcDbLine
 10
97.0110286444
 20
214.5370877795
 30
0.0
 11
97.7610286444
 21
214.5370877795
 31
0.0
  0
ENDBLK
  5
BD
330
BB
100
AcDbEntity
  8
0
100
AcDbBlockEnd
  0
BLOCK
  5
166
330
15B
100
AcDbEntity
  8
0
100
AcDbBlockBegin
  2
*D15
 70
     1
 71
     0
 10
0.0
 20
0.0
 30
0.0
  3
*D15
  1

  0
LINE
  5
16C
330
15B
100
AcDbEntity
  8
SLD-0
 62
     7
100
AcDbLine
 10
58.7610286444
 20
110.2424607339
 30
0.0
 11
41.7342306285
 21
110.2424607339
 31
0.0
  0
LINE
  5
16D
330
15B
100
AcDbEntity
  8
SLD-0
 62
     7
100
AcDbLine
 10
53.5110286444
 20
87.7424607339
 30
0.0
 11
41.7342306285
 21
87.7424607339
 31
0.0
  0
LINE
  5
16E
330
15B
100
AcDbEntity
  8
SLD-0
 62
     7
100
AcDbLine
 10
42.7342306285
 20
110.2424607339
 30
0.0
 11
42.7342306285
 21
87.7424607339
 31
0.0
  0
LINE
  5
16F
330
15B
100
AcDbEntity
  8
SLD-0
 62
     7
100
AcDbLine
 10
41.9303836285
 20
107.2424607339
 30
0.0
 11
42.7342306285
 21
110.2424607339
 31
0.0
  0
LINE
  5
170
330
15B
100
AcDbEntity
  8
SLD-0
 62
     7
100
AcDbLine
 10
42.7342306285
 20
110.2424607339
 30
0.0
 11
43.5380776285
 21
107.2424607339
 31
0.0
  0
LINE
  5
171
330
15B
100
AcDbEntity
  8
SLD-0
 62
     7
100
AcDbLine
 10
42.7342306285
 20
110.2424607339
 30
0.0
 11
42.7342306285
 21
107.2424607339
 31
0.0
  0
LINE
  5
172
330
15B
100
AcDbEntity
  8
SLD-0
 62
     7
100
AcDbLine
 10
43.5380776285
 20
90.7424607339
 30
0.0
 11
42.7342306285
 21
87.7424607339
 31
0.0
  0
LINE
  5
173
330
15B
100
AcDbEntity
  8
SLD-0
 62
     7
100
AcDbLine
 10
42.7342306285
 20
87.7424607339
 30
0.0
 11
41.9303836285
 21
90.7424607339
 31
0.0
  0
LINE
  5
174
330
15B
100
AcDbEntity
  8
SLD-0
 62
     7
100
AcDbLine
 10
42.7342306285
 20
87.7424607339
 30
0.0
 11
42.7342306285
 21
90.7424607339
 31
0.0
  0
MTEXT
  5
175
330
15B
100
AcDbEntity
  8
SLD-0
 62
     7
100
AcDbMText
 10
38.2075371654
 20
94.9197631464
 30
0.3
 40
3.5
 41
0.0
 71
     1
 72
     1
  1
22.5
  7
SLDTEXTSTYLE0
 11
6.123031769111886E-17
 21
1.0
 31
0.0
 73
     1
 44
1.0
  0
ENDBLK
  5
167
330
15B
100
AcDbEntity
  8
0
100
AcDbBlockEnd
  0
BLOCK
  5
16A
330
169
100
AcDbEntity
  8
0
100
AcDbBlockBegin
  2
_None
 70
     0
 71
     0
 10
0.0
 20
0.0
 30
0.0
  3
_None
  1

  0
ENDBLK
  5
16B
330
169
100
AcDbEntity
  8
0
100
AcDbBlockEnd
  0
BLOCK
  5
182
330
177
100
AcDbEntity
  8
0
100
AcDbBlockBegin
  2
*D17
 70
     1
 71
     0
 10
0.0
 20
0.0
 30
0.0
  3
*D17
  1

  0
LINE
  5
185
330
177
100
AcDbEntity
  8
SLD-0
 62
     7
100
AcDbLine
 10
58.7610286444
 20
127.2424607339
 30
0.0
 11
41.7342306285
 21
127.2424607339
 31
0.0
  0
LINE
  5
186
330
177
100
AcDbEntity
  8
SLD-0
 62
     7
100
AcDbLine
 10
58.7610286444
 20
110.2424607339
 30
0.0
 11
41.7342306285
 21
110.2424607339
 31
0.0
  0
LINE
  5
187
330
177
100
AcDbEntity
  8
SLD-0
 62
     7
100
AcDbLine
 10
42.7342306285
 20
127.2424607339
 30
0.0
 11
42.7342306285
 21
110.2424607339
 31
0.0
  0
LINE
  5
188
330
177
100
AcDbEntity
  8
SLD-0
 62
     7
100
AcDbLine
 10
41.9303836285
 20
124.2424607339
 30
0.0
 11
42.7342306285
 21
127.2424607339
 31
0.0
  0
LINE
  5
189
330
177
100
AcDbEntity
  8
SLD-0
 62
     7
100
AcDbLine
 10
42.7342306285
 20
127.2424607339
 30
0.0
 11
43.5380776285
 21
124.2424607339
 31
0.0
  0
LINE
  5
18A
330
177
100
AcDbEntity
  8
SLD-0
 62
     7
100
AcDbLine
 10
42.7342306285
 20
127.2424607339
 30
0.0
 11
42.7342306285
 21
124.2424607339
 31
0.0
  0
LINE
  5
18B
330
177
100
AcDbEntity
  8
SLD-0
 62
     7
100
AcDbLine
 10
43.5380776285
 20
113.2424607339
 30
0.0
 11
42.7342306285
 21
110.2424607339
 31
0.0
  0
LINE
  5
18C
330
177
100
AcDbEntity
  8
SLD-0
 62
     7
100
AcDbLine
 10
42.7342306285
 20
110.2424607339
 30
0.0
 11
41.9303836285
 21
113.2424607339
 31
0.0
  0
LINE
  5
18D
330
177
100
AcDbEntity
  8
SLD-0
 62
     7
100
AcDbLine
 10
42.7342306285
 20
110.2424607339
 30
0.0
 11
42.7342306285
 21
113.2424607339
 31
0.0
  0
MTEXT
  5
18E
330
177
100
AcDbEntity
  8
SLD-0
 62
     7
100
AcDbMText
 10
38.2075371654
 20
116.7070255107
 30
0.3
 40
3.5
 41
0.0
 71
     1
 72
     1
  1
17
  7
SLDTEXTSTYLE0
 11
6.123031769111886E-17
 21
1.0
 31
0.0
 73
     1
 44
1.0
  0
ENDBLK
  5
183
330
177
100
AcDbEntity
  8
0
100
AcDbBlockEnd
  0
BLOCK
  5
19D
330
190
100
AcDbEntity
  8
0
100
AcDbBlockBegin
  2
*D18
 70
     1
 71
     0
 10
0.0
 20
0.0
 30
0.0
  3
*D18
  1

  0
LINE
  5
19F
330
190
100
AcDbEntity
  8
SLD-0
 62
     7
100
AcDbLine
 10
77.0110286444
 20
134.2866817251
 30
0.0
 11
77.0110286444
 21
78.4391537966
 31
0.0
  0
LINE
  5
1A0
330
190
100
AcDbEntity
  8
SLD-0
 62
     7
100
AcDbLine
 10
82.0110286444
 20
134.2866817251
 30
0.0
 11
82.0110286444
 21
78.4391537966
 31
0.0
  0
LINE
  5
1A1
330
190
100
AcDbEntity
  8
SLD-0
 62
     7
100
AcDbLine
 10
77.0110286444
 20
79.3949328053
 30
0.0
 11
72.0110286444
 21
79.3949328053
 31
0.0
  0
LINE
  5
1A2
330
190
100
AcDbEntity
  8
SLD-0
 62
     7
100
AcDbLine
 10
77.0110286444
 20
79.3949328053
 30
0.0
 11
82.0110286444
 21
79.3949328053
 31
0.0
  0
LINE
  5
1A3
330
190
100
AcDbEntity
  8
SLD-0
 62
     7
100
AcDbLine
 10
82.0110286444
 20
79.3949328053
 30
0.0
 11
91.2723301645
 21
79.3949328053
 31
0.0
  0
LINE
  5
1A4
330
190
100
AcDbEntity
  8
SLD-0
 62
     7
100
AcDbLine
 10
74.0110286444
 20
80.1987798053
 30
0.0
 11
77.0110286444
 21
79.3949328053
 31
0.0
  0
LINE
  5
1A5
330
190
100
AcDbEntity
  8
SLD-0
 62
     7
100
AcDbLine
 10
77.0110286444
 20
79.3949328053
 30
0.0
 11
74.0110286444
 21
78.5910858053
 31
0.0
  0
LINE
  5
1A6
330
190
100
AcDbEntity
  8
SLD-0
 62
     7
100
AcDbLine
 10
77.0110286444
 20
79.3949328053
 30
0.0
 11
74.0110286444
 21
79.3949328053
 31
0.0
  0
LINE
  5
1A7
330
190
100
AcDbEntity
  8
SLD-0
 62
     7
100
AcDbLine
 10
85.0110286444
 20
78.5910858053
 30
0.0
 11
82.0110286444
 21
79.3949328053
 31
0.0
  0
LINE
  5
1A8
330
190
100
AcDbEntity
  8
SLD-0
 62
     7
100
AcDbLine
 10
82.0110286444
 20
79.3949328053
 30
0.0
 11
85.0110286444
 21
80.1987798053
 31
0.0
  0
LINE
  5
1A9
330
190
100
AcDbEntity
  8
SLD-0
 62
     7
100
AcDbLine
 10
82.0110286444
 20
79.3949328053
 30
0.0
 11
85.0110286444
 21
79.3949328053
 31
0.0
  0
MTEXT
  5
1AA
330
190
100
AcDbEntity
  8
SLD-0
 62
     7
100
AcDbMText
 10
87.6493949414
 20
83.9216262685
 30
0.3
 40
3.5
 41
0.0
 71
     1
 72
     1
  1
5
  7
SLDTEXTSTYLE0
 73
     1
 44
1.0
  0
ENDBLK
  5
19E
330
190
100
AcDbEntity
  8
0
100
AcDbBlockEnd
  0
BLOCK
  5
1B6
330
1AC
100
AcDbEntity
  8
0
100
AcDbBlockBegin
  2
*D19
 70
     1
 71
     0
 10
0.0
 20
0.0
 30
0.0
  3
*D19
  1

  0
LINE
  5
1B8
330
1AC
100
AcDbEntity
  8
SLD-0
 62
     7
100
AcDbLine
 10
54.5110286444
 20
86.7424607339
 30
0.0
 11
54.5110286444
 21
78.3949328053
 31
0.0
  0
LINE
  5
1B9
330
1AC
100
AcDbEntity
  8
SLD-0
 62
     7
100
AcDbLine
 10
77.0110286444
 20
94.7424607339
 30
0.0
 11
77.0110286444
 21
78.3949328053
 31
0.0
  0
LINE
  5
1BA
330
1AC
100
AcDbEntity
  8
SLD-0
 62
     7
100
AcDbLine
 10
54.5110286444
 20
79.3949328053
 30
0.0
 11
77.0110286444
 21
79.3949328053
 31
0.0
  0
LINE
  5
1BB
330
1AC
100
AcDbEntity
  8
SLD-0
 62
     7
100
AcDbLine
 10
57.5110286444
 20
78.5910858053
 30
0.0
 11
54.5110286444
 21
79.3949328053
 31
0.0
  0
LINE
  5
1BC
330
1AC
100
AcDbEntity
  8
SLD-0
 62
     7
100
AcDbLine
 10
54.5110286444
 20
79.3949328053
 30
0.0
 11
57.5110286444
 21
80.1987798053
 31
0.0
  0
LINE
  5
1BD
330
1AC
100
AcDbEntity
  8
SLD-0
 62
     7
100
AcDbLine
 10
54.5110286444
 20
79.3949328053
 30
0.0
 11
57.5110286444
 21
79.3949328053
 31
0.0
  0
LINE
  5
1BE
330
1AC
100
AcDbEntity
  8
SLD-0
 62
     7
100
AcDbLine
 10
74.0110286444
 20
80.1987798053
 30
0.0
 11
77.0110286444
 21
79.3949328053
 31
0.0
  0
LINE
  5
1BF
330
1AC
100
AcDbEntity
  8
SLD-0
 62
     7
100
AcDbLine
 10
77.0110286444
 20
79.3949328053
 30
0.0
 11
74.0110286444
 21
78.5910858053
 31
0.0
  0
LINE
  5
1C0
330
1AC
100
AcDbEntity
  8
SLD-0
 62
     7
100
AcDbLine
 10
77.0110286444
 20
79.3949328053
 30
0.0
 11
74.0110286444
 21
79.3949328053
 31
0.0
  0
MTEXT
  5
1C1
330
1AC
100
AcDbEntity
  8
SLD-0
 62
     7
100
AcDbMText
 10
61.688331057
 20
83.9216262685
 30
0.3
 40
3.5
 41
0.0
 71
     1
 72
     1
  1
22.5
  7
SLDTEXTSTYLE0
 73
     1
 44
1.0
  0
ENDBLK
  5
1B7
330
1AC
100
AcDbEntity
  8
0
100
AcDbBlockEnd
  0
BLOCK
  5
1CD
330
1C3
100
AcDbEntity
  8
0
100
AcDbBlockBegin
  2
*D20
 70
     1
 71
     0
 10
0.0
 20
0.0
 30
0.0
  3
*D20
  1

  0
LINE
  5
1CF
330
1C3
100
AcDbEntity
  8
SLD-0
 62
     7
100
AcDbLine
 10
54.5110286444
 20
173.7424607339
 30
0.0
 11
54.5110286444
 21
184.2900518313
 31
0.0
  0
LINE
  5
1D0
330
1C3
100
AcDbEntity
  8
SLD-0
 62
     7
100
AcDbLine
 10
65.5110286444
 20
176.9924607339
 30
0.0
 11
65.5110286444
 21
184.2900518313
 31
0.0
  0
LINE
  5
1D1
330
1C3
100
AcDbEntity
  8
SLD-0
 62
     7
100
AcDbLine
 10
54.5110286444
 20
183.2900518313
 30
0.0
 11
49.5110286444
 21
183.2900518313
 31
0.0
  0
LINE
  5
1D2
330
1C3
100
AcDbEntity
  8
SLD-0
 62
     7
100
AcDbLine
 10
54.5110286444
 20
183.2900518313
 30
0.0
 11
65.5110286444
 21
183.2900518313
 31
0.0
  0
LINE
  5
1D3
330
1C3
100
AcDbEntity
  8
SLD-0
 62
     7
100
AcDbLine
 10
65.5110286444
 20
183.2900518313
 30
0.0
 11
70.5110286444
 21
183.2900518313
 31
0.0
  0
LINE
  5
1D4
330
1C3
100
AcDbEntity
  8
SLD-0
 62
     7
100
AcDbLine
 10
51.5110286444
 20
184.0938988313
 30
0.0
 11
54.5110286444
 21
183.2900518313
 31
0.0
  0
LINE
  5
1D5
330
1C3
100
AcDbEntity
  8
SLD-0
 62
     7
100
AcDbLine
 10
54.5110286444
 20
183.2900518313
 30
0.0
 11
51.5110286444
 21
182.4862048313
 31
0.0
  0
LINE
  5
1D6
330
1C3
100
AcDbEntity
  8
SLD-0
 62
     7
100
AcDbLine
 10
54.5110286444
 20
183.2900518313
 30
0.0
 11
51.5110286444
 21
183.2900518313
 31
0.0
  0
LINE
  5
1D7
330
1C3
100
AcDbEntity
  8
SLD-0
 62
     7
100
AcDbLine
 10
68.5110286444
 20
182.4862048313
 30
0.0
 11
65.5110286444
 21
183.2900518313
 31
0.0
  0
LINE
  5
1D8
330
1C3
100
AcDbEntity
  8
SLD-0
 62
     7
100
AcDbLine
 10
65.5110286444
 20
183.2900518313
 30
0.0
 11
68.5110286444
 21
184.0938988313
 31
0.0
  0
LINE
  5
1D9
330
1C3
100
AcDbEntity
  8
SLD-0
 62
     7
100
AcDbLine
 10
65.5110286444
 20
183.2900518313
 30
0.0
 11
68.5110286444
 21
183.2900518313
 31
0.0
  0
MTEXT
  5
1DA
330
1C3
100
AcDbEntity
  8
SLD-0
 62
     7
100
AcDbMText
 10
57.9755934213
 20
187.8167452944
 30
0.3
 40
3.5
 41
0.0
 71
     1
 72
     1
  1
11
  7
SLDTEXTSTYLE0
 73
     1
 44
1.0
  0
ENDBLK
  5
1CE
330
1C3
100
AcDbEntity
  8
0
100
AcDbBlockEnd
  0
BLOCK
  5
1E7
330
1DC
100
AcDbEntity
  8
0
100
AcDbBlockBegin
  2
*D21
 70
     1
 71
     0
 10
0.0
 20
0.0
 30
0.0
  3
*D21
  1

  0
LINE
  5
1E9
330
1DC
100
AcDbEntity
  8
SLD-0
 62
     7
100
AcDbLine
 10
78.5110286444
 20
177.7424607339
 30
0.0
 11
33.640370864
 21
177.7424607339
 31
0.0
  0
LINE
  5
1EA
330
1DC
100
AcDbEntity
  8
SLD-0
 62
     7
100
AcDbLine
 10
78.5110286444
 20
87.7424607339
 30
0.0
 11
33.640370864
 21
87.7424607339
 31
0.0
  0
LINE
  5
1EB
330
1DC
100
AcDbEntity
  8
SLD-0
 62
     7
100
AcDbLine
 10
34.640370864
 20
177.7424607339
 30
0.0
 11
34.640370864
 21
87.7424607339
 31
0.0
  0
LINE
  5
1EC
330
1DC
100
AcDbEntity
  8
SLD-0
 62
     7
100
AcDbLine
 10
33.836523864
 20
174.7424607339
 30
0.0
 11
34.640370864
 21
177.7424607339
 31
0.0
  0
LINE
  5
1ED
330
1DC
100
AcDbEntity
  8
SLD-0
 62
     7
100
AcDbLine
 10
34.640370864
 20
177.7424607339
 30
0.0
 11
35.444217864
 21
174.7424607339
 31
0.0
  0
LINE
  5
1EE
330
1DC
100
AcDbEntity
  8
SLD-0
 62
     7
100
AcDbLine
 10
34.640370864
 20
177.7424607339
 30
0.0
 11
34.640370864
 21
174.7424607339
 31
0.0
  0
LINE
  5
1EF
330
1DC
100
AcDbEntity
  8
SLD-0
 62
     7
100
AcDbLine
 10
35.444217864
 20
90.7424607339
 30
0.0
 11
34.640370864
 21
87.7424607339
 31
0.0
  0
LINE
  5
1F0
330
1DC
100
AcDbEntity
  8
SLD-0
 62
     7
100
AcDbLine
 10
34.640370864
 20
87.7424607339
 30
0.0
 11
33.836523864
 21
90.7424607339
 31
0.0
  0
LINE
  5
1F1
330
1DC
100
AcDbEntity
  8
SLD-0
 62
     7
100
AcDbLine
 10
34.640370864
 20
87.7424607339
 30
0.0
 11
34.640370864
 21
90.7424607339
 31
0.0
  0
MTEXT
  5
1F2
330
1DC
100
AcDbEntity
  8
SLD-0
 62
     7
100
AcDbMText
 10
30.1136774009
 20
130.7070255107
 30
0.3
 40
3.5
 41
0.0
 71
     1
 72
     1
  1
90
  7
SLDTEXTSTYLE0
 11
6.123031769111886E-17
 21
1.0
 31
0.0
 73
     1
 44
1.0
  0
ENDBLK
  5
1E8
330
1DC
100
AcDbEntity
  8
0
100
AcDbBlockEnd
  0
BLOCK
  5
1FE
330
1F4
100
AcDbEntity
  8
0
100
AcDbBlockBegin
  2
*D22
 70
     1
 71
     0
 10
0.0
 20
0.0
 30
0.0
  3
*D22
  1

  0
LINE
  5
200
330
1F4
100
AcDbEntity
  8
SLD-0
 62
     7
100
AcDbLine
 10
65.5110286444
 20
133.9924607339
 30
0.0
 11
65.5110286444
 21
184.2900518313
 31
0.0
  0
LINE
  5
201
330
1F4
100
AcDbEntity
  8
SLD-0
 62
     7
100
AcDbLine
 10
93.5110286444
 20
133.9924607339
 30
0.0
 11
93.5110286444
 21
184.2900518313
 31
0.0
  0
LINE
  5
202
330
1F4
100
AcDbEntity
  8
SLD-0
 62
     7
100
AcDbLine
 10
65.5110286444
 20
183.2900518313
 30
0.0
 11
93.5110286444
 21
183.2900518313
 31
0.0
  0
LINE
  5
203
330
1F4
100
AcDbEntity
  8
SLD-0
 62
     7
100
AcDbLine
 10
68.5110286444
 20
182.4862048313
 30
0.0
 11
65.5110286444
 21
183.2900518313
 31
0.0
  0
LINE
  5
204
330
1F4
100
AcDbEntity
  8
SLD-0
 62
     7
100
AcDbLine
 10
65.5110286444
 20
183.2900518313
 30
0.0
 11
68.5110286444
 21
184.0938988313
 31
0.0
  0
LINE
  5
205
330
1F4
100
AcDbEntity
  8
SLD-0
 62
     7
100
AcDbLine
 10
65.5110286444
 20
183.2900518313
 30
0.0
 11
68.5110286444
 21
183.2900518313
 31
0.0
  0
LINE
  5
206
330
1F4
100
AcDbEntity
  8
SLD-0
 62
     7
100
AcDbLine
 10
90.5110286444
 20
184.0938988313
 30
0.0
 11
93.5110286444
 21
183.2900518313
 31
0.0
  0
LINE
  5
207
330
1F4
100
AcDbEntity
  8
SLD-0
 62
     7
100
AcDbLine
 10
93.5110286444
 20
183.2900518313
 30
0.0
 11
90.5110286444
 21
182.4862048313
 31
0.0
  0
LINE
  5
208
330
1F4
100
AcDbEntity
  8
SLD-0
 62
     7
100
AcDbLine
 10
93.5110286444
 20
183.2900518313
 30
0.0
 11
90.5110286444
 21
183.2900518313
 31
0.0
  0
MTEXT
  5
209
330
1F4
100
AcDbEntity
  8
SLD-0
 62
     7
100
AcDbMText
 10
77.4755934213
 20
187.8167452944
 30
0.3
 40
3.5
 41
0.0
 71
     1
 72
     1
  1
28
  7
SLDTEXTSTYLE0
 73
     1
 44
1.0
  0
ENDBLK
  5
1FF
330
1F4
100
AcDbEntity
  8
0
100
AcDbBlockEnd
  0
BLOCK
  5
216
330
20B
100
AcDbEntity
  8
0
100
AcDbBlockBegin
  2
*D23
 70
     1
 71
     0
 10
0.0
 20
0.0
 30
0.0
  3
*D23
  1

  0
LINE
  5
218
330
20B
100
AcDbEntity
  8
SLD-0
 62
     7
100
AcDbLine
 10
58.7610286444
 20
127.2424607339
 30
0.0
 11
41.7342306285
 21
127.2424607339
 31
0.0
  0
LINE
  5
219
330
20B
100
AcDbEntity
  8
SLD-0
 62
     7
100
AcDbLine
 10
58.7610286444
 20
147.2424607339
 30
0.0
 11
41.7342306285
 21
147.2424607339
 31
0.0
  0
LINE
  5
21A
330
20B
100
AcDbEntity
  8
SLD-0
 62
     7
100
AcDbLine
 10
42.7342306285
 20
127.2424607339
 30
0.0
 11
42.7342306285
 21
147.2424607339
 31
0.0
  0
LINE
  5
21B
330
20B
100
AcDbEntity
  8
SLD-0
 62
     7
100
AcDbLine
 10
43.5380776285
 20
130.2424607339
 30
0.0
 11
42.7342306285
 21
127.2424607339
 31
0.0
  0
LINE
  5
21C
330
20B
100
AcDbEntity
  8
SLD-0
 62
     7
100
AcDbLine
 10
42.7342306285
 20
127.2424607339
 30
0.0
 11
41.9303836285
 21
130.2424607339
 31
0.0
  0
LINE
  5
21D
330
20B
100
AcDbEntity
  8
SLD-0
 62
     7
100
AcDbLine
 10
42.7342306285
 20
127.2424607339
 30
0.0
 11
42.7342306285
 21
130.2424607339
 31
0.0
  0
LINE
  5
21E
330
20B
100
AcDbEntity
  8
SLD-0
 62
     7
100
AcDbLine
 10
41.9303836285
 20
144.2424607339
 30
0.0
 11
42.7342306285
 21
147.2424607339
 31
0.0
  0
LINE
  5
21F
330
20B
100
AcDbEntity
  8
SLD-0
 62
     7
100
AcDbLine
 10
42.7342306285
 20
147.2424607339
 30
0.0
 11
43.5380776285
 21
144.2424607339
 31
0.0
  0
LINE
  5
220
330
20B
100
AcDbEntity
  8
SLD-0
 62
     7
100
AcDbLine
 10
42.7342306285
 20
147.2424607339
 30
0.0
 11
42.7342306285
 21
144.2424607339
 31
0.0
  0
MTEXT
  5
221
330
20B
100
AcDbEntity
  8
SLD-0
 62
     7
100
AcDbMText
 10
38.2075371654
 20
135.2070255107
 30
0.3
 40
3.5
 41
0.0
 71
     1
 72
     1
  1
20
  7
SLDTEXTSTYLE0
 11
6.123031769111886E-17
 21
1.0
 31
0.0
 73
     1
 44
1.0
  0
ENDBLK
  5
217
330
20B
100
AcDbEntity
  8
0
100
AcDbBlockEnd
  0
BLOCK
  5
22E
330
223
100
AcDbEntity
  8
0
100
AcDbBlockBegin
  2
*D24
 70
     1
 71
     0
 10
0.0
 20
0.0
 30
0.0
  3
*D24
  1

  0
LINE
  5
230
330
223
100
AcDbEntity
  8
SLD-0
 62
     7
100
AcDbLine
 10
58.7610286444
 20
170.2424607339
 30
0.0
 11
41.7342306285
 21
170.2424607339
 31
0.0
  0
LINE
  5
231
330
223
100
AcDbEntity
  8
SLD-0
 62
     7
100
AcDbLine
 10
58.7610286444
 20
147.2424607339
 30
0.0
 11
41.7342306285
 21
147.2424607339
 31
0.0
  0
LINE
  5
232
330
223
100
AcDbEntity
  8
SLD-0
 62
     7
100
AcDbLine
 10
42.7342306285
 20
170.2424607339
 30
0.0
 11
42.7342306285
 21
147.2424607339
 31
0.0
  0
LINE
  5
233
330
223
100
AcDbEntity
  8
SLD-0
 62
     7
100
AcDbLine
 10
41.9303836285
 20
167.2424607339
 30
0.0
 11
42.7342306285
 21
170.2424607339
 31
0.0
  0
LINE
  5
234
330
223
100
AcDbEntity
  8
SLD-0
 62
     7
100
AcDbLine
 10
42.7342306285
 20
170.2424607339
 30
0.0
 11
43.5380776285
 21
167.2424607339
 31
0.0
  0
LINE
  5
235
330
223
100
AcDbEntity
  8
SLD-0
 62
     7
100
AcDbLine
 10
42.7342306285
 20
170.2424607339
 30
0.0
 11
42.7342306285
 21
167.2424607339
 31
0.0
  0
LINE
  5
236
330
223
100
AcDbEntity
  8
SLD-0
 62
     7
100
AcDbLine
 10
43.5380776285
 20
150.2424607339
 30
0.0
 11
42.7342306285
 21
147.2424607339
 31
0.0
  0
LINE
  5
237
330
223
100
AcDbEntity
  8
SLD-0
 62
     7
100
AcDbLine
 10
42.7342306285
 20
147.2424607339
 30
0.0
 11
41.9303836285
 21
150.2424607339
 31
0.0
  0
LINE
  5
238
330
223
100
AcDbEntity
  8
SLD-0
 62
     7
100
AcDbLine
 10
42.7342306285
 20
147.2424607339
 30
0.0
 11
42.7342306285
 21
150.2424607339
 31
0.0
  0
MTEXT
  5
239
330
223
100
AcDbEntity
  8
SLD-0
 62
     7
100
AcDbMText
 10
38.2075371654
 20
156.7070255107
 30
0.3
 40
3.5
 41
0.0
 71
     1
 72
     1
  1
23
  7
SLDTEXTSTYLE0
 11
6.123031769111886E-17
 21
1.0
 31
0.0
 73
     1
 44
1.0
  0
ENDBLK
  5
22F
330
223
100
AcDbEntity
  8
0
100
AcDbBlockEnd
  0
BLOCK
  5
245
330
23B
100
AcDbEntity
  8
0
100
AcDbBlockBegin
  2
*D25
 70
     1
 71
     0
 10
0.0
 20
0.0
 30
0.0
  3
*D25
  1

  0
LINE
  5
247
330
23B
100
AcDbEntity
  8
SLD-0
 62
     7
100
AcDbLine
 10
67.0110286444
 20
207.7870877795
 30
0.0
 11
67.0110286444
 21
199.8371690258
 31
0.0
  0
LINE
  5
248
330
23B
100
AcDbEntity
  8
SLD-0
 62
     7
100
AcDbLine
 10
92.0110286444
 20
207.7870877795
 30
0.0
 11
92.0110286444
 21
199.8371690258
 31
0.0
  0
LINE
  5
249
330
23B
100
AcDbEntity
  8
SLD-0
 62
     7
100
AcDbLine
 10
67.0110286444
 20
200.8371690258
 30
0.0
 11
92.0110286444
 21
200.8371690258
 31
0.0
  0
LINE
  5
24A
330
23B
100
AcDbEntity
  8
SLD-0
 62
     7
100
AcDbLine
 10
70.0110286444
 20
200.0333220258
 30
0.0
 11
67.0110286444
 21
200.8371690258
 31
0.0
  0
LINE
  5
24B
330
23B
100
AcDbEntity
  8
SLD-0
 62
     7
100
AcDbLine
 10
67.0110286444
 20
200.8371690258
 30
0.0
 11
70.0110286444
 21
201.6410160258
 31
0.0
  0
LINE
  5
24C
330
23B
100
AcDbEntity
  8
SLD-0
 62
     7
100
AcDbLine
 10
67.0110286444
 20
200.8371690258
 30
0.0
 11
70.0110286444
 21
200.8371690258
 31
0.0
  0
LINE
  5
24D
330
23B
100
AcDbEntity
  8
SLD-0
 62
     7
100
AcDbLine
 10
89.0110286444
 20
201.6410160258
 30
0.0
 11
92.0110286444
 21
200.8371690258
 31
0.0
  0
LINE
  5
24E
330
23B
100
AcDbEntity
  8
SLD-0
 62
     7
100
AcDbLine
 10
92.0110286444
 20
200.8371690258
 30
0.0
 11
89.0110286444
 21
200.0333220258
 31
0.0
  0
LINE
  5
24F
330
23B
100
AcDbEntity
  8
SLD-0
 62
     7
100
AcDbLine
 10
92.0110286444
 20
200.8371690258
 30
0.0
 11
89.0110286444
 21
200.8371690258
 31
0.0
  0
MTEXT
  5
250
330
23B
100
AcDbEntity
  8
SLD-0
 62
     7
100
AcDbMText
 10
77.4755934213
 20
205.363862489
 30
0.3
 40
3.5
 41
0.0
 71
     1
 72
     1
  1
25
  7
SLDTEXTSTYLE0
 73
     1
 44
1.0
  0
ENDBLK
  5
246
330
23B
100
AcDbEntity
  8
0
100
AcDbBlockEnd
  0
BLOCK
  5
25C
330
252
100
AcDbEntity
  8
0
100
AcDbBlockBegin
  2
*D26
 70
     1
 71
     0
 10
0.0
 20
0.0
 30
0.0
  3
*D26
  1

  0
LINE
  5
25E
330
252
100
AcDbEntity
  8
SLD-0
 62
     7
100
AcDbLine
 10
54.5110286444
 20
211.0370877795
 30
0.0
 11
54.5110286444
 21
199.8371690258
 31
0.0
  0
LINE
  5
25F
330
252
100
AcDbEntity
  8
SLD-0
 62
     7
100
AcDbLine
 10
67.0110286444
 20
207.7870877795
 30
0.0
 11
67.0110286444
 21
199.8371690258
 31
0.0
  0
LINE
  5
260
330
252
100
AcDbEntity
  8
SLD-0
 62
     7
100
AcDbLine
 10
54.5110286444
 20
200.8371690258
 30
0.0
 11
49.5110286444
 21
200.8371690258
 31
0.0
  0
LINE
  5
261
330
252
100
AcDbEntity
  8
SLD-0
 62
     7
100
AcDbLine
 10
54.5110286444
 20
200.8371690258
 30
0.0
 11
67.0110286444
 21
200.8371690258
 31
0.0
  0
LINE
  5
262
330
252
100
AcDbEntity
  8
SLD-0
 62
     7
100
AcDbLine
 10
67.0110286444
 20
200.8371690258
 30
0.0
 11
72.0110286444
 21
200.8371690258
 31
0.0
  0
LINE
  5
263
330
252
100
AcDbEntity
  8
SLD-0
 62
     7
100
AcDbLine
 10
51.5110286444
 20
201.6410160258
 30
0.0
 11
54.5110286444
 21
200.8371690258
 31
0.0
  0
LINE
  5
264
330
252
100
AcDbEntity
  8
SLD-0
 62
     7
100
AcDbLine
 10
54.5110286444
 20
200.8371690258
 30
0.0
 11
51.5110286444
 21
200.0333220258
 31
0.0
  0
LINE
  5
265
330
252
100
AcDbEntity
  8
SLD-0
 62
     7
100
AcDbLine
 10
54.5110286444
 20
200.8371690258
 30
0.0
 11
51.5110286444
 21
200.8371690258
 31
0.0
  0
LINE
  5
266
330
252
100
AcDbEntity
  8
SLD-0
 62
     7
100
AcDbLine
 10
70.0110286444
 20
200.0333220258
 30
0.0
 11
67.0110286444
 21
200.8371690258
 31
0.0
  0
LINE
  5
267
330
252
100
AcDbEntity
  8
SLD-0
 62
     7
100
AcDbLine
 10
67.0110286444
 20
200.8371690258
 30
0.0
 11
70.0110286444
 21
201.6410160258
 31
0.0
  0
LINE
  5
268
330
252
100
AcDbEntity
  8
SLD-0
 62
     7
100
AcDbLine
 10
67.0110286444
 20
200.8371690258
 30
0.0
 11
70.0110286444
 21
200.8371690258
 31
0.0
  0
MTEXT
  5
269
330
252
100
AcDbEntity
  8
SLD-0
 62
     7
100
AcDbMText
 10
56.688331057
 20
205.363862489
 30
0.3
 40
3.5
 41
0.0
 71
     1
 72
     1
  1
12.5
  7
SLDTEXTSTYLE0
 73
     1
 44
1.0
  0
ENDBLK
  5
25D
330
252
100
AcDbEntity
  8
0
100
AcDbBlockEnd
  0
BLOCK
  5
275
330
26B
100
AcDbEntity
  8
0
100
AcDbBlockBegin
  2
*D27
 70
     1
 71
     0
 10
0.0
 20
0.0
 30
0.0
  3
*D27
  1

  0
LINE
  5
277
330
26B
100
AcDbEntity
  8
SLD-0
 62
     7
100
AcDbLine
 10
54.5110286444
 20
256.0370877795
 30
0.0
 11
54.5110286444
 21
191.695738572
 31
0.0
  0
LINE
  5
278
330
26B
100
AcDbEntity
  8
SLD-0
 62
     7
100
AcDbLine
 10
104.5110286444
 20
256.0370877795
 30
0.0
 11
104.5110286444
 21
191.695738572
 31
0.0
  0
LINE
  5
279
330
26B
100
AcDbEntity
  8
SLD-0
 62
     7
100
AcDbLine
 10
54.5110286444
 20
192.695738572
 30
0.0
 11
104.5110286444
 21
192.695738572
 31
0.0
  0
LINE
  5
27A
330
26B
100
AcDbEntity
  8
SLD-0
 62
     7
100
AcDbLine
 10
57.5110286444
 20
191.891891572
 30
0.0
 11
54.5110286444
 21
192.695738572
 31
0.0
  0
LINE
  5
27B
330
26B
100
AcDbEntity
  8
SLD-0
 62
     7
100
AcDbLine
 10
54.5110286444
 20
192.695738572
 30
0.0
 11
57.5110286444
 21
193.499585572
 31
0.0
  0
LINE
  5
27C
330
26B
100
AcDbEntity
  8
SLD-0
 62
     7
100
AcDbLine
 10
54.5110286444
 20
192.695738572
 30
0.0
 11
57.5110286444
 21
192.695738572
 31
0.0
  0
LINE
  5
27D
330
26B
100
AcDbEntity
  8
SLD-0
 62
     7
100
AcDbLine
 10
101.5110286444
 20
193.499585572
 30
0.0
 11
104.5110286444
 21
192.695738572
 31
0.0
  0
LINE
  5
27E
330
26B
100
AcDbEntity
  8
SLD-0
 62
     7
100
AcDbLine
 10
104.5110286444
 20
192.695738572
 30
0.0
 11
101.5110286444
 21
191.891891572
 31
0.0
  0
LINE
  5
27F
330
26B
100
AcDbEntity
  8
SLD-0
 62
     7
100
AcDbLine
 10
104.5110286444
 20
192.695738572
 30
0.0
 11
101.5110286444
 21
192.695738572
 31
0.0
  0
MTEXT
  5
280
330
26B
100
AcDbEntity
  8
SLD-0
 62
     7
100
AcDbMText
 10
77.4755934213
 20
197.2224320352
 30
0.3
 40
3.5
 41
0.0
 71
     1
 72
     1
  1
50
  7
SLDTEXTSTYLE0
 73
     1
 44
1.0
  0
ENDBLK
  5
276
330
26B
100
AcDbEntity
  8
0
100
AcDbBlockEnd
  0
BLOCK
  5
28D
330
282
100
AcDbEntity
  8
0
100
AcDbBlockBegin
  2
*D28
 70
     1
 71
     0
 10
0.0
 20
0.0
 30
0.0
  3
*D28
  1

  0
LINE
  5
28F
330
282
100
AcDbEntity
  8
SLD-0
 62
     7
100
AcDbLine
 10
80.5110286444
 20
257.0370877795
 30
0.0
 11
129.2806435152
 21
257.0370877795
 31
0.0
  0
LINE
  5
290
330
282
100
AcDbEntity
  8
SLD-0
 62
     7
100
AcDbLine
 10
80.5110286444
 20
207.0370877795
 30
0.0
 11
129.2806435152
 21
207.0370877795
 31
0.0
  0
LINE
  5
291
330
282
100
AcDbEntity
  8
SLD-0
 62
     7
100
AcDbLine
 10
128.2806435152
 20
257.0370877795
 30
0.0
 11
128.2806435152
 21
207.0370877795
 31
0.0
  0
LINE
  5
292
330
282
100
AcDbEntity
  8
SLD-0
 62
     7
100
AcDbLine
 10
127.4767965152
 20
254.0370877795
 30
0.0
 11
128.2806435152
 21
257.0370877795
 31
0.0
  0
LINE
  5
293
330
282
100
AcDbEntity
  8
SLD-0
 62
     7
100
AcDbLine
 10
128.2806435152
 20
257.0370877795
 30
0.0
 11
129.0844905152
 21
254.0370877795
 31
0.0
  0
LINE
  5
294
330
282
100
AcDbEntity
  8
SLD-0
 62
     7
100
AcDbLine
 10
128.2806435152
 20
257.0370877795
 30
0.0
 11
128.2806435152
 21
254.0370877795
 31
0.0
  0
LINE
  5
295
330
282
100
AcDbEntity
  8
SLD-0
 62
     7
100
AcDbLine
 10
129.0844905152
 20
210.0370877795
 30
0.0
 11
128.2806435152
 21
207.0370877795
 31
0.0
  0
LINE
  5
296
330
282
100
AcDbEntity
  8
SLD-0
 62
     7
100
AcDbLine
 10
128.2806435152
 20
207.0370877795
 30
0.0
 11
127.4767965152
 21
210.0370877795
 31
0.0
  0
LINE
  5
297
330
282
100
AcDbEntity
  8
SLD-0
 62
     7
100
AcDbLine
 10
128.2806435152
 20
207.0370877795
 30
0.0
 11
128.2806435152
 21
210.0370877795
 31
0.0
  0
MTEXT
  5
298
330
282
100
AcDbEntity
  8
SLD-0
 62
     7
100
AcDbMText
 10
123.7539500521
 20
230.0016525564
 30
0.3
 40
3.5
 41
0.0
 71
     1
 72
     1
  1
50
  7
SLDTEXTSTYLE0
 11
6.123031769111886E-17
 21
1.0
 31
0.0
 73
     1
 44
1.0
  0
ENDBLK
  5
28E
330
282
100
AcDbEntity
  8
0
100
AcDbBlockEnd
  0
BLOCK
  5
2A5
330
29A
100
AcDbEntity
  8
0
100
AcDbBlockBegin
  2
*D29
 70
     1
 71
     0
 10
0.0
 20
0.0
 30
0.0
  3
*D29
  1

  0
LINE
  5
2A7
330
29A
100
AcDbEntity
  8
SLD-0
 62
     7
100
AcDbLine
 10
98.7610286444
 20
214.5370877795
 30
0.0
 11
119.2885225994
 21
214.5370877795
 31
0.0
  0
LINE
  5
2A8
330
29A
100
AcDbEntity
  8
SLD-0
 62
     7
100
AcDbLine
 10
98.7610286444
 20
239.5370877795
 30
0.0
 11
119.2885225994
 21
239.5370877795
 31
0.0
  0
LINE
  5
2A9
330
29A
100
AcDbEntity
  8
SLD-0
 62
     7
100
AcDbLine
 10
118.2885225994
 20
214.5370877795
 30
0.0
 11
118.2885225994
 21
239.5370877795
 31
0.0
  0
LINE
  5
2AA
330
29A
100
AcDbEntity
  8
SLD-0
 62
     7
100
AcDbLine
 10
119.0923695994
 20
217.5370877795
 30
0.0
 11
118.2885225994
 21
214.5370877795
 31
0.0
  0
LINE
  5
2AB
330
29A
100
AcDbEntity
  8
SLD-0
 62
     7
100
AcDbLine
 10
118.2885225994
 20
214.5370877795
 30
0.0
 11
117.4846755994
 21
217.5370877795
 31
0.0
  0
LINE
  5
2AC
330
29A
100
AcDbEntity
  8
SLD-0
 62
     7
100
AcDbLine
 10
118.2885225994
 20
214.5370877795
 30
0.0
 11
118.2885225994
 21
217.5370877795
 31
0.0
  0
LINE
  5
2AD
330
29A
100
AcDbEntity
  8
SLD-0
 62
     7
100
AcDbLine
 10
117.4846755994
 20
236.5370877795
 30
0.0
 11
118.2885225994
 21
239.5370877795
 31
0.0
  0
LINE
  5
2AE
330
29A
100
AcDbEntity
  8
SLD-0
 62
     7
100
AcDbLine
 10
118.2885225994
 20
239.5370877795
 30
0.0
 11
119.0923695994
 21
236.5370877795
 31
0.0
  0
LINE
  5
2AF
330
29A
100
AcDbEntity
  8
SLD-0
 62
     7
100
AcDbLine
 10
118.2885225994
 20
239.5370877795
 30
0.0
 11
118.2885225994
 21
236.5370877795
 31
0.0
  0
MTEXT
  5
2B0
330
29A
100
AcDbEntity
  8
SLD-0
 62
     7
100
AcDbMText
 10
113.7618291363
 20
225.0016525564
 30
0.3
 40
3.5
 41
0.0
 71
     1
 72
     1
  1
25
  7
SLDTEXTSTYLE0
 11
6.123031769111886E-17
 21
1.0
 31
0.0
 73
     1
 44
1.0
  0
ENDBLK
  5
2A6
330
29A
100
AcDbEntity
  8
0
100
AcDbBlockEnd
  0
BLOCK
  5
2BD
330
2B2
100
AcDbEntity
  8
0
100
AcDbBlockBegin
  2
*D30
 70
     1
 71
     0
 10
0.0
 20
0.0
 30
0.0
  3
*D30
  1

  0
LINE
  5
2BF
330
2B2
100
AcDbEntity
  8
SLD-0
 62
     7
100
AcDbLine
 10
98.7610286444
 20
239.5370877795
 30
0.0
 11
119.5015301294
 21
239.5370877795
 31
0.0
  0
LINE
  5
2C0
330
2B2
100
AcDbEntity
  8
SLD-0
 62
     7
100
AcDbLine
 10
105.5110286444
 20
257.0370877795
 30
0.0
 11
119.5015301294
 21
257.0370877795
 31
0.0
  0
LINE
  5
2C1
330
2B2
100
AcDbEntity
  8
SLD-0
 62
     7
100
AcDbLine
 10
118.5015301294
 20
239.5370877795
 30
0.0
 11
118.5015301294
 21
234.5370877795
 31
0.0
  0
LINE
  5
2C2
330
2B2
100
AcDbEntity
  8
SLD-0
 62
     7
100
AcDbLine
 10
118.5015301294
 20
239.5370877795
 30
0.0
 11
118.5015301294
 21
257.0370877795
 31
0.0
  0
LINE
  5
2C3
330
2B2
100
AcDbEntity
  8
SLD-0
 62
     7
100
AcDbLine
 10
118.5015301294
 20
257.0370877795
 30
0.0
 11
118.5015301294
 21
262.0370877795
 31
0.0
  0
LINE
  5
2C4
330
2B2
100
AcDbEntity
  8
SLD-0
 62
     7
100
AcDbLine
 10
117.6976831294
 20
236.5370877795
 30
0.0
 11
118.5015301294
 21
239.5370877795
 31
0.0
  0
LINE
  5
2C5
330
2B2
100
AcDbEntity
  8
SLD-0
 62
     7
100
AcDbLine
 10
118.5015301294
 20
239.5370877795
 30
0.0
 11
119.3053771294
 21
236.5370877795
 31
0.0
  0
LINE
  5
2C6
330
2B2
100
AcDbEntity
  8
SLD-0
 62
     7
100
AcDbLine
 10
118.5015301294
 20
239.5370877795
 30
0.0
 11
118.5015301294
 21
236.5370877795
 31
0.0
  0
LINE
  5
2C7
330
2B2
100
AcDbEntity
  8
SLD-0
 62
     7
100
AcDbLine
 10
119.3053771294
 20
260.0370877795
 30
0.0
 11
118.5015301294
 21
257.0370877795
 31
0.0
  0
LINE
  5
2C8
330
2B2
100
AcDbEntity
  8
SLD-0
 62
     7
100
AcDbLine
 10
118.5015301294
 20
257.0370877795
 30
0.0
 11
117.6976831294
 21
260.0370877795
 31
0.0
  0
LINE
  5
2C9
330
2B2
100
AcDbEntity
  8
SLD-0
 62
     7
100
AcDbLine
 10
118.5015301294
 20
257.0370877795
 30
0.0
 11
118.5015301294
 21
260.0370877795
 31
0.0
  0
MTEXT
  5
2CA
330
2B2
100
AcDbEntity
  8
SLD-0
 62
     7
100
AcDbMText
 10
113.9748366663
 20
244.2143901921
 30
0.3
 40
3.5
 41
0.0
 71
     1
 72
     1
  1
17.5
  7
SLDTEXTSTYLE0
 11
6.123031769111886E-17
 21
1.0
 31
0.0
 73
     1
 44
1.0
  0
ENDBLK
  5
2BE
330
2B2
100
AcDbEntity
  8
0
100
AcDbBlockEnd
  0
BLOCK
  5
2D7
330
2CC
100
AcDbEntity
  8
0
100
AcDbBlockBegin
  2
*D31
 70
     1
 71
     0
 10
0.0
 20
0.0
 30
0.0
  3
*D31
  1

  0
LINE
  5
2D9
330
2CC
100
AcDbEntity
  8
SLD-0
 62
     7
100
AcDbLine
 10
175.5567276653
 20
136.2424607339
 30
0.0
 11
175.5567276653
 21
189.3566408904
 31
0.0
  0
LINE
  5
2DA
330
2CC
100
AcDbEntity
  8
SLD-0
 62
     7
100
AcDbLine
 10
180.5567276653
 20
136.2424607339
 30
0.0
 11
180.5567276653
 21
189.3566408904
 31
0.0
  0
LINE
  5
2DB
330
2CC
100
AcDbEntity
  8
SLD-0
 62
     7
100
AcDbLine
 10
175.5567276653
 20
188.3566408904
 30
0.0
 11
170.5567276653
 21
188.3566408904
 31
0.0
  0
LINE
  5
2DC
330
2CC
100
AcDbEntity
  8
SLD-0
 62
     7
100
AcDbLine
 10
175.5567276653
 20
188.3566408904
 30
0.0
 11
180.5567276653
 21
188.3566408904
 31
0.0
  0
LINE
  5
2DD
330
2CC
100
AcDbEntity
  8
SLD-0
 62
     7
100
AcDbLine
 10
180.5567276653
 20
188.3566408904
 30
0.0
 11
185.5567276653
 21
188.3566408904
 31
0.0
  0
LINE
  5
2DE
330
2CC
100
AcDbEntity
  8
SLD-0
 62
     7
100
AcDbLine
 10
172.5567276653
 20
189.1604878904
 30
0.0
 11
175.5567276653
 21
188.3566408904
 31
0.0
  0
LINE
  5
2DF
330
2CC
100
AcDbEntity
  8
SLD-0
 62
     7
100
AcDbLine
 10
175.5567276653
 20
188.3566408904
 30
0.0
 11
172.5567276653
 21
187.5527938904
 31
0.0
  0
LINE
  5
2E0
330
2CC
100
AcDbEntity
  8
SLD-0
 62
     7
100
AcDbLine
 10
175.5567276653
 20
188.3566408904
 30
0.0
 11
172.5567276653
 21
188.3566408904
 31
0.0
  0
LINE
  5
2E1
330
2CC
100
AcDbEntity
  8
SLD-0
 62
     7
100
AcDbLine
 10
183.5567276653
 20
187.5527938904
 30
0.0
 11
180.5567276653
 21
188.3566408904
 31
0.0
  0
LINE
  5
2E2
330
2CC
100
AcDbEntity
  8
SLD-0
 62
     7
100
AcDbLine
 10
180.5567276653
 20
188.3566408904
 30
0.0
 11
183.5567276653
 21
189.1604878904
 31
0.0
  0
LINE
  5
2E3
330
2CC
100
AcDbEntity
  8
SLD-0
 62
     7
100
AcDbLine
 10
180.5567276653
 20
188.3566408904
 30
0.0
 11
183.5567276653
 21
188.3566408904
 31
0.0
  0
MTEXT
  5
2E4
330
2CC
100
AcDbEntity
  8
SLD-0
 62
     7
100
AcDbMText
 10
177.0390100537
 20
192.8833343536
 30
0.3
 40
3.5
 41
0.0
 71
     1
 72
     1
  1
5
  7
SLDTEXTSTYLE0
 73
     1
 44
1.0
  0
ENDBLK
  5
2D8
330
2CC
100
AcDbEntity
  8
0
100
AcDbBlockEnd
  0
BLOCK
  5
2F1
330
2E6
100
AcDbEntity
  8
0
100
AcDbBlockBegin
  2
*D32
 70
     1
 71
     0
 10
0.0
 20
0.0
 30
0.0
  3
*D32
  1

  0
LINE
  5
2F3
330
2E6
100
AcDbEntity
  8
SLD-0
 62
     7
100
AcDbLine
 10
129.5567276653
 20
92.7424607339
 30
0.0
 11
120.1489672414
 21
92.7424607339
 31
0.0
  0
LINE
  5
2F4
330
2E6
100
AcDbEntity
  8
SLD-0
 62
     7
100
AcDbLine
 10
129.5567276653
 20
87.7424607339
 30
0.0
 11
120.1489672414
 21
87.7424607339
 31
0.0
  0
LINE
  5
2F5
330
2E6
100
AcDbEntity
  8
SLD-0
 62
     7
100
AcDbLine
 10
121.1489672414
 20
92.7424607339
 30
0.0
 11
121.1489672414
 21
97.7424607339
 31
0.0
  0
LINE
  5
2F6
330
2E6
100
AcDbEntity
  8
SLD-0
 62
     7
100
AcDbLine
 10
121.1489672414
 20
92.7424607339
 30
0.0
 11
121.1489672414
 21
87.7424607339
 31
0.0
  0
LINE
  5
2F7
330
2E6
100
AcDbEntity
  8
SLD-0
 62
     7
100
AcDbLine
 10
121.1489672414
 20
87.7424607339
 30
0.0
 11
121.1489672414
 21
82.7424607339
 31
0.0
  0
LINE
  5
2F8
330
2E6
100
AcDbEntity
  8
SLD-0
 62
     7
100
AcDbLine
 10
121.9528142414
 20
95.7424607339
 30
0.0
 11
121.1489672414
 21
92.7424607339
 31
0.0
  0
LINE
  5
2F9
330
2E6
100
AcDbEntity
  8
SLD-0
 62
     7
100
AcDbLine
 10
121.1489672414
 20
92.7424607339
 30
0.0
 11
120.3451202414
 21
95.7424607339
 31
0.0
  0
LINE
  5
2FA
330
2E6
100
AcDbEntity
  8
SLD-0
 62
     7
100
AcDbLine
 10
121.1489672414
 20
92.7424607339
 30
0.0
 11
121.1489672414
 21
95.7424607339
 31
0.0
  0
LINE
  5
2FB
330
2E6
100
AcDbEntity
  8
SLD-0
 62
     7
100
AcDbLine
 10
120.3451202414
 20
84.7424607339
 30
0.0
 11
121.1489672414
 21
87.7424607339
 31
0.0
  0
LINE
  5
2FC
330
2E6
100
AcDbEntity
  8
SLD-0
 62
     7
100
AcDbLine
 10
121.1489672414
 20
87.7424607339
 30
0.0
 11
121.9528142414
 21
84.7424607339
 31
0.0
  0
LINE
  5
2FD
330
2E6
100
AcDbEntity
  8
SLD-0
 62
     7
100
AcDbLine
 10
121.1489672414
 20
87.7424607339
 30
0.0
 11
121.1489672414
 21
84.7424607339
 31
0.0
  0
MTEXT
  5
2FE
330
2E6
100
AcDbEntity
  8
SLD-0
 62
     7
100
AcDbMText
 10
116.6222737782
 20
89.2247431223
 30
0.3
 40
3.5
 41
0.0
 71
     1
 72
     1
  1
5
  7
SLDTEXTSTYLE0
 11
6.123031769111886E-17
 21
1.0
 31
0.0
 73
     1
 44
1.0
  0
ENDBLK
  5
2F2
330
2E6
100
AcDbEntity
  8
0
100
AcDbBlockEnd
  0
ENDSEC
  0
SECTION
  2
ENTITIES
  0
LINE
  5
C6
330
1F
100
AcDbEntity
  8
SLD-0
  6
Continuous
 62
   179
100
AcDbLine
 10
20.2604743903
 20
285.0
 30
0.0
 11
196.7604743903
 21
285.0
 31
0.0
  0
LINE
  5
C7
330
1F
100
AcDbEntity
  8
SLD-0
  6
Continuous
 62
   179
100
AcDbLine
 10
20.2604743903
 20
285.0
 30
0.0
 11
20.2604743903
 21
10.0
 31
0.0
  0
LINE
  5
C8
330
1F
100
AcDbEntity
  8
SLD-0
  6
Continuous
 62
   179
100
AcDbLine
 10
20.2604743903
 20
10.0
 30
0.0
 11
196.7604743903
 21
10.0
 31
0.0
  0
LINE
  5
C9
330
1F
100
AcDbEntity
  8
SLD-0
  6
Continuous
 62
   179
100
AcDbLine
 10
196.7604743903
 20
285.0
 30
0.0
 11
196.7604743903
 21
10.0
 31
0.0
  0
LINE
  5
CA
330
1F
100
AcDbEntity
  8
SLD-0
  6
Continuous
 62
   179
100
AcDbLine
 10
65.7604743903
 20
285.0
 30
0.0
 11
196.7604743903
 21
285.0
 31
0.0
  0
LINE
  5
CB
330
1F
100
AcDbEntity
  8
SLD-0
  6
Continuous
 62
   179
100
AcDbLine
 10
196.7604743903
 20
285.0
 30
0.0
 11
196.7604743903
 21
264.25
 31
0.0
  0
LINE
  5
CC
330
1F
100
AcDbEntity
  8
SLD-0
  6
Continuous
 62
   179
100
AcDbLine
 10
127.0104743903
 20
50.75
 30
0.0
 11
196.7609375477
 21
50.75
 31
0.0
  0
LINE
  5
CD
330
1F
100
AcDbEntity
  8
SLD-0
  6
Continuous
 62
   179
100
AcDbLine
 10
127.0104743903
 20
50.75
 30
0.0
 11
127.0104743903
 21
10.0
 31
0.0
  0
LINE
  5
CE
330
1F
100
AcDbEntity
  8
SLD-0
  6
Continuous
 62
   179
100
AcDbLine
 10
127.0104743903
 20
22.75
 30
0.0
 11
196.7604743903
 21
22.75
 31
0.0
  0
LINE
  5
CF
330
1F
100
AcDbEntity
  8
SLD-0
  6
Continuous
 62
   179
100
AcDbLine
 10
127.0104743903
 20
36.75
 30
0.0
 11
196.7604743903
 21
36.75
 31
0.0
  0
LINE
  5
D0
330
1F
100
AcDbEntity
  8
SLD-0
  6
Continuous
 62
   179
100
AcDbLine
 10
85.0110286146
 20
92.7424606221
 30
0.0
 11
74.0110286742
 21
92.7424606221
 31
0.0
  0
LINE
  5
D1
330
1F
100
AcDbEntity
  8
SLD-0
  6
Continuous
 62
   179
100
AcDbLine
 10
99.5110281974
 20
92.7424606221
 30
0.0
 11
85.0110286146
 21
92.7424606221
 31
0.0
  0
LINE
  5
D2
330
1F
100
AcDbEntity
  8
SLD-0
  6
Continuous
 62
   179
100
AcDbLine
 10
99.5110281974
 20
87.7424607339
 30
0.0
 11
99.5110281974
 21
92.7424606221
 31
0.0
  0
LINE
  5
D3
330
1F
100
AcDbEntity
  8
SLD-0
  6
Continuous
 62
   179
100
AcDbLine
 10
59.5110290915
 20
92.7424606221
 30
0.0
 11
59.5110290915
 21
87.7424607339
 31
0.0
  0
LINE
  5
D4
330
1F
100
AcDbEntity
  8
SLD-0
  6
Continuous
 62
   179
100
AcDbLine
 10
74.0110286742
 20
92.7424606221
 30
0.0
 11
59.5110290915
 21
92.7424606221
 31
0.0
  0
LINE
  5
D5
330
1F
100
AcDbEntity
  8
SLD-0
  6
Continuous
 62
   179
100
AcDbLine
 10
99.5110281974
 20
87.7424607339
 30
0.0
 11
59.5110290915
 21
87.7424607339
 31
0.0
  0
LINE
  5
D6
330
1F
100
AcDbEntity
  8
SLD-0
  6
Continuous
 62
   179
100
AcDbLine
 10
54.5110278994
 20
87.7424607339
 30
0.0
 11
54.5110282719
 21
92.7424607339
 31
0.0
  0
LINE
  5
D7
330
1F
100
AcDbEntity
  8
SLD-0
  6
Continuous
 62
   179
100
AcDbLine
 10
54.5110282719
 20
92.7424607339
 30
0.0
 11
59.5110290915
 21
92.7424606221
 31
0.0
  0
LINE
  5
D8
330
1F
100
AcDbEntity
  8
SLD-0
  6
Continuous
 62
   179
100
AcDbLine
 10
59.5110290915
 20
87.7424607339
 30
0.0
 11
54.5110278994
 21
87.7424607339
 31
0.0
  0
LINE
  5
D9
330
1F
100
AcDbEntity
  8
SLD-0
  6
Continuous
 62
   179
100
AcDbLine
 10
104.511029017
 20
92.7424607339
 30
0.0
 11
104.5110293896
 21
87.7424607339
 31
0.0
  0
LINE
  5
DA
330
1F
100
AcDbEntity
  8
SLD-0
  6
Continuous
 62
   179
100
AcDbLine
 10
99.5110281974
 20
92.7424606221
 30
0.0
 11
104.511029017
 21
92.7424607339
 31
0.0
  0
LINE
  5
DB
330
1F
100
AcDbEntity
  8
SLD-0
  6
Continuous
 62
   179
100
AcDbLine
 10
104.5110293896
 20
87.7424607339
 30
0.0
 11
99.5110281974
 21
87.7424607339
 31
0.0
  0
LINE
  5
DC
330
1F
100
AcDbEntity
  8
SLD-0
  6
Continuous
 62
   179
100
AcDbLine
 10
82.0110285886
 20
172.0757911267
 30
0.0
 11
82.0415643275
 21
172.8822419705
 31
0.0
  0
LINE
  5
DD
330
1F
100
AcDbEntity
  8
SLD-0
  6
Continuous
 62
   179
100
AcDbLine
 10
82.0415643275
 20
172.8822419705
 30
0.0
 11
82.1325496536
 21
173.6722791853
 31
0.0
  0
LINE
  5
DE
330
1F
100
AcDbEntity
  8
SLD-0
  6
Continuous
 62
   179
100
AcDbLine
 10
82.1325496536
 20
173.6722791853
 30
0.0
 11
82.2821326319
 21
174.4298095169
 31
0.0
  0
LINE
  5
DF
330
1F
100
AcDbEntity
  8
SLD-0
  6
Continuous
 62
   179
100
AcDbLine
 10
82.2821326319
 20
174.4298095169
 30
0.0
 11
82.4872680705
 21
175.1394251647
 31
0.0
  0
LINE
  5
E0
330
1F
100
AcDbEntity
  8
SLD-0
  6
Continuous
 62
   179
100
AcDbLine
 10
82.4872680705
 20
175.1394251647
 30
0.0
 11
82.7437799189
 21
175.7866720023
 31
0.0
  0
LINE
  5
E1
330
1F
100
AcDbEntity
  8
SLD-0
  6
Continuous
 62
   179
100
AcDbLine
 10
82.7437799189
 20
175.7866720023
 30
0.0
 11
83.0464464843
 21
176.3583774032
 31
0.0
  0
LINE
  5
E2
330
1F
100
AcDbEntity
  8
SLD-0
  6
Continuous
 62
   179
100
AcDbLine
 10
83.0464464843
 20
176.3583774032
 30
0.0
 11
83.3891061365
 21
176.84289611
 31
0.0
  0
LINE
  5
E3
330
1F
100
AcDbEntity
  8
SLD-0
  6
Continuous
 62
   179
100
AcDbLine
 10
83.3891061365
 20
176.84289611
 30
0.0
 11
83.7647835024
 21
177.2303784551
 31
0.0
  0
LINE
  5
E4
330
1F
100
AcDbEntity
  8
SLD-0
  6
Continuous
 62
   179
100
AcDbLine
 10
83.7647835024
 20
177.2303784551
 30
0.0
 11
84.1658310264
 21
177.5129193725
 31
0.0
  0
LINE
  5
E5
330
1F
100
AcDbEntity
  8
SLD-0
  6
Continuous
 62
   179
100
AcDbLine
 10
84.1658310264
 20
177.5129193725
 30
0.0
 11
84.5840842694
 21
177.6847819152
 31
0.0
  0
LINE
  5
E6
330
1F
100
AcDbEntity
  8
SLD-0
  6
Continuous
 62
   179
100
AcDbLine
 10
84.5840842694
 20
177.6847819152
 30
0.0
 11
85.0110286146
 21
177.7424643101
 31
0.0
  0
LINE
  5
E7
330
1F
100
AcDbEntity
  8
SLD-0
  6
Continuous
 62
   179
100
AcDbLine
 10
82.0110285886
 20
172.0757911267
 30
0.0
 11
82.0110285886
 21
95.7424611138
 31
0.0
  0
LINE
  5
E8
330
1F
100
AcDbEntity
  8
SLD-0
  6
Continuous
 62
   179
100
AcDbLine
 10
77.0110287003
 20
172.0757911267
 30
0.0
 11
77.0110287003
 21
95.7424607111
 31
0.0
  0
LINE
  5
E9
330
1F
100
AcDbEntity
  8
SLD-0
  6
Continuous
 62
   179
100
AcDbLine
 10
74.0110286742
 20
177.7424643101
 30
0.0
 11
74.4379730195
 21
177.6847819152
 31
0.0
  0
LINE
  5
EA
330
1F
100
AcDbEntity
  8
SLD-0
  6
Continuous
 62
   179
100
AcDbLine
 10
74.4379730195
 20
177.6847819152
 30
0.0
 11
74.8562262624
 21
177.5129193725
 31
0.0
  0
LINE
  5
EB
330
1F
100
AcDbEntity
  8
SLD-0
  6
Continuous
 62
   179
100
AcDbLine
 10
74.8562262624
 20
177.5129193725
 30
0.0
 11
75.2572737865
 21
177.2303784551
 31
0.0
  0
LINE
  5
EC
330
1F
100
AcDbEntity
  8
SLD-0
  6
Continuous
 62
   179
100
AcDbLine
 10
75.2572737865
 20
177.2303784551
 30
0.0
 11
75.6329511523
 21
176.84289611
 31
0.0
  0
LINE
  5
ED
330
1F
100
AcDbEntity
  8
SLD-0
  6
Continuous
 62
   179
100
AcDbLine
 10
75.6329511523
 20
176.84289611
 30
0.0
 11
75.9756108045
 21
176.3583774032
 31
0.0
  0
LINE
  5
EE
330
1F
100
AcDbEntity
  8
SLD-0
  6
Continuous
 62
   179
100
AcDbLine
 10
75.9756108045
 20
176.3583774032
 30
0.0
 11
76.2782773699
 21
175.7866720023
 31
0.0
  0
LINE
  5
EF
330
1F
100
AcDbEntity
  8
SLD-0
  6
Continuous
 62
   179
100
AcDbLine
 10
76.2782773699
 20
175.7866720023
 30
0.0
 11
76.5347892184
 21
175.1394251647
 31
0.0
  0
LINE
  5
F0
330
1F
100
AcDbEntity
  8
SLD-0
  6
Continuous
 62
   179
100
AcDbLine
 10
76.5347892184
 20
175.1394251647
 30
0.0
 11
76.739924657
 21
174.4298095169
 31
0.0
  0
LINE
  5
F1
330
1F
100
AcDbEntity
  8
SLD-0
  6
Continuous
 62
   179
100
AcDbLine
 10
76.739924657
 20
174.4298095169
 30
0.0
 11
76.8895076353
 21
173.6722791853
 31
0.0
  0
LINE
  5
F2
330
1F
100
AcDbEntity
  8
SLD-0
  6
Continuous
 62
   179
100
AcDbLine
 10
76.8895076353
 20
173.6722791853
 30
0.0
 11
76.9804929614
 21
172.8822419705
 31
0.0
  0
LINE
  5
F3
330
1F
100
AcDbEntity
  8
SLD-0
  6
Continuous
 62
   179
100
AcDbLine
 10
76.9804929614
 20
172.8822419705
 30
0.0
 11
77.0110287003
 21
172.0757911267
 31
0.0
  0
LINE
  5
F4
330
1F
100
AcDbEntity
  8
SLD-0
  6
Continuous
 62
   179
100
AcDbLine
 10
74.0110286742
 20
177.7424643101
 30
0.0
 11
85.0110286146
 21
177.7424643101
 31
0.0
  0
LINE
  5
F5
330
1F
100
AcDbEntity
  8
SLD-0
  6
Continuous
 62
   179
100
AcDbLine
 10
104.511029017
 20
95.7424607339
 30
0.0
 11
104.511029017
 21
92.7424607339
 31
0.0
  0
LINE
  5
F6
330
1F
100
AcDbEntity
  8
SLD-0
  6
Continuous
 62
   179
100
AcDbLine
 10
54.5110282719
 20
92.7424607339
 30
0.0
 11
54.5110282719
 21
95.7424607339
 31
0.0
  0
LINE
  5
F7
330
1F
100
AcDbEntity
  8
SLD-0
  6
Continuous
 62
   179
100
AcDbLine
 10
59.5110290915
 20
177.7424643101
 30
0.0
 11
54.5110282719
 21
172.7424616279
 31
0.0
  0
LINE
  5
F8
330
1F
100
AcDbEntity
  8
SLD-0
  6
Continuous
 62
   179
100
AcDbLine
 10
74.0110286742
 20
177.7424643101
 30
0.0
 11
59.5110290915
 21
177.7424643101
 31
0.0
  0
LINE
  5
F9
330
1F
100
AcDbEntity
  8
SLD-0
  6
Continuous
 62
   179
100
AcDbLine
 10
54.5110282719
 20
172.7424616279
 30
0.0
 11
54.5110282719
 21
95.7424607339
 31
0.0
  0
LINE
  5
FA
330
1F
100
AcDbEntity
  8
SLD-0
  6
Continuous
 62
   179
100
AcDbLine
 10
99.5110281974
 20
177.7424643101
 30
0.0
 11
85.0110286146
 21
177.7424643101
 31
0.0
  0
LINE
  5
FB
330
1F
100
AcDbEntity
  8
SLD-0
  6
Continuous
 62
   179
100
AcDbLine
 10
104.511029017
 20
172.7424616279
 30
0.0
 11
99.5110281974
 21
177.7424643101
 31
0.0
  0
LINE
  5
FC
330
1F
100
AcDbEntity
  8
SLD-0
  6
Continuous
 62
   179
100
AcDbLine
 10
104.511029017
 20
172.7424616279
 30
0.0
 11
104.511029017
 21
95.7424607339
 31
0.0
  0
LINE
  5
FD
330
1F
100
AcDbEntity
  8
SLD-0
  6
CENTERX2
 62
   179
100
AcDbLine
 10
79.5110286444
 20
174.0757940672
 30
0.0
 11
79.5110286444
 21
93.7424607339
 31
0.0
  0
LINE
  5
FE
330
1F
100
AcDbEntity
  8
SLD-0
  6
Continuous
 62
   179
100
AcDbLine
 10
59.5110290915
 20
257.0370877795
 30
0.0
 11
59.5110290915
 21
252.0370878913
 31
0.0
  0
LINE
  5
FF
330
1F
100
AcDbEntity
  8
SLD-0
  6
Continuous
 62
   179
100
AcDbLine
 10
59.5110290915
 20
252.0370878913
 30
0.0
 11
54.5110286444
 21
252.0370877795
 31
0.0
  0
LINE
  5
100
330
1F
100
AcDbEntity
  8
SLD-0
  6
Continuous
 62
   179
100
AcDbLine
 10
54.5110286444
 20
252.0370877795
 30
0.0
 11
54.5110282719
 21
257.0370877795
 31
0.0
  0
LINE
  5
101
330
1F
100
AcDbEntity
  8
SLD-0
  6
Continuous
 62
   179
100
AcDbLine
 10
54.5110282719
 20
257.0370877795
 30
0.0
 11
59.5110290915
 21
257.0370877795
 31
0.0
  0
LINE
  5
102
330
1F
100
AcDbEntity
  8
SLD-0
  6
Continuous
 62
   179
100
AcDbLine
 10
82.0110285886
 20
249.0370872088
 30
0.0
 11
82.0110285886
 21
208.625323575
 31
0.0
  0
LINE
  5
103
330
1F
100
AcDbEntity
  8
SLD-0
  6
Continuous
 62
   179
100
AcDbLine
 10
85.0110286146
 20
207.0370870345
 30
0.0
 11
84.4900840193
 21
207.0612157397
 31
0.0
  0
LINE
  5
104
330
1F
100
AcDbEntity
  8
SLD-0
  6
Continuous
 62
   179
100
AcDbLine
 10
84.4900840193
 20
207.0612157397
 30
0.0
 11
83.9849681824
 21
207.1328716986
 31
0.0
  0
LINE
  5
105
330
1F
100
AcDbEntity
  8
SLD-0
  6
Continuous
 62
   179
100
AcDbLine
 10
83.9849681824
 20
207.1328716986
 30
0.0
 11
83.5110288344
 21
207.249871891
 31
0.0
  0
LINE
  5
106
330
1F
100
AcDbEntity
  8
SLD-0
  6
Continuous
 62
   179
100
AcDbLine
 10
83.5110288344
 20
207.249871891
 30
0.0
 11
83.0826658521
 21
207.40866239
 31
0.0
  0
LINE
  5
107
330
1F
100
AcDbEntity
  8
SLD-0
  6
Continuous
 62
   179
100
AcDbLine
 10
83.0826658521
 20
207.40866239
 30
0.0
 11
82.7128953997
 21
207.6044263952
 31
0.0
  0
LINE
  5
108
330
1F
100
AcDbEntity
  8
SLD-0
  6
Continuous
 62
   179
100
AcDbLine
 10
82.7128953997
 20
207.6044263952
 30
0.0
 11
82.4129524872
 21
207.8312071674
 31
0.0
  0
LINE
  5
109
330
1F
100
AcDbEntity
  8
SLD-0
  6
Continuous
 62
   179
100
AcDbLine
 10
82.4129524872
 20
207.8312071674
 30
0.0
 11
82.1919508044
 21
208.0821129196
 31
0.0
  0
LINE
  5
10A
330
1F
100
AcDbEntity
  8
SLD-0
  6
Continuous
 62
   179
100
AcDbLine
 10
82.1919508044
 20
208.0821129196
 30
0.0
 11
82.0566054199
 21
208.3495291583
 31
0.0
  0
LINE
  5
10B
330
1F
100
AcDbEntity
  8
SLD-0
  6
Continuous
 62
   179
100
AcDbLine
 10
82.0566054199
 20
208.3495291583
 30
0.0
 11
82.0110285886
 21
208.625323575
 31
0.0
  0
LINE
  5
10C
330
1F
100
AcDbEntity
  8
SLD-0
  6
Continuous
 62
   179
100
AcDbLine
 10
85.0110286146
 20
207.0370870345
 30
0.0
 11
74.0110286742
 21
207.0370870345
 31
0.0
  0
LINE
  5
10D
330
1F
100
AcDbEntity
  8
SLD-0
  6
Continuous
 62
   179
100
AcDbLine
 10
77.0110287003
 20
208.625323575
 30
0.0
 11
76.9533844896
 21
208.3154725544
 31
0.0
  0
LINE
  5
10E
330
1F
100
AcDbEntity
  8
SLD-0
  6
Continuous
 62
   179
100
AcDbLine
 10
76.9533844896
 20
208.3154725544
 30
0.0
 11
76.7826672409
 21
208.0175312869
 31
0.0
  0
LINE
  5
10F
330
1F
100
AcDbEntity
  8
SLD-0
  6
Continuous
 62
   179
100
AcDbLine
 10
76.7826672409
 20
208.0175312869
 30
0.0
 11
76.5054374233
 21
207.7429475896
 31
0.0
  0
LINE
  5
110
330
1F
100
AcDbEntity
  8
SLD-0
  6
Continuous
 62
   179
100
AcDbLine
 10
76.5054374233
 20
207.7429475896
 30
0.0
 11
76.1323489014
 21
207.5022714846
 31
0.0
  0
LINE
  5
111
330
1F
100
AcDbEntity
  8
SLD-0
  6
Continuous
 62
   179
100
AcDbLine
 10
76.1323489014
 20
207.5022714846
 30
0.0
 11
75.6777393862
 21
207.3047528677
 31
0.0
  0
LINE
  5
112
330
1F
100
AcDbEntity
  8
SLD-0
  6
Continuous
 62
   179
100
AcDbLine
 10
75.6777393862
 20
207.3047528677
 30
0.0
 11
75.1590788595
 21
207.1579838805
 31
0.0
  0
LINE
  5
113
330
1F
100
AcDbEntity
  8
SLD-0
  6
Continuous
 62
   179
100
AcDbLine
 10
75.1590788595
 20
207.1579838805
 30
0.0
 11
74.5962997198
 21
207.0676046126
 31
0.0
  0
LINE
  5
114
330
1F
100
AcDbEntity
  8
SLD-0
  6
Continuous
 62
   179
100
AcDbLine
 10
74.5962997198
 20
207.0676046126
 30
0.0
 11
74.0110286742
 21
207.0370870345
 31
0.0
  0
LINE
  5
115
330
1F
100
AcDbEntity
  8
SLD-0
  6
Continuous
 62
   179
100
AcDbLine
 10
77.0110287003
 20
249.0370873995
 30
0.0
 11
77.0110287003
 21
208.625323575
 31
0.0
  0
LINE
  5
116
330
1F
100
AcDbEntity
  8
SLD-0
  6
Continuous
 62
   179
100
AcDbLine
 10
74.0110286742
 20
252.0370878913
 30
0.0
 11
85.0110286147
 21
252.0370878913
 31
0.0
  0
LINE
  5
117
330
1F
100
AcDbEntity
  8
SLD-0
  6
Continuous
 62
   179
100
AcDbLine
 10
74.0110286742
 20
252.0370878913
 30
0.0
 11
59.5110290915
 21
252.0370878913
 31
0.0
  0
LINE
  5
118
330
1F
100
AcDbEntity
  8
SLD-0
  6
Continuous
 62
   179
100
AcDbLine
 10
99.5110281974
 20
257.0370877795
 30
0.0
 11
59.5110290915
 21
257.0370877795
 31
0.0
  0
LINE
  5
119
330
1F
100
AcDbEntity
  8
SLD-0
  6
Continuous
 62
   179
100
AcDbLine
 10
99.5110281974
 20
252.0370878913
 30
0.0
 11
99.5110281974
 21
257.0370877795
 31
0.0
  0
LINE
  5
11A
330
1F
100
AcDbEntity
  8
SLD-0
  6
Continuous
 62
   179
100
AcDbLine
 10
99.5110281974
 20
252.0370878913
 30
0.0
 11
85.0110286147
 21
252.0370878913
 31
0.0
  0
LINE
  5
11B
330
1F
100
AcDbEntity
  8
SLD-0
  6
Continuous
 62
   179
100
AcDbLine
 10
104.511029017
 20
257.0370877795
 30
0.0
 11
104.5110286444
 21
252.0370877795
 31
0.0
  0
LINE
  5
11C
330
1F
100
AcDbEntity
  8
SLD-0
  6
Continuous
 62
   179
100
AcDbLine
 10
104.5110286444
 20
252.0370877795
 30
0.0
 11
99.5110281974
 21
252.0370878913
 31
0.0
  0
LINE
  5
11D
330
1F
100
AcDbEntity
  8
SLD-0
  6
Continuous
 62
   179
100
AcDbLine
 10
99.5110281974
 20
257.0370877795
 30
0.0
 11
104.511029017
 21
257.0370877795
 31
0.0
  0
LINE
  5
11E
330
1F
100
AcDbEntity
  8
SLD-0
  6
Continuous
 62
   179
100
AcDbLine
 10
104.5110286444
 20
252.0370877795
 30
0.0
 11
104.5110286444
 21
249.0370877795
 31
0.0
  0
LINE
  5
11F
330
1F
100
AcDbEntity
  8
SLD-0
  6
Continuous
 62
   179
100
AcDbLine
 10
54.5110286444
 20
249.0370877795
 30
0.0
 11
54.5110286444
 21
252.0370877795
 31
0.0
  0
LINE
  5
120
330
1F
100
AcDbEntity
  8
SLD-0
  6
Continuous
 62
   179
100
AcDbLine
 10
99.5110281974
 20
207.0370870345
 30
0.0
 11
104.511029017
 21
212.0370859914
 31
0.0
  0
LINE
  5
121
330
1F
100
AcDbEntity
  8
SLD-0
  6
Continuous
 62
   179
100
AcDbLine
 10
99.5110281974
 20
207.0370870345
 30
0.0
 11
85.0110286146
 21
207.0370870345
 31
0.0
  0
LINE
  5
122
330
1F
100
AcDbEntity
  8
SLD-0
  6
Continuous
 62
   179
100
AcDbLine
 10
104.5110286444
 20
249.0370877795
 30
0.0
 11
104.511029017
 21
212.0370859914
 31
0.0
  0
LINE
  5
123
330
1F
100
AcDbEntity
  8
SLD-0
  6
Continuous
 62
   179
100
AcDbLine
 10
74.0110286742
 20
207.0370870345
 30
0.0
 11
59.5110290915
 21
207.0370870345
 31
0.0
  0
LINE
  5
124
330
1F
100
AcDbEntity
  8
SLD-0
  6
Continuous
 62
   179
100
AcDbLine
 10
54.5110282719
 20
212.0370859914
 30
0.0
 11
59.5110290915
 21
207.0370870345
 31
0.0
  0
LINE
  5
125
330
1F
100
AcDbEntity
  8
SLD-0
  6
Continuous
 62
   179
100
AcDbLine
 10
54.5110286444
 20
249.0370877795
 30
0.0
 11
54.5110282719
 21
212.0370859914
 31
0.0
  0
LINE
  5
126
330
1F
100
AcDbEntity
  8
SLD-0
  6
CENTERX2
 62
   179
100
AcDbLine
 10
79.5110286444
 20
251.0370877795
 30
0.0
 11
79.5110286444
 21
206.6253230736
 31
0.0
  0
LINE
  5
127
330
1F
100
AcDbEntity
  8
SLD-0
  6
Continuous
 62
   179
100
AcDbLine
 10
175.556727777
 20
172.7424616279
 30
0.0
 11
175.556727777
 21
95.7424607339
 31
0.0
  0
LINE
  5
128
330
1F
100
AcDbEntity
  8
SLD-0
  6
Continuous
 62
   179
100
AcDbLine
 10
180.5567276653
 20
172.7424616279
 30
0.0
 11
175.556727777
 21
172.7424616279
 31
0.0
  0
LINE
  5
129
330
1F
100
AcDbEntity
  8
SLD-0
  6
Continuous
 62
   179
100
AcDbLine
 10
180.5567276653
 20
87.7424607339
 30
0.0
 11
180.5567276653
 21
172.7424616279
 31
0.0
  0
LINE
  5
12A
330
1F
100
AcDbEntity
  8
SLD-0
  6
Continuous
 62
   179
100
AcDbLine
 10
135.5567258771
 20
87.7424607339
 30
0.0
 11
180.5567276653
 21
87.7424607339
 31
0.0
  0
LINE
  5
12B
330
1F
100
AcDbEntity
  8
SLD-0
  6
Continuous
 62
   179
100
AcDbLine
 10
135.5567258771
 20
92.7424606221
 30
0.0
 11
135.5567258771
 21
87.7424607339
 31
0.0
  0
LINE
  5
12C
330
1F
100
AcDbEntity
  8
SLD-0
  6
Continuous
 62
   179
100
AcDbLine
 10
172.5567276653
 20
92.7424606221
 30
0.0
 11
135.5567258771
 21
92.7424606221
 31
0.0
  0
LINE
  5
12D
330
1F
100
AcDbEntity
  8
SLD-0
  6
Continuous
 62
   179
100
AcDbLine
 10
175.556727777
 20
172.7424616279
 30
0.0
 11
175.556727777
 21
177.7424643101
 31
0.0
  0
LINE
  5
12E
330
1F
100
AcDbEntity
  8
SLD-0
  6
Continuous
 62
   179
100
AcDbLine
 10
175.556727777
 20
177.7424643101
 30
0.0
 11
180.5567276653
 21
177.7424643101
 31
0.0
  0
LINE
  5
12F
330
1F
100
AcDbEntity
  8
SLD-0
  6
Continuous
 62
   179
100
AcDbLine
 10
180.5567276653
 20
177.7424643101
 30
0.0
 11
180.5567276653
 21
172.7424616279
 31
0.0
  0
LINE
  5
130
330
1F
100
AcDbEntity
  8
SLD-0
  6
Continuous
 62
   179
100
AcDbLine
 10
130.5567269202
 20
87.7424607339
 30
0.0
 11
130.5567269202
 21
92.7424606221
 31
0.0
  0
LINE
  5
131
330
1F
100
AcDbEntity
  8
SLD-0
  6
Continuous
 62
   179
100
AcDbLine
 10
130.5567269202
 20
92.7424606221
 30
0.0
 11
135.5567258771
 21
92.7424606221
 31
0.0
  0
LINE
  5
132
330
1F
100
AcDbEntity
  8
SLD-0
  6
Continuous
 62
   179
100
AcDbLine
 10
135.5567258771
 20
87.7424607339
 30
0.0
 11
130.5567269202
 21
87.7424607339
 31
0.0
  0
LINE
  5
133
330
1F
100
AcDbEntity
  8
SLD-0
  6
Continuous
 62
   179
100
AcDbLine
 10
172.5567272853
 20
172.0757911267
 30
0.0
 11
172.9836720962
 21
172.8822419705
 31
0.0
  0
LINE
  5
134
330
1F
100
AcDbEntity
  8
SLD-0
  6
Continuous
 62
   179
100
AcDbLine
 10
172.9836720962
 20
172.8822419705
 30
0.0
 11
173.4019253392
 21
173.6722791853
 31
0.0
  0
LINE
  5
135
330
1F
100
AcDbEntity
  8
SLD-0
  6
Continuous
 62
   179
100
AcDbLine
 10
173.4019253392
 20
173.6722791853
 30
0.0
 11
173.8029728632
 21
174.4298095169
 31
0.0
  0
LINE
  5
136
330
1F
100
AcDbEntity
  8
SLD-0
  6
Continuous
 62
   179
100
AcDbLine
 10
173.8029728632
 20
174.4298095169
 30
0.0
 11
174.178650229
 21
175.1394251647
 31
0.0
  0
LINE
  5
137
330
1F
100
AcDbEntity
  8
SLD-0
  6
Continuous
 62
   179
100
AcDbLine
 10
174.178650229
 20
175.1394251647
 30
0.0
 11
174.5213098813
 21
175.7866720023
 31
0.0
  0
LINE
  5
138
330
1F
100
AcDbEntity
  8
SLD-0
  6
Continuous
 62
   179
100
AcDbLine
 10
174.5213098813
 20
175.7866720023
 30
0.0
 11
174.8239762139
 21
176.3583774032
 31
0.0
  0
LINE
  5
139
330
1F
100
AcDbEntity
  8
SLD-0
  6
Continuous
 62
   179
100
AcDbLine
 10
174.8239762139
 20
176.3583774032
 30
0.0
 11
175.0804880623
 21
176.84289611
 31
0.0
  0
LINE
  5
13A
330
1F
100
AcDbEntity
  8
SLD-0
  6
Continuous
 62
   179
100
AcDbLine
 10
175.0804880623
 20
176.84289611
 30
0.0
 11
175.2856235009
 21
177.2303784551
 31
0.0
  0
LINE
  5
13B
330
1F
100
AcDbEntity
  8
SLD-0
  6
Continuous
 62
   179
100
AcDbLine
 10
175.2856235009
 20
177.2303784551
 30
0.0
 11
175.4352064792
 21
177.5129193725
 31
0.0
  0
LINE
  5
13C
330
1F
100
AcDbEntity
  8
SLD-0
  6
Continuous
 62
   179
100
AcDbLine
 10
175.4352064792
 20
177.5129193725
 30
0.0
 11
175.5261920381
 21
177.6847819152
 31
0.0
  0
LINE
  5
13D
330
1F
100
AcDbEntity
  8
SLD-0
  6
Continuous
 62
   179
100
AcDbLine
 10
175.5261920381
 20
177.6847819152
 30
0.0
 11
175.556727777
 21
177.7424643101
 31
0.0
  0
LINE
  5
13E
330
1F
100
AcDbEntity
  8
SLD-0
  6
Continuous
 62
   179
100
AcDbLine
 10
130.5567269202
 20
92.7424606221
 30
0.0
 11
130.5808556255
 21
92.7880376863
 31
0.0
  0
LINE
  5
13F
330
1F
100
AcDbEntity
  8
SLD-0
  6
Continuous
 62
   179
100
AcDbLine
 10
130.5808556255
 20
92.7880376863
 30
0.0
 11
130.6525115844
 21
92.9233830707
 31
0.0
  0
LINE
  5
140
330
1F
100
AcDbEntity
  8
SLD-0
  6
Continuous
 62
   179
100
AcDbLine
 10
130.6525115844
 20
92.9233830707
 30
0.0
 11
130.7695117768
 21
93.1443845207
 31
0.0
  0
LINE
  5
141
330
1F
100
AcDbEntity
  8
SLD-0
  6
Continuous
 62
   179
100
AcDbLine
 10
130.7695117768
 20
93.1443845207
 30
0.0
 11
130.9283022758
 21
93.4443272004
 31
0.0
  0
LINE
  5
142
330
1F
100
AcDbEntity
  8
SLD-0
  6
Continuous
 62
   179
100
AcDbLine
 10
130.9283022758
 20
93.4443272004
 30
0.0
 11
131.1240662809
 21
93.8140981185
 31
0.0
  0
LINE
  5
143
330
1F
100
AcDbEntity
  8
SLD-0
  6
Continuous
 62
   179
100
AcDbLine
 10
131.1240662809
 20
93.8140981185
 30
0.0
 11
131.3508470532
 21
94.242460868
 31
0.0
  0
LINE
  5
144
330
1F
100
AcDbEntity
  8
SLD-0
  6
Continuous
 62
   179
100
AcDbLine
 10
131.3508470532
 20
94.242460868
 30
0.0
 11
131.6017528053
 21
94.716400216
 31
0.0
  0
LINE
  5
145
330
1F
100
AcDbEntity
  8
SLD-0
  6
Continuous
 62
   179
100
AcDbLine
 10
131.6017528053
 20
94.716400216
 30
0.0
 11
131.8691690441
 21
95.2215160528
 31
0.0
  0
LINE
  5
146
330
1F
100
AcDbEntity
  8
SLD-0
  6
Continuous
 62
   179
100
AcDbLine
 10
131.8691690441
 20
95.2215160528
 30
0.0
 11
132.1449634608
 21
95.7424611138
 31
0.0
  0
LINE
  5
147
330
1F
100
AcDbEntity
  8
SLD-0
  6
Continuous
 62
   179
100
AcDbLine
 10
172.5567272853
 20
172.0757911267
 30
0.0
 11
132.1449634608
 21
95.7424611138
 31
0.0
  0
ARC
  5
148
330
1F
100
AcDbEntity
  8
SLD-0
  6
Continuous
 62
   179
100
AcDbCircle
 10
74.0110286113
 20
95.7424607111
 30
0.0
 40
3.000000088999997
100
AcDbArc
 50
270.0000012013
 51
0.0
  0
ARC
  5
149
330
1F
100
AcDbEntity
  8
SLD-0
  6
Continuous
 62
   179
100
AcDbCircle
 10
85.0110293635
 20
95.7424613969
 30
0.0
 40
3.000000774850064
100
AcDbArc
 50
180.0
 51
269.999985698
  0
CIRCLE
  5
14A
330
1F
100
AcDbEntity
  8
SLD-0
  6
Continuous
 62
   179
100
AcDbCircle
 10
65.5110286444
 20
170.2424607339
 30
0.0
 40
3.250000000000028
  0
CIRCLE
  5
14B
330
1F
100
AcDbEntity
  8
SLD-0
  6
Continuous
 62
   179
100
AcDbCircle
 10
65.5110286444
 20
147.2424607339
 30
0.0
 40
3.250000000000028
  0
CIRCLE
  5
14C
330
1F
100
AcDbEntity
  8
SLD-0
  6
Continuous
 62
   179
100
AcDbCircle
 10
65.5110286444
 20
110.2424607339
 30
0.0
 40
3.250000000000028
  0
CIRCLE
  5
14D
330
1F
100
AcDbEntity
  8
SLD-0
  6
Continuous
 62
   179
100
AcDbCircle
 10
65.5110286444
 20
127.2424607339
 30
0.0
 40
3.250000000000028
  0
CIRCLE
  5
14E
330
1F
100
AcDbEntity
  8
SLD-0
  6
Continuous
 62
   179
100
AcDbCircle
 10
93.5110286444
 20
170.2424607339
 30
0.0
 40
3.25
  0
CIRCLE
  5
14F
330
1F
100
AcDbEntity
  8
SLD-0
  6
Continuous
 62
   179
100
AcDbCircle
 10
93.5110286444
 20
127.2424607339
 30
0.0
 40
3.25
  0
CIRCLE
  5
150
330
1F
100
AcDbEntity
  8
SLD-0
  6
Continuous
 62
   179
100
AcDbCircle
 10
93.5110286444
 20
110.2424607339
 30
0.0
 40
3.25
  0
CIRCLE
  5
151
330
1F
100
AcDbEntity
  8
SLD-0
  6
Continuous
 62
   179
100
AcDbCircle
 10
93.5110286444
 20
147.2424607339
 30
0.0
 40
3.25
  0
ARC
  5
152
330
1F
100
AcDbEntity
  8
SLD-0
  6
Continuous
 62
   179
100
AcDbCircle
 10
85.0110292711
 20
249.0370872088
 30
0.0
 40
3.000000682500045
100
AcDbArc
 50
90.0000125363
 51
180.0
  0
ARC
  5
153
330
1F
100
AcDbEntity
  8
SLD-0
  6
Continuous
 62
   179
100
AcDbCircle
 10
74.0110284463
 20
249.0370876373
 30
0.0
 40
3.000000254000009
100
AcDbArc
 50
360.0
 51
89.9999956474
  0
CIRCLE
  5
154
330
1F
100
AcDbEntity
  8
SLD-0
  6
Continuous
 62
   179
100
AcDbCircle
 10
92.0110286444
 20
214.5370877795
 30
0.0
 40
3.25
  0
CIRCLE
  5
155
330
1F
100
AcDbEntity
  8
SLD-0
  6
Continuous
 62
   179
100
AcDbCircle
 10
92.0110286444
 20
239.5370877795
 30
0.0
 40
3.25
  0
CIRCLE
  5
156
330
1F
100
AcDbEntity
  8
SLD-0
  6
Continuous
 62
   179
100
AcDbCircle
 10
67.0110286444
 20
239.5370877795
 30
0.0
 40
3.250000000000043
  0
CIRCLE
  5
157
330
1F
100
AcDbEntity
  8
SLD-0
  6
Continuous
 62
   179
100
AcDbCircle
 10
67.0110286444
 20
214.5370877795
 30
0.0
 40
3.250000000000043
  0
ARC
  5
158
330
1F
100
AcDbEntity
  8
SLD-0
  6
Continuous
 62
   179
100
AcDbCircle
 10
172.556727777
 20
95.7424606221
 30
0.0
 40
3.000000000000002
100
AcDbArc
 50
269.9999978667
 51
0.0
  0
DIMENSION
  5
159
330
1F
100
AcDbEntity
  8
SLD-0
 62
     7
100
AcDbDimension
  2
*D15
 10
42.7342306285
 20
110.2424607339
 30
0.0
 11
42.7342306285
 21
98.9924607339
 31
0.0
 70
   160
 71
     1
 42
22.5
  3
SLDDIMSTYLE0
100
AcDbAlignedDimension
 13
54.5110286444
 23
87.7424607339
 33
0.0
 14
65.5110286444
 24
110.2424607339
 34
0.0
 50
90.0
100
AcDbRotatedDimension
1001
ACAD
1000
DSTYLE
1002
{
1070
    77
1070
     3
1070
   143
1040
0.0393700787
1070
    41
1040
3.0
1070
    44
1040
1.0
1070
    42
1040
1.0
1070
   147
1040
1.524
1070
    73
1070
     0
1070
    74
1070
     0
1070
   140
1040
3.5
1070
   284
1070
    12
1070
    78
1070
    12
1002
}
  0
DIMENSION
  5
176
330
1F
100
AcDbEntity
  8
SLD-0
 62
     7
100
AcDbDimension
  2
*D17
 10
42.7342306285
 20
127.2424607339
 30
0.0
 11
42.7342306285
 21
118.7424607339
 31
0.0
 70
   160
 71
     1
 42
17.0
  3
SLDDIMSTYLE1
100
AcDbAlignedDimension
 13
65.5110286444
 23
110.2424607339
 33
0.0
 14
65.5110286444
 24
127.2424607339
 34
0.0
 50
90.0
100
AcDbRotatedDimension
1001
ACAD
1000
DSTYLE
1002
{
1070
    77
1070
     3
1070
   143
1040
0.0393700787
1070
    41
1040
3.0
1070
    44
1040
1.0
1070
    42
1040
1.0
1070
   147
1040
1.524
1070
    73
1070
     0
1070
    74
1070
     0
1070
   140
1040
3.5
1070
   284
1070
    12
1070
    78
1070
    12
1002
}
  0
DIMENSION
  5
18F
330
1F
100
AcDbEntity
  8
SLD-0
 62
     7
100
AcDbDimension
  2
*D18
 10
77.0110286444
 20
79.3949328053
 30
0.0
 11
88.6671125529
 21
79.3949328053
 31
0.0
 70
   160
 71
     1
 42
5.0
  3
SLDDIMSTYLE1
100
AcDbAlignedDimension
 13
82.0110286444
 23
135.2424607339
 33
0.0
 14
77.0110286444
 24
135.2424607339
 34
0.0
100
AcDbRotatedDimension
1001
ACAD
1000
DSTYLE
1002
{
1070
    77
1070
     3
1070
   143
1040
0.0393700787
1070
    41
1040
3.0
1070
    44
1040
1.0
1070
    42
1040
1.0
1070
   147
1040
1.524
1070
    73
1070
     0
1070
    74
1070
     0
1070
   140
1040
3.5
1070
   284
1070
    12
1070
    78
1070
    12
1002
}
  0
DIMENSION
  5
1AB
330
1F
100
AcDbEntity
  8
SLD-0
 62
     7
100
AcDbDimension
  2
*D19
 10
54.5110286444
 20
79.3949328053
 30
0.0
 11
65.7610286444
 21
79.3949328053
 31
0.0
 70
   160
 71
     1
 42
22.5
  3
SLDDIMSTYLE0
100
AcDbAlignedDimension
 13
77.0110286444
 23
95.7424607339
 33
0.0
 14
54.5110286444
 24
87.7424607339
 34
0.0
100
AcDbRotatedDimension
1001
ACAD
1000
DSTYLE
1002
{
1070
    77
1070
     3
1070
   143
1040
0.0393700787
1070
    41
1040
3.0
1070
    44
1040
1.0
1070
    42
1040
1.0
1070
   147
1040
1.524
1070
    73
1070
     0
1070
    74
1070
     0
1070
   140
1040
3.5
1070
   284
1070
    12
1070
    78
1070
    12
1002
}
  0
DIMENSION
  5
1C2
330
1F
100
AcDbEntity
  8
SLD-0
 62
     7
100
AcDbDimension
  2
*D20
 10
54.5110286444
 20
183.2900518313
 30
0.0
 11
60.0110286444
 21
183.2900518313
 31
0.0
 70
   160
 71
     1
 42
11.0
  3
SLDDIMSTYLE1
100
AcDbAlignedDimension
 13
65.5110286444
 23
175.9924607339
 33
0.0
 14
54.5110286444
 24
172.7424607339
 34
0.0
100
AcDbRotatedDimension
1001
ACAD
1000
DSTYLE
1002
{
1070
    77
1070
     3
1070
   143
1040
0.0393700787
1070
    41
1040
3.0
1070
    44
1040
1.0
1070
    42
1040
1.0
1070
   147
1040
1.524
1070
    73
1070
     0
1070
    74
1070
     0
1070
   140
1040
3.5
1070
   284
1070
    12
1070
    78
1070
    12
1002
}
  0
DIMENSION
  5
1DB
330
1F
100
AcDbEntity
  8
SLD-0
 62
     7
100
AcDbDimension
  2
*D21
 10
34.640370864
 20
177.7424607339
 30
0.0
 11
34.640370864
 21
132.7424607339
 31
0.0
 70
   160
 71
     1
 42
90.0
  3
SLDDIMSTYLE1
100
AcDbAlignedDimension
 13
79.5110286444
 23
87.7424607339
 33
0.0
 14
79.5110286444
 24
177.7424607339
 34
0.0
 50
90.0
100
AcDbRotatedDimension
1001
ACAD
1000
DSTYLE
1002
{
1070
    77
1070
     3
1070
   143
1040
0.0393700787
1070
    41
1040
3.0
1070
    44
1040
1.0
1070
    42
1040
1.0
1070
   147
1040
1.524
1070
    73
1070
     0
1070
    74
1070
     0
1070
   140
1040
3.5
1070
   284
1070
    12
1070
    78
1070
    12
1002
}
  0
DIMENSION
  5
1F3
330
1F
100
AcDbEntity
  8
SLD-0
 62
     7
100
AcDbDimension
  2
*D22
 10
65.5110286444
 20
183.2900518313
 30
0.0
 11
79.5110286444
 21
183.2900518313
 31
0.0
 70
   160
 71
     1
 42
28.0
  3
SLDDIMSTYLE1
100
AcDbAlignedDimension
 13
93.5110286444
 23
127.2424607339
 33
0.0
 14
65.5110286444
 24
127.2424607339
 34
0.0
100
AcDbRotatedDimension
1001
ACAD
1000
DSTYLE
1002
{
1070
    77
1070
     3
1070
   143
1040
0.0393700787
1070
    41
1040
3.0
1070
    44
1040
1.0
1070
    42
1040
1.0
1070
   147
1040
1.524
1070
    73
1070
     0
1070
    74
1070
     0
1070
   140
1040
3.5
1070
   284
1070
    12
1070
    78
1070
    12
1002
}
  0
DIMENSION
  5
20A
330
1F
100
AcDbEntity
  8
SLD-0
 62
     7
100
AcDbDimension
  2
*D23
 10
42.7342306285
 20
127.2424607339
 30
0.0
 11
42.7342306285
 21
137.2424607339
 31
0.0
 70
   160
 71
     1
 42
20.0
  3
SLDDIMSTYLE1
100
AcDbAlignedDimension
 13
65.5110286444
 23
147.2424607339
 33
0.0
 14
65.5110286444
 24
127.2424607339
 34
0.0
 50
90.0
100
AcDbRotatedDimension
1001
ACAD
1000
DSTYLE
1002
{
1070
    77
1070
     3
1070
   143
1040
0.0393700787
1070
    41
1040
3.0
1070
    44
1040
1.0
1070
    42
1040
1.0
1070
   147
1040
1.524
1070
    73
1070
     0
1070
    74
1070
     0
1070
   140
1040
3.5
1070
   284
1070
    12
1070
    78
1070
    12
1002
}
  0
DIMENSION
  5
222
330
1F
100
AcDbEntity
  8
SLD-0
 62
     7
100
AcDbDimension
  2
*D24
 10
42.7342306285
 20
170.2424607339
 30
0.0
 11
42.7342306285
 21
158.7424607339
 31
0.0
 70
   160
 71
     1
 42
23.0
  3
SLDDIMSTYLE1
100
AcDbAlignedDimension
 13
65.5110286444
 23
147.2424607339
 33
0.0
 14
65.5110286444
 24
170.2424607339
 34
0.0
 50
90.0
100
AcDbRotatedDimension
1001
ACAD
1000
DSTYLE
1002
{
1070
    77
1070
     3
1070
   143
1040
0.0393700787
1070
    41
1040
3.0
1070
    44
1040
1.0
1070
    42
1040
1.0
1070
   147
1040
1.524
1070
    73
1070
     0
1070
    74
1070
     0
1070
   140
1040
3.5
1070
   284
1070
    12
1070
    78
1070
    12
1002
}
  0
DIMENSION
  5
23A
330
1F
100
AcDbEntity
  8
SLD-0
 62
     7
100
AcDbDimension
  2
*D25
 10
67.0110286444
 20
200.8371690258
 30
0.0
 11
79.5110286444
 21
200.8371690258
 31
0.0
 70
   160
 71
     1
 42
25.0
  3
SLDDIMSTYLE1
100
AcDbAlignedDimension
 13
92.0110286444
 23
214.5370877795
 33
0.0
 14
67.0110286444
 24
214.5370877795
 34
0.0
100
AcDbRotatedDimension
1001
ACAD
1000
DSTYLE
1002
{
1070
    77
1070
     3
1070
   143
1040
0.0393700787
1070
    41
1040
3.0
1070
    44
1040
1.0
1070
    42
1040
1.0
1070
   147
1040
1.524
1070
    73
1070
     0
1070
    74
1070
     0
1070
   140
1040
3.5
1070
   284
1070
    12
1070
    78
1070
    12
1002
}
  0
DIMENSION
  5
251
330
1F
100
AcDbEntity
  8
SLD-0
 62
     7
100
AcDbDimension
  2
*D26
 10
54.5110286444
 20
200.8371690258
 30
0.0
 11
60.7610286444
 21
200.8371690258
 31
0.0
 70
   160
 71
     1
 42
12.5
  3
SLDDIMSTYLE0
100
AcDbAlignedDimension
 13
67.0110286444
 23
208.7870877795
 33
0.0
 14
54.5110286444
 24
212.0370877795
 34
0.0
100
AcDbRotatedDimension
1001
ACAD
1000
DSTYLE
1002
{
1070
    77
1070
     3
1070
   143
1040
0.0393700787
1070
    41
1040
3.0
1070
    44
1040
1.0
1070
    42
1040
1.0
1070
   147
1040
1.524
1070
    73
1070
     0
1070
    74
1070
     0
1070
   140
1040
3.5
1070
   284
1070
    12
1070
    78
1070
    12
1002
}
  0
DIMENSION
  5
26A
330
1F
100
AcDbEntity
  8
SLD-0
 62
     7
100
AcDbDimension
  2
*D27
 10
54.5110286444
 20
192.695738572
 30
0.0
 11
79.5110286444
 21
192.695738572
 31
0.0
 70
   160
 71
     1
 42
50.0
  3
SLDDIMSTYLE1
100
AcDbAlignedDimension
 13
104.5110286444
 23
257.0370877795
 33
0.0
 14
54.5110286444
 24
257.0370877795
 34
0.0
100
AcDbRotatedDimension
1001
ACAD
1000
DSTYLE
1002
{
1070
    77
1070
     3
1070
   143
1040
0.0393700787
1070
    41
1040
3.0
1070
    44
1040
1.0
1070
    42
1040
1.0
1070
   147
1040
1.524
1070
    73
1070
     0
1070
    74
1070
     0
1070
   140
1040
3.5
1070
   284
1070
    12
1070
    78
1070
    12
1002
}
  0
DIMENSION
  5
281
330
1F
100
AcDbEntity
  8
SLD-0
 62
     7
100
AcDbDimension
  2
*D28
 10
128.2806435152
 20
257.0370877795
 30
0.0
 11
128.2806435152
 21
232.0370877795
 31
0.0
 70
   160
 71
     1
 42
50.0
  3
SLDDIMSTYLE1
100
AcDbAlignedDimension
 13
79.5110286444
 23
207.0370877795
 33
0.0
 14
79.5110286444
 24
257.0370877795
 34
0.0
 50
90.0
100
AcDbRotatedDimension
1001
ACAD
1000
DSTYLE
1002
{
1070
    77
1070
     3
1070
   143
1040
0.0393700787
1070
    41
1040
3.0
1070
    44
1040
1.0
1070
    42
1040
1.0
1070
   147
1040
1.524
1070
    73
1070
     0
1070
    74
1070
     0
1070
   140
1040
3.5
1070
   284
1070
    12
1070
    78
1070
    12
1002
}
  0
DIMENSION
  5
299
330
1F
100
AcDbEntity
  8
SLD-0
 62
     7
100
AcDbDimension
  2
*D29
 10
118.2885225994
 20
214.5370877795
 30
0.0
 11
118.2885225994
 21
227.0370877795
 31
0.0
 70
   160
 71
     1
 42
25.0
  3
SLDDIMSTYLE1
100
AcDbAlignedDimension
 13
92.0110286444
 23
239.5370877795
 33
0.0
 14
92.0110286444
 24
214.5370877795
 34
0.0
 50
90.0
100
AcDbRotatedDimension
1001
ACAD
1000
DSTYLE
1002
{
1070
    77
1070
     3
1070
   143
1040
0.0393700787
1070
    41
1040
3.0
1070
    44
1040
1.0
1070
    42
1040
1.0
1070
   147
1040
1.524
1070
    73
1070
     0
1070
    74
1070
     0
1070
   140
1040
3.5
1070
   284
1070
    12
1070
    78
1070
    12
1002
}
  0
DIMENSION
  5
2B1
330
1F
100
AcDbEntity
  8
SLD-0
 62
     7
100
AcDbDimension
  2
*D30
 10
118.5015301294
 20
239.5370877795
 30
0.0
 11
118.5015301294
 21
248.2870877795
 31
0.0
 70
   160
 71
     1
 42
17.5
  3
SLDDIMSTYLE0
100
AcDbAlignedDimension
 13
104.5110286444
 23
257.0370877795
 33
0.0
 14
92.0110286444
 24
239.5370877795
 34
0.0
 50
90.0
100
AcDbRotatedDimension
1001
ACAD
1000
DSTYLE
1002
{
1070
    77
1070
     3
1070
   143
1040
0.0393700787
1070
    41
1040
3.0
1070
    44
1040
1.0
1070
    42
1040
1.0
1070
   147
1040
1.524
1070
    73
1070
     0
1070
    74
1070
     0
1070
   140
1040
3.5
1070
   284
1070
    12
1070
    78
1070
    12
1002
}
  0
DIMENSION
  5
2CB
330
1F
100
AcDbEntity
  8
SLD-0
 62
     7
100
AcDbDimension
  2
*D31
 10
175.5567276653
 20
188.3566408904
 30
0.0
 11
178.0567276653
 21
188.3566408904
 31
0.0
 70
   160
 71
     1
 42
5.0
  3
SLDDIMSTYLE1
100
AcDbAlignedDimension
 13
180.5567276653
 23
135.2424607339
 33
0.0
 14
175.5567276653
 24
135.2424607339
 34
0.0
100
AcDbRotatedDimension
1001
ACAD
1000
DSTYLE
1002
{
1070
    77
1070
     3
1070
   143
1040
0.0393700787
1070
    41
1040
3.0
1070
    44
1040
1.0
1070
    42
1040
1.0
1070
   147
1040
1.524
1070
    73
1070
     0
1070
    74
1070
     0
1070
   140
1040
3.5
1070
   284
1070
    12
1070
    78
1070
    12
1002
}
  0
DIMENSION
  5
2E5
330
1F
100
AcDbEntity
  8
SLD-0
 62
     7
100
AcDbDimension
  2
*D32
 10
121.1489672414
 20
92.7424607339
 30
0.0
 11
121.1489672414
 21
90.2424607339
 31
0.0
 70
   160
 71
     1
 42
5.0
  3
SLDDIMSTYLE1
100
AcDbAlignedDimension
 13
130.5567276653
 23
87.7424607339
 33
0.0
 14
130.5567276653
 24
92.7424607339
 34
0.0
 50
90.0
100
AcDbRotatedDimension
1001
ACAD
1000
DSTYLE
1002
{
1070
    77
1070
     3
1070
   143
1040
0.0393700787
1070
    41
1040
3.0
1070
    44
1040
1.0
1070
    42
1040
1.0
1070
   147
1040
1.524
1070
    73
1070
     0
1070
    74
1070
     0
1070
   140
1040
3.5
1070
   284
1070
    12
1070
    78
1070
    12
1002
}
  0
MTEXT
  5
300
330
1F
100
AcDbEntity
  8
SLD-0
 62
     7
100
AcDbMText
 10
157.6795907
 20
17.0817706375
 30
0.0
 40
3.5
 41
0.0
 71
     1
 72
     1
  1
131039
  7
SLDTEXTSTYLE2
 73
     1
 44
1.0
  0
MTEXT
  5
301
330
1F
100
AcDbEntity
  8
SLD-0
 62
     7
100
AcDbMText
 10
147.3324079532
 20
28.6902146874
 30
0.0
 40
3.5
 41
0.0
 71
     1
 72
     1
  1
N01912-202-1
  7
SLDTEXTSTYLE2
 73
     1
 44
1.0
  0
MTEXT
  5
303
330
1F
100
AcDbEntity
  8
SLD-0
 62
     7
100
AcDbMText
 10
131.6174592532
 20
42.4425589842
 30
0.0
 40
3.5
 41
0.0
 71
     1
 72
     1
  1
GCYL Connecter Block
  7
SLDTEXTSTYLE3
 73
     1
 44
1.0
  0
INSERT
  5
304
330
1F
100
AcDbEntity
  8
0
  6
Continuous
 62
     7
370
     0
100
AcDbBlockReference
  2
SURFACEFINISH39
 10
174.4047539208
 20
255.196953303
 30
0.0
  0
INSERT
  5
305
330
1F
100
AcDbEntity
  8
0
  6
Continuous
 62
     7
370
     0
100
AcDbBlockReference
  2
注記
 10
109.2939849194
 20
56.6318604957
 30
0.0
  0
INSERT
  5
306
330
1F
100
AcDbEntity
  8
0
  6
Continuous
 62
     7
370
     0
100
AcDbBlockReference
  2
SW_CENTERMARK0
 10
0.0
 20
0.0
 30
0.0
  0
INSERT
  5
307
330
1F
100
AcDbEntity
  8
0
  6
Continuous
 62
     7
370
     0
100
AcDbBlockReference
  2
SW_CENTERMARK1
 10
0.0
 20
0.0
 30
0.0
  0
INSERT
  5
308
330
1F
100
AcDbEntity
  8
0
  6
Continuous
 62
     7
370
     0
100
AcDbBlockReference
  2
SW_CENTERMARK2
 10
0.0
 20
0.0
 30
0.0
  0
INSERT
  5
309
330
1F
100
AcDbEntity
  8
0
  6
Continuous
 62
     7
370
     0
100
AcDbBlockReference
  2
SW_CENTERMARK3
 10
0.0
 20
0.0
 30
0.0
  0
INSERT
  5
30A
330
1F
100
AcDbEntity
  8
0
  6
Continuous
 62
     7
370
     0
100
AcDbBlockReference
  2
SW_CENTERMARK4
 10
0.0
 20
0.0
 30
0.0
  0
INSERT
  5
30B
330
1F
100
AcDbEntity
  8
0
  6
Continuous
 62
     7
370
     0
100
AcDbBlockReference
  2
SW_CENTERMARK5
 10
0.0
 20
0.0
 30
0.0
  0
INSERT
  5
30C
330
1F
100
AcDbEntity
  8
0
  6
Continuous
 62
     7
370
     0
100
AcDbBlockReference
  2
SW_CENTERMARK6
 10
0.0
 20
0.0
 30
0.0
  0
INSERT
  5
30D
330
1F
100
AcDbEntity
  8
0
  6
Continuous
 62
     7
370
     0
100
AcDbBlockReference
  2
SW_CENTERMARK7
 10
0.0
 20
0.0
 30
0.0
  0
INSERT
  5
30E
330
1F
100
AcDbEntity
  8
0
  6
Continuous
 62
     7
370
     0
100
AcDbBlockReference
  2
SW_CENTERMARK8
 10
0.0
 20
0.0
 30
0.0
  0
INSERT
  5
30F
330
1F
100
AcDbEntity
  8
0
  6
Continuous
 62
     7
370
     0
100
AcDbBlockReference
  2
SW_CENTERMARK9
 10
0.0
 20
0.0
 30
0.0
  0
INSERT
  5
310
330
1F
100
AcDbEntity
  8
0
  6
Continuous
 62
     7
370
     0
100
AcDbBlockReference
  2
SW_CENTERMARK10
 10
0.0
 20
0.0
 30
0.0
  0
INSERT
  5
311
330
1F
100
AcDbEntity
  8
0
  6
Continuous
 62
     7
370
     0
100
AcDbBlockReference
  2
SW_CENTERMARK11
 10
0.0
 20
0.0
 30
0.0
  0
ENDSEC
  0
SECTION
  2
OBJECTS
  0
DICTIONARY
  5
C
330
0
100
AcDbDictionary
281
     1
  3
ACAD_GROUP
350
D
  3
ACAD_LAYOUT
350
1A
  3
ACAD_MLINESTYLE
350
17
  3
ACAD_PLOTSETTINGS
350
19
  3
ACAD_PLOTSTYLENAME
350
E
  0
DICTIONARY
  5
D
102
{ACAD_REACTORS
330
C
102
}
330
C
100
AcDbDictionary
281
     1
  0
DICTIONARY
  5
1A
102
{ACAD_REACTORS
330
C
102
}
330
C
100
AcDbDictionary
281
     1
  3
Layout1
350
1E
  3
Layout2
350
26
  3
Model
350
22
  0
DICTIONARY
  5
17
102
{ACAD_REACTORS
330
C
102
}
330
C
100
AcDbDictionary
281
     1
  3
Standard
350
18
  0
DICTIONARY
  5
19
102
{ACAD_REACTORS
330
C
102
}
330
C
100
AcDbDictionary
281
     1
  0
ACDBDICTIONARYWDFLT
  5
E
102
{ACAD_REACTORS
330
C
102
}
330
C
100
AcDbDictionary
281
     1
  3
Normal
350
F
100
AcDbDictionaryWithDefault
340
F
  0
LAYOUT
  5
1E
102
{ACAD_REACTORS
330
1A
102
}
330
1A
100
AcDbPlotSettings
  1

  2

  4

  6

 40
0.0
 41
0.0
 42
0.0
 43
0.0
 44
0.0
 45
0.0
 46
0.0
 47
0.0
 48
0.0
 49
0.0
140
0.0
141
0.0
142
1.0
143
1.0
 70
   688
 72
     0
 73
     0
 74
     5
  7

 75
    16
147
1.0
148
0.0
149
0.0
100
AcDbLayout
  1
Layout1
 70
     1
 71
     1
 10
0.0
 20
0.0
 11
0.0
 21
0.0
 12
0.0
 22
0.0
 32
0.0
 14
0.0
 24
0.0
 34
0.0
 15
0.0
 25
0.0
 35
0.0
146
0.0
 13
0.0
 23
0.0
 33
0.0
 16
1.0
 26
0.0
 36
0.0
 17
0.0
 27
1.0
 37
0.0
 76
     0
330
1B
  0
LAYOUT
  5
26
102
{ACAD_REACTORS
330
1A
102
}
330
1A
100
AcDbPlotSettings
  1

  2

  4

  6

 40
0.0
 41
0.0
 42
0.0
 43
0.0
 44
0.0
 45
0.0
 46
0.0
 47
0.0
 48
0.0
 49
0.0
140
0.0
141
0.0
142
1.0
143
1.0
 70
   688
 72
     0
 73
     0
 74
     5
  7

 75
    16
147
1.0
148
0.0
149
0.0
100
AcDbLayout
  1
Layout2
 70
     1
 71
     2
 10
0.0
 20
0.0
 11
0.0
 21
0.0
 12
0.0
 22
0.0
 32
0.0
 14
0.0
 24
0.0
 34
0.0
 15
0.0
 25
0.0
 35
0.0
146
0.0
 13
0.0
 23
0.0
 33
0.0
 16
1.0
 26
0.0
 36
0.0
 17
0.0
 27
1.0
 37
0.0
 76
     0
330
23
  0
LAYOUT
  5
22
102
{ACAD_REACTORS
330
1A
102
}
330
1A
100
AcDbPlotSettings
  1

  2

  4

  6

 40
0.0
 41
0.0
 42
0.0
 43
0.0
 44
0.0
 45
0.0
 46
0.0
 47
0.0
 48
0.0
 49
0.0
140
0.0
141
0.0
142
1.0
143
1.0
 70
  1712
 72
     0
 73
     0
 74
     0
  7

 75
     0
147
1.0
148
0.0
149
0.0
100
AcDbLayout
  1
Model
 70
     1
 71
     0
 10
0.0
 20
0.0
 11
0.0
 21
0.0
 12
0.0
 22
0.0
 32
0.0
 14
0.0
 24
0.0
 34
0.0
 15
210.0
 25
297.0
 35
0.0
146
0.0
 13
0.0
 23
0.0
 33
0.0
 16
1.0
 26
0.0
 36
0.0
 17
0.0
 27
1.0
 37
0.0
 76
     0
330
1F
  0
MLINESTYLE
  5
18
102
{ACAD_REACTORS
330
17
102
}
330
17
100
AcDbMlineStyle
  2
Standard
 70
     0
  3

 62
   256
 51
90.0
 52
90.0
 71
     2
 49
0.5
 62
   256
  6
BYLAYER
 49
-0.5
 62
   256
  6
BYLAYER
  0
ACDBPLACEHOLDER
  5
F
102
{ACAD_REACTORS
330
E
102
}
330
E
  0
ENDSEC
  0
EOF
