  0
SECTION
  2
HEADER
  9
$ACADVER
  1
AC1015
  9
$ACADMAINTVER
 70
     6
  9
$DWGCODEPAGE
  3
DOS932
  9
$INSBASE
 10
0.0
 20
0.0
 30
0.0
  9
$EXTMIN
 10
0.0
 20
0.0
 30
0.0
  9
$EXTMAX
 10
210.0
 20
297.0
 30
0.0
  9
$LIMMIN
 10
0.0
 20
0.0
  9
$LIMMAX
 10
0.0
 20
0.0
  9
$ORTHOMODE
 70
     0
  9
$REGENMODE
 70
     1
  9
$FILLMODE
 70
     1
  9
$QTEXTMODE
 70
     0
  9
$MIRRTEXT
 70
     1
  9
$LTSCALE
 40
1.0
  9
$ATTMODE
 70
     1
  9
$TEXTSIZE
 40
3.5
  9
$TRACEWID
 40
1.0
  9
$TEXTSTYLE
  7
Standard
  9
$CLAYER
  8
0
  9
$CELTYPE
  6
ByLayer
  9
$CECOLOR
 62
   256
  9
$CELTSCALE
 40
1.0
  9
$DISPSILH
 70
     0
  9
$DIMSCALE
 40
1.0
  9
$DIMASZ
 40
3.0
  9
$DIMEXO
 40
1.0
  9
$DIMDLI
 40
3.75
  9
$DIMRND
 40
0.0
  9
$DIMDLE
 40
0.0
  9
$DIMEXE
 40
1.0
  9
$DIMTP
 40
0.0
  9
$DIMTM
 40
0.0
  9
$DIMTXT
 40
3.5
  9
$DIMCEN
 40
2.5
  9
$DIMTSZ
 40
0.0
  9
$DIMTOL
 70
     0
  9
$DIMLIM
 70
     0
  9
$DIMTIH
 70
     1
  9
$DIMTOH
 70
     1
  9
$DIMSE1
 70
     0
  9
$DIMSE2
 70
     0
  9
$DIMTAD
 70
     1
  9
$DIMZIN
 70
     1
  9
$DIMBLK
  1

  9
$DIMASO
 70
     1
  9
$DIMSHO
 70
     1
  9
$DIMPOST
  1

  9
$DIMAPOST
  1

  9
$DIMALT
 70
     0
  9
$DIMALTD
 70
     3
  9
$DIMALTF
 40
0.0393700787
  9
$DIMLFAC
 40
1.0
  9
$DIMTOFL
 70
     1
  9
$DIMTVP
 40
0.0
  9
$DIMTIX
 70
     0
  9
$DIMSOXD
 70
     0
  9
$DIMSAH
 70
     0
  9
$DIMBLK1
  1

  9
$DIMBLK2
  1

  9
$DIMSTYLE
  2
ISO-25
  9
$DIMCLRD
 70
     0
  9
$DIMCLRE
 70
     0
  9
$DIMCLRT
 70
     0
  9
$DIMTFAC
 40
1.0
  9
$DIMGAP
 40
1.524
  9
$DIMJUST
 70
     0
  9
$DIMSD1
 70
     0
  9
$DIMSD2
 70
     0
  9
$DIMTOLJ
 70
     0
  9
$DIMTZIN
 70
     1
  9
$DIMALTZ
 70
     0
  9
$DIMALTTZ
 70
     0
  9
$DIMUPT
 70
     0
  9
$DIMDEC
 70
     2
  9
$DIMTDEC
 70
     2
  9
$DIMALTU
 70
     2
  9
$DIMALTTD
 70
     3
  9
$DIMTXSTY
  7
Standard
  9
$DIMAUNIT
 70
     0
  9
$DIMADEC
 70
     0
  9
$DIMALTRND
 40
0.0
  9
$DIMAZIN
 70
     0
  9
$DIMDSEP
 70
    44
  9
$DIMATFIT
 70
     3
  9
$DIMFRAC
 70
     0
  9
$DIMLDRBLK
  1

  9
$DIMLUNIT
 70
     2
  9
$DIMLWD
 70
    -2
  9
$DIMLWE
 70
    -2
  9
$DIMTMOVE
 70
     0
  9
$LUNITS
 70
     2
  9
$LUPREC
 70
     1
  9
$SKETCHINC
 40
1.0
  9
$FILLETRAD
 40
10.0
  9
$AUNITS
 70
     0
  9
$AUPREC
 70
     0
  9
$MENU
  1
.
  9
$ELEVATION
 40
0.0
  9
$PELEVATION
 40
0.0
  9
$THICKNESS
 40
0.0
  9
$LIMCHECK
 70
     0
  9
$CHAMFERA
 40
10.0
  9
$CHAMFERB
 40
10.0
  9
$CHAMFERC
 40
20.0
  9
$CHAMFERD
 40
0.0
  9
$SKPOLY
 70
     0
  9
$TDCREATE
 40
2454314.54630154
  9
$TDUCREATE
 40
2454314.17130154
  9
$TDUPDATE
 40
2454314.546301551
  9
$TDUUPDATE
 40
2454314.171301551
  9
$TDINDWG
 40
0.0000000116
  9
$TDUSRTIMER
 40
0.0000000116
  9
$USRTIMER
 70
     1
  9
$ANGBASE
 50
0.0
  9
$ANGDIR
 70
     0
  9
$PDMODE
 70
     0
  9
$PDSIZE
 40
-1.0
  9
$PLINEWID
 40
0.0
  9
$SPLFRAME
 70
     0
  9
$SPLINETYPE
 70
     6
  9
$SPLINESEGS
 70
     8
  9
$HANDSEED
  5
26B
  9
$SURFTAB1
 70
     6
  9
$SURFTAB2
 70
     6
  9
$SURFTYPE
 70
     6
  9
$SURFU
 70
     6
  9
$SURFV
 70
     6
  9
$UCSBASE
  2

  9
$UCSNAME
  2

  9
$UCSORG
 10
0.0
 20
0.0
 30
0.0
  9
$UCSXDIR
 10
1.0
 20
0.0
 30
0.0
  9
$UCSYDIR
 10
0.0
 20
1.0
 30
0.0
  9
$UCSORTHOREF
  2

  9
$UCSORTHOVIEW
 70
     0
  9
$UCSORGTOP
 10
0.0
 20
0.0
 30
0.0
  9
$UCSORGBOTTOM
 10
0.0
 20
0.0
 30
0.0
  9
$UCSORGLEFT
 10
0.0
 20
0.0
 30
0.0
  9
$UCSORGRIGHT
 10
0.0
 20
0.0
 30
0.0
  9
$UCSORGFRONT
 10
0.0
 20
0.0
 30
0.0
  9
$UCSORGBACK
 10
0.0
 20
0.0
 30
0.0
  9
$PUCSBASE
  2

  9
$PUCSNAME
  2

  9
$PUCSORG
 10
0.0
 20
0.0
 30
0.0
  9
$PUCSXDIR
 10
1.0
 20
0.0
 30
0.0
  9
$PUCSYDIR
 10
0.0
 20
1.0
 30
0.0
  9
$PUCSORTHOREF
  2

  9
$PUCSORTHOVIEW
 70
     0
  9
$PUCSORGTOP
 10
0.0
 20
0.0
 30
0.0
  9
$PUCSORGBOTTOM
 10
0.0
 20
0.0
 30
0.0
  9
$PUCSORGLEFT
 10
0.0
 20
0.0
 30
0.0
  9
$PUCSORGRIGHT
 10
0.0
 20
0.0
 30
0.0
  9
$PUCSORGFRONT
 10
0.0
 20
0.0
 30
0.0
  9
$PUCSORGBACK
 10
0.0
 20
0.0
 30
0.0
  9
$USERI1
 70
     0
  9
$USERI2
 70
     0
  9
$USERI3
 70
     0
  9
$USERI4
 70
     0
  9
$USERI5
 70
     0
  9
$USERR1
 40
0.0
  9
$USERR2
 40
0.0
  9
$USERR3
 40
0.0
  9
$USERR4
 40
0.0
  9
$USERR5
 40
0.0
  9
$WORLDVIEW
 70
     1
  9
$SHADEDGE
 70
     3
  9
$SHADEDIF
 70
    70
  9
$TILEMODE
 70
     1
  9
$MAXACTVP
 70
    64
  9
$PINSBASE
 10
0.0
 20
0.0
 30
0.0
  9
$PLIMCHECK
 70
     0
  9
$PEXTMIN
 10
1.0000000000E+20
 20
1.0000000000E+20
 30
1.0000000000E+20
  9
$PEXTMAX
 10
-1.0000000000E+20
 20
-1.0000000000E+20
 30
-1.0000000000E+20
  9
$PLIMMIN
 10
0.0
 20
0.0
  9
$PLIMMAX
 10
420.0
 20
297.0
  9
$UNITMODE
 70
     0
  9
$VISRETAIN
 70
     1
  9
$PLINEGEN
 70
     0
  9
$PSLTSCALE
 70
     1
  9
$TREEDEPTH
 70
  3020
  9
$CMLSTYLE
  2
Standard
  9
$CMLJUST
 70
     0
  9
$CMLSCALE
 40
20.0
  9
$PROXYGRAPHICS
 70
     1
  9
$MEASUREMENT
 70
     1
  9
$CELWEIGHT
370
    -1
  9
$ENDCAPS
280
     0
  9
$JOINSTYLE
280
     0
  9
$LWDISPLAY
290
     1
  9
$INSUNITS
 70
     4
  9
$HYPERLINKBASE
  1

  9
$STYLESHEET
  1

  9
$XEDIT
290
     1
  9
$CEPSNTYPE
380
     0
  9
$PSTYLEMODE
290
     1
  9
$FINGERPRINTGUID
  2
{8C60EE3D-671C-447A-BF33-4045BCEF893F}
  9
$VERSIONGUID
  2
{FAEB1C32-E019-11D5-929B-00C0DF256EC4}
  9
$EXTNAMES
290
     1
  9
$PSVPSCALE
 40
0.0
  9
$OLESTARTUP
290
     0
  0
ENDSEC
  0
SECTION
  2
CLASSES
  0
CLASS
  1
ACDBDICTIONARYWDFLT
  2
AcDbDictionaryWithDefault
  3
ObjectDBX Classes
 90
        0
280
     0
281
     0
  0
CLASS
  1
ACDBPLACEHOLDER
  2
AcDbPlaceHolder
  3
ObjectDBX Classes
 90
        0
280
     0
281
     0
  0
CLASS
  1
LAYOUT
  2
AcDbLayout
  3
ObjectDBX Classes
 90
        0
280
     0
281
     0
  0
ENDSEC
  0
SECTION
  2
TABLES
  0
TABLE
  2
VPORT
  5
8
330
0
100
AcDbSymbolTable
 70
     1
  0
VPORT
  5
29
330
8
100
AcDbSymbolTableRecord
100
AcDbViewportTableRecord
  2
*Active
 70
     0
 10
0.0
 20
0.0
 11
1.0
 21
1.0
 12
105.0
 22
148.5
 13
0.0
 23
0.0
 14
10.0
 24
10.0
 15
10.0
 25
10.0
 16
0.0
 26
0.0
 36
1.0
 17
0.0
 27
0.0
 37
0.0
 40
297.0
 41
1.9729729729
 42
50.0
 43
0.0
 44
0.0
 50
0.0
 51
0.0
 71
     0
 72
  2000
 73
     1
 74
     3
 75
     0
 76
     0
 77
     0
 78
     0
281
     0
 65
     1
110
0.0
120
0.0
130
0.0
111
1.0
121
0.0
131
0.0
112
0.0
122
1.0
132
0.0
 79
     0
146
0.0
  0
ENDTAB
  0
TABLE
  2
LTYPE
  5
5
330
0
100
AcDbSymbolTable
 70
     6
  0
LTYPE
  5
14
330
5
100
AcDbSymbolTableRecord
100
AcDbLinetypeTableRecord
  2
ByBlock
 70
     0
  3

 72
    65
 73
     0
 40
0.0
  0
LTYPE
  5
15
330
5
100
AcDbSymbolTableRecord
100
AcDbLinetypeTableRecord
  2
ByLayer
 70
     0
  3

 72
    65
 73
     0
 40
0.0
  0
LTYPE
  5
16
330
5
100
AcDbSymbolTableRecord
100
AcDbLinetypeTableRecord
  2
Continuous
 70
     0
  3
Solid line
 72
    65
 73
     0
 40
0.0
  0
LTYPE
  5
2A
330
5
100
AcDbSymbolTableRecord
100
AcDbLinetypeTableRecord
  2
HIDDEN
 70
     0
  3
Hidden __ __ __ __ __ __ __ __ __ __ __ __ __ __
 72
    65
 73
     2
 40
1.905
 49
1.27
 74
     0
 49
-0.635
 74
     0
  0
LTYPE
  5
2B
330
5
100
AcDbSymbolTableRecord
100
AcDbLinetypeTableRecord
  2
PHANTOM
 70
     0
  3
Phantom ______  __  __  ______  __  __  ______
 72
    65
 73
     6
 40
12.7
 49
6.35
 74
     0
 49
-1.27
 74
     0
 49
1.27
 74
     0
 49
-1.27
 74
     0
 49
1.27
 74
     0
 49
-1.27
 74
     0
  0
LTYPE
  5
2C
330
5
100
AcDbSymbolTableRecord
100
AcDbLinetypeTableRecord
  2
CENTER
 70
     0
  3
Center ____ _ ____ _ ____ _ ____ _ ____ _ ____
 72
    65
 73
     4
 40
10.16
 49
6.35
 74
     0
 49
-1.27
 74
     0
 49
1.27
 74
     0
 49
-1.27
 74
     0
  0
LTYPE
  5
2D
330
5
100
AcDbSymbolTableRecord
100
AcDbLinetypeTableRecord
  2
CENTERX2
 70
     0
  3
Center (2x) ________  __  ________  __  _____
 72
    65
 73
     4
 40
20.32
 49
12.7
 74
     0
 49
-2.54
 74
     0
 49
2.54
 74
     0
 49
-2.54
 74
     0
  0
LTYPE
  5
2E
330
5
100
AcDbSymbolTableRecord
100
AcDbLinetypeTableRecord
  2
DOT2
 70
     0
  3
Dot (.5x) ........................................
 72
    65
 73
     2
 40
0.635
 49
0.0
 74
     0
 49
-0.635
 74
     0
  0
ENDTAB
  0
TABLE
  2
LAYER
  5
2
330
0
100
AcDbSymbolTable
 70
    10
  0
LAYER
  5
10
330
2
100
AcDbSymbolTableRecord
100
AcDbLayerTableRecord
  2
0
 70
     0
 62
     7
  6
Continuous
370
    -3
390
F
  0
LAYER
  5
2F
330
2
100
AcDbSymbolTableRecord
100
AcDbLayerTableRecord
  2
SLD-0_2
 70
     0
 62
   179
  6
Continuous
370
     0
390
F
  0
LAYER
  5
30
330
2
100
AcDbSymbolTableRecord
100
AcDbLayerTableRecord
  2
SLD-0_1
 70
     0
 62
   179
  6
Continuous
370
     0
390
F
  0
LAYER
  5
31
330
2
100
AcDbSymbolTableRecord
100
AcDbLayerTableRecord
  2
SLD-0_0
 70
     0
 62
   179
  6
Continuous
370
     0
390
F
  0
LAYER
  5
32
330
2
100
AcDbSymbolTableRecord
100
AcDbLayerTableRecord
  2
SLD-0
 70
     0
 62
   179
  6
Continuous
370
     0
390
F
  0
LAYER
  5
33
330
2
100
AcDbSymbolTableRecord
100
AcDbLayerTableRecord
  2
SLD-DEFPOINTS
 70
     0
 62
   179
  6
Continuous
370
     0
390
F
  0
LAYER
  5
34
330
2
100
AcDbSymbolTableRecord
100
AcDbLayerTableRecord
  2
SLD-DEFPOINTS_0
 70
     0
 62
   179
  6
Continuous
370
     0
390
F
  0
LAYER
  5
35
330
2
100
AcDbSymbolTableRecord
100
AcDbLayerTableRecord
  2
SLD-DEFPOINTS_1
 70
     0
 62
   179
  6
Continuous
370
     0
390
F
  0
LAYER
  5
36
330
2
100
AcDbSymbolTableRecord
100
AcDbLayerTableRecord
  2
SLD-DEFPOINTS_2
 70
     0
 62
   179
  6
Continuous
370
     0
390
F
  0
LAYER
  5
104
330
2
100
AcDbSymbolTableRecord
100
AcDbLayerTableRecord
  2
Defpoints
 70
     0
 62
     7
  6
Continuous
290
     0
370
    -3
390
F
  0
ENDTAB
  0
TABLE
  2
STYLE
  5
3
330
0
100
AcDbSymbolTable
 70
     4
  0
STYLE
  5
11
330
3
100
AcDbSymbolTableRecord
100
AcDbTextStyleTableRecord
  2
Standard
 70
     0
 40
0.0
 41
1.0
 50
0.0
 71
     0
 42
2.5
  3
txt
  4
bigfont
  0
STYLE
  5
3A
330
3
100
AcDbSymbolTableRecord
100
AcDbTextStyleTableRecord
  2
SLDTEXTSTYLE0
 70
     0
 40
0.0
 41
0.7
 50
0.0
 71
     0
 42
0.2
  3
TXT
  4
bigfont
  0
STYLE
  5
112
330
3
100
AcDbSymbolTableRecord
100
AcDbTextStyleTableRecord
  2
SLDTEXTSTYLE1
 70
     0
 40
0.0
 41
0.2210848597
 50
0.0
 71
     0
 42
0.2
  3
TXT
  4
bigfont
  0
STYLE
  5
262
330
3
100
AcDbSymbolTableRecord
100
AcDbTextStyleTableRecord
  2
SLDTEXTSTYLE2
 70
     0
 40
0.0
 41
0.65
 50
0.0
 71
     0
 42
0.2
  3
TXT
  4
bigfont
  0
ENDTAB
  0
TABLE
  2
VIEW
  5
6
330
0
100
AcDbSymbolTable
 70
     0
  0
ENDTAB
  0
TABLE
  2
UCS
  5
7
330
0
100
AcDbSymbolTable
 70
     0
  0
ENDTAB
  0
TABLE
  2
APPID
  5
9
330
0
100
AcDbSymbolTable
 70
     1
  0
APPID
  5
12
330
9
100
AcDbSymbolTableRecord
100
AcDbRegAppTableRecord
  2
ACAD
 70
     0
  0
ENDTAB
  0
TABLE
  2
DIMSTYLE
  5
A
330
0
100
AcDbSymbolTable
 70
     3
100
AcDbDimStyleTable
  0
DIMSTYLE
105
27
330
A
100
AcDbSymbolTableRecord
100
AcDbDimStyleTableRecord
  2
ISO-25
 70
     0
 41
2.5
 42
0.625
 43
3.75
 44
1.25
 73
     0
 74
     0
 77
     1
 78
     8
140
2.5
141
2.5
143
0.0393700787
147
0.625
171
     3
172
     1
271
     2
272
     2
274
     3
278
    44
283
     0
284
     8
340
11
  0
DIMSTYLE
105
113
102
{ACAD_REACTORS
330
103
330
13E
330
1CE
330
1FE
102
}
330
A
100
AcDbSymbolTableRecord
100
AcDbDimStyleTableRecord
  2
SLDDIMSTYLE0
 70
     0
 41
3.0
 44
0.0
 73
     0
 74
     0
 77
     3
 78
    12
140
3.5
147
0.875
173
     1
271
     1
272
     3
284
    12
340
112
341
114
343
114
344
114
  0
DIMSTYLE
105
131
102
{ACAD_REACTORS
330
121
330
155
330
170
330
189
330
1A0
330
1B7
330
1E6
330
217
330
22F
330
246
102
}
330
A
100
AcDbSymbolTableRecord
100
AcDbDimStyleTableRecord
  2
SLDDIMSTYLE1
 70
     0
 41
3.0
 44
0.0
 73
     0
 74
     0
 77
     3
 78
    12
140
3.5
147
0.875
173
     1
271
     0
272
     3
284
    12
340
112
341
114
343
114
344
114
  0
ENDTAB
  0
TABLE
  2
BLOCK_RECORD
  5
1
330
0
100
AcDbSymbolTable
 70
    23
  0
BLOCK_RECORD
  5
1F
330
1
100
AcDbSymbolTableRecord
100
AcDbBlockTableRecord
  2
*Model_Space
340
22
  0
BLOCK_RECORD
  5
1B
330
1
100
AcDbSymbolTableRecord
100
AcDbBlockTableRecord
  2
*Paper_Space
340
1E
  0
BLOCK_RECORD
  5
23
330
1
100
AcDbSymbolTableRecord
100
AcDbBlockTableRecord
  2
*Paper_Space0
340
26
  0
BLOCK_RECORD
  5
37
330
1
100
AcDbSymbolTableRecord
100
AcDbBlockTableRecord
  2
注記
340
0
102
{BLKREFS
331
264
102
}
  0
BLOCK_RECORD
  5
3D
330
1
100
AcDbSymbolTableRecord
100
AcDbBlockTableRecord
  2
SW_CENTERMARK0
340
0
102
{BLKREFS
331
265
102
}
  0
BLOCK_RECORD
  5
48
330
1
100
AcDbSymbolTableRecord
100
AcDbBlockTableRecord
  2
SW_CENTERMARK1
340
0
102
{BLKREFS
331
266
102
}
  0
BLOCK_RECORD
  5
53
330
1
100
AcDbSymbolTableRecord
100
AcDbBlockTableRecord
  2
SW_CENTERMARK2
340
0
102
{BLKREFS
331
267
102
}
  0
BLOCK_RECORD
  5
5E
330
1
100
AcDbSymbolTableRecord
100
AcDbBlockTableRecord
  2
SW_CENTERMARK3
340
0
102
{BLKREFS
331
268
102
}
  0
BLOCK_RECORD
  5
69
330
1
100
AcDbSymbolTableRecord
100
AcDbBlockTableRecord
  2
SW_CENTERMARK4
340
0
102
{BLKREFS
331
269
102
}
  0
BLOCK_RECORD
  5
74
330
1
100
AcDbSymbolTableRecord
100
AcDbBlockTableRecord
  2
SW_CENTERMARK5
340
0
102
{BLKREFS
331
26A
102
}
  0
BLOCK_RECORD
  5
105
330
1
100
AcDbSymbolTableRecord
100
AcDbBlockTableRecord
  2
*D8
340
0
  0
BLOCK_RECORD
  5
114
330
1
100
AcDbSymbolTableRecord
100
AcDbBlockTableRecord
  2
_None
340
0
102
{BLKREFS
331
10A
331
109
331
128
331
127
331
144
331
143
331
15C
331
15B
331
176
331
175
331
18F
331
18E
331
1A6
331
1A5
331
1BD
331
1BC
331
1D4
331
1D3
331
1EC
331
1EB
331
204
331
203
331
21D
331
21C
331
235
331
234
331
24C
331
24B
102
}
  0
BLOCK_RECORD
  5
122
330
1
100
AcDbSymbolTableRecord
100
AcDbBlockTableRecord
  2
*D10
340
0
  0
BLOCK_RECORD
  5
13F
330
1
100
AcDbSymbolTableRecord
100
AcDbBlockTableRecord
  2
*D11
340
0
  0
BLOCK_RECORD
  5
156
330
1
100
AcDbSymbolTableRecord
100
AcDbBlockTableRecord
  2
*D12
340
0
  0
BLOCK_RECORD
  5
171
330
1
100
AcDbSymbolTableRecord
100
AcDbBlockTableRecord
  2
*D13
340
0
  0
BLOCK_RECORD
  5
18A
330
1
100
AcDbSymbolTableRecord
100
AcDbBlockTableRecord
  2
*D14
340
0
  0
BLOCK_RECORD
  5
1A1
330
1
100
AcDbSymbolTableRecord
100
AcDbBlockTableRecord
  2
*D15
340
0
  0
BLOCK_RECORD
  5
1B8
330
1
100
AcDbSymbolTableRecord
100
AcDbBlockTableRecord
  2
*D16
340
0
  0
BLOCK_RECORD
  5
1CF
330
1
100
AcDbSymbolTableRecord
100
AcDbBlockTableRecord
  2
*D17
340
0
  0
BLOCK_RECORD
  5
1E7
330
1
100
AcDbSymbolTableRecord
100
AcDbBlockTableRecord
  2
*D18
340
0
  0
BLOCK_RECORD
  5
1FF
330
1
100
AcDbSymbolTableRecord
100
AcDbBlockTableRecord
  2
*D19
340
0
  0
BLOCK_RECORD
  5
218
330
1
100
AcDbSymbolTableRecord
100
AcDbBlockTableRecord
  2
*D20
340
0
  0
BLOCK_RECORD
  5
230
330
1
100
AcDbSymbolTableRecord
100
AcDbBlockTableRecord
  2
*D21
340
0
  0
BLOCK_RECORD
  5
247
330
1
100
AcDbSymbolTableRecord
100
AcDbBlockTableRecord
  2
*D22
340
0
  0
ENDTAB
  0
ENDSEC
  0
SECTION
  2
BLOCKS
  0
BLOCK
  5
20
330
1F
100
AcDbEntity
  8
0
100
AcDbBlockBegin
  2
*Model_Space
 70
     0
 71
     0
 10
0.0
 20
0.0
 30
0.0
  3
*Model_Space
  1

  0
ENDBLK
  5
21
330
1F
100
AcDbEntity
  8
0
100
AcDbBlockEnd
  0
BLOCK
  5
1C
330
1B
100
AcDbEntity
 67
     1
  8
0
100
AcDbBlockBegin
  2
*Paper_Space
 70
     0
 71
     0
 10
0.0
 20
0.0
 30
0.0
  3
*Paper_Space
  1

  0
ENDBLK
  5
1D
330
1B
100
AcDbEntity
 67
     1
  8
0
100
AcDbBlockEnd
  0
BLOCK
  5
24
330
23
100
AcDbEntity
  8
0
100
AcDbBlockBegin
  2
*Paper_Space0
 70
     0
 71
     0
 10
0.0
 20
0.0
 30
0.0
  3
*Paper_Space0
  1

  0
ENDBLK
  5
25
330
23
100
AcDbEntity
  8
0
100
AcDbBlockEnd
  0
BLOCK
  5
38
330
37
100
AcDbEntity
  8
0
100
AcDbBlockBegin
  2
注記
 70
     0
 71
     0
 10
0.0
 20
0.0
 30
0.0
  3
注記
  1

  0
MTEXT
  5
3B
330
37
100
AcDbEntity
  8
0
  6
Continuous
 62
     7
370
     0
100
AcDbMText
 10
0.2636785918
 20
9.0739778448
 30
0.0
 40
3.5
 41
0.0
 71
     1
 72
     1
  1
１．特記ナキ角部ハ、バリ　カエリノ無キコト。
  7
SLDTEXTSTYLE0
 73
     1
 44
1.0
  0
MTEXT
  5
3C
330
37
100
AcDbEntity
  8
0
  6
Continuous
 62
     7
370
     0
100
AcDbMText
 10
0.2636785918
 20
3.5759549983
 30
0.0
 40
3.5
 41
0.0
 71
     1
 72
     1
  1
２．特記ナキ隅部ハ、Ｒ０．４ＭＡＸトスル。
  7
SLDTEXTSTYLE0
 73
     1
 44
1.0
  0
ENDBLK
  5
39
330
37
100
AcDbEntity
  8
0
100
AcDbBlockEnd
  0
BLOCK
  5
3E
330
3D
100
AcDbEntity
  8
0
100
AcDbBlockBegin
  2
SW_CENTERMARK0
 70
     0
 71
     0
 10
0.0
 20
0.0
 30
0.0
  3
SW_CENTERMARK0
  1

  0
LINE
  5
40
330
3D
100
AcDbEntity
  8
SLD-0
  6
Continuous
 62
   179
100
AcDbLine
 10
95.557408313
 20
124.6591198044
 30
0.0
 11
95.557408313
 21
127.1591198044
 31
0.0
  0
LINE
  5
41
330
3D
100
AcDbEntity
  8
SLD-0
  6
Continuous
 62
   179
100
AcDbLine
 10
95.557408313
 20
124.6591198044
 30
0.0
 11
93.057408313
 21
124.6591198044
 31
0.0
  0
LINE
  5
42
330
3D
100
AcDbEntity
  8
SLD-0
  6
Continuous
 62
   179
100
AcDbLine
 10
95.557408313
 20
124.6591198044
 30
0.0
 11
95.557408313
 21
122.1591198044
 31
0.0
  0
LINE
  5
43
330
3D
100
AcDbEntity
  8
SLD-0
  6
Continuous
 62
   179
100
AcDbLine
 10
95.557408313
 20
124.6591198044
 30
0.0
 11
98.057408313
 21
124.6591198044
 31
0.0
  0
LINE
  5
44
330
3D
100
AcDbEntity
  8
SLD-0
  6
Continuous
 62
   179
100
AcDbLine
 10
95.557408313
 20
129.6591198044
 30
0.0
 11
95.557408313
 21
130.4091198044
 31
0.0
  0
LINE
  5
45
330
3D
100
AcDbEntity
  8
SLD-0
  6
Continuous
 62
   179
100
AcDbLine
 10
90.557408313
 20
124.6591198044
 30
0.0
 11
89.807408313
 21
124.6591198044
 31
0.0
  0
LINE
  5
46
330
3D
100
AcDbEntity
  8
SLD-0
  6
Continuous
 62
   179
100
AcDbLine
 10
95.557408313
 20
119.6591198044
 30
0.0
 11
95.557408313
 21
118.9091198044
 31
0.0
  0
LINE
  5
47
330
3D
100
AcDbEntity
  8
SLD-0
  6
Continuous
 62
   179
100
AcDbLine
 10
100.557408313
 20
124.6591198044
 30
0.0
 11
101.307408313
 21
124.6591198044
 31
0.0
  0
ENDBLK
  5
3F
330
3D
100
AcDbEntity
  8
0
100
AcDbBlockEnd
  0
BLOCK
  5
49
330
48
100
AcDbEntity
  8
0
100
AcDbBlockBegin
  2
SW_CENTERMARK1
 70
     0
 71
     0
 10
0.0
 20
0.0
 30
0.0
  3
SW_CENTERMARK1
  1

  0
LINE
  5
4B
330
48
100
AcDbEntity
  8
SLD-0
  6
Continuous
 62
   179
100
AcDbLine
 10
65.557408313
 20
124.6591198044
 30
0.0
 11
65.557408313
 21
127.1591198044
 31
0.0
  0
LINE
  5
4C
330
48
100
AcDbEntity
  8
SLD-0
  6
Continuous
 62
   179
100
AcDbLine
 10
65.557408313
 20
124.6591198044
 30
0.0
 11
63.057408313
 21
124.6591198044
 31
0.0
  0
LINE
  5
4D
330
48
100
AcDbEntity
  8
SLD-0
  6
Continuous
 62
   179
100
AcDbLine
 10
65.557408313
 20
124.6591198044
 30
0.0
 11
65.557408313
 21
122.1591198044
 31
0.0
  0
LINE
  5
4E
330
48
100
AcDbEntity
  8
SLD-0
  6
Continuous
 62
   179
100
AcDbLine
 10
65.557408313
 20
124.6591198044
 30
0.0
 11
68.057408313
 21
124.6591198044
 31
0.0
  0
LINE
  5
4F
330
48
100
AcDbEntity
  8
SLD-0
  6
Continuous
 62
   179
100
AcDbLine
 10
65.557408313
 20
129.6591198044
 30
0.0
 11
65.557408313
 21
130.4091198044
 31
0.0
  0
LINE
  5
50
330
48
100
AcDbEntity
  8
SLD-0
  6
Continuous
 62
   179
100
AcDbLine
 10
60.557408313
 20
124.6591198044
 30
0.0
 11
59.807408313
 21
124.6591198044
 31
0.0
  0
LINE
  5
51
330
48
100
AcDbEntity
  8
SLD-0
  6
Continuous
 62
   179
100
AcDbLine
 10
65.557408313
 20
119.6591198044
 30
0.0
 11
65.557408313
 21
118.9091198044
 31
0.0
  0
LINE
  5
52
330
48
100
AcDbEntity
  8
SLD-0
  6
Continuous
 62
   179
100
AcDbLine
 10
70.557408313
 20
124.6591198044
 30
0.0
 11
71.307408313
 21
124.6591198044
 31
0.0
  0
ENDBLK
  5
4A
330
48
100
AcDbEntity
  8
0
100
AcDbBlockEnd
  0
BLOCK
  5
54
330
53
100
AcDbEntity
  8
0
100
AcDbBlockBegin
  2
SW_CENTERMARK2
 70
     0
 71
     0
 10
0.0
 20
0.0
 30
0.0
  3
SW_CENTERMARK2
  1

  0
LINE
  5
56
330
53
100
AcDbEntity
  8
SLD-0
  6
Continuous
 62
   179
100
AcDbLine
 10
68.057408313
 20
191.085800998
 30
0.0
 11
68.057408313
 21
193.585800998
 31
0.0
  0
LINE
  5
57
330
53
100
AcDbEntity
  8
SLD-0
  6
Continuous
 62
   179
100
AcDbLine
 10
68.057408313
 20
191.085800998
 30
0.0
 11
65.557408313
 21
191.085800998
 31
0.0
  0
LINE
  5
58
330
53
100
AcDbEntity
  8
SLD-0
  6
Continuous
 62
   179
100
AcDbLine
 10
68.057408313
 20
191.085800998
 30
0.0
 11
68.057408313
 21
188.585800998
 31
0.0
  0
LINE
  5
59
330
53
100
AcDbEntity
  8
SLD-0
  6
Continuous
 62
   179
100
AcDbLine
 10
68.057408313
 20
191.085800998
 30
0.0
 11
70.557408313
 21
191.085800998
 31
0.0
  0
LINE
  5
5A
330
53
100
AcDbEntity
  8
SLD-0
  6
Continuous
 62
   179
100
AcDbLine
 10
68.057408313
 20
196.085800998
 30
0.0
 11
68.057408313
 21
196.835800998
 31
0.0
  0
LINE
  5
5B
330
53
100
AcDbEntity
  8
SLD-0
  6
Continuous
 62
   179
100
AcDbLine
 10
63.057408313
 20
191.085800998
 30
0.0
 11
62.307408313
 21
191.085800998
 31
0.0
  0
LINE
  5
5C
330
53
100
AcDbEntity
  8
SLD-0
  6
Continuous
 62
   179
100
AcDbLine
 10
68.057408313
 20
186.085800998
 30
0.0
 11
68.057408313
 21
185.335800998
 31
0.0
  0
LINE
  5
5D
330
53
100
AcDbEntity
  8
SLD-0
  6
Continuous
 62
   179
100
AcDbLine
 10
73.057408313
 20
191.085800998
 30
0.0
 11
73.807408313
 21
191.085800998
 31
0.0
  0
ENDBLK
  5
55
330
53
100
AcDbEntity
  8
0
100
AcDbBlockEnd
  0
BLOCK
  5
5F
330
5E
100
AcDbEntity
  8
0
100
AcDbBlockBegin
  2
SW_CENTERMARK3
 70
     0
 71
     0
 10
0.0
 20
0.0
 30
0.0
  3
SW_CENTERMARK3
  1

  0
LINE
  5
61
330
5E
100
AcDbEntity
  8
SLD-0
  6
Continuous
 62
   179
100
AcDbLine
 10
68.057408313
 20
216.085800998
 30
0.0
 11
68.057408313
 21
218.585800998
 31
0.0
  0
LINE
  5
62
330
5E
100
AcDbEntity
  8
SLD-0
  6
Continuous
 62
   179
100
AcDbLine
 10
68.057408313
 20
216.085800998
 30
0.0
 11
65.557408313
 21
216.085800998
 31
0.0
  0
LINE
  5
63
330
5E
100
AcDbEntity
  8
SLD-0
  6
Continuous
 62
   179
100
AcDbLine
 10
68.057408313
 20
216.085800998
 30
0.0
 11
68.057408313
 21
213.585800998
 31
0.0
  0
LINE
  5
64
330
5E
100
AcDbEntity
  8
SLD-0
  6
Continuous
 62
   179
100
AcDbLine
 10
68.057408313
 20
216.085800998
 30
0.0
 11
70.557408313
 21
216.085800998
 31
0.0
  0
LINE
  5
65
330
5E
100
AcDbEntity
  8
SLD-0
  6
Continuous
 62
   179
100
AcDbLine
 10
68.057408313
 20
221.085800998
 30
0.0
 11
68.057408313
 21
221.835800998
 31
0.0
  0
LINE
  5
66
330
5E
100
AcDbEntity
  8
SLD-0
  6
Continuous
 62
   179
100
AcDbLine
 10
63.057408313
 20
216.085800998
 30
0.0
 11
62.307408313
 21
216.085800998
 31
0.0
  0
LINE
  5
67
330
5E
100
AcDbEntity
  8
SLD-0
  6
Continuous
 62
   179
100
AcDbLine
 10
68.057408313
 20
211.085800998
 30
0.0
 11
68.057408313
 21
210.335800998
 31
0.0
  0
LINE
  5
68
330
5E
100
AcDbEntity
  8
SLD-0
  6
Continuous
 62
   179
100
AcDbLine
 10
73.057408313
 20
216.085800998
 30
0.0
 11
73.807408313
 21
216.085800998
 31
0.0
  0
ENDBLK
  5
60
330
5E
100
AcDbEntity
  8
0
100
AcDbBlockEnd
  0
BLOCK
  5
6A
330
69
100
AcDbEntity
  8
0
100
AcDbBlockBegin
  2
SW_CENTERMARK4
 70
     0
 71
     0
 10
0.0
 20
0.0
 30
0.0
  3
SW_CENTERMARK4
  1

  0
LINE
  5
6C
330
69
100
AcDbEntity
  8
SLD-0
  6
Continuous
 62
   179
100
AcDbLine
 10
93.057408313
 20
216.085800998
 30
0.0
 11
93.057408313
 21
218.585800998
 31
0.0
  0
LINE
  5
6D
330
69
100
AcDbEntity
  8
SLD-0
  6
Continuous
 62
   179
100
AcDbLine
 10
93.057408313
 20
216.085800998
 30
0.0
 11
90.557408313
 21
216.085800998
 31
0.0
  0
LINE
  5
6E
330
69
100
AcDbEntity
  8
SLD-0
  6
Continuous
 62
   179
100
AcDbLine
 10
93.057408313
 20
216.085800998
 30
0.0
 11
93.057408313
 21
213.585800998
 31
0.0
  0
LINE
  5
6F
330
69
100
AcDbEntity
  8
SLD-0
  6
Continuous
 62
   179
100
AcDbLine
 10
93.057408313
 20
216.085800998
 30
0.0
 11
95.557408313
 21
216.085800998
 31
0.0
  0
LINE
  5
70
330
69
100
AcDbEntity
  8
SLD-0
  6
Continuous
 62
   179
100
AcDbLine
 10
93.057408313
 20
221.085800998
 30
0.0
 11
93.057408313
 21
221.835800998
 31
0.0
  0
LINE
  5
71
330
69
100
AcDbEntity
  8
SLD-0
  6
Continuous
 62
   179
100
AcDbLine
 10
88.057408313
 20
216.085800998
 30
0.0
 11
87.307408313
 21
216.085800998
 31
0.0
  0
LINE
  5
72
330
69
100
AcDbEntity
  8
SLD-0
  6
Continuous
 62
   179
100
AcDbLine
 10
93.057408313
 20
211.085800998
 30
0.0
 11
93.057408313
 21
210.335800998
 31
0.0
  0
LINE
  5
73
330
69
100
AcDbEntity
  8
SLD-0
  6
Continuous
 62
   179
100
AcDbLine
 10
98.057408313
 20
216.085800998
 30
0.0
 11
98.807408313
 21
216.085800998
 31
0.0
  0
ENDBLK
  5
6B
330
69
100
AcDbEntity
  8
0
100
AcDbBlockEnd
  0
BLOCK
  5
75
330
74
100
AcDbEntity
  8
0
100
AcDbBlockBegin
  2
SW_CENTERMARK5
 70
     0
 71
     0
 10
0.0
 20
0.0
 30
0.0
  3
SW_CENTERMARK5
  1

  0
LINE
  5
77
330
74
100
AcDbEntity
  8
SLD-0
  6
Continuous
 62
   179
100
AcDbLine
 10
93.057408313
 20
191.085800998
 30
0.0
 11
93.057408313
 21
193.585800998
 31
0.0
  0
LINE
  5
78
330
74
100
AcDbEntity
  8
SLD-0
  6
Continuous
 62
   179
100
AcDbLine
 10
93.057408313
 20
191.085800998
 30
0.0
 11
90.557408313
 21
191.085800998
 31
0.0
  0
LINE
  5
79
330
74
100
AcDbEntity
  8
SLD-0
  6
Continuous
 62
   179
100
AcDbLine
 10
93.057408313
 20
191.085800998
 30
0.0
 11
93.057408313
 21
188.585800998
 31
0.0
  0
LINE
  5
7A
330
74
100
AcDbEntity
  8
SLD-0
  6
Continuous
 62
   179
100
AcDbLine
 10
93.057408313
 20
191.085800998
 30
0.0
 11
95.557408313
 21
191.085800998
 31
0.0
  0
LINE
  5
7B
330
74
100
AcDbEntity
  8
SLD-0
  6
Continuous
 62
   179
100
AcDbLine
 10
93.057408313
 20
196.085800998
 30
0.0
 11
93.057408313
 21
196.835800998
 31
0.0
  0
LINE
  5
7C
330
74
100
AcDbEntity
  8
SLD-0
  6
Continuous
 62
   179
100
AcDbLine
 10
88.057408313
 20
191.085800998
 30
0.0
 11
87.307408313
 21
191.085800998
 31
0.0
  0
LINE
  5
7D
330
74
100
AcDbEntity
  8
SLD-0
  6
Continuous
 62
   179
100
AcDbLine
 10
93.057408313
 20
186.085800998
 30
0.0
 11
93.057408313
 21
185.335800998
 31
0.0
  0
LINE
  5
7E
330
74
100
AcDbEntity
  8
SLD-0
  6
Continuous
 62
   179
100
AcDbLine
 10
98.057408313
 20
191.085800998
 30
0.0
 11
98.807408313
 21
191.085800998
 31
0.0
  0
ENDBLK
  5
76
330
74
100
AcDbEntity
  8
0
100
AcDbBlockEnd
  0
BLOCK
  5
110
330
105
100
AcDbEntity
  8
0
100
AcDbBlockBegin
  2
*D8
 70
     1
 71
     0
 10
0.0
 20
0.0
 30
0.0
  3
*D8
  1

  0
LINE
  5
117
330
105
100
AcDbEntity
  8
SLD-0
 62
     7
100
AcDbLine
 10
58.807408313
 20
124.6591198044
 30
0.0
 11
40.2550586956
 21
124.6591198044
 31
0.0
  0
LINE
  5
118
330
105
100
AcDbEntity
  8
SLD-0
 62
     7
100
AcDbLine
 10
54.557408313
 20
107.1591198044
 30
0.0
 11
40.2550586956
 21
107.1591198044
 31
0.0
  0
LINE
  5
119
330
105
100
AcDbEntity
  8
SLD-0
 62
     7
100
AcDbLine
 10
41.2550586956
 20
124.6591198044
 30
0.0
 11
41.2550586956
 21
107.1591198044
 31
0.0
  0
LINE
  5
11A
330
105
100
AcDbEntity
  8
SLD-0
 62
     7
100
AcDbLine
 10
40.4512116956
 20
121.6591198044
 30
0.0
 11
41.2550586956
 21
124.6591198044
 31
0.0
  0
LINE
  5
11B
330
105
100
AcDbEntity
  8
SLD-0
 62
     7
100
AcDbLine
 10
41.2550586956
 20
124.6591198044
 30
0.0
 11
42.0589056956
 21
121.6591198044
 31
0.0
  0
LINE
  5
11C
330
105
100
AcDbEntity
  8
SLD-0
 62
     7
100
AcDbLine
 10
41.2550586956
 20
124.6591198044
 30
0.0
 11
41.2550586956
 21
121.6591198044
 31
0.0
  0
LINE
  5
11D
330
105
100
AcDbEntity
  8
SLD-0
 62
     7
100
AcDbLine
 10
42.0589056956
 20
110.1591198044
 30
0.0
 11
41.2550586956
 21
107.1591198044
 31
0.0
  0
LINE
  5
11E
330
105
100
AcDbEntity
  8
SLD-0
 62
     7
100
AcDbLine
 10
41.2550586956
 20
107.1591198044
 30
0.0
 11
40.4512116956
 21
110.1591198044
 31
0.0
  0
LINE
  5
11F
330
105
100
AcDbEntity
  8
SLD-0
 62
     7
100
AcDbLine
 10
41.2550586956
 20
107.1591198044
 30
0.0
 11
41.2550586956
 21
110.1591198044
 31
0.0
  0
MTEXT
  5
120
330
105
100
AcDbEntity
  8
SLD-0
 62
     7
100
AcDbMText
 10
36.7283653489
 20
111.8364222169
 30
0.4
 40
3.5
 41
0.0
 71
     1
 72
     1
  1
17.5
  7
SLDTEXTSTYLE0
 11
6.123031769111886E-17
 21
1.0
 31
0.0
 73
     1
 44
1.0
  0
ENDBLK
  5
111
330
105
100
AcDbEntity
  8
0
100
AcDbBlockEnd
  0
BLOCK
  5
115
330
114
100
AcDbEntity
  8
0
100
AcDbBlockBegin
  2
_None
 70
     0
 71
     0
 10
0.0
 20
0.0
 30
0.0
  3
_None
  1

  0
ENDBLK
  5
116
330
114
100
AcDbEntity
  8
0
100
AcDbBlockEnd
  0
BLOCK
  5
12F
330
122
100
AcDbEntity
  8
0
100
AcDbBlockBegin
  2
*D10
 70
     1
 71
     0
 10
0.0
 20
0.0
 30
0.0
  3
*D10
  1

  0
LINE
  5
132
330
122
100
AcDbEntity
  8
SLD-0
 62
     7
100
AcDbLine
 10
78.057408313
 20
123.7104365064
 30
0.0
 11
78.057408313
 21
91.0708570487
 31
0.0
  0
LINE
  5
133
330
122
100
AcDbEntity
  8
SLD-0
 62
     7
100
AcDbLine
 10
83.057408313
 20
123.7104365064
 30
0.0
 11
83.057408313
 21
91.0708570487
 31
0.0
  0
LINE
  5
134
330
122
100
AcDbEntity
  8
SLD-0
 62
     7
100
AcDbLine
 10
78.057408313
 20
92.0195403467
 30
0.0
 11
73.057408313
 21
92.0195403467
 31
0.0
  0
LINE
  5
135
330
122
100
AcDbEntity
  8
SLD-0
 62
     7
100
AcDbLine
 10
78.057408313
 20
92.0195403467
 30
0.0
 11
83.057408313
 21
92.0195403467
 31
0.0
  0
LINE
  5
136
330
122
100
AcDbEntity
  8
SLD-0
 62
     7
100
AcDbLine
 10
83.057408313
 20
92.0195403467
 30
0.0
 11
92.6746478925
 21
92.0195403467
 31
0.0
  0
LINE
  5
137
330
122
100
AcDbEntity
  8
SLD-0
 62
     7
100
AcDbLine
 10
75.057408313
 20
92.8233873467
 30
0.0
 11
78.057408313
 21
92.0195403467
 31
0.0
  0
LINE
  5
138
330
122
100
AcDbEntity
  8
SLD-0
 62
     7
100
AcDbLine
 10
78.057408313
 20
92.0195403467
 30
0.0
 11
75.057408313
 21
91.2156933467
 31
0.0
  0
LINE
  5
139
330
122
100
AcDbEntity
  8
SLD-0
 62
     7
100
AcDbLine
 10
78.057408313
 20
92.0195403467
 30
0.0
 11
75.057408313
 21
92.0195403467
 31
0.0
  0
LINE
  5
13A
330
122
100
AcDbEntity
  8
SLD-0
 62
     7
100
AcDbLine
 10
86.057408313
 20
91.2156933467
 30
0.0
 11
83.057408313
 21
92.0195403467
 31
0.0
  0
LINE
  5
13B
330
122
100
AcDbEntity
  8
SLD-0
 62
     7
100
AcDbLine
 10
83.057408313
 20
92.0195403467
 30
0.0
 11
86.057408313
 21
92.8233873467
 31
0.0
  0
LINE
  5
13C
330
122
100
AcDbEntity
  8
SLD-0
 62
     7
100
AcDbLine
 10
83.057408313
 20
92.0195403467
 30
0.0
 11
86.057408313
 21
92.0195403467
 31
0.0
  0
MTEXT
  5
13D
330
122
100
AcDbEntity
  8
SLD-0
 62
     7
100
AcDbMText
 10
89.0517126694
 20
96.5462336935
 30
0.4
 40
3.5
 41
0.0
 71
     1
 72
     1
  1
5
  7
SLDTEXTSTYLE0
 73
     1
 44
1.0
  0
ENDBLK
  5
130
330
122
100
AcDbEntity
  8
0
100
AcDbBlockEnd
  0
BLOCK
  5
149
330
13F
100
AcDbEntity
  8
0
100
AcDbBlockBegin
  2
*D11
 70
     1
 71
     0
 10
0.0
 20
0.0
 30
0.0
  3
*D11
  1

  0
LINE
  5
14B
330
13F
100
AcDbEntity
  8
SLD-0
 62
     7
100
AcDbLine
 10
55.557408313
 20
106.1591198044
 30
0.0
 11
55.557408313
 21
91.0195403467
 31
0.0
  0
LINE
  5
14C
330
13F
100
AcDbEntity
  8
SLD-0
 62
     7
100
AcDbLine
 10
78.057408313
 20
114.1591198044
 30
0.0
 11
78.057408313
 21
91.0195403467
 31
0.0
  0
LINE
  5
14D
330
13F
100
AcDbEntity
  8
SLD-0
 62
     7
100
AcDbLine
 10
55.557408313
 20
92.0195403467
 30
0.0
 11
78.057408313
 21
92.0195403467
 31
0.0
  0
LINE
  5
14E
330
13F
100
AcDbEntity
  8
SLD-0
 62
     7
100
AcDbLine
 10
58.557408313
 20
91.2156933467
 30
0.0
 11
55.557408313
 21
92.0195403467
 31
0.0
  0
LINE
  5
14F
330
13F
100
AcDbEntity
  8
SLD-0
 62
     7
100
AcDbLine
 10
55.557408313
 20
92.0195403467
 30
0.0
 11
58.557408313
 21
92.8233873467
 31
0.0
  0
LINE
  5
150
330
13F
100
AcDbEntity
  8
SLD-0
 62
     7
100
AcDbLine
 10
55.557408313
 20
92.0195403467
 30
0.0
 11
58.557408313
 21
92.0195403467
 31
0.0
  0
LINE
  5
151
330
13F
100
AcDbEntity
  8
SLD-0
 62
     7
100
AcDbLine
 10
75.057408313
 20
92.8233873467
 30
0.0
 11
78.057408313
 21
92.0195403467
 31
0.0
  0
LINE
  5
152
330
13F
100
AcDbEntity
  8
SLD-0
 62
     7
100
AcDbLine
 10
78.057408313
 20
92.0195403467
 30
0.0
 11
75.057408313
 21
91.2156933467
 31
0.0
  0
LINE
  5
153
330
13F
100
AcDbEntity
  8
SLD-0
 62
     7
100
AcDbLine
 10
78.057408313
 20
92.0195403467
 30
0.0
 11
75.057408313
 21
92.0195403467
 31
0.0
  0
MTEXT
  5
154
330
13F
100
AcDbEntity
  8
SLD-0
 62
     7
100
AcDbMText
 10
62.7347107255
 20
96.5462336935
 30
0.4
 40
3.5
 41
0.0
 71
     1
 72
     1
  1
22.5
  7
SLDTEXTSTYLE0
 73
     1
 44
1.0
  0
ENDBLK
  5
14A
330
13F
100
AcDbEntity
  8
0
100
AcDbBlockEnd
  0
BLOCK
  5
162
330
156
100
AcDbEntity
  8
0
100
AcDbBlockBegin
  2
*D12
 70
     1
 71
     0
 10
0.0
 20
0.0
 30
0.0
  3
*D12
  1

  0
LINE
  5
164
330
156
100
AcDbEntity
  8
SLD-0
 62
     7
100
AcDbLine
 10
101.557408313
 20
107.1591198044
 30
0.0
 11
111.7837965939
 21
107.1591198044
 31
0.0
  0
LINE
  5
165
330
156
100
AcDbEntity
  8
SLD-0
 62
     7
100
AcDbLine
 10
106.557408313
 20
112.1591198044
 30
0.0
 11
111.7837965939
 21
112.1591198044
 31
0.0
  0
LINE
  5
166
330
156
100
AcDbEntity
  8
SLD-0
 62
     7
100
AcDbLine
 10
110.7837965939
 20
107.1591198044
 30
0.0
 11
110.7837965939
 21
96.0361422913
 31
0.0
  0
LINE
  5
167
330
156
100
AcDbEntity
  8
SLD-0
 62
     7
100
AcDbLine
 10
110.7837965939
 20
107.1591198044
 30
0.0
 11
110.7837965939
 21
112.1591198044
 31
0.0
  0
LINE
  5
168
330
156
100
AcDbEntity
  8
SLD-0
 62
     7
100
AcDbLine
 10
110.7837965939
 20
112.1591198044
 30
0.0
 11
110.7837965939
 21
117.1591198044
 31
0.0
  0
LINE
  5
169
330
156
100
AcDbEntity
  8
SLD-0
 62
     7
100
AcDbLine
 10
109.9799495939
 20
104.1591198044
 30
0.0
 11
110.7837965939
 21
107.1591198044
 31
0.0
  0
LINE
  5
16A
330
156
100
AcDbEntity
  8
SLD-0
 62
     7
100
AcDbLine
 10
110.7837965939
 20
107.1591198044
 30
0.0
 11
111.5876435939
 21
104.1591198044
 31
0.0
  0
LINE
  5
16B
330
156
100
AcDbEntity
  8
SLD-0
 62
     7
100
AcDbLine
 10
110.7837965939
 20
107.1591198044
 30
0.0
 11
110.7837965939
 21
104.1591198044
 31
0.0
  0
LINE
  5
16C
330
156
100
AcDbEntity
  8
SLD-0
 62
     7
100
AcDbLine
 10
111.5876435939
 20
115.1591198044
 30
0.0
 11
110.7837965939
 21
112.1591198044
 31
0.0
  0
LINE
  5
16D
330
156
100
AcDbEntity
  8
SLD-0
 62
     7
100
AcDbLine
 10
110.7837965939
 20
112.1591198044
 30
0.0
 11
109.9799495939
 21
115.1591198044
 31
0.0
  0
LINE
  5
16E
330
156
100
AcDbEntity
  8
SLD-0
 62
     7
100
AcDbLine
 10
110.7837965939
 20
112.1591198044
 30
0.0
 11
110.7837965939
 21
115.1591198044
 31
0.0
  0
MTEXT
  5
16F
330
156
100
AcDbEntity
  8
SLD-0
 62
     7
100
AcDbMText
 10
106.2571032471
 20
97.6236422913
 30
0.4
 40
3.5
 41
0.0
 71
     1
 72
     1
  1
5
  7
SLDTEXTSTYLE0
 11
6.123031769111886E-17
 21
1.0
 31
0.0
 73
     1
 44
1.0
  0
ENDBLK
  5
163
330
156
100
AcDbEntity
  8
0
100
AcDbBlockEnd
  0
BLOCK
  5
17B
330
171
100
AcDbEntity
  8
0
100
AcDbBlockBegin
  2
*D13
 70
     1
 71
     0
 10
0.0
 20
0.0
 30
0.0
  3
*D13
  1

  0
LINE
  5
17D
330
171
100
AcDbEntity
  8
SLD-0
 62
     7
100
AcDbLine
 10
55.557408313
 20
133.1591198044
 30
0.0
 11
55.557408313
 21
146.9255436911
 31
0.0
  0
LINE
  5
17E
330
171
100
AcDbEntity
  8
SLD-0
 62
     7
100
AcDbLine
 10
65.557408313
 20
131.4091198044
 30
0.0
 11
65.557408313
 21
146.9255436911
 31
0.0
  0
LINE
  5
17F
330
171
100
AcDbEntity
  8
SLD-0
 62
     7
100
AcDbLine
 10
55.557408313
 20
145.9255436911
 30
0.0
 11
50.557408313
 21
145.9255436911
 31
0.0
  0
LINE
  5
180
330
171
100
AcDbEntity
  8
SLD-0
 62
     7
100
AcDbLine
 10
55.557408313
 20
145.9255436911
 30
0.0
 11
65.557408313
 21
145.9255436911
 31
0.0
  0
LINE
  5
181
330
171
100
AcDbEntity
  8
SLD-0
 62
     7
100
AcDbLine
 10
65.557408313
 20
145.9255436911
 30
0.0
 11
70.557408313
 21
145.9255436911
 31
0.0
  0
LINE
  5
182
330
171
100
AcDbEntity
  8
SLD-0
 62
     7
100
AcDbLine
 10
52.557408313
 20
146.7293906911
 30
0.0
 11
55.557408313
 21
145.9255436911
 31
0.0
  0
LINE
  5
183
330
171
100
AcDbEntity
  8
SLD-0
 62
     7
100
AcDbLine
 10
55.557408313
 20
145.9255436911
 30
0.0
 11
52.557408313
 21
145.1216966911
 31
0.0
  0
LINE
  5
184
330
171
100
AcDbEntity
  8
SLD-0
 62
     7
100
AcDbLine
 10
55.557408313
 20
145.9255436911
 30
0.0
 11
52.557408313
 21
145.9255436911
 31
0.0
  0
LINE
  5
185
330
171
100
AcDbEntity
  8
SLD-0
 62
     7
100
AcDbLine
 10
68.557408313
 20
145.1216966911
 30
0.0
 11
65.557408313
 21
145.9255436911
 31
0.0
  0
LINE
  5
186
330
171
100
AcDbEntity
  8
SLD-0
 62
     7
100
AcDbLine
 10
65.557408313
 20
145.9255436911
 30
0.0
 11
68.557408313
 21
146.7293906911
 31
0.0
  0
LINE
  5
187
330
171
100
AcDbEntity
  8
SLD-0
 62
     7
100
AcDbLine
 10
65.557408313
 20
145.9255436911
 30
0.0
 11
68.557408313
 21
145.9255436911
 31
0.0
  0
MTEXT
  5
188
330
171
100
AcDbEntity
  8
SLD-0
 62
     7
100
AcDbMText
 10
58.5219730898
 20
150.4522370379
 30
0.4
 40
3.5
 41
0.0
 71
     1
 72
     1
  1
10
  7
SLDTEXTSTYLE0
 73
     1
 44
1.0
  0
ENDBLK
  5
17C
330
171
100
AcDbEntity
  8
0
100
AcDbBlockEnd
  0
BLOCK
  5
194
330
18A
100
AcDbEntity
  8
0
100
AcDbBlockBegin
  2
*D14
 70
     1
 71
     0
 10
0.0
 20
0.0
 30
0.0
  3
*D14
  1

  0
LINE
  5
196
330
18A
100
AcDbEntity
  8
SLD-0
 62
     7
100
AcDbLine
 10
65.557408313
 20
131.4091198044
 30
0.0
 11
65.557408313
 21
146.9255436911
 31
0.0
  0
LINE
  5
197
330
18A
100
AcDbEntity
  8
SLD-0
 62
     7
100
AcDbLine
 10
95.557408313
 20
131.4091198044
 30
0.0
 11
95.557408313
 21
146.9255436911
 31
0.0
  0
LINE
  5
198
330
18A
100
AcDbEntity
  8
SLD-0
 62
     7
100
AcDbLine
 10
65.557408313
 20
145.9255436911
 30
0.0
 11
95.557408313
 21
145.9255436911
 31
0.0
  0
LINE
  5
199
330
18A
100
AcDbEntity
  8
SLD-0
 62
     7
100
AcDbLine
 10
68.557408313
 20
145.1216966911
 30
0.0
 11
65.557408313
 21
145.9255436911
 31
0.0
  0
LINE
  5
19A
330
18A
100
AcDbEntity
  8
SLD-0
 62
     7
100
AcDbLine
 10
65.557408313
 20
145.9255436911
 30
0.0
 11
68.557408313
 21
146.7293906911
 31
0.0
  0
LINE
  5
19B
330
18A
100
AcDbEntity
  8
SLD-0
 62
     7
100
AcDbLine
 10
65.557408313
 20
145.9255436911
 30
0.0
 11
68.557408313
 21
145.9255436911
 31
0.0
  0
LINE
  5
19C
330
18A
100
AcDbEntity
  8
SLD-0
 62
     7
100
AcDbLine
 10
92.557408313
 20
146.7293906911
 30
0.0
 11
95.557408313
 21
145.9255436911
 31
0.0
  0
LINE
  5
19D
330
18A
100
AcDbEntity
  8
SLD-0
 62
     7
100
AcDbLine
 10
95.557408313
 20
145.9255436911
 30
0.0
 11
92.557408313
 21
145.1216966911
 31
0.0
  0
LINE
  5
19E
330
18A
100
AcDbEntity
  8
SLD-0
 62
     7
100
AcDbLine
 10
95.557408313
 20
145.9255436911
 30
0.0
 11
92.557408313
 21
145.9255436911
 31
0.0
  0
MTEXT
  5
19F
330
18A
100
AcDbEntity
  8
SLD-0
 62
     7
100
AcDbMText
 10
78.5219730898
 20
150.4522370379
 30
0.4
 40
3.5
 41
0.0
 71
     1
 72
     1
  1
30
  7
SLDTEXTSTYLE0
 73
     1
 44
1.0
  0
ENDBLK
  5
195
330
18A
100
AcDbEntity
  8
0
100
AcDbBlockEnd
  0
BLOCK
  5
1AB
330
1A1
100
AcDbEntity
  8
0
100
AcDbBlockBegin
  2
*D15
 70
     1
 71
     0
 10
0.0
 20
0.0
 30
0.0
  3
*D15
  1

  0
LINE
  5
1AD
330
1A1
100
AcDbEntity
  8
SLD-0
 62
     7
100
AcDbLine
 10
55.557408313
 20
237.585800998
 30
0.0
 11
55.557408313
 21
161.945483871
 31
0.0
  0
LINE
  5
1AE
330
1A1
100
AcDbEntity
  8
SLD-0
 62
     7
100
AcDbLine
 10
105.557408313
 20
237.585800998
 30
0.0
 11
105.557408313
 21
161.945483871
 31
0.0
  0
LINE
  5
1AF
330
1A1
100
AcDbEntity
  8
SLD-0
 62
     7
100
AcDbLine
 10
55.557408313
 20
162.945483871
 30
0.0
 11
105.557408313
 21
162.945483871
 31
0.0
  0
LINE
  5
1B0
330
1A1
100
AcDbEntity
  8
SLD-0
 62
     7
100
AcDbLine
 10
58.557408313
 20
162.141636871
 30
0.0
 11
55.557408313
 21
162.945483871
 31
0.0
  0
LINE
  5
1B1
330
1A1
100
AcDbEntity
  8
SLD-0
 62
     7
100
AcDbLine
 10
55.557408313
 20
162.945483871
 30
0.0
 11
58.557408313
 21
163.749330871
 31
0.0
  0
LINE
  5
1B2
330
1A1
100
AcDbEntity
  8
SLD-0
 62
     7
100
AcDbLine
 10
55.557408313
 20
162.945483871
 30
0.0
 11
58.557408313
 21
162.945483871
 31
0.0
  0
LINE
  5
1B3
330
1A1
100
AcDbEntity
  8
SLD-0
 62
     7
100
AcDbLine
 10
102.557408313
 20
163.749330871
 30
0.0
 11
105.557408313
 21
162.945483871
 31
0.0
  0
LINE
  5
1B4
330
1A1
100
AcDbEntity
  8
SLD-0
 62
     7
100
AcDbLine
 10
105.557408313
 20
162.945483871
 30
0.0
 11
102.557408313
 21
162.141636871
 31
0.0
  0
LINE
  5
1B5
330
1A1
100
AcDbEntity
  8
SLD-0
 62
     7
100
AcDbLine
 10
105.557408313
 20
162.945483871
 30
0.0
 11
102.557408313
 21
162.945483871
 31
0.0
  0
MTEXT
  5
1B6
330
1A1
100
AcDbEntity
  8
SLD-0
 62
     7
100
AcDbMText
 10
78.5219730898
 20
167.4721772177
 30
0.4
 40
3.5
 41
0.0
 71
     1
 72
     1
  1
50
  7
SLDTEXTSTYLE0
 73
     1
 44
1.0
  0
ENDBLK
  5
1AC
330
1A1
100
AcDbEntity
  8
0
100
AcDbBlockEnd
  0
BLOCK
  5
1C2
330
1B8
100
AcDbEntity
  8
0
100
AcDbBlockBegin
  2
*D16
 70
     1
 71
     0
 10
0.0
 20
0.0
 30
0.0
  3
*D16
  1

  0
LINE
  5
1C4
330
1B8
100
AcDbEntity
  8
SLD-0
 62
     7
100
AcDbLine
 10
68.057408313
 20
184.335800998
 30
0.0
 11
68.057408313
 21
171.3558064516
 31
0.0
  0
LINE
  5
1C5
330
1B8
100
AcDbEntity
  8
SLD-0
 62
     7
100
AcDbLine
 10
93.057408313
 20
184.335800998
 30
0.0
 11
93.057408313
 21
171.3558064516
 31
0.0
  0
LINE
  5
1C6
330
1B8
100
AcDbEntity
  8
SLD-0
 62
     7
100
AcDbLine
 10
68.057408313
 20
172.3558064516
 30
0.0
 11
93.057408313
 21
172.3558064516
 31
0.0
  0
LINE
  5
1C7
330
1B8
100
AcDbEntity
  8
SLD-0
 62
     7
100
AcDbLine
 10
71.057408313
 20
171.5519594516
 30
0.0
 11
68.057408313
 21
172.3558064516
 31
0.0
  0
LINE
  5
1C8
330
1B8
100
AcDbEntity
  8
SLD-0
 62
     7
100
AcDbLine
 10
68.057408313
 20
172.3558064516
 30
0.0
 11
71.057408313
 21
173.1596534516
 31
0.0
  0
LINE
  5
1C9
330
1B8
100
AcDbEntity
  8
SLD-0
 62
     7
100
AcDbLine
 10
68.057408313
 20
172.3558064516
 30
0.0
 11
71.057408313
 21
172.3558064516
 31
0.0
  0
LINE
  5
1CA
330
1B8
100
AcDbEntity
  8
SLD-0
 62
     7
100
AcDbLine
 10
90.057408313
 20
173.1596534516
 30
0.0
 11
93.057408313
 21
172.3558064516
 31
0.0
  0
LINE
  5
1CB
330
1B8
100
AcDbEntity
  8
SLD-0
 62
     7
100
AcDbLine
 10
93.057408313
 20
172.3558064516
 30
0.0
 11
90.057408313
 21
171.5519594516
 31
0.0
  0
LINE
  5
1CC
330
1B8
100
AcDbEntity
  8
SLD-0
 62
     7
100
AcDbLine
 10
93.057408313
 20
172.3558064516
 30
0.0
 11
90.057408313
 21
172.3558064516
 31
0.0
  0
MTEXT
  5
1CD
330
1B8
100
AcDbEntity
  8
SLD-0
 62
     7
100
AcDbMText
 10
78.5219730898
 20
176.8824997984
 30
0.4
 40
3.5
 41
0.0
 71
     1
 72
     1
  1
25
  7
SLDTEXTSTYLE0
 73
     1
 44
1.0
  0
ENDBLK
  5
1C3
330
1B8
100
AcDbEntity
  8
0
100
AcDbBlockEnd
  0
BLOCK
  5
1DA
330
1CF
100
AcDbEntity
  8
0
100
AcDbBlockBegin
  2
*D17
 70
     1
 71
     0
 10
0.0
 20
0.0
 30
0.0
  3
*D17
  1

  0
LINE
  5
1DC
330
1CF
100
AcDbEntity
  8
SLD-0
 62
     7
100
AcDbLine
 10
101.557408313
 20
238.585800998
 30
0.0
 11
116.9247188264
 21
238.585800998
 31
0.0
  0
LINE
  5
1DD
330
1CF
100
AcDbEntity
  8
SLD-0
 62
     7
100
AcDbLine
 10
99.807408313
 20
216.085800998
 30
0.0
 11
116.9247188264
 21
216.085800998
 31
0.0
  0
LINE
  5
1DE
330
1CF
100
AcDbEntity
  8
SLD-0
 62
     7
100
AcDbLine
 10
115.9247188264
 20
238.585800998
 30
0.0
 11
115.9247188264
 21
216.085800998
 31
0.0
  0
LINE
  5
1DF
330
1CF
100
AcDbEntity
  8
SLD-0
 62
     7
100
AcDbLine
 10
115.1208718264
 20
235.585800998
 30
0.0
 11
115.9247188264
 21
238.585800998
 31
0.0
  0
LINE
  5
1E0
330
1CF
100
AcDbEntity
  8
SLD-0
 62
     7
100
AcDbLine
 10
115.9247188264
 20
238.585800998
 30
0.0
 11
116.7285658264
 21
235.585800998
 31
0.0
  0
LINE
  5
1E1
330
1CF
100
AcDbEntity
  8
SLD-0
 62
     7
100
AcDbLine
 10
115.9247188264
 20
238.585800998
 30
0.0
 11
115.9247188264
 21
235.585800998
 31
0.0
  0
LINE
  5
1E2
330
1CF
100
AcDbEntity
  8
SLD-0
 62
     7
100
AcDbLine
 10
116.7285658264
 20
219.085800998
 30
0.0
 11
115.9247188264
 21
216.085800998
 31
0.0
  0
LINE
  5
1E3
330
1CF
100
AcDbEntity
  8
SLD-0
 62
     7
100
AcDbLine
 10
115.9247188264
 20
216.085800998
 30
0.0
 11
115.1208718264
 21
219.085800998
 31
0.0
  0
LINE
  5
1E4
330
1CF
100
AcDbEntity
  8
SLD-0
 62
     7
100
AcDbLine
 10
115.9247188264
 20
216.085800998
 30
0.0
 11
115.9247188264
 21
219.085800998
 31
0.0
  0
MTEXT
  5
1E5
330
1CF
100
AcDbEntity
  8
SLD-0
 62
     7
100
AcDbMText
 10
111.3980254797
 20
223.2631034106
 30
0.4
 40
3.5
 41
0.0
 71
     1
 72
     1
  1
22.5
  7
SLDTEXTSTYLE0
 11
6.123031769111886E-17
 21
1.0
 31
0.0
 73
     1
 44
1.0
  0
ENDBLK
  5
1DB
330
1CF
100
AcDbEntity
  8
0
100
AcDbBlockEnd
  0
BLOCK
  5
1F2
330
1E7
100
AcDbEntity
  8
0
100
AcDbBlockBegin
  2
*D18
 70
     1
 71
     0
 10
0.0
 20
0.0
 30
0.0
  3
*D18
  1

  0
LINE
  5
1F4
330
1E7
100
AcDbEntity
  8
SLD-0
 62
     7
100
AcDbLine
 10
99.807408313
 20
191.085800998
 30
0.0
 11
116.9247188264
 21
191.085800998
 31
0.0
  0
LINE
  5
1F5
330
1E7
100
AcDbEntity
  8
SLD-0
 62
     7
100
AcDbLine
 10
99.807408313
 20
216.085800998
 30
0.0
 11
116.9247188264
 21
216.085800998
 31
0.0
  0
LINE
  5
1F6
330
1E7
100
AcDbEntity
  8
SLD-0
 62
     7
100
AcDbLine
 10
115.9247188264
 20
191.085800998
 30
0.0
 11
115.9247188264
 21
216.085800998
 31
0.0
  0
LINE
  5
1F7
330
1E7
100
AcDbEntity
  8
SLD-0
 62
     7
100
AcDbLine
 10
116.7285658264
 20
194.085800998
 30
0.0
 11
115.9247188264
 21
191.085800998
 31
0.0
  0
LINE
  5
1F8
330
1E7
100
AcDbEntity
  8
SLD-0
 62
     7
100
AcDbLine
 10
115.9247188264
 20
191.085800998
 30
0.0
 11
115.1208718264
 21
194.085800998
 31
0.0
  0
LINE
  5
1F9
330
1E7
100
AcDbEntity
  8
SLD-0
 62
     7
100
AcDbLine
 10
115.9247188264
 20
191.085800998
 30
0.0
 11
115.9247188264
 21
194.085800998
 31
0.0
  0
LINE
  5
1FA
330
1E7
100
AcDbEntity
  8
SLD-0
 62
     7
100
AcDbLine
 10
115.1208718264
 20
213.085800998
 30
0.0
 11
115.9247188264
 21
216.085800998
 31
0.0
  0
LINE
  5
1FB
330
1E7
100
AcDbEntity
  8
SLD-0
 62
     7
100
AcDbLine
 10
115.9247188264
 20
216.085800998
 30
0.0
 11
116.7285658264
 21
213.085800998
 31
0.0
  0
LINE
  5
1FC
330
1E7
100
AcDbEntity
  8
SLD-0
 62
     7
100
AcDbLine
 10
115.9247188264
 20
216.085800998
 30
0.0
 11
115.9247188264
 21
213.085800998
 31
0.0
  0
MTEXT
  5
1FD
330
1E7
100
AcDbEntity
  8
SLD-0
 62
     7
100
AcDbMText
 10
111.3980254797
 20
201.5503657749
 30
0.4
 40
3.5
 41
0.0
 71
     1
 72
     1
  1
25
  7
SLDTEXTSTYLE0
 11
6.123031769111886E-17
 21
1.0
 31
0.0
 73
     1
 44
1.0
  0
ENDBLK
  5
1F3
330
1E7
100
AcDbEntity
  8
0
100
AcDbBlockEnd
  0
BLOCK
  5
209
330
1FF
100
AcDbEntity
  8
0
100
AcDbBlockBegin
  2
*D19
 70
     1
 71
     0
 10
0.0
 20
0.0
 30
0.0
  3
*D19
  1

  0
LINE
  5
20B
330
1FF
100
AcDbEntity
  8
SLD-0
 62
     7
100
AcDbLine
 10
55.557408313
 20
187.585800998
 30
0.0
 11
55.557408313
 21
171.3558064516
 31
0.0
  0
LINE
  5
20C
330
1FF
100
AcDbEntity
  8
SLD-0
 62
     7
100
AcDbLine
 10
68.057408313
 20
184.335800998
 30
0.0
 11
68.057408313
 21
171.3558064516
 31
0.0
  0
LINE
  5
20D
330
1FF
100
AcDbEntity
  8
SLD-0
 62
     7
100
AcDbLine
 10
55.557408313
 20
172.3558064516
 30
0.0
 11
50.557408313
 21
172.3558064516
 31
0.0
  0
LINE
  5
20E
330
1FF
100
AcDbEntity
  8
SLD-0
 62
     7
100
AcDbLine
 10
55.557408313
 20
172.3558064516
 30
0.0
 11
68.057408313
 21
172.3558064516
 31
0.0
  0
LINE
  5
20F
330
1FF
100
AcDbEntity
  8
SLD-0
 62
     7
100
AcDbLine
 10
68.057408313
 20
172.3558064516
 30
0.0
 11
73.057408313
 21
172.3558064516
 31
0.0
  0
LINE
  5
210
330
1FF
100
AcDbEntity
  8
SLD-0
 62
     7
100
AcDbLine
 10
52.557408313
 20
173.1596534516
 30
0.0
 11
55.557408313
 21
172.3558064516
 31
0.0
  0
LINE
  5
211
330
1FF
100
AcDbEntity
  8
SLD-0
 62
     7
100
AcDbLine
 10
55.557408313
 20
172.3558064516
 30
0.0
 11
52.557408313
 21
171.5519594516
 31
0.0
  0
LINE
  5
212
330
1FF
100
AcDbEntity
  8
SLD-0
 62
     7
100
AcDbLine
 10
55.557408313
 20
172.3558064516
 30
0.0
 11
52.557408313
 21
172.3558064516
 31
0.0
  0
LINE
  5
213
330
1FF
100
AcDbEntity
  8
SLD-0
 62
     7
100
AcDbLine
 10
71.057408313
 20
171.5519594516
 30
0.0
 11
68.057408313
 21
172.3558064516
 31
0.0
  0
LINE
  5
214
330
1FF
100
AcDbEntity
  8
SLD-0
 62
     7
100
AcDbLine
 10
68.057408313
 20
172.3558064516
 30
0.0
 11
71.057408313
 21
173.1596534516
 31
0.0
  0
LINE
  5
215
330
1FF
100
AcDbEntity
  8
SLD-0
 62
     7
100
AcDbLine
 10
68.057408313
 20
172.3558064516
 30
0.0
 11
71.057408313
 21
172.3558064516
 31
0.0
  0
MTEXT
  5
216
330
1FF
100
AcDbEntity
  8
SLD-0
 62
     7
100
AcDbMText
 10
57.7347107255
 20
176.8824997984
 30
0.4
 40
3.5
 41
0.0
 71
     1
 72
     1
  1
12.5
  7
SLDTEXTSTYLE0
 73
     1
 44
1.0
  0
ENDBLK
  5
20A
330
1FF
100
AcDbEntity
  8
0
100
AcDbBlockEnd
  0
BLOCK
  5
223
330
218
100
AcDbEntity
  8
0
100
AcDbBlockBegin
  2
*D20
 70
     1
 71
     0
 10
0.0
 20
0.0
 30
0.0
  3
*D20
  1

  0
LINE
  5
225
330
218
100
AcDbEntity
  8
SLD-0
 62
     7
100
AcDbLine
 10
101.557408313
 20
183.585800998
 30
0.0
 11
127.9544207217
 21
183.585800998
 31
0.0
  0
LINE
  5
226
330
218
100
AcDbEntity
  8
SLD-0
 62
     7
100
AcDbLine
 10
101.557408313
 20
238.585800998
 30
0.0
 11
127.9544207217
 21
238.585800998
 31
0.0
  0
LINE
  5
227
330
218
100
AcDbEntity
  8
SLD-0
 62
     7
100
AcDbLine
 10
126.9544207217
 20
183.585800998
 30
0.0
 11
126.9544207217
 21
238.585800998
 31
0.0
  0
LINE
  5
228
330
218
100
AcDbEntity
  8
SLD-0
 62
     7
100
AcDbLine
 10
127.7582677217
 20
186.585800998
 30
0.0
 11
126.9544207217
 21
183.585800998
 31
0.0
  0
LINE
  5
229
330
218
100
AcDbEntity
  8
SLD-0
 62
     7
100
AcDbLine
 10
126.9544207217
 20
183.585800998
 30
0.0
 11
126.1505737217
 21
186.585800998
 31
0.0
  0
LINE
  5
22A
330
218
100
AcDbEntity
  8
SLD-0
 62
     7
100
AcDbLine
 10
126.9544207217
 20
183.585800998
 30
0.0
 11
126.9544207217
 21
186.585800998
 31
0.0
  0
LINE
  5
22B
330
218
100
AcDbEntity
  8
SLD-0
 62
     7
100
AcDbLine
 10
126.1505737217
 20
235.585800998
 30
0.0
 11
126.9544207217
 21
238.585800998
 31
0.0
  0
LINE
  5
22C
330
218
100
AcDbEntity
  8
SLD-0
 62
     7
100
AcDbLine
 10
126.9544207217
 20
238.585800998
 30
0.0
 11
127.7582677217
 21
235.585800998
 31
0.0
  0
LINE
  5
22D
330
218
100
AcDbEntity
  8
SLD-0
 62
     7
100
AcDbLine
 10
126.9544207217
 20
238.585800998
 30
0.0
 11
126.9544207217
 21
235.585800998
 31
0.0
  0
MTEXT
  5
22E
330
218
100
AcDbEntity
  8
SLD-0
 62
     7
100
AcDbMText
 10
122.4277273749
 20
209.0503657749
 30
0.4
 40
3.5
 41
0.0
 71
     1
 72
     1
  1
55
  7
SLDTEXTSTYLE0
 11
6.123031769111886E-17
 21
1.0
 31
0.0
 73
     1
 44
1.0
  0
ENDBLK
  5
224
330
218
100
AcDbEntity
  8
0
100
AcDbBlockEnd
  0
BLOCK
  5
23A
330
230
100
AcDbEntity
  8
0
100
AcDbBlockBegin
  2
*D21
 70
     1
 71
     0
 10
0.0
 20
0.0
 30
0.0
  3
*D21
  1

  0
LINE
  5
23C
330
230
100
AcDbEntity
  8
SLD-0
 62
     7
100
AcDbLine
 10
180.5567276653
 20
106.1591198044
 30
0.0
 11
180.5567276653
 21
90.5674205344
 31
0.0
  0
LINE
  5
23D
330
230
100
AcDbEntity
  8
SLD-0
 62
     7
100
AcDbLine
 10
125.5567276653
 20
106.1591198044
 30
0.0
 11
125.5567276653
 21
90.5674205344
 31
0.0
  0
LINE
  5
23E
330
230
100
AcDbEntity
  8
SLD-0
 62
     7
100
AcDbLine
 10
180.5567276653
 20
91.5674205344
 30
0.0
 11
125.5567276653
 21
91.5674205344
 31
0.0
  0
LINE
  5
23F
330
230
100
AcDbEntity
  8
SLD-0
 62
     7
100
AcDbLine
 10
177.5567276653
 20
92.3712675344
 30
0.0
 11
180.5567276653
 21
91.5674205344
 31
0.0
  0
LINE
  5
240
330
230
100
AcDbEntity
  8
SLD-0
 62
     7
100
AcDbLine
 10
180.5567276653
 20
91.5674205344
 30
0.0
 11
177.5567276653
 21
90.7635735344
 31
0.0
  0
LINE
  5
241
330
230
100
AcDbEntity
  8
SLD-0
 62
     7
100
AcDbLine
 10
180.5567276653
 20
91.5674205344
 30
0.0
 11
177.5567276653
 21
91.5674205344
 31
0.0
  0
LINE
  5
242
330
230
100
AcDbEntity
  8
SLD-0
 62
     7
100
AcDbLine
 10
128.5567276653
 20
90.7635735344
 30
0.0
 11
125.5567276653
 21
91.5674205344
 31
0.0
  0
LINE
  5
243
330
230
100
AcDbEntity
  8
SLD-0
 62
     7
100
AcDbLine
 10
125.5567276653
 20
91.5674205344
 30
0.0
 11
128.5567276653
 21
92.3712675344
 31
0.0
  0
LINE
  5
244
330
230
100
AcDbEntity
  8
SLD-0
 62
     7
100
AcDbLine
 10
125.5567276653
 20
91.5674205344
 30
0.0
 11
128.5567276653
 21
91.5674205344
 31
0.0
  0
MTEXT
  5
245
330
230
100
AcDbEntity
  8
SLD-0
 62
     7
100
AcDbMText
 10
151.0212924421
 20
96.0941138812
 30
0.4
 40
3.5
 41
0.0
 71
     1
 72
     1
  1
55
  7
SLDTEXTSTYLE0
 73
     1
 44
1.0
  0
ENDBLK
  5
23B
330
230
100
AcDbEntity
  8
0
100
AcDbBlockEnd
  0
BLOCK
  5
252
330
247
100
AcDbEntity
  8
0
100
AcDbBlockBegin
  2
*D22
 70
     1
 71
     0
 10
0.0
 20
0.0
 30
0.0
  3
*D22
  1

  0
LINE
  5
254
330
247
100
AcDbEntity
  8
SLD-0
 62
     7
100
AcDbLine
 10
175.5567276653
 20
125.6591198044
 30
0.0
 11
175.5567276653
 21
148.3549635885
 31
0.0
  0
LINE
  5
255
330
247
100
AcDbEntity
  8
SLD-0
 62
     7
100
AcDbLine
 10
180.5567276653
 20
125.6591198044
 30
0.0
 11
180.5567276653
 21
148.3549635885
 31
0.0
  0
LINE
  5
256
330
247
100
AcDbEntity
  8
SLD-0
 62
     7
100
AcDbLine
 10
175.5567276653
 20
147.3549635885
 30
0.0
 11
170.5567276653
 21
147.3549635885
 31
0.0
  0
LINE
  5
257
330
247
100
AcDbEntity
  8
SLD-0
 62
     7
100
AcDbLine
 10
175.5567276653
 20
147.3549635885
 30
0.0
 11
180.5567276653
 21
147.3549635885
 31
0.0
  0
LINE
  5
258
330
247
100
AcDbEntity
  8
SLD-0
 62
     7
100
AcDbLine
 10
180.5567276653
 20
147.3549635885
 30
0.0
 11
185.5567276653
 21
147.3549635885
 31
0.0
  0
LINE
  5
259
330
247
100
AcDbEntity
  8
SLD-0
 62
     7
100
AcDbLine
 10
172.5567276653
 20
148.1588105885
 30
0.0
 11
175.5567276653
 21
147.3549635885
 31
0.0
  0
LINE
  5
25A
330
247
100
AcDbEntity
  8
SLD-0
 62
     7
100
AcDbLine
 10
175.5567276653
 20
147.3549635885
 30
0.0
 11
172.5567276653
 21
146.5511165885
 31
0.0
  0
LINE
  5
25B
330
247
100
AcDbEntity
  8
SLD-0
 62
     7
100
AcDbLine
 10
175.5567276653
 20
147.3549635885
 30
0.0
 11
172.5567276653
 21
147.3549635885
 31
0.0
  0
LINE
  5
25C
330
247
100
AcDbEntity
  8
SLD-0
 62
     7
100
AcDbLine
 10
183.5567276653
 20
146.5511165885
 30
0.0
 11
180.5567276653
 21
147.3549635885
 31
0.0
  0
LINE
  5
25D
330
247
100
AcDbEntity
  8
SLD-0
 62
     7
100
AcDbLine
 10
180.5567276653
 20
147.3549635885
 30
0.0
 11
183.5567276653
 21
148.1588105885
 31
0.0
  0
LINE
  5
25E
330
247
100
AcDbEntity
  8
SLD-0
 62
     7
100
AcDbLine
 10
180.5567276653
 20
147.3549635885
 30
0.0
 11
183.5567276653
 21
147.3549635885
 31
0.0
  0
MTEXT
  5
25F
330
247
100
AcDbEntity
  8
SLD-0
 62
     7
100
AcDbMText
 10
177.0390100537
 20
151.8816569352
 30
0.4
 40
3.5
 41
0.0
 71
     1
 72
     1
  1
5
  7
SLDTEXTSTYLE0
 73
     1
 44
1.0
  0
ENDBLK
  5
253
330
247
100
AcDbEntity
  8
0
100
AcDbBlockEnd
  0
ENDSEC
  0
SECTION
  2
ENTITIES
  0
LINE
  5
7F
330
1F
100
AcDbEntity
  8
SLD-0
  6
Continuous
 62
   179
100
AcDbLine
 10
20.2604743903
 20
285.0
 30
0.0
 11
196.7604743903
 21
285.0
 31
0.0
  0
LINE
  5
80
330
1F
100
AcDbEntity
  8
SLD-0
  6
Continuous
 62
   179
100
AcDbLine
 10
20.2604743903
 20
285.0
 30
0.0
 11
20.2604743903
 21
10.0
 31
0.0
  0
LINE
  5
81
330
1F
100
AcDbEntity
  8
SLD-0
  6
Continuous
 62
   179
100
AcDbLine
 10
20.2604743903
 20
10.0
 30
0.0
 11
196.7604743903
 21
10.0
 31
0.0
  0
LINE
  5
82
330
1F
100
AcDbEntity
  8
SLD-0
  6
Continuous
 62
   179
100
AcDbLine
 10
196.7604743903
 20
285.0
 30
0.0
 11
196.7604743903
 21
10.0
 31
0.0
  0
LINE
  5
83
330
1F
100
AcDbEntity
  8
SLD-0
  6
Continuous
 62
   179
100
AcDbLine
 10
65.7604743903
 20
285.0
 30
0.0
 11
196.7604743903
 21
285.0
 31
0.0
  0
LINE
  5
84
330
1F
100
AcDbEntity
  8
SLD-0
  6
Continuous
 62
   179
100
AcDbLine
 10
196.7604743903
 20
285.0
 30
0.0
 11
196.7604743903
 21
264.25
 31
0.0
  0
LINE
  5
85
330
1F
100
AcDbEntity
  8
SLD-0
  6
Continuous
 62
   179
100
AcDbLine
 10
127.0104743903
 20
50.75
 30
0.0
 11
196.7604743903
 21
50.75
 31
0.0
  0
LINE
  5
86
330
1F
100
AcDbEntity
  8
SLD-0
  6
Continuous
 62
   179
100
AcDbLine
 10
127.0104743903
 20
50.75
 30
0.0
 11
127.0104743903
 21
10.0
 31
0.0
  0
LINE
  5
87
330
1F
100
AcDbEntity
  8
SLD-0
  6
Continuous
 62
   179
100
AcDbLine
 10
127.0104743903
 20
22.75
 30
0.0
 11
196.7604743903
 21
22.75
 31
0.0
  0
LINE
  5
88
330
1F
100
AcDbEntity
  8
SLD-0
  6
Continuous
 62
   179
100
AcDbLine
 10
127.0104743903
 20
36.75
 30
0.0
 11
196.7604743903
 21
36.75
 31
0.0
  0
LINE
  5
89
330
1F
100
AcDbEntity
  8
SLD-0
  6
Continuous
 62
   179
100
AcDbLine
 10
83.057408313
 20
135.6591198044
 30
0.0
 11
83.0943432912
 21
135.893771502
 31
0.0
  0
LINE
  5
8A
330
1F
100
AcDbEntity
  8
SLD-0
  6
Continuous
 62
   179
100
AcDbLine
 10
83.0943432912
 20
135.893771502
 30
0.0
 11
83.2042387641
 21
136.122645296
 31
0.0
  0
LINE
  5
8B
330
1F
100
AcDbEntity
  8
SLD-0
  6
Continuous
 62
   179
100
AcDbLine
 10
83.2042387641
 20
136.122645296
 30
0.0
 11
83.3843887404
 21
136.340105554
 31
0.0
  0
LINE
  5
8C
330
1F
100
AcDbEntity
  8
SLD-0
  6
Continuous
 62
   179
100
AcDbLine
 10
83.3843887404
 20
136.340105554
 30
0.0
 11
83.6303573298
 21
136.5407976828
 31
0.0
  0
LINE
  5
8D
330
1F
100
AcDbEntity
  8
SLD-0
  6
Continuous
 62
   179
100
AcDbLine
 10
83.6303573298
 20
136.5407976828
 30
0.0
 11
83.9360879694
 21
136.7197799762
 31
0.0
  0
LINE
  5
8E
330
1F
100
AcDbEntity
  8
SLD-0
  6
Continuous
 62
   179
100
AcDbLine
 10
83.9360879694
 20
136.7197799762
 30
0.0
 11
84.2940525561
 21
136.872645296
 31
0.0
  0
LINE
  5
8F
330
1F
100
AcDbEntity
  8
SLD-0
  6
Continuous
 62
   179
100
AcDbLine
 10
84.2940525561
 20
136.872645296
 30
0.0
 11
84.6954368137
 21
136.9956295907
 31
0.0
  0
LINE
  5
90
330
1F
100
AcDbEntity
  8
SLD-0
  6
Continuous
 62
   179
100
AcDbLine
 10
84.6954368137
 20
136.9956295907
 30
0.0
 11
85.1303573298
 21
137.0857045788
 31
0.0
  0
LINE
  5
91
330
1F
100
AcDbEntity
  8
SLD-0
  6
Continuous
 62
   179
100
AcDbLine
 10
85.1303573298
 20
137.0857045788
 30
0.0
 11
85.5881049178
 21
137.1406523153
 31
0.0
  0
LINE
  5
92
330
1F
100
AcDbEntity
  8
SLD-0
  6
Continuous
 62
   179
100
AcDbLine
 10
85.5881049178
 20
137.1406523153
 30
0.0
 11
86.057408313
 21
137.1591198044
 31
0.0
  0
LINE
  5
93
330
1F
100
AcDbEntity
  8
SLD-0
  6
Continuous
 62
   179
100
AcDbLine
 10
83.057408313
 20
135.6591198044
 30
0.0
 11
83.057408313
 21
115.1591198044
 31
0.0
  0
LINE
  5
94
330
1F
100
AcDbEntity
  8
SLD-0
  6
Continuous
 62
   179
100
AcDbLine
 10
86.057408313
 20
112.1591198044
 30
0.0
 11
75.057408313
 21
112.1591198044
 31
0.0
  0
LINE
  5
95
330
1F
100
AcDbEntity
  8
SLD-0
  6
Continuous
 62
   179
100
AcDbLine
 10
78.057408313
 20
135.6591198044
 30
0.0
 11
78.057408313
 21
115.1591198044
 31
0.0
  0
LINE
  5
96
330
1F
100
AcDbEntity
  8
SLD-0
  6
Continuous
 62
   179
100
AcDbLine
 10
75.057408313
 20
137.1591198044
 30
0.0
 11
75.5267117081
 21
137.1406523153
 31
0.0
  0
LINE
  5
97
330
1F
100
AcDbEntity
  8
SLD-0
  6
Continuous
 62
   179
100
AcDbLine
 10
75.5267117081
 20
137.1406523153
 30
0.0
 11
75.9844592961
 21
137.0857045788
 31
0.0
  0
LINE
  5
98
330
1F
100
AcDbEntity
  8
SLD-0
  6
Continuous
 62
   179
100
AcDbLine
 10
75.9844592961
 20
137.0857045788
 30
0.0
 11
76.4193798122
 21
136.9956295907
 31
0.0
  0
LINE
  5
99
330
1F
100
AcDbEntity
  8
SLD-0
  6
Continuous
 62
   179
100
AcDbLine
 10
76.4193798122
 20
136.9956295907
 30
0.0
 11
76.8207640698
 21
136.872645296
 31
0.0
  0
LINE
  5
9A
330
1F
100
AcDbEntity
  8
SLD-0
  6
Continuous
 62
   179
100
AcDbLine
 10
76.8207640698
 20
136.872645296
 30
0.0
 11
77.1787286565
 21
136.7197799762
 31
0.0
  0
LINE
  5
9B
330
1F
100
AcDbEntity
  8
SLD-0
  6
Continuous
 62
   179
100
AcDbLine
 10
77.1787286565
 20
136.7197799762
 30
0.0
 11
77.4844592961
 21
136.5407976828
 31
0.0
  0
LINE
  5
9C
330
1F
100
AcDbEntity
  8
SLD-0
  6
Continuous
 62
   179
100
AcDbLine
 10
77.4844592961
 20
136.5407976828
 30
0.0
 11
77.7304278855
 21
136.340105554
 31
0.0
  0
LINE
  5
9D
330
1F
100
AcDbEntity
  8
SLD-0
  6
Continuous
 62
   179
100
AcDbLine
 10
77.7304278855
 20
136.340105554
 30
0.0
 11
77.9105778618
 21
136.122645296
 31
0.0
  0
LINE
  5
9E
330
1F
100
AcDbEntity
  8
SLD-0
  6
Continuous
 62
   179
100
AcDbLine
 10
77.9105778618
 20
136.122645296
 30
0.0
 11
78.0204733347
 21
135.893771502
 31
0.0
  0
LINE
  5
9F
330
1F
100
AcDbEntity
  8
SLD-0
  6
Continuous
 62
   179
100
AcDbLine
 10
78.0204733347
 20
135.893771502
 30
0.0
 11
78.057408313
 21
135.6591198044
 31
0.0
  0
LINE
  5
A0
330
1F
100
AcDbEntity
  8
SLD-0
  6
Continuous
 62
   179
100
AcDbLine
 10
75.057408313
 20
137.1591198044
 30
0.0
 11
86.057408313
 21
137.1591198044
 31
0.0
  0
LINE
  5
A1
330
1F
100
AcDbEntity
  8
SLD-0
  6
Continuous
 62
   179
100
AcDbLine
 10
100.557408313
 20
112.1591198044
 30
0.0
 11
86.057408313
 21
112.1591198044
 31
0.0
  0
LINE
  5
A2
330
1F
100
AcDbEntity
  8
SLD-0
  6
Continuous
 62
   179
100
AcDbLine
 10
100.557408313
 20
107.1591198044
 30
0.0
 11
100.557408313
 21
112.1591198044
 31
0.0
  0
LINE
  5
A3
330
1F
100
AcDbEntity
  8
SLD-0
  6
Continuous
 62
   179
100
AcDbLine
 10
60.557408313
 20
112.1591198044
 30
0.0
 11
60.557408313
 21
107.1591198044
 31
0.0
  0
LINE
  5
A4
330
1F
100
AcDbEntity
  8
SLD-0
  6
Continuous
 62
   179
100
AcDbLine
 10
100.557408313
 20
107.1591198044
 30
0.0
 11
60.557408313
 21
107.1591198044
 31
0.0
  0
LINE
  5
A5
330
1F
100
AcDbEntity
  8
SLD-0
  6
Continuous
 62
   179
100
AcDbLine
 10
75.057408313
 20
112.1591198044
 30
0.0
 11
60.557408313
 21
112.1591198044
 31
0.0
  0
LINE
  5
A6
330
1F
100
AcDbEntity
  8
SLD-0
  6
Continuous
 62
   179
100
AcDbLine
 10
105.557408313
 20
112.1591198044
 30
0.0
 11
105.557408313
 21
107.1591198044
 31
0.0
  0
LINE
  5
A7
330
1F
100
AcDbEntity
  8
SLD-0
  6
Continuous
 62
   179
100
AcDbLine
 10
100.557408313
 20
112.1591198044
 30
0.0
 11
105.557408313
 21
112.1591198044
 31
0.0
  0
LINE
  5
A8
330
1F
100
AcDbEntity
  8
SLD-0
  6
Continuous
 62
   179
100
AcDbLine
 10
105.557408313
 20
107.1591198044
 30
0.0
 11
100.557408313
 21
107.1591198044
 31
0.0
  0
LINE
  5
A9
330
1F
100
AcDbEntity
  8
SLD-0
  6
Continuous
 62
   179
100
AcDbLine
 10
55.557408313
 20
107.1591198044
 30
0.0
 11
55.557408313
 21
112.1591198044
 31
0.0
  0
LINE
  5
AA
330
1F
100
AcDbEntity
  8
SLD-0
  6
Continuous
 62
   179
100
AcDbLine
 10
60.557408313
 20
107.1591198044
 30
0.0
 11
55.557408313
 21
107.1591198044
 31
0.0
  0
LINE
  5
AB
330
1F
100
AcDbEntity
  8
SLD-0
  6
Continuous
 62
   179
100
AcDbLine
 10
55.557408313
 20
112.1591198044
 30
0.0
 11
60.557408313
 21
112.1591198044
 31
0.0
  0
LINE
  5
AC
330
1F
100
AcDbEntity
  8
SLD-0
  6
Continuous
 62
   179
100
AcDbLine
 10
55.557408313
 20
112.1591198044
 30
0.0
 11
55.557408313
 21
115.1591198044
 31
0.0
  0
LINE
  5
AD
330
1F
100
AcDbEntity
  8
SLD-0
  6
Continuous
 62
   179
100
AcDbLine
 10
105.557408313
 20
115.1591198044
 30
0.0
 11
105.557408313
 21
112.1591198044
 31
0.0
  0
LINE
  5
AE
330
1F
100
AcDbEntity
  8
SLD-0
  6
Continuous
 62
   179
100
AcDbLine
 10
60.557408313
 20
137.1591198044
 30
0.0
 11
55.557408313
 21
132.1591198044
 31
0.0
  0
LINE
  5
AF
330
1F
100
AcDbEntity
  8
SLD-0
  6
Continuous
 62
   179
100
AcDbLine
 10
75.057408313
 20
137.1591198044
 30
0.0
 11
60.557408313
 21
137.1591198044
 31
0.0
  0
LINE
  5
B0
330
1F
100
AcDbEntity
  8
SLD-0
  6
Continuous
 62
   179
100
AcDbLine
 10
55.557408313
 20
132.1591198044
 30
0.0
 11
55.557408313
 21
115.1591198044
 31
0.0
  0
LINE
  5
B1
330
1F
100
AcDbEntity
  8
SLD-0
  6
Continuous
 62
   179
100
AcDbLine
 10
100.557408313
 20
137.1591198044
 30
0.0
 11
86.057408313
 21
137.1591198044
 31
0.0
  0
LINE
  5
B2
330
1F
100
AcDbEntity
  8
SLD-0
  6
Continuous
 62
   179
100
AcDbLine
 10
105.557408313
 20
132.1591198044
 30
0.0
 11
100.557408313
 21
137.1591198044
 31
0.0
  0
LINE
  5
B3
330
1F
100
AcDbEntity
  8
SLD-0
  6
Continuous
 62
   179
100
AcDbLine
 10
105.557408313
 20
132.1591198044
 30
0.0
 11
105.557408313
 21
115.1591198044
 31
0.0
  0
LINE
  5
B4
330
1F
100
AcDbEntity
  8
SLD-0
  6
CENTERX2
 62
   179
100
AcDbLine
 10
80.557408313
 20
137.6591198044
 30
0.0
 11
80.557408313
 21
113.1591198044
 31
0.0
  0
LINE
  5
B5
330
1F
100
AcDbEntity
  8
SLD-0
  6
Continuous
 62
   179
100
AcDbLine
 10
60.557408313
 20
238.585800998
 30
0.0
 11
60.557408313
 21
233.585800998
 31
0.0
  0
LINE
  5
B6
330
1F
100
AcDbEntity
  8
SLD-0
  6
Continuous
 62
   179
100
AcDbLine
 10
60.557408313
 20
233.585800998
 30
0.0
 11
55.557408313
 21
233.585800998
 31
0.0
  0
LINE
  5
B7
330
1F
100
AcDbEntity
  8
SLD-0
  6
Continuous
 62
   179
100
AcDbLine
 10
55.557408313
 20
233.585800998
 30
0.0
 11
55.557408313
 21
238.585800998
 31
0.0
  0
LINE
  5
B8
330
1F
100
AcDbEntity
  8
SLD-0
  6
Continuous
 62
   179
100
AcDbLine
 10
55.557408313
 20
238.585800998
 30
0.0
 11
60.557408313
 21
238.585800998
 31
0.0
  0
LINE
  5
B9
330
1F
100
AcDbEntity
  8
SLD-0
  6
Continuous
 62
   179
100
AcDbLine
 10
75.057408313
 20
233.585800998
 30
0.0
 11
86.057408313
 21
233.585800998
 31
0.0
  0
LINE
  5
BA
330
1F
100
AcDbEntity
  8
SLD-0
  6
Continuous
 62
   179
100
AcDbLine
 10
75.057408313
 20
233.585800998
 30
0.0
 11
60.557408313
 21
233.585800998
 31
0.0
  0
LINE
  5
BB
330
1F
100
AcDbEntity
  8
SLD-0
  6
Continuous
 62
   179
100
AcDbLine
 10
100.557408313
 20
238.585800998
 30
0.0
 11
60.557408313
 21
238.585800998
 31
0.0
  0
LINE
  5
BC
330
1F
100
AcDbEntity
  8
SLD-0
  6
Continuous
 62
   179
100
AcDbLine
 10
100.557408313
 20
233.585800998
 30
0.0
 11
100.557408313
 21
238.585800998
 31
0.0
  0
LINE
  5
BD
330
1F
100
AcDbEntity
  8
SLD-0
  6
Continuous
 62
   179
100
AcDbLine
 10
100.557408313
 20
233.585800998
 30
0.0
 11
86.057408313
 21
233.585800998
 31
0.0
  0
LINE
  5
BE
330
1F
100
AcDbEntity
  8
SLD-0
  6
Continuous
 62
   179
100
AcDbLine
 10
105.557408313
 20
238.585800998
 30
0.0
 11
105.557408313
 21
233.585800998
 31
0.0
  0
LINE
  5
BF
330
1F
100
AcDbEntity
  8
SLD-0
  6
Continuous
 62
   179
100
AcDbLine
 10
105.557408313
 20
233.585800998
 30
0.0
 11
100.557408313
 21
233.585800998
 31
0.0
  0
LINE
  5
C0
330
1F
100
AcDbEntity
  8
SLD-0
  6
Continuous
 62
   179
100
AcDbLine
 10
100.557408313
 20
238.585800998
 30
0.0
 11
105.557408313
 21
238.585800998
 31
0.0
  0
LINE
  5
C1
330
1F
100
AcDbEntity
  8
SLD-0
  6
Continuous
 62
   179
100
AcDbLine
 10
83.057408313
 20
230.585800998
 30
0.0
 11
83.057408313
 21
189.585800998
 31
0.0
  0
LINE
  5
C2
330
1F
100
AcDbEntity
  8
SLD-0
  6
Continuous
 62
   179
100
AcDbLine
 10
86.057408313
 20
183.585800998
 30
0.0
 11
85.7215148846
 21
183.6235277387
 31
0.0
  0
LINE
  5
C3
330
1F
100
AcDbEntity
  8
SLD-0
  6
Continuous
 62
   179
100
AcDbLine
 10
85.7215148846
 20
183.6235277387
 30
0.0
 11
85.3898455111
 21
183.7362335249
 31
0.0
  0
LINE
  5
C4
330
1F
100
AcDbEntity
  8
SLD-0
  6
Continuous
 62
   179
100
AcDbLine
 10
85.3898455111
 20
183.7362335249
 30
0.0
 11
85.0665711271
 21
183.9225010162
 31
0.0
  0
LINE
  5
C5
330
1F
100
AcDbEntity
  8
SLD-0
  6
Continuous
 62
   179
100
AcDbLine
 10
85.0665711271
 20
183.9225010162
 30
0.0
 11
84.7557570956
 21
184.1799877906
 31
0.0
  0
LINE
  5
C6
330
1F
100
AcDbEntity
  8
SLD-0
  6
Continuous
 62
   179
100
AcDbLine
 10
84.7557570956
 20
184.1799877906
 30
0.0
 11
84.4613120834
 21
184.5054558027
 31
0.0
  0
LINE
  5
C7
330
1F
100
AcDbEntity
  8
SLD-0
  6
Continuous
 62
   179
100
AcDbLine
 10
84.4613120834
 20
184.5054558027
 30
0.0
 11
84.1869389074
 21
184.8948121032
 31
0.0
  0
LINE
  5
C8
330
1F
100
AcDbEntity
  8
SLD-0
  6
Continuous
 62
   179
100
AcDbLine
 10
84.1869389074
 20
184.8948121032
 30
0.0
 11
83.9360879694
 21
185.3431603109
 31
0.0
  0
LINE
  5
C9
330
1F
100
AcDbEntity
  8
SLD-0
  6
Continuous
 62
   179
100
AcDbLine
 10
83.9360879694
 20
185.3431603109
 30
0.0
 11
83.7119138656
 21
185.8448621869
 31
0.0
  0
LINE
  5
CA
330
1F
100
AcDbEntity
  8
SLD-0
  6
Continuous
 62
   179
100
AcDbLine
 10
83.7119138656
 20
185.8448621869
 30
0.0
 11
83.5172357153
 21
186.3936085389
 31
0.0
  0
LINE
  5
CB
330
1F
100
AcDbEntity
  8
SLD-0
  6
Continuous
 62
   179
100
AcDbLine
 10
83.5172357153
 20
186.3936085389
 30
0.0
 11
83.3545017093
 21
186.9824985633
 31
0.0
  0
LINE
  5
CC
330
1F
100
AcDbEntity
  8
SLD-0
  6
Continuous
 62
   179
100
AcDbLine
 10
83.3545017093
 20
186.9824985633
 30
0.0
 11
83.225758322
 21
187.6041266263
 31
0.0
  0
LINE
  5
CD
330
1F
100
AcDbEntity
  8
SLD-0
  6
Continuous
 62
   179
100
AcDbLine
 10
83.225758322
 20
187.6041266263
 30
0.0
 11
83.1326245764
 21
188.2506753943
 31
0.0
  0
LINE
  5
CE
330
1F
100
AcDbEntity
  8
SLD-0
  6
Continuous
 62
   179
100
AcDbLine
 10
83.1326245764
 20
188.2506753943
 30
0.0
 11
83.0762716833
 21
188.9140141414
 31
0.0
  0
LINE
  5
CF
330
1F
100
AcDbEntity
  8
SLD-0
  6
Continuous
 62
   179
100
AcDbLine
 10
83.0762716833
 20
188.9140141414
 30
0.0
 11
83.057408313
 21
189.585800998
 31
0.0
  0
LINE
  5
D0
330
1F
100
AcDbEntity
  8
SLD-0
  6
Continuous
 62
   179
100
AcDbLine
 10
86.057408313
 20
183.585800998
 30
0.0
 11
75.057408313
 21
183.585800998
 31
0.0
  0
LINE
  5
D1
330
1F
100
AcDbEntity
  8
SLD-0
  6
Continuous
 62
   179
100
AcDbLine
 10
78.057408313
 20
189.585800998
 30
0.0
 11
78.0385449426
 21
188.9140141414
 31
0.0
  0
LINE
  5
D2
330
1F
100
AcDbEntity
  8
SLD-0
  6
Continuous
 62
   179
100
AcDbLine
 10
78.0385449426
 20
188.9140141414
 30
0.0
 11
77.9821920495
 21
188.2506753943
 31
0.0
  0
LINE
  5
D3
330
1F
100
AcDbEntity
  8
SLD-0
  6
Continuous
 62
   179
100
AcDbLine
 10
77.9821920495
 20
188.2506753943
 30
0.0
 11
77.8890583039
 21
187.6041266263
 31
0.0
  0
LINE
  5
D4
330
1F
100
AcDbEntity
  8
SLD-0
  6
Continuous
 62
   179
100
AcDbLine
 10
77.8890583039
 20
187.6041266263
 30
0.0
 11
77.7603149167
 21
186.9824985633
 31
0.0
  0
LINE
  5
D5
330
1F
100
AcDbEntity
  8
SLD-0
  6
Continuous
 62
   179
100
AcDbLine
 10
77.7603149167
 20
186.9824985633
 30
0.0
 11
77.5975809106
 21
186.3936085389
 31
0.0
  0
LINE
  5
D6
330
1F
100
AcDbEntity
  8
SLD-0
  6
Continuous
 62
   179
100
AcDbLine
 10
77.5975809106
 20
186.3936085389
 30
0.0
 11
77.4029027604
 21
185.8448621869
 31
0.0
  0
LINE
  5
D7
330
1F
100
AcDbEntity
  8
SLD-0
  6
Continuous
 62
   179
100
AcDbLine
 10
77.4029027604
 20
185.8448621869
 30
0.0
 11
77.1787286565
 21
185.3431603109
 31
0.0
  0
LINE
  5
D8
330
1F
100
AcDbEntity
  8
SLD-0
  6
Continuous
 62
   179
100
AcDbLine
 10
77.1787286565
 20
185.3431603109
 30
0.0
 11
76.9278777185
 21
184.8948121032
 31
0.0
  0
LINE
  5
D9
330
1F
100
AcDbEntity
  8
SLD-0
  6
Continuous
 62
   179
100
AcDbLine
 10
76.9278777185
 20
184.8948121032
 30
0.0
 11
76.6535045425
 21
184.5054558027
 31
0.0
  0
LINE
  5
DA
330
1F
100
AcDbEntity
  8
SLD-0
  6
Continuous
 62
   179
100
AcDbLine
 10
76.6535045425
 20
184.5054558027
 30
0.0
 11
76.3590595303
 21
184.1799877906
 31
0.0
  0
LINE
  5
DB
330
1F
100
AcDbEntity
  8
SLD-0
  6
Continuous
 62
   179
100
AcDbLine
 10
76.3590595303
 20
184.1799877906
 30
0.0
 11
76.0482454988
 21
183.9225010162
 31
0.0
  0
LINE
  5
DC
330
1F
100
AcDbEntity
  8
SLD-0
  6
Continuous
 62
   179
100
AcDbLine
 10
76.0482454988
 20
183.9225010162
 30
0.0
 11
75.7249711148
 21
183.7362335249
 31
0.0
  0
LINE
  5
DD
330
1F
100
AcDbEntity
  8
SLD-0
  6
Continuous
 62
   179
100
AcDbLine
 10
75.7249711148
 20
183.7362335249
 30
0.0
 11
75.3933017413
 21
183.6235277387
 31
0.0
  0
LINE
  5
DE
330
1F
100
AcDbEntity
  8
SLD-0
  6
Continuous
 62
   179
100
AcDbLine
 10
75.3933017413
 20
183.6235277387
 30
0.0
 11
75.057408313
 21
183.585800998
 31
0.0
  0
LINE
  5
DF
330
1F
100
AcDbEntity
  8
SLD-0
  6
Continuous
 62
   179
100
AcDbLine
 10
78.057408313
 20
230.585800998
 30
0.0
 11
78.057408313
 21
189.585800998
 31
0.0
  0
LINE
  5
E0
330
1F
100
AcDbEntity
  8
SLD-0
  6
Continuous
 62
   179
100
AcDbLine
 10
55.557408313
 20
230.585800998
 30
0.0
 11
55.557408313
 21
233.585800998
 31
0.0
  0
LINE
  5
E1
330
1F
100
AcDbEntity
  8
SLD-0
  6
Continuous
 62
   179
100
AcDbLine
 10
105.557408313
 20
233.585800998
 30
0.0
 11
105.557408313
 21
230.585800998
 31
0.0
  0
LINE
  5
E2
330
1F
100
AcDbEntity
  8
SLD-0
  6
Continuous
 62
   179
100
AcDbLine
 10
75.057408313
 20
183.585800998
 30
0.0
 11
60.557408313
 21
183.585800998
 31
0.0
  0
LINE
  5
E3
330
1F
100
AcDbEntity
  8
SLD-0
  6
Continuous
 62
   179
100
AcDbLine
 10
55.557408313
 20
188.585800998
 30
0.0
 11
60.557408313
 21
183.585800998
 31
0.0
  0
LINE
  5
E4
330
1F
100
AcDbEntity
  8
SLD-0
  6
Continuous
 62
   179
100
AcDbLine
 10
55.557408313
 20
230.585800998
 30
0.0
 11
55.557408313
 21
188.585800998
 31
0.0
  0
LINE
  5
E5
330
1F
100
AcDbEntity
  8
SLD-0
  6
Continuous
 62
   179
100
AcDbLine
 10
100.557408313
 20
183.585800998
 30
0.0
 11
105.557408313
 21
188.585800998
 31
0.0
  0
LINE
  5
E6
330
1F
100
AcDbEntity
  8
SLD-0
  6
Continuous
 62
   179
100
AcDbLine
 10
100.557408313
 20
183.585800998
 30
0.0
 11
86.057408313
 21
183.585800998
 31
0.0
  0
LINE
  5
E7
330
1F
100
AcDbEntity
  8
SLD-0
  6
Continuous
 62
   179
100
AcDbLine
 10
105.557408313
 20
230.585800998
 30
0.0
 11
105.557408313
 21
188.585800998
 31
0.0
  0
LINE
  5
E8
330
1F
100
AcDbEntity
  8
SLD-0
  6
CENTERX2
 62
   179
100
AcDbLine
 10
80.557408313
 20
232.585800998
 30
0.0
 11
80.557408313
 21
187.585800998
 31
0.0
  0
LINE
  5
E9
330
1F
100
AcDbEntity
  8
SLD-0
  6
Continuous
 62
   179
100
AcDbLine
 10
130.5567276653
 20
107.1591198044
 30
0.0
 11
180.5567276653
 21
107.1591198044
 31
0.0
  0
LINE
  5
EA
330
1F
100
AcDbEntity
  8
SLD-0
  6
Continuous
 62
   179
100
AcDbLine
 10
130.5567276653
 20
112.1591198044
 30
0.0
 11
130.5567276653
 21
107.1591198044
 31
0.0
  0
LINE
  5
EB
330
1F
100
AcDbEntity
  8
SLD-0
  6
Continuous
 62
   179
100
AcDbLine
 10
172.5567276653
 20
112.1591198044
 30
0.0
 11
130.5567276653
 21
112.1591198044
 31
0.0
  0
LINE
  5
EC
330
1F
100
AcDbEntity
  8
SLD-0
  6
Continuous
 62
   179
100
AcDbLine
 10
175.5567276653
 20
132.1591198044
 30
0.0
 11
175.5567276653
 21
115.1591198044
 31
0.0
  0
LINE
  5
ED
330
1F
100
AcDbEntity
  8
SLD-0
  6
Continuous
 62
   179
100
AcDbLine
 10
180.5567276653
 20
132.1591198044
 30
0.0
 11
175.5567276653
 21
132.1591198044
 31
0.0
  0
LINE
  5
EE
330
1F
100
AcDbEntity
  8
SLD-0
  6
Continuous
 62
   179
100
AcDbLine
 10
180.5567276653
 20
107.1591198044
 30
0.0
 11
180.5567276653
 21
132.1591198044
 31
0.0
  0
LINE
  5
EF
330
1F
100
AcDbEntity
  8
SLD-0
  6
Continuous
 62
   179
100
AcDbLine
 10
175.5567276653
 20
132.1591198044
 30
0.0
 11
175.5567276653
 21
137.1591198044
 31
0.0
  0
LINE
  5
F0
330
1F
100
AcDbEntity
  8
SLD-0
  6
Continuous
 62
   179
100
AcDbLine
 10
175.5567276653
 20
137.1591198044
 30
0.0
 11
180.5567276653
 21
137.1591198044
 31
0.0
  0
LINE
  5
F1
330
1F
100
AcDbEntity
  8
SLD-0
  6
Continuous
 62
   179
100
AcDbLine
 10
180.5567276653
 20
137.1591198044
 30
0.0
 11
180.5567276653
 21
132.1591198044
 31
0.0
  0
LINE
  5
F2
330
1F
100
AcDbEntity
  8
SLD-0
  6
Continuous
 62
   179
100
AcDbLine
 10
125.5567276653
 20
107.1591198044
 30
0.0
 11
125.5567276653
 21
112.1591198044
 31
0.0
  0
LINE
  5
F3
330
1F
100
AcDbEntity
  8
SLD-0
  6
Continuous
 62
   179
100
AcDbLine
 10
125.5567276653
 20
112.1591198044
 30
0.0
 11
130.5567276653
 21
112.1591198044
 31
0.0
  0
LINE
  5
F4
330
1F
100
AcDbEntity
  8
SLD-0
  6
Continuous
 62
   179
100
AcDbLine
 10
130.5567276653
 20
107.1591198044
 30
0.0
 11
125.5567276653
 21
107.1591198044
 31
0.0
  0
LINE
  5
F5
330
1F
100
AcDbEntity
  8
SLD-0
  6
Continuous
 62
   179
100
AcDbLine
 10
172.5567276653
 20
135.6591198044
 30
0.0
 11
175.5567276653
 21
137.1591198044
 31
0.0
  0
LINE
  5
F6
330
1F
100
AcDbEntity
  8
SLD-0
  6
Continuous
 62
   179
100
AcDbLine
 10
125.5567276653
 20
112.1591198044
 30
0.0
 11
131.5567276653
 21
115.1591198044
 31
0.0
  0
LINE
  5
F7
330
1F
100
AcDbEntity
  8
SLD-0
  6
Continuous
 62
   179
100
AcDbLine
 10
172.5567276653
 20
135.6591198044
 30
0.0
 11
131.5567276653
 21
115.1591198044
 31
0.0
  0
ARC
  5
F8
330
1F
100
AcDbEntity
  8
SLD-0
  6
Continuous
 62
   179
100
AcDbCircle
 10
86.057408313
 20
115.1591198044
 30
0.0
 40
3.0
100
AcDbArc
 50
180.0
 51
270.0
  0
ARC
  5
F9
330
1F
100
AcDbEntity
  8
SLD-0
  6
Continuous
 62
   179
100
AcDbCircle
 10
75.057408313
 20
115.1591198044
 30
0.0
 40
3.0
100
AcDbArc
 50
270.0
 51
0.0
  0
CIRCLE
  5
FA
330
1F
100
AcDbEntity
  8
SLD-0
  6
Continuous
 62
   179
100
AcDbCircle
 10
65.557408313
 20
124.6591198044
 30
0.0
 40
3.25
  0
CIRCLE
  5
FB
330
1F
100
AcDbEntity
  8
SLD-0
  6
Continuous
 62
   179
100
AcDbCircle
 10
95.557408313
 20
124.6591198044
 30
0.0
 40
3.25
  0
ARC
  5
FC
330
1F
100
AcDbEntity
  8
SLD-0
  6
Continuous
 62
   179
100
AcDbCircle
 10
75.057408313
 20
230.585800998
 30
0.0
 40
3.0
100
AcDbArc
 50
0.0
 51
90.0
  0
ARC
  5
FD
330
1F
100
AcDbEntity
  8
SLD-0
  6
Continuous
 62
   179
100
AcDbCircle
 10
86.057408313
 20
230.585800998
 30
0.0
 40
3.0
100
AcDbArc
 50
90.0
 51
180.0
  0
CIRCLE
  5
FE
330
1F
100
AcDbEntity
  8
SLD-0
  6
Continuous
 62
   179
100
AcDbCircle
 10
68.057408313
 20
216.085800998
 30
0.0
 40
3.250000000000014
  0
CIRCLE
  5
FF
330
1F
100
AcDbEntity
  8
SLD-0
  6
Continuous
 62
   179
100
AcDbCircle
 10
68.057408313
 20
191.085800998
 30
0.0
 40
3.250000000000014
  0
CIRCLE
  5
100
330
1F
100
AcDbEntity
  8
SLD-0
  6
Continuous
 62
   179
100
AcDbCircle
 10
93.057408313
 20
191.085800998
 30
0.0
 40
3.25
  0
CIRCLE
  5
101
330
1F
100
AcDbEntity
  8
SLD-0
  6
Continuous
 62
   179
100
AcDbCircle
 10
93.057408313
 20
216.085800998
 30
0.0
 40
3.25
  0
ARC
  5
102
330
1F
100
AcDbEntity
  8
SLD-0
  6
Continuous
 62
   179
100
AcDbCircle
 10
172.5567276653
 20
115.1591198044
 30
0.0
 40
3.0
100
AcDbArc
 50
270.0
 51
0.0
  0
DIMENSION
  5
103
330
1F
100
AcDbEntity
  8
SLD-0
 62
     7
100
AcDbDimension
  2
*D8
 10
41.2550586956
 20
107.1591198044
 30
0.0
 11
41.2550586956
 21
115.9091198044
 31
0.0
 70
   160
 71
     1
 42
17.5
  3
SLDDIMSTYLE0
100
AcDbAlignedDimension
 13
65.557408313
 23
124.6591198044
 33
0.0
 14
55.557408313
 24
107.1591198044
 34
0.0
 50
90.0
100
AcDbRotatedDimension
1001
ACAD
1000
DSTYLE
1002
{
1070
    77
1070
     3
1070
   143
1040
0.0393700787
1070
    41
1040
3.0
1070
    44
1040
1.0
1070
    42
1040
1.0
1070
   147
1040
1.524
1070
    73
1070
     0
1070
    74
1070
     0
1070
   140
1040
3.5
1070
   284
1070
    12
1070
    78
1070
    12
1002
}
  0
DIMENSION
  5
121
330
1F
100
AcDbEntity
  8
SLD-0
 62
     7
100
AcDbDimension
  2
*D10
 10
83.057408313
 20
92.0195403467
 30
0.0
 11
90.0694302809
 21
92.0195403467
 31
0.0
 70
   160
 71
     1
 42
5.0
  3
SLDDIMSTYLE1
100
AcDbAlignedDimension
 13
78.057408313
 23
124.6591198044
 33
0.0
 14
83.057408313
 24
124.6591198044
 34
0.0
100
AcDbRotatedDimension
1001
ACAD
1000
DSTYLE
1002
{
1070
    77
1070
     3
1070
   143
1040
0.0393700787
1070
    41
1040
3.0
1070
    44
1040
1.0
1070
    42
1040
1.0
1070
   147
1040
1.524
1070
    73
1070
     0
1070
    74
1070
     0
1070
   140
1040
3.5
1070
   284
1070
    12
1070
    78
1070
    12
1002
}
  0
DIMENSION
  5
13E
330
1F
100
AcDbEntity
  8
SLD-0
 62
     7
100
AcDbDimension
  2
*D11
 10
78.057408313
 20
92.0195403467
 30
0.0
 11
66.807408313
 21
92.0195403467
 31
0.0
 70
   160
 71
     1
 42
22.5
  3
SLDDIMSTYLE0
100
AcDbAlignedDimension
 13
55.557408313
 23
107.1591198044
 33
0.0
 14
78.057408313
 24
115.1591198044
 34
0.0
100
AcDbRotatedDimension
1001
ACAD
1000
DSTYLE
1002
{
1070
    77
1070
     3
1070
   143
1040
0.0393700787
1070
    41
1040
3.0
1070
    44
1040
1.0
1070
    42
1040
1.0
1070
   147
1040
1.524
1070
    73
1070
     0
1070
    74
1070
     0
1070
   140
1040
3.5
1070
   284
1070
    12
1070
    78
1070
    12
1002
}
  0
DIMENSION
  5
155
330
1F
100
AcDbEntity
  8
SLD-0
 62
     7
100
AcDbDimension
  2
*D12
 10
110.7837965939
 20
112.1591198044
 30
0.0
 11
110.7837965939
 21
98.6413599029
 31
0.0
 70
   160
 71
     1
 42
5.0
  3
SLDDIMSTYLE1
100
AcDbAlignedDimension
 13
100.557408313
 23
107.1591198044
 33
0.0
 14
105.557408313
 24
112.1591198044
 34
0.0
 50
90.0
100
AcDbRotatedDimension
1001
ACAD
1000
DSTYLE
1002
{
1070
    77
1070
     3
1070
   143
1040
0.0393700787
1070
    41
1040
3.0
1070
    44
1040
1.0
1070
    42
1040
1.0
1070
   147
1040
1.524
1070
    73
1070
     0
1070
    74
1070
     0
1070
   140
1040
3.5
1070
   284
1070
    12
1070
    78
1070
    12
1002
}
  0
DIMENSION
  5
170
330
1F
100
AcDbEntity
  8
SLD-0
 62
     7
100
AcDbDimension
  2
*D13
 10
65.557408313
 20
145.9255436911
 30
0.0
 11
60.557408313
 21
145.9255436911
 31
0.0
 70
   160
 71
     1
 42
10.0
  3
SLDDIMSTYLE1
100
AcDbAlignedDimension
 13
55.557408313
 23
132.1591198044
 33
0.0
 14
65.557408313
 24
130.4091198044
 34
0.0
100
AcDbRotatedDimension
1001
ACAD
1000
DSTYLE
1002
{
1070
    77
1070
     3
1070
   143
1040
0.0393700787
1070
    41
1040
3.0
1070
    44
1040
1.0
1070
    42
1040
1.0
1070
   147
1040
1.524
1070
    73
1070
     0
1070
    74
1070
     0
1070
   140
1040
3.5
1070
   284
1070
    12
1070
    78
1070
    12
1002
}
  0
DIMENSION
  5
189
330
1F
100
AcDbEntity
  8
SLD-0
 62
     7
100
AcDbDimension
  2
*D14
 10
95.557408313
 20
145.9255436911
 30
0.0
 11
80.557408313
 21
145.9255436911
 31
0.0
 70
   160
 71
     1
 42
30.0
  3
SLDDIMSTYLE1
100
AcDbAlignedDimension
 13
65.557408313
 23
130.4091198044
 33
0.0
 14
95.557408313
 24
130.4091198044
 34
0.0
100
AcDbRotatedDimension
1001
ACAD
1000
DSTYLE
1002
{
1070
    77
1070
     3
1070
   143
1040
0.0393700787
1070
    41
1040
3.0
1070
    44
1040
1.0
1070
    42
1040
1.0
1070
   147
1040
1.524
1070
    73
1070
     0
1070
    74
1070
     0
1070
   140
1040
3.5
1070
   284
1070
    12
1070
    78
1070
    12
1002
}
  0
DIMENSION
  5
1A0
330
1F
100
AcDbEntity
  8
SLD-0
 62
     7
100
AcDbDimension
  2
*D15
 10
105.557408313
 20
162.945483871
 30
0.0
 11
80.557408313
 21
162.945483871
 31
0.0
 70
   160
 71
     1
 42
50.0
  3
SLDDIMSTYLE1
100
AcDbAlignedDimension
 13
55.557408313
 23
238.585800998
 33
0.0
 14
105.557408313
 24
238.585800998
 34
0.0
100
AcDbRotatedDimension
1001
ACAD
1000
DSTYLE
1002
{
1070
    77
1070
     3
1070
   143
1040
0.0393700787
1070
    41
1040
3.0
1070
    44
1040
1.0
1070
    42
1040
1.0
1070
   147
1040
1.524
1070
    73
1070
     0
1070
    74
1070
     0
1070
   140
1040
3.5
1070
   284
1070
    12
1070
    78
1070
    12
1002
}
  0
DIMENSION
  5
1B7
330
1F
100
AcDbEntity
  8
SLD-0
 62
     7
100
AcDbDimension
  2
*D16
 10
93.057408313
 20
172.3558064516
 30
0.0
 11
80.557408313
 21
172.3558064516
 31
0.0
 70
   160
 71
     1
 42
25.0
  3
SLDDIMSTYLE1
100
AcDbAlignedDimension
 13
68.057408313
 23
191.085800998
 33
0.0
 14
93.057408313
 24
191.085800998
 34
0.0
100
AcDbRotatedDimension
1001
ACAD
1000
DSTYLE
1002
{
1070
    77
1070
     3
1070
   143
1040
0.0393700787
1070
    41
1040
3.0
1070
    44
1040
1.0
1070
    42
1040
1.0
1070
   147
1040
1.524
1070
    73
1070
     0
1070
    74
1070
     0
1070
   140
1040
3.5
1070
   284
1070
    12
1070
    78
1070
    12
1002
}
  0
DIMENSION
  5
1CE
330
1F
100
AcDbEntity
  8
SLD-0
 62
     7
100
AcDbDimension
  2
*D17
 10
115.9247188264
 20
216.085800998
 30
0.0
 11
115.9247188264
 21
227.335800998
 31
0.0
 70
   160
 71
     1
 42
22.5
  3
SLDDIMSTYLE0
100
AcDbAlignedDimension
 13
100.557408313
 23
238.585800998
 33
0.0
 14
98.807408313
 24
216.085800998
 34
0.0
 50
90.0
100
AcDbRotatedDimension
1001
ACAD
1000
DSTYLE
1002
{
1070
    77
1070
     3
1070
   143
1040
0.0393700787
1070
    41
1040
3.0
1070
    44
1040
1.0
1070
    42
1040
1.0
1070
   147
1040
1.524
1070
    73
1070
     0
1070
    74
1070
     0
1070
   140
1040
3.5
1070
   284
1070
    12
1070
    78
1070
    12
1002
}
  0
DIMENSION
  5
1E6
330
1F
100
AcDbEntity
  8
SLD-0
 62
     7
100
AcDbDimension
  2
*D18
 10
115.9247188264
 20
216.085800998
 30
0.0
 11
115.9247188264
 21
203.585800998
 31
0.0
 70
   160
 71
     1
 42
25.0
  3
SLDDIMSTYLE1
100
AcDbAlignedDimension
 13
93.057408313
 23
191.085800998
 33
0.0
 14
93.057408313
 24
216.085800998
 34
0.0
 50
90.0
100
AcDbRotatedDimension
1001
ACAD
1000
DSTYLE
1002
{
1070
    77
1070
     3
1070
   143
1040
0.0393700787
1070
    41
1040
3.0
1070
    44
1040
1.0
1070
    42
1040
1.0
1070
   147
1040
1.524
1070
    73
1070
     0
1070
    74
1070
     0
1070
   140
1040
3.5
1070
   284
1070
    12
1070
    78
1070
    12
1002
}
  0
DIMENSION
  5
1FE
330
1F
100
AcDbEntity
  8
SLD-0
 62
     7
100
AcDbDimension
  2
*D19
 10
68.057408313
 20
172.3558064516
 30
0.0
 11
61.807408313
 21
172.3558064516
 31
0.0
 70
   160
 71
     1
 42
12.5
  3
SLDDIMSTYLE0
100
AcDbAlignedDimension
 13
55.557408313
 23
188.585800998
 33
0.0
 14
68.057408313
 24
185.335800998
 34
0.0
100
AcDbRotatedDimension
1001
ACAD
1000
DSTYLE
1002
{
1070
    77
1070
     3
1070
   143
1040
0.0393700787
1070
    41
1040
3.0
1070
    44
1040
1.0
1070
    42
1040
1.0
1070
   147
1040
1.524
1070
    73
1070
     0
1070
    74
1070
     0
1070
   140
1040
3.5
1070
   284
1070
    12
1070
    78
1070
    12
1002
}
  0
DIMENSION
  5
217
330
1F
100
AcDbEntity
  8
SLD-0
 62
     7
100
AcDbDimension
  2
*D20
 10
126.9544207217
 20
238.585800998
 30
0.0
 11
126.9544207217
 21
211.085800998
 31
0.0
 70
   160
 71
     1
 42
55.0
  3
SLDDIMSTYLE1
100
AcDbAlignedDimension
 13
100.557408313
 23
183.585800998
 33
0.0
 14
100.557408313
 24
238.585800998
 34
0.0
 50
90.0
100
AcDbRotatedDimension
1001
ACAD
1000
DSTYLE
1002
{
1070
    77
1070
     3
1070
   143
1040
0.0393700787
1070
    41
1040
3.0
1070
    44
1040
1.0
1070
    42
1040
1.0
1070
   147
1040
1.524
1070
    73
1070
     0
1070
    74
1070
     0
1070
   140
1040
3.5
1070
   284
1070
    12
1070
    78
1070
    12
1002
}
  0
DIMENSION
  5
22F
330
1F
100
AcDbEntity
  8
SLD-0
 62
     7
100
AcDbDimension
  2
*D21
 10
125.5567276653
 20
91.5674205344
 30
0.0
 11
153.0567276653
 21
91.5674205344
 31
0.0
 70
   160
 71
     1
 42
55.0
  3
SLDDIMSTYLE1
100
AcDbAlignedDimension
 13
180.5567276653
 23
107.1591198044
 33
0.0
 14
125.5567276653
 24
107.1591198044
 34
0.0
100
AcDbRotatedDimension
1001
ACAD
1000
DSTYLE
1002
{
1070
    77
1070
     3
1070
   143
1040
0.0393700787
1070
    41
1040
3.0
1070
    44
1040
1.0
1070
    42
1040
1.0
1070
   147
1040
1.524
1070
    73
1070
     0
1070
    74
1070
     0
1070
   140
1040
3.5
1070
   284
1070
    12
1070
    78
1070
    12
1002
}
  0
DIMENSION
  5
246
330
1F
100
AcDbEntity
  8
SLD-0
 62
     7
100
AcDbDimension
  2
*D22
 10
180.5567276653
 20
147.3549635885
 30
0.0
 11
178.0567276653
 21
147.3549635885
 31
0.0
 70
   160
 71
     1
 42
5.0
  3
SLDDIMSTYLE1
100
AcDbAlignedDimension
 13
175.5567276653
 23
124.6591198044
 33
0.0
 14
180.5567276653
 24
124.6591198044
 34
0.0
100
AcDbRotatedDimension
1001
ACAD
1000
DSTYLE
1002
{
1070
    77
1070
     3
1070
   143
1040
0.0393700787
1070
    41
1040
3.0
1070
    44
1040
1.0
1070
    42
1040
1.0
1070
   147
1040
1.524
1070
    73
1070
     0
1070
    74
1070
     0
1070
   140
1040
3.5
1070
   284
1070
    12
1070
    78
1070
    12
1002
}
  0
MTEXT
  5
260
330
1F
100
AcDbEntity
  8
SLD-0
 62
     7
100
AcDbMText
 10
149.6535070332
 20
14.5007674869
 30
0.0
 40
3.5
 41
0.0
 71
     1
 72
     1
  1
131041
  7
SLDTEXTSTYLE0
 73
     1
 44
1.0
  0
MTEXT
  5
261
330
1F
100
AcDbEntity
  8
SLD-0
 62
     7
100
AcDbMText
 10
147.3211389501
 20
27.843893897
 30
0.0
 40
3.5
 41
0.0
 71
     1
 72
     1
  1
N01912-301-0
  7
SLDTEXTSTYLE0
 73
     1
 44
1.0
  0
MTEXT
  5
263
330
1F
100
AcDbEntity
  8
SLD-0
 62
     7
100
AcDbMText
 10
133.9240136206
 20
41.3677075138
 30
0.0
 40
3.5
 41
0.0
 71
     1
 72
     1
  1
25-50 Connecter Block A
  7
SLDTEXTSTYLE2
 73
     1
 44
1.0
  0
INSERT
  5
264
330
1F
100
AcDbEntity
  8
0
  6
Continuous
 62
     7
370
     0
100
AcDbBlockReference
  2
注記
 10
108.890463964
 20
54.3643271991
 30
0.0
  0
INSERT
  5
265
330
1F
100
AcDbEntity
  8
0
  6
Continuous
 62
     7
370
     0
100
AcDbBlockReference
  2
SW_CENTERMARK0
 10
0.0
 20
0.0
 30
0.0
  0
INSERT
  5
266
330
1F
100
AcDbEntity
  8
0
  6
Continuous
 62
     7
370
     0
100
AcDbBlockReference
  2
SW_CENTERMARK1
 10
0.0
 20
0.0
 30
0.0
  0
INSERT
  5
267
330
1F
100
AcDbEntity
  8
0
  6
Continuous
 62
     7
370
     0
100
AcDbBlockReference
  2
SW_CENTERMARK2
 10
0.0
 20
0.0
 30
0.0
  0
INSERT
  5
268
330
1F
100
AcDbEntity
  8
0
  6
Continuous
 62
     7
370
     0
100
AcDbBlockReference
  2
SW_CENTERMARK3
 10
0.0
 20
0.0
 30
0.0
  0
INSERT
  5
269
330
1F
100
AcDbEntity
  8
0
  6
Continuous
 62
     7
370
     0
100
AcDbBlockReference
  2
SW_CENTERMARK4
 10
0.0
 20
0.0
 30
0.0
  0
INSERT
  5
26A
330
1F
100
AcDbEntity
  8
0
  6
Continuous
 62
     7
370
     0
100
AcDbBlockReference
  2
SW_CENTERMARK5
 10
0.0
 20
0.0
 30
0.0
  0
ENDSEC
  0
SECTION
  2
OBJECTS
  0
DICTIONARY
  5
C
330
0
100
AcDbDictionary
281
     1
  3
ACAD_GROUP
350
D
  3
ACAD_LAYOUT
350
1A
  3
ACAD_MLINESTYLE
350
17
  3
ACAD_PLOTSETTINGS
350
19
  3
ACAD_PLOTSTYLENAME
350
E
  0
DICTIONARY
  5
D
102
{ACAD_REACTORS
330
C
102
}
330
C
100
AcDbDictionary
281
     1
  0
DICTIONARY
  5
1A
102
{ACAD_REACTORS
330
C
102
}
330
C
100
AcDbDictionary
281
     1
  3
Layout1
350
1E
  3
Layout2
350
26
  3
Model
350
22
  0
DICTIONARY
  5
17
102
{ACAD_REACTORS
330
C
102
}
330
C
100
AcDbDictionary
281
     1
  3
Standard
350
18
  0
DICTIONARY
  5
19
102
{ACAD_REACTORS
330
C
102
}
330
C
100
AcDbDictionary
281
     1
  0
ACDBDICTIONARYWDFLT
  5
E
102
{ACAD_REACTORS
330
C
102
}
330
C
100
AcDbDictionary
281
     1
  3
Normal
350
F
100
AcDbDictionaryWithDefault
340
F
  0
LAYOUT
  5
1E
102
{ACAD_REACTORS
330
1A
102
}
330
1A
100
AcDbPlotSettings
  1

  2

  4

  6

 40
0.0
 41
0.0
 42
0.0
 43
0.0
 44
0.0
 45
0.0
 46
0.0
 47
0.0
 48
0.0
 49
0.0
140
0.0
141
0.0
142
1.0
143
1.0
 70
   688
 72
     0
 73
     0
 74
     5
  7

 75
    16
147
1.0
148
0.0
149
0.0
100
AcDbLayout
  1
Layout1
 70
     1
 71
     1
 10
0.0
 20
0.0
 11
0.0
 21
0.0
 12
0.0
 22
0.0
 32
0.0
 14
0.0
 24
0.0
 34
0.0
 15
0.0
 25
0.0
 35
0.0
146
0.0
 13
0.0
 23
0.0
 33
0.0
 16
1.0
 26
0.0
 36
0.0
 17
0.0
 27
1.0
 37
0.0
 76
     0
330
1B
  0
LAYOUT
  5
26
102
{ACAD_REACTORS
330
1A
102
}
330
1A
100
AcDbPlotSettings
  1

  2

  4

  6

 40
0.0
 41
0.0
 42
0.0
 43
0.0
 44
0.0
 45
0.0
 46
0.0
 47
0.0
 48
0.0
 49
0.0
140
0.0
141
0.0
142
1.0
143
1.0
 70
   688
 72
     0
 73
     0
 74
     5
  7

 75
    16
147
1.0
148
0.0
149
0.0
100
AcDbLayout
  1
Layout2
 70
     1
 71
     2
 10
0.0
 20
0.0
 11
0.0
 21
0.0
 12
0.0
 22
0.0
 32
0.0
 14
0.0
 24
0.0
 34
0.0
 15
0.0
 25
0.0
 35
0.0
146
0.0
 13
0.0
 23
0.0
 33
0.0
 16
1.0
 26
0.0
 36
0.0
 17
0.0
 27
1.0
 37
0.0
 76
     0
330
23
  0
LAYOUT
  5
22
102
{ACAD_REACTORS
330
1A
102
}
330
1A
100
AcDbPlotSettings
  1

  2

  4

  6

 40
0.0
 41
0.0
 42
0.0
 43
0.0
 44
0.0
 45
0.0
 46
0.0
 47
0.0
 48
0.0
 49
0.0
140
0.0
141
0.0
142
1.0
143
1.0
 70
  1712
 72
     0
 73
     0
 74
     0
  7

 75
     0
147
1.0
148
0.0
149
0.0
100
AcDbLayout
  1
Model
 70
     1
 71
     0
 10
0.0
 20
0.0
 11
0.0
 21
0.0
 12
0.0
 22
0.0
 32
0.0
 14
0.0
 24
0.0
 34
0.0
 15
210.0
 25
297.0
 35
0.0
146
0.0
 13
0.0
 23
0.0
 33
0.0
 16
1.0
 26
0.0
 36
0.0
 17
0.0
 27
1.0
 37
0.0
 76
     0
330
1F
  0
MLINESTYLE
  5
18
102
{ACAD_REACTORS
330
17
102
}
330
17
100
AcDbMlineStyle
  2
Standard
 70
     0
  3

 62
   256
 51
90.0
 52
90.0
 71
     2
 49
0.5
 62
   256
  6
BYLAYER
 49
-0.5
 62
   256
  6
BYLAYER
  0
ACDBPLACEHOLDER
  5
F
102
{ACAD_REACTORS
330
E
102
}
330
E
  0
ENDSEC
  0
EOF
