  0
SECTION
  2
HEADER
  9
$ACADVER
  1
AC1015
  9
$ACADMAINTVER
 70
     6
  9
$DWGCODEPAGE
  3
DOS932
  9
$INSBASE
 10
0.0
 20
0.0
 30
0.0
  9
$EXTMIN
 10
0.0
 20
0.0
 30
0.0
  9
$EXTMAX
 10
210.0
 20
297.0
 30
0.0
  9
$LIMMIN
 10
0.0
 20
0.0
  9
$LIMMAX
 10
0.0
 20
0.0
  9
$ORTHOMODE
 70
     0
  9
$REGENMODE
 70
     1
  9
$FILLMODE
 70
     1
  9
$QTEXTMODE
 70
     0
  9
$MIRRTEXT
 70
     1
  9
$LTSCALE
 40
1.0
  9
$ATTMODE
 70
     1
  9
$TEXTSIZE
 40
3.5
  9
$TRACEWID
 40
1.0
  9
$TEXTSTYLE
  7
Standard
  9
$CLAYER
  8
0
  9
$CELTYPE
  6
ByLayer
  9
$CECOLOR
 62
   256
  9
$CELTSCALE
 40
1.0
  9
$DISPSILH
 70
     0
  9
$DIMSCALE
 40
1.0
  9
$DIMASZ
 40
3.0
  9
$DIMEXO
 40
1.0
  9
$DIMDLI
 40
3.75
  9
$DIMRND
 40
0.0
  9
$DIMDLE
 40
0.0
  9
$DIMEXE
 40
1.0
  9
$DIMTP
 40
0.0
  9
$DIMTM
 40
0.0
  9
$DIMTXT
 40
3.5
  9
$DIMCEN
 40
2.5
  9
$DIMTSZ
 40
0.0
  9
$DIMTOL
 70
     0
  9
$DIMLIM
 70
     0
  9
$DIMTIH
 70
     1
  9
$DIMTOH
 70
     1
  9
$DIMSE1
 70
     0
  9
$DIMSE2
 70
     0
  9
$DIMTAD
 70
     1
  9
$DIMZIN
 70
     1
  9
$DIMBLK
  1

  9
$DIMASO
 70
     1
  9
$DIMSHO
 70
     1
  9
$DIMPOST
  1

  9
$DIMAPOST
  1

  9
$DIMALT
 70
     0
  9
$DIMALTD
 70
     3
  9
$DIMALTF
 40
0.0393700787
  9
$DIMLFAC
 40
1.0
  9
$DIMTOFL
 70
     1
  9
$DIMTVP
 40
0.0
  9
$DIMTIX
 70
     0
  9
$DIMSOXD
 70
     0
  9
$DIMSAH
 70
     0
  9
$DIMBLK1
  1

  9
$DIMBLK2
  1

  9
$DIMSTYLE
  2
ISO-25
  9
$DIMCLRD
 70
     0
  9
$DIMCLRE
 70
     0
  9
$DIMCLRT
 70
     0
  9
$DIMTFAC
 40
1.0
  9
$DIMGAP
 40
1.524
  9
$DIMJUST
 70
     0
  9
$DIMSD1
 70
     0
  9
$DIMSD2
 70
     0
  9
$DIMTOLJ
 70
     0
  9
$DIMTZIN
 70
     1
  9
$DIMALTZ
 70
     0
  9
$DIMALTTZ
 70
     0
  9
$DIMUPT
 70
     0
  9
$DIMDEC
 70
     2
  9
$DIMTDEC
 70
     2
  9
$DIMALTU
 70
     2
  9
$DIMALTTD
 70
     3
  9
$DIMTXSTY
  7
Standard
  9
$DIMAUNIT
 70
     0
  9
$DIMADEC
 70
     0
  9
$DIMALTRND
 40
0.0
  9
$DIMAZIN
 70
     0
  9
$DIMDSEP
 70
    44
  9
$DIMATFIT
 70
     3
  9
$DIMFRAC
 70
     0
  9
$DIMLDRBLK
  1

  9
$DIMLUNIT
 70
     2
  9
$DIMLWD
 70
    -2
  9
$DIMLWE
 70
    -2
  9
$DIMTMOVE
 70
     0
  9
$LUNITS
 70
     2
  9
$LUPREC
 70
     1
  9
$SKETCHINC
 40
1.0
  9
$FILLETRAD
 40
10.0
  9
$AUNITS
 70
     0
  9
$AUPREC
 70
     0
  9
$MENU
  1
.
  9
$ELEVATION
 40
0.0
  9
$PELEVATION
 40
0.0
  9
$THICKNESS
 40
0.0
  9
$LIMCHECK
 70
     0
  9
$CHAMFERA
 40
10.0
  9
$CHAMFERB
 40
10.0
  9
$CHAMFERC
 40
20.0
  9
$CHAMFERD
 40
0.0
  9
$SKPOLY
 70
     0
  9
$TDCREATE
 40
2454309.452038484
  9
$TDUCREATE
 40
2454309.077038484
  9
$TDUPDATE
 40
2454309.452038495
  9
$TDUUPDATE
 40
2454309.077038495
  9
$TDINDWG
 40
0.0000000116
  9
$TDUSRTIMER
 40
0.0000000116
  9
$USRTIMER
 70
     1
  9
$ANGBASE
 50
0.0
  9
$ANGDIR
 70
     0
  9
$PDMODE
 70
     0
  9
$PDSIZE
 40
-1.0
  9
$PLINEWID
 40
0.0
  9
$SPLFRAME
 70
     0
  9
$SPLINETYPE
 70
     6
  9
$SPLINESEGS
 70
     8
  9
$HANDSEED
  5
1B7
  9
$SURFTAB1
 70
     6
  9
$SURFTAB2
 70
     6
  9
$SURFTYPE
 70
     6
  9
$SURFU
 70
     6
  9
$SURFV
 70
     6
  9
$UCSBASE
  2

  9
$UCSNAME
  2

  9
$UCSORG
 10
0.0
 20
0.0
 30
0.0
  9
$UCSXDIR
 10
1.0
 20
0.0
 30
0.0
  9
$UCSYDIR
 10
0.0
 20
1.0
 30
0.0
  9
$UCSORTHOREF
  2

  9
$UCSORTHOVIEW
 70
     0
  9
$UCSORGTOP
 10
0.0
 20
0.0
 30
0.0
  9
$UCSORGBOTTOM
 10
0.0
 20
0.0
 30
0.0
  9
$UCSORGLEFT
 10
0.0
 20
0.0
 30
0.0
  9
$UCSORGRIGHT
 10
0.0
 20
0.0
 30
0.0
  9
$UCSORGFRONT
 10
0.0
 20
0.0
 30
0.0
  9
$UCSORGBACK
 10
0.0
 20
0.0
 30
0.0
  9
$PUCSBASE
  2

  9
$PUCSNAME
  2

  9
$PUCSORG
 10
0.0
 20
0.0
 30
0.0
  9
$PUCSXDIR
 10
1.0
 20
0.0
 30
0.0
  9
$PUCSYDIR
 10
0.0
 20
1.0
 30
0.0
  9
$PUCSORTHOREF
  2

  9
$PUCSORTHOVIEW
 70
     0
  9
$PUCSORGTOP
 10
0.0
 20
0.0
 30
0.0
  9
$PUCSORGBOTTOM
 10
0.0
 20
0.0
 30
0.0
  9
$PUCSORGLEFT
 10
0.0
 20
0.0
 30
0.0
  9
$PUCSORGRIGHT
 10
0.0
 20
0.0
 30
0.0
  9
$PUCSORGFRONT
 10
0.0
 20
0.0
 30
0.0
  9
$PUCSORGBACK
 10
0.0
 20
0.0
 30
0.0
  9
$USERI1
 70
     0
  9
$USERI2
 70
     0
  9
$USERI3
 70
     0
  9
$USERI4
 70
     0
  9
$USERI5
 70
     0
  9
$USERR1
 40
0.0
  9
$USERR2
 40
0.0
  9
$USERR3
 40
0.0
  9
$USERR4
 40
0.0
  9
$USERR5
 40
0.0
  9
$WORLDVIEW
 70
     1
  9
$SHADEDGE
 70
     3
  9
$SHADEDIF
 70
    70
  9
$TILEMODE
 70
     1
  9
$MAXACTVP
 70
    64
  9
$PINSBASE
 10
0.0
 20
0.0
 30
0.0
  9
$PLIMCHECK
 70
     0
  9
$PEXTMIN
 10
1.0000000000E+20
 20
1.0000000000E+20
 30
1.0000000000E+20
  9
$PEXTMAX
 10
-1.0000000000E+20
 20
-1.0000000000E+20
 30
-1.0000000000E+20
  9
$PLIMMIN
 10
0.0
 20
0.0
  9
$PLIMMAX
 10
420.0
 20
297.0
  9
$UNITMODE
 70
     0
  9
$VISRETAIN
 70
     1
  9
$PLINEGEN
 70
     0
  9
$PSLTSCALE
 70
     1
  9
$TREEDEPTH
 70
  3020
  9
$CMLSTYLE
  2
Standard
  9
$CMLJUST
 70
     0
  9
$CMLSCALE
 40
20.0
  9
$PROXYGRAPHICS
 70
     1
  9
$MEASUREMENT
 70
     1
  9
$CELWEIGHT
370
    -1
  9
$ENDCAPS
280
     0
  9
$JOINSTYLE
280
     0
  9
$LWDISPLAY
290
     1
  9
$INSUNITS
 70
     4
  9
$HYPERLINKBASE
  1

  9
$STYLESHEET
  1

  9
$XEDIT
290
     1
  9
$CEPSNTYPE
380
     0
  9
$PSTYLEMODE
290
     1
  9
$FINGERPRINTGUID
  2
{065AF44E-C6EE-4A5F-AE0A-94ACA8DE24DB}
  9
$VERSIONGUID
  2
{FAEB1C32-E019-11D5-929B-00C0DF256EC4}
  9
$EXTNAMES
290
     1
  9
$PSVPSCALE
 40
0.0
  9
$OLESTARTUP
290
     0
  0
ENDSEC
  0
SECTION
  2
CLASSES
  0
CLASS
  1
ACDBDICTIONARYWDFLT
  2
AcDbDictionaryWithDefault
  3
ObjectDBX Classes
 90
        0
280
     0
281
     0
  0
CLASS
  1
ACDBPLACEHOLDER
  2
AcDbPlaceHolder
  3
ObjectDBX Classes
 90
        0
280
     0
281
     0
  0
CLASS
  1
LAYOUT
  2
AcDbLayout
  3
ObjectDBX Classes
 90
        0
280
     0
281
     0
  0
ENDSEC
  0
SECTION
  2
TABLES
  0
TABLE
  2
VPORT
  5
8
330
0
100
AcDbSymbolTable
 70
     1
  0
VPORT
  5
29
330
8
100
AcDbSymbolTableRecord
100
AcDbViewportTableRecord
  2
*Active
 70
     0
 10
0.0
 20
0.0
 11
1.0
 21
1.0
 12
105.0
 22
148.5
 13
0.0
 23
0.0
 14
10.0
 24
10.0
 15
10.0
 25
10.0
 16
0.0
 26
0.0
 36
1.0
 17
0.0
 27
0.0
 37
0.0
 40
297.0
 41
1.9729729729
 42
50.0
 43
0.0
 44
0.0
 50
0.0
 51
0.0
 71
     0
 72
  2000
 73
     1
 74
     3
 75
     0
 76
     0
 77
     0
 78
     0
281
     0
 65
     1
110
0.0
120
0.0
130
0.0
111
1.0
121
0.0
131
0.0
112
0.0
122
1.0
132
0.0
 79
     0
146
0.0
  0
ENDTAB
  0
TABLE
  2
LTYPE
  5
5
330
0
100
AcDbSymbolTable
 70
     6
  0
LTYPE
  5
14
330
5
100
AcDbSymbolTableRecord
100
AcDbLinetypeTableRecord
  2
ByBlock
 70
     0
  3

 72
    65
 73
     0
 40
0.0
  0
LTYPE
  5
15
330
5
100
AcDbSymbolTableRecord
100
AcDbLinetypeTableRecord
  2
ByLayer
 70
     0
  3

 72
    65
 73
     0
 40
0.0
  0
LTYPE
  5
16
330
5
100
AcDbSymbolTableRecord
100
AcDbLinetypeTableRecord
  2
Continuous
 70
     0
  3
Solid line
 72
    65
 73
     0
 40
0.0
  0
LTYPE
  5
2A
330
5
100
AcDbSymbolTableRecord
100
AcDbLinetypeTableRecord
  2
HIDDEN
 70
     0
  3
Hidden __ __ __ __ __ __ __ __ __ __ __ __ __ __
 72
    65
 73
     2
 40
1.905
 49
1.27
 74
     0
 49
-0.635
 74
     0
  0
LTYPE
  5
2B
330
5
100
AcDbSymbolTableRecord
100
AcDbLinetypeTableRecord
  2
PHANTOM
 70
     0
  3
Phantom ______  __  __  ______  __  __  ______
 72
    65
 73
     6
 40
12.7
 49
6.35
 74
     0
 49
-1.27
 74
     0
 49
1.27
 74
     0
 49
-1.27
 74
     0
 49
1.27
 74
     0
 49
-1.27
 74
     0
  0
LTYPE
  5
2C
330
5
100
AcDbSymbolTableRecord
100
AcDbLinetypeTableRecord
  2
CENTER
 70
     0
  3
Center ____ _ ____ _ ____ _ ____ _ ____ _ ____
 72
    65
 73
     4
 40
10.16
 49
6.35
 74
     0
 49
-1.27
 74
     0
 49
1.27
 74
     0
 49
-1.27
 74
     0
  0
LTYPE
  5
2D
330
5
100
AcDbSymbolTableRecord
100
AcDbLinetypeTableRecord
  2
CENTERX2
 70
     0
  3
Center (2x) ________  __  ________  __  _____
 72
    65
 73
     4
 40
20.32
 49
12.7
 74
     0
 49
-2.54
 74
     0
 49
2.54
 74
     0
 49
-2.54
 74
     0
  0
LTYPE
  5
2E
330
5
100
AcDbSymbolTableRecord
100
AcDbLinetypeTableRecord
  2
DOT2
 70
     0
  3
Dot (.5x) ........................................
 72
    65
 73
     2
 40
0.635
 49
0.0
 74
     0
 49
-0.635
 74
     0
  0
ENDTAB
  0
TABLE
  2
LAYER
  5
2
330
0
100
AcDbSymbolTable
 70
     6
  0
LAYER
  5
10
330
2
100
AcDbSymbolTableRecord
100
AcDbLayerTableRecord
  2
0
 70
     0
 62
     7
  6
Continuous
370
    -3
390
F
  0
LAYER
  5
2F
330
2
100
AcDbSymbolTableRecord
100
AcDbLayerTableRecord
  2
SLD-0_0
 70
     0
 62
   179
  6
Continuous
370
     0
390
F
  0
LAYER
  5
30
330
2
100
AcDbSymbolTableRecord
100
AcDbLayerTableRecord
  2
SLD-0
 70
     0
 62
   179
  6
Continuous
370
     0
390
F
  0
LAYER
  5
31
330
2
100
AcDbSymbolTableRecord
100
AcDbLayerTableRecord
  2
SLD-DEFPOINTS
 70
     0
 62
   179
  6
Continuous
370
     0
390
F
  0
LAYER
  5
32
330
2
100
AcDbSymbolTableRecord
100
AcDbLayerTableRecord
  2
SLD-DEFPOINTS_0
 70
     0
 62
   179
  6
Continuous
370
     0
390
F
  0
LAYER
  5
A0
330
2
100
AcDbSymbolTableRecord
100
AcDbLayerTableRecord
  2
Defpoints
 70
     0
 62
     7
  6
Continuous
290
     0
370
    -3
390
F
  0
ENDTAB
  0
TABLE
  2
STYLE
  5
3
330
0
100
AcDbSymbolTable
 70
     5
  0
STYLE
  5
11
330
3
100
AcDbSymbolTableRecord
100
AcDbTextStyleTableRecord
  2
Standard
 70
     0
 40
0.0
 41
1.0
 50
0.0
 71
     0
 42
2.5
  3
txt
  4
bigfont
  0
STYLE
  5
36
330
3
100
AcDbSymbolTableRecord
100
AcDbTextStyleTableRecord
  2
SLDTEXTSTYLE0
 70
     0
 40
0.0
 41
0.7
 50
0.0
 71
     0
 42
0.2
  3
TXT
  4
bigfont
  0
STYLE
  5
3E
330
3
100
AcDbSymbolTableRecord
100
AcDbTextStyleTableRecord
  2
SLDTEXTSTYLE1
 70
     0
 40
0.0
 41
0.407202216
 50
0.0
 71
     0
 42
0.2
  3
TXT
  4
bigfont
  0
STYLE
  5
1AA
330
3
100
AcDbSymbolTableRecord
100
AcDbTextStyleTableRecord
  2
SLDTEXTSTYLE2
 70
     0
 40
0.0
 41
0.5157894737
 50
0.0
 71
     0
 42
0.2
  3
TXT
  4
bigfont
  0
STYLE
  5
1AD
330
3
100
AcDbSymbolTableRecord
100
AcDbTextStyleTableRecord
  2
SLDTEXTSTYLE3
 70
     0
 40
0.0
 41
0.3187628033
 50
0.0
 71
     0
 42
0.2
  3
TXT
  4
bigfont
  0
ENDTAB
  0
TABLE
  2
VIEW
  5
6
330
0
100
AcDbSymbolTable
 70
     0
  0
ENDTAB
  0
TABLE
  2
UCS
  5
7
330
0
100
AcDbSymbolTable
 70
     0
  0
ENDTAB
  0
TABLE
  2
APPID
  5
9
330
0
100
AcDbSymbolTable
 70
     1
  0
APPID
  5
12
330
9
100
AcDbSymbolTableRecord
100
AcDbRegAppTableRecord
  2
ACAD
 70
     0
  0
ENDTAB
  0
TABLE
  2
DIMSTYLE
  5
A
330
0
100
AcDbSymbolTable
 70
     5
100
AcDbDimStyleTable
  0
DIMSTYLE
105
27
330
A
100
AcDbSymbolTableRecord
100
AcDbDimStyleTableRecord
  2
ISO-25
 70
     0
 41
2.5
 42
0.625
 43
3.75
 44
1.25
 73
     0
 74
     0
 77
     1
 78
     8
140
2.5
141
2.5
143
0.0393700787
147
0.625
171
     3
172
     1
271
     2
272
     2
274
     3
278
    44
283
     0
284
     8
340
11
  0
DIMSTYLE
105
AE
102
{ACAD_REACTORS
330
9F
330
BC
330
EE
330
105
330
11E
330
135
330
14C
330
17A
102
}
330
A
100
AcDbSymbolTableRecord
100
AcDbDimStyleTableRecord
  2
SLDDIMSTYLE0
 70
     0
 41
3.0
 44
0.0
 73
     0
 74
     0
 77
     3
 78
    12
140
3.5
147
0.875
173
     1
271
     0
272
     3
284
    12
340
3E
341
AF
343
AF
344
AF
  0
DIMSTYLE
105
E1
102
{ACAD_REACTORS
330
D4
102
}
330
A
100
AcDbSymbolTableRecord
100
AcDbDimStyleTableRecord
  2
SLDDIMSTYLE1
 70
     0
 41
3.0
 44
0.0
 73
     0
 74
     0
 77
     3
 78
    12
140
3.5
147
0.875
173
     1
271
     0
272
     3
284
    12
340
3E
341
E2
343
E2
344
E2
  0
DIMSTYLE
105
171
102
{ACAD_REACTORS
330
163
102
}
330
A
100
AcDbSymbolTableRecord
100
AcDbDimStyleTableRecord
  2
SLDDIMSTYLE2
 70
     0
 41
3.0
 44
0.0
 73
     0
 74
     0
 77
     3
 78
    12
140
3.5
147
0.875
173
     1
271
     1
272
     3
284
    12
340
3E
341
E2
343
E2
344
E2
  0
DIMSTYLE
105
19E
102
{ACAD_REACTORS
330
191
102
}
330
A
100
AcDbSymbolTableRecord
100
AcDbDimStyleTableRecord
  2
SLDDIMSTYLE3
 70
     0
 41
3.0
 44
0.0
 73
     0
 74
     0
 77
     3
 78
    12
140
3.5
147
0.875
173
     1
271
     1
272
     3
284
    12
340
3E
341
AF
343
AF
344
AF
  0
ENDTAB
  0
TABLE
  2
BLOCK_RECORD
  5
1
330
0
100
AcDbSymbolTable
 70
    22
  0
BLOCK_RECORD
  5
1F
330
1
100
AcDbSymbolTableRecord
100
AcDbBlockTableRecord
  2
*Model_Space
340
22
  0
BLOCK_RECORD
  5
1B
330
1
100
AcDbSymbolTableRecord
100
AcDbBlockTableRecord
  2
*Paper_Space
340
1E
  0
BLOCK_RECORD
  5
23
330
1
100
AcDbSymbolTableRecord
100
AcDbBlockTableRecord
  2
*Paper_Space0
340
26
  0
BLOCK_RECORD
  5
33
330
1
100
AcDbSymbolTableRecord
100
AcDbBlockTableRecord
  2
注記
340
0
102
{BLKREFS
331
1B0
102
}
  0
BLOCK_RECORD
  5
39
330
1
100
AcDbSymbolTableRecord
100
AcDbBlockTableRecord
  2
SURFACEFINISH40
340
0
102
{BLKREFS
331
1AF
102
}
  0
BLOCK_RECORD
  5
40
330
1
100
AcDbSymbolTableRecord
100
AcDbBlockTableRecord
  2
SW_CENTERMARK0
340
0
102
{BLKREFS
331
1B1
102
}
  0
BLOCK_RECORD
  5
4B
330
1
100
AcDbSymbolTableRecord
100
AcDbBlockTableRecord
  2
SW_CENTERMARK1
340
0
102
{BLKREFS
331
1B2
102
}
  0
BLOCK_RECORD
  5
56
330
1
100
AcDbSymbolTableRecord
100
AcDbBlockTableRecord
  2
SW_CENTERMARK2
340
0
102
{BLKREFS
331
1B3
102
}
  0
BLOCK_RECORD
  5
61
330
1
100
AcDbSymbolTableRecord
100
AcDbBlockTableRecord
  2
SW_CENTERMARK3
340
0
102
{BLKREFS
331
1B4
102
}
  0
BLOCK_RECORD
  5
6C
330
1
100
AcDbSymbolTableRecord
100
AcDbBlockTableRecord
  2
SW_CENTERMARK4
340
0
102
{BLKREFS
331
1B5
102
}
  0
BLOCK_RECORD
  5
77
330
1
100
AcDbSymbolTableRecord
100
AcDbBlockTableRecord
  2
SW_CENTERMARK5
340
0
102
{BLKREFS
331
1B6
102
}
  0
BLOCK_RECORD
  5
A1
330
1
100
AcDbSymbolTableRecord
100
AcDbBlockTableRecord
  2
*D9
340
0
  0
BLOCK_RECORD
  5
AF
330
1
100
AcDbSymbolTableRecord
100
AcDbBlockTableRecord
  2
_None
340
0
102
{BLKREFS
331
A6
331
A5
331
C2
331
C1
331
F4
331
F3
331
10B
331
10A
331
124
331
123
331
13B
331
13A
331
152
331
151
331
180
331
17F
331
197
331
196
102
}
  0
BLOCK_RECORD
  5
BD
330
1
100
AcDbSymbolTableRecord
100
AcDbBlockTableRecord
  2
*D11
340
0
  0
BLOCK_RECORD
  5
D5
330
1
100
AcDbSymbolTableRecord
100
AcDbBlockTableRecord
  2
*D12
340
0
  0
BLOCK_RECORD
  5
E2
330
1
100
AcDbSymbolTableRecord
100
AcDbBlockTableRecord
  2
_Open30
340
0
102
{BLKREFS
331
DA
331
D9
331
E8
331
E9
331
169
331
168
331
172
331
173
102
}
  0
BLOCK_RECORD
  5
EF
330
1
100
AcDbSymbolTableRecord
100
AcDbBlockTableRecord
  2
*D14
340
0
  0
BLOCK_RECORD
  5
106
330
1
100
AcDbSymbolTableRecord
100
AcDbBlockTableRecord
  2
*D15
340
0
  0
BLOCK_RECORD
  5
11F
330
1
100
AcDbSymbolTableRecord
100
AcDbBlockTableRecord
  2
*D16
340
0
  0
BLOCK_RECORD
  5
136
330
1
100
AcDbSymbolTableRecord
100
AcDbBlockTableRecord
  2
*D17
340
0
  0
BLOCK_RECORD
  5
14D
330
1
100
AcDbSymbolTableRecord
100
AcDbBlockTableRecord
  2
*D18
340
0
  0
BLOCK_RECORD
  5
164
330
1
100
AcDbSymbolTableRecord
100
AcDbBlockTableRecord
  2
*D19
340
0
  0
BLOCK_RECORD
  5
17B
330
1
100
AcDbSymbolTableRecord
100
AcDbBlockTableRecord
  2
*D20
340
0
  0
BLOCK_RECORD
  5
192
330
1
100
AcDbSymbolTableRecord
100
AcDbBlockTableRecord
  2
*D21
340
0
  0
ENDTAB
  0
ENDSEC
  0
SECTION
  2
BLOCKS
  0
BLOCK
  5
20
330
1F
100
AcDbEntity
  8
0
100
AcDbBlockBegin
  2
*Model_Space
 70
     0
 71
     0
 10
0.0
 20
0.0
 30
0.0
  3
*Model_Space
  1

  0
ENDBLK
  5
21
330
1F
100
AcDbEntity
  8
0
100
AcDbBlockEnd
  0
BLOCK
  5
1C
330
1B
100
AcDbEntity
 67
     1
  8
0
100
AcDbBlockBegin
  2
*Paper_Space
 70
     0
 71
     0
 10
0.0
 20
0.0
 30
0.0
  3
*Paper_Space
  1

  0
ENDBLK
  5
1D
330
1B
100
AcDbEntity
 67
     1
  8
0
100
AcDbBlockEnd
  0
BLOCK
  5
24
330
23
100
AcDbEntity
  8
0
100
AcDbBlockBegin
  2
*Paper_Space0
 70
     0
 71
     0
 10
0.0
 20
0.0
 30
0.0
  3
*Paper_Space0
  1

  0
ENDBLK
  5
25
330
23
100
AcDbEntity
  8
0
100
AcDbBlockEnd
  0
BLOCK
  5
34
330
33
100
AcDbEntity
  8
0
100
AcDbBlockBegin
  2
注記
 70
     0
 71
     0
 10
0.0
 20
0.0
 30
0.0
  3
注記
  1

  0
MTEXT
  5
37
330
33
100
AcDbEntity
  8
0
  6
Continuous
 62
     7
370
     0
100
AcDbMText
 10
0.2636785918
 20
9.0739778448
 30
0.0
 40
3.5
 41
0.0
 71
     1
 72
     1
  1
１．特記ナキ角部ハ、バリ　カエリノ無キコト。
  7
SLDTEXTSTYLE0
 73
     1
 44
1.0
  0
MTEXT
  5
38
330
33
100
AcDbEntity
  8
0
  6
Continuous
 62
     7
370
     0
100
AcDbMText
 10
0.2636785918
 20
3.5759549983
 30
0.0
 40
3.5
 41
0.0
 71
     1
 72
     1
  1
２．特記ナキ隅部ハ、Ｒ０．４ＭＡＸトスル。
  7
SLDTEXTSTYLE0
 73
     1
 44
1.0
  0
ENDBLK
  5
35
330
33
100
AcDbEntity
  8
0
100
AcDbBlockEnd
  0
BLOCK
  5
3A
330
39
100
AcDbEntity
  8
0
100
AcDbBlockBegin
  2
SURFACEFINISH40
 70
     0
 71
     0
 10
0.0
 20
0.0
 30
0.0
  3
SURFACEFINISH40
  1

  0
LINE
  5
3C
330
39
100
AcDbEntity
  8
SLD-0
  6
Continuous
 62
   179
100
AcDbLine
 10
0.6656399396
 20
-6.0449245738
 30
0.0
 11
-2.9003789868
 21
0.0000001164
 31
0.0
  0
LINE
  5
3D
330
39
100
AcDbEntity
  8
SLD-0
  6
Continuous
 62
   179
100
AcDbLine
 10
0.6656399396
 20
-6.0449245738
 30
0.0
 11
7.7976777926
 21
6.0449248066
 31
0.0
  0
MTEXT
  5
3F
330
39
100
AcDbEntity
  8
SLD-0
100
AcDbMText
 10
0.0
 20
4.3931031597
 30
0.0
 40
3.175
 41
0.0
 71
     1
 72
     1
  1
25
  7
SLDTEXTSTYLE1
 73
     1
 44
1.0
  0
ENDBLK
  5
3B
330
39
100
AcDbEntity
  8
0
100
AcDbBlockEnd
  0
BLOCK
  5
41
330
40
100
AcDbEntity
  8
0
100
AcDbBlockBegin
  2
SW_CENTERMARK0
 70
     0
 71
     0
 10
0.0
 20
0.0
 30
0.0
  3
SW_CENTERMARK0
  1

  0
LINE
  5
43
330
40
100
AcDbEntity
  8
SLD-0
  6
Continuous
 62
   179
100
AcDbLine
 10
81.1060431081
 20
159.5719023731
 30
0.0
 11
81.1060431081
 21
162.0719023731
 31
0.0
  0
LINE
  5
44
330
40
100
AcDbEntity
  8
SLD-0
  6
Continuous
 62
   179
100
AcDbLine
 10
81.1060431081
 20
159.5719023731
 30
0.0
 11
78.6060431081
 21
159.5719023731
 31
0.0
  0
LINE
  5
45
330
40
100
AcDbEntity
  8
SLD-0
  6
Continuous
 62
   179
100
AcDbLine
 10
81.1060431081
 20
159.5719023731
 30
0.0
 11
81.1060431081
 21
157.0719023731
 31
0.0
  0
LINE
  5
46
330
40
100
AcDbEntity
  8
SLD-0
  6
Continuous
 62
   179
100
AcDbLine
 10
81.1060431081
 20
159.5719023731
 30
0.0
 11
83.6060431081
 21
159.5719023731
 31
0.0
  0
LINE
  5
47
330
40
100
AcDbEntity
  8
SLD-0
  6
Continuous
 62
   179
100
AcDbLine
 10
81.1060431081
 20
164.5719023731
 30
0.0
 11
81.1060431081
 21
165.1719023731
 31
0.0
  0
LINE
  5
48
330
40
100
AcDbEntity
  8
SLD-0
  6
Continuous
 62
   179
100
AcDbLine
 10
76.1060431081
 20
159.5719023731
 30
0.0
 11
75.5060431081
 21
159.5719023731
 31
0.0
  0
LINE
  5
49
330
40
100
AcDbEntity
  8
SLD-0
  6
Continuous
 62
   179
100
AcDbLine
 10
81.1060431081
 20
154.5719023731
 30
0.0
 11
81.1060431081
 21
153.9719023731
 31
0.0
  0
LINE
  5
4A
330
40
100
AcDbEntity
  8
SLD-0
  6
Continuous
 62
   179
100
AcDbLine
 10
86.1060431081
 20
159.5719023731
 30
0.0
 11
86.7060431081
 21
159.5719023731
 31
0.0
  0
ENDBLK
  5
42
330
40
100
AcDbEntity
  8
0
100
AcDbBlockEnd
  0
BLOCK
  5
4C
330
4B
100
AcDbEntity
  8
0
100
AcDbBlockBegin
  2
SW_CENTERMARK1
 70
     0
 71
     0
 10
0.0
 20
0.0
 30
0.0
  3
SW_CENTERMARK1
  1

  0
LINE
  5
4E
330
4B
100
AcDbEntity
  8
SLD-0
  6
Continuous
 62
   179
100
AcDbLine
 10
96.1060431081
 20
159.5719023731
 30
0.0
 11
96.1060431081
 21
162.0719023731
 31
0.0
  0
LINE
  5
4F
330
4B
100
AcDbEntity
  8
SLD-0
  6
Continuous
 62
   179
100
AcDbLine
 10
96.1060431081
 20
159.5719023731
 30
0.0
 11
93.6060431081
 21
159.5719023731
 31
0.0
  0
LINE
  5
50
330
4B
100
AcDbEntity
  8
SLD-0
  6
Continuous
 62
   179
100
AcDbLine
 10
96.1060431081
 20
159.5719023731
 30
0.0
 11
96.1060431081
 21
157.0719023731
 31
0.0
  0
LINE
  5
51
330
4B
100
AcDbEntity
  8
SLD-0
  6
Continuous
 62
   179
100
AcDbLine
 10
96.1060431081
 20
159.5719023731
 30
0.0
 11
98.6060431081
 21
159.5719023731
 31
0.0
  0
LINE
  5
52
330
4B
100
AcDbEntity
  8
SLD-0
  6
Continuous
 62
   179
100
AcDbLine
 10
96.1060431081
 20
164.5719023731
 30
0.0
 11
96.1060431081
 21
165.1719023731
 31
0.0
  0
LINE
  5
53
330
4B
100
AcDbEntity
  8
SLD-0
  6
Continuous
 62
   179
100
AcDbLine
 10
91.1060431081
 20
159.5719023731
 30
0.0
 11
90.5060431081
 21
159.5719023731
 31
0.0
  0
LINE
  5
54
330
4B
100
AcDbEntity
  8
SLD-0
  6
Continuous
 62
   179
100
AcDbLine
 10
96.1060431081
 20
154.5719023731
 30
0.0
 11
96.1060431081
 21
153.9719023731
 31
0.0
  0
LINE
  5
55
330
4B
100
AcDbEntity
  8
SLD-0
  6
Continuous
 62
   179
100
AcDbLine
 10
101.1060431081
 20
159.5719023731
 30
0.0
 11
101.7060431081
 21
159.5719023731
 31
0.0
  0
ENDBLK
  5
4D
330
4B
100
AcDbEntity
  8
0
100
AcDbBlockEnd
  0
BLOCK
  5
57
330
56
100
AcDbEntity
  8
0
100
AcDbBlockBegin
  2
SW_CENTERMARK2
 70
     0
 71
     0
 10
0.0
 20
0.0
 30
0.0
  3
SW_CENTERMARK2
  1

  0
LINE
  5
59
330
56
100
AcDbEntity
  8
SLD-0
  6
Continuous
 62
   179
100
AcDbLine
 10
111.1060431081
 20
159.5719023731
 30
0.0
 11
111.1060431081
 21
162.0719023731
 31
0.0
  0
LINE
  5
5A
330
56
100
AcDbEntity
  8
SLD-0
  6
Continuous
 62
   179
100
AcDbLine
 10
111.1060431081
 20
159.5719023731
 30
0.0
 11
108.6060431081
 21
159.5719023731
 31
0.0
  0
LINE
  5
5B
330
56
100
AcDbEntity
  8
SLD-0
  6
Continuous
 62
   179
100
AcDbLine
 10
111.1060431081
 20
159.5719023731
 30
0.0
 11
111.1060431081
 21
157.0719023731
 31
0.0
  0
LINE
  5
5C
330
56
100
AcDbEntity
  8
SLD-0
  6
Continuous
 62
   179
100
AcDbLine
 10
111.1060431081
 20
159.5719023731
 30
0.0
 11
113.6060431081
 21
159.5719023731
 31
0.0
  0
LINE
  5
5D
330
56
100
AcDbEntity
  8
SLD-0
  6
Continuous
 62
   179
100
AcDbLine
 10
111.1060431081
 20
164.5719023731
 30
0.0
 11
111.1060431081
 21
165.1719023731
 31
0.0
  0
LINE
  5
5E
330
56
100
AcDbEntity
  8
SLD-0
  6
Continuous
 62
   179
100
AcDbLine
 10
106.1060431081
 20
159.5719023731
 30
0.0
 11
105.5060431081
 21
159.5719023731
 31
0.0
  0
LINE
  5
5F
330
56
100
AcDbEntity
  8
SLD-0
  6
Continuous
 62
   179
100
AcDbLine
 10
111.1060431081
 20
154.5719023731
 30
0.0
 11
111.1060431081
 21
153.9719023731
 31
0.0
  0
LINE
  5
60
330
56
100
AcDbEntity
  8
SLD-0
  6
Continuous
 62
   179
100
AcDbLine
 10
116.1060431081
 20
159.5719023731
 30
0.0
 11
116.7060431081
 21
159.5719023731
 31
0.0
  0
ENDBLK
  5
58
330
56
100
AcDbEntity
  8
0
100
AcDbBlockEnd
  0
BLOCK
  5
62
330
61
100
AcDbEntity
  8
0
100
AcDbBlockBegin
  2
SW_CENTERMARK3
 70
     0
 71
     0
 10
0.0
 20
0.0
 30
0.0
  3
SW_CENTERMARK3
  1

  0
LINE
  5
64
330
61
100
AcDbEntity
  8
SLD-0
  6
Continuous
 62
   179
100
AcDbLine
 10
126.1060431081
 20
159.5719023731
 30
0.0
 11
126.1060431081
 21
162.0719023731
 31
0.0
  0
LINE
  5
65
330
61
100
AcDbEntity
  8
SLD-0
  6
Continuous
 62
   179
100
AcDbLine
 10
126.1060431081
 20
159.5719023731
 30
0.0
 11
123.6060431081
 21
159.5719023731
 31
0.0
  0
LINE
  5
66
330
61
100
AcDbEntity
  8
SLD-0
  6
Continuous
 62
   179
100
AcDbLine
 10
126.1060431081
 20
159.5719023731
 30
0.0
 11
126.1060431081
 21
157.0719023731
 31
0.0
  0
LINE
  5
67
330
61
100
AcDbEntity
  8
SLD-0
  6
Continuous
 62
   179
100
AcDbLine
 10
126.1060431081
 20
159.5719023731
 30
0.0
 11
128.6060431081
 21
159.5719023731
 31
0.0
  0
LINE
  5
68
330
61
100
AcDbEntity
  8
SLD-0
  6
Continuous
 62
   179
100
AcDbLine
 10
126.1060431081
 20
164.5719023731
 30
0.0
 11
126.1060431081
 21
165.1719023731
 31
0.0
  0
LINE
  5
69
330
61
100
AcDbEntity
  8
SLD-0
  6
Continuous
 62
   179
100
AcDbLine
 10
121.1060431081
 20
159.5719023731
 30
0.0
 11
120.5060431081
 21
159.5719023731
 31
0.0
  0
LINE
  5
6A
330
61
100
AcDbEntity
  8
SLD-0
  6
Continuous
 62
   179
100
AcDbLine
 10
126.1060431081
 20
154.5719023731
 30
0.0
 11
126.1060431081
 21
153.9719023731
 31
0.0
  0
LINE
  5
6B
330
61
100
AcDbEntity
  8
SLD-0
  6
Continuous
 62
   179
100
AcDbLine
 10
131.1060431081
 20
159.5719023731
 30
0.0
 11
131.7060431081
 21
159.5719023731
 31
0.0
  0
ENDBLK
  5
63
330
61
100
AcDbEntity
  8
0
100
AcDbBlockEnd
  0
BLOCK
  5
6D
330
6C
100
AcDbEntity
  8
0
100
AcDbBlockBegin
  2
SW_CENTERMARK4
 70
     0
 71
     0
 10
0.0
 20
0.0
 30
0.0
  3
SW_CENTERMARK4
  1

  0
LINE
  5
6F
330
6C
100
AcDbEntity
  8
SLD-0
  6
Continuous
 62
   179
100
AcDbLine
 10
103.6060431081
 20
182.0719023731
 30
0.0
 11
103.6060431081
 21
184.5719023731
 31
0.0
  0
LINE
  5
70
330
6C
100
AcDbEntity
  8
SLD-0
  6
Continuous
 62
   179
100
AcDbLine
 10
103.6060431081
 20
182.0719023731
 30
0.0
 11
101.1060431081
 21
182.0719023731
 31
0.0
  0
LINE
  5
71
330
6C
100
AcDbEntity
  8
SLD-0
  6
Continuous
 62
   179
100
AcDbLine
 10
103.6060431081
 20
182.0719023731
 30
0.0
 11
103.6060431081
 21
179.5719023731
 31
0.0
  0
LINE
  5
72
330
6C
100
AcDbEntity
  8
SLD-0
  6
Continuous
 62
   179
100
AcDbLine
 10
103.6060431081
 20
182.0719023731
 30
0.0
 11
106.1060431081
 21
182.0719023731
 31
0.0
  0
LINE
  5
73
330
6C
100
AcDbEntity
  8
SLD-0
  6
Continuous
 62
   179
100
AcDbLine
 10
103.6060431081
 20
187.0719023731
 30
0.0
 11
103.6060431081
 21
187.6719023731
 31
0.0
  0
LINE
  5
74
330
6C
100
AcDbEntity
  8
SLD-0
  6
Continuous
 62
   179
100
AcDbLine
 10
98.6060431081
 20
182.0719023731
 30
0.0
 11
98.0060431081
 21
182.0719023731
 31
0.0
  0
LINE
  5
75
330
6C
100
AcDbEntity
  8
SLD-0
  6
Continuous
 62
   179
100
AcDbLine
 10
103.6060431081
 20
177.0719023731
 30
0.0
 11
103.6060431081
 21
176.4719023731
 31
0.0
  0
LINE
  5
76
330
6C
100
AcDbEntity
  8
SLD-0
  6
Continuous
 62
   179
100
AcDbLine
 10
108.6060431081
 20
182.0719023731
 30
0.0
 11
109.2060431081
 21
182.0719023731
 31
0.0
  0
ENDBLK
  5
6E
330
6C
100
AcDbEntity
  8
0
100
AcDbBlockEnd
  0
BLOCK
  5
78
330
77
100
AcDbEntity
  8
0
100
AcDbBlockBegin
  2
SW_CENTERMARK5
 70
     0
 71
     0
 10
0.0
 20
0.0
 30
0.0
  3
SW_CENTERMARK5
  1

  0
LINE
  5
7A
330
77
100
AcDbEntity
  8
SLD-0
  6
Continuous
 62
   179
100
AcDbLine
 10
103.6060431081
 20
182.0719023731
 30
0.0
 11
103.6060431081
 21
184.5719023731
 31
0.0
  0
LINE
  5
7B
330
77
100
AcDbEntity
  8
SLD-0
  6
Continuous
 62
   179
100
AcDbLine
 10
103.6060431081
 20
182.0719023731
 30
0.0
 11
101.1060431081
 21
182.0719023731
 31
0.0
  0
LINE
  5
7C
330
77
100
AcDbEntity
  8
SLD-0
  6
Continuous
 62
   179
100
AcDbLine
 10
103.6060431081
 20
182.0719023731
 30
0.0
 11
103.6060431081
 21
179.5719023731
 31
0.0
  0
LINE
  5
7D
330
77
100
AcDbEntity
  8
SLD-0
  6
Continuous
 62
   179
100
AcDbLine
 10
103.6060431081
 20
182.0719023731
 30
0.0
 11
106.1060431081
 21
182.0719023731
 31
0.0
  0
LINE
  5
7E
330
77
100
AcDbEntity
  8
SLD-0
  6
Continuous
 62
   179
100
AcDbLine
 10
103.6060431081
 20
187.0719023731
 30
0.0
 11
103.6060431081
 21
187.6719023731
 31
0.0
  0
LINE
  5
7F
330
77
100
AcDbEntity
  8
SLD-0
  6
Continuous
 62
   179
100
AcDbLine
 10
98.6060431081
 20
182.0719023731
 30
0.0
 11
98.0060431081
 21
182.0719023731
 31
0.0
  0
LINE
  5
80
330
77
100
AcDbEntity
  8
SLD-0
  6
Continuous
 62
   179
100
AcDbLine
 10
103.6060431081
 20
177.0719023731
 30
0.0
 11
103.6060431081
 21
176.4719023731
 31
0.0
  0
LINE
  5
81
330
77
100
AcDbEntity
  8
SLD-0
  6
Continuous
 62
   179
100
AcDbLine
 10
108.6060431081
 20
182.0719023731
 30
0.0
 11
109.2060431081
 21
182.0719023731
 31
0.0
  0
ENDBLK
  5
79
330
77
100
AcDbEntity
  8
0
100
AcDbBlockEnd
  0
BLOCK
  5
AC
330
A1
100
AcDbEntity
  8
0
100
AcDbBlockBegin
  2
*D9
 70
     1
 71
     0
 10
0.0
 20
0.0
 30
0.0
  3
*D9
  1

  0
LINE
  5
B2
330
A1
100
AcDbEntity
  8
SLD-0
 62
     7
100
AcDbLine
 10
131.6060431081
 20
147.0719023731
 30
0.0
 11
164.9591881658
 21
147.0719023731
 31
0.0
  0
LINE
  5
B3
330
A1
100
AcDbEntity
  8
SLD-0
 62
     7
100
AcDbLine
 10
131.6060431081
 20
172.0719023731
 30
0.0
 11
164.9591881658
 21
172.0719023731
 31
0.0
  0
LINE
  5
B4
330
A1
100
AcDbEntity
  8
SLD-0
 62
     7
100
AcDbLine
 10
163.9591881658
 20
147.0719023731
 30
0.0
 11
163.9591881658
 21
172.0719023731
 31
0.0
  0
LINE
  5
B5
330
A1
100
AcDbEntity
  8
SLD-0
 62
     7
100
AcDbLine
 10
164.7630351658
 20
150.0719023731
 30
0.0
 11
163.9591881658
 21
147.0719023731
 31
0.0
  0
LINE
  5
B6
330
A1
100
AcDbEntity
  8
SLD-0
 62
     7
100
AcDbLine
 10
163.9591881658
 20
147.0719023731
 30
0.0
 11
163.1553411658
 21
150.0719023731
 31
0.0
  0
LINE
  5
B7
330
A1
100
AcDbEntity
  8
SLD-0
 62
     7
100
AcDbLine
 10
163.9591881658
 20
147.0719023731
 30
0.0
 11
163.9591881658
 21
150.0719023731
 31
0.0
  0
LINE
  5
B8
330
A1
100
AcDbEntity
  8
SLD-0
 62
     7
100
AcDbLine
 10
163.1553411658
 20
169.0719023731
 30
0.0
 11
163.9591881658
 21
172.0719023731
 31
0.0
  0
LINE
  5
B9
330
A1
100
AcDbEntity
  8
SLD-0
 62
     7
100
AcDbLine
 10
163.9591881658
 20
172.0719023731
 30
0.0
 11
164.7630351658
 21
169.0719023731
 31
0.0
  0
LINE
  5
BA
330
A1
100
AcDbEntity
  8
SLD-0
 62
     7
100
AcDbLine
 10
163.9591881658
 20
172.0719023731
 30
0.0
 11
163.9591881658
 21
169.0719023731
 31
0.0
  0
MTEXT
  5
BB
330
A1
100
AcDbEntity
  8
SLD-0
 62
     7
100
AcDbMText
 10
159.4324945863
 20
157.5364671499
 30
0.2
 40
3.5
 41
0.0
 71
     1
 72
     1
  1
25
  7
SLDTEXTSTYLE0
 11
6.123031769111886E-17
 21
1.0
 31
0.0
 73
     1
 44
1.0
  0
ENDBLK
  5
AD
330
A1
100
AcDbEntity
  8
0
100
AcDbBlockEnd
  0
BLOCK
  5
B0
330
AF
100
AcDbEntity
  8
0
100
AcDbBlockBegin
  2
_None
 70
     0
 71
     0
 10
0.0
 20
0.0
 30
0.0
  3
_None
  1

  0
ENDBLK
  5
B1
330
AF
100
AcDbEntity
  8
0
100
AcDbBlockEnd
  0
BLOCK
  5
C8
330
BD
100
AcDbEntity
  8
0
100
AcDbBlockBegin
  2
*D11
 70
     1
 71
     0
 10
0.0
 20
0.0
 30
0.0
  3
*D11
  1

  0
LINE
  5
CA
330
BD
100
AcDbEntity
  8
SLD-0
 62
     7
100
AcDbLine
 10
95.6060431081
 20
192.0719023731
 30
0.0
 11
50.9608312981
 21
192.0719023731
 31
0.0
  0
LINE
  5
CB
330
BD
100
AcDbEntity
  8
SLD-0
 62
     7
100
AcDbLine
 10
75.6060431081
 20
147.0719023731
 30
0.0
 11
50.9608312981
 21
147.0719023731
 31
0.0
  0
LINE
  5
CC
330
BD
100
AcDbEntity
  8
SLD-0
 62
     7
100
AcDbLine
 10
51.9608312981
 20
192.0719023731
 30
0.0
 11
51.9608312981
 21
147.0719023731
 31
0.0
  0
LINE
  5
CD
330
BD
100
AcDbEntity
  8
SLD-0
 62
     7
100
AcDbLine
 10
51.1569842981
 20
189.0719023731
 30
0.0
 11
51.9608312981
 21
192.0719023731
 31
0.0
  0
LINE
  5
CE
330
BD
100
AcDbEntity
  8
SLD-0
 62
     7
100
AcDbLine
 10
51.9608312981
 20
192.0719023731
 30
0.0
 11
52.7646782981
 21
189.0719023731
 31
0.0
  0
LINE
  5
CF
330
BD
100
AcDbEntity
  8
SLD-0
 62
     7
100
AcDbLine
 10
51.9608312981
 20
192.0719023731
 30
0.0
 11
51.9608312981
 21
189.0719023731
 31
0.0
  0
LINE
  5
D0
330
BD
100
AcDbEntity
  8
SLD-0
 62
     7
100
AcDbLine
 10
52.7646782981
 20
150.0719023731
 30
0.0
 11
51.9608312981
 21
147.0719023731
 31
0.0
  0
LINE
  5
D1
330
BD
100
AcDbEntity
  8
SLD-0
 62
     7
100
AcDbLine
 10
51.9608312981
 20
147.0719023731
 30
0.0
 11
51.1569842981
 21
150.0719023731
 31
0.0
  0
LINE
  5
D2
330
BD
100
AcDbEntity
  8
SLD-0
 62
     7
100
AcDbLine
 10
51.9608312981
 20
147.0719023731
 30
0.0
 11
51.9608312981
 21
150.0719023731
 31
0.0
  0
MTEXT
  5
D3
330
BD
100
AcDbEntity
  8
SLD-0
 62
     7
100
AcDbMText
 10
47.4341377185
 20
167.5364671499
 30
0.2
 40
3.5
 41
0.0
 71
     1
 72
     1
  1
45
  7
SLDTEXTSTYLE0
 11
6.123031769111886E-17
 21
1.0
 31
0.0
 73
     1
 44
1.0
  0
ENDBLK
  5
C9
330
BD
100
AcDbEntity
  8
0
100
AcDbBlockEnd
  0
BLOCK
  5
DF
330
D5
100
AcDbEntity
  8
0
100
AcDbBlockBegin
  2
*D12
 70
     1
 71
     0
 10
0.0
 20
0.0
 30
0.0
  3
*D12
  1

  0
INSERT
  5
E8
330
D5
100
AcDbEntity
  8
SLD-0
 62
     7
100
AcDbBlockReference
  2
_Open30
 10
71.1060431081
 20
123.3981139896
 30
0.1
 41
3.0
 42
3.0
 50
180.0
  0
INSERT
  5
E9
330
D5
100
AcDbEntity
  8
SLD-0
 62
     7
100
AcDbBlockReference
  2
_Open30
 10
136.1060431081
 20
123.3981139896
 30
0.1
 41
3.0
 42
3.0
 50
360.0
  0
LINE
  5
EA
330
D5
100
AcDbEntity
  8
SLD-0
 62
     7
100
AcDbLine
 10
71.1060431081
 20
151.5719023731
 30
0.0
 11
71.1060431081
 21
122.3981139896
 31
0.0
  0
LINE
  5
EB
330
D5
100
AcDbEntity
  8
SLD-0
 62
     7
100
AcDbLine
 10
136.1060431081
 20
151.5719023731
 30
0.0
 11
136.1060431081
 21
122.3981139896
 31
0.0
  0
LINE
  5
EC
330
D5
100
AcDbEntity
  8
SLD-0
 62
     7
100
AcDbLine
 10
71.1060431081
 20
123.3981139896
 30
0.0
 11
136.1060431081
 21
123.3981139896
 31
0.0
  0
MTEXT
  5
ED
330
D5
100
AcDbEntity
  8
SLD-0
 62
     7
100
AcDbMText
 10
101.5937680822
 20
128.0906021361
 30
0.0
 40
3.5
 41
0.0
 71
     1
 72
     1
  1
65
  7
SLDTEXTSTYLE0
 73
     1
 44
1.0
  0
ENDBLK
  5
E0
330
D5
100
AcDbEntity
  8
0
100
AcDbBlockEnd
  0
BLOCK
  5
E3
330
E2
100
AcDbEntity
  8
0
100
AcDbBlockBegin
  2
_Open30
 70
     0
 71
     0
 10
0.0
 20
0.0
 30
0.0
  3
_Open30
  1

  0
LINE
  5
E5
330
E2
100
AcDbEntity
  8
0
  6
ByBlock
 62
     0
370
    -2
100
AcDbLine
 10
-1.0
 20
0.267949
 30
0.0
 11
0.0
 21
0.0
 31
0.0
  0
LINE
  5
E6
330
E2
100
AcDbEntity
  8
0
  6
ByBlock
 62
     0
370
    -2
100
AcDbLine
 10
0.0
 20
0.0
 30
0.0
 11
-1.0
 21
-0.267949
 31
0.0
  0
LINE
  5
E7
330
E2
100
AcDbEntity
  8
0
  6
ByBlock
 62
     0
370
    -2
100
AcDbLine
 10
0.0
 20
0.0
 30
0.0
 11
-1.0
 21
0.0
 31
0.0
  0
ENDBLK
  5
E4
330
E2
100
AcDbEntity
  8
0
100
AcDbBlockEnd
  0
BLOCK
  5
F9
330
EF
100
AcDbEntity
  8
0
100
AcDbBlockBegin
  2
*D14
 70
     1
 71
     0
 10
0.0
 20
0.0
 30
0.0
  3
*D14
  1

  0
LINE
  5
FB
330
EF
100
AcDbEntity
  8
SLD-0
 62
     7
100
AcDbLine
 10
91.1060431081
 20
187.5719023731
 30
0.0
 11
91.1060431081
 21
216.6615301009
 31
0.0
  0
LINE
  5
FC
330
EF
100
AcDbEntity
  8
SLD-0
 62
     7
100
AcDbLine
 10
116.1060431081
 20
187.5719023731
 30
0.0
 11
116.1060431081
 21
216.6615301009
 31
0.0
  0
LINE
  5
FD
330
EF
100
AcDbEntity
  8
SLD-0
 62
     7
100
AcDbLine
 10
91.1060431081
 20
215.6615301009
 30
0.0
 11
116.1060431081
 21
215.6615301009
 31
0.0
  0
LINE
  5
FE
330
EF
100
AcDbEntity
  8
SLD-0
 62
     7
100
AcDbLine
 10
94.1060431081
 20
214.8576831009
 30
0.0
 11
91.1060431081
 21
215.6615301009
 31
0.0
  0
LINE
  5
FF
330
EF
100
AcDbEntity
  8
SLD-0
 62
     7
100
AcDbLine
 10
91.1060431081
 20
215.6615301009
 30
0.0
 11
94.1060431081
 21
216.4653771009
 31
0.0
  0
LINE
  5
100
330
EF
100
AcDbEntity
  8
SLD-0
 62
     7
100
AcDbLine
 10
91.1060431081
 20
215.6615301009
 30
0.0
 11
94.1060431081
 21
215.6615301009
 31
0.0
  0
LINE
  5
101
330
EF
100
AcDbEntity
  8
SLD-0
 62
     7
100
AcDbLine
 10
113.1060431081
 20
216.4653771009
 30
0.0
 11
116.1060431081
 21
215.6615301009
 31
0.0
  0
LINE
  5
102
330
EF
100
AcDbEntity
  8
SLD-0
 62
     7
100
AcDbLine
 10
116.1060431081
 20
215.6615301009
 30
0.0
 11
113.1060431081
 21
214.8576831009
 31
0.0
  0
LINE
  5
103
330
EF
100
AcDbEntity
  8
SLD-0
 62
     7
100
AcDbLine
 10
116.1060431081
 20
215.6615301009
 30
0.0
 11
113.1060431081
 21
215.6615301009
 31
0.0
  0
MTEXT
  5
104
330
EF
100
AcDbEntity
  8
SLD-0
 62
     7
100
AcDbMText
 10
101.5706078849
 20
220.1882236805
 30
0.2
 40
3.5
 41
0.0
 71
     1
 72
     1
  1
25
  7
SLDTEXTSTYLE0
 73
     1
 44
1.0
  0
ENDBLK
  5
FA
330
EF
100
AcDbEntity
  8
0
100
AcDbBlockEnd
  0
BLOCK
  5
110
330
106
100
AcDbEntity
  8
0
100
AcDbBlockBegin
  2
*D15
 70
     1
 71
     0
 10
0.0
 20
0.0
 30
0.0
  3
*D15
  1

  0
LINE
  5
112
330
106
100
AcDbEntity
  8
SLD-0
 62
     7
100
AcDbLine
 10
126.1060431081
 20
158.5719023731
 30
0.0
 11
126.1060431081
 21
132.3290322919
 31
0.0
  0
LINE
  5
113
330
106
100
AcDbEntity
  8
SLD-0
 62
     7
100
AcDbLine
 10
136.1060431081
 20
151.5719023731
 30
0.0
 11
136.1060431081
 21
132.3290322919
 31
0.0
  0
LINE
  5
114
330
106
100
AcDbEntity
  8
SLD-0
 62
     7
100
AcDbLine
 10
126.1060431081
 20
133.3290322919
 30
0.0
 11
121.1060431081
 21
133.3290322919
 31
0.0
  0
LINE
  5
115
330
106
100
AcDbEntity
  8
SLD-0
 62
     7
100
AcDbLine
 10
126.1060431081
 20
133.3290322919
 30
0.0
 11
136.1060431081
 21
133.3290322919
 31
0.0
  0
LINE
  5
116
330
106
100
AcDbEntity
  8
SLD-0
 62
     7
100
AcDbLine
 10
136.1060431081
 20
133.3290322919
 30
0.0
 11
141.1060431081
 21
133.3290322919
 31
0.0
  0
LINE
  5
117
330
106
100
AcDbEntity
  8
SLD-0
 62
     7
100
AcDbLine
 10
123.1060431081
 20
134.1328792919
 30
0.0
 11
126.1060431081
 21
133.3290322919
 31
0.0
  0
LINE
  5
118
330
106
100
AcDbEntity
  8
SLD-0
 62
     7
100
AcDbLine
 10
126.1060431081
 20
133.3290322919
 30
0.0
 11
123.1060431081
 21
132.5251852919
 31
0.0
  0
LINE
  5
119
330
106
100
AcDbEntity
  8
SLD-0
 62
     7
100
AcDbLine
 10
126.1060431081
 20
133.3290322919
 30
0.0
 11
123.1060431081
 21
133.3290322919
 31
0.0
  0
LINE
  5
11A
330
106
100
AcDbEntity
  8
SLD-0
 62
     7
100
AcDbLine
 10
139.1060431081
 20
132.5251852919
 30
0.0
 11
136.1060431081
 21
133.3290322919
 31
0.0
  0
LINE
  5
11B
330
106
100
AcDbEntity
  8
SLD-0
 62
     7
100
AcDbLine
 10
136.1060431081
 20
133.3290322919
 30
0.0
 11
139.1060431081
 21
134.1328792919
 31
0.0
  0
LINE
  5
11C
330
106
100
AcDbEntity
  8
SLD-0
 62
     7
100
AcDbLine
 10
136.1060431081
 20
133.3290322919
 30
0.0
 11
139.1060431081
 21
133.3290322919
 31
0.0
  0
MTEXT
  5
11D
330
106
100
AcDbEntity
  8
SLD-0
 62
     7
100
AcDbMText
 10
129.0706078849
 20
137.8557258714
 30
0.2
 40
3.5
 41
0.0
 71
     1
 72
     1
  1
10
  7
SLDTEXTSTYLE0
 73
     1
 44
1.0
  0
ENDBLK
  5
111
330
106
100
AcDbEntity
  8
0
100
AcDbBlockEnd
  0
BLOCK
  5
129
330
11F
100
AcDbEntity
  8
0
100
AcDbBlockBegin
  2
*D16
 70
     1
 71
     0
 10
0.0
 20
0.0
 30
0.0
  3
*D16
  1

  0
LINE
  5
12B
330
11F
100
AcDbEntity
  8
SLD-0
 62
     7
100
AcDbLine
 10
126.1060431081
 20
158.5719023731
 30
0.0
 11
126.1060431081
 21
132.3290322919
 31
0.0
  0
LINE
  5
12C
330
11F
100
AcDbEntity
  8
SLD-0
 62
     7
100
AcDbLine
 10
111.1060431081
 20
158.5719023731
 30
0.0
 11
111.1060431081
 21
132.3290322919
 31
0.0
  0
LINE
  5
12D
330
11F
100
AcDbEntity
  8
SLD-0
 62
     7
100
AcDbLine
 10
126.1060431081
 20
133.3290322919
 30
0.0
 11
111.1060431081
 21
133.3290322919
 31
0.0
  0
LINE
  5
12E
330
11F
100
AcDbEntity
  8
SLD-0
 62
     7
100
AcDbLine
 10
123.1060431081
 20
134.1328792919
 30
0.0
 11
126.1060431081
 21
133.3290322919
 31
0.0
  0
LINE
  5
12F
330
11F
100
AcDbEntity
  8
SLD-0
 62
     7
100
AcDbLine
 10
126.1060431081
 20
133.3290322919
 30
0.0
 11
123.1060431081
 21
132.5251852919
 31
0.0
  0
LINE
  5
130
330
11F
100
AcDbEntity
  8
SLD-0
 62
     7
100
AcDbLine
 10
126.1060431081
 20
133.3290322919
 30
0.0
 11
123.1060431081
 21
133.3290322919
 31
0.0
  0
LINE
  5
131
330
11F
100
AcDbEntity
  8
SLD-0
 62
     7
100
AcDbLine
 10
114.1060431081
 20
132.5251852919
 30
0.0
 11
111.1060431081
 21
133.3290322919
 31
0.0
  0
LINE
  5
132
330
11F
100
AcDbEntity
  8
SLD-0
 62
     7
100
AcDbLine
 10
111.1060431081
 20
133.3290322919
 30
0.0
 11
114.1060431081
 21
134.1328792919
 31
0.0
  0
LINE
  5
133
330
11F
100
AcDbEntity
  8
SLD-0
 62
     7
100
AcDbLine
 10
111.1060431081
 20
133.3290322919
 30
0.0
 11
114.1060431081
 21
133.3290322919
 31
0.0
  0
MTEXT
  5
134
330
11F
100
AcDbEntity
  8
SLD-0
 62
     7
100
AcDbMText
 10
116.5706078849
 20
137.8557258714
 30
0.2
 40
3.5
 41
0.0
 71
     1
 72
     1
  1
15
  7
SLDTEXTSTYLE0
 73
     1
 44
1.0
  0
ENDBLK
  5
12A
330
11F
100
AcDbEntity
  8
0
100
AcDbBlockEnd
  0
BLOCK
  5
140
330
136
100
AcDbEntity
  8
0
100
AcDbBlockBegin
  2
*D17
 70
     1
 71
     0
 10
0.0
 20
0.0
 30
0.0
  3
*D17
  1

  0
LINE
  5
142
330
136
100
AcDbEntity
  8
SLD-0
 62
     7
100
AcDbLine
 10
96.1060431081
 20
158.5719023731
 30
0.0
 11
96.1060431081
 21
132.3290322919
 31
0.0
  0
LINE
  5
143
330
136
100
AcDbEntity
  8
SLD-0
 62
     7
100
AcDbLine
 10
111.1060431081
 20
158.5719023731
 30
0.0
 11
111.1060431081
 21
132.3290322919
 31
0.0
  0
LINE
  5
144
330
136
100
AcDbEntity
  8
SLD-0
 62
     7
100
AcDbLine
 10
96.1060431081
 20
133.3290322919
 30
0.0
 11
111.1060431081
 21
133.3290322919
 31
0.0
  0
LINE
  5
145
330
136
100
AcDbEntity
  8
SLD-0
 62
     7
100
AcDbLine
 10
99.1060431081
 20
132.5251852919
 30
0.0
 11
96.1060431081
 21
133.3290322919
 31
0.0
  0
LINE
  5
146
330
136
100
AcDbEntity
  8
SLD-0
 62
     7
100
AcDbLine
 10
96.1060431081
 20
133.3290322919
 30
0.0
 11
99.1060431081
 21
134.1328792919
 31
0.0
  0
LINE
  5
147
330
136
100
AcDbEntity
  8
SLD-0
 62
     7
100
AcDbLine
 10
96.1060431081
 20
133.3290322919
 30
0.0
 11
99.1060431081
 21
133.3290322919
 31
0.0
  0
LINE
  5
148
330
136
100
AcDbEntity
  8
SLD-0
 62
     7
100
AcDbLine
 10
108.1060431081
 20
134.1328792919
 30
0.0
 11
111.1060431081
 21
133.3290322919
 31
0.0
  0
LINE
  5
149
330
136
100
AcDbEntity
  8
SLD-0
 62
     7
100
AcDbLine
 10
111.1060431081
 20
133.3290322919
 30
0.0
 11
108.1060431081
 21
132.5251852919
 31
0.0
  0
LINE
  5
14A
330
136
100
AcDbEntity
  8
SLD-0
 62
     7
100
AcDbLine
 10
111.1060431081
 20
133.3290322919
 30
0.0
 11
108.1060431081
 21
133.3290322919
 31
0.0
  0
MTEXT
  5
14B
330
136
100
AcDbEntity
  8
SLD-0
 62
     7
100
AcDbMText
 10
101.5706078849
 20
137.8557258714
 30
0.2
 40
3.5
 41
0.0
 71
     1
 72
     1
  1
15
  7
SLDTEXTSTYLE0
 73
     1
 44
1.0
  0
ENDBLK
  5
141
330
136
100
AcDbEntity
  8
0
100
AcDbBlockEnd
  0
BLOCK
  5
157
330
14D
100
AcDbEntity
  8
0
100
AcDbBlockBegin
  2
*D18
 70
     1
 71
     0
 10
0.0
 20
0.0
 30
0.0
  3
*D18
  1

  0
LINE
  5
159
330
14D
100
AcDbEntity
  8
SLD-0
 62
     7
100
AcDbLine
 10
81.1060431081
 20
158.5719023731
 30
0.0
 11
81.1060431081
 21
132.3290322919
 31
0.0
  0
LINE
  5
15A
330
14D
100
AcDbEntity
  8
SLD-0
 62
     7
100
AcDbLine
 10
96.1060431081
 20
158.5719023731
 30
0.0
 11
96.1060431081
 21
132.3290322919
 31
0.0
  0
LINE
  5
15B
330
14D
100
AcDbEntity
  8
SLD-0
 62
     7
100
AcDbLine
 10
81.1060431081
 20
133.3290322919
 30
0.0
 11
96.1060431081
 21
133.3290322919
 31
0.0
  0
LINE
  5
15C
330
14D
100
AcDbEntity
  8
SLD-0
 62
     7
100
AcDbLine
 10
84.1060431081
 20
132.5251852919
 30
0.0
 11
81.1060431081
 21
133.3290322919
 31
0.0
  0
LINE
  5
15D
330
14D
100
AcDbEntity
  8
SLD-0
 62
     7
100
AcDbLine
 10
81.1060431081
 20
133.3290322919
 30
0.0
 11
84.1060431081
 21
134.1328792919
 31
0.0
  0
LINE
  5
15E
330
14D
100
AcDbEntity
  8
SLD-0
 62
     7
100
AcDbLine
 10
81.1060431081
 20
133.3290322919
 30
0.0
 11
84.1060431081
 21
133.3290322919
 31
0.0
  0
LINE
  5
15F
330
14D
100
AcDbEntity
  8
SLD-0
 62
     7
100
AcDbLine
 10
93.1060431081
 20
134.1328792919
 30
0.0
 11
96.1060431081
 21
133.3290322919
 31
0.0
  0
LINE
  5
160
330
14D
100
AcDbEntity
  8
SLD-0
 62
     7
100
AcDbLine
 10
96.1060431081
 20
133.3290322919
 30
0.0
 11
93.1060431081
 21
132.5251852919
 31
0.0
  0
LINE
  5
161
330
14D
100
AcDbEntity
  8
SLD-0
 62
     7
100
AcDbLine
 10
96.1060431081
 20
133.3290322919
 30
0.0
 11
93.1060431081
 21
133.3290322919
 31
0.0
  0
MTEXT
  5
162
330
14D
100
AcDbEntity
  8
SLD-0
 62
     7
100
AcDbMText
 10
86.5706078849
 20
137.8557258714
 30
0.2
 40
3.5
 41
0.0
 71
     1
 72
     1
  1
15
  7
SLDTEXTSTYLE0
 73
     1
 44
1.0
  0
ENDBLK
  5
158
330
14D
100
AcDbEntity
  8
0
100
AcDbBlockEnd
  0
BLOCK
  5
16F
330
164
100
AcDbEntity
  8
0
100
AcDbBlockBegin
  2
*D19
 70
     1
 71
     0
 10
0.0
 20
0.0
 30
0.0
  3
*D19
  1

  0
INSERT
  5
172
330
164
100
AcDbEntity
  8
SLD-0
 62
     7
100
AcDbBlockReference
  2
_Open30
 10
61.0576477294
 20
159.5719023731
 30
0.1
 41
3.0
 42
3.0
 50
270.0
  0
INSERT
  5
173
330
164
100
AcDbEntity
  8
SLD-0
 62
     7
100
AcDbBlockReference
  2
_Open30
 10
61.0576477294
 20
147.0719023731
 30
0.1
 41
3.0
 42
3.0
 50
90.0
  0
LINE
  5
174
330
164
100
AcDbEntity
  8
SLD-0
 62
     7
100
AcDbLine
 10
125.1060431081
 20
159.5719023731
 30
0.0
 11
60.0576477294
 21
159.5719023731
 31
0.0
  0
LINE
  5
175
330
164
100
AcDbEntity
  8
SLD-0
 62
     7
100
AcDbLine
 10
75.6060431081
 20
147.0719023731
 30
0.0
 11
60.0576477294
 21
147.0719023731
 31
0.0
  0
LINE
  5
176
330
164
100
AcDbEntity
  8
SLD-0
 62
     7
100
AcDbLine
 10
61.0576477294
 20
159.5719023731
 30
0.0
 11
61.0576477294
 21
164.5719023731
 31
0.0
  0
LINE
  5
177
330
164
100
AcDbEntity
  8
SLD-0
 62
     7
100
AcDbLine
 10
61.0576477294
 20
159.5719023731
 30
0.0
 11
61.0576477294
 21
147.0719023731
 31
0.0
  0
LINE
  5
178
330
164
100
AcDbEntity
  8
SLD-0
 62
     7
100
AcDbLine
 10
61.0576477294
 20
147.0719023731
 30
0.0
 11
61.0576477294
 21
142.0719023731
 31
0.0
  0
MTEXT
  5
179
330
164
100
AcDbEntity
  8
SLD-0
 62
     7
100
AcDbMText
 10
56.3651595829
 20
150.3034898342
 30
0.0
 40
3.5
 41
0.0
 71
     1
 72
     1
  1
12.5
  7
SLDTEXTSTYLE0
 11
-7.044197039909883E-15
 21
1.0
 31
0.0
 73
     1
 44
1.0
  0
ENDBLK
  5
170
330
164
100
AcDbEntity
  8
0
100
AcDbBlockEnd
  0
BLOCK
  5
185
330
17B
100
AcDbEntity
  8
0
100
AcDbBlockBegin
  2
*D20
 70
     1
 71
     0
 10
0.0
 20
0.0
 30
0.0
  3
*D20
  1

  0
LINE
  5
187
330
17B
100
AcDbEntity
  8
SLD-0
 62
     7
100
AcDbLine
 10
116.1060431081
 20
187.5719023731
 30
0.0
 11
116.1060431081
 21
216.6615301009
 31
0.0
  0
LINE
  5
188
330
17B
100
AcDbEntity
  8
SLD-0
 62
     7
100
AcDbLine
 10
136.1060431081
 20
167.5719023731
 30
0.0
 11
136.1060431081
 21
216.6615301009
 31
0.0
  0
LINE
  5
189
330
17B
100
AcDbEntity
  8
SLD-0
 62
     7
100
AcDbLine
 10
116.1060431081
 20
215.6615301009
 30
0.0
 11
136.1060431081
 21
215.6615301009
 31
0.0
  0
LINE
  5
18A
330
17B
100
AcDbEntity
  8
SLD-0
 62
     7
100
AcDbLine
 10
119.1060431081
 20
214.8576831009
 30
0.0
 11
116.1060431081
 21
215.6615301009
 31
0.0
  0
LINE
  5
18B
330
17B
100
AcDbEntity
  8
SLD-0
 62
     7
100
AcDbLine
 10
116.1060431081
 20
215.6615301009
 30
0.0
 11
119.1060431081
 21
216.4653771009
 31
0.0
  0
LINE
  5
18C
330
17B
100
AcDbEntity
  8
SLD-0
 62
     7
100
AcDbLine
 10
116.1060431081
 20
215.6615301009
 30
0.0
 11
119.1060431081
 21
215.6615301009
 31
0.0
  0
LINE
  5
18D
330
17B
100
AcDbEntity
  8
SLD-0
 62
     7
100
AcDbLine
 10
133.1060431081
 20
216.4653771009
 30
0.0
 11
136.1060431081
 21
215.6615301009
 31
0.0
  0
LINE
  5
18E
330
17B
100
AcDbEntity
  8
SLD-0
 62
     7
100
AcDbLine
 10
136.1060431081
 20
215.6615301009
 30
0.0
 11
133.1060431081
 21
214.8576831009
 31
0.0
  0
LINE
  5
18F
330
17B
100
AcDbEntity
  8
SLD-0
 62
     7
100
AcDbLine
 10
136.1060431081
 20
215.6615301009
 30
0.0
 11
133.1060431081
 21
215.6615301009
 31
0.0
  0
MTEXT
  5
190
330
17B
100
AcDbEntity
  8
SLD-0
 62
     7
100
AcDbMText
 10
124.0706078849
 20
220.1882236805
 30
0.2
 40
3.5
 41
0.0
 71
     1
 72
     1
  1
20
  7
SLDTEXTSTYLE0
 73
     1
 44
1.0
  0
ENDBLK
  5
186
330
17B
100
AcDbEntity
  8
0
100
AcDbBlockEnd
  0
BLOCK
  5
19C
330
192
100
AcDbEntity
  8
0
100
AcDbBlockBegin
  2
*D21
 70
     1
 71
     0
 10
0.0
 20
0.0
 30
0.0
  3
*D21
  1

  0
LINE
  5
19F
330
192
100
AcDbEntity
  8
SLD-0
 62
     7
100
AcDbLine
 10
136.1060431081
 20
167.5719023731
 30
0.0
 11
136.1060431081
 21
205.2861427276
 31
0.0
  0
LINE
  5
1A0
330
192
100
AcDbEntity
  8
SLD-0
 62
     7
100
AcDbLine
 10
103.6060431081
 20
183.0719023731
 30
0.0
 11
103.6060431081
 21
205.2861427276
 31
0.0
  0
LINE
  5
1A1
330
192
100
AcDbEntity
  8
SLD-0
 62
     7
100
AcDbLine
 10
136.1060431081
 20
204.2861427276
 30
0.0
 11
103.6060431081
 21
204.2861427276
 31
0.0
  0
LINE
  5
1A2
330
192
100
AcDbEntity
  8
SLD-0
 62
     7
100
AcDbLine
 10
133.1060431081
 20
205.0899897276
 30
0.0
 11
136.1060431081
 21
204.2861427276
 31
0.0
  0
LINE
  5
1A3
330
192
100
AcDbEntity
  8
SLD-0
 62
     7
100
AcDbLine
 10
136.1060431081
 20
204.2861427276
 30
0.0
 11
133.1060431081
 21
203.4822957276
 31
0.0
  0
LINE
  5
1A4
330
192
100
AcDbEntity
  8
SLD-0
 62
     7
100
AcDbLine
 10
136.1060431081
 20
204.2861427276
 30
0.0
 11
133.1060431081
 21
204.2861427276
 31
0.0
  0
LINE
  5
1A5
330
192
100
AcDbEntity
  8
SLD-0
 62
     7
100
AcDbLine
 10
106.6060431081
 20
203.4822957276
 30
0.0
 11
103.6060431081
 21
204.2861427276
 31
0.0
  0
LINE
  5
1A6
330
192
100
AcDbEntity
  8
SLD-0
 62
     7
100
AcDbLine
 10
103.6060431081
 20
204.2861427276
 30
0.0
 11
106.6060431081
 21
205.0899897276
 31
0.0
  0
LINE
  5
1A7
330
192
100
AcDbEntity
  8
SLD-0
 62
     7
100
AcDbLine
 10
103.6060431081
 20
204.2861427276
 30
0.0
 11
106.6060431081
 21
204.2861427276
 31
0.0
  0
MTEXT
  5
1A8
330
192
100
AcDbEntity
  8
SLD-0
 62
     7
100
AcDbMText
 10
118.1415130431
 20
208.8128363071
 30
0.2
 40
3.5
 41
0.0
 71
     1
 72
     1
  1
32.5
  7
SLDTEXTSTYLE0
 73
     1
 44
1.0
  0
ENDBLK
  5
19D
330
192
100
AcDbEntity
  8
0
100
AcDbBlockEnd
  0
ENDSEC
  0
SECTION
  2
ENTITIES
  0
LINE
  5
82
330
1F
100
AcDbEntity
  8
SLD-0
  6
Continuous
 62
   179
100
AcDbLine
 10
20.2604743903
 20
285.0
 30
0.0
 11
196.7604743903
 21
285.0
 31
0.0
  0
LINE
  5
83
330
1F
100
AcDbEntity
  8
SLD-0
  6
Continuous
 62
   179
100
AcDbLine
 10
20.2604743903
 20
285.0
 30
0.0
 11
20.2604743903
 21
10.0
 31
0.0
  0
LINE
  5
84
330
1F
100
AcDbEntity
  8
SLD-0
  6
Continuous
 62
   179
100
AcDbLine
 10
20.2604743903
 20
10.0
 30
0.0
 11
196.7604743903
 21
10.0
 31
0.0
  0
LINE
  5
85
330
1F
100
AcDbEntity
  8
SLD-0
  6
Continuous
 62
   179
100
AcDbLine
 10
196.7604743903
 20
285.0
 30
0.0
 11
196.7604743903
 21
10.0
 31
0.0
  0
LINE
  5
86
330
1F
100
AcDbEntity
  8
SLD-0
  6
Continuous
 62
   179
100
AcDbLine
 10
65.7604743903
 20
285.0
 30
0.0
 11
196.7604743903
 21
285.0
 31
0.0
  0
LINE
  5
87
330
1F
100
AcDbEntity
  8
SLD-0
  6
Continuous
 62
   179
100
AcDbLine
 10
196.7604743903
 20
285.0
 30
0.0
 11
196.7604743903
 21
264.25
 31
0.0
  0
LINE
  5
88
330
1F
100
AcDbEntity
  8
SLD-0
  6
Continuous
 62
   179
100
AcDbLine
 10
127.0104743903
 20
50.75
 30
0.0
 11
196.7604743903
 21
50.75
 31
0.0
  0
LINE
  5
89
330
1F
100
AcDbEntity
  8
SLD-0
  6
Continuous
 62
   179
100
AcDbLine
 10
127.0104743903
 20
50.75
 30
0.0
 11
127.0104743903
 21
10.0
 31
0.0
  0
LINE
  5
8A
330
1F
100
AcDbEntity
  8
SLD-0
  6
Continuous
 62
   179
100
AcDbLine
 10
127.0104743903
 20
22.75
 30
0.0
 11
196.7604743903
 21
22.75
 31
0.0
  0
LINE
  5
8B
330
1F
100
AcDbEntity
  8
SLD-0
  6
Continuous
 62
   179
100
AcDbLine
 10
127.0104743903
 20
36.75
 30
0.0
 11
196.7604743903
 21
36.75
 31
0.0
  0
LINE
  5
8C
330
1F
100
AcDbEntity
  8
SLD-0
  6
Continuous
 62
   179
100
AcDbLine
 10
110.6060431081
 20
192.0719023731
 30
0.0
 11
96.6060431081
 21
192.0719023731
 31
0.0
  0
LINE
  5
8D
330
1F
100
AcDbEntity
  8
SLD-0
  6
Continuous
 62
   179
100
AcDbLine
 10
116.1060432943
 20
172.0719027456
 30
0.0
 11
116.1060431081
 21
186.5719023731
 31
0.0
  0
LINE
  5
8E
330
1F
100
AcDbEntity
  8
SLD-0
  6
Continuous
 62
   179
100
AcDbLine
 10
130.6060431081
 20
172.0719023731
 30
0.0
 11
116.1060432943
 21
172.0719027456
 31
0.0
  0
LINE
  5
8F
330
1F
100
AcDbEntity
  8
SLD-0
  6
Continuous
 62
   179
100
AcDbLine
 10
136.1060431081
 20
152.5719023731
 30
0.0
 11
136.1060431081
 21
166.5719023731
 31
0.0
  0
LINE
  5
90
330
1F
100
AcDbEntity
  8
SLD-0
  6
Continuous
 62
   179
100
AcDbLine
 10
76.6060431081
 20
147.0719023731
 30
0.0
 11
130.6060431081
 21
147.0719023731
 31
0.0
  0
LINE
  5
91
330
1F
100
AcDbEntity
  8
SLD-0
  6
Continuous
 62
   179
100
AcDbLine
 10
71.1060431081
 20
166.5719023731
 30
0.0
 11
71.1060431081
 21
152.5719023731
 31
0.0
  0
LINE
  5
92
330
1F
100
AcDbEntity
  8
SLD-0
  6
Continuous
 62
   179
100
AcDbLine
 10
91.1060429218
 20
172.0719027456
 30
0.0
 11
76.6060431081
 21
172.0719023731
 31
0.0
  0
LINE
  5
93
330
1F
100
AcDbEntity
  8
SLD-0
  6
Continuous
 62
   179
100
AcDbLine
 10
91.1060431081
 20
186.5719023731
 30
0.0
 11
91.1060429218
 21
172.0719027456
 31
0.0
  0
ARC
  5
94
330
1F
100
AcDbEntity
  8
SLD-0
  6
Continuous
 62
   179
100
AcDbCircle
 10
110.6060431081
 20
186.5719023731
 30
0.0
 40
5.5
100
AcDbArc
 50
0.0
 51
90.0
  0
ARC
  5
95
330
1F
100
AcDbEntity
  8
SLD-0
  6
Continuous
 62
   179
100
AcDbCircle
 10
130.6060431081
 20
166.5719023731
 30
0.0
 40
5.5
100
AcDbArc
 50
0.0
 51
90.0
  0
ARC
  5
96
330
1F
100
AcDbEntity
  8
SLD-0
  6
Continuous
 62
   179
100
AcDbCircle
 10
130.6060431081
 20
152.5719023731
 30
0.0
 40
5.500000000000028
100
AcDbArc
 50
270.0
 51
0.0
  0
ARC
  5
97
330
1F
100
AcDbEntity
  8
SLD-0
  6
Continuous
 62
   179
100
AcDbCircle
 10
76.6060431081
 20
152.5719023731
 30
0.0
 40
5.500000000000028
100
AcDbArc
 50
180.0
 51
270.0
  0
ARC
  5
98
330
1F
100
AcDbEntity
  8
SLD-0
  6
Continuous
 62
   179
100
AcDbCircle
 10
76.6060431081
 20
166.5719023731
 30
0.0
 40
5.5
100
AcDbArc
 50
90.0
 51
180.0
  0
ARC
  5
99
330
1F
100
AcDbEntity
  8
SLD-0
  6
Continuous
 62
   179
100
AcDbCircle
 10
96.6060431081
 20
186.5719023731
 30
0.0
 40
5.500000000000014
100
AcDbArc
 50
90.0
 51
180.0
  0
CIRCLE
  5
9A
330
1F
100
AcDbEntity
  8
SLD-0
  6
Continuous
 62
   179
100
AcDbCircle
 10
81.1060431081
 20
159.5719023731
 30
0.0
 40
3.09999999999998
  0
CIRCLE
  5
9B
330
1F
100
AcDbEntity
  8
SLD-0
  6
Continuous
 62
   179
100
AcDbCircle
 10
96.1060431081
 20
159.5719023731
 30
0.0
 40
3.09999999999998
  0
CIRCLE
  5
9C
330
1F
100
AcDbEntity
  8
SLD-0
  6
Continuous
 62
   179
100
AcDbCircle
 10
111.1060431081
 20
159.5719023731
 30
0.0
 40
3.100000000000009
  0
CIRCLE
  5
9D
330
1F
100
AcDbEntity
  8
SLD-0
  6
Continuous
 62
   179
100
AcDbCircle
 10
126.1060431081
 20
159.5719023731
 30
0.0
 40
3.100000000000037
  0
CIRCLE
  5
9E
330
1F
100
AcDbEntity
  8
SLD-0
  6
Continuous
 62
   179
100
AcDbCircle
 10
103.6060431081
 20
182.0719023731
 30
0.0
 40
3.100000000000009
  0
DIMENSION
  5
9F
330
1F
100
AcDbEntity
  8
SLD-0
 62
     7
100
AcDbDimension
  2
*D9
 10
163.9591881658
 20
172.0719023731
 30
0.0
 11
163.9591881658
 21
159.5719023731
 31
0.0
 70
   160
 71
     1
 42
25.0
  3
SLDDIMSTYLE0
100
AcDbAlignedDimension
 13
130.6060431081
 23
147.0719023731
 33
0.0
 14
130.6060431081
 24
172.0719023731
 34
0.0
 50
90.0
100
AcDbRotatedDimension
1001
ACAD
1000
DSTYLE
1002
{
1070
    77
1070
     3
1070
   143
1040
0.0393700787
1070
    41
1040
3.0
1070
    44
1040
1.0
1070
    42
1040
1.0
1070
   147
1040
1.524
1070
    73
1070
     0
1070
    74
1070
     0
1070
   140
1040
3.5
1070
   284
1070
    12
1070
    78
1070
    12
1002
}
  0
DIMENSION
  5
BC
330
1F
100
AcDbEntity
  8
SLD-0
 62
     7
100
AcDbDimension
  2
*D11
 10
51.9608312981
 20
147.0719023731
 30
0.0
 11
51.9608312981
 21
169.5719023731
 31
0.0
 70
   160
 71
     1
 42
45.0
  3
SLDDIMSTYLE0
100
AcDbAlignedDimension
 13
96.6060431081
 23
192.0719023731
 33
0.0
 14
76.6060431081
 24
147.0719023731
 34
0.0
 50
90.0
100
AcDbRotatedDimension
1001
ACAD
1000
DSTYLE
1002
{
1070
    77
1070
     3
1070
   143
1040
0.0393700787
1070
    41
1040
3.0
1070
    44
1040
1.0
1070
    42
1040
1.0
1070
   147
1040
1.524
1070
    73
1070
     0
1070
    74
1070
     0
1070
   140
1040
3.5
1070
   284
1070
    12
1070
    78
1070
    12
1002
}
  0
DIMENSION
  5
D4
330
1F
100
AcDbEntity
  8
SLD-0
 62
     7
100
AcDbDimension
  2
*D12
 10
136.1060431081
 20
123.3981139896
 30
0.0
 11
103.6060431081
 21
123.3981139896
 31
0.0
 70
   160
 71
     1
 42
65.0
  3
SLDDIMSTYLE1
100
AcDbAlignedDimension
 13
71.1060431081
 23
152.5719023731
 33
0.0
 14
136.1060431081
 24
152.5719023731
 34
0.0
100
AcDbRotatedDimension
1001
ACAD
1000
DSTYLE
1002
{
1070
    77
1070
     3
1070
   143
1040
0.0393700787
1070
    41
1040
3.0
1070
    44
1040
1.0
1070
    42
1040
1.0
1070
   147
1040
1.524
1070
    73
1070
     0
1070
    74
1070
     0
1070
   140
1040
3.5
1070
   284
1070
    12
1070
    78
1070
    12
1002
}
  0
DIMENSION
  5
EE
330
1F
100
AcDbEntity
  8
SLD-0
 62
     7
100
AcDbDimension
  2
*D14
 10
116.1060431081
 20
215.6615301009
 30
0.0
 11
103.6060431081
 21
215.6615301009
 31
0.0
 70
   160
 71
     1
 42
25.0
  3
SLDDIMSTYLE0
100
AcDbAlignedDimension
 13
91.1060431081
 23
186.5719023731
 33
0.0
 14
116.1060431081
 24
186.5719023731
 34
0.0
100
AcDbRotatedDimension
1001
ACAD
1000
DSTYLE
1002
{
1070
    77
1070
     3
1070
   143
1040
0.0393700787
1070
    41
1040
3.0
1070
    44
1040
1.0
1070
    42
1040
1.0
1070
   147
1040
1.524
1070
    73
1070
     0
1070
    74
1070
     0
1070
   140
1040
3.5
1070
   284
1070
    12
1070
    78
1070
    12
1002
}
  0
DIMENSION
  5
105
330
1F
100
AcDbEntity
  8
SLD-0
 62
     7
100
AcDbDimension
  2
*D15
 10
136.1060431081
 20
133.3290322919
 30
0.0
 11
131.1060431081
 21
133.3290322919
 31
0.0
 70
   160
 71
     1
 42
10.0
  3
SLDDIMSTYLE0
100
AcDbAlignedDimension
 13
126.1060431081
 23
159.5719023731
 33
0.0
 14
136.1060431081
 24
152.5719023731
 34
0.0
100
AcDbRotatedDimension
1001
ACAD
1000
DSTYLE
1002
{
1070
    77
1070
     3
1070
   143
1040
0.0393700787
1070
    41
1040
3.0
1070
    44
1040
1.0
1070
    42
1040
1.0
1070
   147
1040
1.524
1070
    73
1070
     0
1070
    74
1070
     0
1070
   140
1040
3.5
1070
   284
1070
    12
1070
    78
1070
    12
1002
}
  0
DIMENSION
  5
11E
330
1F
100
AcDbEntity
  8
SLD-0
 62
     7
100
AcDbDimension
  2
*D16
 10
111.1060431081
 20
133.3290322919
 30
0.0
 11
118.6060431081
 21
133.3290322919
 31
0.0
 70
   160
 71
     1
 42
15.0
  3
SLDDIMSTYLE0
100
AcDbAlignedDimension
 13
126.1060431081
 23
159.5719023731
 33
0.0
 14
111.1060431081
 24
159.5719023731
 34
0.0
100
AcDbRotatedDimension
1001
ACAD
1000
DSTYLE
1002
{
1070
    77
1070
     3
1070
   143
1040
0.0393700787
1070
    41
1040
3.0
1070
    44
1040
1.0
1070
    42
1040
1.0
1070
   147
1040
1.524
1070
    73
1070
     0
1070
    74
1070
     0
1070
   140
1040
3.5
1070
   284
1070
    12
1070
    78
1070
    12
1002
}
  0
DIMENSION
  5
135
330
1F
100
AcDbEntity
  8
SLD-0
 62
     7
100
AcDbDimension
  2
*D17
 10
111.1060431081
 20
133.3290322919
 30
0.0
 11
103.6060431081
 21
133.3290322919
 31
0.0
 70
   160
 71
     1
 42
15.0
  3
SLDDIMSTYLE0
100
AcDbAlignedDimension
 13
96.1060431081
 23
159.5719023731
 33
0.0
 14
111.1060431081
 24
159.5719023731
 34
0.0
100
AcDbRotatedDimension
1001
ACAD
1000
DSTYLE
1002
{
1070
    77
1070
     3
1070
   143
1040
0.0393700787
1070
    41
1040
3.0
1070
    44
1040
1.0
1070
    42
1040
1.0
1070
   147
1040
1.524
1070
    73
1070
     0
1070
    74
1070
     0
1070
   140
1040
3.5
1070
   284
1070
    12
1070
    78
1070
    12
1002
}
  0
DIMENSION
  5
14C
330
1F
100
AcDbEntity
  8
SLD-0
 62
     7
100
AcDbDimension
  2
*D18
 10
96.1060431081
 20
133.3290322919
 30
0.0
 11
88.6060431081
 21
133.3290322919
 31
0.0
 70
   160
 71
     1
 42
15.0
  3
SLDDIMSTYLE0
100
AcDbAlignedDimension
 13
81.1060431081
 23
159.5719023731
 33
0.0
 14
96.1060431081
 24
159.5719023731
 34
0.0
100
AcDbRotatedDimension
1001
ACAD
1000
DSTYLE
1002
{
1070
    77
1070
     3
1070
   143
1040
0.0393700787
1070
    41
1040
3.0
1070
    44
1040
1.0
1070
    42
1040
1.0
1070
   147
1040
1.524
1070
    73
1070
     0
1070
    74
1070
     0
1070
   140
1040
3.5
1070
   284
1070
    12
1070
    78
1070
    12
1002
}
  0
DIMENSION
  5
163
330
1F
100
AcDbEntity
  8
SLD-0
 62
     7
100
AcDbDimension
  2
*D19
 10
61.0576477294
 20
147.0719023731
 30
0.0
 11
61.0576477294
 21
153.3219023731
 31
0.0
 70
   160
 71
     1
 42
12.5
  3
SLDDIMSTYLE2
100
AcDbAlignedDimension
 13
126.1060431081
 23
159.5719023731
 33
0.0
 14
76.6060431081
 24
147.0719023731
 34
0.0
 50
90.0
100
AcDbRotatedDimension
1001
ACAD
1000
DSTYLE
1002
{
1070
    77
1070
     3
1070
   143
1040
0.0393700787
1070
    41
1040
3.0
1070
    44
1040
1.0
1070
    42
1040
1.0
1070
   147
1040
1.524
1070
    73
1070
     0
1070
    74
1070
     0
1070
   140
1040
3.5
1070
   284
1070
    12
1070
    78
1070
    12
1002
}
  0
DIMENSION
  5
17A
330
1F
100
AcDbEntity
  8
SLD-0
 62
     7
100
AcDbDimension
  2
*D20
 10
136.1060431081
 20
215.6615301009
 30
0.0
 11
126.1060431081
 21
215.6615301009
 31
0.0
 70
   160
 71
     1
 42
20.0
  3
SLDDIMSTYLE0
100
AcDbAlignedDimension
 13
116.1060431081
 23
186.5719023731
 33
0.0
 14
136.1060431081
 24
166.5719023731
 34
0.0
100
AcDbRotatedDimension
1001
ACAD
1000
DSTYLE
1002
{
1070
    77
1070
     3
1070
   143
1040
0.0393700787
1070
    41
1040
3.0
1070
    44
1040
1.0
1070
    42
1040
1.0
1070
   147
1040
1.524
1070
    73
1070
     0
1070
    74
1070
     0
1070
   140
1040
3.5
1070
   284
1070
    12
1070
    78
1070
    12
1002
}
  0
DIMENSION
  5
191
330
1F
100
AcDbEntity
  8
SLD-0
 62
     7
100
AcDbDimension
  2
*D21
 10
103.6060431081
 20
204.2861427276
 30
0.0
 11
119.8560431081
 21
204.2861427276
 31
0.0
 70
   160
 71
     1
 42
32.5
  3
SLDDIMSTYLE3
100
AcDbAlignedDimension
 13
136.1060431081
 23
166.5719023731
 33
0.0
 14
103.6060431081
 24
182.0719023731
 34
0.0
100
AcDbRotatedDimension
1001
ACAD
1000
DSTYLE
1002
{
1070
    77
1070
     3
1070
   143
1040
0.0393700787
1070
    41
1040
3.0
1070
    44
1040
1.0
1070
    42
1040
1.0
1070
   147
1040
1.524
1070
    73
1070
     0
1070
    74
1070
     0
1070
   140
1040
3.5
1070
   284
1070
    12
1070
    78
1070
    12
1002
}
  0
MTEXT
  5
1A9
330
1F
100
AcDbEntity
  8
SLD-0
 62
     7
100
AcDbMText
 10
146.1235966942
 20
100.5640656309
 30
0.0
 40
4.2333333333
 41
0.0
 71
     1
 72
     1
  1
t= 3.2
  7
SLDTEXTSTYLE1
 73
     1
 44
1.0
  0
MTEXT
  5
1AB
330
1F
100
AcDbEntity
  8
SLD-0
 62
     7
100
AcDbMText
 10
156.7045720703
 20
17.860842838
 30
0.0
 40
3.5
 41
0.0
 71
     1
 72
     1
  1
131045
  7
SLDTEXTSTYLE2
 73
     1
 44
1.0
  0
MTEXT
  5
1AC
330
1F
100
AcDbEntity
  8
SLD-0
 62
     7
100
AcDbMText
 10
147.3083984572
 20
28.9925274519
 30
0.0
 40
4.2333333333
 41
0.0
 71
     1
 72
     1
  1
N01913-104-0
  7
SLDTEXTSTYLE1
 73
     1
 44
1.0
  0
MTEXT
  5
1AE
330
1F
100
AcDbEntity
  8
SLD-0
 62
     7
100
AcDbMText
 10
138.4954272419
 20
42.5163410687
 30
0.0
 40
4.2333333333
 41
0.0
 71
     1
 72
     1
  1
25 Connecter Plate D
  7
SLDTEXTSTYLE3
 73
     1
 44
1.0
  0
INSERT
  5
1AF
330
1F
100
AcDbEntity
  8
0
  6
Continuous
 62
     7
370
     0
100
AcDbBlockReference
  2
SURFACEFINISH40
 10
179.4428441679
 20
250.5749245738
 30
0.0
  0
INSERT
  5
1B0
330
1F
100
AcDbEntity
  8
0
  6
Continuous
 62
     7
370
     0
100
AcDbBlockReference
  2
注記
 10
108.2152243574
 20
57.044269091
 30
0.0
  0
INSERT
  5
1B1
330
1F
100
AcDbEntity
  8
0
  6
Continuous
 62
     7
370
     0
100
AcDbBlockReference
  2
SW_CENTERMARK0
 10
0.0
 20
0.0
 30
0.0
  0
INSERT
  5
1B2
330
1F
100
AcDbEntity
  8
0
  6
Continuous
 62
     7
370
     0
100
AcDbBlockReference
  2
SW_CENTERMARK1
 10
0.0
 20
0.0
 30
0.0
  0
INSERT
  5
1B3
330
1F
100
AcDbEntity
  8
0
  6
Continuous
 62
     7
370
     0
100
AcDbBlockReference
  2
SW_CENTERMARK2
 10
0.0
 20
0.0
 30
0.0
  0
INSERT
  5
1B4
330
1F
100
AcDbEntity
  8
0
  6
Continuous
 62
     7
370
     0
100
AcDbBlockReference
  2
SW_CENTERMARK3
 10
0.0
 20
0.0
 30
0.0
  0
INSERT
  5
1B5
330
1F
100
AcDbEntity
  8
0
  6
Continuous
 62
     7
370
     0
100
AcDbBlockReference
  2
SW_CENTERMARK4
 10
0.0
 20
0.0
 30
0.0
  0
INSERT
  5
1B6
330
1F
100
AcDbEntity
  8
0
  6
Continuous
 62
     7
370
     0
100
AcDbBlockReference
  2
SW_CENTERMARK5
 10
0.0
 20
0.0
 30
0.0
  0
ENDSEC
  0
SECTION
  2
OBJECTS
  0
DICTIONARY
  5
C
330
0
100
AcDbDictionary
281
     1
  3
ACAD_GROUP
350
D
  3
ACAD_LAYOUT
350
1A
  3
ACAD_MLINESTYLE
350
17
  3
ACAD_PLOTSETTINGS
350
19
  3
ACAD_PLOTSTYLENAME
350
E
  0
DICTIONARY
  5
D
102
{ACAD_REACTORS
330
C
102
}
330
C
100
AcDbDictionary
281
     1
  0
DICTIONARY
  5
1A
102
{ACAD_REACTORS
330
C
102
}
330
C
100
AcDbDictionary
281
     1
  3
Layout1
350
1E
  3
Layout2
350
26
  3
Model
350
22
  0
DICTIONARY
  5
17
102
{ACAD_REACTORS
330
C
102
}
330
C
100
AcDbDictionary
281
     1
  3
Standard
350
18
  0
DICTIONARY
  5
19
102
{ACAD_REACTORS
330
C
102
}
330
C
100
AcDbDictionary
281
     1
  0
ACDBDICTIONARYWDFLT
  5
E
102
{ACAD_REACTORS
330
C
102
}
330
C
100
AcDbDictionary
281
     1
  3
Normal
350
F
100
AcDbDictionaryWithDefault
340
F
  0
LAYOUT
  5
1E
102
{ACAD_REACTORS
330
1A
102
}
330
1A
100
AcDbPlotSettings
  1

  2

  4

  6

 40
0.0
 41
0.0
 42
0.0
 43
0.0
 44
0.0
 45
0.0
 46
0.0
 47
0.0
 48
0.0
 49
0.0
140
0.0
141
0.0
142
1.0
143
1.0
 70
   688
 72
     0
 73
     0
 74
     5
  7

 75
    16
147
1.0
148
0.0
149
0.0
100
AcDbLayout
  1
Layout1
 70
     1
 71
     1
 10
0.0
 20
0.0
 11
0.0
 21
0.0
 12
0.0
 22
0.0
 32
0.0
 14
0.0
 24
0.0
 34
0.0
 15
0.0
 25
0.0
 35
0.0
146
0.0
 13
0.0
 23
0.0
 33
0.0
 16
1.0
 26
0.0
 36
0.0
 17
0.0
 27
1.0
 37
0.0
 76
     0
330
1B
  0
LAYOUT
  5
26
102
{ACAD_REACTORS
330
1A
102
}
330
1A
100
AcDbPlotSettings
  1

  2

  4

  6

 40
0.0
 41
0.0
 42
0.0
 43
0.0
 44
0.0
 45
0.0
 46
0.0
 47
0.0
 48
0.0
 49
0.0
140
0.0
141
0.0
142
1.0
143
1.0
 70
   688
 72
     0
 73
     0
 74
     5
  7

 75
    16
147
1.0
148
0.0
149
0.0
100
AcDbLayout
  1
Layout2
 70
     1
 71
     2
 10
0.0
 20
0.0
 11
0.0
 21
0.0
 12
0.0
 22
0.0
 32
0.0
 14
0.0
 24
0.0
 34
0.0
 15
0.0
 25
0.0
 35
0.0
146
0.0
 13
0.0
 23
0.0
 33
0.0
 16
1.0
 26
0.0
 36
0.0
 17
0.0
 27
1.0
 37
0.0
 76
     0
330
23
  0
LAYOUT
  5
22
102
{ACAD_REACTORS
330
1A
102
}
330
1A
100
AcDbPlotSettings
  1

  2

  4

  6

 40
0.0
 41
0.0
 42
0.0
 43
0.0
 44
0.0
 45
0.0
 46
0.0
 47
0.0
 48
0.0
 49
0.0
140
0.0
141
0.0
142
1.0
143
1.0
 70
  1712
 72
     0
 73
     0
 74
     0
  7

 75
     0
147
1.0
148
0.0
149
0.0
100
AcDbLayout
  1
Model
 70
     1
 71
     0
 10
0.0
 20
0.0
 11
0.0
 21
0.0
 12
0.0
 22
0.0
 32
0.0
 14
0.0
 24
0.0
 34
0.0
 15
210.0
 25
297.0
 35
0.0
146
0.0
 13
0.0
 23
0.0
 33
0.0
 16
1.0
 26
0.0
 36
0.0
 17
0.0
 27
1.0
 37
0.0
 76
     0
330
1F
  0
MLINESTYLE
  5
18
102
{ACAD_REACTORS
330
17
102
}
330
17
100
AcDbMlineStyle
  2
Standard
 70
     0
  3

 62
   256
 51
90.0
 52
90.0
 71
     2
 49
0.5
 62
   256
  6
BYLAYER
 49
-0.5
 62
   256
  6
BYLAYER
  0
ACDBPLACEHOLDER
  5
F
102
{ACAD_REACTORS
330
E
102
}
330
E
  0
ENDSEC
  0
EOF
