  0
SECTION
  2
HEADER
  9
$ACADVER
  1
AC1015
  9
$ACADMAINTVER
 70
     6
  9
$DWGCODEPAGE
  3
DOS932
  9
$INSBASE
 10
0.0
 20
0.0
 30
0.0
  9
$EXTMIN
 10
0.0
 20
0.0
 30
0.0
  9
$EXTMAX
 10
210.0
 20
297.0
 30
0.0
  9
$LIMMIN
 10
0.0
 20
0.0
  9
$LIMMAX
 10
0.0
 20
0.0
  9
$ORTHOMODE
 70
     0
  9
$REGENMODE
 70
     1
  9
$FILLMODE
 70
     1
  9
$QTEXTMODE
 70
     0
  9
$MIRRTEXT
 70
     1
  9
$LTSCALE
 40
1.0
  9
$ATTMODE
 70
     1
  9
$TEXTSIZE
 40
3.5
  9
$TRACEWID
 40
1.0
  9
$TEXTSTYLE
  7
Standard
  9
$CLAYER
  8
0
  9
$CELTYPE
  6
ByLayer
  9
$CECOLOR
 62
   256
  9
$CELTSCALE
 40
1.0
  9
$DISPSILH
 70
     0
  9
$DIMSCALE
 40
1.0
  9
$DIMASZ
 40
3.0
  9
$DIMEXO
 40
1.0
  9
$DIMDLI
 40
3.75
  9
$DIMRND
 40
0.0
  9
$DIMDLE
 40
0.0
  9
$DIMEXE
 40
1.0
  9
$DIMTP
 40
0.0
  9
$DIMTM
 40
0.0
  9
$DIMTXT
 40
3.5
  9
$DIMCEN
 40
2.5
  9
$DIMTSZ
 40
0.0
  9
$DIMTOL
 70
     0
  9
$DIMLIM
 70
     0
  9
$DIMTIH
 70
     1
  9
$DIMTOH
 70
     1
  9
$DIMSE1
 70
     0
  9
$DIMSE2
 70
     0
  9
$DIMTAD
 70
     1
  9
$DIMZIN
 70
     1
  9
$DIMBLK
  1

  9
$DIMASO
 70
     1
  9
$DIMSHO
 70
     1
  9
$DIMPOST
  1

  9
$DIMAPOST
  1

  9
$DIMALT
 70
     0
  9
$DIMALTD
 70
     3
  9
$DIMALTF
 40
0.0393700787
  9
$DIMLFAC
 40
1.0
  9
$DIMTOFL
 70
     1
  9
$DIMTVP
 40
0.0
  9
$DIMTIX
 70
     0
  9
$DIMSOXD
 70
     0
  9
$DIMSAH
 70
     0
  9
$DIMBLK1
  1

  9
$DIMBLK2
  1

  9
$DIMSTYLE
  2
ISO-25
  9
$DIMCLRD
 70
     0
  9
$DIMCLRE
 70
     0
  9
$DIMCLRT
 70
     0
  9
$DIMTFAC
 40
1.0
  9
$DIMGAP
 40
1.524
  9
$DIMJUST
 70
     0
  9
$DIMSD1
 70
     0
  9
$DIMSD2
 70
     0
  9
$DIMTOLJ
 70
     0
  9
$DIMTZIN
 70
     1
  9
$DIMALTZ
 70
     0
  9
$DIMALTTZ
 70
     0
  9
$DIMUPT
 70
     0
  9
$DIMDEC
 70
     2
  9
$DIMTDEC
 70
     2
  9
$DIMALTU
 70
     2
  9
$DIMALTTD
 70
     3
  9
$DIMTXSTY
  7
Standard
  9
$DIMAUNIT
 70
     0
  9
$DIMADEC
 70
     0
  9
$DIMALTRND
 40
0.0
  9
$DIMAZIN
 70
     0
  9
$DIMDSEP
 70
    44
  9
$DIMATFIT
 70
     3
  9
$DIMFRAC
 70
     0
  9
$DIMLDRBLK
  1

  9
$DIMLUNIT
 70
     2
  9
$DIMLWD
 70
    -2
  9
$DIMLWE
 70
    -2
  9
$DIMTMOVE
 70
     0
  9
$LUNITS
 70
     2
  9
$LUPREC
 70
     1
  9
$SKETCHINC
 40
1.0
  9
$FILLETRAD
 40
10.0
  9
$AUNITS
 70
     0
  9
$AUPREC
 70
     0
  9
$MENU
  1
.
  9
$ELEVATION
 40
0.0
  9
$PELEVATION
 40
0.0
  9
$THICKNESS
 40
0.0
  9
$LIMCHECK
 70
     0
  9
$CHAMFERA
 40
10.0
  9
$CHAMFERB
 40
10.0
  9
$CHAMFERC
 40
20.0
  9
$CHAMFERD
 40
0.0
  9
$SKPOLY
 70
     0
  9
$TDCREATE
 40
2454309.442604526
  9
$TDUCREATE
 40
2454309.067604526
  9
$TDUPDATE
 40
2454309.442604537
  9
$TDUUPDATE
 40
2454309.067604537
  9
$TDINDWG
 40
0.0000000116
  9
$TDUSRTIMER
 40
0.0000000116
  9
$USRTIMER
 70
     1
  9
$ANGBASE
 50
0.0
  9
$ANGDIR
 70
     0
  9
$PDMODE
 70
     0
  9
$PDSIZE
 40
-1.0
  9
$PLINEWID
 40
0.0
  9
$SPLFRAME
 70
     0
  9
$SPLINETYPE
 70
     6
  9
$SPLINESEGS
 70
     8
  9
$HANDSEED
  5
179
  9
$SURFTAB1
 70
     6
  9
$SURFTAB2
 70
     6
  9
$SURFTYPE
 70
     6
  9
$SURFU
 70
     6
  9
$SURFV
 70
     6
  9
$UCSBASE
  2

  9
$UCSNAME
  2

  9
$UCSORG
 10
0.0
 20
0.0
 30
0.0
  9
$UCSXDIR
 10
1.0
 20
0.0
 30
0.0
  9
$UCSYDIR
 10
0.0
 20
1.0
 30
0.0
  9
$UCSORTHOREF
  2

  9
$UCSORTHOVIEW
 70
     0
  9
$UCSORGTOP
 10
0.0
 20
0.0
 30
0.0
  9
$UCSORGBOTTOM
 10
0.0
 20
0.0
 30
0.0
  9
$UCSORGLEFT
 10
0.0
 20
0.0
 30
0.0
  9
$UCSORGRIGHT
 10
0.0
 20
0.0
 30
0.0
  9
$UCSORGFRONT
 10
0.0
 20
0.0
 30
0.0
  9
$UCSORGBACK
 10
0.0
 20
0.0
 30
0.0
  9
$PUCSBASE
  2

  9
$PUCSNAME
  2

  9
$PUCSORG
 10
0.0
 20
0.0
 30
0.0
  9
$PUCSXDIR
 10
1.0
 20
0.0
 30
0.0
  9
$PUCSYDIR
 10
0.0
 20
1.0
 30
0.0
  9
$PUCSORTHOREF
  2

  9
$PUCSORTHOVIEW
 70
     0
  9
$PUCSORGTOP
 10
0.0
 20
0.0
 30
0.0
  9
$PUCSORGBOTTOM
 10
0.0
 20
0.0
 30
0.0
  9
$PUCSORGLEFT
 10
0.0
 20
0.0
 30
0.0
  9
$PUCSORGRIGHT
 10
0.0
 20
0.0
 30
0.0
  9
$PUCSORGFRONT
 10
0.0
 20
0.0
 30
0.0
  9
$PUCSORGBACK
 10
0.0
 20
0.0
 30
0.0
  9
$USERI1
 70
     0
  9
$USERI2
 70
     0
  9
$USERI3
 70
     0
  9
$USERI4
 70
     0
  9
$USERI5
 70
     0
  9
$USERR1
 40
0.0
  9
$USERR2
 40
0.0
  9
$USERR3
 40
0.0
  9
$USERR4
 40
0.0
  9
$USERR5
 40
0.0
  9
$WORLDVIEW
 70
     1
  9
$SHADEDGE
 70
     3
  9
$SHADEDIF
 70
    70
  9
$TILEMODE
 70
     1
  9
$MAXACTVP
 70
    64
  9
$PINSBASE
 10
0.0
 20
0.0
 30
0.0
  9
$PLIMCHECK
 70
     0
  9
$PEXTMIN
 10
1.0000000000E+20
 20
1.0000000000E+20
 30
1.0000000000E+20
  9
$PEXTMAX
 10
-1.0000000000E+20
 20
-1.0000000000E+20
 30
-1.0000000000E+20
  9
$PLIMMIN
 10
0.0
 20
0.0
  9
$PLIMMAX
 10
420.0
 20
297.0
  9
$UNITMODE
 70
     0
  9
$VISRETAIN
 70
     1
  9
$PLINEGEN
 70
     0
  9
$PSLTSCALE
 70
     1
  9
$TREEDEPTH
 70
  3020
  9
$CMLSTYLE
  2
Standard
  9
$CMLJUST
 70
     0
  9
$CMLSCALE
 40
20.0
  9
$PROXYGRAPHICS
 70
     1
  9
$MEASUREMENT
 70
     1
  9
$CELWEIGHT
370
    -1
  9
$ENDCAPS
280
     0
  9
$JOINSTYLE
280
     0
  9
$LWDISPLAY
290
     1
  9
$INSUNITS
 70
     4
  9
$HYPERLINKBASE
  1

  9
$STYLESHEET
  1

  9
$XEDIT
290
     1
  9
$CEPSNTYPE
380
     0
  9
$PSTYLEMODE
290
     1
  9
$FINGERPRINTGUID
  2
{62389160-F705-4903-A86C-E152CBF7DEE2}
  9
$VERSIONGUID
  2
{FAEB1C32-E019-11D5-929B-00C0DF256EC4}
  9
$EXTNAMES
290
     1
  9
$PSVPSCALE
 40
0.0
  9
$OLESTARTUP
290
     0
  0
ENDSEC
  0
SECTION
  2
CLASSES
  0
CLASS
  1
ACDBDICTIONARYWDFLT
  2
AcDbDictionaryWithDefault
  3
ObjectDBX Classes
 90
        0
280
     0
281
     0
  0
CLASS
  1
ACDBPLACEHOLDER
  2
AcDbPlaceHolder
  3
ObjectDBX Classes
 90
        0
280
     0
281
     0
  0
CLASS
  1
LAYOUT
  2
AcDbLayout
  3
ObjectDBX Classes
 90
        0
280
     0
281
     0
  0
ENDSEC
  0
SECTION
  2
TABLES
  0
TABLE
  2
VPORT
  5
8
330
0
100
AcDbSymbolTable
 70
     1
  0
VPORT
  5
29
330
8
100
AcDbSymbolTableRecord
100
AcDbViewportTableRecord
  2
*Active
 70
     0
 10
0.0
 20
0.0
 11
1.0
 21
1.0
 12
105.0
 22
148.5
 13
0.0
 23
0.0
 14
10.0
 24
10.0
 15
10.0
 25
10.0
 16
0.0
 26
0.0
 36
1.0
 17
0.0
 27
0.0
 37
0.0
 40
297.0
 41
1.9729729729
 42
50.0
 43
0.0
 44
0.0
 50
0.0
 51
0.0
 71
     0
 72
  2000
 73
     1
 74
     3
 75
     0
 76
     0
 77
     0
 78
     0
281
     0
 65
     1
110
0.0
120
0.0
130
0.0
111
1.0
121
0.0
131
0.0
112
0.0
122
1.0
132
0.0
 79
     0
146
0.0
  0
ENDTAB
  0
TABLE
  2
LTYPE
  5
5
330
0
100
AcDbSymbolTable
 70
     6
  0
LTYPE
  5
14
330
5
100
AcDbSymbolTableRecord
100
AcDbLinetypeTableRecord
  2
ByBlock
 70
     0
  3

 72
    65
 73
     0
 40
0.0
  0
LTYPE
  5
15
330
5
100
AcDbSymbolTableRecord
100
AcDbLinetypeTableRecord
  2
ByLayer
 70
     0
  3

 72
    65
 73
     0
 40
0.0
  0
LTYPE
  5
16
330
5
100
AcDbSymbolTableRecord
100
AcDbLinetypeTableRecord
  2
Continuous
 70
     0
  3
Solid line
 72
    65
 73
     0
 40
0.0
  0
LTYPE
  5
2A
330
5
100
AcDbSymbolTableRecord
100
AcDbLinetypeTableRecord
  2
HIDDEN
 70
     0
  3
Hidden __ __ __ __ __ __ __ __ __ __ __ __ __ __
 72
    65
 73
     2
 40
1.905
 49
1.27
 74
     0
 49
-0.635
 74
     0
  0
LTYPE
  5
2B
330
5
100
AcDbSymbolTableRecord
100
AcDbLinetypeTableRecord
  2
PHANTOM
 70
     0
  3
Phantom ______  __  __  ______  __  __  ______
 72
    65
 73
     6
 40
12.7
 49
6.35
 74
     0
 49
-1.27
 74
     0
 49
1.27
 74
     0
 49
-1.27
 74
     0
 49
1.27
 74
     0
 49
-1.27
 74
     0
  0
LTYPE
  5
2C
330
5
100
AcDbSymbolTableRecord
100
AcDbLinetypeTableRecord
  2
CENTER
 70
     0
  3
Center ____ _ ____ _ ____ _ ____ _ ____ _ ____
 72
    65
 73
     4
 40
10.16
 49
6.35
 74
     0
 49
-1.27
 74
     0
 49
1.27
 74
     0
 49
-1.27
 74
     0
  0
LTYPE
  5
2D
330
5
100
AcDbSymbolTableRecord
100
AcDbLinetypeTableRecord
  2
CENTERX2
 70
     0
  3
Center (2x) ________  __  ________  __  _____
 72
    65
 73
     4
 40
20.32
 49
12.7
 74
     0
 49
-2.54
 74
     0
 49
2.54
 74
     0
 49
-2.54
 74
     0
  0
LTYPE
  5
2E
330
5
100
AcDbSymbolTableRecord
100
AcDbLinetypeTableRecord
  2
DOT2
 70
     0
  3
Dot (.5x) ........................................
 72
    65
 73
     2
 40
0.635
 49
0.0
 74
     0
 49
-0.635
 74
     0
  0
ENDTAB
  0
TABLE
  2
LAYER
  5
2
330
0
100
AcDbSymbolTable
 70
     6
  0
LAYER
  5
10
330
2
100
AcDbSymbolTableRecord
100
AcDbLayerTableRecord
  2
0
 70
     0
 62
     7
  6
Continuous
370
    -3
390
F
  0
LAYER
  5
2F
330
2
100
AcDbSymbolTableRecord
100
AcDbLayerTableRecord
  2
SLD-0_0
 70
     0
 62
   179
  6
Continuous
370
     0
390
F
  0
LAYER
  5
30
330
2
100
AcDbSymbolTableRecord
100
AcDbLayerTableRecord
  2
SLD-0
 70
     0
 62
   179
  6
Continuous
370
     0
390
F
  0
LAYER
  5
31
330
2
100
AcDbSymbolTableRecord
100
AcDbLayerTableRecord
  2
SLD-DEFPOINTS
 70
     0
 62
   179
  6
Continuous
370
     0
390
F
  0
LAYER
  5
32
330
2
100
AcDbSymbolTableRecord
100
AcDbLayerTableRecord
  2
SLD-DEFPOINTS_0
 70
     0
 62
   179
  6
Continuous
370
     0
390
F
  0
LAYER
  5
86
330
2
100
AcDbSymbolTableRecord
100
AcDbLayerTableRecord
  2
Defpoints
 70
     0
 62
     7
  6
Continuous
290
     0
370
    -3
390
F
  0
ENDTAB
  0
TABLE
  2
STYLE
  5
3
330
0
100
AcDbSymbolTable
 70
     5
  0
STYLE
  5
11
330
3
100
AcDbSymbolTableRecord
100
AcDbTextStyleTableRecord
  2
Standard
 70
     0
 40
0.0
 41
1.0
 50
0.0
 71
     0
 42
2.5
  3
txt
  4
bigfont
  0
STYLE
  5
36
330
3
100
AcDbSymbolTableRecord
100
AcDbTextStyleTableRecord
  2
SLDTEXTSTYLE0
 70
     0
 40
0.0
 41
0.7
 50
0.0
 71
     0
 42
0.2
  3
TXT
  4
bigfont
  0
STYLE
  5
3E
330
3
100
AcDbSymbolTableRecord
100
AcDbTextStyleTableRecord
  2
SLDTEXTSTYLE1
 70
     0
 40
0.0
 41
0.407202216
 50
0.0
 71
     0
 42
0.2
  3
TXT
  4
bigfont
  0
STYLE
  5
16E
330
3
100
AcDbSymbolTableRecord
100
AcDbTextStyleTableRecord
  2
SLDTEXTSTYLE2
 70
     0
 40
0.0
 41
0.5157894737
 50
0.0
 71
     0
 42
0.2
  3
TXT
  4
bigfont
  0
STYLE
  5
171
330
3
100
AcDbSymbolTableRecord
100
AcDbTextStyleTableRecord
  2
SLDTEXTSTYLE3
 70
     0
 40
0.0
 41
0.3191285953
 50
0.0
 71
     0
 42
0.2
  3
TXT
  4
bigfont
  0
ENDTAB
  0
TABLE
  2
VIEW
  5
6
330
0
100
AcDbSymbolTable
 70
     0
  0
ENDTAB
  0
TABLE
  2
UCS
  5
7
330
0
100
AcDbSymbolTable
 70
     0
  0
ENDTAB
  0
TABLE
  2
APPID
  5
9
330
0
100
AcDbSymbolTable
 70
     1
  0
APPID
  5
12
330
9
100
AcDbSymbolTableRecord
100
AcDbRegAppTableRecord
  2
ACAD
 70
     0
  0
ENDTAB
  0
TABLE
  2
DIMSTYLE
  5
A
330
0
100
AcDbSymbolTable
 70
     5
100
AcDbDimStyleTable
  0
DIMSTYLE
105
27
330
A
100
AcDbSymbolTableRecord
100
AcDbDimStyleTableRecord
  2
ISO-25
 70
     0
 41
2.5
 42
0.625
 43
3.75
 44
1.25
 73
     0
 74
     0
 77
     1
 78
     8
140
2.5
141
2.5
143
0.0393700787
147
0.625
171
     3
172
     1
271
     2
272
     2
274
     3
278
    44
283
     0
284
     8
340
11
  0
DIMSTYLE
105
94
102
{ACAD_REACTORS
330
85
330
A1
330
C8
330
F1
330
106
330
11B
102
}
330
A
100
AcDbSymbolTableRecord
100
AcDbDimStyleTableRecord
  2
SLDDIMSTYLE0
 70
     0
 41
3.0
 44
0.0
 73
     0
 74
     0
 77
     3
 78
     4
140
3.5
147
0.875
173
     1
271
     1
272
     3
284
    12
340
36
341
95
343
95
344
95
  0
DIMSTYLE
105
C0
102
{ACAD_REACTORS
330
B5
102
}
330
A
100
AcDbSymbolTableRecord
100
AcDbDimStyleTableRecord
  2
SLDDIMSTYLE1
 70
     0
 41
3.0
 44
0.0
 78
     4
140
3.5
147
0.875
173
     1
271
     1
272
     3
284
    12
340
36
341
95
343
95
344
95
  0
DIMSTYLE
105
E8
102
{ACAD_REACTORS
330
DB
330
12E
330
144
102
}
330
A
100
AcDbSymbolTableRecord
100
AcDbDimStyleTableRecord
  2
SLDDIMSTYLE2
 70
     0
 41
3.0
 44
0.0
 73
     0
 74
     0
 77
     3
 78
    12
140
3.5
147
0.875
173
     1
271
     1
272
     3
284
    12
340
36
341
95
343
95
344
95
  0
DIMSTYLE
105
165
102
{ACAD_REACTORS
330
158
102
}
330
A
100
AcDbSymbolTableRecord
100
AcDbDimStyleTableRecord
  2
SLDDIMSTYLE3
 70
     0
 41
3.0
 44
0.0
 78
    12
140
3.5
147
0.875
172
     1
173
     1
271
     1
272
     3
284
    12
340
36
341
95
343
95
344
95
  0
ENDTAB
  0
TABLE
  2
BLOCK_RECORD
  5
1
330
0
100
AcDbSymbolTable
 70
    19
  0
BLOCK_RECORD
  5
1F
330
1
100
AcDbSymbolTableRecord
100
AcDbBlockTableRecord
  2
*Model_Space
340
22
  0
BLOCK_RECORD
  5
1B
330
1
100
AcDbSymbolTableRecord
100
AcDbBlockTableRecord
  2
*Paper_Space
340
1E
  0
BLOCK_RECORD
  5
23
330
1
100
AcDbSymbolTableRecord
100
AcDbBlockTableRecord
  2
*Paper_Space0
340
26
  0
BLOCK_RECORD
  5
33
330
1
100
AcDbSymbolTableRecord
100
AcDbBlockTableRecord
  2
注記
340
0
102
{BLKREFS
331
174
102
}
  0
BLOCK_RECORD
  5
39
330
1
100
AcDbSymbolTableRecord
100
AcDbBlockTableRecord
  2
SURFACEFINISH40
340
0
102
{BLKREFS
331
173
102
}
  0
BLOCK_RECORD
  5
40
330
1
100
AcDbSymbolTableRecord
100
AcDbBlockTableRecord
  2
SW_CENTERMARK0
340
0
102
{BLKREFS
331
175
102
}
  0
BLOCK_RECORD
  5
4B
330
1
100
AcDbSymbolTableRecord
100
AcDbBlockTableRecord
  2
SW_CENTERMARK1
340
0
102
{BLKREFS
331
176
102
}
  0
BLOCK_RECORD
  5
56
330
1
100
AcDbSymbolTableRecord
100
AcDbBlockTableRecord
  2
SW_CENTERMARK2
340
0
102
{BLKREFS
331
177
102
}
  0
BLOCK_RECORD
  5
61
330
1
100
AcDbSymbolTableRecord
100
AcDbBlockTableRecord
  2
SW_CENTERMARK3
340
0
102
{BLKREFS
331
178
102
}
  0
BLOCK_RECORD
  5
87
330
1
100
AcDbSymbolTableRecord
100
AcDbBlockTableRecord
  2
*D7
340
0
  0
BLOCK_RECORD
  5
95
330
1
100
AcDbSymbolTableRecord
100
AcDbBlockTableRecord
  2
_Open30
340
0
102
{BLKREFS
331
8C
331
8B
331
9B
331
9C
331
A7
331
A6
331
AF
331
B0
331
BA
331
C2
331
CE
331
CD
331
D5
331
D6
331
E1
331
E0
331
E9
331
EA
331
F7
331
F6
331
FE
331
FF
331
10C
331
10B
331
113
331
114
331
121
331
120
331
128
331
129
331
134
331
133
331
13C
331
13D
331
14A
331
149
331
152
331
153
331
15F
331
15E
331
166
102
}
  0
BLOCK_RECORD
  5
A2
330
1
100
AcDbSymbolTableRecord
100
AcDbBlockTableRecord
  2
*D9
340
0
  0
BLOCK_RECORD
  5
B6
330
1
100
AcDbSymbolTableRecord
100
AcDbBlockTableRecord
  2
*D10
340
0
  0
BLOCK_RECORD
  5
C9
330
1
100
AcDbSymbolTableRecord
100
AcDbBlockTableRecord
  2
*D11
340
0
  0
BLOCK_RECORD
  5
DC
330
1
100
AcDbSymbolTableRecord
100
AcDbBlockTableRecord
  2
*D12
340
0
  0
BLOCK_RECORD
  5
F2
330
1
100
AcDbSymbolTableRecord
100
AcDbBlockTableRecord
  2
*D13
340
0
  0
BLOCK_RECORD
  5
107
330
1
100
AcDbSymbolTableRecord
100
AcDbBlockTableRecord
  2
*D14
340
0
  0
BLOCK_RECORD
  5
11C
330
1
100
AcDbSymbolTableRecord
100
AcDbBlockTableRecord
  2
*D15
340
0
  0
BLOCK_RECORD
  5
12F
330
1
100
AcDbSymbolTableRecord
100
AcDbBlockTableRecord
  2
*D16
340
0
  0
BLOCK_RECORD
  5
145
330
1
100
AcDbSymbolTableRecord
100
AcDbBlockTableRecord
  2
*D17
340
0
  0
BLOCK_RECORD
  5
159
330
1
100
AcDbSymbolTableRecord
100
AcDbBlockTableRecord
  2
*D18
340
0
  0
ENDTAB
  0
ENDSEC
  0
SECTION
  2
BLOCKS
  0
BLOCK
  5
20
330
1F
100
AcDbEntity
  8
0
100
AcDbBlockBegin
  2
*Model_Space
 70
     0
 71
     0
 10
0.0
 20
0.0
 30
0.0
  3
*Model_Space
  1

  0
ENDBLK
  5
21
330
1F
100
AcDbEntity
  8
0
100
AcDbBlockEnd
  0
BLOCK
  5
1C
330
1B
100
AcDbEntity
 67
     1
  8
0
100
AcDbBlockBegin
  2
*Paper_Space
 70
     0
 71
     0
 10
0.0
 20
0.0
 30
0.0
  3
*Paper_Space
  1

  0
ENDBLK
  5
1D
330
1B
100
AcDbEntity
 67
     1
  8
0
100
AcDbBlockEnd
  0
BLOCK
  5
24
330
23
100
AcDbEntity
  8
0
100
AcDbBlockBegin
  2
*Paper_Space0
 70
     0
 71
     0
 10
0.0
 20
0.0
 30
0.0
  3
*Paper_Space0
  1

  0
ENDBLK
  5
25
330
23
100
AcDbEntity
  8
0
100
AcDbBlockEnd
  0
BLOCK
  5
34
330
33
100
AcDbEntity
  8
0
100
AcDbBlockBegin
  2
注記
 70
     0
 71
     0
 10
0.0
 20
0.0
 30
0.0
  3
注記
  1

  0
MTEXT
  5
37
330
33
100
AcDbEntity
  8
0
  6
Continuous
 62
     7
370
     0
100
AcDbMText
 10
0.2636785918
 20
9.0739778448
 30
0.0
 40
3.5
 41
0.0
 71
     1
 72
     1
  1
１．特記ナキ角部ハ、バリ　カエリノ無キコト。
  7
SLDTEXTSTYLE0
 73
     1
 44
1.0
  0
MTEXT
  5
38
330
33
100
AcDbEntity
  8
0
  6
Continuous
 62
     7
370
     0
100
AcDbMText
 10
0.2636785918
 20
3.5759549983
 30
0.0
 40
3.5
 41
0.0
 71
     1
 72
     1
  1
２．特記ナキ隅部ハ、Ｒ０．４ＭＡＸトスル。
  7
SLDTEXTSTYLE0
 73
     1
 44
1.0
  0
ENDBLK
  5
35
330
33
100
AcDbEntity
  8
0
100
AcDbBlockEnd
  0
BLOCK
  5
3A
330
39
100
AcDbEntity
  8
0
100
AcDbBlockBegin
  2
SURFACEFINISH40
 70
     0
 71
     0
 10
0.0
 20
0.0
 30
0.0
  3
SURFACEFINISH40
  1

  0
LINE
  5
3C
330
39
100
AcDbEntity
  8
SLD-0
  6
Continuous
 62
   179
100
AcDbLine
 10
0.6658780464
 20
-6.0470869104
 30
0.0
 11
-2.9014164846
 21
0.0000001164
 31
0.0
  0
LINE
  5
3D
330
39
100
AcDbEntity
  8
SLD-0
  6
Continuous
 62
   179
100
AcDbLine
 10
0.6658780464
 20
-6.0470869104
 30
0.0
 11
7.8004671084
 21
6.0470871433
 31
0.0
  0
MTEXT
  5
3F
330
39
100
AcDbEntity
  8
SLD-0
100
AcDbMText
 10
0.0
 20
4.3931031597
 30
0.0
 40
3.175
 41
0.0
 71
     1
 72
     1
  1
25
  7
SLDTEXTSTYLE1
 73
     1
 44
1.0
  0
ENDBLK
  5
3B
330
39
100
AcDbEntity
  8
0
100
AcDbBlockEnd
  0
BLOCK
  5
41
330
40
100
AcDbEntity
  8
0
100
AcDbBlockBegin
  2
SW_CENTERMARK0
 70
     0
 71
     0
 10
0.0
 20
0.0
 30
0.0
  3
SW_CENTERMARK0
  1

  0
LINE
  5
43
330
40
100
AcDbEntity
  8
SLD-0
  6
Continuous
 62
   179
100
AcDbLine
 10
119.9722593068
 20
184.4162130937
 30
0.0
 11
119.9722593068
 21
186.9162130937
 31
0.0
  0
LINE
  5
44
330
40
100
AcDbEntity
  8
SLD-0
  6
Continuous
 62
   179
100
AcDbLine
 10
119.9722593068
 20
184.4162130937
 30
0.0
 11
117.4722593068
 21
184.4162130937
 31
0.0
  0
LINE
  5
45
330
40
100
AcDbEntity
  8
SLD-0
  6
Continuous
 62
   179
100
AcDbLine
 10
119.9722593068
 20
184.4162130937
 30
0.0
 11
119.9722593068
 21
181.9162130937
 31
0.0
  0
LINE
  5
46
330
40
100
AcDbEntity
  8
SLD-0
  6
Continuous
 62
   179
100
AcDbLine
 10
119.9722593068
 20
184.4162130937
 30
0.0
 11
122.4722593068
 21
184.4162130937
 31
0.0
  0
LINE
  5
47
330
40
100
AcDbEntity
  8
SLD-0
  6
Continuous
 62
   179
100
AcDbLine
 10
119.9722593068
 20
189.4162130937
 30
0.0
 11
119.9722593068
 21
190.0162130937
 31
0.0
  0
LINE
  5
48
330
40
100
AcDbEntity
  8
SLD-0
  6
Continuous
 62
   179
100
AcDbLine
 10
114.9722593068
 20
184.4162130937
 30
0.0
 11
114.3722593068
 21
184.4162130937
 31
0.0
  0
LINE
  5
49
330
40
100
AcDbEntity
  8
SLD-0
  6
Continuous
 62
   179
100
AcDbLine
 10
119.9722593068
 20
179.4162130937
 30
0.0
 11
119.9722593068
 21
178.8162130937
 31
0.0
  0
LINE
  5
4A
330
40
100
AcDbEntity
  8
SLD-0
  6
Continuous
 62
   179
100
AcDbLine
 10
124.9722593068
 20
184.4162130937
 30
0.0
 11
125.5722593068
 21
184.4162130937
 31
0.0
  0
ENDBLK
  5
42
330
40
100
AcDbEntity
  8
0
100
AcDbBlockEnd
  0
BLOCK
  5
4C
330
4B
100
AcDbEntity
  8
0
100
AcDbBlockBegin
  2
SW_CENTERMARK1
 70
     0
 71
     0
 10
0.0
 20
0.0
 30
0.0
  3
SW_CENTERMARK1
  1

  0
LINE
  5
4E
330
4B
100
AcDbEntity
  8
SLD-0
  6
Continuous
 62
   179
100
AcDbLine
 10
119.9722593068
 20
161.9162130937
 30
0.0
 11
119.9722593068
 21
164.4162130937
 31
0.0
  0
LINE
  5
4F
330
4B
100
AcDbEntity
  8
SLD-0
  6
Continuous
 62
   179
100
AcDbLine
 10
119.9722593068
 20
161.9162130937
 30
0.0
 11
117.4722593068
 21
161.9162130937
 31
0.0
  0
LINE
  5
50
330
4B
100
AcDbEntity
  8
SLD-0
  6
Continuous
 62
   179
100
AcDbLine
 10
119.9722593068
 20
161.9162130937
 30
0.0
 11
119.9722593068
 21
159.4162130937
 31
0.0
  0
LINE
  5
51
330
4B
100
AcDbEntity
  8
SLD-0
  6
Continuous
 62
   179
100
AcDbLine
 10
119.9722593068
 20
161.9162130937
 30
0.0
 11
122.4722593068
 21
161.9162130937
 31
0.0
  0
LINE
  5
52
330
4B
100
AcDbEntity
  8
SLD-0
  6
Continuous
 62
   179
100
AcDbLine
 10
119.9722593068
 20
166.9162130937
 30
0.0
 11
119.9722593068
 21
167.5162130937
 31
0.0
  0
LINE
  5
53
330
4B
100
AcDbEntity
  8
SLD-0
  6
Continuous
 62
   179
100
AcDbLine
 10
114.9722593068
 20
161.9162130937
 30
0.0
 11
114.3722593068
 21
161.9162130937
 31
0.0
  0
LINE
  5
54
330
4B
100
AcDbEntity
  8
SLD-0
  6
Continuous
 62
   179
100
AcDbLine
 10
119.9722593068
 20
156.9162130937
 30
0.0
 11
119.9722593068
 21
156.3162130937
 31
0.0
  0
LINE
  5
55
330
4B
100
AcDbEntity
  8
SLD-0
  6
Continuous
 62
   179
100
AcDbLine
 10
124.9722593068
 20
161.9162130937
 30
0.0
 11
125.5722593068
 21
161.9162130937
 31
0.0
  0
ENDBLK
  5
4D
330
4B
100
AcDbEntity
  8
0
100
AcDbBlockEnd
  0
BLOCK
  5
57
330
56
100
AcDbEntity
  8
0
100
AcDbBlockBegin
  2
SW_CENTERMARK2
 70
     0
 71
     0
 10
0.0
 20
0.0
 30
0.0
  3
SW_CENTERMARK2
  1

  0
LINE
  5
59
330
56
100
AcDbEntity
  8
SLD-0
  6
Continuous
 62
   179
100
AcDbLine
 10
104.9722593068
 20
161.9162130937
 30
0.0
 11
104.9722593068
 21
164.4162130937
 31
0.0
  0
LINE
  5
5A
330
56
100
AcDbEntity
  8
SLD-0
  6
Continuous
 62
   179
100
AcDbLine
 10
104.9722593068
 20
161.9162130937
 30
0.0
 11
102.4722593068
 21
161.9162130937
 31
0.0
  0
LINE
  5
5B
330
56
100
AcDbEntity
  8
SLD-0
  6
Continuous
 62
   179
100
AcDbLine
 10
104.9722593068
 20
161.9162130937
 30
0.0
 11
104.9722593068
 21
159.4162130937
 31
0.0
  0
LINE
  5
5C
330
56
100
AcDbEntity
  8
SLD-0
  6
Continuous
 62
   179
100
AcDbLine
 10
104.9722593068
 20
161.9162130937
 30
0.0
 11
107.4722593068
 21
161.9162130937
 31
0.0
  0
LINE
  5
5D
330
56
100
AcDbEntity
  8
SLD-0
  6
Continuous
 62
   179
100
AcDbLine
 10
104.9722593068
 20
166.9162130937
 30
0.0
 11
104.9722593068
 21
167.5162130937
 31
0.0
  0
LINE
  5
5E
330
56
100
AcDbEntity
  8
SLD-0
  6
Continuous
 62
   179
100
AcDbLine
 10
99.9722593068
 20
161.9162130937
 30
0.0
 11
99.3722593068
 21
161.9162130937
 31
0.0
  0
LINE
  5
5F
330
56
100
AcDbEntity
  8
SLD-0
  6
Continuous
 62
   179
100
AcDbLine
 10
104.9722593068
 20
156.9162130937
 30
0.0
 11
104.9722593068
 21
156.3162130937
 31
0.0
  0
LINE
  5
60
330
56
100
AcDbEntity
  8
SLD-0
  6
Continuous
 62
   179
100
AcDbLine
 10
109.9722593068
 20
161.9162130937
 30
0.0
 11
110.5722593068
 21
161.9162130937
 31
0.0
  0
ENDBLK
  5
58
330
56
100
AcDbEntity
  8
0
100
AcDbBlockEnd
  0
BLOCK
  5
62
330
61
100
AcDbEntity
  8
0
100
AcDbBlockBegin
  2
SW_CENTERMARK3
 70
     0
 71
     0
 10
0.0
 20
0.0
 30
0.0
  3
SW_CENTERMARK3
  1

  0
LINE
  5
64
330
61
100
AcDbEntity
  8
SLD-0
  6
Continuous
 62
   179
100
AcDbLine
 10
89.9722593068
 20
161.9162130937
 30
0.0
 11
89.9722593068
 21
164.4162130937
 31
0.0
  0
LINE
  5
65
330
61
100
AcDbEntity
  8
SLD-0
  6
Continuous
 62
   179
100
AcDbLine
 10
89.9722593068
 20
161.9162130937
 30
0.0
 11
87.4722593068
 21
161.9162130937
 31
0.0
  0
LINE
  5
66
330
61
100
AcDbEntity
  8
SLD-0
  6
Continuous
 62
   179
100
AcDbLine
 10
89.9722593068
 20
161.9162130937
 30
0.0
 11
89.9722593068
 21
159.4162130937
 31
0.0
  0
LINE
  5
67
330
61
100
AcDbEntity
  8
SLD-0
  6
Continuous
 62
   179
100
AcDbLine
 10
89.9722593068
 20
161.9162130937
 30
0.0
 11
92.4722593068
 21
161.9162130937
 31
0.0
  0
LINE
  5
68
330
61
100
AcDbEntity
  8
SLD-0
  6
Continuous
 62
   179
100
AcDbLine
 10
89.9722593068
 20
166.9162130937
 30
0.0
 11
89.9722593068
 21
167.5162130937
 31
0.0
  0
LINE
  5
69
330
61
100
AcDbEntity
  8
SLD-0
  6
Continuous
 62
   179
100
AcDbLine
 10
84.9722593068
 20
161.9162130937
 30
0.0
 11
84.3722593068
 21
161.9162130937
 31
0.0
  0
LINE
  5
6A
330
61
100
AcDbEntity
  8
SLD-0
  6
Continuous
 62
   179
100
AcDbLine
 10
89.9722593068
 20
156.9162130937
 30
0.0
 11
89.9722593068
 21
156.3162130937
 31
0.0
  0
LINE
  5
6B
330
61
100
AcDbEntity
  8
SLD-0
  6
Continuous
 62
   179
100
AcDbLine
 10
94.9722593068
 20
161.9162130937
 30
0.0
 11
95.5722593068
 21
161.9162130937
 31
0.0
  0
ENDBLK
  5
63
330
61
100
AcDbEntity
  8
0
100
AcDbBlockEnd
  0
BLOCK
  5
92
330
87
100
AcDbEntity
  8
0
100
AcDbBlockBegin
  2
*D7
 70
     1
 71
     0
 10
0.0
 20
0.0
 30
0.0
  3
*D7
  1

  0
INSERT
  5
9B
330
87
100
AcDbEntity
  8
SLD-0
100
AcDbBlockReference
  2
_Open30
 10
61.1836895073
 20
174.4162127624
 30
0.1
 41
3.0
 42
3.0
 50
90.0000008711
  0
INSERT
  5
9C
330
87
100
AcDbEntity
  8
SLD-0
100
AcDbBlockReference
  2
_Open30
 10
61.1836898874
 20
149.4162127624
 30
0.1
 41
3.0
 42
3.0
 50
270.0000008711
  0
LINE
  5
9D
330
87
100
AcDbEntity
  8
SLD-0
100
AcDbLine
 10
81.9722593068
 20
174.4162130785
 30
0.0
 11
60.1836895073
 21
174.4162127472
 31
0.0
  0
LINE
  5
9E
330
87
100
AcDbEntity
  8
SLD-0
100
AcDbLine
 10
81.9554694826
 20
149.4162130782
 30
0.0
 11
60.1836898874
 21
149.4162127472
 31
0.0
  0
LINE
  5
9F
330
87
100
AcDbEntity
  8
SLD-0
100
AcDbLine
 10
61.1836895073
 20
174.4162127624
 30
0.0
 11
61.1836898874
 21
149.4162127624
 31
0.0
  0
MTEXT
  5
A0
330
87
100
AcDbEntity
  8
SLD-0
100
AcDbMText
 10
57.1109627194
 20
157.8430038922
 30
0.0
 40
3.5
 41
0.0
 71
     1
 72
     1
  1
25.0
  7
SLDTEXTSTYLE0
 11
-1.520408681715394E-8
 21
0.9999999999999999
 31
0.0
 73
     1
 44
1.0
  0
ENDBLK
  5
93
330
87
100
AcDbEntity
  8
0
100
AcDbBlockEnd
  0
BLOCK
  5
96
330
95
100
AcDbEntity
  8
0
100
AcDbBlockBegin
  2
_Open30
 70
     0
 71
     0
 10
0.0
 20
0.0
 30
0.0
  3
_Open30
  1

  0
LINE
  5
98
330
95
100
AcDbEntity
  8
0
  6
ByBlock
 62
     0
370
    -2
100
AcDbLine
 10
-1.0
 20
0.267949
 30
0.0
 11
0.0
 21
0.0
 31
0.0
  0
LINE
  5
99
330
95
100
AcDbEntity
  8
0
  6
ByBlock
 62
     0
370
    -2
100
AcDbLine
 10
0.0
 20
0.0
 30
0.0
 11
-1.0
 21
-0.267949
 31
0.0
  0
LINE
  5
9A
330
95
100
AcDbEntity
  8
0
  6
ByBlock
 62
     0
370
    -2
100
AcDbLine
 10
0.0
 20
0.0
 30
0.0
 11
-1.0
 21
0.0
 31
0.0
  0
ENDBLK
  5
97
330
95
100
AcDbEntity
  8
0
100
AcDbBlockEnd
  0
BLOCK
  5
AD
330
A2
100
AcDbEntity
  8
0
100
AcDbBlockBegin
  2
*D9
 70
     1
 71
     0
 10
0.0
 20
0.0
 30
0.0
  3
*D9
  1

  0
INSERT
  5
AF
330
A2
100
AcDbEntity
  8
SLD-0
100
AcDbBlockReference
  2
_Open30
 10
154.7491270566
 20
149.416214185
 30
0.1
 41
3.0
 42
3.0
 50
270.0000008711
  0
INSERT
  5
B0
330
A2
100
AcDbEntity
  8
SLD-0
100
AcDbBlockReference
  2
_Open30
 10
154.7491263725
 20
194.416214185
 30
0.1
 41
3.0
 42
3.0
 50
90.0000008711
  0
LINE
  5
B1
330
A2
100
AcDbEntity
  8
SLD-0
100
AcDbLine
 10
128.4722585927
 20
149.4162137855
 30
0.0
 11
155.7491270566
 21
149.4162142002
 31
0.0
  0
LINE
  5
B2
330
A2
100
AcDbEntity
  8
SLD-0
100
AcDbLine
 10
127.9722585299
 20
194.4162137779
 30
0.0
 11
155.7491263725
 21
194.4162142002
 31
0.0
  0
LINE
  5
B3
330
A2
100
AcDbEntity
  8
SLD-0
100
AcDbLine
 10
154.7491270566
 20
149.416214185
 30
0.0
 11
154.7491263725
 21
194.416214185
 31
0.0
  0
MTEXT
  5
B4
330
A2
100
AcDbEntity
  8
SLD-0
100
AcDbMText
 10
150.6763997366
 20
167.8430053148
 30
0.0
 40
3.5
 41
0.0
 71
     1
 72
     1
  1
45.0
  7
SLDTEXTSTYLE0
 11
-1.520408037786040E-8
 21
0.9999999999999999
 31
0.0
 73
     1
 44
1.0
  0
ENDBLK
  5
AE
330
A2
100
AcDbEntity
  8
0
100
AcDbBlockEnd
  0
BLOCK
  5
BE
330
B6
100
AcDbEntity
  8
0
100
AcDbBlockBegin
  2
*D10
 70
     1
 71
     0
 10
0.0
 20
0.0
 30
0.0
  3
*D10
  1

  0
INSERT
  5
C2
330
B6
100
AcDbEntity
  8
SLD-0
100
AcDbBlockReference
  2
_Open30
 10
130.6484988713
 20
150.5546729885
 30
0.1
 41
3.0
 42
3.0
 50
129.4383858526
  0
LINE
  5
C3
330
B6
100
AcDbEntity
  8
SLD-0
100
AcDbLine
 10
130.6484988713
 20
150.5546729885
 30
0.0
 11
140.3248373823
 21
138.7905834968
 31
0.0
  0
LINE
  5
C4
330
B6
100
AcDbEntity
  8
SLD-0
100
AcDbLine
 10
127.4722585167
 20
154.4162137703
 30
0.0
 11
130.6484988713
 21
150.5546729885
 31
0.0
  0
LINE
  5
C5
330
B6
100
AcDbEntity
  8
SLD-0
100
AcDbLine
 10
140.3248373823
 20
138.7905834968
 30
0.0
 11
157.3053941699
 21
138.7905834968
 31
0.0
  0
MTEXT
  5
C6
330
B6
100
AcDbEntity
  8
SLD-0
100
AcDbMText
 10
143.4998373823
 20
142.8633105367
 30
0.0
 40
3.5
 41
0.0
 71
     1
 72
     1
  1
5-R
  7
SLDTEXTSTYLE0
 73
     1
 44
1.0
  0
MTEXT
  5
C7
330
B6
100
AcDbEntity
  8
SLD-0
100
AcDbMText
 10
149.6088657761
 20
142.8633105367
 30
0.0
 40
3.5
 41
0.0
 71
     1
 72
     1
  1
5.0
  7
SLDTEXTSTYLE0
 73
     1
 44
1.0
  0
ENDBLK
  5
BF
330
B6
100
AcDbEntity
  8
0
100
AcDbBlockEnd
  0
BLOCK
  5
D3
330
C9
100
AcDbEntity
  8
0
100
AcDbBlockBegin
  2
*D11
 70
     1
 71
     0
 10
0.0
 20
0.0
 30
0.0
  3
*D11
  1

  0
INSERT
  5
D5
330
C9
100
AcDbEntity
  8
SLD-0
100
AcDbBlockReference
  2
_Open30
 10
107.4722583304
 20
205.3562039593
 30
0.1
 41
3.0
 42
3.0
 50
180.0
  0
INSERT
  5
D6
330
C9
100
AcDbEntity
  8
SLD-0
100
AcDbBlockReference
  2
_Open30
 10
132.4722585167
 20
205.3562039593
 30
0.1
 41
3.0
 42
3.0
 50
0.0
  0
LINE
  5
D7
330
C9
100
AcDbEntity
  8
SLD-0
100
AcDbLine
 10
107.4722583304
 20
189.9162132041
 30
0.0
 11
107.4722583304
 21
206.3562039593
 31
0.0
  0
LINE
  5
D8
330
C9
100
AcDbEntity
  8
SLD-0
100
AcDbLine
 10
132.4722585167
 20
189.9162138463
 30
0.0
 11
132.4722585167
 21
206.3562039593
 31
0.0
  0
LINE
  5
D9
330
C9
100
AcDbEntity
  8
SLD-0
100
AcDbLine
 10
107.4722583304
 20
205.3562039593
 30
0.0
 11
132.4722585167
 21
205.3562039593
 31
0.0
  0
MTEXT
  5
DA
330
C9
100
AcDbEntity
  8
SLD-0
100
AcDbMText
 10
115.8990496152
 20
209.4289309992
 30
0.0
 40
3.5
 41
0.0
 71
     1
 72
     1
  1
25.0
  7
SLDTEXTSTYLE0
 73
     1
 44
1.0
  0
ENDBLK
  5
D4
330
C9
100
AcDbEntity
  8
0
100
AcDbBlockEnd
  0
BLOCK
  5
E6
330
DC
100
AcDbEntity
  8
0
100
AcDbBlockBegin
  2
*D12
 70
     1
 71
     0
 10
0.0
 20
0.0
 30
0.0
  3
*D12
  1

  0
INSERT
  5
E9
330
DC
100
AcDbEntity
  8
SLD-0
100
AcDbBlockReference
  2
_Open30
 10
119.9722592544
 20
132.0533187804
 30
0.1
 41
3.0
 42
3.0
 50
360.0
  0
INSERT
  5
EA
330
DC
100
AcDbEntity
  8
SLD-0
100
AcDbBlockReference
  2
_Open30
 10
132.4722585167
 20
132.0533187804
 30
0.1
 41
3.0
 42
3.0
 50
180.0
  0
LINE
  5
EB
330
DC
100
AcDbEntity
  8
SLD-0
100
AcDbLine
 10
119.9722592544
 20
166.0988850823
 30
0.0
 11
119.9722592544
 21
131.0533187804
 31
0.0
  0
LINE
  5
EC
330
DC
100
AcDbEntity
  8
SLD-0
100
AcDbLine
 10
132.4722585167
 20
153.4162137703
 30
0.0
 11
132.4722585167
 21
131.0533187804
 31
0.0
  0
LINE
  5
ED
330
DC
100
AcDbEntity
  8
SLD-0
100
AcDbLine
 10
119.9722592544
 20
132.0533187804
 30
0.0
 11
114.9722592544
 21
132.0533187804
 31
0.0
  0
LINE
  5
EE
330
DC
100
AcDbEntity
  8
SLD-0
100
AcDbLine
 10
119.9722592544
 20
132.0533187804
 30
0.0
 11
132.4722585167
 21
132.0533187804
 31
0.0
  0
LINE
  5
EF
330
DC
100
AcDbEntity
  8
SLD-0
100
AcDbLine
 10
132.4722585167
 20
132.0533187804
 30
0.0
 11
137.4722585167
 21
132.0533187804
 31
0.0
  0
MTEXT
  5
F0
330
DC
100
AcDbEntity
  8
SLD-0
100
AcDbMText
 10
122.1490500772
 20
136.1260458203
 30
0.0
 40
3.5
 41
0.0
 71
     1
 72
     1
  1
12.5
  7
SLDTEXTSTYLE0
 73
     1
 44
1.0
  0
ENDBLK
  5
E7
330
DC
100
AcDbEntity
  8
0
100
AcDbBlockEnd
  0
BLOCK
  5
FC
330
F2
100
AcDbEntity
  8
0
100
AcDbBlockBegin
  2
*D13
 70
     1
 71
     0
 10
0.0
 20
0.0
 30
0.0
  3
*D13
  1

  0
INSERT
  5
FE
330
F2
100
AcDbEntity
  8
SLD-0
100
AcDbBlockReference
  2
_Open30
 10
104.9722593068
 20
132.0533187804
 30
0.1
 41
3.0
 42
3.0
 50
0.0
  0
INSERT
  5
FF
330
F2
100
AcDbEntity
  8
SLD-0
100
AcDbBlockReference
  2
_Open30
 10
119.9722593068
 20
132.0533187804
 30
0.1
 41
3.0
 42
3.0
 50
180.0
  0
LINE
  5
100
330
F2
100
AcDbEntity
  8
SLD-0
100
AcDbLine
 10
104.9722593068
 20
156.1034793065
 30
0.0
 11
104.9722593068
 21
131.0533187804
 31
0.0
  0
LINE
  5
101
330
F2
100
AcDbEntity
  8
SLD-0
100
AcDbLine
 10
119.9722593068
 20
155.9162130937
 30
0.0
 11
119.9722593068
 21
131.0533187804
 31
0.0
  0
LINE
  5
102
330
F2
100
AcDbEntity
  8
SLD-0
100
AcDbLine
 10
104.9722593068
 20
132.0533187804
 30
0.0
 11
99.9722593068
 21
132.0533187804
 31
0.0
  0
LINE
  5
103
330
F2
100
AcDbEntity
  8
SLD-0
100
AcDbLine
 10
104.9722593068
 20
132.0533187804
 30
0.0
 11
119.9722593068
 21
132.0533187804
 31
0.0
  0
LINE
  5
104
330
F2
100
AcDbEntity
  8
SLD-0
100
AcDbLine
 10
119.9722593068
 20
132.0533187804
 30
0.0
 11
124.9722593068
 21
132.0533187804
 31
0.0
  0
MTEXT
  5
105
330
F2
100
AcDbEntity
  8
SLD-0
100
AcDbMText
 10
108.3990504985
 20
136.1260458203
 30
0.0
 40
3.5
 41
0.0
 71
     1
 72
     1
  1
15.0
  7
SLDTEXTSTYLE0
 73
     1
 44
1.0
  0
ENDBLK
  5
FD
330
F2
100
AcDbEntity
  8
0
100
AcDbBlockEnd
  0
BLOCK
  5
111
330
107
100
AcDbEntity
  8
0
100
AcDbBlockBegin
  2
*D14
 70
     1
 71
     0
 10
0.0
 20
0.0
 30
0.0
  3
*D14
  1

  0
INSERT
  5
113
330
107
100
AcDbEntity
  8
SLD-0
100
AcDbBlockReference
  2
_Open30
 10
104.9722593068
 20
132.0533187804
 30
0.1
 41
3.0
 42
3.0
 50
180.0
  0
INSERT
  5
114
330
107
100
AcDbEntity
  8
SLD-0
100
AcDbBlockReference
  2
_Open30
 10
89.9722593068
 20
132.0533187804
 30
0.1
 41
3.0
 42
3.0
 50
360.0
  0
LINE
  5
115
330
107
100
AcDbEntity
  8
SLD-0
100
AcDbLine
 10
104.9722593068
 20
155.9162130937
 30
0.0
 11
104.9722593068
 21
131.0533187804
 31
0.0
  0
LINE
  5
116
330
107
100
AcDbEntity
  8
SLD-0
100
AcDbLine
 10
89.9722593068
 20
155.9162130937
 30
0.0
 11
89.9722593068
 21
131.0533187804
 31
0.0
  0
LINE
  5
117
330
107
100
AcDbEntity
  8
SLD-0
100
AcDbLine
 10
104.9722593068
 20
132.0533187804
 30
0.0
 11
109.9722593068
 21
132.0533187804
 31
0.0
  0
LINE
  5
118
330
107
100
AcDbEntity
  8
SLD-0
100
AcDbLine
 10
104.9722593068
 20
132.0533187804
 30
0.0
 11
89.9722593068
 21
132.0533187804
 31
0.0
  0
LINE
  5
119
330
107
100
AcDbEntity
  8
SLD-0
100
AcDbLine
 10
89.9722593068
 20
132.0533187804
 30
0.0
 11
84.9722593068
 21
132.0533187804
 31
0.0
  0
MTEXT
  5
11A
330
107
100
AcDbEntity
  8
SLD-0
100
AcDbMText
 10
93.3990504985
 20
136.1260458203
 30
0.0
 40
3.5
 41
0.0
 71
     1
 72
     1
  1
15.0
  7
SLDTEXTSTYLE0
 73
     1
 44
1.0
  0
ENDBLK
  5
112
330
107
100
AcDbEntity
  8
0
100
AcDbBlockEnd
  0
BLOCK
  5
126
330
11C
100
AcDbEntity
  8
0
100
AcDbBlockBegin
  2
*D15
 70
     1
 71
     0
 10
0.0
 20
0.0
 30
0.0
  3
*D15
  1

  0
INSERT
  5
128
330
11C
100
AcDbEntity
  8
SLD-0
100
AcDbBlockReference
  2
_Open30
 10
132.4722585167
 20
123.0719395585
 30
0.1
 41
3.0
 42
3.0
 50
360.0
  0
INSERT
  5
129
330
11C
100
AcDbEntity
  8
SLD-0
100
AcDbBlockReference
  2
_Open30
 10
77.4722593068
 20
123.0719395585
 30
0.1
 41
3.0
 42
3.0
 50
180.0
  0
LINE
  5
12A
330
11C
100
AcDbEntity
  8
SLD-0
100
AcDbLine
 10
132.4722585167
 20
153.4162137703
 30
0.0
 11
132.4722585167
 21
122.0719395585
 31
0.0
  0
LINE
  5
12B
330
11C
100
AcDbEntity
  8
SLD-0
100
AcDbLine
 10
77.4722593068
 20
153.9162130937
 30
0.0
 11
77.4722593068
 21
122.0719395585
 31
0.0
  0
LINE
  5
12C
330
11C
100
AcDbEntity
  8
SLD-0
100
AcDbLine
 10
132.4722585167
 20
123.0719395585
 30
0.0
 11
77.4722593068
 21
123.0719395585
 31
0.0
  0
MTEXT
  5
12D
330
11C
100
AcDbEntity
  8
SLD-0
100
AcDbMText
 10
100.8990501034
 20
127.1446665984
 30
0.0
 40
3.5
 41
0.0
 71
     1
 72
     1
  1
55.0
  7
SLDTEXTSTYLE0
 73
     1
 44
1.0
  0
ENDBLK
  5
127
330
11C
100
AcDbEntity
  8
0
100
AcDbBlockEnd
  0
BLOCK
  5
13A
330
12F
100
AcDbEntity
  8
0
100
AcDbBlockBegin
  2
*D16
 70
     1
 71
     0
 10
0.0
 20
0.0
 30
0.0
  3
*D16
  1

  0
INSERT
  5
13C
330
12F
100
AcDbEntity
  8
SLD-0
100
AcDbBlockReference
  2
_Open30
 10
147.792558939
 20
161.9162134407
 30
0.1
 41
3.0
 42
3.0
 50
270.0000008711
  0
INSERT
  5
13D
330
12F
100
AcDbEntity
  8
SLD-0
100
AcDbBlockReference
  2
_Open30
 10
147.792559129
 20
149.4162140792
 30
0.1
 41
3.0
 42
3.0
 50
90.0000008711
  0
LINE
  5
13E
330
12F
100
AcDbEntity
  8
SLD-0
100
AcDbLine
 10
125.9722593068
 20
161.9162131089
 30
0.0
 11
148.792558939
 21
161.9162134559
 31
0.0
  0
LINE
  5
13F
330
12F
100
AcDbEntity
  8
SLD-0
100
AcDbLine
 10
128.4722585927
 20
149.4162137855
 30
0.0
 11
148.792559129
 21
149.4162140944
 31
0.0
  0
LINE
  5
140
330
12F
100
AcDbEntity
  8
SLD-0
100
AcDbLine
 10
147.792558939
 20
161.9162134407
 30
0.0
 11
147.792558863
 21
166.9162134407
 31
0.0
  0
LINE
  5
141
330
12F
100
AcDbEntity
  8
SLD-0
100
AcDbLine
 10
147.792558939
 20
161.9162134407
 30
0.0
 11
147.792559129
 21
149.4162140792
 31
0.0
  0
LINE
  5
142
330
12F
100
AcDbEntity
  8
SLD-0
100
AcDbLine
 10
147.792559129
 20
149.4162140792
 30
0.0
 11
147.7925592051
 21
144.4162140792
 31
0.0
  0
MTEXT
  5
143
330
12F
100
AcDbEntity
  8
SLD-0
100
AcDbMText
 10
143.7198320561
 20
151.5930048897
 30
0.0
 40
3.5
 41
0.0
 71
     1
 72
     1
  1
12.5
  7
SLDTEXTSTYLE0
 11
-1.520408770533236E-8
 21
0.9999999999999999
 31
0.0
 73
     1
 44
1.0
  0
ENDBLK
  5
13B
330
12F
100
AcDbEntity
  8
0
100
AcDbBlockEnd
  0
BLOCK
  5
150
330
145
100
AcDbEntity
  8
0
100
AcDbBlockBegin
  2
*D17
 70
     1
 71
     0
 10
0.0
 20
0.0
 30
0.0
  3
*D17
  1

  0
INSERT
  5
152
330
145
100
AcDbEntity
  8
SLD-0
100
AcDbBlockReference
  2
_Open30
 10
147.792558939
 20
161.9162130937
 30
0.1
 41
3.0
 42
3.0
 50
270.0
  0
INSERT
  5
153
330
145
100
AcDbEntity
  8
SLD-0
100
AcDbBlockReference
  2
_Open30
 10
147.792558939
 20
184.4162130937
 30
0.1
 41
3.0
 42
3.0
 50
90.0
  0
LINE
  5
154
330
145
100
AcDbEntity
  8
SLD-0
100
AcDbLine
 10
115.9722593068
 20
161.9162130937
 30
0.0
 11
148.792558939
 21
161.9162130937
 31
0.0
  0
LINE
  5
155
330
145
100
AcDbEntity
  8
SLD-0
100
AcDbLine
 10
115.9722593068
 20
184.4162130937
 30
0.0
 11
148.792558939
 21
184.4162130937
 31
0.0
  0
LINE
  5
156
330
145
100
AcDbEntity
  8
SLD-0
100
AcDbLine
 10
147.792558939
 20
161.9162130937
 30
0.0
 11
147.792558939
 21
184.4162130937
 31
0.0
  0
MTEXT
  5
157
330
145
100
AcDbEntity
  8
SLD-0
100
AcDbMText
 10
143.7198318991
 20
169.0930042854
 30
0.0
 40
3.5
 41
0.0
 71
     1
 72
     1
  1
22.5
  7
SLDTEXTSTYLE0
 11
6.123031769111886E-17
 21
1.0
 31
0.0
 73
     1
 44
1.0
  0
ENDBLK
  5
151
330
145
100
AcDbEntity
  8
0
100
AcDbBlockEnd
  0
BLOCK
  5
163
330
159
100
AcDbEntity
  8
0
100
AcDbBlockBegin
  2
*D18
 70
     1
 71
     0
 10
0.0
 20
0.0
 30
0.0
  3
*D18
  1

  0
INSERT
  5
166
330
159
100
AcDbEntity
  8
SLD-0
100
AcDbBlockReference
  2
_Open30
 10
103.6046898721
 20
164.6982544021
 30
0.1
 41
3.0
 42
3.0
 50
296.1773700336
  0
LINE
  5
167
330
159
100
AcDbEntity
  8
SLD-0
100
AcDbLine
 10
103.6046898721
 20
164.6982544021
 30
0.0
 11
92.9506866378
 21
186.371652729
 31
0.0
  0
LINE
  5
168
330
159
100
AcDbEntity
  8
SLD-0
100
AcDbLine
 10
106.3398287415
 20
159.1341717853
 30
0.0
 11
103.6046898721
 21
164.6982544021
 31
0.0
  0
LINE
  5
169
330
159
100
AcDbEntity
  8
SLD-0
100
AcDbLine
 10
92.9506866378
 20
186.371652729
 30
0.0
 11
74.1367934772
 21
186.371652729
 31
0.0
  0
MTEXT
  5
16A
330
159
100
AcDbEntity
  8
SLD-0
100
AcDbMText
 10
75.7242934772
 20
190.4443797689
 30
0.0
 40
3.5
 41
0.0
 71
     1
 72
     1
  1
4-
  7
SLDTEXTSTYLE0
 73
     1
 44
1.0
  0
MTEXT
  5
16B
330
159
100
AcDbEntity
  8
SLD-0
100
AcDbMText
 10
79.7979044721
 20
190.4443797689
 30
0.0
 40
3.5
 41
0.0
 71
     1
 72
     1
  1
%%c
  7
SLDTEXTSTYLE0
 73
     1
 44
1.0
  0
MTEXT
  5
16C
330
159
100
AcDbEntity
  8
SLD-0
100
AcDbMText
 10
83.666658244
 20
190.4443797689
 30
0.0
 40
3.5
 41
0.0
 71
     1
 72
     1
  1
6.2
  7
SLDTEXTSTYLE0
 73
     1
 44
1.0
  0
ENDBLK
  5
164
330
159
100
AcDbEntity
  8
0
100
AcDbBlockEnd
  0
ENDSEC
  0
SECTION
  2
ENTITIES
  0
LINE
  5
6C
330
1F
100
AcDbEntity
  8
SLD-0
  6
Continuous
 62
   179
100
AcDbLine
 10
20.2604743903
 20
285.0
 30
0.0
 11
196.7604743903
 21
285.0
 31
0.0
  0
LINE
  5
6D
330
1F
100
AcDbEntity
  8
SLD-0
  6
Continuous
 62
   179
100
AcDbLine
 10
20.2604743903
 20
285.0
 30
0.0
 11
20.2604743903
 21
10.0
 31
0.0
  0
LINE
  5
6E
330
1F
100
AcDbEntity
  8
SLD-0
  6
Continuous
 62
   179
100
AcDbLine
 10
20.2604743903
 20
10.0
 30
0.0
 11
196.7604743903
 21
10.0
 31
0.0
  0
LINE
  5
6F
330
1F
100
AcDbEntity
  8
SLD-0
  6
Continuous
 62
   179
100
AcDbLine
 10
196.7604743903
 20
285.0
 30
0.0
 11
196.7604743903
 21
10.0
 31
0.0
  0
LINE
  5
70
330
1F
100
AcDbEntity
  8
SLD-0
  6
Continuous
 62
   179
100
AcDbLine
 10
65.7604743903
 20
285.0
 30
0.0
 11
196.7604743903
 21
285.0
 31
0.0
  0
LINE
  5
71
330
1F
100
AcDbEntity
  8
SLD-0
  6
Continuous
 62
   179
100
AcDbLine
 10
196.7604743903
 20
285.0
 30
0.0
 11
196.7604743903
 21
264.25
 31
0.0
  0
LINE
  5
72
330
1F
100
AcDbEntity
  8
SLD-0
  6
Continuous
 62
   179
100
AcDbLine
 10
127.0104743903
 20
50.75
 30
0.0
 11
196.7604743903
 21
50.75
 31
0.0
  0
LINE
  5
73
330
1F
100
AcDbEntity
  8
SLD-0
  6
Continuous
 62
   179
100
AcDbLine
 10
127.0104743903
 20
50.75
 30
0.0
 11
127.0104743903
 21
10.0
 31
0.0
  0
LINE
  5
74
330
1F
100
AcDbEntity
  8
SLD-0
  6
Continuous
 62
   179
100
AcDbLine
 10
127.0104743903
 20
22.75
 30
0.0
 11
196.7604743903
 21
22.75
 31
0.0
  0
LINE
  5
75
330
1F
100
AcDbEntity
  8
SLD-0
  6
Continuous
 62
   179
100
AcDbLine
 10
127.0104743903
 20
36.75
 30
0.0
 11
196.7604743903
 21
36.75
 31
0.0
  0
LINE
  5
76
330
1F
100
AcDbEntity
  8
SLD-0
  6
Continuous
 62
   179
100
AcDbLine
 10
126.9722585299
 20
194.4162137627
 30
0.0
 11
112.9722585299
 21
194.4162135498
 31
0.0
  0
LINE
  5
77
330
1F
100
AcDbEntity
  8
SLD-0
  6
Continuous
 62
   179
100
AcDbLine
 10
132.4722585167
 20
154.4162137703
 30
0.0
 11
132.4722585167
 21
188.9162138463
 31
0.0
  0
LINE
  5
78
330
1F
100
AcDbEntity
  8
SLD-0
  6
Continuous
 62
   179
100
AcDbLine
 10
82.9554694826
 20
149.4162130934
 30
0.0
 11
127.4722585927
 21
149.4162137703
 31
0.0
  0
LINE
  5
79
330
1F
100
AcDbEntity
  8
SLD-0
  6
Continuous
 62
   179
100
AcDbLine
 10
107.4722583304
 20
174.4162134662
 30
0.0
 11
82.9722593068
 21
174.4162130937
 31
0.0
  0
LINE
  5
7A
330
1F
100
AcDbEntity
  8
SLD-0
  6
Continuous
 62
   179
100
AcDbLine
 10
107.4722583304
 20
188.9162132041
 30
0.0
 11
107.4722583304
 21
174.4162134662
 31
0.0
  0
LINE
  5
7B
330
1F
100
AcDbEntity
  8
SLD-0
  6
Continuous
 62
   179
100
AcDbLine
 10
77.4722593068
 20
168.9162130937
 30
0.0
 11
77.4722593068
 21
154.9162130937
 31
0.0
  0
ARC
  5
7C
330
1F
100
AcDbEntity
  8
SLD-0
  6
Continuous
 62
   179
100
AcDbCircle
 10
112.9722583304
 20
188.9162135498
 30
0.0
 40
5.499999999999982
100
AcDbArc
 50
89.9999979218
 51
180.0
  0
ARC
  5
7D
330
1F
100
AcDbEntity
  8
SLD-0
  6
Continuous
 62
   179
100
AcDbCircle
 10
126.9722585167
 20
188.9162137627
 30
0.0
 40
5.500000000000028
100
AcDbArc
 50
0.0
 51
89.9999998621
  0
ARC
  5
7E
330
1F
100
AcDbEntity
  8
SLD-0
100
AcDbCircle
 10
127.4722585167
 20
154.4162137703
 30
0.0
 40
5.000000000000001
100
AcDbArc
 50
270.0000008711
 51
0.0
  0
ARC
  5
7F
330
1F
100
AcDbEntity
  8
SLD-0
  6
Continuous
 62
   179
100
AcDbCircle
 10
85.173106598
 20
157.1103162412
 30
0.0
 40
8.007317754625445
100
AcDbArc
 50
195.9031593157
 51
253.9216668843
  0
ARC
  5
80
330
1F
100
AcDbEntity
  8
SLD-0
  6
Continuous
 62
   179
100
AcDbCircle
 10
82.9722593068
 20
168.9162130937
 30
0.0
 40
5.5
100
AcDbArc
 50
90.0
 51
180.0
  0
CIRCLE
  5
81
330
1F
100
AcDbEntity
  8
SLD-0
  6
Continuous
 62
   179
100
AcDbCircle
 10
119.9722593068
 20
161.9162130937
 30
0.0
 40
3.100000000000009
  0
CIRCLE
  5
82
330
1F
100
AcDbEntity
  8
SLD-0
  6
Continuous
 62
   179
100
AcDbCircle
 10
104.9722593068
 20
161.9162130937
 30
0.0
 40
3.100000000000009
  0
CIRCLE
  5
83
330
1F
100
AcDbEntity
  8
SLD-0
  6
Continuous
 62
   179
100
AcDbCircle
 10
89.9722593068
 20
161.9162130937
 30
0.0
 40
3.100000000000009
  0
CIRCLE
  5
84
330
1F
100
AcDbEntity
  8
SLD-0
  6
Continuous
 62
   179
100
AcDbCircle
 10
119.9722593068
 20
184.4162130937
 30
0.0
 40
3.100000000000009
  0
DIMENSION
  5
85
330
1F
100
AcDbEntity
  8
SLD-0
100
AcDbDimension
  2
*D7
 10
61.1836898874
 20
149.4162127624
 30
0.0
 11
61.1836896974
 21
161.9162127624
 31
0.0
 70
   160
 71
     1
 42
25.0
  3
SLDDIMSTYLE0
100
AcDbAlignedDimension
 13
82.9722593068
 23
174.4162130937
 33
0.0
 14
82.9554694826
 24
149.4162130934
 34
0.0
 50
-89.9999991289
100
AcDbRotatedDimension
1001
ACAD
1000
DSTYLE
1002
{
1070
    77
1070
     3
1070
   143
1040
0.0393700787
1070
    41
1040
3.0
1070
    44
1040
1.0
1070
    42
1040
1.0
1070
   147
1040
1.524
1070
    73
1070
     0
1070
    74
1070
     0
1070
   140
1040
3.5
1070
   284
1070
    12
1070
    78
1070
     4
1002
}
  0
DIMENSION
  5
A1
330
1F
100
AcDbEntity
  8
SLD-0
100
AcDbDimension
  2
*D9
 10
154.7491263725
 20
194.416214185
 30
0.0
 11
154.7491267145
 21
171.916214185
 31
0.0
 70
   160
 71
     1
 42
45.0
  3
SLDDIMSTYLE0
100
AcDbAlignedDimension
 13
127.4722585927
 23
149.4162137703
 33
0.0
 14
126.9722585299
 24
194.4162137627
 34
0.0
 50
-89.9999991289
100
AcDbRotatedDimension
1001
ACAD
1000
DSTYLE
1002
{
1070
    77
1070
     3
1070
   143
1040
0.0393700787
1070
    41
1040
3.0
1070
    44
1040
1.0
1070
    42
1040
1.0
1070
   147
1040
1.524
1070
    73
1070
     0
1070
    74
1070
     0
1070
   140
1040
3.5
1070
   284
1070
    12
1070
    78
1070
     4
1002
}
  0
DIMENSION
  5
B5
330
1F
100
AcDbEntity
  8
SLD-0
100
AcDbDimension
  2
*D10
 10
127.4722585167
 20
154.4162137703
 30
0.0
 11
149.6088657761
 21
140.8264030823
 31
0.0
 70
   164
  1
5-<>
 71
     1
 42
5.0
  3
SLDDIMSTYLE1
100
AcDbRadialDimension
 15
130.6484988713
 25
150.5546729885
 35
0.0
 40
0.0
1001
ACAD
1000
DSTYLE
1002
{
1070
    77
1070
     0
1070
   143
1040
0.0393700787
1070
    41
1040
3.0
1070
    44
1040
1.0
1070
    42
1040
1.0
1070
   147
1040
1.524
1070
    73
1070
     1
1070
    74
1070
     1
1070
   140
1040
3.5
1070
   284
1070
    12
1070
    78
1070
     4
1002
}
  0
DIMENSION
  5
C8
330
1F
100
AcDbEntity
  8
SLD-0
100
AcDbDimension
  2
*D11
 10
132.4722585167
 20
205.3562039593
 30
0.0
 11
119.9722584235
 21
205.3562039593
 31
0.0
 70
   160
 71
     1
 42
25.0000001863
  3
SLDDIMSTYLE0
100
AcDbAlignedDimension
 13
107.4722583304
 23
188.9162132041
 33
0.0
 14
132.4722585167
 24
188.9162138463
 34
0.0
100
AcDbRotatedDimension
1001
ACAD
1000
DSTYLE
1002
{
1070
    77
1070
     3
1070
   143
1040
0.0393700787
1070
    41
1040
3.0
1070
    44
1040
1.0
1070
    42
1040
1.0
1070
   147
1040
1.524
1070
    73
1070
     0
1070
    74
1070
     0
1070
   140
1040
3.5
1070
   284
1070
    12
1070
    78
1070
     4
1002
}
  0
DIMENSION
  5
DB
330
1F
100
AcDbEntity
  8
SLD-0
100
AcDbDimension
  2
*D12
 10
132.4722585167
 20
132.0533187804
 30
0.0
 11
126.2222588855
 21
132.0533187804
 31
0.0
 70
   160
 71
     1
 42
12.4999992623
  3
SLDDIMSTYLE2
100
AcDbAlignedDimension
 13
119.9722592544
 23
166.9162129626
 33
0.0
 14
132.4722585167
 24
154.4162137703
 34
0.0
100
AcDbRotatedDimension
1001
ACAD
1000
DSTYLE
1002
{
1070
    77
1070
     3
1070
   143
1040
0.0393700787
1070
    41
1040
3.0
1070
    44
1040
1.0
1070
    42
1040
1.0
1070
   147
1040
1.524
1070
    73
1070
     0
1070
    74
1070
     0
1070
   140
1040
3.5
1070
   284
1070
    12
1070
    78
1070
    12
1002
}
  0
DIMENSION
  5
F1
330
1F
100
AcDbEntity
  8
SLD-0
100
AcDbDimension
  2
*D13
 10
119.9722593068
 20
132.0533187804
 30
0.0
 11
112.4722593068
 21
132.0533187804
 31
0.0
 70
   160
 71
     1
 42
15.0
  3
SLDDIMSTYLE0
100
AcDbAlignedDimension
 13
104.9722593068
 23
156.9162130937
 33
0.0
 14
119.9722593068
 24
156.9162130937
 34
0.0
100
AcDbRotatedDimension
1001
ACAD
1000
DSTYLE
1002
{
1070
    77
1070
     3
1070
   143
1040
0.0393700787
1070
    41
1040
3.0
1070
    44
1040
1.0
1070
    42
1040
1.0
1070
   147
1040
1.524
1070
    73
1070
     0
1070
    74
1070
     0
1070
   140
1040
3.5
1070
   284
1070
    12
1070
    78
1070
     4
1002
}
  0
DIMENSION
  5
106
330
1F
100
AcDbEntity
  8
SLD-0
100
AcDbDimension
  2
*D14
 10
89.9722593068
 20
132.0533187804
 30
0.0
 11
97.4722593068
 21
132.0533187804
 31
0.0
 70
   160
 71
     1
 42
15.0
  3
SLDDIMSTYLE0
100
AcDbAlignedDimension
 13
104.9722593068
 23
156.9162130937
 33
0.0
 14
89.9722593068
 24
156.9162130937
 34
0.0
100
AcDbRotatedDimension
1001
ACAD
1000
DSTYLE
1002
{
1070
    77
1070
     3
1070
   143
1040
0.0393700787
1070
    41
1040
3.0
1070
    44
1040
1.0
1070
    42
1040
1.0
1070
   147
1040
1.524
1070
    73
1070
     0
1070
    74
1070
     0
1070
   140
1040
3.5
1070
   284
1070
    12
1070
    78
1070
     4
1002
}
  0
DIMENSION
  5
11B
330
1F
100
AcDbEntity
  8
SLD-0
100
AcDbDimension
  2
*D15
 10
77.4722593068
 20
123.0719395585
 30
0.0
 11
104.9722589117
 21
123.0719395585
 31
0.0
 70
   160
 71
     1
 42
54.9999992099
  3
SLDDIMSTYLE0
100
AcDbAlignedDimension
 13
132.4722585167
 23
154.4162137703
 33
0.0
 14
77.4722593068
 24
154.9162130937
 34
0.0
100
AcDbRotatedDimension
1001
ACAD
1000
DSTYLE
1002
{
1070
    77
1070
     3
1070
   143
1040
0.0393700787
1070
    41
1040
3.0
1070
    44
1040
1.0
1070
    42
1040
1.0
1070
   147
1040
1.524
1070
    73
1070
     0
1070
    74
1070
     0
1070
   140
1040
3.5
1070
   284
1070
    12
1070
    78
1070
     4
1002
}
  0
DIMENSION
  5
12E
330
1F
100
AcDbEntity
  8
SLD-0
100
AcDbDimension
  2
*D16
 10
147.792559129
 20
149.4162140792
 30
0.0
 11
147.792559034
 21
155.6662137599
 31
0.0
 70
   160
 71
     1
 42
12.4999993614
  3
SLDDIMSTYLE2
100
AcDbAlignedDimension
 13
124.9722593068
 23
161.9162130937
 33
0.0
 14
127.4722585927
 24
149.4162137703
 34
0.0
 50
-89.9999991289
100
AcDbRotatedDimension
1001
ACAD
1000
DSTYLE
1002
{
1070
    77
1070
     3
1070
   143
1040
0.0393700787
1070
    41
1040
3.0
1070
    44
1040
1.0
1070
    42
1040
1.0
1070
   147
1040
1.524
1070
    73
1070
     0
1070
    74
1070
     0
1070
   140
1040
3.5
1070
   284
1070
    12
1070
    78
1070
    12
1002
}
  0
DIMENSION
  5
144
330
1F
100
AcDbEntity
  8
SLD-0
100
AcDbDimension
  2
*D17
 10
147.792558939
 20
184.4162130937
 30
0.0
 11
147.792558939
 21
173.1662130937
 31
0.0
 70
   160
 71
     1
 42
22.5
  3
SLDDIMSTYLE2
100
AcDbAlignedDimension
 13
114.9722593068
 23
161.9162130937
 33
0.0
 14
114.9722593068
 24
184.4162130937
 34
0.0
 50
90.0
100
AcDbRotatedDimension
1001
ACAD
1000
DSTYLE
1002
{
1070
    77
1070
     3
1070
   143
1040
0.0393700787
1070
    41
1040
3.0
1070
    44
1040
1.0
1070
    42
1040
1.0
1070
   147
1040
1.524
1070
    73
1070
     0
1070
    74
1070
     0
1070
   140
1040
3.5
1070
   284
1070
    12
1070
    78
1070
    12
1002
}
  0
DIMENSION
  5
158
330
1F
100
AcDbEntity
  8
SLD-0
100
AcDbDimension
  2
*D18
 10
106.3398287415
 20
159.1341717853
 30
0.0
 11
82.7499900575
 21
188.4074723145
 31
0.0
 70
   163
  1
4-<>
 71
     1
 42
6.2
  3
SLDDIMSTYLE3
100
AcDbDiametricDimension
 15
103.6046898721
 25
164.6982544021
 35
0.0
 40
0.0
1001
ACAD
1000
DSTYLE
1002
{
1070
    77
1070
     0
1070
   143
1040
0.0393700787
1070
    41
1040
3.0
1070
    44
1040
1.0
1070
    42
1040
1.0
1070
   147
1040
1.524
1070
    73
1070
     1
1070
    74
1070
     1
1070
   140
1040
3.5
1070
   284
1070
    12
1070
    78
1070
    12
1002
}
  0
MTEXT
  5
16D
330
1F
100
AcDbEntity
  8
SLD-0
 62
     7
100
AcDbMText
 10
146.0750510217
 20
113.7099888884
 30
0.0
 40
4.2333333333
 41
0.0
 71
     1
 72
     1
  1
t= 3.2
  7
SLDTEXTSTYLE1
 73
     1
 44
1.0
  0
MTEXT
  5
16F
330
1F
100
AcDbEntity
  8
SLD-0
 62
     7
100
AcDbMText
 10
150.8341247335
 20
18.525255537
 30
0.0
 40
3.5
 41
0.0
 71
     1
 72
     1
  1
131049
  7
SLDTEXTSTYLE2
 73
     1
 44
1.0
  0
MTEXT
  5
170
330
1F
100
AcDbEntity
  8
SLD-0
 62
     7
100
AcDbMText
 10
147.318687709
 20
28.9925274519
 30
0.0
 40
4.2333333333
 41
0.0
 71
     1
 72
     1
  1
N01913-108-0
  7
SLDTEXTSTYLE1
 73
     1
 44
1.0
  0
MTEXT
  5
172
330
1F
100
AcDbEntity
  8
SLD-0
 62
     7
100
AcDbMText
 10
138.4062531053
 20
42.5163410687
 30
0.0
 40
4.2333333333
 41
0.0
 71
     1
 72
     1
  1
25 Connecter Plate G
  7
SLDTEXTSTYLE3
 73
     1
 44
1.0
  0
INSERT
  5
173
330
1F
100
AcDbEntity
  8
0
  6
Continuous
 62
     7
370
     0
100
AcDbBlockReference
  2
SURFACEFINISH40
 10
180.1832906577
 20
249.4660600156
 30
0.0
  0
INSERT
  5
174
330
1F
100
AcDbEntity
  8
0
  6
Continuous
 62
     7
370
     0
100
AcDbBlockReference
  2
注記
 10
103.4846200229
 20
55.6722522487
 30
0.0
  0
INSERT
  5
175
330
1F
100
AcDbEntity
  8
0
  6
Continuous
 62
     7
370
     0
100
AcDbBlockReference
  2
SW_CENTERMARK0
 10
0.0
 20
0.0
 30
0.0
  0
INSERT
  5
176
330
1F
100
AcDbEntity
  8
0
  6
Continuous
 62
     7
370
     0
100
AcDbBlockReference
  2
SW_CENTERMARK1
 10
0.0
 20
0.0
 30
0.0
  0
INSERT
  5
177
330
1F
100
AcDbEntity
  8
0
  6
Continuous
 62
     7
370
     0
100
AcDbBlockReference
  2
SW_CENTERMARK2
 10
0.0
 20
0.0
 30
0.0
  0
INSERT
  5
178
330
1F
100
AcDbEntity
  8
0
  6
Continuous
 62
     7
370
     0
100
AcDbBlockReference
  2
SW_CENTERMARK3
 10
0.0
 20
0.0
 30
0.0
  0
ENDSEC
  0
SECTION
  2
OBJECTS
  0
DICTIONARY
  5
C
330
0
100
AcDbDictionary
281
     1
  3
ACAD_GROUP
350
D
  3
ACAD_LAYOUT
350
1A
  3
ACAD_MLINESTYLE
350
17
  3
ACAD_PLOTSETTINGS
350
19
  3
ACAD_PLOTSTYLENAME
350
E
  0
DICTIONARY
  5
D
102
{ACAD_REACTORS
330
C
102
}
330
C
100
AcDbDictionary
281
     1
  0
DICTIONARY
  5
1A
102
{ACAD_REACTORS
330
C
102
}
330
C
100
AcDbDictionary
281
     1
  3
Layout1
350
1E
  3
Layout2
350
26
  3
Model
350
22
  0
DICTIONARY
  5
17
102
{ACAD_REACTORS
330
C
102
}
330
C
100
AcDbDictionary
281
     1
  3
Standard
350
18
  0
DICTIONARY
  5
19
102
{ACAD_REACTORS
330
C
102
}
330
C
100
AcDbDictionary
281
     1
  0
ACDBDICTIONARYWDFLT
  5
E
102
{ACAD_REACTORS
330
C
102
}
330
C
100
AcDbDictionary
281
     1
  3
Normal
350
F
100
AcDbDictionaryWithDefault
340
F
  0
LAYOUT
  5
1E
102
{ACAD_REACTORS
330
1A
102
}
330
1A
100
AcDbPlotSettings
  1

  2

  4

  6

 40
0.0
 41
0.0
 42
0.0
 43
0.0
 44
0.0
 45
0.0
 46
0.0
 47
0.0
 48
0.0
 49
0.0
140
0.0
141
0.0
142
1.0
143
1.0
 70
   688
 72
     0
 73
     0
 74
     5
  7

 75
    16
147
1.0
148
0.0
149
0.0
100
AcDbLayout
  1
Layout1
 70
     1
 71
     1
 10
0.0
 20
0.0
 11
0.0
 21
0.0
 12
0.0
 22
0.0
 32
0.0
 14
0.0
 24
0.0
 34
0.0
 15
0.0
 25
0.0
 35
0.0
146
0.0
 13
0.0
 23
0.0
 33
0.0
 16
1.0
 26
0.0
 36
0.0
 17
0.0
 27
1.0
 37
0.0
 76
     0
330
1B
  0
LAYOUT
  5
26
102
{ACAD_REACTORS
330
1A
102
}
330
1A
100
AcDbPlotSettings
  1

  2

  4

  6

 40
0.0
 41
0.0
 42
0.0
 43
0.0
 44
0.0
 45
0.0
 46
0.0
 47
0.0
 48
0.0
 49
0.0
140
0.0
141
0.0
142
1.0
143
1.0
 70
   688
 72
     0
 73
     0
 74
     5
  7

 75
    16
147
1.0
148
0.0
149
0.0
100
AcDbLayout
  1
Layout2
 70
     1
 71
     2
 10
0.0
 20
0.0
 11
0.0
 21
0.0
 12
0.0
 22
0.0
 32
0.0
 14
0.0
 24
0.0
 34
0.0
 15
0.0
 25
0.0
 35
0.0
146
0.0
 13
0.0
 23
0.0
 33
0.0
 16
1.0
 26
0.0
 36
0.0
 17
0.0
 27
1.0
 37
0.0
 76
     0
330
23
  0
LAYOUT
  5
22
102
{ACAD_REACTORS
330
1A
102
}
330
1A
100
AcDbPlotSettings
  1

  2

  4

  6

 40
0.0
 41
0.0
 42
0.0
 43
0.0
 44
0.0
 45
0.0
 46
0.0
 47
0.0
 48
0.0
 49
0.0
140
0.0
141
0.0
142
1.0
143
1.0
 70
  1712
 72
     0
 73
     0
 74
     0
  7

 75
     0
147
1.0
148
0.0
149
0.0
100
AcDbLayout
  1
Model
 70
     1
 71
     0
 10
0.0
 20
0.0
 11
0.0
 21
0.0
 12
0.0
 22
0.0
 32
0.0
 14
0.0
 24
0.0
 34
0.0
 15
210.0
 25
297.0
 35
0.0
146
0.0
 13
0.0
 23
0.0
 33
0.0
 16
1.0
 26
0.0
 36
0.0
 17
0.0
 27
1.0
 37
0.0
 76
     0
330
1F
  0
MLINESTYLE
  5
18
102
{ACAD_REACTORS
330
17
102
}
330
17
100
AcDbMlineStyle
  2
Standard
 70
     0
  3

 62
   256
 51
90.0
 52
90.0
 71
     2
 49
0.5
 62
   256
  6
BYLAYER
 49
-0.5
 62
   256
  6
BYLAYER
  0
ACDBPLACEHOLDER
  5
F
102
{ACAD_REACTORS
330
E
102
}
330
E
  0
ENDSEC
  0
EOF
