  0
SECTION
  2
HEADER
  9
$ACADVER
  1
AC1015
  9
$ACADMAINTVER
 70
     6
  9
$DWGCODEPAGE
  3
DOS932
  9
$INSBASE
 10
0.0
 20
0.0
 30
0.0
  9
$EXTMIN
 10
0.0
 20
0.0
 30
0.0
  9
$EXTMAX
 10
210.0
 20
297.0
 30
0.0
  9
$LIMMIN
 10
0.0
 20
0.0
  9
$LIMMAX
 10
0.0
 20
0.0
  9
$ORTHOMODE
 70
     0
  9
$REGENMODE
 70
     1
  9
$FILLMODE
 70
     1
  9
$QTEXTMODE
 70
     0
  9
$MIRRTEXT
 70
     1
  9
$LTSCALE
 40
1.0
  9
$ATTMODE
 70
     1
  9
$TEXTSIZE
 40
3.5
  9
$TRACEWID
 40
1.0
  9
$TEXTSTYLE
  7
Standard
  9
$CLAYER
  8
0
  9
$CELTYPE
  6
ByLayer
  9
$CECOLOR
 62
   256
  9
$CELTSCALE
 40
1.0
  9
$DISPSILH
 70
     0
  9
$DIMSCALE
 40
1.0
  9
$DIMASZ
 40
3.0
  9
$DIMEXO
 40
1.0
  9
$DIMDLI
 40
3.75
  9
$DIMRND
 40
0.0
  9
$DIMDLE
 40
0.0
  9
$DIMEXE
 40
1.0
  9
$DIMTP
 40
0.0
  9
$DIMTM
 40
0.0
  9
$DIMTXT
 40
3.5
  9
$DIMCEN
 40
2.5
  9
$DIMTSZ
 40
0.0
  9
$DIMTOL
 70
     0
  9
$DIMLIM
 70
     0
  9
$DIMTIH
 70
     1
  9
$DIMTOH
 70
     1
  9
$DIMSE1
 70
     0
  9
$DIMSE2
 70
     0
  9
$DIMTAD
 70
     1
  9
$DIMZIN
 70
     1
  9
$DIMBLK
  1

  9
$DIMASO
 70
     1
  9
$DIMSHO
 70
     1
  9
$DIMPOST
  1

  9
$DIMAPOST
  1

  9
$DIMALT
 70
     0
  9
$DIMALTD
 70
     3
  9
$DIMALTF
 40
0.0393700787
  9
$DIMLFAC
 40
1.0
  9
$DIMTOFL
 70
     1
  9
$DIMTVP
 40
0.0
  9
$DIMTIX
 70
     0
  9
$DIMSOXD
 70
     0
  9
$DIMSAH
 70
     0
  9
$DIMBLK1
  1

  9
$DIMBLK2
  1

  9
$DIMSTYLE
  2
ISO-25
  9
$DIMCLRD
 70
     0
  9
$DIMCLRE
 70
     0
  9
$DIMCLRT
 70
     0
  9
$DIMTFAC
 40
1.0
  9
$DIMGAP
 40
1.524
  9
$DIMJUST
 70
     0
  9
$DIMSD1
 70
     0
  9
$DIMSD2
 70
     0
  9
$DIMTOLJ
 70
     0
  9
$DIMTZIN
 70
     1
  9
$DIMALTZ
 70
     0
  9
$DIMALTTZ
 70
     0
  9
$DIMUPT
 70
     0
  9
$DIMDEC
 70
     2
  9
$DIMTDEC
 70
     2
  9
$DIMALTU
 70
     2
  9
$DIMALTTD
 70
     3
  9
$DIMTXSTY
  7
Standard
  9
$DIMAUNIT
 70
     0
  9
$DIMADEC
 70
     0
  9
$DIMALTRND
 40
0.0
  9
$DIMAZIN
 70
     0
  9
$DIMDSEP
 70
    44
  9
$DIMATFIT
 70
     3
  9
$DIMFRAC
 70
     0
  9
$DIMLDRBLK
  1

  9
$DIMLUNIT
 70
     2
  9
$DIMLWD
 70
    -2
  9
$DIMLWE
 70
    -2
  9
$DIMTMOVE
 70
     0
  9
$LUNITS
 70
     2
  9
$LUPREC
 70
     1
  9
$SKETCHINC
 40
1.0
  9
$FILLETRAD
 40
10.0
  9
$AUNITS
 70
     0
  9
$AUPREC
 70
     0
  9
$MENU
  1
.
  9
$ELEVATION
 40
0.0
  9
$PELEVATION
 40
0.0
  9
$THICKNESS
 40
0.0
  9
$LIMCHECK
 70
     0
  9
$CHAMFERA
 40
10.0
  9
$CHAMFERB
 40
10.0
  9
$CHAMFERC
 40
20.0
  9
$CHAMFERD
 40
0.0
  9
$SKPOLY
 70
     0
  9
$TDCREATE
 40
2454309.420508889
  9
$TDUCREATE
 40
2454309.045508889
  9
$TDUPDATE
 40
2454309.420508901
  9
$TDUUPDATE
 40
2454309.045508901
  9
$TDINDWG
 40
0.0000000116
  9
$TDUSRTIMER
 40
0.0000000116
  9
$USRTIMER
 70
     1
  9
$ANGBASE
 50
0.0
  9
$ANGDIR
 70
     0
  9
$PDMODE
 70
     0
  9
$PDSIZE
 40
-1.0
  9
$PLINEWID
 40
0.0
  9
$SPLFRAME
 70
     0
  9
$SPLINETYPE
 70
     6
  9
$SPLINESEGS
 70
     8
  9
$HANDSEED
  5
291
  9
$SURFTAB1
 70
     6
  9
$SURFTAB2
 70
     6
  9
$SURFTYPE
 70
     6
  9
$SURFU
 70
     6
  9
$SURFV
 70
     6
  9
$UCSBASE
  2

  9
$UCSNAME
  2

  9
$UCSORG
 10
0.0
 20
0.0
 30
0.0
  9
$UCSXDIR
 10
1.0
 20
0.0
 30
0.0
  9
$UCSYDIR
 10
0.0
 20
1.0
 30
0.0
  9
$UCSORTHOREF
  2

  9
$UCSORTHOVIEW
 70
     0
  9
$UCSORGTOP
 10
0.0
 20
0.0
 30
0.0
  9
$UCSORGBOTTOM
 10
0.0
 20
0.0
 30
0.0
  9
$UCSORGLEFT
 10
0.0
 20
0.0
 30
0.0
  9
$UCSORGRIGHT
 10
0.0
 20
0.0
 30
0.0
  9
$UCSORGFRONT
 10
0.0
 20
0.0
 30
0.0
  9
$UCSORGBACK
 10
0.0
 20
0.0
 30
0.0
  9
$PUCSBASE
  2

  9
$PUCSNAME
  2

  9
$PUCSORG
 10
0.0
 20
0.0
 30
0.0
  9
$PUCSXDIR
 10
1.0
 20
0.0
 30
0.0
  9
$PUCSYDIR
 10
0.0
 20
1.0
 30
0.0
  9
$PUCSORTHOREF
  2

  9
$PUCSORTHOVIEW
 70
     0
  9
$PUCSORGTOP
 10
0.0
 20
0.0
 30
0.0
  9
$PUCSORGBOTTOM
 10
0.0
 20
0.0
 30
0.0
  9
$PUCSORGLEFT
 10
0.0
 20
0.0
 30
0.0
  9
$PUCSORGRIGHT
 10
0.0
 20
0.0
 30
0.0
  9
$PUCSORGFRONT
 10
0.0
 20
0.0
 30
0.0
  9
$PUCSORGBACK
 10
0.0
 20
0.0
 30
0.0
  9
$USERI1
 70
     0
  9
$USERI2
 70
     0
  9
$USERI3
 70
     0
  9
$USERI4
 70
     0
  9
$USERI5
 70
     0
  9
$USERR1
 40
0.0
  9
$USERR2
 40
0.0
  9
$USERR3
 40
0.0
  9
$USERR4
 40
0.0
  9
$USERR5
 40
0.0
  9
$WORLDVIEW
 70
     1
  9
$SHADEDGE
 70
     3
  9
$SHADEDIF
 70
    70
  9
$TILEMODE
 70
     1
  9
$MAXACTVP
 70
    64
  9
$PINSBASE
 10
0.0
 20
0.0
 30
0.0
  9
$PLIMCHECK
 70
     0
  9
$PEXTMIN
 10
1.0000000000E+20
 20
1.0000000000E+20
 30
1.0000000000E+20
  9
$PEXTMAX
 10
-1.0000000000E+20
 20
-1.0000000000E+20
 30
-1.0000000000E+20
  9
$PLIMMIN
 10
0.0
 20
0.0
  9
$PLIMMAX
 10
420.0
 20
297.0
  9
$UNITMODE
 70
     0
  9
$VISRETAIN
 70
     1
  9
$PLINEGEN
 70
     0
  9
$PSLTSCALE
 70
     1
  9
$TREEDEPTH
 70
  3020
  9
$CMLSTYLE
  2
Standard
  9
$CMLJUST
 70
     0
  9
$CMLSCALE
 40
20.0
  9
$PROXYGRAPHICS
 70
     1
  9
$MEASUREMENT
 70
     1
  9
$CELWEIGHT
370
    -1
  9
$ENDCAPS
280
     0
  9
$JOINSTYLE
280
     0
  9
$LWDISPLAY
290
     1
  9
$INSUNITS
 70
     4
  9
$HYPERLINKBASE
  1

  9
$STYLESHEET
  1

  9
$XEDIT
290
     1
  9
$CEPSNTYPE
380
     0
  9
$PSTYLEMODE
290
     1
  9
$FINGERPRINTGUID
  2
{5DE8C288-B401-474E-9BEC-7266472D4683}
  9
$VERSIONGUID
  2
{FAEB1C32-E019-11D5-929B-00C0DF256EC4}
  9
$EXTNAMES
290
     1
  9
$PSVPSCALE
 40
0.0
  9
$OLESTARTUP
290
     0
  0
ENDSEC
  0
SECTION
  2
CLASSES
  0
CLASS
  1
ACDBDICTIONARYWDFLT
  2
AcDbDictionaryWithDefault
  3
ObjectDBX Classes
 90
        0
280
     0
281
     0
  0
CLASS
  1
ACDBPLACEHOLDER
  2
AcDbPlaceHolder
  3
ObjectDBX Classes
 90
        0
280
     0
281
     0
  0
CLASS
  1
LAYOUT
  2
AcDbLayout
  3
ObjectDBX Classes
 90
        0
280
     0
281
     0
  0
ENDSEC
  0
SECTION
  2
TABLES
  0
TABLE
  2
VPORT
  5
8
330
0
100
AcDbSymbolTable
 70
     1
  0
VPORT
  5
29
330
8
100
AcDbSymbolTableRecord
100
AcDbViewportTableRecord
  2
*Active
 70
     0
 10
0.0
 20
0.0
 11
1.0
 21
1.0
 12
105.0
 22
148.5
 13
0.0
 23
0.0
 14
10.0
 24
10.0
 15
10.0
 25
10.0
 16
0.0
 26
0.0
 36
1.0
 17
0.0
 27
0.0
 37
0.0
 40
297.0
 41
1.9729729729
 42
50.0
 43
0.0
 44
0.0
 50
0.0
 51
0.0
 71
     0
 72
  2000
 73
     1
 74
     3
 75
     0
 76
     0
 77
     0
 78
     0
281
     0
 65
     1
110
0.0
120
0.0
130
0.0
111
1.0
121
0.0
131
0.0
112
0.0
122
1.0
132
0.0
 79
     0
146
0.0
  0
ENDTAB
  0
TABLE
  2
LTYPE
  5
5
330
0
100
AcDbSymbolTable
 70
     6
  0
LTYPE
  5
14
330
5
100
AcDbSymbolTableRecord
100
AcDbLinetypeTableRecord
  2
ByBlock
 70
     0
  3

 72
    65
 73
     0
 40
0.0
  0
LTYPE
  5
15
330
5
100
AcDbSymbolTableRecord
100
AcDbLinetypeTableRecord
  2
ByLayer
 70
     0
  3

 72
    65
 73
     0
 40
0.0
  0
LTYPE
  5
16
330
5
100
AcDbSymbolTableRecord
100
AcDbLinetypeTableRecord
  2
Continuous
 70
     0
  3
Solid line
 72
    65
 73
     0
 40
0.0
  0
LTYPE
  5
2A
330
5
100
AcDbSymbolTableRecord
100
AcDbLinetypeTableRecord
  2
HIDDEN
 70
     0
  3
Hidden __ __ __ __ __ __ __ __ __ __ __ __ __ __
 72
    65
 73
     2
 40
1.905
 49
1.27
 74
     0
 49
-0.635
 74
     0
  0
LTYPE
  5
2B
330
5
100
AcDbSymbolTableRecord
100
AcDbLinetypeTableRecord
  2
PHANTOM
 70
     0
  3
Phantom ______  __  __  ______  __  __  ______
 72
    65
 73
     6
 40
12.7
 49
6.35
 74
     0
 49
-1.27
 74
     0
 49
1.27
 74
     0
 49
-1.27
 74
     0
 49
1.27
 74
     0
 49
-1.27
 74
     0
  0
LTYPE
  5
2C
330
5
100
AcDbSymbolTableRecord
100
AcDbLinetypeTableRecord
  2
CENTER
 70
     0
  3
Center ____ _ ____ _ ____ _ ____ _ ____ _ ____
 72
    65
 73
     4
 40
10.16
 49
6.35
 74
     0
 49
-1.27
 74
     0
 49
1.27
 74
     0
 49
-1.27
 74
     0
  0
LTYPE
  5
2D
330
5
100
AcDbSymbolTableRecord
100
AcDbLinetypeTableRecord
  2
CENTERX2
 70
     0
  3
Center (2x) ________  __  ________  __  _____
 72
    65
 73
     4
 40
20.32
 49
12.7
 74
     0
 49
-2.54
 74
     0
 49
2.54
 74
     0
 49
-2.54
 74
     0
  0
LTYPE
  5
2E
330
5
100
AcDbSymbolTableRecord
100
AcDbLinetypeTableRecord
  2
DOT2
 70
     0
  3
Dot (.5x) ........................................
 72
    65
 73
     2
 40
0.635
 49
0.0
 74
     0
 49
-0.635
 74
     0
  0
ENDTAB
  0
TABLE
  2
LAYER
  5
2
330
0
100
AcDbSymbolTable
 70
     4
  0
LAYER
  5
10
330
2
100
AcDbSymbolTableRecord
100
AcDbLayerTableRecord
  2
0
 70
     0
 62
     7
  6
Continuous
370
    -3
390
F
  0
LAYER
  5
2F
330
2
100
AcDbSymbolTableRecord
100
AcDbLayerTableRecord
  2
SLD-0
 70
     0
 62
   179
  6
Continuous
370
     0
390
F
  0
LAYER
  5
30
330
2
100
AcDbSymbolTableRecord
100
AcDbLayerTableRecord
  2
SLD-DEFPOINTS
 70
     0
 62
   179
  6
Continuous
370
     0
390
F
  0
LAYER
  5
E7
330
2
100
AcDbSymbolTableRecord
100
AcDbLayerTableRecord
  2
Defpoints
 70
     0
 62
     7
  6
Continuous
290
     0
370
    -3
390
F
  0
ENDTAB
  0
TABLE
  2
STYLE
  5
3
330
0
100
AcDbSymbolTable
 70
     4
  0
STYLE
  5
11
330
3
100
AcDbSymbolTableRecord
100
AcDbTextStyleTableRecord
  2
Standard
 70
     0
 40
0.0
 41
1.0
 50
0.0
 71
     0
 42
2.5
  3
txt
  4
bigfont
  0
STYLE
  5
34
330
3
100
AcDbSymbolTableRecord
100
AcDbTextStyleTableRecord
  2
SLDTEXTSTYLE0
 70
     0
 40
0.0
 41
0.7
 50
0.0
 71
     0
 42
0.2
  3
TXT
  4
bigfont
  0
STYLE
  5
3C
330
3
100
AcDbSymbolTableRecord
100
AcDbTextStyleTableRecord
  2
SLDTEXTSTYLE1
 70
     0
 40
0.0
 41
0.5526315789
 50
0.0
 71
     0
 42
0.2
  3
TXT
  4
bigfont
  0
STYLE
  5
281
330
3
100
AcDbSymbolTableRecord
100
AcDbTextStyleTableRecord
  2
SLDTEXTSTYLE2
 70
     0
 40
0.0
 41
0.488763606
 50
0.0
 71
     0
 42
0.2
  3
TXT
  4
bigfont
  0
ENDTAB
  0
TABLE
  2
VIEW
  5
6
330
0
100
AcDbSymbolTable
 70
     0
  0
ENDTAB
  0
TABLE
  2
UCS
  5
7
330
0
100
AcDbSymbolTable
 70
     0
  0
ENDTAB
  0
TABLE
  2
APPID
  5
9
330
0
100
AcDbSymbolTable
 70
     1
  0
APPID
  5
12
330
9
100
AcDbSymbolTableRecord
100
AcDbRegAppTableRecord
  2
ACAD
 70
     0
  0
ENDTAB
  0
TABLE
  2
DIMSTYLE
  5
A
330
0
100
AcDbSymbolTable
 70
     5
100
AcDbDimStyleTable
  0
DIMSTYLE
105
27
330
A
100
AcDbSymbolTableRecord
100
AcDbDimStyleTableRecord
  2
ISO-25
 70
     0
 41
2.5
 42
0.625
 43
3.75
 44
1.25
 73
     0
 74
     0
 77
     1
 78
     8
140
2.5
141
2.5
143
0.0393700787
147
0.625
171
     3
172
     1
271
     2
272
     2
274
     3
278
    44
283
     0
284
     8
340
11
  0
DIMSTYLE
105
F4
102
{ACAD_REACTORS
330
E6
330
102
330
145
330
177
330
1A7
330
1C3
330
1ED
330
205
330
239
330
250
330
267
102
}
330
A
100
AcDbSymbolTableRecord
100
AcDbDimStyleTableRecord
  2
SLDDIMSTYLE0
 70
     0
 41
3.0
 44
0.0
 73
     0
 74
     0
 77
     3
 78
    12
140
3.5
147
0.875
173
     1
271
     0
272
     3
284
    12
340
3C
341
F5
343
F5
344
F5
  0
DIMSTYLE
105
124
102
{ACAD_REACTORS
330
11A
102
}
330
A
100
AcDbSymbolTableRecord
100
AcDbDimStyleTableRecord
  2
SLDDIMSTYLE1
 70
     0
 41
3.0
 44
0.0
 78
    12
140
3.5
147
0.875
173
     1
271
     1
272
     3
284
    12
340
3C
341
F5
343
F5
344
F5
  0
DIMSTYLE
105
138
102
{ACAD_REACTORS
330
12B
330
15D
330
18F
330
21C
102
}
330
A
100
AcDbSymbolTableRecord
100
AcDbDimStyleTableRecord
  2
SLDDIMSTYLE2
 70
     0
 41
3.0
 44
0.0
 73
     0
 74
     0
 77
     3
 78
    12
140
3.5
147
0.875
173
     1
271
     1
272
     3
284
    12
340
3C
341
F5
343
F5
344
F5
  0
DIMSTYLE
105
1E4
102
{ACAD_REACTORS
330
1DA
102
}
330
A
100
AcDbSymbolTableRecord
100
AcDbDimStyleTableRecord
  2
SLDDIMSTYLE3
 70
     0
 41
3.0
 44
0.0
 78
    12
140
3.5
147
0.875
172
     1
173
     1
271
     1
272
     3
284
    12
340
3C
341
F5
343
F5
344
F5
  0
ENDTAB
  0
TABLE
  2
BLOCK_RECORD
  5
1
330
0
100
AcDbSymbolTable
 70
    33
  0
BLOCK_RECORD
  5
1F
330
1
100
AcDbSymbolTableRecord
100
AcDbBlockTableRecord
  2
*Model_Space
340
22
  0
BLOCK_RECORD
  5
1B
330
1
100
AcDbSymbolTableRecord
100
AcDbBlockTableRecord
  2
*Paper_Space
340
1E
  0
BLOCK_RECORD
  5
23
330
1
100
AcDbSymbolTableRecord
100
AcDbBlockTableRecord
  2
*Paper_Space0
340
26
  0
BLOCK_RECORD
  5
31
330
1
100
AcDbSymbolTableRecord
100
AcDbBlockTableRecord
  2
注記
340
0
102
{BLKREFS
331
284
102
}
  0
BLOCK_RECORD
  5
37
330
1
100
AcDbSymbolTableRecord
100
AcDbBlockTableRecord
  2
SURFACEFINISH40
340
0
102
{BLKREFS
331
283
102
}
  0
BLOCK_RECORD
  5
3E
330
1
100
AcDbSymbolTableRecord
100
AcDbBlockTableRecord
  2
SW_CENTERMARK0
340
0
102
{BLKREFS
331
285
102
}
  0
BLOCK_RECORD
  5
49
330
1
100
AcDbSymbolTableRecord
100
AcDbBlockTableRecord
  2
SW_CENTERMARK1
340
0
102
{BLKREFS
331
286
102
}
  0
BLOCK_RECORD
  5
54
330
1
100
AcDbSymbolTableRecord
100
AcDbBlockTableRecord
  2
SW_CENTERMARK2
340
0
102
{BLKREFS
331
287
102
}
  0
BLOCK_RECORD
  5
5F
330
1
100
AcDbSymbolTableRecord
100
AcDbBlockTableRecord
  2
SW_CENTERMARK3
340
0
102
{BLKREFS
331
288
102
}
  0
BLOCK_RECORD
  5
6A
330
1
100
AcDbSymbolTableRecord
100
AcDbBlockTableRecord
  2
SW_CENTERMARK4
340
0
102
{BLKREFS
331
289
102
}
  0
BLOCK_RECORD
  5
75
330
1
100
AcDbSymbolTableRecord
100
AcDbBlockTableRecord
  2
SW_CENTERMARK5
340
0
102
{BLKREFS
331
28A
102
}
  0
BLOCK_RECORD
  5
80
330
1
100
AcDbSymbolTableRecord
100
AcDbBlockTableRecord
  2
SW_CENTERMARK6
340
0
102
{BLKREFS
331
28B
102
}
  0
BLOCK_RECORD
  5
8B
330
1
100
AcDbSymbolTableRecord
100
AcDbBlockTableRecord
  2
SW_CENTERMARK7
340
0
102
{BLKREFS
331
28C
102
}
  0
BLOCK_RECORD
  5
96
330
1
100
AcDbSymbolTableRecord
100
AcDbBlockTableRecord
  2
SW_CENTERMARK8
340
0
102
{BLKREFS
331
28D
102
}
  0
BLOCK_RECORD
  5
A1
330
1
100
AcDbSymbolTableRecord
100
AcDbBlockTableRecord
  2
SW_CENTERMARK9
340
0
102
{BLKREFS
331
28E
102
}
  0
BLOCK_RECORD
  5
AC
330
1
100
AcDbSymbolTableRecord
100
AcDbBlockTableRecord
  2
SW_CENTERMARK10
340
0
102
{BLKREFS
331
28F
102
}
  0
BLOCK_RECORD
  5
B7
330
1
100
AcDbSymbolTableRecord
100
AcDbBlockTableRecord
  2
SW_CENTERMARK11
340
0
102
{BLKREFS
331
290
102
}
  0
BLOCK_RECORD
  5
E8
330
1
100
AcDbSymbolTableRecord
100
AcDbBlockTableRecord
  2
*D15
340
0
  0
BLOCK_RECORD
  5
F5
330
1
100
AcDbSymbolTableRecord
100
AcDbBlockTableRecord
  2
_None
340
0
102
{BLKREFS
331
ED
331
EC
331
108
331
107
331
11F
331
131
331
130
331
14B
331
14A
331
163
331
162
331
17D
331
17C
331
195
331
194
331
1AE
331
1AD
331
1C9
331
1C8
331
1DF
331
1F3
331
1F2
331
20B
331
20A
331
223
331
222
331
23F
331
23E
331
256
331
255
331
26D
331
26C
102
}
  0
BLOCK_RECORD
  5
103
330
1
100
AcDbSymbolTableRecord
100
AcDbBlockTableRecord
  2
*D17
340
0
  0
BLOCK_RECORD
  5
11B
330
1
100
AcDbSymbolTableRecord
100
AcDbBlockTableRecord
  2
*D18
340
0
  0
BLOCK_RECORD
  5
12C
330
1
100
AcDbSymbolTableRecord
100
AcDbBlockTableRecord
  2
*D19
340
0
  0
BLOCK_RECORD
  5
146
330
1
100
AcDbSymbolTableRecord
100
AcDbBlockTableRecord
  2
*D20
340
0
  0
BLOCK_RECORD
  5
15E
330
1
100
AcDbSymbolTableRecord
100
AcDbBlockTableRecord
  2
*D21
340
0
  0
BLOCK_RECORD
  5
178
330
1
100
AcDbSymbolTableRecord
100
AcDbBlockTableRecord
  2
*D22
340
0
  0
BLOCK_RECORD
  5
190
330
1
100
AcDbSymbolTableRecord
100
AcDbBlockTableRecord
  2
*D23
340
0
  0
BLOCK_RECORD
  5
1A8
330
1
100
AcDbSymbolTableRecord
100
AcDbBlockTableRecord
  2
*D24
340
0
  0
BLOCK_RECORD
  5
1C4
330
1
100
AcDbSymbolTableRecord
100
AcDbBlockTableRecord
  2
*D25
340
0
  0
BLOCK_RECORD
  5
1DB
330
1
100
AcDbSymbolTableRecord
100
AcDbBlockTableRecord
  2
*D26
340
0
  0
BLOCK_RECORD
  5
1EE
330
1
100
AcDbSymbolTableRecord
100
AcDbBlockTableRecord
  2
*D27
340
0
  0
BLOCK_RECORD
  5
206
330
1
100
AcDbSymbolTableRecord
100
AcDbBlockTableRecord
  2
*D28
340
0
  0
BLOCK_RECORD
  5
21D
330
1
100
AcDbSymbolTableRecord
100
AcDbBlockTableRecord
  2
*D29
340
0
  0
BLOCK_RECORD
  5
23A
330
1
100
AcDbSymbolTableRecord
100
AcDbBlockTableRecord
  2
*D30
340
0
  0
BLOCK_RECORD
  5
251
330
1
100
AcDbSymbolTableRecord
100
AcDbBlockTableRecord
  2
*D31
340
0
  0
BLOCK_RECORD
  5
268
330
1
100
AcDbSymbolTableRecord
100
AcDbBlockTableRecord
  2
*D32
340
0
  0
ENDTAB
  0
ENDSEC
  0
SECTION
  2
BLOCKS
  0
BLOCK
  5
20
330
1F
100
AcDbEntity
  8
0
100
AcDbBlockBegin
  2
*Model_Space
 70
     0
 71
     0
 10
0.0
 20
0.0
 30
0.0
  3
*Model_Space
  1

  0
ENDBLK
  5
21
330
1F
100
AcDbEntity
  8
0
100
AcDbBlockEnd
  0
BLOCK
  5
1C
330
1B
100
AcDbEntity
 67
     1
  8
0
100
AcDbBlockBegin
  2
*Paper_Space
 70
     0
 71
     0
 10
0.0
 20
0.0
 30
0.0
  3
*Paper_Space
  1

  0
ENDBLK
  5
1D
330
1B
100
AcDbEntity
 67
     1
  8
0
100
AcDbBlockEnd
  0
BLOCK
  5
24
330
23
100
AcDbEntity
  8
0
100
AcDbBlockBegin
  2
*Paper_Space0
 70
     0
 71
     0
 10
0.0
 20
0.0
 30
0.0
  3
*Paper_Space0
  1

  0
ENDBLK
  5
25
330
23
100
AcDbEntity
  8
0
100
AcDbBlockEnd
  0
BLOCK
  5
32
330
31
100
AcDbEntity
  8
0
100
AcDbBlockBegin
  2
注記
 70
     0
 71
     0
 10
0.0
 20
0.0
 30
0.0
  3
注記
  1

  0
MTEXT
  5
35
330
31
100
AcDbEntity
  8
0
  6
Continuous
 62
     7
370
     0
100
AcDbMText
 10
0.2636785918
 20
9.0739778448
 30
0.0
 40
3.5
 41
0.0
 71
     1
 72
     1
  1
１．特記ナキ角部ハ、バリ　カエリノ無キコト。
  7
SLDTEXTSTYLE0
 73
     1
 44
1.0
  0
MTEXT
  5
36
330
31
100
AcDbEntity
  8
0
  6
Continuous
 62
     7
370
     0
100
AcDbMText
 10
0.2636785918
 20
3.5759549983
 30
0.0
 40
3.5
 41
0.0
 71
     1
 72
     1
  1
２．特記ナキ隅部ハ、Ｒ０．４ＭＡＸトスル。
  7
SLDTEXTSTYLE0
 73
     1
 44
1.0
  0
ENDBLK
  5
33
330
31
100
AcDbEntity
  8
0
100
AcDbBlockEnd
  0
BLOCK
  5
38
330
37
100
AcDbEntity
  8
0
100
AcDbBlockBegin
  2
SURFACEFINISH40
 70
     0
 71
     0
 10
0.0
 20
0.0
 30
0.0
  3
SURFACEFINISH40
  1

  0
LINE
  5
3A
330
37
100
AcDbEntity
  8
SLD-0
  6
Continuous
 62
   179
100
AcDbLine
 10
0.6656507568
 20
-6.0450228083
 30
0.0
 11
-2.9004261201
 21
0.0000001164
 31
0.0
  0
LINE
  5
3B
330
37
100
AcDbEntity
  8
SLD-0
  6
Continuous
 62
   179
100
AcDbLine
 10
0.6656507568
 20
-6.0450228083
 30
0.0
 11
7.7978045106
 21
6.0450230411
 31
0.0
  0
MTEXT
  5
3D
330
37
100
AcDbEntity
  8
SLD-0
100
AcDbMText
 10
0.0
 20
4.9341236929
 30
0.0
 40
3.175
 41
0.0
 71
     1
 72
     1
  1
25
  7
SLDTEXTSTYLE1
 73
     1
 44
1.0
  0
ENDBLK
  5
39
330
37
100
AcDbEntity
  8
0
100
AcDbBlockEnd
  0
BLOCK
  5
3F
330
3E
100
AcDbEntity
  8
0
100
AcDbBlockBegin
  2
SW_CENTERMARK0
 70
     0
 71
     0
 10
0.0
 20
0.0
 30
0.0
  3
SW_CENTERMARK0
  1

  0
LINE
  5
41
330
3E
100
AcDbEntity
  8
SLD-0
  6
Continuous
 62
   179
100
AcDbLine
 10
97.7159363401
 20
191.4347357899
 30
0.0
 11
97.7159363401
 21
193.9347357899
 31
0.0
  0
LINE
  5
42
330
3E
100
AcDbEntity
  8
SLD-0
  6
Continuous
 62
   179
100
AcDbLine
 10
97.7159363401
 20
191.4347357899
 30
0.0
 11
95.2159363401
 21
191.4347357899
 31
0.0
  0
LINE
  5
43
330
3E
100
AcDbEntity
  8
SLD-0
  6
Continuous
 62
   179
100
AcDbLine
 10
97.7159363401
 20
191.4347357899
 30
0.0
 11
97.7159363401
 21
188.9347357899
 31
0.0
  0
LINE
  5
44
330
3E
100
AcDbEntity
  8
SLD-0
  6
Continuous
 62
   179
100
AcDbLine
 10
97.7159363401
 20
191.4347357899
 30
0.0
 11
100.2159363401
 21
191.4347357899
 31
0.0
  0
LINE
  5
45
330
3E
100
AcDbEntity
  8
SLD-0
  6
Continuous
 62
   179
100
AcDbLine
 10
97.7159363401
 20
196.4347357899
 30
0.0
 11
97.7159363401
 21
197.0347357899
 31
0.0
  0
LINE
  5
46
330
3E
100
AcDbEntity
  8
SLD-0
  6
Continuous
 62
   179
100
AcDbLine
 10
92.7159363401
 20
191.4347357899
 30
0.0
 11
92.1159363401
 21
191.4347357899
 31
0.0
  0
LINE
  5
47
330
3E
100
AcDbEntity
  8
SLD-0
  6
Continuous
 62
   179
100
AcDbLine
 10
97.7159363401
 20
186.4347357899
 30
0.0
 11
97.7159363401
 21
185.8347357899
 31
0.0
  0
LINE
  5
48
330
3E
100
AcDbEntity
  8
SLD-0
  6
Continuous
 62
   179
100
AcDbLine
 10
102.7159363401
 20
191.4347357899
 30
0.0
 11
103.3159363401
 21
191.4347357899
 31
0.0
  0
ENDBLK
  5
40
330
3E
100
AcDbEntity
  8
0
100
AcDbBlockEnd
  0
BLOCK
  5
4A
330
49
100
AcDbEntity
  8
0
100
AcDbBlockBegin
  2
SW_CENTERMARK1
 70
     0
 71
     0
 10
0.0
 20
0.0
 30
0.0
  3
SW_CENTERMARK1
  1

  0
LINE
  5
4C
330
49
100
AcDbEntity
  8
SLD-0
  6
Continuous
 62
   179
100
AcDbLine
 10
97.7159363401
 20
176.4347357899
 30
0.0
 11
97.7159363401
 21
178.9347357899
 31
0.0
  0
LINE
  5
4D
330
49
100
AcDbEntity
  8
SLD-0
  6
Continuous
 62
   179
100
AcDbLine
 10
97.7159363401
 20
176.4347357899
 30
0.0
 11
95.2159363401
 21
176.4347357899
 31
0.0
  0
LINE
  5
4E
330
49
100
AcDbEntity
  8
SLD-0
  6
Continuous
 62
   179
100
AcDbLine
 10
97.7159363401
 20
176.4347357899
 30
0.0
 11
97.7159363401
 21
173.9347357899
 31
0.0
  0
LINE
  5
4F
330
49
100
AcDbEntity
  8
SLD-0
  6
Continuous
 62
   179
100
AcDbLine
 10
97.7159363401
 20
176.4347357899
 30
0.0
 11
100.2159363401
 21
176.4347357899
 31
0.0
  0
LINE
  5
50
330
49
100
AcDbEntity
  8
SLD-0
  6
Continuous
 62
   179
100
AcDbLine
 10
97.7159363401
 20
181.4347357899
 30
0.0
 11
97.7159363401
 21
182.0347357899
 31
0.0
  0
LINE
  5
51
330
49
100
AcDbEntity
  8
SLD-0
  6
Continuous
 62
   179
100
AcDbLine
 10
92.7159363401
 20
176.4347357899
 30
0.0
 11
92.1159363401
 21
176.4347357899
 31
0.0
  0
LINE
  5
52
330
49
100
AcDbEntity
  8
SLD-0
  6
Continuous
 62
   179
100
AcDbLine
 10
97.7159363401
 20
171.4347357899
 30
0.0
 11
97.7159363401
 21
170.8347357899
 31
0.0
  0
LINE
  5
53
330
49
100
AcDbEntity
  8
SLD-0
  6
Continuous
 62
   179
100
AcDbLine
 10
102.7159363401
 20
176.4347357899
 30
0.0
 11
103.3159363401
 21
176.4347357899
 31
0.0
  0
ENDBLK
  5
4B
330
49
100
AcDbEntity
  8
0
100
AcDbBlockEnd
  0
BLOCK
  5
55
330
54
100
AcDbEntity
  8
0
100
AcDbBlockBegin
  2
SW_CENTERMARK2
 70
     0
 71
     0
 10
0.0
 20
0.0
 30
0.0
  3
SW_CENTERMARK2
  1

  0
LINE
  5
57
330
54
100
AcDbEntity
  8
SLD-0
  6
Continuous
 62
   179
100
AcDbLine
 10
97.7159363401
 20
128.9347357899
 30
0.0
 11
97.7159363401
 21
131.4347357899
 31
0.0
  0
LINE
  5
58
330
54
100
AcDbEntity
  8
SLD-0
  6
Continuous
 62
   179
100
AcDbLine
 10
97.7159363401
 20
128.9347357899
 30
0.0
 11
95.2159363401
 21
128.9347357899
 31
0.0
  0
LINE
  5
59
330
54
100
AcDbEntity
  8
SLD-0
  6
Continuous
 62
   179
100
AcDbLine
 10
97.7159363401
 20
128.9347357899
 30
0.0
 11
97.7159363401
 21
126.4347357899
 31
0.0
  0
LINE
  5
5A
330
54
100
AcDbEntity
  8
SLD-0
  6
Continuous
 62
   179
100
AcDbLine
 10
97.7159363401
 20
128.9347357899
 30
0.0
 11
100.2159363401
 21
128.9347357899
 31
0.0
  0
LINE
  5
5B
330
54
100
AcDbEntity
  8
SLD-0
  6
Continuous
 62
   179
100
AcDbLine
 10
97.7159363401
 20
133.9347357899
 30
0.0
 11
97.7159363401
 21
134.5347357899
 31
0.0
  0
LINE
  5
5C
330
54
100
AcDbEntity
  8
SLD-0
  6
Continuous
 62
   179
100
AcDbLine
 10
92.7159363401
 20
128.9347357899
 30
0.0
 11
92.1159363401
 21
128.9347357899
 31
0.0
  0
LINE
  5
5D
330
54
100
AcDbEntity
  8
SLD-0
  6
Continuous
 62
   179
100
AcDbLine
 10
97.7159363401
 20
123.9347357899
 30
0.0
 11
97.7159363401
 21
123.3347357899
 31
0.0
  0
LINE
  5
5E
330
54
100
AcDbEntity
  8
SLD-0
  6
Continuous
 62
   179
100
AcDbLine
 10
102.7159363401
 20
128.9347357899
 30
0.0
 11
103.3159363401
 21
128.9347357899
 31
0.0
  0
ENDBLK
  5
56
330
54
100
AcDbEntity
  8
0
100
AcDbBlockEnd
  0
BLOCK
  5
60
330
5F
100
AcDbEntity
  8
0
100
AcDbBlockBegin
  2
SW_CENTERMARK3
 70
     0
 71
     0
 10
0.0
 20
0.0
 30
0.0
  3
SW_CENTERMARK3
  1

  0
LINE
  5
62
330
5F
100
AcDbEntity
  8
SLD-0
  6
Continuous
 62
   179
100
AcDbLine
 10
97.7159363401
 20
153.9347357899
 30
0.0
 11
97.7159363401
 21
156.4347357899
 31
0.0
  0
LINE
  5
63
330
5F
100
AcDbEntity
  8
SLD-0
  6
Continuous
 62
   179
100
AcDbLine
 10
97.7159363401
 20
153.9347357899
 30
0.0
 11
95.2159363401
 21
153.9347357899
 31
0.0
  0
LINE
  5
64
330
5F
100
AcDbEntity
  8
SLD-0
  6
Continuous
 62
   179
100
AcDbLine
 10
97.7159363401
 20
153.9347357899
 30
0.0
 11
97.7159363401
 21
151.4347357899
 31
0.0
  0
LINE
  5
65
330
5F
100
AcDbEntity
  8
SLD-0
  6
Continuous
 62
   179
100
AcDbLine
 10
97.7159363401
 20
153.9347357899
 30
0.0
 11
100.2159363401
 21
153.9347357899
 31
0.0
  0
LINE
  5
66
330
5F
100
AcDbEntity
  8
SLD-0
  6
Continuous
 62
   179
100
AcDbLine
 10
97.7159363401
 20
158.9347357899
 30
0.0
 11
97.7159363401
 21
159.5347357899
 31
0.0
  0
LINE
  5
67
330
5F
100
AcDbEntity
  8
SLD-0
  6
Continuous
 62
   179
100
AcDbLine
 10
92.7159363401
 20
153.9347357899
 30
0.0
 11
92.1159363401
 21
153.9347357899
 31
0.0
  0
LINE
  5
68
330
5F
100
AcDbEntity
  8
SLD-0
  6
Continuous
 62
   179
100
AcDbLine
 10
97.7159363401
 20
148.9347357899
 30
0.0
 11
97.7159363401
 21
148.3347357899
 31
0.0
  0
LINE
  5
69
330
5F
100
AcDbEntity
  8
SLD-0
  6
Continuous
 62
   179
100
AcDbLine
 10
102.7159363401
 20
153.9347357899
 30
0.0
 11
103.3159363401
 21
153.9347357899
 31
0.0
  0
ENDBLK
  5
61
330
5F
100
AcDbEntity
  8
0
100
AcDbBlockEnd
  0
BLOCK
  5
6B
330
6A
100
AcDbEntity
  8
0
100
AcDbBlockBegin
  2
SW_CENTERMARK4
 70
     0
 71
     0
 10
0.0
 20
0.0
 30
0.0
  3
SW_CENTERMARK4
  1

  0
LINE
  5
6D
330
6A
100
AcDbEntity
  8
SLD-0
  6
Continuous
 62
   179
100
AcDbLine
 10
82.7159363401
 20
153.9347357899
 30
0.0
 11
82.7159363401
 21
156.4347357899
 31
0.0
  0
LINE
  5
6E
330
6A
100
AcDbEntity
  8
SLD-0
  6
Continuous
 62
   179
100
AcDbLine
 10
82.7159363401
 20
153.9347357899
 30
0.0
 11
80.2159363401
 21
153.9347357899
 31
0.0
  0
LINE
  5
6F
330
6A
100
AcDbEntity
  8
SLD-0
  6
Continuous
 62
   179
100
AcDbLine
 10
82.7159363401
 20
153.9347357899
 30
0.0
 11
82.7159363401
 21
151.4347357899
 31
0.0
  0
LINE
  5
70
330
6A
100
AcDbEntity
  8
SLD-0
  6
Continuous
 62
   179
100
AcDbLine
 10
82.7159363401
 20
153.9347357899
 30
0.0
 11
85.2159363401
 21
153.9347357899
 31
0.0
  0
LINE
  5
71
330
6A
100
AcDbEntity
  8
SLD-0
  6
Continuous
 62
   179
100
AcDbLine
 10
82.7159363401
 20
158.9347357899
 30
0.0
 11
82.7159363401
 21
159.5347357899
 31
0.0
  0
LINE
  5
72
330
6A
100
AcDbEntity
  8
SLD-0
  6
Continuous
 62
   179
100
AcDbLine
 10
77.7159363401
 20
153.9347357899
 30
0.0
 11
77.1159363401
 21
153.9347357899
 31
0.0
  0
LINE
  5
73
330
6A
100
AcDbEntity
  8
SLD-0
  6
Continuous
 62
   179
100
AcDbLine
 10
82.7159363401
 20
148.9347357899
 30
0.0
 11
82.7159363401
 21
148.3347357899
 31
0.0
  0
LINE
  5
74
330
6A
100
AcDbEntity
  8
SLD-0
  6
Continuous
 62
   179
100
AcDbLine
 10
87.7159363401
 20
153.9347357899
 30
0.0
 11
88.3159363401
 21
153.9347357899
 31
0.0
  0
ENDBLK
  5
6C
330
6A
100
AcDbEntity
  8
0
100
AcDbBlockEnd
  0
BLOCK
  5
76
330
75
100
AcDbEntity
  8
0
100
AcDbBlockBegin
  2
SW_CENTERMARK5
 70
     0
 71
     0
 10
0.0
 20
0.0
 30
0.0
  3
SW_CENTERMARK5
  1

  0
LINE
  5
78
330
75
100
AcDbEntity
  8
SLD-0
  6
Continuous
 62
   179
100
AcDbLine
 10
82.7159363401
 20
128.9347357899
 30
0.0
 11
82.7159363401
 21
131.4347357899
 31
0.0
  0
LINE
  5
79
330
75
100
AcDbEntity
  8
SLD-0
  6
Continuous
 62
   179
100
AcDbLine
 10
82.7159363401
 20
128.9347357899
 30
0.0
 11
80.2159363401
 21
128.9347357899
 31
0.0
  0
LINE
  5
7A
330
75
100
AcDbEntity
  8
SLD-0
  6
Continuous
 62
   179
100
AcDbLine
 10
82.7159363401
 20
128.9347357899
 30
0.0
 11
82.7159363401
 21
126.4347357899
 31
0.0
  0
LINE
  5
7B
330
75
100
AcDbEntity
  8
SLD-0
  6
Continuous
 62
   179
100
AcDbLine
 10
82.7159363401
 20
128.9347357899
 30
0.0
 11
85.2159363401
 21
128.9347357899
 31
0.0
  0
LINE
  5
7C
330
75
100
AcDbEntity
  8
SLD-0
  6
Continuous
 62
   179
100
AcDbLine
 10
82.7159363401
 20
133.9347357899
 30
0.0
 11
82.7159363401
 21
134.5347357899
 31
0.0
  0
LINE
  5
7D
330
75
100
AcDbEntity
  8
SLD-0
  6
Continuous
 62
   179
100
AcDbLine
 10
77.7159363401
 20
128.9347357899
 30
0.0
 11
77.1159363401
 21
128.9347357899
 31
0.0
  0
LINE
  5
7E
330
75
100
AcDbEntity
  8
SLD-0
  6
Continuous
 62
   179
100
AcDbLine
 10
82.7159363401
 20
123.9347357899
 30
0.0
 11
82.7159363401
 21
123.3347357899
 31
0.0
  0
LINE
  5
7F
330
75
100
AcDbEntity
  8
SLD-0
  6
Continuous
 62
   179
100
AcDbLine
 10
87.7159363401
 20
128.9347357899
 30
0.0
 11
88.3159363401
 21
128.9347357899
 31
0.0
  0
ENDBLK
  5
77
330
75
100
AcDbEntity
  8
0
100
AcDbBlockEnd
  0
BLOCK
  5
81
330
80
100
AcDbEntity
  8
0
100
AcDbBlockBegin
  2
SW_CENTERMARK6
 70
     0
 71
     0
 10
0.0
 20
0.0
 30
0.0
  3
SW_CENTERMARK6
  1

  0
LINE
  5
83
330
80
100
AcDbEntity
  8
SLD-0
  6
Continuous
 62
   179
100
AcDbLine
 10
122.7159363401
 20
191.4347357899
 30
0.0
 11
122.7159363401
 21
193.9347357899
 31
0.0
  0
LINE
  5
84
330
80
100
AcDbEntity
  8
SLD-0
  6
Continuous
 62
   179
100
AcDbLine
 10
122.7159363401
 20
191.4347357899
 30
0.0
 11
120.2159363401
 21
191.4347357899
 31
0.0
  0
LINE
  5
85
330
80
100
AcDbEntity
  8
SLD-0
  6
Continuous
 62
   179
100
AcDbLine
 10
122.7159363401
 20
191.4347357899
 30
0.0
 11
122.7159363401
 21
188.9347357899
 31
0.0
  0
LINE
  5
86
330
80
100
AcDbEntity
  8
SLD-0
  6
Continuous
 62
   179
100
AcDbLine
 10
122.7159363401
 20
191.4347357899
 30
0.0
 11
125.2159363401
 21
191.4347357899
 31
0.0
  0
LINE
  5
87
330
80
100
AcDbEntity
  8
SLD-0
  6
Continuous
 62
   179
100
AcDbLine
 10
122.7159363401
 20
196.4347357899
 30
0.0
 11
122.7159363401
 21
197.0347357899
 31
0.0
  0
LINE
  5
88
330
80
100
AcDbEntity
  8
SLD-0
  6
Continuous
 62
   179
100
AcDbLine
 10
117.7159363401
 20
191.4347357899
 30
0.0
 11
117.1159363401
 21
191.4347357899
 31
0.0
  0
LINE
  5
89
330
80
100
AcDbEntity
  8
SLD-0
  6
Continuous
 62
   179
100
AcDbLine
 10
122.7159363401
 20
186.4347357899
 30
0.0
 11
122.7159363401
 21
185.8347357899
 31
0.0
  0
LINE
  5
8A
330
80
100
AcDbEntity
  8
SLD-0
  6
Continuous
 62
   179
100
AcDbLine
 10
127.7159363401
 20
191.4347357899
 30
0.0
 11
128.3159363401
 21
191.4347357899
 31
0.0
  0
ENDBLK
  5
82
330
80
100
AcDbEntity
  8
0
100
AcDbBlockEnd
  0
BLOCK
  5
8C
330
8B
100
AcDbEntity
  8
0
100
AcDbBlockBegin
  2
SW_CENTERMARK7
 70
     0
 71
     0
 10
0.0
 20
0.0
 30
0.0
  3
SW_CENTERMARK7
  1

  0
LINE
  5
8E
330
8B
100
AcDbEntity
  8
SLD-0
  6
Continuous
 62
   179
100
AcDbLine
 10
122.7159363401
 20
176.4347357899
 30
0.0
 11
122.7159363401
 21
178.9347357899
 31
0.0
  0
LINE
  5
8F
330
8B
100
AcDbEntity
  8
SLD-0
  6
Continuous
 62
   179
100
AcDbLine
 10
122.7159363401
 20
176.4347357899
 30
0.0
 11
120.2159363401
 21
176.4347357899
 31
0.0
  0
LINE
  5
90
330
8B
100
AcDbEntity
  8
SLD-0
  6
Continuous
 62
   179
100
AcDbLine
 10
122.7159363401
 20
176.4347357899
 30
0.0
 11
122.7159363401
 21
173.9347357899
 31
0.0
  0
LINE
  5
91
330
8B
100
AcDbEntity
  8
SLD-0
  6
Continuous
 62
   179
100
AcDbLine
 10
122.7159363401
 20
176.4347357899
 30
0.0
 11
125.2159363401
 21
176.4347357899
 31
0.0
  0
LINE
  5
92
330
8B
100
AcDbEntity
  8
SLD-0
  6
Continuous
 62
   179
100
AcDbLine
 10
122.7159363401
 20
181.4347357899
 30
0.0
 11
122.7159363401
 21
182.0347357899
 31
0.0
  0
LINE
  5
93
330
8B
100
AcDbEntity
  8
SLD-0
  6
Continuous
 62
   179
100
AcDbLine
 10
117.7159363401
 20
176.4347357899
 30
0.0
 11
117.1159363401
 21
176.4347357899
 31
0.0
  0
LINE
  5
94
330
8B
100
AcDbEntity
  8
SLD-0
  6
Continuous
 62
   179
100
AcDbLine
 10
122.7159363401
 20
171.4347357899
 30
0.0
 11
122.7159363401
 21
170.8347357899
 31
0.0
  0
LINE
  5
95
330
8B
100
AcDbEntity
  8
SLD-0
  6
Continuous
 62
   179
100
AcDbLine
 10
127.7159363401
 20
176.4347357899
 30
0.0
 11
128.3159363401
 21
176.4347357899
 31
0.0
  0
ENDBLK
  5
8D
330
8B
100
AcDbEntity
  8
0
100
AcDbBlockEnd
  0
BLOCK
  5
97
330
96
100
AcDbEntity
  8
0
100
AcDbBlockBegin
  2
SW_CENTERMARK8
 70
     0
 71
     0
 10
0.0
 20
0.0
 30
0.0
  3
SW_CENTERMARK8
  1

  0
LINE
  5
99
330
96
100
AcDbEntity
  8
SLD-0
  6
Continuous
 62
   179
100
AcDbLine
 10
122.7159363401
 20
153.9347357899
 30
0.0
 11
122.7159363401
 21
156.4347357899
 31
0.0
  0
LINE
  5
9A
330
96
100
AcDbEntity
  8
SLD-0
  6
Continuous
 62
   179
100
AcDbLine
 10
122.7159363401
 20
153.9347357899
 30
0.0
 11
120.2159363401
 21
153.9347357899
 31
0.0
  0
LINE
  5
9B
330
96
100
AcDbEntity
  8
SLD-0
  6
Continuous
 62
   179
100
AcDbLine
 10
122.7159363401
 20
153.9347357899
 30
0.0
 11
122.7159363401
 21
151.4347357899
 31
0.0
  0
LINE
  5
9C
330
96
100
AcDbEntity
  8
SLD-0
  6
Continuous
 62
   179
100
AcDbLine
 10
122.7159363401
 20
153.9347357899
 30
0.0
 11
125.2159363401
 21
153.9347357899
 31
0.0
  0
LINE
  5
9D
330
96
100
AcDbEntity
  8
SLD-0
  6
Continuous
 62
   179
100
AcDbLine
 10
122.7159363401
 20
158.9347357899
 30
0.0
 11
122.7159363401
 21
159.5347357899
 31
0.0
  0
LINE
  5
9E
330
96
100
AcDbEntity
  8
SLD-0
  6
Continuous
 62
   179
100
AcDbLine
 10
117.7159363401
 20
153.9347357899
 30
0.0
 11
117.1159363401
 21
153.9347357899
 31
0.0
  0
LINE
  5
9F
330
96
100
AcDbEntity
  8
SLD-0
  6
Continuous
 62
   179
100
AcDbLine
 10
122.7159363401
 20
148.9347357899
 30
0.0
 11
122.7159363401
 21
148.3347357899
 31
0.0
  0
LINE
  5
A0
330
96
100
AcDbEntity
  8
SLD-0
  6
Continuous
 62
   179
100
AcDbLine
 10
127.7159363401
 20
153.9347357899
 30
0.0
 11
128.3159363401
 21
153.9347357899
 31
0.0
  0
ENDBLK
  5
98
330
96
100
AcDbEntity
  8
0
100
AcDbBlockEnd
  0
BLOCK
  5
A2
330
A1
100
AcDbEntity
  8
0
100
AcDbBlockBegin
  2
SW_CENTERMARK9
 70
     0
 71
     0
 10
0.0
 20
0.0
 30
0.0
  3
SW_CENTERMARK9
  1

  0
LINE
  5
A4
330
A1
100
AcDbEntity
  8
SLD-0
  6
Continuous
 62
   179
100
AcDbLine
 10
137.7159363401
 20
153.9347357899
 30
0.0
 11
137.7159363401
 21
156.4347357899
 31
0.0
  0
LINE
  5
A5
330
A1
100
AcDbEntity
  8
SLD-0
  6
Continuous
 62
   179
100
AcDbLine
 10
137.7159363401
 20
153.9347357899
 30
0.0
 11
135.2159363401
 21
153.9347357899
 31
0.0
  0
LINE
  5
A6
330
A1
100
AcDbEntity
  8
SLD-0
  6
Continuous
 62
   179
100
AcDbLine
 10
137.7159363401
 20
153.9347357899
 30
0.0
 11
137.7159363401
 21
151.4347357899
 31
0.0
  0
LINE
  5
A7
330
A1
100
AcDbEntity
  8
SLD-0
  6
Continuous
 62
   179
100
AcDbLine
 10
137.7159363401
 20
153.9347357899
 30
0.0
 11
140.2159363401
 21
153.9347357899
 31
0.0
  0
LINE
  5
A8
330
A1
100
AcDbEntity
  8
SLD-0
  6
Continuous
 62
   179
100
AcDbLine
 10
137.7159363401
 20
158.9347357899
 30
0.0
 11
137.7159363401
 21
159.5347357899
 31
0.0
  0
LINE
  5
A9
330
A1
100
AcDbEntity
  8
SLD-0
  6
Continuous
 62
   179
100
AcDbLine
 10
132.7159363401
 20
153.9347357899
 30
0.0
 11
132.1159363401
 21
153.9347357899
 31
0.0
  0
LINE
  5
AA
330
A1
100
AcDbEntity
  8
SLD-0
  6
Continuous
 62
   179
100
AcDbLine
 10
137.7159363401
 20
148.9347357899
 30
0.0
 11
137.7159363401
 21
148.3347357899
 31
0.0
  0
LINE
  5
AB
330
A1
100
AcDbEntity
  8
SLD-0
  6
Continuous
 62
   179
100
AcDbLine
 10
142.7159363401
 20
153.9347357899
 30
0.0
 11
143.3159363401
 21
153.9347357899
 31
0.0
  0
ENDBLK
  5
A3
330
A1
100
AcDbEntity
  8
0
100
AcDbBlockEnd
  0
BLOCK
  5
AD
330
AC
100
AcDbEntity
  8
0
100
AcDbBlockBegin
  2
SW_CENTERMARK10
 70
     0
 71
     0
 10
0.0
 20
0.0
 30
0.0
  3
SW_CENTERMARK10
  1

  0
LINE
  5
AF
330
AC
100
AcDbEntity
  8
SLD-0
  6
Continuous
 62
   179
100
AcDbLine
 10
137.7159363401
 20
128.9347357899
 30
0.0
 11
137.7159363401
 21
131.4347357899
 31
0.0
  0
LINE
  5
B0
330
AC
100
AcDbEntity
  8
SLD-0
  6
Continuous
 62
   179
100
AcDbLine
 10
137.7159363401
 20
128.9347357899
 30
0.0
 11
135.2159363401
 21
128.9347357899
 31
0.0
  0
LINE
  5
B1
330
AC
100
AcDbEntity
  8
SLD-0
  6
Continuous
 62
   179
100
AcDbLine
 10
137.7159363401
 20
128.9347357899
 30
0.0
 11
137.7159363401
 21
126.4347357899
 31
0.0
  0
LINE
  5
B2
330
AC
100
AcDbEntity
  8
SLD-0
  6
Continuous
 62
   179
100
AcDbLine
 10
137.7159363401
 20
128.9347357899
 30
0.0
 11
140.2159363401
 21
128.9347357899
 31
0.0
  0
LINE
  5
B3
330
AC
100
AcDbEntity
  8
SLD-0
  6
Continuous
 62
   179
100
AcDbLine
 10
137.7159363401
 20
133.9347357899
 30
0.0
 11
137.7159363401
 21
134.5347357899
 31
0.0
  0
LINE
  5
B4
330
AC
100
AcDbEntity
  8
SLD-0
  6
Continuous
 62
   179
100
AcDbLine
 10
132.7159363401
 20
128.9347357899
 30
0.0
 11
132.1159363401
 21
128.9347357899
 31
0.0
  0
LINE
  5
B5
330
AC
100
AcDbEntity
  8
SLD-0
  6
Continuous
 62
   179
100
AcDbLine
 10
137.7159363401
 20
123.9347357899
 30
0.0
 11
137.7159363401
 21
123.3347357899
 31
0.0
  0
LINE
  5
B6
330
AC
100
AcDbEntity
  8
SLD-0
  6
Continuous
 62
   179
100
AcDbLine
 10
142.7159363401
 20
128.9347357899
 30
0.0
 11
143.3159363401
 21
128.9347357899
 31
0.0
  0
ENDBLK
  5
AE
330
AC
100
AcDbEntity
  8
0
100
AcDbBlockEnd
  0
BLOCK
  5
B8
330
B7
100
AcDbEntity
  8
0
100
AcDbBlockBegin
  2
SW_CENTERMARK11
 70
     0
 71
     0
 10
0.0
 20
0.0
 30
0.0
  3
SW_CENTERMARK11
  1

  0
LINE
  5
BA
330
B7
100
AcDbEntity
  8
SLD-0
  6
Continuous
 62
   179
100
AcDbLine
 10
122.7159363401
 20
128.9347357899
 30
0.0
 11
122.7159363401
 21
131.4347357899
 31
0.0
  0
LINE
  5
BB
330
B7
100
AcDbEntity
  8
SLD-0
  6
Continuous
 62
   179
100
AcDbLine
 10
122.7159363401
 20
128.9347357899
 30
0.0
 11
120.2159363401
 21
128.9347357899
 31
0.0
  0
LINE
  5
BC
330
B7
100
AcDbEntity
  8
SLD-0
  6
Continuous
 62
   179
100
AcDbLine
 10
122.7159363401
 20
128.9347357899
 30
0.0
 11
122.7159363401
 21
126.4347357899
 31
0.0
  0
LINE
  5
BD
330
B7
100
AcDbEntity
  8
SLD-0
  6
Continuous
 62
   179
100
AcDbLine
 10
122.7159363401
 20
128.9347357899
 30
0.0
 11
125.2159363401
 21
128.9347357899
 31
0.0
  0
LINE
  5
BE
330
B7
100
AcDbEntity
  8
SLD-0
  6
Continuous
 62
   179
100
AcDbLine
 10
122.7159363401
 20
133.9347357899
 30
0.0
 11
122.7159363401
 21
134.5347357899
 31
0.0
  0
LINE
  5
BF
330
B7
100
AcDbEntity
  8
SLD-0
  6
Continuous
 62
   179
100
AcDbLine
 10
117.7159363401
 20
128.9347357899
 30
0.0
 11
117.1159363401
 21
128.9347357899
 31
0.0
  0
LINE
  5
C0
330
B7
100
AcDbEntity
  8
SLD-0
  6
Continuous
 62
   179
100
AcDbLine
 10
122.7159363401
 20
123.9347357899
 30
0.0
 11
122.7159363401
 21
123.3347357899
 31
0.0
  0
LINE
  5
C1
330
B7
100
AcDbEntity
  8
SLD-0
  6
Continuous
 62
   179
100
AcDbLine
 10
127.7159363401
 20
128.9347357899
 30
0.0
 11
128.3159363401
 21
128.9347357899
 31
0.0
  0
ENDBLK
  5
B9
330
B7
100
AcDbEntity
  8
0
100
AcDbBlockEnd
  0
BLOCK
  5
F2
330
E8
100
AcDbEntity
  8
0
100
AcDbBlockBegin
  2
*D15
 70
     1
 71
     0
 10
0.0
 20
0.0
 30
0.0
  3
*D15
  1

  0
LINE
  5
F8
330
E8
100
AcDbEntity
  8
SLD-0
 62
     7
100
AcDbLine
 10
97.7159363401
 20
127.9347357899
 30
0.0
 11
97.7159363401
 21
101.8307055055
 31
0.0
  0
LINE
  5
F9
330
E8
100
AcDbEntity
  8
SLD-0
 62
     7
100
AcDbLine
 10
82.7159363401
 20
127.9347357899
 30
0.0
 11
82.7159363401
 21
101.8307055055
 31
0.0
  0
LINE
  5
FA
330
E8
100
AcDbEntity
  8
SLD-0
 62
     7
100
AcDbLine
 10
97.7159363401
 20
102.8307055055
 30
0.0
 11
82.7159363401
 21
102.8307055055
 31
0.0
  0
LINE
  5
FB
330
E8
100
AcDbEntity
  8
SLD-0
 62
     7
100
AcDbLine
 10
94.7159363401
 20
103.6345525055
 30
0.0
 11
97.7159363401
 21
102.8307055055
 31
0.0
  0
LINE
  5
FC
330
E8
100
AcDbEntity
  8
SLD-0
 62
     7
100
AcDbLine
 10
97.7159363401
 20
102.8307055055
 30
0.0
 11
94.7159363401
 21
102.0268585055
 31
0.0
  0
LINE
  5
FD
330
E8
100
AcDbEntity
  8
SLD-0
 62
     7
100
AcDbLine
 10
97.7159363401
 20
102.8307055055
 30
0.0
 11
94.7159363401
 21
102.8307055055
 31
0.0
  0
LINE
  5
FE
330
E8
100
AcDbEntity
  8
SLD-0
 62
     7
100
AcDbLine
 10
85.7159363401
 20
102.0268585055
 30
0.0
 11
82.7159363401
 21
102.8307055055
 31
0.0
  0
LINE
  5
FF
330
E8
100
AcDbEntity
  8
SLD-0
 62
     7
100
AcDbLine
 10
82.7159363401
 20
102.8307055055
 30
0.0
 11
85.7159363401
 21
103.6345525055
 31
0.0
  0
LINE
  5
100
330
E8
100
AcDbEntity
  8
SLD-0
 62
     7
100
AcDbLine
 10
82.7159363401
 20
102.8307055055
 30
0.0
 11
85.7159363401
 21
102.8307055055
 31
0.0
  0
MTEXT
  5
101
330
E8
100
AcDbEntity
  8
SLD-0
 62
     7
100
AcDbMText
 10
88.1803294267
 20
107.3573992014
 30
0.1
 40
3.5
 41
0.0
 71
     1
 72
     1
  1
15
  7
SLDTEXTSTYLE0
 73
     1
 44
1.0
  0
ENDBLK
  5
F3
330
E8
100
AcDbEntity
  8
0
100
AcDbBlockEnd
  0
BLOCK
  5
F6
330
F5
100
AcDbEntity
  8
0
100
AcDbBlockBegin
  2
_None
 70
     0
 71
     0
 10
0.0
 20
0.0
 30
0.0
  3
_None
  1

  0
ENDBLK
  5
F7
330
F5
100
AcDbEntity
  8
0
100
AcDbBlockEnd
  0
BLOCK
  5
10E
330
103
100
AcDbEntity
  8
0
100
AcDbBlockBegin
  2
*D17
 70
     1
 71
     0
 10
0.0
 20
0.0
 30
0.0
  3
*D17
  1

  0
LINE
  5
110
330
103
100
AcDbEntity
  8
SLD-0
 62
     7
100
AcDbLine
 10
130.7159363401
 20
201.4347357899
 30
0.0
 11
177.477120402
 21
201.4347357899
 31
0.0
  0
LINE
  5
111
330
103
100
AcDbEntity
  8
SLD-0
 62
     7
100
AcDbLine
 10
145.7159363401
 20
116.4347357899
 30
0.0
 11
177.477120402
 21
116.4347357899
 31
0.0
  0
LINE
  5
112
330
103
100
AcDbEntity
  8
SLD-0
 62
     7
100
AcDbLine
 10
176.477120402
 20
201.4347357899
 30
0.0
 11
176.477120402
 21
116.4347357899
 31
0.0
  0
LINE
  5
113
330
103
100
AcDbEntity
  8
SLD-0
 62
     7
100
AcDbLine
 10
175.673273402
 20
198.4347357899
 30
0.0
 11
176.477120402
 21
201.4347357899
 31
0.0
  0
LINE
  5
114
330
103
100
AcDbEntity
  8
SLD-0
 62
     7
100
AcDbLine
 10
176.477120402
 20
201.4347357899
 30
0.0
 11
177.280967402
 21
198.4347357899
 31
0.0
  0
LINE
  5
115
330
103
100
AcDbEntity
  8
SLD-0
 62
     7
100
AcDbLine
 10
176.477120402
 20
201.4347357899
 30
0.0
 11
176.477120402
 21
198.4347357899
 31
0.0
  0
LINE
  5
116
330
103
100
AcDbEntity
  8
SLD-0
 62
     7
100
AcDbLine
 10
177.280967402
 20
119.4347357899
 30
0.0
 11
176.477120402
 21
116.4347357899
 31
0.0
  0
LINE
  5
117
330
103
100
AcDbEntity
  8
SLD-0
 62
     7
100
AcDbLine
 10
176.477120402
 20
116.4347357899
 30
0.0
 11
175.673273402
 21
119.4347357899
 31
0.0
  0
LINE
  5
118
330
103
100
AcDbEntity
  8
SLD-0
 62
     7
100
AcDbLine
 10
176.477120402
 20
116.4347357899
 30
0.0
 11
176.477120402
 21
119.4347357899
 31
0.0
  0
MTEXT
  5
119
330
103
100
AcDbEntity
  8
SLD-0
 62
     7
100
AcDbMText
 10
171.950426706
 20
156.8991288764
 30
0.1
 40
3.5
 41
0.0
 71
     1
 72
     1
  1
85
  7
SLDTEXTSTYLE0
 11
6.123031769111886E-17
 21
1.0
 31
0.0
 73
     1
 44
1.0
  0
ENDBLK
  5
10F
330
103
100
AcDbEntity
  8
0
100
AcDbBlockEnd
  0
BLOCK
  5
122
330
11B
100
AcDbEntity
  8
0
100
AcDbBlockBegin
  2
*D18
 70
     1
 71
     0
 10
0.0
 20
0.0
 30
0.0
  3
*D18
  1

  0
LINE
  5
125
330
11B
100
AcDbEntity
  8
SLD-0
 62
     7
100
AcDbLine
 10
86.1406243141
 20
198.987033263
 30
0.0
 11
51.2312422719
 21
222.2758970585
 31
0.0
  0
LINE
  5
126
330
11B
100
AcDbEntity
  8
SLD-0
 62
     7
100
AcDbLine
 10
84.0911050575
 20
201.3206229477
 30
0.0
 11
86.1406243141
 21
198.987033263
 31
0.0
  0
LINE
  5
127
330
11B
100
AcDbEntity
  8
SLD-0
 62
     7
100
AcDbLine
 10
86.1406243141
 20
198.987033263
 30
0.0
 11
83.1988940877
 21
199.9832226399
 31
0.0
  0
LINE
  5
128
330
11B
100
AcDbEntity
  8
SLD-0
 62
     7
100
AcDbLine
 10
86.1406243141
 20
198.987033263
 30
0.0
 11
83.6449995726
 21
200.6519227938
 31
0.0
  0
MTEXT
  5
129
330
11B
100
AcDbEntity
  8
SLD-0
 62
     7
100
AcDbMText
 10
55.0625188696
 20
225.1583277423
 30
0.1
 40
3.5
 41
0.0
 71
     1
 72
     1
  1
6-R
  7
SLDTEXTSTYLE0
 11
0.831874913831321
 21
-0.5549631769208948
 31
0.0
 73
     1
 44
1.0
  0
MTEXT
  5
12A
330
11B
100
AcDbEntity
  8
SLD-0
 62
     7
100
AcDbMText
 10
60.1438437322
 20
221.7684572919
 30
0.1
 40
3.5
 41
0.0
 71
     1
 72
     1
  1
5.5
  7
SLDTEXTSTYLE0
 11
0.831874913831321
 21
-0.5549631769208948
 31
0.0
 73
     1
 44
1.0
  0
ENDBLK
  5
123
330
11B
100
AcDbEntity
  8
0
100
AcDbBlockEnd
  0
BLOCK
  5
136
330
12C
100
AcDbEntity
  8
0
100
AcDbBlockBegin
  2
*D19
 70
     1
 71
     0
 10
0.0
 20
0.0
 30
0.0
  3
*D19
  1

  0
LINE
  5
139
330
12C
100
AcDbEntity
  8
SLD-0
 62
     7
100
AcDbLine
 10
82.7159363401
 20
122.3347357899
 30
0.0
 11
82.7159363401
 21
101.8307055055
 31
0.0
  0
LINE
  5
13A
330
12C
100
AcDbEntity
  8
SLD-0
 62
     7
100
AcDbLine
 10
70.2159363401
 20
120.9347357899
 30
0.0
 11
70.2159363401
 21
101.8307055055
 31
0.0
  0
LINE
  5
13B
330
12C
100
AcDbEntity
  8
SLD-0
 62
     7
100
AcDbLine
 10
82.7159363401
 20
102.8307055055
 30
0.0
 11
87.7159363401
 21
102.8307055055
 31
0.0
  0
LINE
  5
13C
330
12C
100
AcDbEntity
  8
SLD-0
 62
     7
100
AcDbLine
 10
82.7159363401
 20
102.8307055055
 30
0.0
 11
70.2159363401
 21
102.8307055055
 31
0.0
  0
LINE
  5
13D
330
12C
100
AcDbEntity
  8
SLD-0
 62
     7
100
AcDbLine
 10
70.2159363401
 20
102.8307055055
 30
0.0
 11
65.2159363401
 21
102.8307055055
 31
0.0
  0
LINE
  5
13E
330
12C
100
AcDbEntity
  8
SLD-0
 62
     7
100
AcDbLine
 10
85.7159363401
 20
102.0268585055
 30
0.0
 11
82.7159363401
 21
102.8307055055
 31
0.0
  0
LINE
  5
13F
330
12C
100
AcDbEntity
  8
SLD-0
 62
     7
100
AcDbLine
 10
82.7159363401
 20
102.8307055055
 30
0.0
 11
85.7159363401
 21
103.6345525055
 31
0.0
  0
LINE
  5
140
330
12C
100
AcDbEntity
  8
SLD-0
 62
     7
100
AcDbLine
 10
82.7159363401
 20
102.8307055055
 30
0.0
 11
85.7159363401
 21
102.8307055055
 31
0.0
  0
LINE
  5
141
330
12C
100
AcDbEntity
  8
SLD-0
 62
     7
100
AcDbLine
 10
67.2159363401
 20
103.6345525055
 30
0.0
 11
70.2159363401
 21
102.8307055055
 31
0.0
  0
LINE
  5
142
330
12C
100
AcDbEntity
  8
SLD-0
 62
     7
100
AcDbLine
 10
70.2159363401
 20
102.8307055055
 30
0.0
 11
67.2159363401
 21
102.0268585055
 31
0.0
  0
LINE
  5
143
330
12C
100
AcDbEntity
  8
SLD-0
 62
     7
100
AcDbLine
 10
70.2159363401
 20
102.8307055055
 30
0.0
 11
67.2159363401
 21
102.8307055055
 31
0.0
  0
MTEXT
  5
144
330
12C
100
AcDbEntity
  8
SLD-0
 62
     7
100
AcDbMText
 10
72.3932632968
 20
107.3573992014
 30
0.1
 40
3.5
 41
0.0
 71
     1
 72
     1
  1
12.5
  7
SLDTEXTSTYLE0
 73
     1
 44
1.0
  0
ENDBLK
  5
137
330
12C
100
AcDbEntity
  8
0
100
AcDbBlockEnd
  0
BLOCK
  5
151
330
146
100
AcDbEntity
  8
0
100
AcDbBlockBegin
  2
*D20
 70
     1
 71
     0
 10
0.0
 20
0.0
 30
0.0
  3
*D20
  1

  0
LINE
  5
153
330
146
100
AcDbEntity
  8
SLD-0
 62
     7
100
AcDbLine
 10
76.1159363401
 20
153.9347357899
 30
0.0
 11
43.9582437136
 21
153.9347357899
 31
0.0
  0
LINE
  5
154
330
146
100
AcDbEntity
  8
SLD-0
 62
     7
100
AcDbLine
 10
76.1159363401
 20
128.9347357899
 30
0.0
 11
43.9582437136
 21
128.9347357899
 31
0.0
  0
LINE
  5
155
330
146
100
AcDbEntity
  8
SLD-0
 62
     7
100
AcDbLine
 10
44.9582437136
 20
153.9347357899
 30
0.0
 11
44.9582437136
 21
128.9347357899
 31
0.0
  0
LINE
  5
156
330
146
100
AcDbEntity
  8
SLD-0
 62
     7
100
AcDbLine
 10
44.1543967136
 20
150.9347357899
 30
0.0
 11
44.9582437136
 21
153.9347357899
 31
0.0
  0
LINE
  5
157
330
146
100
AcDbEntity
  8
SLD-0
 62
     7
100
AcDbLine
 10
44.9582437136
 20
153.9347357899
 30
0.0
 11
45.7620907136
 21
150.9347357899
 31
0.0
  0
LINE
  5
158
330
146
100
AcDbEntity
  8
SLD-0
 62
     7
100
AcDbLine
 10
44.9582437136
 20
153.9347357899
 30
0.0
 11
44.9582437136
 21
150.9347357899
 31
0.0
  0
LINE
  5
159
330
146
100
AcDbEntity
  8
SLD-0
 62
     7
100
AcDbLine
 10
45.7620907136
 20
131.9347357899
 30
0.0
 11
44.9582437136
 21
128.9347357899
 31
0.0
  0
LINE
  5
15A
330
146
100
AcDbEntity
  8
SLD-0
 62
     7
100
AcDbLine
 10
44.9582437136
 20
128.9347357899
 30
0.0
 11
44.1543967136
 21
131.9347357899
 31
0.0
  0
LINE
  5
15B
330
146
100
AcDbEntity
  8
SLD-0
 62
     7
100
AcDbLine
 10
44.9582437136
 20
128.9347357899
 30
0.0
 11
44.9582437136
 21
131.9347357899
 31
0.0
  0
MTEXT
  5
15C
330
146
100
AcDbEntity
  8
SLD-0
 62
     7
100
AcDbMText
 10
40.4315500176
 20
139.3991288764
 30
0.1
 40
3.5
 41
0.0
 71
     1
 72
     1
  1
25
  7
SLDTEXTSTYLE0
 11
6.123031769111886E-17
 21
1.0
 31
0.0
 73
     1
 44
1.0
  0
ENDBLK
  5
152
330
146
100
AcDbEntity
  8
0
100
AcDbBlockEnd
  0
BLOCK
  5
169
330
15E
100
AcDbEntity
  8
0
100
AcDbBlockBegin
  2
*D21
 70
     1
 71
     0
 10
0.0
 20
0.0
 30
0.0
  3
*D21
  1

  0
LINE
  5
16B
330
15E
100
AcDbEntity
  8
SLD-0
 62
     7
100
AcDbLine
 10
76.1159363401
 20
128.9347357899
 30
0.0
 11
43.9582437136
 21
128.9347357899
 31
0.0
  0
LINE
  5
16C
330
15E
100
AcDbEntity
  8
SLD-0
 62
     7
100
AcDbLine
 10
74.7159363401
 20
116.4347357899
 30
0.0
 11
43.9582437136
 21
116.4347357899
 31
0.0
  0
LINE
  5
16D
330
15E
100
AcDbEntity
  8
SLD-0
 62
     7
100
AcDbLine
 10
44.9582437136
 20
128.9347357899
 30
0.0
 11
44.9582437136
 21
133.9347357899
 31
0.0
  0
LINE
  5
16E
330
15E
100
AcDbEntity
  8
SLD-0
 62
     7
100
AcDbLine
 10
44.9582437136
 20
128.9347357899
 30
0.0
 11
44.9582437136
 21
116.4347357899
 31
0.0
  0
LINE
  5
16F
330
15E
100
AcDbEntity
  8
SLD-0
 62
     7
100
AcDbLine
 10
44.9582437136
 20
116.4347357899
 30
0.0
 11
44.9582437136
 21
111.4347357899
 31
0.0
  0
LINE
  5
170
330
15E
100
AcDbEntity
  8
SLD-0
 62
     7
100
AcDbLine
 10
45.7620907136
 20
131.9347357899
 30
0.0
 11
44.9582437136
 21
128.9347357899
 31
0.0
  0
LINE
  5
171
330
15E
100
AcDbEntity
  8
SLD-0
 62
     7
100
AcDbLine
 10
44.9582437136
 20
128.9347357899
 30
0.0
 11
44.1543967136
 21
131.9347357899
 31
0.0
  0
LINE
  5
172
330
15E
100
AcDbEntity
  8
SLD-0
 62
     7
100
AcDbLine
 10
44.9582437136
 20
128.9347357899
 30
0.0
 11
44.9582437136
 21
131.9347357899
 31
0.0
  0
LINE
  5
173
330
15E
100
AcDbEntity
  8
SLD-0
 62
     7
100
AcDbLine
 10
44.1543967136
 20
113.4347357899
 30
0.0
 11
44.9582437136
 21
116.4347357899
 31
0.0
  0
LINE
  5
174
330
15E
100
AcDbEntity
  8
SLD-0
 62
     7
100
AcDbLine
 10
44.9582437136
 20
116.4347357899
 30
0.0
 11
45.7620907136
 21
113.4347357899
 31
0.0
  0
LINE
  5
175
330
15E
100
AcDbEntity
  8
SLD-0
 62
     7
100
AcDbLine
 10
44.9582437136
 20
116.4347357899
 30
0.0
 11
44.9582437136
 21
113.4347357899
 31
0.0
  0
MTEXT
  5
176
330
15E
100
AcDbEntity
  8
SLD-0
 62
     7
100
AcDbMText
 10
40.4315500176
 20
118.6120627465
 30
0.1
 40
3.5
 41
0.0
 71
     1
 72
     1
  1
12.5
  7
SLDTEXTSTYLE0
 11
6.123031769111886E-17
 21
1.0
 31
0.0
 73
     1
 44
1.0
  0
ENDBLK
  5
16A
330
15E
100
AcDbEntity
  8
0
100
AcDbBlockEnd
  0
BLOCK
  5
183
330
178
100
AcDbEntity
  8
0
100
AcDbBlockBegin
  2
*D22
 70
     1
 71
     0
 10
0.0
 20
0.0
 30
0.0
  3
*D22
  1

  0
LINE
  5
185
330
178
100
AcDbEntity
  8
SLD-0
 62
     7
100
AcDbLine
 10
91.1159363401
 20
191.4347357899
 30
0.0
 11
43.9582437136
 21
191.4347357899
 31
0.0
  0
LINE
  5
186
330
178
100
AcDbEntity
  8
SLD-0
 62
     7
100
AcDbLine
 10
91.1159363401
 20
176.4347357899
 30
0.0
 11
43.9582437136
 21
176.4347357899
 31
0.0
  0
LINE
  5
187
330
178
100
AcDbEntity
  8
SLD-0
 62
     7
100
AcDbLine
 10
44.9582437136
 20
191.4347357899
 30
0.0
 11
44.9582437136
 21
176.4347357899
 31
0.0
  0
LINE
  5
188
330
178
100
AcDbEntity
  8
SLD-0
 62
     7
100
AcDbLine
 10
44.1543967136
 20
188.4347357899
 30
0.0
 11
44.9582437136
 21
191.4347357899
 31
0.0
  0
LINE
  5
189
330
178
100
AcDbEntity
  8
SLD-0
 62
     7
100
AcDbLine
 10
44.9582437136
 20
191.4347357899
 30
0.0
 11
45.7620907136
 21
188.4347357899
 31
0.0
  0
LINE
  5
18A
330
178
100
AcDbEntity
  8
SLD-0
 62
     7
100
AcDbLine
 10
44.9582437136
 20
191.4347357899
 30
0.0
 11
44.9582437136
 21
188.4347357899
 31
0.0
  0
LINE
  5
18B
330
178
100
AcDbEntity
  8
SLD-0
 62
     7
100
AcDbLine
 10
45.7620907136
 20
179.4347357899
 30
0.0
 11
44.9582437136
 21
176.4347357899
 31
0.0
  0
LINE
  5
18C
330
178
100
AcDbEntity
  8
SLD-0
 62
     7
100
AcDbLine
 10
44.9582437136
 20
176.4347357899
 30
0.0
 11
44.1543967136
 21
179.4347357899
 31
0.0
  0
LINE
  5
18D
330
178
100
AcDbEntity
  8
SLD-0
 62
     7
100
AcDbLine
 10
44.9582437136
 20
176.4347357899
 30
0.0
 11
44.9582437136
 21
179.4347357899
 31
0.0
  0
MTEXT
  5
18E
330
178
100
AcDbEntity
  8
SLD-0
 62
     7
100
AcDbMText
 10
40.4315500176
 20
181.8991288764
 30
0.1
 40
3.5
 41
0.0
 71
     1
 72
     1
  1
15
  7
SLDTEXTSTYLE0
 11
6.123031769111886E-17
 21
1.0
 31
0.0
 73
     1
 44
1.0
  0
ENDBLK
  5
184
330
178
100
AcDbEntity
  8
0
100
AcDbBlockEnd
  0
BLOCK
  5
19B
330
190
100
AcDbEntity
  8
0
100
AcDbBlockBegin
  2
*D23
 70
     1
 71
     0
 10
0.0
 20
0.0
 30
0.0
  3
*D23
  1

  0
LINE
  5
19D
330
190
100
AcDbEntity
  8
SLD-0
 62
     7
100
AcDbLine
 10
91.1159363401
 20
153.9347357899
 30
0.0
 11
43.9582437136
 21
153.9347357899
 31
0.0
  0
LINE
  5
19E
330
190
100
AcDbEntity
  8
SLD-0
 62
     7
100
AcDbLine
 10
91.1159363401
 20
176.4347357899
 30
0.0
 11
43.9582437136
 21
176.4347357899
 31
0.0
  0
LINE
  5
19F
330
190
100
AcDbEntity
  8
SLD-0
 62
     7
100
AcDbLine
 10
44.9582437136
 20
153.9347357899
 30
0.0
 11
44.9582437136
 21
176.4347357899
 31
0.0
  0
LINE
  5
1A0
330
190
100
AcDbEntity
  8
SLD-0
 62
     7
100
AcDbLine
 10
45.7620907136
 20
156.9347357899
 30
0.0
 11
44.9582437136
 21
153.9347357899
 31
0.0
  0
LINE
  5
1A1
330
190
100
AcDbEntity
  8
SLD-0
 62
     7
100
AcDbLine
 10
44.9582437136
 20
153.9347357899
 30
0.0
 11
44.1543967136
 21
156.9347357899
 31
0.0
  0
LINE
  5
1A2
330
190
100
AcDbEntity
  8
SLD-0
 62
     7
100
AcDbLine
 10
44.9582437136
 20
153.9347357899
 30
0.0
 11
44.9582437136
 21
156.9347357899
 31
0.0
  0
LINE
  5
1A3
330
190
100
AcDbEntity
  8
SLD-0
 62
     7
100
AcDbLine
 10
44.1543967136
 20
173.4347357899
 30
0.0
 11
44.9582437136
 21
176.4347357899
 31
0.0
  0
LINE
  5
1A4
330
190
100
AcDbEntity
  8
SLD-0
 62
     7
100
AcDbLine
 10
44.9582437136
 20
176.4347357899
 30
0.0
 11
45.7620907136
 21
173.4347357899
 31
0.0
  0
LINE
  5
1A5
330
190
100
AcDbEntity
  8
SLD-0
 62
     7
100
AcDbLine
 10
44.9582437136
 20
176.4347357899
 30
0.0
 11
44.9582437136
 21
173.4347357899
 31
0.0
  0
MTEXT
  5
1A6
330
190
100
AcDbEntity
  8
SLD-0
 62
     7
100
AcDbMText
 10
40.4315500176
 20
161.1120627465
 30
0.1
 40
3.5
 41
0.0
 71
     1
 72
     1
  1
22.5
  7
SLDTEXTSTYLE0
 11
6.123031769111886E-17
 21
1.0
 31
0.0
 73
     1
 44
1.0
  0
ENDBLK
  5
19C
330
190
100
AcDbEntity
  8
0
100
AcDbBlockEnd
  0
BLOCK
  5
1B3
330
1A8
100
AcDbEntity
  8
0
100
AcDbBlockBegin
  2
*D24
 70
     1
 71
     0
 10
0.0
 20
0.0
 30
0.0
  3
*D24
  1

  0
ARC
  5
1B5
330
1A8
100
AcDbEntity
  8
SLD-0
 62
     7
100
AcDbCircle
 10
42.9226368001
 20
210.4390784674
 30
0.0
 40
4.551755433899999
100
AcDbArc
 50
243.4349488229
 51
296.5650511771
  0
ARC
  5
1B6
330
1A8
100
AcDbEntity
  8
SLD-0
 62
     7
100
AcDbCircle
 10
42.9226368001
 20
209.5428646405
 30
0.0
 40
4.551755433899999
100
AcDbArc
 50
63.4349488229
 51
116.5650511771
  0
LINE
  5
1B7
330
1A8
100
AcDbEntity
  8
SLD-0
 62
     7
100
AcDbLine
 10
91.1159363401
 20
191.4347357899
 30
0.0
 11
43.9582437136
 21
191.4347357899
 31
0.0
  0
LINE
  5
1B8
330
1A8
100
AcDbEntity
  8
SLD-0
 62
     7
100
AcDbLine
 10
89.7159363401
 20
201.4347357899
 30
0.0
 11
43.9582437136
 21
201.4347357899
 31
0.0
  0
LINE
  5
1B9
330
1A8
100
AcDbEntity
  8
SLD-0
 62
     7
100
AcDbLine
 10
44.9582437136
 20
191.4347357899
 30
0.0
 11
44.9582437136
 21
186.4347357899
 31
0.0
  0
LINE
  5
1BA
330
1A8
100
AcDbEntity
  8
SLD-0
 62
     7
100
AcDbLine
 10
44.9582437136
 20
191.4347357899
 30
0.0
 11
44.9582437136
 21
201.4347357899
 31
0.0
  0
LINE
  5
1BB
330
1A8
100
AcDbEntity
  8
SLD-0
 62
     7
100
AcDbLine
 10
44.9582437136
 20
201.4347357899
 30
0.0
 11
44.9582437136
 21
215.2015784674
 31
0.0
  0
LINE
  5
1BC
330
1A8
100
AcDbEntity
  8
SLD-0
 62
     7
100
AcDbLine
 10
44.1543967136
 20
188.4347357899
 30
0.0
 11
44.9582437136
 21
191.4347357899
 31
0.0
  0
LINE
  5
1BD
330
1A8
100
AcDbEntity
  8
SLD-0
 62
     7
100
AcDbLine
 10
44.9582437136
 20
191.4347357899
 30
0.0
 11
45.7620907136
 21
188.4347357899
 31
0.0
  0
LINE
  5
1BE
330
1A8
100
AcDbEntity
  8
SLD-0
 62
     7
100
AcDbLine
 10
44.9582437136
 20
191.4347357899
 30
0.0
 11
44.9582437136
 21
188.4347357899
 31
0.0
  0
LINE
  5
1BF
330
1A8
100
AcDbEntity
  8
SLD-0
 62
     7
100
AcDbLine
 10
45.7620907136
 20
204.4347357899
 30
0.0
 11
44.9582437136
 21
201.4347357899
 31
0.0
  0
LINE
  5
1C0
330
1A8
100
AcDbEntity
  8
SLD-0
 62
     7
100
AcDbLine
 10
44.9582437136
 20
201.4347357899
 30
0.0
 11
44.1543967136
 21
204.4347357899
 31
0.0
  0
LINE
  5
1C1
330
1A8
100
AcDbEntity
  8
SLD-0
 62
     7
100
AcDbLine
 10
44.9582437136
 20
201.4347357899
 30
0.0
 11
44.9582437136
 21
204.4347357899
 31
0.0
  0
MTEXT
  5
1C2
330
1A8
100
AcDbEntity
  8
SLD-0
 62
     7
100
AcDbMText
 10
40.4315500176
 20
207.9553646405
 30
0.1
 40
3.5
 41
0.0
 71
     1
 72
     1
  1
10
  7
SLDTEXTSTYLE0
 11
6.123031769111886E-17
 21
1.0
 31
0.0
 73
     1
 44
1.0
  0
ENDBLK
  5
1B4
330
1A8
100
AcDbEntity
  8
0
100
AcDbBlockEnd
  0
BLOCK
  5
1CE
330
1C4
100
AcDbEntity
  8
0
100
AcDbBlockBegin
  2
*D25
 70
     1
 71
     0
 10
0.0
 20
0.0
 30
0.0
  3
*D25
  1

  0
LINE
  5
1D0
330
1C4
100
AcDbEntity
  8
SLD-0
 62
     7
100
AcDbLine
 10
97.7159363401
 20
122.3347357899
 30
0.0
 11
97.7159363401
 21
101.8307055055
 31
0.0
  0
LINE
  5
1D1
330
1C4
100
AcDbEntity
  8
SLD-0
 62
     7
100
AcDbLine
 10
122.7159363401
 20
122.3347357899
 30
0.0
 11
122.7159363401
 21
101.8307055055
 31
0.0
  0
LINE
  5
1D2
330
1C4
100
AcDbEntity
  8
SLD-0
 62
     7
100
AcDbLine
 10
97.7159363401
 20
102.8307055055
 30
0.0
 11
122.7159363401
 21
102.8307055055
 31
0.0
  0
LINE
  5
1D3
330
1C4
100
AcDbEntity
  8
SLD-0
 62
     7
100
AcDbLine
 10
100.7159363401
 20
102.0268585055
 30
0.0
 11
97.7159363401
 21
102.8307055055
 31
0.0
  0
LINE
  5
1D4
330
1C4
100
AcDbEntity
  8
SLD-0
 62
     7
100
AcDbLine
 10
97.7159363401
 20
102.8307055055
 30
0.0
 11
100.7159363401
 21
103.6345525055
 31
0.0
  0
LINE
  5
1D5
330
1C4
100
AcDbEntity
  8
SLD-0
 62
     7
100
AcDbLine
 10
97.7159363401
 20
102.8307055055
 30
0.0
 11
100.7159363401
 21
102.8307055055
 31
0.0
  0
LINE
  5
1D6
330
1C4
100
AcDbEntity
  8
SLD-0
 62
     7
100
AcDbLine
 10
119.7159363401
 20
103.6345525055
 30
0.0
 11
122.7159363401
 21
102.8307055055
 31
0.0
  0
LINE
  5
1D7
330
1C4
100
AcDbEntity
  8
SLD-0
 62
     7
100
AcDbLine
 10
122.7159363401
 20
102.8307055055
 30
0.0
 11
119.7159363401
 21
102.0268585055
 31
0.0
  0
LINE
  5
1D8
330
1C4
100
AcDbEntity
  8
SLD-0
 62
     7
100
AcDbLine
 10
122.7159363401
 20
102.8307055055
 30
0.0
 11
119.7159363401
 21
102.8307055055
 31
0.0
  0
MTEXT
  5
1D9
330
1C4
100
AcDbEntity
  8
SLD-0
 62
     7
100
AcDbMText
 10
108.1803294267
 20
107.3573992014
 30
0.1
 40
3.5
 41
0.0
 71
     1
 72
     1
  1
25
  7
SLDTEXTSTYLE0
 73
     1
 44
1.0
  0
ENDBLK
  5
1CF
330
1C4
100
AcDbEntity
  8
0
100
AcDbBlockEnd
  0
BLOCK
  5
1E2
330
1DB
100
AcDbEntity
  8
0
100
AcDbBlockBegin
  2
*D26
 70
     1
 71
     0
 10
0.0
 20
0.0
 30
0.0
  3
*D26
  1

  0
LINE
  5
1E5
330
1DB
100
AcDbEntity
  8
SLD-0
 62
     7
100
AcDbLine
 10
124.0038391609
 20
194.2545418691
 30
0.0
 11
145.0355153942
 21
240.3024637636
 31
0.0
  0
LINE
  5
1E6
330
1DB
100
AcDbEntity
  8
SLD-0
 62
     7
100
AcDbLine
 10
145.0355153942
 20
240.3024637636
 30
0.0
 11
165.8844172679
 21
240.3024637636
 31
0.0
  0
LINE
  5
1E7
330
1DB
100
AcDbEntity
  8
SLD-0
 62
     7
100
AcDbLine
 10
125.9813879092
 20
196.6494261978
 30
0.0
 11
124.0038391609
 21
194.2545418691
 31
0.0
  0
LINE
  5
1E8
330
1DB
100
AcDbEntity
  8
SLD-0
 62
     7
100
AcDbLine
 10
124.0038391609
 20
194.2545418691
 30
0.0
 11
124.5190055496
 21
197.317346726
 31
0.0
  0
LINE
  5
1E9
330
1DB
100
AcDbEntity
  8
SLD-0
 62
     7
100
AcDbLine
 10
124.0038391609
 20
194.2545418691
 30
0.0
 11
125.2501967294
 21
196.9833864619
 31
0.0
  0
MTEXT
  5
1EA
330
1DB
100
AcDbEntity
  8
SLD-0
 62
     7
100
AcDbMText
 10
148.2105153942
 20
244.8291574596
 30
0.1
 40
3.5
 41
0.0
 71
     1
 72
     1
  1
12-
  7
SLDTEXTSTYLE0
 73
     1
 44
1.0
  0
MTEXT
  5
1EB
330
1DB
100
AcDbEntity
  8
SLD-0
 62
     7
100
AcDbMText
 10
152.5709321194
 20
244.8291572268
 30
0.1
 40
3.5
 41
0.0
 71
     1
 72
     1
  1
%%c
  7
SLDTEXTSTYLE0
 73
     1
 44
1.0
  0
MTEXT
  5
1EC
330
1DB
100
AcDbEntity
  8
SLD-0
 62
     7
100
AcDbMText
 10
158.1886373111
 20
244.8291574596
 30
0.1
 40
3.5
 41
0.0
 71
     1
 72
     1
  1
6.2
  7
SLDTEXTSTYLE0
 73
     1
 44
1.0
  0
ENDBLK
  5
1E3
330
1DB
100
AcDbEntity
  8
0
100
AcDbBlockEnd
  0
BLOCK
  5
1F9
330
1EE
100
AcDbEntity
  8
0
100
AcDbBlockBegin
  2
*D27
 70
     1
 71
     0
 10
0.0
 20
0.0
 30
0.0
  3
*D27
  1

  0
LINE
  5
1FB
330
1EE
100
AcDbEntity
  8
SLD-0
 62
     7
100
AcDbLine
 10
145.7159363401
 20
166.4347357899
 30
0.0
 11
164.9588490364
 21
166.4347357899
 31
0.0
  0
LINE
  5
1FC
330
1EE
100
AcDbEntity
  8
SLD-0
 62
     7
100
AcDbLine
 10
145.7159363401
 20
116.4347357899
 30
0.0
 11
164.9588490364
 21
116.4347357899
 31
0.0
  0
LINE
  5
1FD
330
1EE
100
AcDbEntity
  8
SLD-0
 62
     7
100
AcDbLine
 10
163.9588490364
 20
166.4347357899
 30
0.0
 11
163.9588490364
 21
116.4347357899
 31
0.0
  0
LINE
  5
1FE
330
1EE
100
AcDbEntity
  8
SLD-0
 62
     7
100
AcDbLine
 10
163.1550020364
 20
163.4347357899
 30
0.0
 11
163.9588490364
 21
166.4347357899
 31
0.0
  0
LINE
  5
1FF
330
1EE
100
AcDbEntity
  8
SLD-0
 62
     7
100
AcDbLine
 10
163.9588490364
 20
166.4347357899
 30
0.0
 11
164.7626960364
 21
163.4347357899
 31
0.0
  0
LINE
  5
200
330
1EE
100
AcDbEntity
  8
SLD-0
 62
     7
100
AcDbLine
 10
163.9588490364
 20
166.4347357899
 30
0.0
 11
163.9588490364
 21
163.4347357899
 31
0.0
  0
LINE
  5
201
330
1EE
100
AcDbEntity
  8
SLD-0
 62
     7
100
AcDbLine
 10
164.7626960364
 20
119.4347357899
 30
0.0
 11
163.9588490364
 21
116.4347357899
 31
0.0
  0
LINE
  5
202
330
1EE
100
AcDbEntity
  8
SLD-0
 62
     7
100
AcDbLine
 10
163.9588490364
 20
116.4347357899
 30
0.0
 11
163.1550020364
 21
119.4347357899
 31
0.0
  0
LINE
  5
203
330
1EE
100
AcDbEntity
  8
SLD-0
 62
     7
100
AcDbLine
 10
163.9588490364
 20
116.4347357899
 30
0.0
 11
163.9588490364
 21
119.4347357899
 31
0.0
  0
MTEXT
  5
204
330
1EE
100
AcDbEntity
  8
SLD-0
 62
     7
100
AcDbMText
 10
159.4321553405
 20
139.3991288764
 30
0.1
 40
3.5
 41
0.0
 71
     1
 72
     1
  1
50
  7
SLDTEXTSTYLE0
 11
6.123031769111886E-17
 21
1.0
 31
0.0
 73
     1
 44
1.0
  0
ENDBLK
  5
1FA
330
1EE
100
AcDbEntity
  8
0
100
AcDbBlockEnd
  0
BLOCK
  5
210
330
206
100
AcDbEntity
  8
0
100
AcDbBlockBegin
  2
*D28
 70
     1
 71
     0
 10
0.0
 20
0.0
 30
0.0
  3
*D28
  1

  0
LINE
  5
212
330
206
100
AcDbEntity
  8
SLD-0
 62
     7
100
AcDbLine
 10
122.7159363401
 20
122.3347357899
 30
0.0
 11
122.7159363401
 21
101.8307055055
 31
0.0
  0
LINE
  5
213
330
206
100
AcDbEntity
  8
SLD-0
 62
     7
100
AcDbLine
 10
137.7159363401
 20
122.3347357899
 30
0.0
 11
137.7159363401
 21
101.8307055055
 31
0.0
  0
LINE
  5
214
330
206
100
AcDbEntity
  8
SLD-0
 62
     7
100
AcDbLine
 10
122.7159363401
 20
102.8307055055
 30
0.0
 11
137.7159363401
 21
102.8307055055
 31
0.0
  0
LINE
  5
215
330
206
100
AcDbEntity
  8
SLD-0
 62
     7
100
AcDbLine
 10
125.7159363401
 20
102.0268585055
 30
0.0
 11
122.7159363401
 21
102.8307055055
 31
0.0
  0
LINE
  5
216
330
206
100
AcDbEntity
  8
SLD-0
 62
     7
100
AcDbLine
 10
122.7159363401
 20
102.8307055055
 30
0.0
 11
125.7159363401
 21
103.6345525055
 31
0.0
  0
LINE
  5
217
330
206
100
AcDbEntity
  8
SLD-0
 62
     7
100
AcDbLine
 10
122.7159363401
 20
102.8307055055
 30
0.0
 11
125.7159363401
 21
102.8307055055
 31
0.0
  0
LINE
  5
218
330
206
100
AcDbEntity
  8
SLD-0
 62
     7
100
AcDbLine
 10
134.7159363401
 20
103.6345525055
 30
0.0
 11
137.7159363401
 21
102.8307055055
 31
0.0
  0
LINE
  5
219
330
206
100
AcDbEntity
  8
SLD-0
 62
     7
100
AcDbLine
 10
137.7159363401
 20
102.8307055055
 30
0.0
 11
134.7159363401
 21
102.0268585055
 31
0.0
  0
LINE
  5
21A
330
206
100
AcDbEntity
  8
SLD-0
 62
     7
100
AcDbLine
 10
137.7159363401
 20
102.8307055055
 30
0.0
 11
134.7159363401
 21
102.8307055055
 31
0.0
  0
MTEXT
  5
21B
330
206
100
AcDbEntity
  8
SLD-0
 62
     7
100
AcDbMText
 10
128.1803294267
 20
107.3573992014
 30
0.1
 40
3.5
 41
0.0
 71
     1
 72
     1
  1
15
  7
SLDTEXTSTYLE0
 73
     1
 44
1.0
  0
ENDBLK
  5
211
330
206
100
AcDbEntity
  8
0
100
AcDbBlockEnd
  0
BLOCK
  5
229
330
21D
100
AcDbEntity
  8
0
100
AcDbBlockBegin
  2
*D29
 70
     1
 71
     0
 10
0.0
 20
0.0
 30
0.0
  3
*D29
  1

  0
ARC
  5
22B
330
21D
100
AcDbEntity
  8
SLD-0
 62
     7
100
AcDbCircle
 10
160.3473091749
 20
104.8663124189
 30
0.0
 40
4.551755433900002
100
AcDbArc
 50
153.4349488229
 51
206.5650511771
  0
ARC
  5
22C
330
21D
100
AcDbEntity
  8
SLD-0
 62
     7
100
AcDbCircle
 10
163.5252276077
 20
104.8663124189
 30
0.0
 40
4.551755433900002
100
AcDbArc
 50
333.4349488229
 51
26.5650511771
  0
LINE
  5
22D
330
21D
100
AcDbEntity
  8
SLD-0
 62
     7
100
AcDbLine
 10
137.7159363401
 20
122.3347357899
 30
0.0
 11
137.7159363401
 21
101.8307055055
 31
0.0
  0
LINE
  5
22E
330
21D
100
AcDbEntity
  8
SLD-0
 62
     7
100
AcDbLine
 10
150.2159363401
 20
120.9347357899
 30
0.0
 11
150.2159363401
 21
101.8307055055
 31
0.0
  0
LINE
  5
22F
330
21D
100
AcDbEntity
  8
SLD-0
 62
     7
100
AcDbLine
 10
137.7159363401
 20
102.8307055055
 30
0.0
 11
132.7159363401
 21
102.8307055055
 31
0.0
  0
LINE
  5
230
330
21D
100
AcDbEntity
  8
SLD-0
 62
     7
100
AcDbLine
 10
137.7159363401
 20
102.8307055055
 30
0.0
 11
150.2159363401
 21
102.8307055055
 31
0.0
  0
LINE
  5
231
330
21D
100
AcDbEntity
  8
SLD-0
 62
     7
100
AcDbLine
 10
150.2159363401
 20
102.8307055055
 30
0.0
 11
169.1839414346
 21
102.8307055055
 31
0.0
  0
LINE
  5
232
330
21D
100
AcDbEntity
  8
SLD-0
 62
     7
100
AcDbLine
 10
134.7159363401
 20
103.6345525055
 30
0.0
 11
137.7159363401
 21
102.8307055055
 31
0.0
  0
LINE
  5
233
330
21D
100
AcDbEntity
  8
SLD-0
 62
     7
100
AcDbLine
 10
137.7159363401
 20
102.8307055055
 30
0.0
 11
134.7159363401
 21
102.0268585055
 31
0.0
  0
LINE
  5
234
330
21D
100
AcDbEntity
  8
SLD-0
 62
     7
100
AcDbLine
 10
137.7159363401
 20
102.8307055055
 30
0.0
 11
134.7159363401
 21
102.8307055055
 31
0.0
  0
LINE
  5
235
330
21D
100
AcDbEntity
  8
SLD-0
 62
     7
100
AcDbLine
 10
153.2159363401
 20
102.0268585055
 30
0.0
 11
150.2159363401
 21
102.8307055055
 31
0.0
  0
LINE
  5
236
330
21D
100
AcDbEntity
  8
SLD-0
 62
     7
100
AcDbLine
 10
150.2159363401
 20
102.8307055055
 30
0.0
 11
153.2159363401
 21
103.6345525055
 31
0.0
  0
LINE
  5
237
330
21D
100
AcDbEntity
  8
SLD-0
 62
     7
100
AcDbLine
 10
150.2159363401
 20
102.8307055055
 30
0.0
 11
153.2159363401
 21
102.8307055055
 31
0.0
  0
MTEXT
  5
238
330
21D
100
AcDbEntity
  8
SLD-0
 62
     7
100
AcDbMText
 10
157.863595348
 20
107.3573992014
 30
0.1
 40
3.5
 41
0.0
 71
     1
 72
     1
  1
12.5
  7
SLDTEXTSTYLE0
 73
     1
 44
1.0
  0
ENDBLK
  5
22A
330
21D
100
AcDbEntity
  8
0
100
AcDbBlockEnd
  0
BLOCK
  5
244
330
23A
100
AcDbEntity
  8
0
100
AcDbBlockBegin
  2
*D30
 70
     1
 71
     0
 10
0.0
 20
0.0
 30
0.0
  3
*D30
  1

  0
LINE
  5
246
330
23A
100
AcDbEntity
  8
SLD-0
 62
     7
100
AcDbLine
 10
70.2159363401
 20
161.9347357899
 30
0.0
 11
70.2159363401
 21
222.0568843735
 31
0.0
  0
LINE
  5
247
330
23A
100
AcDbEntity
  8
SLD-0
 62
     7
100
AcDbLine
 10
85.2159363401
 20
196.9347357899
 30
0.0
 11
85.2159363401
 21
222.0568843735
 31
0.0
  0
LINE
  5
248
330
23A
100
AcDbEntity
  8
SLD-0
 62
     7
100
AcDbLine
 10
70.2159363401
 20
221.0568843735
 30
0.0
 11
85.2159363401
 21
221.0568843735
 31
0.0
  0
LINE
  5
249
330
23A
100
AcDbEntity
  8
SLD-0
 62
     7
100
AcDbLine
 10
73.2159363401
 20
220.2530373735
 30
0.0
 11
70.2159363401
 21
221.0568843735
 31
0.0
  0
LINE
  5
24A
330
23A
100
AcDbEntity
  8
SLD-0
 62
     7
100
AcDbLine
 10
70.2159363401
 20
221.0568843735
 30
0.0
 11
73.2159363401
 21
221.8607313735
 31
0.0
  0
LINE
  5
24B
330
23A
100
AcDbEntity
  8
SLD-0
 62
     7
100
AcDbLine
 10
70.2159363401
 20
221.0568843735
 30
0.0
 11
73.2159363401
 21
221.0568843735
 31
0.0
  0
LINE
  5
24C
330
23A
100
AcDbEntity
  8
SLD-0
 62
     7
100
AcDbLine
 10
82.2159363401
 20
221.8607313735
 30
0.0
 11
85.2159363401
 21
221.0568843735
 31
0.0
  0
LINE
  5
24D
330
23A
100
AcDbEntity
  8
SLD-0
 62
     7
100
AcDbLine
 10
85.2159363401
 20
221.0568843735
 30
0.0
 11
82.2159363401
 21
220.2530373735
 31
0.0
  0
LINE
  5
24E
330
23A
100
AcDbEntity
  8
SLD-0
 62
     7
100
AcDbLine
 10
85.2159363401
 20
221.0568843735
 30
0.0
 11
82.2159363401
 21
221.0568843735
 31
0.0
  0
MTEXT
  5
24F
330
23A
100
AcDbEntity
  8
SLD-0
 62
     7
100
AcDbMText
 10
75.6803294267
 20
225.5835780694
 30
0.1
 40
3.5
 41
0.0
 71
     1
 72
     1
  1
15
  7
SLDTEXTSTYLE0
 73
     1
 44
1.0
  0
ENDBLK
  5
245
330
23A
100
AcDbEntity
  8
0
100
AcDbBlockEnd
  0
BLOCK
  5
25B
330
251
100
AcDbEntity
  8
0
100
AcDbBlockBegin
  2
*D31
 70
     1
 71
     0
 10
0.0
 20
0.0
 30
0.0
  3
*D31
  1

  0
LINE
  5
25D
330
251
100
AcDbEntity
  8
SLD-0
 62
     7
100
AcDbLine
 10
85.2159363401
 20
196.9347357899
 30
0.0
 11
85.2159363401
 21
222.0568843735
 31
0.0
  0
LINE
  5
25E
330
251
100
AcDbEntity
  8
SLD-0
 62
     7
100
AcDbLine
 10
135.2159363401
 20
196.9347357899
 30
0.0
 11
135.2159363401
 21
222.0568843735
 31
0.0
  0
LINE
  5
25F
330
251
100
AcDbEntity
  8
SLD-0
 62
     7
100
AcDbLine
 10
85.2159363401
 20
221.0568843735
 30
0.0
 11
135.2159363401
 21
221.0568843735
 31
0.0
  0
LINE
  5
260
330
251
100
AcDbEntity
  8
SLD-0
 62
     7
100
AcDbLine
 10
88.2159363401
 20
220.2530373735
 30
0.0
 11
85.2159363401
 21
221.0568843735
 31
0.0
  0
LINE
  5
261
330
251
100
AcDbEntity
  8
SLD-0
 62
     7
100
AcDbLine
 10
85.2159363401
 20
221.0568843735
 30
0.0
 11
88.2159363401
 21
221.8607313735
 31
0.0
  0
LINE
  5
262
330
251
100
AcDbEntity
  8
SLD-0
 62
     7
100
AcDbLine
 10
85.2159363401
 20
221.0568843735
 30
0.0
 11
88.2159363401
 21
221.0568843735
 31
0.0
  0
LINE
  5
263
330
251
100
AcDbEntity
  8
SLD-0
 62
     7
100
AcDbLine
 10
132.2159363401
 20
221.8607313735
 30
0.0
 11
135.2159363401
 21
221.0568843735
 31
0.0
  0
LINE
  5
264
330
251
100
AcDbEntity
  8
SLD-0
 62
     7
100
AcDbLine
 10
135.2159363401
 20
221.0568843735
 30
0.0
 11
132.2159363401
 21
220.2530373735
 31
0.0
  0
LINE
  5
265
330
251
100
AcDbEntity
  8
SLD-0
 62
     7
100
AcDbLine
 10
135.2159363401
 20
221.0568843735
 30
0.0
 11
132.2159363401
 21
221.0568843735
 31
0.0
  0
MTEXT
  5
266
330
251
100
AcDbEntity
  8
SLD-0
 62
     7
100
AcDbMText
 10
108.1803294267
 20
225.5835780694
 30
0.1
 40
3.5
 41
0.0
 71
     1
 72
     1
  1
50
  7
SLDTEXTSTYLE0
 73
     1
 44
1.0
  0
ENDBLK
  5
25C
330
251
100
AcDbEntity
  8
0
100
AcDbBlockEnd
  0
BLOCK
  5
272
330
268
100
AcDbEntity
  8
0
100
AcDbBlockBegin
  2
*D32
 70
     1
 71
     0
 10
0.0
 20
0.0
 30
0.0
  3
*D32
  1

  0
LINE
  5
274
330
268
100
AcDbEntity
  8
SLD-0
 62
     7
100
AcDbLine
 10
70.2159363401
 20
161.9347357899
 30
0.0
 11
70.2159363401
 21
237.4587678479
 31
0.0
  0
LINE
  5
275
330
268
100
AcDbEntity
  8
SLD-0
 62
     7
100
AcDbLine
 10
150.2159363401
 20
161.9347357899
 30
0.0
 11
150.2159363401
 21
237.4587678479
 31
0.0
  0
LINE
  5
276
330
268
100
AcDbEntity
  8
SLD-0
 62
     7
100
AcDbLine
 10
70.2159363401
 20
236.4587678479
 30
0.0
 11
150.2159363401
 21
236.4587678479
 31
0.0
  0
LINE
  5
277
330
268
100
AcDbEntity
  8
SLD-0
 62
     7
100
AcDbLine
 10
73.2159363401
 20
235.6549208479
 30
0.0
 11
70.2159363401
 21
236.4587678479
 31
0.0
  0
LINE
  5
278
330
268
100
AcDbEntity
  8
SLD-0
 62
     7
100
AcDbLine
 10
70.2159363401
 20
236.4587678479
 30
0.0
 11
73.2159363401
 21
237.2626148479
 31
0.0
  0
LINE
  5
279
330
268
100
AcDbEntity
  8
SLD-0
 62
     7
100
AcDbLine
 10
70.2159363401
 20
236.4587678479
 30
0.0
 11
73.2159363401
 21
236.4587678479
 31
0.0
  0
LINE
  5
27A
330
268
100
AcDbEntity
  8
SLD-0
 62
     7
100
AcDbLine
 10
147.2159363401
 20
237.2626148479
 30
0.0
 11
150.2159363401
 21
236.4587678479
 31
0.0
  0
LINE
  5
27B
330
268
100
AcDbEntity
  8
SLD-0
 62
     7
100
AcDbLine
 10
150.2159363401
 20
236.4587678479
 30
0.0
 11
147.2159363401
 21
235.6549208479
 31
0.0
  0
LINE
  5
27C
330
268
100
AcDbEntity
  8
SLD-0
 62
     7
100
AcDbLine
 10
150.2159363401
 20
236.4587678479
 30
0.0
 11
147.2159363401
 21
236.4587678479
 31
0.0
  0
MTEXT
  5
27D
330
268
100
AcDbEntity
  8
SLD-0
 62
     7
100
AcDbMText
 10
108.1803294267
 20
240.9854615438
 30
0.1
 40
3.5
 41
0.0
 71
     1
 72
     1
  1
80
  7
SLDTEXTSTYLE0
 73
     1
 44
1.0
  0
ENDBLK
  5
273
330
268
100
AcDbEntity
  8
0
100
AcDbBlockEnd
  0
ENDSEC
  0
SECTION
  2
ENTITIES
  0
LINE
  5
C2
330
1F
100
AcDbEntity
  8
SLD-0
  6
Continuous
 62
   179
100
AcDbLine
 10
20.2604743903
 20
285.0
 30
0.0
 11
196.7604743903
 21
285.0
 31
0.0
  0
LINE
  5
C3
330
1F
100
AcDbEntity
  8
SLD-0
  6
Continuous
 62
   179
100
AcDbLine
 10
20.2604743903
 20
285.0
 30
0.0
 11
20.2604743903
 21
10.0
 31
0.0
  0
LINE
  5
C4
330
1F
100
AcDbEntity
  8
SLD-0
  6
Continuous
 62
   179
100
AcDbLine
 10
20.2604743903
 20
10.0
 30
0.0
 11
196.7604743903
 21
10.0
 31
0.0
  0
LINE
  5
C5
330
1F
100
AcDbEntity
  8
SLD-0
  6
Continuous
 62
   179
100
AcDbLine
 10
196.7604743903
 20
285.0
 30
0.0
 11
196.7604743903
 21
10.0
 31
0.0
  0
LINE
  5
C6
330
1F
100
AcDbEntity
  8
SLD-0
  6
Continuous
 62
   179
100
AcDbLine
 10
65.7604743903
 20
285.0
 30
0.0
 11
196.7604743903
 21
285.0
 31
0.0
  0
LINE
  5
C7
330
1F
100
AcDbEntity
  8
SLD-0
  6
Continuous
 62
   179
100
AcDbLine
 10
196.7604743903
 20
285.0
 30
0.0
 11
196.7604743903
 21
264.25
 31
0.0
  0
LINE
  5
C8
330
1F
100
AcDbEntity
  8
SLD-0
  6
Continuous
 62
   179
100
AcDbLine
 10
127.0104743903
 20
50.75
 30
0.0
 11
196.7604743903
 21
50.75
 31
0.0
  0
LINE
  5
C9
330
1F
100
AcDbEntity
  8
SLD-0
  6
Continuous
 62
   179
100
AcDbLine
 10
127.0104743903
 20
50.75
 30
0.0
 11
127.0104743903
 21
10.0
 31
0.0
  0
LINE
  5
CA
330
1F
100
AcDbEntity
  8
SLD-0
  6
Continuous
 62
   179
100
AcDbLine
 10
127.0104743903
 20
22.75
 30
0.0
 11
196.7604743903
 21
22.75
 31
0.0
  0
LINE
  5
CB
330
1F
100
AcDbEntity
  8
SLD-0
  6
Continuous
 62
   179
100
AcDbLine
 10
127.0104743903
 20
36.75
 30
0.0
 11
196.7604743903
 21
36.75
 31
0.0
  0
LINE
  5
CC
330
1F
100
AcDbEntity
  8
SLD-0
  6
Continuous
 62
   179
100
AcDbLine
 10
70.2159363401
 20
160.9347357899
 30
0.0
 11
70.2159363401
 21
121.9347357899
 31
0.0
  0
LINE
  5
CD
330
1F
100
AcDbEntity
  8
SLD-0
  6
Continuous
 62
   179
100
AcDbLine
 10
85.2159363401
 20
166.4347357899
 30
0.0
 11
75.7159363401
 21
166.4347357899
 31
0.0
  0
LINE
  5
CE
330
1F
100
AcDbEntity
  8
SLD-0
  6
Continuous
 62
   179
100
AcDbLine
 10
85.2159363401
 20
195.9347357899
 30
0.0
 11
85.2159363401
 21
166.4347357899
 31
0.0
  0
LINE
  5
CF
330
1F
100
AcDbEntity
  8
SLD-0
  6
Continuous
 62
   179
100
AcDbLine
 10
129.7159363401
 20
201.4347357899
 30
0.0
 11
90.7159363401
 21
201.4347357899
 31
0.0
  0
LINE
  5
D0
330
1F
100
AcDbEntity
  8
SLD-0
  6
Continuous
 62
   179
100
AcDbLine
 10
135.2159363401
 20
166.4347357899
 30
0.0
 11
135.2159363401
 21
195.9347357899
 31
0.0
  0
LINE
  5
D1
330
1F
100
AcDbEntity
  8
SLD-0
  6
Continuous
 62
   179
100
AcDbLine
 10
144.7159363401
 20
166.4347357899
 30
0.0
 11
135.2159363401
 21
166.4347357899
 31
0.0
  0
LINE
  5
D2
330
1F
100
AcDbEntity
  8
SLD-0
  6
Continuous
 62
   179
100
AcDbLine
 10
150.2159363401
 20
121.9347357899
 30
0.0
 11
150.2159363401
 21
160.9347357899
 31
0.0
  0
LINE
  5
D3
330
1F
100
AcDbEntity
  8
SLD-0
  6
Continuous
 62
   179
100
AcDbLine
 10
75.7159363401
 20
116.4347357899
 30
0.0
 11
144.7159363401
 21
116.4347357899
 31
0.0
  0
ARC
  5
D4
330
1F
100
AcDbEntity
  8
SLD-0
  6
Continuous
 62
   179
100
AcDbCircle
 10
75.7159363401
 20
160.9347357899
 30
0.0
 40
5.5
100
AcDbArc
 50
90.0
 51
180.0
  0
ARC
  5
D5
330
1F
100
AcDbEntity
  8
SLD-0
  6
Continuous
 62
   179
100
AcDbCircle
 10
90.7159363401
 20
195.9347357899
 30
0.0
 40
5.5
100
AcDbArc
 50
90.0
 51
180.0
  0
ARC
  5
D6
330
1F
100
AcDbEntity
  8
SLD-0
  6
Continuous
 62
   179
100
AcDbCircle
 10
129.7159363401
 20
195.9347357899
 30
0.0
 40
5.5
100
AcDbArc
 50
0.0
 51
90.0
  0
ARC
  5
D7
330
1F
100
AcDbEntity
  8
SLD-0
  6
Continuous
 62
   179
100
AcDbCircle
 10
144.7159363401
 20
121.9347357899
 30
0.0
 40
5.5
100
AcDbArc
 50
270.0
 51
0.0
  0
ARC
  5
D8
330
1F
100
AcDbEntity
  8
SLD-0
  6
Continuous
 62
   179
100
AcDbCircle
 10
75.7159363401
 20
121.9347357899
 30
0.0
 40
5.5
100
AcDbArc
 50
180.0
 51
270.0
  0
CIRCLE
  5
D9
330
1F
100
AcDbEntity
  8
SLD-0
  6
Continuous
 62
   179
100
AcDbCircle
 10
82.7159363401
 20
153.9347357899
 30
0.0
 40
3.100000000000009
  0
CIRCLE
  5
DA
330
1F
100
AcDbEntity
  8
SLD-0
  6
Continuous
 62
   179
100
AcDbCircle
 10
82.7159363401
 20
128.9347357899
 30
0.0
 40
3.100000000000009
  0
CIRCLE
  5
DB
330
1F
100
AcDbEntity
  8
SLD-0
  6
Continuous
 62
   179
100
AcDbCircle
 10
97.7159363401
 20
128.9347357899
 30
0.0
 40
3.100000000000009
  0
CIRCLE
  5
DC
330
1F
100
AcDbEntity
  8
SLD-0
  6
Continuous
 62
   179
100
AcDbCircle
 10
97.7159363401
 20
153.9347357899
 30
0.0
 40
3.100000000000009
  0
CIRCLE
  5
DD
330
1F
100
AcDbEntity
  8
SLD-0
  6
Continuous
 62
   179
100
AcDbCircle
 10
122.7159363401
 20
191.4347357899
 30
0.0
 40
3.099999999999994
  0
CIRCLE
  5
DE
330
1F
100
AcDbEntity
  8
SLD-0
  6
Continuous
 62
   179
100
AcDbCircle
 10
122.7159363401
 20
176.4347357899
 30
0.0
 40
3.099999999999994
  0
CIRCLE
  5
DF
330
1F
100
AcDbEntity
  8
SLD-0
  6
Continuous
 62
   179
100
AcDbCircle
 10
122.7159363401
 20
153.9347357899
 30
0.0
 40
3.099999999999994
  0
CIRCLE
  5
E0
330
1F
100
AcDbEntity
  8
SLD-0
  6
Continuous
 62
   179
100
AcDbCircle
 10
122.7159363401
 20
128.9347357899
 30
0.0
 40
3.099999999999994
  0
CIRCLE
  5
E1
330
1F
100
AcDbEntity
  8
SLD-0
  6
Continuous
 62
   179
100
AcDbCircle
 10
137.7159363401
 20
128.9347357899
 30
0.0
 40
3.099999999999994
  0
CIRCLE
  5
E2
330
1F
100
AcDbEntity
  8
SLD-0
  6
Continuous
 62
   179
100
AcDbCircle
 10
137.7159363401
 20
153.9347357899
 30
0.0
 40
3.099999999999994
  0
CIRCLE
  5
E3
330
1F
100
AcDbEntity
  8
SLD-0
  6
Continuous
 62
   179
100
AcDbCircle
 10
97.7159363401
 20
176.4347357899
 30
0.0
 40
3.100000000000009
  0
CIRCLE
  5
E4
330
1F
100
AcDbEntity
  8
SLD-0
  6
Continuous
 62
   179
100
AcDbCircle
 10
97.7159363401
 20
191.4347357899
 30
0.0
 40
3.100000000000009
  0
ARC
  5
E5
330
1F
100
AcDbEntity
  8
SLD-0
  6
Continuous
 62
   179
100
AcDbCircle
 10
144.7159363401
 20
160.9347357899
 30
0.0
 40
5.5
100
AcDbArc
 50
0.0
 51
90.0
  0
DIMENSION
  5
E6
330
1F
100
AcDbEntity
  8
SLD-0
 62
     7
100
AcDbDimension
  2
*D15
 10
97.7159363401
 20
102.8307055055
 30
0.0
 11
90.2159363401
 21
102.8307055055
 31
0.0
 70
   160
 71
     1
 42
15.0
  3
SLDDIMSTYLE0
100
AcDbAlignedDimension
 13
82.7159363401
 23
128.9347357899
 33
0.0
 14
97.7159363401
 24
128.9347357899
 34
0.0
100
AcDbRotatedDimension
1001
ACAD
1000
DSTYLE
1002
{
1070
    77
1070
     3
1070
   143
1040
0.0393700787
1070
    41
1040
3.0
1070
    44
1040
1.0
1070
    42
1040
1.0
1070
   147
1040
1.524
1070
    73
1070
     0
1070
    74
1070
     0
1070
   140
1040
3.5
1070
   284
1070
    12
1070
    78
1070
    12
1002
}
  0
DIMENSION
  5
102
330
1F
100
AcDbEntity
  8
SLD-0
 62
     7
100
AcDbDimension
  2
*D17
 10
176.477120402
 20
201.4347357899
 30
0.0
 11
176.477120402
 21
158.9347357899
 31
0.0
 70
   160
 71
     1
 42
85.0
  3
SLDDIMSTYLE0
100
AcDbAlignedDimension
 13
144.7159363401
 23
116.4347357899
 33
0.0
 14
129.7159363401
 24
201.4347357899
 34
0.0
 50
90.0
100
AcDbRotatedDimension
1001
ACAD
1000
DSTYLE
1002
{
1070
    77
1070
     3
1070
   143
1040
0.0393700787
1070
    41
1040
3.0
1070
    44
1040
1.0
1070
    42
1040
1.0
1070
   147
1040
1.524
1070
    73
1070
     0
1070
    74
1070
     0
1070
   140
1040
3.5
1070
   284
1070
    12
1070
    78
1070
    12
1002
}
  0
DIMENSION
  5
11A
330
1F
100
AcDbEntity
  8
SLD-0
 62
     7
100
AcDbDimension
  2
*D18
 10
90.7159363401
 20
195.9347357899
 30
0.0
 11
57.5899713986
 21
218.0338403998
 31
0.0
 70
   164
  1
6-<>
 71
     1
 42
215.9161916002
  3
SLDDIMSTYLE1
100
AcDbRadialDimension
 15
0.0
 25
0.0
 35
0.0
 40
0.0
1001
ACAD
1000
DSTYLE
1002
{
1070
    77
1070
     0
1070
   143
1040
0.0393700787
1070
    41
1040
3.0
1070
    44
1040
1.0
1070
    42
1040
1.0
1070
   147
1040
1.524
1070
    73
1070
     1
1070
    74
1070
     1
1070
   140
1040
3.5
1070
   284
1070
    12
1070
    78
1070
    12
1002
}
  0
DIMENSION
  5
12B
330
1F
100
AcDbEntity
  8
SLD-0
 62
     7
100
AcDbDimension
  2
*D19
 10
82.7159363401
 20
102.8307055055
 30
0.0
 11
76.4659363401
 21
102.8307055055
 31
0.0
 70
   160
 71
     1
 42
12.5
  3
SLDDIMSTYLE2
100
AcDbAlignedDimension
 13
70.2159363401
 23
121.9347357899
 33
0.0
 14
82.7159363401
 24
128.9347357899
 34
0.0
100
AcDbRotatedDimension
1001
ACAD
1000
DSTYLE
1002
{
1070
    77
1070
     3
1070
   143
1040
0.0393700787
1070
    41
1040
3.0
1070
    44
1040
1.0
1070
    42
1040
1.0
1070
   147
1040
1.524
1070
    73
1070
     0
1070
    74
1070
     0
1070
   140
1040
3.5
1070
   284
1070
    12
1070
    78
1070
    12
1002
}
  0
DIMENSION
  5
145
330
1F
100
AcDbEntity
  8
SLD-0
 62
     7
100
AcDbDimension
  2
*D20
 10
44.9582437136
 20
153.9347357899
 30
0.0
 11
44.9582437136
 21
141.4347357899
 31
0.0
 70
   160
 71
     1
 42
25.0
  3
SLDDIMSTYLE0
100
AcDbAlignedDimension
 13
82.7159363401
 23
128.9347357899
 33
0.0
 14
82.7159363401
 24
153.9347357899
 34
0.0
 50
90.0
100
AcDbRotatedDimension
1001
ACAD
1000
DSTYLE
1002
{
1070
    77
1070
     3
1070
   143
1040
0.0393700787
1070
    41
1040
3.0
1070
    44
1040
1.0
1070
    42
1040
1.0
1070
   147
1040
1.524
1070
    73
1070
     0
1070
    74
1070
     0
1070
   140
1040
3.5
1070
   284
1070
    12
1070
    78
1070
    12
1002
}
  0
DIMENSION
  5
15D
330
1F
100
AcDbEntity
  8
SLD-0
 62
     7
100
AcDbDimension
  2
*D21
 10
44.9582437136
 20
128.9347357899
 30
0.0
 11
44.9582437136
 21
122.6847357899
 31
0.0
 70
   160
 71
     1
 42
12.5
  3
SLDDIMSTYLE2
100
AcDbAlignedDimension
 13
75.7159363401
 23
116.4347357899
 33
0.0
 14
82.7159363401
 24
128.9347357899
 34
0.0
 50
90.0
100
AcDbRotatedDimension
1001
ACAD
1000
DSTYLE
1002
{
1070
    77
1070
     3
1070
   143
1040
0.0393700787
1070
    41
1040
3.0
1070
    44
1040
1.0
1070
    42
1040
1.0
1070
   147
1040
1.524
1070
    73
1070
     0
1070
    74
1070
     0
1070
   140
1040
3.5
1070
   284
1070
    12
1070
    78
1070
    12
1002
}
  0
DIMENSION
  5
177
330
1F
100
AcDbEntity
  8
SLD-0
 62
     7
100
AcDbDimension
  2
*D22
 10
44.9582437136
 20
191.4347357899
 30
0.0
 11
44.9582437136
 21
183.9347357899
 31
0.0
 70
   160
 71
     1
 42
15.0
  3
SLDDIMSTYLE0
100
AcDbAlignedDimension
 13
97.7159363401
 23
176.4347357899
 33
0.0
 14
97.7159363401
 24
191.4347357899
 34
0.0
 50
90.0
100
AcDbRotatedDimension
1001
ACAD
1000
DSTYLE
1002
{
1070
    77
1070
     3
1070
   143
1040
0.0393700787
1070
    41
1040
3.0
1070
    44
1040
1.0
1070
    42
1040
1.0
1070
   147
1040
1.524
1070
    73
1070
     0
1070
    74
1070
     0
1070
   140
1040
3.5
1070
   284
1070
    12
1070
    78
1070
    12
1002
}
  0
DIMENSION
  5
18F
330
1F
100
AcDbEntity
  8
SLD-0
 62
     7
100
AcDbDimension
  2
*D23
 10
44.9582437136
 20
153.9347357899
 30
0.0
 11
44.9582437136
 21
165.1847357899
 31
0.0
 70
   160
 71
     1
 42
22.5
  3
SLDDIMSTYLE2
100
AcDbAlignedDimension
 13
97.7159363401
 23
176.4347357899
 33
0.0
 14
97.7159363401
 24
153.9347357899
 34
0.0
 50
90.0
100
AcDbRotatedDimension
1001
ACAD
1000
DSTYLE
1002
{
1070
    77
1070
     3
1070
   143
1040
0.0393700787
1070
    41
1040
3.0
1070
    44
1040
1.0
1070
    42
1040
1.0
1070
   147
1040
1.524
1070
    73
1070
     0
1070
    74
1070
     0
1070
   140
1040
3.5
1070
   284
1070
    12
1070
    78
1070
    12
1002
}
  0
DIMENSION
  5
1A7
330
1F
100
AcDbEntity
  8
SLD-0
 62
     7
100
AcDbDimension
  2
*D24
 10
44.9582437136
 20
191.4347357899
 30
0.0
 11
44.9582437136
 21
209.990971554
 31
0.0
 70
   160
  1
(<>)
 71
     1
 42
10.0
  3
SLDDIMSTYLE0
100
AcDbAlignedDimension
 13
90.7159363401
 23
201.4347357899
 33
0.0
 14
97.7159363401
 24
191.4347357899
 34
0.0
 50
90.0
100
AcDbRotatedDimension
1001
ACAD
1000
DSTYLE
1002
{
1070
    77
1070
     3
1070
   143
1040
0.0393700787
1070
    41
1040
3.0
1070
    44
1040
1.0
1070
    42
1040
1.0
1070
   147
1040
1.524
1070
    73
1070
     0
1070
    74
1070
     0
1070
   140
1040
3.5
1070
   284
1070
    12
1070
    78
1070
    12
1002
}
  0
DIMENSION
  5
1C3
330
1F
100
AcDbEntity
  8
SLD-0
 62
     7
100
AcDbDimension
  2
*D25
 10
97.7159363401
 20
102.8307055055
 30
0.0
 11
110.2159363401
 21
102.8307055055
 31
0.0
 70
   160
 71
     1
 42
25.0
  3
SLDDIMSTYLE0
100
AcDbAlignedDimension
 13
122.7159363401
 23
128.9347357899
 33
0.0
 14
97.7159363401
 24
128.9347357899
 34
0.0
100
AcDbRotatedDimension
1001
ACAD
1000
DSTYLE
1002
{
1070
    77
1070
     3
1070
   143
1040
0.0393700787
1070
    41
1040
3.0
1070
    44
1040
1.0
1070
    42
1040
1.0
1070
   147
1040
1.524
1070
    73
1070
     0
1070
    74
1070
     0
1070
   140
1040
3.5
1070
   284
1070
    12
1070
    78
1070
    12
1002
}
  0
DIMENSION
  5
1DA
330
1F
100
AcDbEntity
  8
SLD-0
 62
     7
100
AcDbDimension
  2
*D26
 10
3.3459559105
 20
5.2196332832
 30
0.0
 11
156.253716331
 21
-5.0512585044
 31
0.0
 70
   163
  1
12-<>
 71
     1
 42
6.1999994005
  3
SLDDIMSTYLE3
100
AcDbDiametricDimension
 15
0.0
 25
0.0
 35
0.0
 40
0.0
1001
ACAD
1000
DSTYLE
1002
{
1070
    77
1070
     0
1070
   143
1040
0.0393700787
1070
    41
1040
3.0
1070
    44
1040
1.0
1070
    42
1040
1.0
1070
   147
1040
1.524
1070
    73
1070
     1
1070
    74
1070
     1
1070
   140
1040
3.5
1070
   284
1070
    12
1070
    78
1070
    12
1002
}
  0
DIMENSION
  5
1ED
330
1F
100
AcDbEntity
  8
SLD-0
 62
     7
100
AcDbDimension
  2
*D27
 10
163.9588490364
 20
166.4347357899
 30
0.0
 11
163.9588490364
 21
141.4347357899
 31
0.0
 70
   160
 71
     1
 42
50.0
  3
SLDDIMSTYLE0
100
AcDbAlignedDimension
 13
144.7159363401
 23
116.4347357899
 33
0.0
 14
144.7159363401
 24
166.4347357899
 34
0.0
 50
90.0
100
AcDbRotatedDimension
1001
ACAD
1000
DSTYLE
1002
{
1070
    77
1070
     3
1070
   143
1040
0.0393700787
1070
    41
1040
3.0
1070
    44
1040
1.0
1070
    42
1040
1.0
1070
   147
1040
1.524
1070
    73
1070
     0
1070
    74
1070
     0
1070
   140
1040
3.5
1070
   284
1070
    12
1070
    78
1070
    12
1002
}
  0
DIMENSION
  5
205
330
1F
100
AcDbEntity
  8
SLD-0
 62
     7
100
AcDbDimension
  2
*D28
 10
122.7159363401
 20
102.8307055055
 30
0.0
 11
130.2159363401
 21
102.8307055055
 31
0.0
 70
   160
 71
     1
 42
15.0
  3
SLDDIMSTYLE0
100
AcDbAlignedDimension
 13
137.7159363401
 23
123.3347357899
 33
0.0
 14
122.7159363401
 24
123.3347357899
 34
0.0
100
AcDbRotatedDimension
1001
ACAD
1000
DSTYLE
1002
{
1070
    77
1070
     3
1070
   143
1040
0.0393700787
1070
    41
1040
3.0
1070
    44
1040
1.0
1070
    42
1040
1.0
1070
   147
1040
1.524
1070
    73
1070
     0
1070
    74
1070
     0
1070
   140
1040
3.5
1070
   284
1070
    12
1070
    78
1070
    12
1002
}
  0
DIMENSION
  5
21C
330
1F
100
AcDbEntity
  8
SLD-0
 62
     7
100
AcDbDimension
  2
*D29
 10
137.7159363401
 20
102.8307055055
 30
0.0
 11
161.9362683913
 21
102.8307055055
 31
0.0
 70
   160
  1
(<>)
 71
     1
 42
12.5
  3
SLDDIMSTYLE2
100
AcDbAlignedDimension
 13
150.2159363401
 23
121.9347357899
 33
0.0
 14
137.7159363401
 24
123.3347357899
 34
0.0
100
AcDbRotatedDimension
1001
ACAD
1000
DSTYLE
1002
{
1070
    77
1070
     3
1070
   143
1040
0.0393700787
1070
    41
1040
3.0
1070
    44
1040
1.0
1070
    42
1040
1.0
1070
   147
1040
1.524
1070
    73
1070
     0
1070
    74
1070
     0
1070
   140
1040
3.5
1070
   284
1070
    12
1070
    78
1070
    12
1002
}
  0
DIMENSION
  5
239
330
1F
100
AcDbEntity
  8
SLD-0
 62
     7
100
AcDbDimension
  2
*D30
 10
70.2159363401
 20
221.0568843735
 30
0.0
 11
77.7159363401
 21
221.0568843735
 31
0.0
 70
   160
 71
     1
 42
15.0
  3
SLDDIMSTYLE0
100
AcDbAlignedDimension
 13
85.2159363401
 23
195.9347357899
 33
0.0
 14
70.2159363401
 24
160.9347357899
 34
0.0
100
AcDbRotatedDimension
1001
ACAD
1000
DSTYLE
1002
{
1070
    77
1070
     3
1070
   143
1040
0.0393700787
1070
    41
1040
3.0
1070
    44
1040
1.0
1070
    42
1040
1.0
1070
   147
1040
1.524
1070
    73
1070
     0
1070
    74
1070
     0
1070
   140
1040
3.5
1070
   284
1070
    12
1070
    78
1070
    12
1002
}
  0
DIMENSION
  5
250
330
1F
100
AcDbEntity
  8
SLD-0
 62
     7
100
AcDbDimension
  2
*D31
 10
85.2159363401
 20
221.0568843735
 30
0.0
 11
110.2159363401
 21
221.0568843735
 31
0.0
 70
   160
 71
     1
 42
50.0
  3
SLDDIMSTYLE0
100
AcDbAlignedDimension
 13
135.2159363401
 23
195.9347357899
 33
0.0
 14
85.2159363401
 24
195.9347357899
 34
0.0
100
AcDbRotatedDimension
1001
ACAD
1000
DSTYLE
1002
{
1070
    77
1070
     3
1070
   143
1040
0.0393700787
1070
    41
1040
3.0
1070
    44
1040
1.0
1070
    42
1040
1.0
1070
   147
1040
1.524
1070
    73
1070
     0
1070
    74
1070
     0
1070
   140
1040
3.5
1070
   284
1070
    12
1070
    78
1070
    12
1002
}
  0
DIMENSION
  5
267
330
1F
100
AcDbEntity
  8
SLD-0
 62
     7
100
AcDbDimension
  2
*D32
 10
70.2159363401
 20
236.4587678479
 30
0.0
 11
110.2159363401
 21
236.4587678479
 31
0.0
 70
   160
 71
     1
 42
80.0
  3
SLDDIMSTYLE0
100
AcDbAlignedDimension
 13
150.2159363401
 23
160.9347357899
 33
0.0
 14
70.2159363401
 24
160.9347357899
 34
0.0
100
AcDbRotatedDimension
1001
ACAD
1000
DSTYLE
1002
{
1070
    77
1070
     3
1070
   143
1040
0.0393700787
1070
    41
1040
3.0
1070
    44
1040
1.0
1070
    42
1040
1.0
1070
   147
1040
1.524
1070
    73
1070
     0
1070
    74
1070
     0
1070
   140
1040
3.5
1070
   284
1070
    12
1070
    78
1070
    12
1002
}
  0
MTEXT
  5
27E
330
1F
100
AcDbEntity
  8
SLD-0
 62
     7
100
AcDbMText
 10
150.030769136
 20
88.4472010347
 30
0.0
 40
4.2333333333
 41
0.0
 71
     1
 72
     1
  1
t= 3.2
  7
SLDTEXTSTYLE1
 73
     1
 44
1.0
  0
MTEXT
  5
27F
330
1F
100
AcDbEntity
  8
SLD-0
 62
     7
100
AcDbMText
 10
158.0905363146
 20
16.7096205387
 30
0.0
 40
3.5
 41
0.0
 71
     1
 72
     1
  1
131052
  7
SLDTEXTSTYLE0
 73
     1
 44
1.0
  0
MTEXT
  5
280
330
1F
100
AcDbEntity
  8
SLD-0
 62
     7
100
AcDbMText
 10
147.2535212058
 20
29.7138882404
 30
0.0
 40
4.2333333333
 41
0.0
 71
     1
 72
     1
  1
N01913-302-0
  7
SLDTEXTSTYLE1
 73
     1
 44
1.0
  0
MTEXT
  5
282
330
1F
100
AcDbEntity
  8
SLD-0
 62
     7
100
AcDbMText
 10
138.5189449995
 20
43.2377018572
 30
0.0
 40
4.2333333333
 41
0.0
 71
     1
 72
     1
  1
50 Connecter Plate B
  7
SLDTEXTSTYLE2
 73
     1
 44
1.0
  0
INSERT
  5
283
330
1F
100
AcDbEntity
  8
0
  6
Continuous
 62
     7
370
     0
100
AcDbBlockReference
  2
SURFACEFINISH40
 10
178.916673854
 20
250.9568330948
 30
0.0
  0
INSERT
  5
284
330
1F
100
AcDbEntity
  8
0
  6
Continuous
 62
     7
370
     0
100
AcDbBlockReference
  2
注記
 10
108.175323042
 20
55.8552098929
 30
0.0
  0
INSERT
  5
285
330
1F
100
AcDbEntity
  8
0
  6
Continuous
 62
     7
370
     0
100
AcDbBlockReference
  2
SW_CENTERMARK0
 10
0.0
 20
0.0
 30
0.0
  0
INSERT
  5
286
330
1F
100
AcDbEntity
  8
0
  6
Continuous
 62
     7
370
     0
100
AcDbBlockReference
  2
SW_CENTERMARK1
 10
0.0
 20
0.0
 30
0.0
  0
INSERT
  5
287
330
1F
100
AcDbEntity
  8
0
  6
Continuous
 62
     7
370
     0
100
AcDbBlockReference
  2
SW_CENTERMARK2
 10
0.0
 20
0.0
 30
0.0
  0
INSERT
  5
288
330
1F
100
AcDbEntity
  8
0
  6
Continuous
 62
     7
370
     0
100
AcDbBlockReference
  2
SW_CENTERMARK3
 10
0.0
 20
0.0
 30
0.0
  0
INSERT
  5
289
330
1F
100
AcDbEntity
  8
0
  6
Continuous
 62
     7
370
     0
100
AcDbBlockReference
  2
SW_CENTERMARK4
 10
0.0
 20
0.0
 30
0.0
  0
INSERT
  5
28A
330
1F
100
AcDbEntity
  8
0
  6
Continuous
 62
     7
370
     0
100
AcDbBlockReference
  2
SW_CENTERMARK5
 10
0.0
 20
0.0
 30
0.0
  0
INSERT
  5
28B
330
1F
100
AcDbEntity
  8
0
  6
Continuous
 62
     7
370
     0
100
AcDbBlockReference
  2
SW_CENTERMARK6
 10
0.0
 20
0.0
 30
0.0
  0
INSERT
  5
28C
330
1F
100
AcDbEntity
  8
0
  6
Continuous
 62
     7
370
     0
100
AcDbBlockReference
  2
SW_CENTERMARK7
 10
0.0
 20
0.0
 30
0.0
  0
INSERT
  5
28D
330
1F
100
AcDbEntity
  8
0
  6
Continuous
 62
     7
370
     0
100
AcDbBlockReference
  2
SW_CENTERMARK8
 10
0.0
 20
0.0
 30
0.0
  0
INSERT
  5
28E
330
1F
100
AcDbEntity
  8
0
  6
Continuous
 62
     7
370
     0
100
AcDbBlockReference
  2
SW_CENTERMARK9
 10
0.0
 20
0.0
 30
0.0
  0
INSERT
  5
28F
330
1F
100
AcDbEntity
  8
0
  6
Continuous
 62
     7
370
     0
100
AcDbBlockReference
  2
SW_CENTERMARK10
 10
0.0
 20
0.0
 30
0.0
  0
INSERT
  5
290
330
1F
100
AcDbEntity
  8
0
  6
Continuous
 62
     7
370
     0
100
AcDbBlockReference
  2
SW_CENTERMARK11
 10
0.0
 20
0.0
 30
0.0
  0
ENDSEC
  0
SECTION
  2
OBJECTS
  0
DICTIONARY
  5
C
330
0
100
AcDbDictionary
281
     1
  3
ACAD_GROUP
350
D
  3
ACAD_LAYOUT
350
1A
  3
ACAD_MLINESTYLE
350
17
  3
ACAD_PLOTSETTINGS
350
19
  3
ACAD_PLOTSTYLENAME
350
E
  0
DICTIONARY
  5
D
102
{ACAD_REACTORS
330
C
102
}
330
C
100
AcDbDictionary
281
     1
  0
DICTIONARY
  5
1A
102
{ACAD_REACTORS
330
C
102
}
330
C
100
AcDbDictionary
281
     1
  3
Layout1
350
1E
  3
Layout2
350
26
  3
Model
350
22
  0
DICTIONARY
  5
17
102
{ACAD_REACTORS
330
C
102
}
330
C
100
AcDbDictionary
281
     1
  3
Standard
350
18
  0
DICTIONARY
  5
19
102
{ACAD_REACTORS
330
C
102
}
330
C
100
AcDbDictionary
281
     1
  0
ACDBDICTIONARYWDFLT
  5
E
102
{ACAD_REACTORS
330
C
102
}
330
C
100
AcDbDictionary
281
     1
  3
Normal
350
F
100
AcDbDictionaryWithDefault
340
F
  0
LAYOUT
  5
1E
102
{ACAD_REACTORS
330
1A
102
}
330
1A
100
AcDbPlotSettings
  1

  2

  4

  6

 40
0.0
 41
0.0
 42
0.0
 43
0.0
 44
0.0
 45
0.0
 46
0.0
 47
0.0
 48
0.0
 49
0.0
140
0.0
141
0.0
142
1.0
143
1.0
 70
   688
 72
     0
 73
     0
 74
     5
  7

 75
    16
147
1.0
148
0.0
149
0.0
100
AcDbLayout
  1
Layout1
 70
     1
 71
     1
 10
0.0
 20
0.0
 11
0.0
 21
0.0
 12
0.0
 22
0.0
 32
0.0
 14
0.0
 24
0.0
 34
0.0
 15
0.0
 25
0.0
 35
0.0
146
0.0
 13
0.0
 23
0.0
 33
0.0
 16
1.0
 26
0.0
 36
0.0
 17
0.0
 27
1.0
 37
0.0
 76
     0
330
1B
  0
LAYOUT
  5
26
102
{ACAD_REACTORS
330
1A
102
}
330
1A
100
AcDbPlotSettings
  1

  2

  4

  6

 40
0.0
 41
0.0
 42
0.0
 43
0.0
 44
0.0
 45
0.0
 46
0.0
 47
0.0
 48
0.0
 49
0.0
140
0.0
141
0.0
142
1.0
143
1.0
 70
   688
 72
     0
 73
     0
 74
     5
  7

 75
    16
147
1.0
148
0.0
149
0.0
100
AcDbLayout
  1
Layout2
 70
     1
 71
     2
 10
0.0
 20
0.0
 11
0.0
 21
0.0
 12
0.0
 22
0.0
 32
0.0
 14
0.0
 24
0.0
 34
0.0
 15
0.0
 25
0.0
 35
0.0
146
0.0
 13
0.0
 23
0.0
 33
0.0
 16
1.0
 26
0.0
 36
0.0
 17
0.0
 27
1.0
 37
0.0
 76
     0
330
23
  0
LAYOUT
  5
22
102
{ACAD_REACTORS
330
1A
102
}
330
1A
100
AcDbPlotSettings
  1

  2

  4

  6

 40
0.0
 41
0.0
 42
0.0
 43
0.0
 44
0.0
 45
0.0
 46
0.0
 47
0.0
 48
0.0
 49
0.0
140
0.0
141
0.0
142
1.0
143
1.0
 70
  1712
 72
     0
 73
     0
 74
     0
  7

 75
     0
147
1.0
148
0.0
149
0.0
100
AcDbLayout
  1
Model
 70
     1
 71
     0
 10
0.0
 20
0.0
 11
0.0
 21
0.0
 12
0.0
 22
0.0
 32
0.0
 14
0.0
 24
0.0
 34
0.0
 15
210.0
 25
297.0
 35
0.0
146
0.0
 13
0.0
 23
0.0
 33
0.0
 16
1.0
 26
0.0
 36
0.0
 17
0.0
 27
1.0
 37
0.0
 76
     0
330
1F
  0
MLINESTYLE
  5
18
102
{ACAD_REACTORS
330
17
102
}
330
17
100
AcDbMlineStyle
  2
Standard
 70
     0
  3

 62
   256
 51
90.0
 52
90.0
 71
     2
 49
0.5
 62
   256
  6
BYLAYER
 49
-0.5
 62
   256
  6
BYLAYER
  0
ACDBPLACEHOLDER
  5
F
102
{ACAD_REACTORS
330
E
102
}
330
E
  0
ENDSEC
  0
EOF
