  0
SECTION
  2
HEADER
  9
$ACADVER
  1
AC1015
  9
$ACADMAINTVER
 70
     6
  9
$DWGCODEPAGE
  3
DOS932
  9
$INSBASE
 10
0.0
 20
0.0
 30
0.0
  9
$EXTMIN
 10
0.0
 20
0.0
 30
0.0
  9
$EXTMAX
 10
210.0
 20
297.0
 30
0.0
  9
$LIMMIN
 10
0.0
 20
0.0
  9
$LIMMAX
 10
0.0
 20
0.0
  9
$ORTHOMODE
 70
     0
  9
$REGENMODE
 70
     1
  9
$FILLMODE
 70
     1
  9
$QTEXTMODE
 70
     0
  9
$MIRRTEXT
 70
     1
  9
$LTSCALE
 40
1.0
  9
$ATTMODE
 70
     1
  9
$TEXTSIZE
 40
3.5
  9
$TRACEWID
 40
1.0
  9
$TEXTSTYLE
  7
Standard
  9
$CLAYER
  8
0
  9
$CELTYPE
  6
ByLayer
  9
$CECOLOR
 62
   256
  9
$CELTSCALE
 40
1.0
  9
$DISPSILH
 70
     0
  9
$DIMSCALE
 40
1.0
  9
$DIMASZ
 40
3.0
  9
$DIMEXO
 40
1.0
  9
$DIMDLI
 40
3.75
  9
$DIMRND
 40
0.0
  9
$DIMDLE
 40
0.0
  9
$DIMEXE
 40
1.0
  9
$DIMTP
 40
0.0
  9
$DIMTM
 40
0.0
  9
$DIMTXT
 40
3.5
  9
$DIMCEN
 40
2.5
  9
$DIMTSZ
 40
0.0
  9
$DIMTOL
 70
     0
  9
$DIMLIM
 70
     0
  9
$DIMTIH
 70
     1
  9
$DIMTOH
 70
     1
  9
$DIMSE1
 70
     0
  9
$DIMSE2
 70
     0
  9
$DIMTAD
 70
     1
  9
$DIMZIN
 70
     1
  9
$DIMBLK
  1

  9
$DIMASO
 70
     1
  9
$DIMSHO
 70
     1
  9
$DIMPOST
  1

  9
$DIMAPOST
  1

  9
$DIMALT
 70
     0
  9
$DIMALTD
 70
     3
  9
$DIMALTF
 40
0.0393700787
  9
$DIMLFAC
 40
1.0
  9
$DIMTOFL
 70
     1
  9
$DIMTVP
 40
0.0
  9
$DIMTIX
 70
     0
  9
$DIMSOXD
 70
     0
  9
$DIMSAH
 70
     0
  9
$DIMBLK1
  1

  9
$DIMBLK2
  1

  9
$DIMSTYLE
  2
ISO-25
  9
$DIMCLRD
 70
     0
  9
$DIMCLRE
 70
     0
  9
$DIMCLRT
 70
     0
  9
$DIMTFAC
 40
1.0
  9
$DIMGAP
 40
1.524
  9
$DIMJUST
 70
     0
  9
$DIMSD1
 70
     0
  9
$DIMSD2
 70
     0
  9
$DIMTOLJ
 70
     0
  9
$DIMTZIN
 70
     1
  9
$DIMALTZ
 70
     0
  9
$DIMALTTZ
 70
     0
  9
$DIMUPT
 70
     0
  9
$DIMDEC
 70
     2
  9
$DIMTDEC
 70
     2
  9
$DIMALTU
 70
     2
  9
$DIMALTTD
 70
     3
  9
$DIMTXSTY
  7
Standard
  9
$DIMAUNIT
 70
     0
  9
$DIMADEC
 70
     0
  9
$DIMALTRND
 40
0.0
  9
$DIMAZIN
 70
     0
  9
$DIMDSEP
 70
    44
  9
$DIMATFIT
 70
     3
  9
$DIMFRAC
 70
     0
  9
$DIMLDRBLK
  1

  9
$DIMLUNIT
 70
     2
  9
$DIMLWD
 70
    -2
  9
$DIMLWE
 70
    -2
  9
$DIMTMOVE
 70
     0
  9
$LUNITS
 70
     2
  9
$LUPREC
 70
     1
  9
$SKETCHINC
 40
1.0
  9
$FILLETRAD
 40
10.0
  9
$AUNITS
 70
     0
  9
$AUPREC
 70
     0
  9
$MENU
  1
.
  9
$ELEVATION
 40
0.0
  9
$PELEVATION
 40
0.0
  9
$THICKNESS
 40
0.0
  9
$LIMCHECK
 70
     0
  9
$CHAMFERA
 40
10.0
  9
$CHAMFERB
 40
10.0
  9
$CHAMFERC
 40
20.0
  9
$CHAMFERD
 40
0.0
  9
$SKPOLY
 70
     0
  9
$TDCREATE
 40
2454309.423115046
  9
$TDUCREATE
 40
2454309.048115046
  9
$TDUPDATE
 40
2454309.423115058
  9
$TDUUPDATE
 40
2454309.048115058
  9
$TDINDWG
 40
0.0000000116
  9
$TDUSRTIMER
 40
0.0000000116
  9
$USRTIMER
 70
     1
  9
$ANGBASE
 50
0.0
  9
$ANGDIR
 70
     0
  9
$PDMODE
 70
     0
  9
$PDSIZE
 40
-1.0
  9
$PLINEWID
 40
0.0
  9
$SPLFRAME
 70
     0
  9
$SPLINETYPE
 70
     6
  9
$SPLINESEGS
 70
     8
  9
$HANDSEED
  5
24B
  9
$SURFTAB1
 70
     6
  9
$SURFTAB2
 70
     6
  9
$SURFTYPE
 70
     6
  9
$SURFU
 70
     6
  9
$SURFV
 70
     6
  9
$UCSBASE
  2

  9
$UCSNAME
  2

  9
$UCSORG
 10
0.0
 20
0.0
 30
0.0
  9
$UCSXDIR
 10
1.0
 20
0.0
 30
0.0
  9
$UCSYDIR
 10
0.0
 20
1.0
 30
0.0
  9
$UCSORTHOREF
  2

  9
$UCSORTHOVIEW
 70
     0
  9
$UCSORGTOP
 10
0.0
 20
0.0
 30
0.0
  9
$UCSORGBOTTOM
 10
0.0
 20
0.0
 30
0.0
  9
$UCSORGLEFT
 10
0.0
 20
0.0
 30
0.0
  9
$UCSORGRIGHT
 10
0.0
 20
0.0
 30
0.0
  9
$UCSORGFRONT
 10
0.0
 20
0.0
 30
0.0
  9
$UCSORGBACK
 10
0.0
 20
0.0
 30
0.0
  9
$PUCSBASE
  2

  9
$PUCSNAME
  2

  9
$PUCSORG
 10
0.0
 20
0.0
 30
0.0
  9
$PUCSXDIR
 10
1.0
 20
0.0
 30
0.0
  9
$PUCSYDIR
 10
0.0
 20
1.0
 30
0.0
  9
$PUCSORTHOREF
  2

  9
$PUCSORTHOVIEW
 70
     0
  9
$PUCSORGTOP
 10
0.0
 20
0.0
 30
0.0
  9
$PUCSORGBOTTOM
 10
0.0
 20
0.0
 30
0.0
  9
$PUCSORGLEFT
 10
0.0
 20
0.0
 30
0.0
  9
$PUCSORGRIGHT
 10
0.0
 20
0.0
 30
0.0
  9
$PUCSORGFRONT
 10
0.0
 20
0.0
 30
0.0
  9
$PUCSORGBACK
 10
0.0
 20
0.0
 30
0.0
  9
$USERI1
 70
     0
  9
$USERI2
 70
     0
  9
$USERI3
 70
     0
  9
$USERI4
 70
     0
  9
$USERI5
 70
     0
  9
$USERR1
 40
0.0
  9
$USERR2
 40
0.0
  9
$USERR3
 40
0.0
  9
$USERR4
 40
0.0
  9
$USERR5
 40
0.0
  9
$WORLDVIEW
 70
     1
  9
$SHADEDGE
 70
     3
  9
$SHADEDIF
 70
    70
  9
$TILEMODE
 70
     1
  9
$MAXACTVP
 70
    64
  9
$PINSBASE
 10
0.0
 20
0.0
 30
0.0
  9
$PLIMCHECK
 70
     0
  9
$PEXTMIN
 10
1.0000000000E+20
 20
1.0000000000E+20
 30
1.0000000000E+20
  9
$PEXTMAX
 10
-1.0000000000E+20
 20
-1.0000000000E+20
 30
-1.0000000000E+20
  9
$PLIMMIN
 10
0.0
 20
0.0
  9
$PLIMMAX
 10
420.0
 20
297.0
  9
$UNITMODE
 70
     0
  9
$VISRETAIN
 70
     1
  9
$PLINEGEN
 70
     0
  9
$PSLTSCALE
 70
     1
  9
$TREEDEPTH
 70
  3020
  9
$CMLSTYLE
  2
Standard
  9
$CMLJUST
 70
     0
  9
$CMLSCALE
 40
20.0
  9
$PROXYGRAPHICS
 70
     1
  9
$MEASUREMENT
 70
     1
  9
$CELWEIGHT
370
    -1
  9
$ENDCAPS
280
     0
  9
$JOINSTYLE
280
     0
  9
$LWDISPLAY
290
     1
  9
$INSUNITS
 70
     4
  9
$HYPERLINKBASE
  1

  9
$STYLESHEET
  1

  9
$XEDIT
290
     1
  9
$CEPSNTYPE
380
     0
  9
$PSTYLEMODE
290
     1
  9
$FINGERPRINTGUID
  2
{4083A20E-0143-4A6B-B54F-D404BB10D193}
  9
$VERSIONGUID
  2
{FAEB1C32-E019-11D5-929B-00C0DF256EC4}
  9
$EXTNAMES
290
     1
  9
$PSVPSCALE
 40
0.0
  9
$OLESTARTUP
290
     0
  0
ENDSEC
  0
SECTION
  2
CLASSES
  0
CLASS
  1
ACDBDICTIONARYWDFLT
  2
AcDbDictionaryWithDefault
  3
ObjectDBX Classes
 90
        0
280
     0
281
     0
  0
CLASS
  1
ACDBPLACEHOLDER
  2
AcDbPlaceHolder
  3
ObjectDBX Classes
 90
        0
280
     0
281
     0
  0
CLASS
  1
LAYOUT
  2
AcDbLayout
  3
ObjectDBX Classes
 90
        0
280
     0
281
     0
  0
ENDSEC
  0
SECTION
  2
TABLES
  0
TABLE
  2
VPORT
  5
8
330
0
100
AcDbSymbolTable
 70
     1
  0
VPORT
  5
29
330
8
100
AcDbSymbolTableRecord
100
AcDbViewportTableRecord
  2
*Active
 70
     0
 10
0.0
 20
0.0
 11
1.0
 21
1.0
 12
105.0
 22
148.5
 13
0.0
 23
0.0
 14
10.0
 24
10.0
 15
10.0
 25
10.0
 16
0.0
 26
0.0
 36
1.0
 17
0.0
 27
0.0
 37
0.0
 40
297.0
 41
1.9729729729
 42
50.0
 43
0.0
 44
0.0
 50
0.0
 51
0.0
 71
     0
 72
  2000
 73
     1
 74
     3
 75
     0
 76
     0
 77
     0
 78
     0
281
     0
 65
     1
110
0.0
120
0.0
130
0.0
111
1.0
121
0.0
131
0.0
112
0.0
122
1.0
132
0.0
 79
     0
146
0.0
  0
ENDTAB
  0
TABLE
  2
LTYPE
  5
5
330
0
100
AcDbSymbolTable
 70
     6
  0
LTYPE
  5
14
330
5
100
AcDbSymbolTableRecord
100
AcDbLinetypeTableRecord
  2
ByBlock
 70
     0
  3

 72
    65
 73
     0
 40
0.0
  0
LTYPE
  5
15
330
5
100
AcDbSymbolTableRecord
100
AcDbLinetypeTableRecord
  2
ByLayer
 70
     0
  3

 72
    65
 73
     0
 40
0.0
  0
LTYPE
  5
16
330
5
100
AcDbSymbolTableRecord
100
AcDbLinetypeTableRecord
  2
Continuous
 70
     0
  3
Solid line
 72
    65
 73
     0
 40
0.0
  0
LTYPE
  5
2A
330
5
100
AcDbSymbolTableRecord
100
AcDbLinetypeTableRecord
  2
HIDDEN
 70
     0
  3
Hidden __ __ __ __ __ __ __ __ __ __ __ __ __ __
 72
    65
 73
     2
 40
1.905
 49
1.27
 74
     0
 49
-0.635
 74
     0
  0
LTYPE
  5
2B
330
5
100
AcDbSymbolTableRecord
100
AcDbLinetypeTableRecord
  2
PHANTOM
 70
     0
  3
Phantom ______  __  __  ______  __  __  ______
 72
    65
 73
     6
 40
12.7
 49
6.35
 74
     0
 49
-1.27
 74
     0
 49
1.27
 74
     0
 49
-1.27
 74
     0
 49
1.27
 74
     0
 49
-1.27
 74
     0
  0
LTYPE
  5
2C
330
5
100
AcDbSymbolTableRecord
100
AcDbLinetypeTableRecord
  2
CENTER
 70
     0
  3
Center ____ _ ____ _ ____ _ ____ _ ____ _ ____
 72
    65
 73
     4
 40
10.16
 49
6.35
 74
     0
 49
-1.27
 74
     0
 49
1.27
 74
     0
 49
-1.27
 74
     0
  0
LTYPE
  5
2D
330
5
100
AcDbSymbolTableRecord
100
AcDbLinetypeTableRecord
  2
CENTERX2
 70
     0
  3
Center (2x) ________  __  ________  __  _____
 72
    65
 73
     4
 40
20.32
 49
12.7
 74
     0
 49
-2.54
 74
     0
 49
2.54
 74
     0
 49
-2.54
 74
     0
  0
LTYPE
  5
2E
330
5
100
AcDbSymbolTableRecord
100
AcDbLinetypeTableRecord
  2
DOT2
 70
     0
  3
Dot (.5x) ........................................
 72
    65
 73
     2
 40
0.635
 49
0.0
 74
     0
 49
-0.635
 74
     0
  0
ENDTAB
  0
TABLE
  2
LAYER
  5
2
330
0
100
AcDbSymbolTable
 70
     4
  0
LAYER
  5
10
330
2
100
AcDbSymbolTableRecord
100
AcDbLayerTableRecord
  2
0
 70
     0
 62
     7
  6
Continuous
370
    -3
390
F
  0
LAYER
  5
2F
330
2
100
AcDbSymbolTableRecord
100
AcDbLayerTableRecord
  2
SLD-0
 70
     0
 62
   179
  6
Continuous
370
     0
390
F
  0
LAYER
  5
30
330
2
100
AcDbSymbolTableRecord
100
AcDbLayerTableRecord
  2
SLD-DEFPOINTS
 70
     0
 62
   179
  6
Continuous
370
     0
390
F
  0
LAYER
  5
1AF
330
2
100
AcDbSymbolTableRecord
100
AcDbLayerTableRecord
  2
Defpoints
 70
     0
 62
     7
  6
Continuous
290
     0
370
    -3
390
F
  0
ENDTAB
  0
TABLE
  2
STYLE
  5
3
330
0
100
AcDbSymbolTable
 70
     3
  0
STYLE
  5
11
330
3
100
AcDbSymbolTableRecord
100
AcDbTextStyleTableRecord
  2
Standard
 70
     0
 40
0.0
 41
1.0
 50
0.0
 71
     0
 42
2.5
  3
txt
  4
bigfont
  0
STYLE
  5
34
330
3
100
AcDbSymbolTableRecord
100
AcDbTextStyleTableRecord
  2
SLDTEXTSTYLE0
 70
     0
 40
0.0
 41
0.7
 50
0.0
 71
     0
 42
0.2
  3
TXT
  4
bigfont
  0
STYLE
  5
3C
330
3
100
AcDbSymbolTableRecord
100
AcDbTextStyleTableRecord
  2
SLDTEXTSTYLE1
 70
     0
 40
0.0
 41
0.5526315789
 50
0.0
 71
     0
 42
0.2
  3
TXT
  4
bigfont
  0
ENDTAB
  0
TABLE
  2
VIEW
  5
6
330
0
100
AcDbSymbolTable
 70
     0
  0
ENDTAB
  0
TABLE
  2
UCS
  5
7
330
0
100
AcDbSymbolTable
 70
     0
  0
ENDTAB
  0
TABLE
  2
APPID
  5
9
330
0
100
AcDbSymbolTable
 70
     1
  0
APPID
  5
12
330
9
100
AcDbSymbolTableRecord
100
AcDbRegAppTableRecord
  2
ACAD
 70
     0
  0
ENDTAB
  0
TABLE
  2
DIMSTYLE
  5
A
330
0
100
AcDbSymbolTable
 70
     4
100
AcDbDimStyleTable
  0
DIMSTYLE
105
27
330
A
100
AcDbSymbolTableRecord
100
AcDbDimStyleTableRecord
  2
ISO-25
 70
     0
 41
2.5
 42
0.625
 43
3.75
 44
1.25
 73
     0
 74
     0
 77
     1
 78
     8
140
2.5
141
2.5
143
0.0393700787
147
0.625
171
     3
172
     1
271
     2
272
     2
274
     3
278
    44
283
     0
284
     8
340
11
  0
DIMSTYLE
105
1BF
102
{ACAD_REACTORS
330
1AE
330
20F
330
229
102
}
330
A
100
AcDbSymbolTableRecord
100
AcDbDimStyleTableRecord
  2
SLDDIMSTYLE0
 70
     0
 41
3.0
 44
0.0
 73
     0
 74
     0
 77
     3
 78
    12
140
3.5
147
0.875
173
     1
271
     1
272
     3
284
    12
340
3C
341
1C0
343
1C0
344
1C0
  0
DIMSTYLE
105
1DC
102
{ACAD_REACTORS
330
1CF
330
1E7
102
}
330
A
100
AcDbSymbolTableRecord
100
AcDbDimStyleTableRecord
  2
SLDDIMSTYLE1
 70
     0
 41
3.0
 44
0.0
 73
     0
 74
     0
 77
     3
 78
    12
140
3.5
147
0.875
173
     1
271
     0
272
     3
284
    12
340
3C
341
1C0
343
1C0
344
1C0
  0
DIMSTYLE
105
208
102
{ACAD_REACTORS
330
1FE
102
}
330
A
100
AcDbSymbolTableRecord
100
AcDbDimStyleTableRecord
  2
SLDDIMSTYLE2
 70
     0
 41
3.0
 44
0.0
 78
    12
140
3.5
147
0.875
172
     1
173
     1
271
     0
272
     3
284
    12
340
3C
341
1C0
343
1C0
344
1C0
  0
ENDTAB
  0
TABLE
  2
BLOCK_RECORD
  5
1
330
0
100
AcDbSymbolTable
 70
    12
  0
BLOCK_RECORD
  5
1F
330
1
100
AcDbSymbolTableRecord
100
AcDbBlockTableRecord
  2
*Model_Space
340
22
  0
BLOCK_RECORD
  5
1B
330
1
100
AcDbSymbolTableRecord
100
AcDbBlockTableRecord
  2
*Paper_Space
340
1E
  0
BLOCK_RECORD
  5
23
330
1
100
AcDbSymbolTableRecord
100
AcDbBlockTableRecord
  2
*Paper_Space0
340
26
  0
BLOCK_RECORD
  5
31
330
1
100
AcDbSymbolTableRecord
100
AcDbBlockTableRecord
  2
注記
340
0
102
{BLKREFS
331
248
102
}
  0
BLOCK_RECORD
  5
37
330
1
100
AcDbSymbolTableRecord
100
AcDbBlockTableRecord
  2
SURFACEFINISH39
340
0
102
{BLKREFS
331
247
102
}
  0
BLOCK_RECORD
  5
3E
330
1
100
AcDbSymbolTableRecord
100
AcDbBlockTableRecord
  2
SW_CENTERMARK0
340
0
102
{BLKREFS
331
249
102
}
  0
BLOCK_RECORD
  5
49
330
1
100
AcDbSymbolTableRecord
100
AcDbBlockTableRecord
  2
SW_CENTERMARK1
340
0
102
{BLKREFS
331
24A
102
}
  0
BLOCK_RECORD
  5
1B0
330
1
100
AcDbSymbolTableRecord
100
AcDbBlockTableRecord
  2
*D5
340
0
  0
BLOCK_RECORD
  5
1C0
330
1
100
AcDbSymbolTableRecord
100
AcDbBlockTableRecord
  2
_None
340
0
102
{BLKREFS
331
1B6
331
1B5
331
1D5
331
1D4
331
1ED
331
1EC
331
203
331
215
331
214
331
230
331
22F
102
}
  0
BLOCK_RECORD
  5
1D0
330
1
100
AcDbSymbolTableRecord
100
AcDbBlockTableRecord
  2
*D7
340
0
  0
BLOCK_RECORD
  5
1E8
330
1
100
AcDbSymbolTableRecord
100
AcDbBlockTableRecord
  2
*D8
340
0
  0
BLOCK_RECORD
  5
1FF
330
1
100
AcDbSymbolTableRecord
100
AcDbBlockTableRecord
  2
*D9
340
0
  0
BLOCK_RECORD
  5
210
330
1
100
AcDbSymbolTableRecord
100
AcDbBlockTableRecord
  2
*D10
340
0
  0
BLOCK_RECORD
  5
22A
330
1
100
AcDbSymbolTableRecord
100
AcDbBlockTableRecord
  2
*D11
340
0
  0
ENDTAB
  0
ENDSEC
  0
SECTION
  2
BLOCKS
  0
BLOCK
  5
20
330
1F
100
AcDbEntity
  8
0
100
AcDbBlockBegin
  2
*Model_Space
 70
     0
 71
     0
 10
0.0
 20
0.0
 30
0.0
  3
*Model_Space
  1

  0
ENDBLK
  5
21
330
1F
100
AcDbEntity
  8
0
100
AcDbBlockEnd
  0
BLOCK
  5
1C
330
1B
100
AcDbEntity
 67
     1
  8
0
100
AcDbBlockBegin
  2
*Paper_Space
 70
     0
 71
     0
 10
0.0
 20
0.0
 30
0.0
  3
*Paper_Space
  1

  0
ENDBLK
  5
1D
330
1B
100
AcDbEntity
 67
     1
  8
0
100
AcDbBlockEnd
  0
BLOCK
  5
24
330
23
100
AcDbEntity
  8
0
100
AcDbBlockBegin
  2
*Paper_Space0
 70
     0
 71
     0
 10
0.0
 20
0.0
 30
0.0
  3
*Paper_Space0
  1

  0
ENDBLK
  5
25
330
23
100
AcDbEntity
  8
0
100
AcDbBlockEnd
  0
BLOCK
  5
32
330
31
100
AcDbEntity
  8
0
100
AcDbBlockBegin
  2
注記
 70
     0
 71
     0
 10
0.0
 20
0.0
 30
0.0
  3
注記
  1

  0
MTEXT
  5
35
330
31
100
AcDbEntity
  8
0
  6
Continuous
 62
     7
370
     0
100
AcDbMText
 10
0.2636785918
 20
9.0739778448
 30
0.0
 40
3.5
 41
0.0
 71
     1
 72
     1
  1
１．特記ナキ角部ハ、バリ　カエリノ無キコト。
  7
SLDTEXTSTYLE0
 73
     1
 44
1.0
  0
MTEXT
  5
36
330
31
100
AcDbEntity
  8
0
  6
Continuous
 62
     7
370
     0
100
AcDbMText
 10
0.2636785918
 20
3.5759549983
 30
0.0
 40
3.5
 41
0.0
 71
     1
 72
     1
  1
２．特記ナキ隅部ハ、Ｒ０．４ＭＡＸトスル。
  7
SLDTEXTSTYLE0
 73
     1
 44
1.0
  0
ENDBLK
  5
33
330
31
100
AcDbEntity
  8
0
100
AcDbBlockEnd
  0
BLOCK
  5
38
330
37
100
AcDbEntity
  8
0
100
AcDbBlockBegin
  2
SURFACEFINISH39
 70
     0
 71
     0
 10
0.0
 20
0.0
 30
0.0
  3
SURFACEFINISH39
  1

  0
LINE
  5
3A
330
37
100
AcDbEntity
  8
SLD-0
  6
Continuous
 62
   179
100
AcDbLine
 10
0.6656399396
 20
-6.0449245738
 30
0.0
 11
-2.9003789868
 21
0.0000001164
 31
0.0
  0
LINE
  5
3B
330
37
100
AcDbEntity
  8
SLD-0
  6
Continuous
 62
   179
100
AcDbLine
 10
0.6656399396
 20
-6.0449245738
 30
0.0
 11
7.7976777926
 21
6.0449248066
 31
0.0
  0
MTEXT
  5
3D
330
37
100
AcDbEntity
  8
SLD-0
100
AcDbMText
 10
0.0
 20
4.9341236929
 30
0.0
 40
3.175
 41
0.0
 71
     1
 72
     1
  1
25
  7
SLDTEXTSTYLE1
 73
     1
 44
1.0
  0
ENDBLK
  5
39
330
37
100
AcDbEntity
  8
0
100
AcDbBlockEnd
  0
BLOCK
  5
3F
330
3E
100
AcDbEntity
  8
0
100
AcDbBlockBegin
  2
SW_CENTERMARK0
 70
     0
 71
     0
 10
0.0
 20
0.0
 30
0.0
  3
SW_CENTERMARK0
  1

  0
LINE
  5
41
330
3E
100
AcDbEntity
  8
SLD-0
  6
Continuous
 62
   179
100
AcDbLine
 10
102.3610397294
 20
189.5271749624
 30
0.0
 11
102.3610397946
 21
192.0271758665
 31
0.0
  0
LINE
  5
42
330
3E
100
AcDbEntity
  8
SLD-0
  6
Continuous
 62
   179
100
AcDbLine
 10
102.3610397294
 20
189.5271749624
 30
0.0
 11
99.8610397946
 21
189.5271758665
 31
0.0
  0
LINE
  5
43
330
3E
100
AcDbEntity
  8
SLD-0
  6
Continuous
 62
   179
100
AcDbLine
 10
102.3610397294
 20
189.5271749624
 30
0.0
 11
102.3610397946
 21
187.0271758665
 31
0.0
  0
LINE
  5
44
330
3E
100
AcDbEntity
  8
SLD-0
  6
Continuous
 62
   179
100
AcDbLine
 10
102.3610397294
 20
189.5271749624
 30
0.0
 11
104.8610397946
 21
189.5271758665
 31
0.0
  0
LINE
  5
45
330
3E
100
AcDbEntity
  8
SLD-0
  6
Continuous
 62
   179
100
AcDbLine
 10
102.3610397946
 20
192.0271758665
 30
0.0
 11
102.3610397946
 21
194.5271758665
 31
0.0
  0
LINE
  5
46
330
3E
100
AcDbEntity
  8
SLD-0
  6
Continuous
 62
   179
100
AcDbLine
 10
99.8610397946
 20
189.5271758665
 30
0.0
 11
97.3610397946
 21
189.5271758665
 31
0.0
  0
LINE
  5
47
330
3E
100
AcDbEntity
  8
SLD-0
  6
Continuous
 62
   179
100
AcDbLine
 10
102.3610397946
 20
187.0271758665
 30
0.0
 11
102.3610397946
 21
184.5271758665
 31
0.0
  0
LINE
  5
48
330
3E
100
AcDbEntity
  8
SLD-0
  6
Continuous
 62
   179
100
AcDbLine
 10
104.8610397946
 20
189.5271758665
 30
0.0
 11
107.3610397946
 21
189.5271758665
 31
0.0
  0
ENDBLK
  5
40
330
3E
100
AcDbEntity
  8
0
100
AcDbBlockEnd
  0
BLOCK
  5
4A
330
49
100
AcDbEntity
  8
0
100
AcDbBlockBegin
  2
SW_CENTERMARK1
 70
     0
 71
     0
 10
0.0
 20
0.0
 30
0.0
  3
SW_CENTERMARK1
  1

  0
LINE
  5
4C
330
49
100
AcDbEntity
  8
SLD-0
  6
Continuous
 62
   179
100
AcDbLine
 10
117.3610398598
 20
189.5271749624
 30
0.0
 11
117.3610397946
 21
192.0271758665
 31
0.0
  0
LINE
  5
4D
330
49
100
AcDbEntity
  8
SLD-0
  6
Continuous
 62
   179
100
AcDbLine
 10
117.3610398598
 20
189.5271749624
 30
0.0
 11
114.8610397946
 21
189.5271758665
 31
0.0
  0
LINE
  5
4E
330
49
100
AcDbEntity
  8
SLD-0
  6
Continuous
 62
   179
100
AcDbLine
 10
117.3610398598
 20
189.5271749624
 30
0.0
 11
117.3610397946
 21
187.0271758665
 31
0.0
  0
LINE
  5
4F
330
49
100
AcDbEntity
  8
SLD-0
  6
Continuous
 62
   179
100
AcDbLine
 10
117.3610398598
 20
189.5271749624
 30
0.0
 11
119.8610397946
 21
189.5271758665
 31
0.0
  0
LINE
  5
50
330
49
100
AcDbEntity
  8
SLD-0
  6
Continuous
 62
   179
100
AcDbLine
 10
117.3610397946
 20
192.0271758665
 30
0.0
 11
117.3610397946
 21
194.5271758665
 31
0.0
  0
LINE
  5
51
330
49
100
AcDbEntity
  8
SLD-0
  6
Continuous
 62
   179
100
AcDbLine
 10
114.8610397946
 20
189.5271758665
 30
0.0
 11
112.3610397946
 21
189.5271758665
 31
0.0
  0
LINE
  5
52
330
49
100
AcDbEntity
  8
SLD-0
  6
Continuous
 62
   179
100
AcDbLine
 10
117.3610397946
 20
187.0271758665
 30
0.0
 11
117.3610397946
 21
184.5271758665
 31
0.0
  0
LINE
  5
53
330
49
100
AcDbEntity
  8
SLD-0
  6
Continuous
 62
   179
100
AcDbLine
 10
119.8610397946
 20
189.5271758665
 30
0.0
 11
122.3610397946
 21
189.5271758665
 31
0.0
  0
ENDBLK
  5
4B
330
49
100
AcDbEntity
  8
0
100
AcDbBlockEnd
  0
BLOCK
  5
1BD
330
1B0
100
AcDbEntity
  8
0
100
AcDbBlockBegin
  2
*D5
 70
     1
 71
     0
 10
0.0
 20
0.0
 30
0.0
  3
*D5
  1

  0
LINE
  5
1C3
330
1B0
100
AcDbEntity
  8
SLD-0
 62
     7
100
AcDbLine
 10
122.8610397946
 20
195.8271758665
 30
0.0
 11
122.8610397946
 21
208.628788066
 31
0.0
  0
LINE
  5
1C4
330
1B0
100
AcDbEntity
  8
SLD-0
 62
     7
100
AcDbLine
 10
117.3610397946
 20
195.5271758665
 30
0.0
 11
117.3610397946
 21
208.628788066
 31
0.0
  0
LINE
  5
1C5
330
1B0
100
AcDbEntity
  8
SLD-0
 62
     7
100
AcDbLine
 10
122.8610397946
 20
207.628788066
 30
0.0
 11
134.2536879748
 21
207.628788066
 31
0.0
  0
LINE
  5
1C6
330
1B0
100
AcDbEntity
  8
SLD-0
 62
     7
100
AcDbLine
 10
122.8610397946
 20
207.628788066
 30
0.0
 11
117.3610397946
 21
207.628788066
 31
0.0
  0
LINE
  5
1C7
330
1B0
100
AcDbEntity
  8
SLD-0
 62
     7
100
AcDbLine
 10
117.3610397946
 20
207.628788066
 30
0.0
 11
112.3610397946
 21
207.628788066
 31
0.0
  0
LINE
  5
1C8
330
1B0
100
AcDbEntity
  8
SLD-0
 62
     7
100
AcDbLine
 10
125.8610397946
 20
206.824941066
 30
0.0
 11
122.8610397946
 21
207.628788066
 31
0.0
  0
LINE
  5
1C9
330
1B0
100
AcDbEntity
  8
SLD-0
 62
     7
100
AcDbLine
 10
122.8610397946
 20
207.628788066
 30
0.0
 11
125.8610397946
 21
208.432635066
 31
0.0
  0
LINE
  5
1CA
330
1B0
100
AcDbEntity
  8
SLD-0
 62
     7
100
AcDbLine
 10
122.8610397946
 20
207.628788066
 30
0.0
 11
125.8610397946
 21
207.628788066
 31
0.0
  0
LINE
  5
1CB
330
1B0
100
AcDbEntity
  8
SLD-0
 62
     7
100
AcDbLine
 10
114.3610397946
 20
208.432635066
 30
0.0
 11
117.3610397946
 21
207.628788066
 31
0.0
  0
LINE
  5
1CC
330
1B0
100
AcDbEntity
  8
SLD-0
 62
     7
100
AcDbLine
 10
117.3610397946
 20
207.628788066
 30
0.0
 11
114.3610397946
 21
206.824941066
 31
0.0
  0
LINE
  5
1CD
330
1B0
100
AcDbEntity
  8
SLD-0
 62
     7
100
AcDbLine
 10
117.3610397946
 20
207.628788066
 30
0.0
 11
114.3610397946
 21
207.628788066
 31
0.0
  0
MTEXT
  5
1CE
330
1B0
100
AcDbEntity
  8
SLD-0
 62
     7
100
AcDbMText
 10
126.5562280231
 20
212.1554817619
 30
0.1
 40
3.5
 41
0.0
 71
     1
 72
     1
  1
5.5
  7
SLDTEXTSTYLE0
 73
     1
 44
1.0
  0
ENDBLK
  5
1BE
330
1B0
100
AcDbEntity
  8
0
100
AcDbBlockEnd
  0
BLOCK
  5
1C1
330
1C0
100
AcDbEntity
  8
0
100
AcDbBlockBegin
  2
_None
 70
     0
 71
     0
 10
0.0
 20
0.0
 30
0.0
  3
_None
  1

  0
ENDBLK
  5
1C2
330
1C0
100
AcDbEntity
  8
0
100
AcDbBlockEnd
  0
BLOCK
  5
1DA
330
1D0
100
AcDbEntity
  8
0
100
AcDbBlockBegin
  2
*D7
 70
     1
 71
     0
 10
0.0
 20
0.0
 30
0.0
  3
*D7
  1

  0
LINE
  5
1DD
330
1D0
100
AcDbEntity
  8
SLD-0
 62
     7
100
AcDbLine
 10
117.3610397946
 20
195.5271758665
 30
0.0
 11
117.3610397946
 21
208.628788066
 31
0.0
  0
LINE
  5
1DE
330
1D0
100
AcDbEntity
  8
SLD-0
 62
     7
100
AcDbLine
 10
102.3610397946
 20
195.5271758665
 30
0.0
 11
102.3610397946
 21
208.628788066
 31
0.0
  0
LINE
  5
1DF
330
1D0
100
AcDbEntity
  8
SLD-0
 62
     7
100
AcDbLine
 10
117.3610397946
 20
207.628788066
 30
0.0
 11
102.3610397946
 21
207.628788066
 31
0.0
  0
LINE
  5
1E0
330
1D0
100
AcDbEntity
  8
SLD-0
 62
     7
100
AcDbLine
 10
114.3610397946
 20
208.432635066
 30
0.0
 11
117.3610397946
 21
207.628788066
 31
0.0
  0
LINE
  5
1E1
330
1D0
100
AcDbEntity
  8
SLD-0
 62
     7
100
AcDbLine
 10
117.3610397946
 20
207.628788066
 30
0.0
 11
114.3610397946
 21
206.824941066
 31
0.0
  0
LINE
  5
1E2
330
1D0
100
AcDbEntity
  8
SLD-0
 62
     7
100
AcDbLine
 10
117.3610397946
 20
207.628788066
 30
0.0
 11
114.3610397946
 21
207.628788066
 31
0.0
  0
LINE
  5
1E3
330
1D0
100
AcDbEntity
  8
SLD-0
 62
     7
100
AcDbLine
 10
105.3610397946
 20
206.824941066
 30
0.0
 11
102.3610397946
 21
207.628788066
 31
0.0
  0
LINE
  5
1E4
330
1D0
100
AcDbEntity
  8
SLD-0
 62
     7
100
AcDbLine
 10
102.3610397946
 20
207.628788066
 30
0.0
 11
105.3610397946
 21
208.432635066
 31
0.0
  0
LINE
  5
1E5
330
1D0
100
AcDbEntity
  8
SLD-0
 62
     7
100
AcDbLine
 10
102.3610397946
 20
207.628788066
 30
0.0
 11
105.3610397946
 21
207.628788066
 31
0.0
  0
MTEXT
  5
1E6
330
1D0
100
AcDbEntity
  8
SLD-0
 62
     7
100
AcDbMText
 10
107.8256045714
 20
212.1554817619
 30
0.1
 40
3.5
 41
0.0
 71
     1
 72
     1
  1
15
  7
SLDTEXTSTYLE0
 73
     1
 44
1.0
  0
ENDBLK
  5
1DB
330
1D0
100
AcDbEntity
  8
0
100
AcDbBlockEnd
  0
BLOCK
  5
1F2
330
1E8
100
AcDbEntity
  8
0
100
AcDbBlockBegin
  2
*D8
 70
     1
 71
     0
 10
0.0
 20
0.0
 30
0.0
  3
*D8
  1

  0
LINE
  5
1F4
330
1E8
100
AcDbEntity
  8
SLD-0
 62
     7
100
AcDbLine
 10
96.8610397946
 20
195.8271758665
 30
0.0
 11
96.8610397946
 21
214.5726708423
 31
0.0
  0
LINE
  5
1F5
330
1E8
100
AcDbEntity
  8
SLD-0
 62
     7
100
AcDbLine
 10
122.8610397946
 20
195.8271758665
 30
0.0
 11
122.8610397946
 21
214.5726708423
 31
0.0
  0
LINE
  5
1F6
330
1E8
100
AcDbEntity
  8
SLD-0
 62
     7
100
AcDbLine
 10
96.8610397946
 20
213.5726708423
 30
0.0
 11
122.8610397946
 21
213.5726708423
 31
0.0
  0
LINE
  5
1F7
330
1E8
100
AcDbEntity
  8
SLD-0
 62
     7
100
AcDbLine
 10
99.8610397946
 20
212.7688238423
 30
0.0
 11
96.8610397946
 21
213.5726708423
 31
0.0
  0
LINE
  5
1F8
330
1E8
100
AcDbEntity
  8
SLD-0
 62
     7
100
AcDbLine
 10
96.8610397946
 20
213.5726708423
 30
0.0
 11
99.8610397946
 21
214.3765178423
 31
0.0
  0
LINE
  5
1F9
330
1E8
100
AcDbEntity
  8
SLD-0
 62
     7
100
AcDbLine
 10
96.8610397946
 20
213.5726708423
 30
0.0
 11
99.8610397946
 21
213.5726708423
 31
0.0
  0
LINE
  5
1FA
330
1E8
100
AcDbEntity
  8
SLD-0
 62
     7
100
AcDbLine
 10
119.8610397946
 20
214.3765178423
 30
0.0
 11
122.8610397946
 21
213.5726708423
 31
0.0
  0
LINE
  5
1FB
330
1E8
100
AcDbEntity
  8
SLD-0
 62
     7
100
AcDbLine
 10
122.8610397946
 20
213.5726708423
 30
0.0
 11
119.8610397946
 21
212.7688238423
 31
0.0
  0
LINE
  5
1FC
330
1E8
100
AcDbEntity
  8
SLD-0
 62
     7
100
AcDbLine
 10
122.8610397946
 20
213.5726708423
 30
0.0
 11
119.8610397946
 21
213.5726708423
 31
0.0
  0
MTEXT
  5
1FD
330
1E8
100
AcDbEntity
  8
SLD-0
 62
     7
100
AcDbMText
 10
107.8256045714
 20
218.0993645383
 30
0.1
 40
3.5
 41
0.0
 71
     1
 72
     1
  1
26
  7
SLDTEXTSTYLE0
 73
     1
 44
1.0
  0
ENDBLK
  5
1F3
330
1E8
100
AcDbEntity
  8
0
100
AcDbBlockEnd
  0
BLOCK
  5
206
330
1FF
100
AcDbEntity
  8
0
100
AcDbBlockBegin
  2
*D9
 70
     1
 71
     0
 10
0.0
 20
0.0
 30
0.0
  3
*D9
  1

  0
LINE
  5
209
330
1FF
100
AcDbEntity
  8
SLD-0
 62
     7
100
AcDbLine
 10
100.8719574728
 20
192.1315248905
 30
0.0
 11
95.2065887643
 21
202.040041868
 31
0.0
  0
LINE
  5
20A
330
1FF
100
AcDbEntity
  8
SLD-0
 62
     7
100
AcDbLine
 10
95.2065887643
 20
202.040041868
 30
0.0
 11
82.2986935894
 21
202.040041868
 31
0.0
  0
LINE
  5
20B
330
1FF
100
AcDbEntity
  8
SLD-0
 62
     7
100
AcDbLine
 10
100.0807078676
 20
195.1348720336
 30
0.0
 11
100.8719574728
 21
192.1315248905
 31
0.0
  0
LINE
  5
20C
330
1FF
100
AcDbEntity
  8
SLD-0
 62
     7
100
AcDbLine
 10
100.8719574728
 20
192.1315248905
 30
0.0
 11
98.6850424343
 21
194.3368757955
 31
0.0
  0
LINE
  5
20D
330
1FF
100
AcDbEntity
  8
SLD-0
 62
     7
100
AcDbLine
 10
100.8719574728
 20
192.1315248905
 30
0.0
 11
99.382875151
 21
194.7358739145
 31
0.0
  0
MTEXT
  5
20E
330
1FF
100
AcDbEntity
  8
SLD-0
 62
     7
100
AcDbMText
 10
83.8861935894
 20
206.566735564
 30
0.1
 40
3.5
 41
0.0
 71
     1
 72
     1
  1
2-M6
  7
SLDTEXTSTYLE0
 73
     1
 44
1.0
  0
ENDBLK
  5
207
330
1FF
100
AcDbEntity
  8
0
100
AcDbBlockEnd
  0
BLOCK
  5
21B
330
210
100
AcDbEntity
  8
0
100
AcDbBlockBegin
  2
*D10
 70
     1
 71
     0
 10
0.0
 20
0.0
 30
0.0
  3
*D10
  1

  0
LINE
  5
21D
330
210
100
AcDbEntity
  8
SLD-0
 62
     7
100
AcDbLine
 10
123.8610397946
 20
194.8271758665
 30
0.0
 11
146.1960699712
 21
194.8271758665
 31
0.0
  0
LINE
  5
21E
330
210
100
AcDbEntity
  8
SLD-0
 62
     7
100
AcDbLine
 10
123.8610397946
 20
184.2271758665
 30
0.0
 11
146.1960699712
 21
184.2271758665
 31
0.0
  0
LINE
  5
21F
330
210
100
AcDbEntity
  8
SLD-0
 62
     7
100
AcDbLine
 10
145.1960699712
 20
194.8271758665
 30
0.0
 11
145.1960699712
 21
199.8271758665
 31
0.0
  0
LINE
  5
220
330
210
100
AcDbEntity
  8
SLD-0
 62
     7
100
AcDbLine
 10
145.1960699712
 20
194.8271758665
 30
0.0
 11
145.1960699712
 21
184.2271758665
 31
0.0
  0
LINE
  5
221
330
210
100
AcDbEntity
  8
SLD-0
 62
     7
100
AcDbLine
 10
145.1960699712
 20
184.2271758665
 30
0.0
 11
145.1960699712
 21
179.2271758665
 31
0.0
  0
LINE
  5
222
330
210
100
AcDbEntity
  8
SLD-0
 62
     7
100
AcDbLine
 10
145.9999169712
 20
197.8271758665
 30
0.0
 11
145.1960699712
 21
194.8271758665
 31
0.0
  0
LINE
  5
223
330
210
100
AcDbEntity
  8
SLD-0
 62
     7
100
AcDbLine
 10
145.1960699712
 20
194.8271758665
 30
0.0
 11
144.3922229712
 21
197.8271758665
 31
0.0
  0
LINE
  5
224
330
210
100
AcDbEntity
  8
SLD-0
 62
     7
100
AcDbLine
 10
145.1960699712
 20
194.8271758665
 30
0.0
 11
145.1960699712
 21
197.8271758665
 31
0.0
  0
LINE
  5
225
330
210
100
AcDbEntity
  8
SLD-0
 62
     7
100
AcDbLine
 10
144.3922229712
 20
181.2271758665
 30
0.0
 11
145.1960699712
 21
184.2271758665
 31
0.0
  0
LINE
  5
226
330
210
100
AcDbEntity
  8
SLD-0
 62
     7
100
AcDbLine
 10
145.1960699712
 20
184.2271758665
 30
0.0
 11
145.9999169712
 21
181.2271758665
 31
0.0
  0
LINE
  5
227
330
210
100
AcDbEntity
  8
SLD-0
 62
     7
100
AcDbLine
 10
145.1960699712
 20
184.2271758665
 30
0.0
 11
145.1960699712
 21
181.2271758665
 31
0.0
  0
MTEXT
  5
228
330
210
100
AcDbEntity
  8
SLD-0
 62
     7
100
AcDbMText
 10
140.6693762753
 20
185.454478279
 30
0.1
 40
3.5
 41
0.0
 71
     1
 72
     1
  1
10.6
  7
SLDTEXTSTYLE0
 11
6.123031769111886E-17
 21
1.0
 31
0.0
 73
     1
 44
1.0
  0
ENDBLK
  5
21C
330
210
100
AcDbEntity
  8
0
100
AcDbBlockEnd
  0
BLOCK
  5
236
330
22A
100
AcDbEntity
  8
0
100
AcDbBlockBegin
  2
*D11
 70
     1
 71
     0
 10
0.0
 20
0.0
 30
0.0
  3
*D11
  1

  0
LINE
  5
238
330
22A
100
AcDbEntity
  8
SLD-0
 62
     7
100
AcDbLine
 10
123.8610397946
 20
184.2271758665
 30
0.0
 11
134.9252181712
 21
184.2271758665
 31
0.0
  0
LINE
  5
239
330
22A
100
AcDbEntity
  8
SLD-0
 62
     7
100
AcDbLine
 10
123.3610397946
 20
189.5271758665
 30
0.0
 11
134.9252181712
 21
189.5271758665
 31
0.0
  0
LINE
  5
23A
330
22A
100
AcDbEntity
  8
SLD-0
 62
     7
100
AcDbLine
 10
133.9252181712
 20
184.2271758665
 30
0.0
 11
133.9252181712
 21
172.5981973864
 31
0.0
  0
LINE
  5
23B
330
22A
100
AcDbEntity
  8
SLD-0
 62
     7
100
AcDbLine
 10
133.9252181712
 20
184.2271758665
 30
0.0
 11
133.9252181712
 21
189.5271758665
 31
0.0
  0
LINE
  5
23C
330
22A
100
AcDbEntity
  8
SLD-0
 62
     7
100
AcDbLine
 10
133.9252181712
 20
189.5271758665
 30
0.0
 11
133.9252181712
 21
194.5271758665
 31
0.0
  0
LINE
  5
23D
330
22A
100
AcDbEntity
  8
SLD-0
 62
     7
100
AcDbLine
 10
133.1213711712
 20
181.2271758665
 30
0.0
 11
133.9252181712
 21
184.2271758665
 31
0.0
  0
LINE
  5
23E
330
22A
100
AcDbEntity
  8
SLD-0
 62
     7
100
AcDbLine
 10
133.9252181712
 20
184.2271758665
 30
0.0
 11
134.7290651712
 21
181.2271758665
 31
0.0
  0
LINE
  5
23F
330
22A
100
AcDbEntity
  8
SLD-0
 62
     7
100
AcDbLine
 10
133.9252181712
 20
184.2271758665
 30
0.0
 11
133.9252181712
 21
181.2271758665
 31
0.0
  0
LINE
  5
240
330
22A
100
AcDbEntity
  8
SLD-0
 62
     7
100
AcDbLine
 10
134.7290651712
 20
192.5271758665
 30
0.0
 11
133.9252181712
 21
189.5271758665
 31
0.0
  0
LINE
  5
241
330
22A
100
AcDbEntity
  8
SLD-0
 62
     7
100
AcDbLine
 10
133.9252181712
 20
189.5271758665
 30
0.0
 11
133.1213711712
 21
192.5271758665
 31
0.0
  0
LINE
  5
242
330
22A
100
AcDbEntity
  8
SLD-0
 62
     7
100
AcDbLine
 10
133.9252181712
 20
189.5271758665
 30
0.0
 11
133.9252181712
 21
192.5271758665
 31
0.0
  0
MTEXT
  5
243
330
22A
100
AcDbEntity
  8
SLD-0
 62
     7
100
AcDbMText
 10
129.3985244753
 20
174.1856973864
 30
0.1
 40
3.5
 41
0.0
 71
     1
 72
     1
  1
5.3
  7
SLDTEXTSTYLE0
 11
6.123031769111886E-17
 21
1.0
 31
0.0
 73
     1
 44
1.0
  0
ENDBLK
  5
237
330
22A
100
AcDbEntity
  8
0
100
AcDbBlockEnd
  0
ENDSEC
  0
SECTION
  2
ENTITIES
  0
LINE
  5
54
330
1F
100
AcDbEntity
  8
SLD-0
  6
Continuous
 62
   179
100
AcDbLine
 10
20.2604743903
 20
285.0
 30
0.0
 11
196.7604743903
 21
285.0
 31
0.0
  0
LINE
  5
55
330
1F
100
AcDbEntity
  8
SLD-0
  6
Continuous
 62
   179
100
AcDbLine
 10
20.2604743903
 20
285.0
 30
0.0
 11
20.2604743903
 21
10.0
 31
0.0
  0
LINE
  5
56
330
1F
100
AcDbEntity
  8
SLD-0
  6
Continuous
 62
   179
100
AcDbLine
 10
20.2604743903
 20
10.0
 30
0.0
 11
196.7604743903
 21
10.0
 31
0.0
  0
LINE
  5
57
330
1F
100
AcDbEntity
  8
SLD-0
  6
Continuous
 62
   179
100
AcDbLine
 10
196.7604743903
 20
285.0
 30
0.0
 11
196.7604743903
 21
10.0
 31
0.0
  0
LINE
  5
58
330
1F
100
AcDbEntity
  8
SLD-0
  6
Continuous
 62
   179
100
AcDbLine
 10
127.0104743903
 20
50.75
 30
0.0
 11
196.7604743903
 21
50.75
 31
0.0
  0
LINE
  5
59
330
1F
100
AcDbEntity
  8
SLD-0
  6
Continuous
 62
   179
100
AcDbLine
 10
127.0104743903
 20
50.75
 30
0.0
 11
127.0104743903
 21
10.0
 31
0.0
  0
LINE
  5
5A
330
1F
100
AcDbEntity
  8
SLD-0
  6
Continuous
 62
   179
100
AcDbLine
 10
127.0104743903
 20
22.75
 30
0.0
 11
196.7604743903
 21
22.75
 31
0.0
  0
LINE
  5
5B
330
1F
100
AcDbEntity
  8
SLD-0
  6
Continuous
 62
   179
100
AcDbLine
 10
127.0104743903
 20
36.75
 30
0.0
 11
196.7604743903
 21
36.75
 31
0.0
  0
LINE
  5
5C
330
1F
100
AcDbEntity
  8
SLD-0
  6
Continuous
 62
   179
100
AcDbLine
 10
122.8610397946
 20
194.8271758665
 30
0.0
 11
96.8610397946
 21
194.8271758665
 31
0.0
  0
LINE
  5
5D
330
1F
100
AcDbEntity
  8
SLD-0
  6
Continuous
 62
   179
100
AcDbLine
 10
96.8610397946
 20
184.2271758665
 30
0.0
 11
122.8610397946
 21
184.2271758665
 31
0.0
  0
LINE
  5
5E
330
1F
100
AcDbEntity
  8
SLD-0
  6
Continuous
 62
   179
100
AcDbLine
 10
122.8610397946
 20
194.8271758665
 30
0.0
 11
122.8610397946
 21
194.3271758665
 31
0.0
  0
LINE
  5
5F
330
1F
100
AcDbEntity
  8
SLD-0
  6
Continuous
 62
   179
100
AcDbLine
 10
96.8610397946
 20
194.8271758665
 30
0.0
 11
96.8610397946
 21
194.3271758665
 31
0.0
  0
LINE
  5
60
330
1F
100
AcDbEntity
  8
SLD-0
  6
Continuous
 62
   179
100
AcDbLine
 10
122.8610397946
 20
194.3271758665
 30
0.0
 11
122.8610397946
 21
192.3514399352
 31
0.0
  0
LINE
  5
61
330
1F
100
AcDbEntity
  8
SLD-0
  6
Continuous
 62
   179
100
AcDbLine
 10
96.8610397946
 20
194.3271758665
 30
0.0
 11
96.8610397946
 21
192.3514399352
 31
0.0
  0
LINE
  5
62
330
1F
100
AcDbEntity
  8
SLD-0
  6
Continuous
 62
   179
100
AcDbLine
 10
96.8610397946
 20
192.3514399352
 30
0.0
 11
96.8610397946
 21
192.1393079009
 31
0.0
  0
LINE
  5
63
330
1F
100
AcDbEntity
  8
SLD-0
  6
Continuous
 62
   179
100
AcDbLine
 10
122.8610397946
 20
192.3514399352
 30
0.0
 11
122.8610397946
 21
192.1393079009
 31
0.0
  0
LINE
  5
64
330
1F
100
AcDbEntity
  8
SLD-0
  6
Continuous
 62
   179
100
AcDbLine
 10
96.8610397946
 20
184.7271758665
 30
0.0
 11
96.8610397946
 21
184.2271758665
 31
0.0
  0
LINE
  5
65
330
1F
100
AcDbEntity
  8
SLD-0
  6
Continuous
 62
   179
100
AcDbLine
 10
122.8610397946
 20
184.7271758665
 30
0.0
 11
122.8610397946
 21
184.2271758665
 31
0.0
  0
LINE
  5
66
330
1F
100
AcDbEntity
  8
SLD-0
  6
Continuous
 62
   179
100
AcDbLine
 10
96.8610397946
 20
186.7029117978
 30
0.0
 11
96.8610397946
 21
184.7271758665
 31
0.0
  0
LINE
  5
67
330
1F
100
AcDbEntity
  8
SLD-0
  6
Continuous
 62
   179
100
AcDbLine
 10
122.8610397946
 20
186.7029117978
 30
0.0
 11
122.8610397946
 21
184.7271758665
 31
0.0
  0
LINE
  5
68
330
1F
100
AcDbEntity
  8
SLD-0
  6
Continuous
 62
   179
100
AcDbLine
 10
96.8610397946
 20
186.9150438321
 30
0.0
 11
96.8610397946
 21
186.7029117978
 31
0.0
  0
LINE
  5
69
330
1F
100
AcDbEntity
  8
SLD-0
  6
Continuous
 62
   179
100
AcDbLine
 10
122.8610397946
 20
186.9150438321
 30
0.0
 11
122.8610397946
 21
186.7029117978
 31
0.0
  0
LINE
  5
6A
330
1F
100
AcDbEntity
  8
SLD-0
  6
Continuous
 62
   179
100
AcDbLine
 10
96.8610397946
 20
192.1393079009
 30
0.0
 11
96.8610397946
 21
191.6150438321
 31
0.0
  0
LINE
  5
6B
330
1F
100
AcDbEntity
  8
SLD-0
  6
Continuous
 62
   179
100
AcDbLine
 10
122.8610397946
 20
192.1393079009
 30
0.0
 11
122.8610397946
 21
191.6150438321
 31
0.0
  0
LINE
  5
6C
330
1F
100
AcDbEntity
  8
SLD-0
  6
Continuous
 62
   179
100
AcDbLine
 10
96.8610397946
 20
187.4393079009
 30
0.0
 11
96.8610397946
 21
186.9150438321
 31
0.0
  0
LINE
  5
6D
330
1F
100
AcDbEntity
  8
SLD-0
  6
Continuous
 62
   179
100
AcDbLine
 10
122.8610397946
 20
187.4393079009
 30
0.0
 11
122.8610397946
 21
186.9150438321
 31
0.0
  0
LINE
  5
6E
330
1F
100
AcDbEntity
  8
SLD-0
  6
Continuous
 62
   179
100
AcDbLine
 10
100.7082799967
 20
191.4029118023
 30
0.0
 11
100.8919880312
 21
191.550017579
 31
0.0
  0
LINE
  5
6F
330
1F
100
AcDbEntity
  8
SLD-0
  6
Continuous
 62
   179
100
AcDbLine
 10
100.8919880312
 20
191.550017579
 30
0.0
 11
100.9859733801
 21
191.6150439181
 31
0.0
  0
LINE
  5
70
330
1F
100
AcDbEntity
  8
SLD-0
  6
Continuous
 62
   179
100
AcDbLine
 10
96.8610397946
 20
191.6150438321
 30
0.0
 11
96.8610397946
 21
191.4029117978
 31
0.0
  0
LINE
  5
71
330
1F
100
AcDbEntity
  8
SLD-0
  6
Continuous
 62
   179
100
AcDbLine
 10
115.708280945
 20
191.4029117503
 30
0.0
 11
115.8919894451
 21
191.550017527
 31
0.0
  0
LINE
  5
72
330
1F
100
AcDbEntity
  8
SLD-0
  6
Continuous
 62
   179
100
AcDbLine
 10
115.8919894451
 20
191.550017527
 30
0.0
 11
115.9859743285
 21
191.6150438661
 31
0.0
  0
LINE
  5
73
330
1F
100
AcDbEntity
  8
SLD-0
  6
Continuous
 62
   179
100
AcDbLine
 10
103.7361052607
 20
191.6150438661
 30
0.0
 11
103.9090490689
 21
191.4902510649
 31
0.0
  0
LINE
  5
74
330
1F
100
AcDbEntity
  8
SLD-0
  6
Continuous
 62
   179
100
AcDbLine
 10
103.9090490689
 20
191.4902510649
 30
0.0
 11
104.0137986442
 21
191.4029117503
 31
0.0
  0
LINE
  5
75
330
1F
100
AcDbEntity
  8
SLD-0
  6
Continuous
 62
   179
100
AcDbLine
 10
119.0138004894
 20
187.6514399307
 30
0.0
 11
118.8300923831
 21
187.5043340911
 31
0.0
  0
LINE
  5
76
330
1F
100
AcDbEntity
  8
SLD-0
  6
Continuous
 62
   179
100
AcDbLine
 10
118.8300923831
 20
187.5043340911
 30
0.0
 11
118.7361070342
 21
187.439307752
 31
0.0
  0
LINE
  5
77
330
1F
100
AcDbEntity
  8
SLD-0
  6
Continuous
 62
   179
100
AcDbLine
 10
122.8610397946
 20
187.6514399352
 30
0.0
 11
122.8610397946
 21
187.4393079009
 31
0.0
  0
LINE
  5
78
330
1F
100
AcDbEntity
  8
SLD-0
  6
Continuous
 62
   179
100
AcDbLine
 10
115.9859735018
 20
187.439307805
 30
0.0
 11
115.8130296937
 21
187.5641006062
 31
0.0
  0
LINE
  5
79
330
1F
100
AcDbEntity
  8
SLD-0
  6
Continuous
 62
   179
100
AcDbLine
 10
115.8130296937
 20
187.5641006062
 30
0.0
 11
115.7082801184
 21
187.6514399208
 31
0.0
  0
LINE
  5
7A
330
1F
100
AcDbEntity
  8
SLD-0
  6
Continuous
 62
   179
100
AcDbLine
 10
104.0137994708
 20
187.6514399208
 30
0.0
 11
103.830090883
 21
187.504334102
 31
0.0
  0
LINE
  5
7B
330
1F
100
AcDbEntity
  8
SLD-0
  6
Continuous
 62
   179
100
AcDbLine
 10
103.830090883
 20
187.504334102
 30
0.0
 11
103.7361059997
 21
187.4393077629
 31
0.0
  0
LINE
  5
7C
330
1F
100
AcDbEntity
  8
SLD-0
  6
Continuous
 62
   179
100
AcDbLine
 10
118.7361062091
 20
191.6150439181
 30
0.0
 11
118.9090500172
 21
191.4902511169
 31
0.0
  0
LINE
  5
7D
330
1F
100
AcDbEntity
  8
SLD-0
  6
Continuous
 62
   179
100
AcDbLine
 10
118.9090500172
 20
191.4902511169
 30
0.0
 11
119.0137995925
 21
191.4029118023
 31
0.0
  0
LINE
  5
7E
330
1F
100
AcDbEntity
  8
SLD-0
  6
Continuous
 62
   179
100
AcDbLine
 10
122.8610397946
 20
191.6150438321
 30
0.0
 11
122.8610397946
 21
191.4029117978
 31
0.0
  0
LINE
  5
7F
330
1F
100
AcDbEntity
  8
SLD-0
  6
Continuous
 62
   179
100
AcDbLine
 10
100.9859724832
 20
187.4393078149
 30
0.0
 11
100.8130286751
 21
187.5641006161
 31
0.0
  0
LINE
  5
80
330
1F
100
AcDbEntity
  8
SLD-0
  6
Continuous
 62
   179
100
AcDbLine
 10
100.8130286751
 20
187.5641006161
 30
0.0
 11
100.7082790998
 21
187.6514399307
 31
0.0
  0
LINE
  5
81
330
1F
100
AcDbEntity
  8
SLD-0
  6
Continuous
 62
   179
100
AcDbLine
 10
96.8610397946
 20
187.6514399352
 30
0.0
 11
96.8610397946
 21
187.4393079009
 31
0.0
  0
LINE
  5
82
330
1F
100
AcDbEntity
  8
SLD-0
  6
Continuous
 62
   179
100
AcDbLine
 10
96.8610397946
 20
191.4029117978
 30
0.0
 11
96.8610397946
 21
187.6514399352
 31
0.0
  0
LINE
  5
83
330
1F
100
AcDbEntity
  8
SLD-0
  6
Continuous
 62
   179
100
AcDbLine
 10
122.8610397946
 20
191.4029117978
 30
0.0
 11
122.8610397946
 21
187.6514399352
 31
0.0
  0
LINE
  5
84
330
1F
100
AcDbEntity
  8
SLD-0
 62
   179
100
AcDbLine
 10
119.7023245092
 20
191.4029118023
 30
0.0
 11
119.5152935158
 21
191.6150439181
 31
0.0
  0
LINE
  5
85
330
1F
100
AcDbEntity
  8
SLD-0
 62
   179
100
AcDbLine
 10
119.5152935158
 20
191.6150439181
 30
0.0
 11
119.3599917512
 21
191.7641805601
 31
0.0
  0
LINE
  5
86
330
1F
100
AcDbEntity
  8
SLD-0
 62
   179
100
AcDbLine
 10
119.3599917512
 20
191.7641805601
 30
0.0
 11
119.1943942156
 21
191.9017941807
 31
0.0
  0
LINE
  5
87
330
1F
100
AcDbEntity
  8
SLD-0
 62
   179
100
AcDbLine
 10
119.1943942156
 20
191.9017941807
 30
0.0
 11
119.0193521377
 21
192.0271758106
 31
0.0
  0
LINE
  5
88
330
1F
100
AcDbEntity
  8
SLD-0
 62
   179
100
AcDbLine
 10
119.7023245092
 20
187.6514399307
 30
0.0
 11
119.8842611682
 21
187.904414616
 31
0.0
  0
LINE
  5
89
330
1F
100
AcDbEntity
  8
SLD-0
 62
   179
100
AcDbLine
 10
119.8842611682
 20
187.904414616
 30
0.0
 11
120.0389752682
 21
188.1748964195
 31
0.0
  0
LINE
  5
8A
330
1F
100
AcDbEntity
  8
SLD-0
 62
   179
100
AcDbLine
 10
120.0389752682
 20
188.1748964195
 30
0.0
 11
120.1647988107
 21
188.4599675075
 31
0.0
  0
LINE
  5
8B
330
1F
100
AcDbEntity
  8
SLD-0
 62
   179
100
AcDbLine
 10
120.1647988107
 20
188.4599675075
 30
0.0
 11
120.2603739273
 21
188.7565521872
 31
0.0
  0
LINE
  5
8C
330
1F
100
AcDbEntity
  8
SLD-0
 62
   179
100
AcDbLine
 10
120.2603739273
 20
188.7565521872
 30
0.0
 11
120.3246696439
 21
189.0614507836
 31
0.0
  0
LINE
  5
8D
330
1F
100
AcDbEntity
  8
SLD-0
 62
   179
100
AcDbLine
 10
120.3246696439
 20
189.0614507836
 30
0.0
 11
120.3569911938
 21
189.3713738798
 31
0.0
  0
LINE
  5
8E
330
1F
100
AcDbEntity
  8
SLD-0
 62
   179
100
AcDbLine
 10
120.3569911938
 20
189.3713738798
 30
0.0
 11
120.3569911938
 21
189.6829778532
 31
0.0
  0
LINE
  5
8F
330
1F
100
AcDbEntity
  8
SLD-0
 62
   179
100
AcDbLine
 10
120.3569911938
 20
189.6829778532
 30
0.0
 11
120.3246696439
 21
189.9929009494
 31
0.0
  0
LINE
  5
90
330
1F
100
AcDbEntity
  8
SLD-0
 62
   179
100
AcDbLine
 10
120.3246696439
 20
189.9929009494
 30
0.0
 11
120.2603739273
 21
190.2977995458
 31
0.0
  0
LINE
  5
91
330
1F
100
AcDbEntity
  8
SLD-0
 62
   179
100
AcDbLine
 10
120.2603739273
 20
190.2977995458
 30
0.0
 11
120.1647988107
 21
190.5943842255
 31
0.0
  0
LINE
  5
92
330
1F
100
AcDbEntity
  8
SLD-0
 62
   179
100
AcDbLine
 10
120.1647988107
 20
190.5943842255
 30
0.0
 11
120.0389752682
 21
190.8794553135
 31
0.0
  0
LINE
  5
93
330
1F
100
AcDbEntity
  8
SLD-0
 62
   179
100
AcDbLine
 10
120.0389752682
 20
190.8794553135
 30
0.0
 11
119.8842611682
 21
191.149937117
 31
0.0
  0
LINE
  5
94
330
1F
100
AcDbEntity
  8
SLD-0
 62
   179
100
AcDbLine
 10
119.8842611682
 20
191.149937117
 30
0.0
 11
119.7023245092
 21
191.4029118023
 31
0.0
  0
LINE
  5
95
330
1F
100
AcDbEntity
  8
SLD-0
 62
   179
100
AcDbLine
 10
119.5152935158
 20
187.4393078149
 30
0.0
 11
119.7023245092
 21
187.6514399307
 31
0.0
  0
LINE
  5
96
330
1F
100
AcDbEntity
  8
SLD-0
 62
   179
100
AcDbLine
 10
119.0193521377
 20
187.0271759224
 30
0.0
 11
119.1943942156
 21
187.1525575523
 31
0.0
  0
LINE
  5
97
330
1F
100
AcDbEntity
  8
SLD-0
 62
   179
100
AcDbLine
 10
119.1943942156
 20
187.1525575523
 30
0.0
 11
119.3599917512
 21
187.2901711729
 31
0.0
  0
LINE
  5
98
330
1F
100
AcDbEntity
  8
SLD-0
 62
   179
100
AcDbLine
 10
119.3599917512
 20
187.2901711729
 30
0.0
 11
119.5152935158
 21
187.4393078149
 31
0.0
  0
LINE
  5
99
330
1F
100
AcDbEntity
  8
SLD-0
 62
   179
100
AcDbLine
 10
115.7027275819
 20
192.0271758106
 30
0.0
 11
115.527685504
 21
191.9017941807
 31
0.0
  0
LINE
  5
9A
330
1F
100
AcDbEntity
  8
SLD-0
 62
   179
100
AcDbLine
 10
115.527685504
 20
191.9017941807
 30
0.0
 11
115.3620875027
 21
191.7641805601
 31
0.0
  0
LINE
  5
9B
330
1F
100
AcDbEntity
  8
SLD-0
 62
   179
100
AcDbLine
 10
115.3620875027
 20
191.7641805601
 30
0.0
 11
115.2067866694
 21
191.6150439181
 31
0.0
  0
LINE
  5
9C
330
1F
100
AcDbEntity
  8
SLD-0
 62
   179
100
AcDbLine
 10
115.2067866694
 20
191.6150439181
 30
0.0
 11
115.0197547447
 21
191.4029118023
 31
0.0
  0
LINE
  5
9D
330
1F
100
AcDbEntity
  8
SLD-0
 62
   179
100
AcDbLine
 10
115.0197547447
 20
191.4029118023
 30
0.0
 11
114.8378185514
 21
191.149937117
 31
0.0
  0
LINE
  5
9E
330
1F
100
AcDbEntity
  8
SLD-0
 62
   179
100
AcDbLine
 10
114.8378185514
 20
191.149937117
 30
0.0
 11
114.6831039857
 21
190.8794553135
 31
0.0
  0
LINE
  5
9F
330
1F
100
AcDbEntity
  8
SLD-0
 62
   179
100
AcDbLine
 10
114.6831039857
 20
190.8794553135
 30
0.0
 11
114.5572804432
 21
190.5943842255
 31
0.0
  0
LINE
  5
A0
330
1F
100
AcDbEntity
  8
SLD-0
 62
   179
100
AcDbLine
 10
114.5572804432
 20
190.5943842255
 30
0.0
 11
114.4617053267
 21
190.2977995458
 31
0.0
  0
LINE
  5
A1
330
1F
100
AcDbEntity
  8
SLD-0
 62
   179
100
AcDbLine
 10
114.4617053267
 20
190.2977995458
 30
0.0
 11
114.3974100757
 21
189.9929009494
 31
0.0
  0
LINE
  5
A2
330
1F
100
AcDbEntity
  8
SLD-0
 62
   179
100
AcDbLine
 10
114.3974100757
 20
189.9929009494
 30
0.0
 11
114.3650880601
 21
189.6829778532
 31
0.0
  0
LINE
  5
A3
330
1F
100
AcDbEntity
  8
SLD-0
 62
   179
100
AcDbLine
 10
114.3650880601
 20
189.6829778532
 30
0.0
 11
114.3650880601
 21
189.3713738798
 31
0.0
  0
LINE
  5
A4
330
1F
100
AcDbEntity
  8
SLD-0
 62
   179
100
AcDbLine
 10
114.3650880601
 20
189.3713738798
 30
0.0
 11
114.3974100757
 21
189.0614507836
 31
0.0
  0
LINE
  5
A5
330
1F
100
AcDbEntity
  8
SLD-0
 62
   179
100
AcDbLine
 10
114.3974100757
 20
189.0614507836
 30
0.0
 11
114.4617053267
 21
188.7565521872
 31
0.0
  0
LINE
  5
A6
330
1F
100
AcDbEntity
  8
SLD-0
 62
   179
100
AcDbLine
 10
114.4617053267
 20
188.7565521872
 30
0.0
 11
114.5572804432
 21
188.4599675075
 31
0.0
  0
LINE
  5
A7
330
1F
100
AcDbEntity
  8
SLD-0
 62
   179
100
AcDbLine
 10
114.5572804432
 20
188.4599675075
 30
0.0
 11
114.6831039857
 21
188.1748964195
 31
0.0
  0
LINE
  5
A8
330
1F
100
AcDbEntity
  8
SLD-0
 62
   179
100
AcDbLine
 10
114.6831039857
 20
188.1748964195
 30
0.0
 11
114.8378185514
 21
187.904414616
 31
0.0
  0
LINE
  5
A9
330
1F
100
AcDbEntity
  8
SLD-0
 62
   179
100
AcDbLine
 10
114.8378185514
 20
187.904414616
 30
0.0
 11
115.0197547447
 21
187.6514399307
 31
0.0
  0
LINE
  5
AA
330
1F
100
AcDbEntity
  8
SLD-0
 62
   179
100
AcDbLine
 10
115.0197547447
 20
187.6514399307
 30
0.0
 11
115.2067866694
 21
187.4393078149
 31
0.0
  0
LINE
  5
AB
330
1F
100
AcDbEntity
  8
SLD-0
 62
   179
100
AcDbLine
 10
115.2067866694
 20
187.4393078149
 30
0.0
 11
115.3620875027
 21
187.2901711729
 31
0.0
  0
LINE
  5
AC
330
1F
100
AcDbEntity
  8
SLD-0
 62
   179
100
AcDbLine
 10
115.3620875027
 20
187.2901711729
 30
0.0
 11
115.527685504
 21
187.1525575523
 31
0.0
  0
LINE
  5
AD
330
1F
100
AcDbEntity
  8
SLD-0
 62
   179
100
AcDbLine
 10
115.527685504
 20
187.1525575523
 30
0.0
 11
115.7027275819
 21
187.0271759224
 31
0.0
  0
LINE
  5
AE
330
1F
100
AcDbEntity
  8
SLD-0
  6
HIDDEN
 62
   179
100
AcDbLine
 10
115.7027275819
 20
192.0271758106
 30
0.0
 11
115.9778388735
 21
192.1892718062
 31
0.0
  0
LINE
  5
AF
330
1F
100
AcDbEntity
  8
SLD-0
  6
HIDDEN
 62
   179
100
AcDbLine
 10
115.9778388735
 20
192.1892718062
 30
0.0
 11
116.2686205987
 21
192.3212087829
 31
0.0
  0
LINE
  5
B0
330
1F
100
AcDbEntity
  8
SLD-0
  6
HIDDEN
 62
   179
100
AcDbLine
 10
116.2686205987
 20
192.3212087829
 30
0.0
 11
116.5717782039
 21
192.4214919679
 31
0.0
  0
LINE
  5
B1
330
1F
100
AcDbEntity
  8
SLD-0
  6
HIDDEN
 62
   179
100
AcDbLine
 10
116.5717782039
 20
192.4214919679
 30
0.0
 11
116.8838779029
 21
192.4889856134
 31
0.0
  0
LINE
  5
B2
330
1F
100
AcDbEntity
  8
SLD-0
  6
HIDDEN
 62
   179
100
AcDbLine
 10
116.8838779029
 20
192.4889856134
 30
0.0
 11
117.201382998
 21
192.522924405
 31
0.0
  0
LINE
  5
B3
330
1F
100
AcDbEntity
  8
SLD-0
  6
HIDDEN
 62
   179
100
AcDbLine
 10
117.201382998
 20
192.522924405
 30
0.0
 11
117.5206967216
 21
192.522924405
 31
0.0
  0
LINE
  5
B4
330
1F
100
AcDbEntity
  8
SLD-0
  6
HIDDEN
 62
   179
100
AcDbLine
 10
117.5206967216
 20
192.522924405
 30
0.0
 11
117.8382022824
 21
192.4889856134
 31
0.0
  0
LINE
  5
B5
330
1F
100
AcDbEntity
  8
SLD-0
  6
HIDDEN
 62
   179
100
AcDbLine
 10
117.8382022824
 20
192.4889856134
 30
0.0
 11
118.1503015157
 21
192.4214919679
 31
0.0
  0
LINE
  5
B6
330
1F
100
AcDbEntity
  8
SLD-0
  6
HIDDEN
 62
   179
100
AcDbLine
 10
118.1503015157
 20
192.4214919679
 30
0.0
 11
118.4534591209
 21
192.3212087829
 31
0.0
  0
LINE
  5
B7
330
1F
100
AcDbEntity
  8
SLD-0
  6
HIDDEN
 62
   179
100
AcDbLine
 10
118.4534591209
 20
192.3212087829
 30
0.0
 11
118.7442403805
 21
192.1892718062
 31
0.0
  0
LINE
  5
B8
330
1F
100
AcDbEntity
  8
SLD-0
  6
HIDDEN
 62
   179
100
AcDbLine
 10
118.7442403805
 20
192.1892718062
 30
0.0
 11
119.0193521377
 21
192.0271758106
 31
0.0
  0
LINE
  5
B9
330
1F
100
AcDbEntity
  8
SLD-0
  6
HIDDEN
 62
   179
100
AcDbLine
 10
119.0193521377
 20
187.0271759224
 30
0.0
 11
118.7442403805
 21
186.8650799268
 31
0.0
  0
LINE
  5
BA
330
1F
100
AcDbEntity
  8
SLD-0
  6
HIDDEN
 62
   179
100
AcDbLine
 10
118.7442403805
 20
186.8650799268
 30
0.0
 11
118.4534591209
 21
186.7331429501
 31
0.0
  0
LINE
  5
BB
330
1F
100
AcDbEntity
  8
SLD-0
  6
HIDDEN
 62
   179
100
AcDbLine
 10
118.4534591209
 20
186.7331429501
 30
0.0
 11
118.1503015157
 21
186.632859765
 31
0.0
  0
LINE
  5
BC
330
1F
100
AcDbEntity
  8
SLD-0
  6
HIDDEN
 62
   179
100
AcDbLine
 10
118.1503015157
 20
186.632859765
 30
0.0
 11
117.8382022824
 21
186.5653661196
 31
0.0
  0
LINE
  5
BD
330
1F
100
AcDbEntity
  8
SLD-0
  6
HIDDEN
 62
   179
100
AcDbLine
 10
117.8382022824
 20
186.5653661196
 30
0.0
 11
117.5206967216
 21
186.531427328
 31
0.0
  0
LINE
  5
BE
330
1F
100
AcDbEntity
  8
SLD-0
  6
HIDDEN
 62
   179
100
AcDbLine
 10
117.5206967216
 20
186.531427328
 30
0.0
 11
117.201382998
 21
186.531427328
 31
0.0
  0
LINE
  5
BF
330
1F
100
AcDbEntity
  8
SLD-0
  6
HIDDEN
 62
   179
100
AcDbLine
 10
117.201382998
 20
186.531427328
 30
0.0
 11
116.8838779029
 21
186.5653661196
 31
0.0
  0
LINE
  5
C0
330
1F
100
AcDbEntity
  8
SLD-0
  6
HIDDEN
 62
   179
100
AcDbLine
 10
116.8838779029
 20
186.5653661196
 30
0.0
 11
116.5717782039
 21
186.632859765
 31
0.0
  0
LINE
  5
C1
330
1F
100
AcDbEntity
  8
SLD-0
  6
HIDDEN
 62
   179
100
AcDbLine
 10
116.5717782039
 20
186.632859765
 30
0.0
 11
116.2686205987
 21
186.7331429501
 31
0.0
  0
LINE
  5
C2
330
1F
100
AcDbEntity
  8
SLD-0
  6
HIDDEN
 62
   179
100
AcDbLine
 10
116.2686205987
 20
186.7331429501
 30
0.0
 11
115.9778388735
 21
186.8650799268
 31
0.0
  0
LINE
  5
C3
330
1F
100
AcDbEntity
  8
SLD-0
  6
HIDDEN
 62
   179
100
AcDbLine
 10
115.9778388735
 20
186.8650799268
 30
0.0
 11
115.7027275819
 21
187.0271759224
 31
0.0
  0
LINE
  5
C4
330
1F
100
AcDbEntity
  8
SLD-0
  6
HIDDEN
 62
   179
100
AcDbLine
 10
114.6642167639
 20
190.8413854078
 30
0.0
 11
114.6879738715
 21
190.8828513813
 31
0.0
  0
LINE
  5
C5
330
1F
100
AcDbEntity
  8
SLD-0
  6
HIDDEN
 62
   179
100
AcDbLine
 10
114.975722279
 20
191.3353253738
 30
0.0
 11
115.3579850268
 21
191.7551187914
 31
0.0
  0
LINE
  5
C6
330
1F
100
AcDbEntity
  8
SLD-0
  6
HIDDEN
 62
   179
100
AcDbLine
 10
115.6117070984
 20
191.9553461601
 30
0.0
 11
115.723350789
 21
192.0381144271
 31
0.0
  0
LINE
  5
C7
330
1F
100
AcDbEntity
  8
SLD-0
  6
HIDDEN
 62
   179
100
AcDbLine
 10
119.0114172693
 20
192.0314089045
 30
0.0
 11
119.1990023997
 21
191.8916895636
 31
0.0
  0
LINE
  5
C8
330
1F
100
AcDbEntity
  8
SLD-0
  6
HIDDEN
 62
   179
100
AcDbLine
 10
119.4591710862
 20
191.6641313699
 30
0.0
 11
119.5528574806
 21
191.5745269623
 31
0.0
  0
LINE
  5
C9
330
1F
100
AcDbEntity
  8
SLD-0
  6
HIDDEN
 62
   179
100
AcDbLine
 10
119.5699640136
 20
191.5560760651
 30
0.0
 11
119.7300397377
 21
191.3613473414
 31
0.0
  0
LINE
  5
CA
330
1F
100
AcDbEntity
  8
SLD-0
  6
HIDDEN
 62
   179
100
AcDbLine
 10
120.0185346004
 20
190.9068102366
 30
0.0
 11
120.05786249
 21
190.8413854078
 31
0.0
  0
LINE
  5
CB
330
1F
100
AcDbEntity
  8
SLD-0
  6
HIDDEN
 62
   179
100
AcDbLine
 10
120.05786249
 20
188.2129663252
 30
0.0
 11
120.0341053825
 21
188.1715003517
 31
0.0
  0
LINE
  5
CC
330
1F
100
AcDbEntity
  8
SLD-0
  6
HIDDEN
 62
   179
100
AcDbLine
 10
119.7463574406
 20
187.7190263592
 30
0.0
 11
119.3640942272
 21
187.2992329415
 31
0.0
  0
LINE
  5
CD
330
1F
100
AcDbEntity
  8
SLD-0
  6
HIDDEN
 62
   179
100
AcDbLine
 10
119.1103721555
 20
187.0990055729
 30
0.0
 11
118.9987289306
 21
187.0162373059
 31
0.0
  0
LINE
  5
CE
330
1F
100
AcDbEntity
  8
SLD-0
  6
HIDDEN
 62
   179
100
AcDbLine
 10
115.7106619846
 20
187.0229428284
 30
0.0
 11
115.5230777856
 21
187.1626621694
 31
0.0
  0
LINE
  5
CF
330
1F
100
AcDbEntity
  8
SLD-0
  6
HIDDEN
 62
   179
100
AcDbLine
 10
115.2629086334
 20
187.3902203631
 30
0.0
 11
115.1692217734
 21
187.4798247707
 31
0.0
  0
LINE
  5
D0
330
1F
100
AcDbEntity
  8
SLD-0
  6
HIDDEN
 62
   179
100
AcDbLine
 10
115.1521152403
 20
187.4982756679
 30
0.0
 11
114.9920399819
 21
187.6930043916
 31
0.0
  0
LINE
  5
D1
330
1F
100
AcDbEntity
  8
SLD-0
  6
HIDDEN
 62
   179
100
AcDbLine
 10
114.7035446536
 20
188.1475414964
 30
0.0
 11
114.6642167639
 21
188.2129663252
 31
0.0
  0
LINE
  5
D2
330
1F
100
AcDbEntity
  8
SLD-0
 62
   179
100
AcDbLine
 10
100.01975508
 20
191.4029118023
 30
0.0
 11
99.8378184211
 21
191.149937117
 31
0.0
  0
LINE
  5
D3
330
1F
100
AcDbEntity
  8
SLD-0
 62
   179
100
AcDbLine
 10
99.8378184211
 20
191.149937117
 30
0.0
 11
99.683104321
 21
190.8794553135
 31
0.0
  0
LINE
  5
D4
330
1F
100
AcDbEntity
  8
SLD-0
 62
   179
100
AcDbLine
 10
99.683104321
 20
190.8794553135
 30
0.0
 11
99.5572807785
 21
190.5943842255
 31
0.0
  0
LINE
  5
D5
330
1F
100
AcDbEntity
  8
SLD-0
 62
   179
100
AcDbLine
 10
99.5572807785
 20
190.5943842255
 30
0.0
 11
99.4617056619
 21
190.2977995458
 31
0.0
  0
LINE
  5
D6
330
1F
100
AcDbEntity
  8
SLD-0
 62
   179
100
AcDbLine
 10
99.4617056619
 20
190.2977995458
 30
0.0
 11
99.3974099454
 21
189.9929009494
 31
0.0
  0
LINE
  5
D7
330
1F
100
AcDbEntity
  8
SLD-0
 62
   179
100
AcDbLine
 10
99.3974099454
 20
189.9929009494
 30
0.0
 11
99.3650883954
 21
189.6829778532
 31
0.0
  0
LINE
  5
D8
330
1F
100
AcDbEntity
  8
SLD-0
 62
   179
100
AcDbLine
 10
99.3650883954
 20
189.6829778532
 30
0.0
 11
99.3650883954
 21
189.3713738798
 31
0.0
  0
LINE
  5
D9
330
1F
100
AcDbEntity
  8
SLD-0
 62
   179
100
AcDbLine
 10
99.3650883954
 20
189.3713738798
 30
0.0
 11
99.3974099454
 21
189.0614507836
 31
0.0
  0
LINE
  5
DA
330
1F
100
AcDbEntity
  8
SLD-0
 62
   179
100
AcDbLine
 10
99.3974099454
 20
189.0614507836
 30
0.0
 11
99.4617056619
 21
188.7565521872
 31
0.0
  0
LINE
  5
DB
330
1F
100
AcDbEntity
  8
SLD-0
 62
   179
100
AcDbLine
 10
99.4617056619
 20
188.7565521872
 30
0.0
 11
99.5572807785
 21
188.4599675075
 31
0.0
  0
LINE
  5
DC
330
1F
100
AcDbEntity
  8
SLD-0
 62
   179
100
AcDbLine
 10
99.5572807785
 20
188.4599675075
 30
0.0
 11
99.683104321
 21
188.1748964195
 31
0.0
  0
LINE
  5
DD
330
1F
100
AcDbEntity
  8
SLD-0
 62
   179
100
AcDbLine
 10
99.683104321
 20
188.1748964195
 30
0.0
 11
99.8378184211
 21
187.904414616
 31
0.0
  0
LINE
  5
DE
330
1F
100
AcDbEntity
  8
SLD-0
 62
   179
100
AcDbLine
 10
99.8378184211
 20
187.904414616
 30
0.0
 11
100.01975508
 21
187.6514399307
 31
0.0
  0
LINE
  5
DF
330
1F
100
AcDbEntity
  8
SLD-0
 62
   179
100
AcDbLine
 10
100.2067860734
 20
191.6150439181
 30
0.0
 11
100.01975508
 21
191.4029118023
 31
0.0
  0
LINE
  5
E0
330
1F
100
AcDbEntity
  8
SLD-0
 62
   179
100
AcDbLine
 10
100.01975508
 20
187.6514399307
 30
0.0
 11
100.2067860734
 21
187.4393078149
 31
0.0
  0
LINE
  5
E1
330
1F
100
AcDbEntity
  8
SLD-0
 62
   179
100
AcDbLine
 10
100.7027274515
 20
192.0271758106
 30
0.0
 11
100.5276853736
 21
191.9017941807
 31
0.0
  0
LINE
  5
E2
330
1F
100
AcDbEntity
  8
SLD-0
 62
   179
100
AcDbLine
 10
100.5276853736
 20
191.9017941807
 30
0.0
 11
100.362087838
 21
191.7641805601
 31
0.0
  0
LINE
  5
E3
330
1F
100
AcDbEntity
  8
SLD-0
 62
   179
100
AcDbLine
 10
100.362087838
 20
191.7641805601
 30
0.0
 11
100.2067860734
 21
191.6150439181
 31
0.0
  0
LINE
  5
E4
330
1F
100
AcDbEntity
  8
SLD-0
 62
   179
100
AcDbLine
 10
100.2067860734
 20
187.4393078149
 30
0.0
 11
100.362087838
 21
187.2901711729
 31
0.0
  0
LINE
  5
E5
330
1F
100
AcDbEntity
  8
SLD-0
 62
   179
100
AcDbLine
 10
100.362087838
 20
187.2901711729
 30
0.0
 11
100.5276853736
 21
187.1525575523
 31
0.0
  0
LINE
  5
E6
330
1F
100
AcDbEntity
  8
SLD-0
 62
   179
100
AcDbLine
 10
100.5276853736
 20
187.1525575523
 30
0.0
 11
100.7027274515
 21
187.0271759224
 31
0.0
  0
LINE
  5
E7
330
1F
100
AcDbEntity
  8
SLD-0
 62
   179
100
AcDbLine
 10
104.5152929198
 20
191.6150439181
 30
0.0
 11
104.3599920865
 21
191.7641805601
 31
0.0
  0
LINE
  5
E8
330
1F
100
AcDbEntity
  8
SLD-0
 62
   179
100
AcDbLine
 10
104.3599920865
 20
191.7641805601
 30
0.0
 11
104.1943940852
 21
191.9017941807
 31
0.0
  0
LINE
  5
E9
330
1F
100
AcDbEntity
  8
SLD-0
 62
   179
100
AcDbLine
 10
104.1943940852
 20
191.9017941807
 30
0.0
 11
104.0193520073
 21
192.0271758106
 31
0.0
  0
LINE
  5
EA
330
1F
100
AcDbEntity
  8
SLD-0
 62
   179
100
AcDbLine
 10
104.7023248445
 20
191.4029118023
 30
0.0
 11
104.5152929198
 21
191.6150439181
 31
0.0
  0
LINE
  5
EB
330
1F
100
AcDbEntity
  8
SLD-0
 62
   179
100
AcDbLine
 10
104.7023248445
 20
187.6514399307
 30
0.0
 11
104.8842610378
 21
187.904414616
 31
0.0
  0
LINE
  5
EC
330
1F
100
AcDbEntity
  8
SLD-0
 62
   179
100
AcDbLine
 10
104.8842610378
 20
187.904414616
 30
0.0
 11
105.0389756035
 21
188.1748964195
 31
0.0
  0
LINE
  5
ED
330
1F
100
AcDbEntity
  8
SLD-0
 62
   179
100
AcDbLine
 10
105.0389756035
 20
188.1748964195
 30
0.0
 11
105.164799146
 21
188.4599675075
 31
0.0
  0
LINE
  5
EE
330
1F
100
AcDbEntity
  8
SLD-0
 62
   179
100
AcDbLine
 10
105.164799146
 20
188.4599675075
 30
0.0
 11
105.2603742626
 21
188.7565521872
 31
0.0
  0
LINE
  5
EF
330
1F
100
AcDbEntity
  8
SLD-0
 62
   179
100
AcDbLine
 10
105.2603742626
 20
188.7565521872
 30
0.0
 11
105.3246695135
 21
189.0614507836
 31
0.0
  0
LINE
  5
F0
330
1F
100
AcDbEntity
  8
SLD-0
 62
   179
100
AcDbLine
 10
105.3246695135
 20
189.0614507836
 30
0.0
 11
105.3569915291
 21
189.3713738798
 31
0.0
  0
LINE
  5
F1
330
1F
100
AcDbEntity
  8
SLD-0
 62
   179
100
AcDbLine
 10
105.3569915291
 20
189.3713738798
 30
0.0
 11
105.3569915291
 21
189.6829778532
 31
0.0
  0
LINE
  5
F2
330
1F
100
AcDbEntity
  8
SLD-0
 62
   179
100
AcDbLine
 10
105.3569915291
 20
189.6829778532
 30
0.0
 11
105.3246695135
 21
189.9929009494
 31
0.0
  0
LINE
  5
F3
330
1F
100
AcDbEntity
  8
SLD-0
 62
   179
100
AcDbLine
 10
105.3246695135
 20
189.9929009494
 30
0.0
 11
105.2603742626
 21
190.2977995458
 31
0.0
  0
LINE
  5
F4
330
1F
100
AcDbEntity
  8
SLD-0
 62
   179
100
AcDbLine
 10
105.2603742626
 20
190.2977995458
 30
0.0
 11
105.164799146
 21
190.5943842255
 31
0.0
  0
LINE
  5
F5
330
1F
100
AcDbEntity
  8
SLD-0
 62
   179
100
AcDbLine
 10
105.164799146
 20
190.5943842255
 30
0.0
 11
105.0389756035
 21
190.8794553135
 31
0.0
  0
LINE
  5
F6
330
1F
100
AcDbEntity
  8
SLD-0
 62
   179
100
AcDbLine
 10
105.0389756035
 20
190.8794553135
 30
0.0
 11
104.8842610378
 21
191.149937117
 31
0.0
  0
LINE
  5
F7
330
1F
100
AcDbEntity
  8
SLD-0
 62
   179
100
AcDbLine
 10
104.8842610378
 20
191.149937117
 30
0.0
 11
104.7023248445
 21
191.4029118023
 31
0.0
  0
LINE
  5
F8
330
1F
100
AcDbEntity
  8
SLD-0
 62
   179
100
AcDbLine
 10
104.5152929198
 20
187.4393078149
 30
0.0
 11
104.7023248445
 21
187.6514399307
 31
0.0
  0
LINE
  5
F9
330
1F
100
AcDbEntity
  8
SLD-0
 62
   179
100
AcDbLine
 10
104.0193520073
 20
187.0271759224
 30
0.0
 11
104.1943940852
 21
187.1525575523
 31
0.0
  0
LINE
  5
FA
330
1F
100
AcDbEntity
  8
SLD-0
 62
   179
100
AcDbLine
 10
104.1943940852
 20
187.1525575523
 30
0.0
 11
104.3599920865
 21
187.2901711729
 31
0.0
  0
LINE
  5
FB
330
1F
100
AcDbEntity
  8
SLD-0
 62
   179
100
AcDbLine
 10
104.3599920865
 20
187.2901711729
 30
0.0
 11
104.5152929198
 21
187.4393078149
 31
0.0
  0
LINE
  5
FC
330
1F
100
AcDbEntity
  8
SLD-0
  6
HIDDEN
 62
   179
100
AcDbLine
 10
100.7027274515
 20
192.0271758106
 30
0.0
 11
100.9778392088
 21
192.1892718062
 31
0.0
  0
LINE
  5
FD
330
1F
100
AcDbEntity
  8
SLD-0
  6
HIDDEN
 62
   179
100
AcDbLine
 10
100.9778392088
 20
192.1892718062
 30
0.0
 11
101.2686204683
 21
192.3212087829
 31
0.0
  0
LINE
  5
FE
330
1F
100
AcDbEntity
  8
SLD-0
  6
HIDDEN
 62
   179
100
AcDbLine
 10
101.2686204683
 20
192.3212087829
 30
0.0
 11
101.5717780735
 21
192.4214919679
 31
0.0
  0
LINE
  5
FF
330
1F
100
AcDbEntity
  8
SLD-0
  6
HIDDEN
 62
   179
100
AcDbLine
 10
101.5717780735
 20
192.4214919679
 30
0.0
 11
101.8838773068
 21
192.4889856134
 31
0.0
  0
LINE
  5
100
330
1F
100
AcDbEntity
  8
SLD-0
  6
HIDDEN
 62
   179
100
AcDbLine
 10
101.8838773068
 20
192.4889856134
 30
0.0
 11
102.2013828676
 21
192.522924405
 31
0.0
  0
LINE
  5
101
330
1F
100
AcDbEntity
  8
SLD-0
  6
HIDDEN
 62
   179
100
AcDbLine
 10
102.2013828676
 20
192.522924405
 30
0.0
 11
102.5206965912
 21
192.522924405
 31
0.0
  0
LINE
  5
102
330
1F
100
AcDbEntity
  8
SLD-0
  6
HIDDEN
 62
   179
100
AcDbLine
 10
102.5206965912
 20
192.522924405
 30
0.0
 11
102.8382016864
 21
192.4889856134
 31
0.0
  0
LINE
  5
103
330
1F
100
AcDbEntity
  8
SLD-0
  6
HIDDEN
 62
   179
100
AcDbLine
 10
102.8382016864
 20
192.4889856134
 30
0.0
 11
103.1503013853
 21
192.4214919679
 31
0.0
  0
LINE
  5
104
330
1F
100
AcDbEntity
  8
SLD-0
  6
HIDDEN
 62
   179
100
AcDbLine
 10
103.1503013853
 20
192.4214919679
 30
0.0
 11
103.4534589905
 21
192.3212087829
 31
0.0
  0
LINE
  5
105
330
1F
100
AcDbEntity
  8
SLD-0
  6
HIDDEN
 62
   179
100
AcDbLine
 10
103.4534589905
 20
192.3212087829
 30
0.0
 11
103.7442407157
 21
192.1892718062
 31
0.0
  0
LINE
  5
106
330
1F
100
AcDbEntity
  8
SLD-0
  6
HIDDEN
 62
   179
100
AcDbLine
 10
103.7442407157
 20
192.1892718062
 30
0.0
 11
104.0193520073
 21
192.0271758106
 31
0.0
  0
LINE
  5
107
330
1F
100
AcDbEntity
  8
SLD-0
  6
HIDDEN
 62
   179
100
AcDbLine
 10
104.0193520073
 20
187.0271759224
 30
0.0
 11
103.7442407157
 21
186.8650799268
 31
0.0
  0
LINE
  5
108
330
1F
100
AcDbEntity
  8
SLD-0
  6
HIDDEN
 62
   179
100
AcDbLine
 10
103.7442407157
 20
186.8650799268
 30
0.0
 11
103.4534589905
 21
186.7331429501
 31
0.0
  0
LINE
  5
109
330
1F
100
AcDbEntity
  8
SLD-0
  6
HIDDEN
 62
   179
100
AcDbLine
 10
103.4534589905
 20
186.7331429501
 30
0.0
 11
103.1503013853
 21
186.632859765
 31
0.0
  0
LINE
  5
10A
330
1F
100
AcDbEntity
  8
SLD-0
  6
HIDDEN
 62
   179
100
AcDbLine
 10
103.1503013853
 20
186.632859765
 30
0.0
 11
102.8382016864
 21
186.5653661196
 31
0.0
  0
LINE
  5
10B
330
1F
100
AcDbEntity
  8
SLD-0
  6
HIDDEN
 62
   179
100
AcDbLine
 10
102.8382016864
 20
186.5653661196
 30
0.0
 11
102.5206965912
 21
186.531427328
 31
0.0
  0
LINE
  5
10C
330
1F
100
AcDbEntity
  8
SLD-0
  6
HIDDEN
 62
   179
100
AcDbLine
 10
102.5206965912
 20
186.531427328
 30
0.0
 11
102.2013828676
 21
186.531427328
 31
0.0
  0
LINE
  5
10D
330
1F
100
AcDbEntity
  8
SLD-0
  6
HIDDEN
 62
   179
100
AcDbLine
 10
102.2013828676
 20
186.531427328
 30
0.0
 11
101.8838773068
 21
186.5653661196
 31
0.0
  0
LINE
  5
10E
330
1F
100
AcDbEntity
  8
SLD-0
  6
HIDDEN
 62
   179
100
AcDbLine
 10
101.8838773068
 20
186.5653661196
 30
0.0
 11
101.5717780735
 21
186.632859765
 31
0.0
  0
LINE
  5
10F
330
1F
100
AcDbEntity
  8
SLD-0
  6
HIDDEN
 62
   179
100
AcDbLine
 10
101.5717780735
 20
186.632859765
 30
0.0
 11
101.2686204683
 21
186.7331429501
 31
0.0
  0
LINE
  5
110
330
1F
100
AcDbEntity
  8
SLD-0
  6
HIDDEN
 62
   179
100
AcDbLine
 10
101.2686204683
 20
186.7331429501
 30
0.0
 11
100.9778392088
 21
186.8650799268
 31
0.0
  0
LINE
  5
111
330
1F
100
AcDbEntity
  8
SLD-0
  6
HIDDEN
 62
   179
100
AcDbLine
 10
100.9778392088
 20
186.8650799268
 30
0.0
 11
100.7027274515
 21
187.0271759224
 31
0.0
  0
LINE
  5
112
330
1F
100
AcDbEntity
  8
SLD-0
  6
HIDDEN
 62
   179
100
AcDbLine
 10
99.6642170992
 20
190.8413854078
 30
0.0
 11
99.6879742067
 21
190.8828513813
 31
0.0
  0
LINE
  5
113
330
1F
100
AcDbEntity
  8
SLD-0
  6
HIDDEN
 62
   179
100
AcDbLine
 10
99.9757221486
 20
191.3353253738
 30
0.0
 11
100.357985362
 21
191.7551187914
 31
0.0
  0
LINE
  5
114
330
1F
100
AcDbEntity
  8
SLD-0
  6
HIDDEN
 62
   179
100
AcDbLine
 10
100.6117074337
 20
191.9553461601
 30
0.0
 11
100.7233506586
 21
192.0381144271
 31
0.0
  0
LINE
  5
115
330
1F
100
AcDbEntity
  8
SLD-0
  6
HIDDEN
 62
   179
100
AcDbLine
 10
104.0114176046
 20
192.0314089045
 30
0.0
 11
104.1990018036
 21
191.8916895636
 31
0.0
  0
LINE
  5
116
330
1F
100
AcDbEntity
  8
SLD-0
  6
HIDDEN
 62
   179
100
AcDbLine
 10
104.4591709558
 20
191.6641313699
 30
0.0
 11
104.5528578158
 21
191.5745269623
 31
0.0
  0
LINE
  5
117
330
1F
100
AcDbEntity
  8
SLD-0
  6
HIDDEN
 62
   179
100
AcDbLine
 10
104.5699643489
 20
191.5560760651
 30
0.0
 11
104.7300396074
 21
191.3613473414
 31
0.0
  0
LINE
  5
118
330
1F
100
AcDbEntity
  8
SLD-0
  6
HIDDEN
 62
   179
100
AcDbLine
 10
105.0185349356
 20
190.9068102366
 30
0.0
 11
105.0578628253
 21
190.8413854078
 31
0.0
  0
LINE
  5
119
330
1F
100
AcDbEntity
  8
SLD-0
  6
HIDDEN
 62
   179
100
AcDbLine
 10
105.0578628253
 20
188.2129663252
 30
0.0
 11
105.0341057178
 21
188.1715003517
 31
0.0
  0
LINE
  5
11A
330
1F
100
AcDbEntity
  8
SLD-0
  6
HIDDEN
 62
   179
100
AcDbLine
 10
104.7463573102
 20
187.7190263592
 30
0.0
 11
104.3640945625
 21
187.2992329415
 31
0.0
  0
LINE
  5
11B
330
1F
100
AcDbEntity
  8
SLD-0
  6
HIDDEN
 62
   179
100
AcDbLine
 10
104.1103724908
 20
187.0990055729
 30
0.0
 11
103.9987288002
 21
187.0162373059
 31
0.0
  0
LINE
  5
11C
330
1F
100
AcDbEntity
  8
SLD-0
  6
HIDDEN
 62
   179
100
AcDbLine
 10
100.7106623199
 20
187.0229428284
 30
0.0
 11
100.5230771895
 21
187.1626621694
 31
0.0
  0
LINE
  5
11D
330
1F
100
AcDbEntity
  8
SLD-0
  6
HIDDEN
 62
   179
100
AcDbLine
 10
100.262908503
 20
187.3902203631
 30
0.0
 11
100.1692221086
 21
187.4798247707
 31
0.0
  0
LINE
  5
11E
330
1F
100
AcDbEntity
  8
SLD-0
  6
HIDDEN
 62
   179
100
AcDbLine
 10
100.1521155756
 20
187.4982756679
 30
0.0
 11
99.9920398515
 21
187.6930043916
 31
0.0
  0
LINE
  5
11F
330
1F
100
AcDbEntity
  8
SLD-0
  6
HIDDEN
 62
   179
100
AcDbLine
 10
99.7035449889
 20
188.1475414964
 30
0.0
 11
99.6642170992
 21
188.2129663252
 31
0.0
  0
LINE
  5
120
330
1F
100
AcDbEntity
  8
SLD-0
  6
Continuous
 62
   179
100
AcDbLine
 10
104.8610399064
 20
148.2166237807
 30
0.0
 11
114.8610396828
 21
148.2166237807
 31
0.0
  0
LINE
  5
121
330
1F
100
AcDbEntity
  8
SLD-0
  6
Continuous
 62
   179
100
AcDbLine
 10
119.8610395711
 20
148.2166237807
 30
0.0
 11
122.8610397946
 21
148.2166238768
 31
0.0
  0
LINE
  5
122
330
1F
100
AcDbEntity
  8
SLD-0
  6
Continuous
 62
   179
100
AcDbLine
 10
96.8610397946
 20
148.2166238768
 30
0.0
 11
99.8610400181
 21
148.2166237807
 31
0.0
  0
LINE
  5
123
330
1F
100
AcDbEntity
  8
SLD-0
  6
Continuous
 62
   179
100
AcDbLine
 10
122.8610397946
 20
154.6166238768
 30
0.0
 11
96.8610397946
 21
154.6166238768
 31
0.0
  0
LINE
  5
124
330
1F
100
AcDbEntity
  8
SLD-0
  6
Continuous
 62
   179
100
AcDbLine
 10
122.8610397946
 20
154.6166238768
 30
0.0
 11
122.8610397946
 21
153.9020048534
 31
0.0
  0
LINE
  5
125
330
1F
100
AcDbEntity
  8
SLD-0
  6
Continuous
 62
   179
100
AcDbLine
 10
96.8610397946
 20
154.6166238768
 30
0.0
 11
96.8610397946
 21
153.9020048534
 31
0.0
  0
LINE
  5
126
330
1F
100
AcDbEntity
  8
SLD-0
  6
Continuous
 62
   179
100
AcDbLine
 10
122.8610397946
 20
153.9020048534
 30
0.0
 11
122.8610397946
 21
148.7090253448
 31
0.0
  0
LINE
  5
127
330
1F
100
AcDbEntity
  8
SLD-0
  6
Continuous
 62
   179
100
AcDbLine
 10
96.8610397946
 20
153.9020048534
 30
0.0
 11
96.8610397946
 21
148.7090253448
 31
0.0
  0
LINE
  5
128
330
1F
100
AcDbEntity
  8
SLD-0
  6
Continuous
 62
   179
100
AcDbLine
 10
122.8610397946
 20
148.7090253448
 30
0.0
 11
122.8610397946
 21
148.2166238768
 31
0.0
  0
LINE
  5
129
330
1F
100
AcDbEntity
  8
SLD-0
  6
Continuous
 62
   179
100
AcDbLine
 10
96.8610397946
 20
148.7090253448
 30
0.0
 11
96.8610397946
 21
148.2166238768
 31
0.0
  0
LINE
  5
12A
330
1F
100
AcDbEntity
  8
SLD-0
  6
HIDDEN
 62
     8
100
AcDbLine
 10
122.8610397946
 20
154.6166238768
 30
0.0
 11
96.8610397946
 21
154.6166238768
 31
0.0
  0
LINE
  5
12B
330
1F
100
AcDbEntity
  8
SLD-0
  6
HIDDEN
 62
     8
100
AcDbLine
 10
122.8610397946
 20
154.5287559111
 30
0.0
 11
122.8610397946
 21
154.6166238768
 31
0.0
  0
LINE
  5
12C
330
1F
100
AcDbEntity
  8
SLD-0
  6
HIDDEN
 62
     8
100
AcDbLine
 10
96.8610397946
 20
154.5287559111
 30
0.0
 11
96.8610397946
 21
154.6166238768
 31
0.0
  0
LINE
  5
12D
330
1F
100
AcDbEntity
  8
SLD-0
  6
HIDDEN
 62
     8
100
AcDbLine
 10
122.8610397946
 20
154.0044918424
 30
0.0
 11
122.8610397946
 21
154.5287559111
 31
0.0
  0
LINE
  5
12E
330
1F
100
AcDbEntity
  8
SLD-0
  6
HIDDEN
 62
     8
100
AcDbLine
 10
96.8610397946
 20
154.0044918424
 30
0.0
 11
96.8610397946
 21
154.5287559111
 31
0.0
  0
LINE
  5
12F
330
1F
100
AcDbEntity
  8
SLD-0
  6
HIDDEN
 62
     8
100
AcDbLine
 10
104.0137995219
 20
153.9166238768
 30
0.0
 11
104.8570412729
 21
153.9166238768
 31
0.0
  0
LINE
  5
130
330
1F
100
AcDbEntity
  8
SLD-0
  6
HIDDEN
 62
     8
100
AcDbLine
 10
104.0137995219
 20
153.9166238768
 30
0.0
 11
103.830090962
 21
153.9551665778
 31
0.0
  0
LINE
  5
131
330
1F
100
AcDbEntity
  8
SLD-0
  6
HIDDEN
 62
     8
100
AcDbLine
 10
103.830090962
 20
153.9551665778
 30
0.0
 11
103.7361060787
 21
154.0044918406
 31
0.0
  0
LINE
  5
132
330
1F
100
AcDbEntity
  8
SLD-0
  6
HIDDEN
 62
     8
100
AcDbLine
 10
100.9859733801
 20
154.0044918406
 30
0.0
 11
100.813029572
 21
153.9296189062
 31
0.0
  0
LINE
  5
133
330
1F
100
AcDbEntity
  8
SLD-0
  6
HIDDEN
 62
     8
100
AcDbLine
 10
100.813029572
 20
153.9296189062
 30
0.0
 11
100.7082799967
 21
153.9166238768
 31
0.0
  0
LINE
  5
134
330
1F
100
AcDbEntity
  8
SLD-0
  6
HIDDEN
 62
     8
100
AcDbLine
 10
100.7082799967
 20
153.9166238768
 30
0.0
 11
99.8650381859
 21
153.9166238768
 31
0.0
  0
LINE
  5
135
330
1F
100
AcDbEntity
  8
SLD-0
  6
HIDDEN
 62
     8
100
AcDbLine
 10
100.7082799967
 20
153.9166238768
 30
0.0
 11
100.8919880312
 21
153.9551665778
 31
0.0
  0
LINE
  5
136
330
1F
100
AcDbEntity
  8
SLD-0
  6
HIDDEN
 62
     8
100
AcDbLine
 10
100.8919880312
 20
153.9551665778
 30
0.0
 11
100.9859733801
 21
154.0044918406
 31
0.0
  0
LINE
  5
137
330
1F
100
AcDbEntity
  8
SLD-0
  6
HIDDEN
 62
     8
100
AcDbLine
 10
103.7361060787
 20
154.0044918406
 30
0.0
 11
103.9090498868
 21
153.9296189062
 31
0.0
  0
LINE
  5
138
330
1F
100
AcDbEntity
  8
SLD-0
  6
HIDDEN
 62
     8
100
AcDbLine
 10
103.9090498868
 20
153.9296189062
 30
0.0
 11
104.0137995219
 21
153.9166238768
 31
0.0
  0
LINE
  5
139
330
1F
100
AcDbEntity
  8
SLD-0
  6
HIDDEN
 62
     8
100
AcDbLine
 10
115.9859735105
 20
154.0044918406
 30
0.0
 11
115.8130297024
 21
153.9296189062
 31
0.0
  0
LINE
  5
13A
330
1F
100
AcDbEntity
  8
SLD-0
  6
HIDDEN
 62
     8
100
AcDbLine
 10
115.8130297024
 20
153.9296189062
 30
0.0
 11
115.7082801271
 21
153.9166238768
 31
0.0
  0
LINE
  5
13B
330
1F
100
AcDbEntity
  8
SLD-0
  6
HIDDEN
 62
     8
100
AcDbLine
 10
115.7082801271
 20
153.9166238768
 30
0.0
 11
114.8650383163
 21
153.9166238768
 31
0.0
  0
LINE
  5
13C
330
1F
100
AcDbEntity
  8
SLD-0
  6
HIDDEN
 62
     8
100
AcDbLine
 10
115.7082801271
 20
153.9166238768
 30
0.0
 11
115.8919886272
 21
153.9551665778
 31
0.0
  0
LINE
  5
13D
330
1F
100
AcDbEntity
  8
SLD-0
  6
HIDDEN
 62
     8
100
AcDbLine
 10
115.8919886272
 20
153.9551665778
 30
0.0
 11
115.9859735105
 21
154.0044918406
 31
0.0
  0
LINE
  5
13E
330
1F
100
AcDbEntity
  8
SLD-0
  6
HIDDEN
 62
     8
100
AcDbLine
 10
118.7361062091
 20
154.0044918406
 30
0.0
 11
118.9090500172
 21
153.9296189062
 31
0.0
  0
LINE
  5
13F
330
1F
100
AcDbEntity
  8
SLD-0
  6
HIDDEN
 62
     8
100
AcDbLine
 10
118.9090500172
 20
153.9296189062
 30
0.0
 11
119.0137995925
 21
153.9166238768
 31
0.0
  0
LINE
  5
140
330
1F
100
AcDbEntity
  8
SLD-0
  6
HIDDEN
 62
     8
100
AcDbLine
 10
119.0137995925
 20
153.9166238768
 30
0.0
 11
119.8570414033
 21
153.9166238768
 31
0.0
  0
LINE
  5
141
330
1F
100
AcDbEntity
  8
SLD-0
  6
HIDDEN
 62
     8
100
AcDbLine
 10
119.0137995925
 20
153.9166238768
 30
0.0
 11
118.830091558
 21
153.9551665778
 31
0.0
  0
LINE
  5
142
330
1F
100
AcDbEntity
  8
SLD-0
  6
HIDDEN
 62
     8
100
AcDbLine
 10
118.830091558
 20
153.9551665778
 30
0.0
 11
118.7361062091
 21
154.0044918406
 31
0.0
  0
LINE
  5
143
330
1F
100
AcDbEntity
  8
SLD-0
  6
HIDDEN
 62
     8
100
AcDbLine
 10
122.8610397946
 20
153.9166238768
 30
0.0
 11
119.0137995925
 21
153.9166238768
 31
0.0
  0
LINE
  5
144
330
1F
100
AcDbEntity
  8
SLD-0
  6
HIDDEN
 62
     8
100
AcDbLine
 10
122.8610397946
 20
153.9166238768
 30
0.0
 11
122.8610397946
 21
154.0044918424
 31
0.0
  0
LINE
  5
145
330
1F
100
AcDbEntity
  8
SLD-0
  6
HIDDEN
 62
     8
100
AcDbLine
 10
100.7082799967
 20
153.9166238768
 30
0.0
 11
96.8610397946
 21
153.9166238768
 31
0.0
  0
LINE
  5
146
330
1F
100
AcDbEntity
  8
SLD-0
  6
HIDDEN
 62
     8
100
AcDbLine
 10
96.8610397946
 20
153.9166238768
 30
0.0
 11
96.8610397946
 21
154.0044918424
 31
0.0
  0
LINE
  5
147
330
1F
100
AcDbEntity
  8
SLD-0
  6
HIDDEN
 62
     8
100
AcDbLine
 10
115.7082801271
 20
153.9166238768
 30
0.0
 11
104.0137995219
 21
153.9166238768
 31
0.0
  0
LINE
  5
148
330
1F
100
AcDbEntity
  8
SLD-0
  6
HIDDEN
 62
     8
100
AcDbLine
 10
122.8610397946
 20
148.2166238768
 30
0.0
 11
122.8610397946
 21
148.7090253448
 31
0.0
  0
LINE
  5
149
330
1F
100
AcDbEntity
  8
SLD-0
  6
HIDDEN
 62
     8
100
AcDbLine
 10
96.8610397946
 20
148.2166238768
 30
0.0
 11
96.8610397946
 21
148.7090253448
 31
0.0
  0
LINE
  5
14A
330
1F
100
AcDbEntity
  8
SLD-0
  6
HIDDEN
 62
     8
100
AcDbLine
 10
122.8610397946
 20
148.7090253448
 30
0.0
 11
122.8610397946
 21
153.9020048534
 31
0.0
  0
LINE
  5
14B
330
1F
100
AcDbEntity
  8
SLD-0
  6
HIDDEN
 62
     8
100
AcDbLine
 10
96.8610397946
 20
148.7090253448
 30
0.0
 11
96.8610397946
 21
153.9020048534
 31
0.0
  0
LINE
  5
14C
330
1F
100
AcDbEntity
  8
SLD-0
  6
HIDDEN
 62
     8
100
AcDbLine
 10
100.7082799967
 20
153.9166238768
 30
0.0
 11
96.8610397946
 21
153.9166238768
 31
0.0
  0
LINE
  5
14D
330
1F
100
AcDbEntity
  8
SLD-0
  6
HIDDEN
 62
     8
100
AcDbLine
 10
96.8610397946
 20
154.0044918424
 30
0.0
 11
96.8610397946
 21
153.9166238768
 31
0.0
  0
LINE
  5
14E
330
1F
100
AcDbEntity
  8
SLD-0
  6
HIDDEN
 62
     8
100
AcDbLine
 10
115.7082801271
 20
153.9166238768
 30
0.0
 11
104.0137995219
 21
153.9166238768
 31
0.0
  0
LINE
  5
14F
330
1F
100
AcDbEntity
  8
SLD-0
  6
HIDDEN
 62
     8
100
AcDbLine
 10
122.8610397946
 20
153.9166238768
 30
0.0
 11
119.0137995925
 21
153.9166238768
 31
0.0
  0
LINE
  5
150
330
1F
100
AcDbEntity
  8
SLD-0
  6
HIDDEN
 62
     8
100
AcDbLine
 10
122.8610397946
 20
154.0044918424
 30
0.0
 11
122.8610397946
 21
153.9166238768
 31
0.0
  0
LINE
  5
151
330
1F
100
AcDbEntity
  8
SLD-0
  6
HIDDEN
 62
     8
100
AcDbLine
 10
122.8610397946
 20
154.5287559111
 30
0.0
 11
122.8610397946
 21
154.0044918424
 31
0.0
  0
LINE
  5
152
330
1F
100
AcDbEntity
  8
SLD-0
  6
HIDDEN
 62
     8
100
AcDbLine
 10
96.8610397946
 20
154.5287559111
 30
0.0
 11
96.8610397946
 21
154.0044918424
 31
0.0
  0
LINE
  5
153
330
1F
100
AcDbEntity
  8
SLD-0
  6
HIDDEN
 62
     8
100
AcDbLine
 10
122.8610397946
 20
154.6166238768
 30
0.0
 11
96.8610397946
 21
154.6166238768
 31
0.0
  0
LINE
  5
154
330
1F
100
AcDbEntity
  8
SLD-0
  6
HIDDEN
 62
     8
100
AcDbLine
 10
122.8610397946
 20
154.6166238768
 30
0.0
 11
122.8610397946
 21
154.5287559111
 31
0.0
  0
LINE
  5
155
330
1F
100
AcDbEntity
  8
SLD-0
  6
HIDDEN
 62
     8
100
AcDbLine
 10
96.8610397946
 20
154.6166238768
 30
0.0
 11
96.8610397946
 21
154.5287559111
 31
0.0
  0
LINE
  5
156
330
1F
100
AcDbEntity
  8
SLD-0
  6
HIDDEN
 62
     8
100
AcDbLine
 10
122.8610397946
 20
154.6166238768
 30
0.0
 11
96.8610397946
 21
154.6166238768
 31
0.0
  0
LINE
  5
157
330
1F
100
AcDbEntity
  8
SLD-0
  6
HIDDEN
 62
     8
100
AcDbLine
 10
122.8610397946
 20
153.9020048534
 30
0.0
 11
122.8610397946
 21
154.6166238768
 31
0.0
  0
LINE
  5
158
330
1F
100
AcDbEntity
  8
SLD-0
  6
HIDDEN
 62
     8
100
AcDbLine
 10
96.8610397946
 20
153.9020048534
 30
0.0
 11
96.8610397946
 21
154.6166238768
 31
0.0
  0
LINE
  5
159
330
1F
100
AcDbEntity
  8
SLD-0
 62
   179
100
AcDbLine
 10
120.3572780412
 20
148.2222391901
 30
0.0
 11
120.3568785038
 21
148.2228058999
 31
0.0
  0
LINE
  5
15A
330
1F
100
AcDbEntity
  8
SLD-0
 62
   179
100
AcDbLine
 10
120.3568785038
 20
148.2228058999
 30
0.0
 11
120.05786249
 21
148.7090252017
 31
0.0
  0
LINE
  5
15B
330
1F
100
AcDbEntity
  8
SLD-0
 62
   179
100
AcDbLine
 10
114.6642167639
 20
148.7090252017
 30
0.0
 11
114.5557130273
 21
148.5224947942
 31
0.0
  0
LINE
  5
15C
330
1F
100
AcDbEntity
  8
SLD-0
 62
   179
100
AcDbLine
 10
114.5557130273
 20
148.5224947942
 30
0.0
 11
114.3648012128
 21
148.2222391901
 31
0.0
  0
LINE
  5
15D
330
1F
100
AcDbEntity
  8
SLD-0
 62
   179
100
AcDbLine
 10
120.05786249
 20
148.7090252017
 30
0.0
 11
119.8584737774
 21
149.0216985954
 31
0.0
  0
LINE
  5
15E
330
1F
100
AcDbEntity
  8
SLD-0
 62
   179
100
AcDbLine
 10
119.8584737774
 20
149.0216985954
 30
0.0
 11
119.6103796881
 21
149.3286755545
 31
0.0
  0
LINE
  5
15F
330
1F
100
AcDbEntity
  8
SLD-0
 62
   179
100
AcDbLine
 10
119.6103796881
 20
149.3286755545
 30
0.0
 11
119.3145022314
 21
149.621070796
 31
0.0
  0
LINE
  5
160
330
1F
100
AcDbEntity
  8
SLD-0
 62
   179
100
AcDbLine
 10
119.3145022314
 20
149.621070796
 30
0.0
 11
118.9722747128
 21
149.8884069411
 31
0.0
  0
LINE
  5
161
330
1F
100
AcDbEntity
  8
SLD-0
 62
   179
100
AcDbLine
 10
118.9722747128
 20
149.8884069411
 30
0.0
 11
118.579633772
 21
150.1200827447
 31
0.0
  0
LINE
  5
162
330
1F
100
AcDbEntity
  8
SLD-0
 62
   179
100
AcDbLine
 10
118.579633772
 20
150.1200827447
 30
0.0
 11
118.244137853
 21
150.2625604303
 31
0.0
  0
LINE
  5
163
330
1F
100
AcDbEntity
  8
SLD-0
 62
   179
100
AcDbLine
 10
118.244137853
 20
150.2625604303
 30
0.0
 11
117.88302125
 21
150.3636899547
 31
0.0
  0
LINE
  5
164
330
1F
100
AcDbEntity
  8
SLD-0
 62
   179
100
AcDbLine
 10
117.88302125
 20
150.3636899547
 30
0.0
 11
117.4997699033
 21
150.4130821818
 31
0.0
  0
LINE
  5
165
330
1F
100
AcDbEntity
  8
SLD-0
 62
   179
100
AcDbLine
 10
117.4997699033
 20
150.4130821818
 30
0.0
 11
117.1113408688
 21
150.405119141
 31
0.0
  0
LINE
  5
166
330
1F
100
AcDbEntity
  8
SLD-0
 62
   179
100
AcDbLine
 10
117.1113408688
 20
150.405119141
 30
0.0
 11
116.7859968316
 21
150.3519885851
 31
0.0
  0
LINE
  5
167
330
1F
100
AcDbEntity
  8
SLD-0
 62
   179
100
AcDbLine
 10
116.7859968316
 20
150.3519885851
 30
0.0
 11
116.4750887599
 21
150.2617338815
 31
0.0
  0
LINE
  5
168
330
1F
100
AcDbEntity
  8
SLD-0
 62
   179
100
AcDbLine
 10
116.4750887599
 20
150.2617338815
 30
0.0
 11
116.0775574442
 21
150.0866990214
 31
0.0
  0
LINE
  5
169
330
1F
100
AcDbEntity
  8
SLD-0
 62
   179
100
AcDbLine
 10
116.0775574442
 20
150.0866990214
 30
0.0
 11
115.721996646
 21
149.8690917765
 31
0.0
  0
LINE
  5
16A
330
1F
100
AcDbEntity
  8
SLD-0
 62
   179
100
AcDbLine
 10
115.721996646
 20
149.8690917765
 30
0.0
 11
115.4225363914
 21
149.6344073353
 31
0.0
  0
LINE
  5
16B
330
1F
100
AcDbEntity
  8
SLD-0
 62
   179
100
AcDbLine
 10
115.4225363914
 20
149.6344073353
 30
0.0
 11
115.1601511572
 21
149.3811993537
 31
0.0
  0
LINE
  5
16C
330
1F
100
AcDbEntity
  8
SLD-0
 62
   179
100
AcDbLine
 10
115.1601511572
 20
149.3811993537
 30
0.0
 11
114.9352316331
 21
149.1173873333
 31
0.0
  0
LINE
  5
16D
330
1F
100
AcDbEntity
  8
SLD-0
 62
   179
100
AcDbLine
 10
114.9352316331
 20
149.1173873333
 30
0.0
 11
114.6642167639
 21
148.7090252017
 31
0.0
  0
LINE
  5
16E
330
1F
100
AcDbEntity
  8
SLD-0
 62
   179
100
AcDbLine
 10
99.6642170992
 20
148.7090252017
 30
0.0
 11
99.5557133626
 21
148.5224947942
 31
0.0
  0
LINE
  5
16F
330
1F
100
AcDbEntity
  8
SLD-0
 62
   179
100
AcDbLine
 10
99.5557133626
 20
148.5224947942
 30
0.0
 11
99.364801548
 21
148.2222391901
 31
0.0
  0
LINE
  5
170
330
1F
100
AcDbEntity
  8
SLD-0
 62
   179
100
AcDbLine
 10
105.0578628253
 20
148.7090252017
 30
0.0
 11
104.858473647
 21
149.0216985954
 31
0.0
  0
LINE
  5
171
330
1F
100
AcDbEntity
  8
SLD-0
 62
   179
100
AcDbLine
 10
104.858473647
 20
149.0216985954
 30
0.0
 11
104.6103795577
 21
149.3286755545
 31
0.0
  0
LINE
  5
172
330
1F
100
AcDbEntity
  8
SLD-0
 62
   179
100
AcDbLine
 10
104.6103795577
 20
149.3286755545
 30
0.0
 11
104.3145025667
 21
149.621070796
 31
0.0
  0
LINE
  5
173
330
1F
100
AcDbEntity
  8
SLD-0
 62
   179
100
AcDbLine
 10
104.3145025667
 20
149.621070796
 30
0.0
 11
103.9722750481
 21
149.8884069411
 31
0.0
  0
LINE
  5
174
330
1F
100
AcDbEntity
  8
SLD-0
 62
   179
100
AcDbLine
 10
103.9722750481
 20
149.8884069411
 30
0.0
 11
103.5796336416
 21
150.1200827447
 31
0.0
  0
LINE
  5
175
330
1F
100
AcDbEntity
  8
SLD-0
 62
   179
100
AcDbLine
 10
103.5796336416
 20
150.1200827447
 30
0.0
 11
103.244137257
 21
150.2625604303
 31
0.0
  0
LINE
  5
176
330
1F
100
AcDbEntity
  8
SLD-0
 62
   179
100
AcDbLine
 10
103.244137257
 20
150.2625604303
 30
0.0
 11
102.8830215853
 21
150.3636899547
 31
0.0
  0
LINE
  5
177
330
1F
100
AcDbEntity
  8
SLD-0
 62
   179
100
AcDbLine
 10
102.8830215853
 20
150.3636899547
 30
0.0
 11
102.499769773
 21
150.4130821818
 31
0.0
  0
LINE
  5
178
330
1F
100
AcDbEntity
  8
SLD-0
 62
   179
100
AcDbLine
 10
102.499769773
 20
150.4130821818
 30
0.0
 11
102.1113412041
 21
150.405119141
 31
0.0
  0
LINE
  5
179
330
1F
100
AcDbEntity
  8
SLD-0
 62
   179
100
AcDbLine
 10
102.1113412041
 20
150.405119141
 30
0.0
 11
101.7859971669
 21
150.3519885851
 31
0.0
  0
LINE
  5
17A
330
1F
100
AcDbEntity
  8
SLD-0
 62
   179
100
AcDbLine
 10
101.7859971669
 20
150.3519885851
 30
0.0
 11
101.4750890952
 21
150.2617338815
 31
0.0
  0
LINE
  5
17B
330
1F
100
AcDbEntity
  8
SLD-0
 62
   179
100
AcDbLine
 10
101.4750890952
 20
150.2617338815
 30
0.0
 11
101.0775577795
 21
150.0866990214
 31
0.0
  0
LINE
  5
17C
330
1F
100
AcDbEntity
  8
SLD-0
 62
   179
100
AcDbLine
 10
101.0775577795
 20
150.0866990214
 30
0.0
 11
100.7219965156
 21
149.8690917765
 31
0.0
  0
LINE
  5
17D
330
1F
100
AcDbEntity
  8
SLD-0
 62
   179
100
AcDbLine
 10
100.7219965156
 20
149.8690917765
 30
0.0
 11
100.422536261
 21
149.6344073353
 31
0.0
  0
LINE
  5
17E
330
1F
100
AcDbEntity
  8
SLD-0
 62
   179
100
AcDbLine
 10
100.422536261
 20
149.6344073353
 30
0.0
 11
100.1601510268
 21
149.3811993537
 31
0.0
  0
LINE
  5
17F
330
1F
100
AcDbEntity
  8
SLD-0
 62
   179
100
AcDbLine
 10
100.1601510268
 20
149.3811993537
 30
0.0
 11
99.9352319684
 21
149.1173873333
 31
0.0
  0
LINE
  5
180
330
1F
100
AcDbEntity
  8
SLD-0
 62
   179
100
AcDbLine
 10
99.9352319684
 20
149.1173873333
 30
0.0
 11
99.6642170992
 21
148.7090252017
 31
0.0
  0
LINE
  5
181
330
1F
100
AcDbEntity
  8
SLD-0
 62
   179
100
AcDbLine
 10
105.3572783764
 20
148.2222391901
 30
0.0
 11
105.3568788391
 21
148.2228058999
 31
0.0
  0
LINE
  5
182
330
1F
100
AcDbEntity
  8
SLD-0
 62
   179
100
AcDbLine
 10
105.3568788391
 20
148.2228058999
 30
0.0
 11
105.0578628253
 21
148.7090252017
 31
0.0
  0
LINE
  5
183
330
1F
100
AcDbEntity
  8
SLD-0
  6
CENTERX2
 62
   179
100
AcDbLine
 10
117.3610397946
 20
146.7090253448
 30
0.0
 11
117.3610397946
 21
156.0044918424
 31
0.0
  0
LINE
  5
184
330
1F
100
AcDbEntity
  8
SLD-0
  6
CENTERX2
 62
   179
100
AcDbLine
 10
102.3610397946
 20
146.7090253448
 30
0.0
 11
102.3610397946
 21
156.0044918424
 31
0.0
  0
LINE
  5
185
330
1F
100
AcDbEntity
  8
SLD-0
  6
Continuous
 62
   179
100
AcDbLine
 10
69.9816665812
 20
154.0044918424
 30
0.0
 11
70.5059306499
 21
154.5287559111
 31
0.0
  0
LINE
  5
186
330
1F
100
AcDbEntity
  8
SLD-0
  6
Continuous
 62
   179
100
AcDbLine
 10
70.7180626843
 20
154.6166238768
 30
0.0
 11
72.6937986156
 21
154.6166238768
 31
0.0
  0
LINE
  5
187
330
1F
100
AcDbEntity
  8
SLD-0
  6
Continuous
 62
   179
100
AcDbLine
 10
63.0937986156
 20
154.6166238768
 30
0.0
 11
65.0695345469
 21
154.6166238768
 31
0.0
  0
LINE
  5
188
330
1F
100
AcDbEntity
  8
SLD-0
  6
Continuous
 62
   179
100
AcDbLine
 10
65.2816665813
 20
154.5287559112
 30
0.0
 11
65.80593065
 21
154.0044918425
 31
0.0
  0
LINE
  5
189
330
1F
100
AcDbEntity
  8
SLD-0
  6
Continuous
 62
   179
100
AcDbLine
 10
66.0180626843
 20
153.9166238768
 30
0.0
 11
69.7695345469
 21
153.9166238768
 31
0.0
  0
LINE
  5
18A
330
1F
100
AcDbEntity
  8
SLD-0
 62
   179
100
AcDbLine
 10
70.8937986416
 20
150.410240251
 30
0.0
 11
70.8937986416
 21
150.4173737162
 31
0.0
  0
LINE
  5
18B
330
1F
100
AcDbEntity
  8
SLD-0
 62
   179
100
AcDbLine
 10
64.8937985895
 20
150.4173737162
 30
0.0
 11
64.8937985895
 21
150.410240251
 31
0.0
  0
LINE
  5
18C
330
1F
100
AcDbEntity
  8
SLD-0
  6
CENTERX2
 62
   179
100
AcDbLine
 10
67.8937986156
 20
146.7090253448
 30
0.0
 11
67.8937986156
 21
156.0044918424
 31
0.0
  0
ARC
  5
18D
330
1F
100
AcDbEntity
  8
SLD-0
  6
Continuous
 62
   179
100
AcDbCircle
 10
117.3610403083
 20
189.5271754714
 30
0.0
 40
2.500000176485633
100
AcDbArc
 50
56.6311812479
 51
123.36882092
  0
ARC
  5
18E
330
1F
100
AcDbEntity
  8
SLD-0
  6
Continuous
 62
   179
100
AcDbCircle
 10
102.3610392809
 20
189.5271754714
 30
0.0
 40
2.500000176485621
100
AcDbArc
 50
56.63117908
 51
123.3688187522
  0
ARC
  5
18F
330
1F
100
AcDbEntity
  8
SLD-0
  6
Continuous
 62
   179
100
AcDbCircle
 10
117.3610403083
 20
189.5271754714
 30
0.0
 40
2.500000022861215
100
AcDbArc
 50
236.6311540763
 51
303.3688437137
  0
ARC
  5
190
330
1F
100
AcDbEntity
  8
SLD-0
  6
Continuous
 62
   179
100
AcDbCircle
 10
102.3610392809
 20
189.5271754714
 30
0.0
 40
2.500000009801244
100
AcDbArc
 50
236.6311541186
 51
303.3688437136
  0
ARC
  5
191
330
1F
100
AcDbEntity
  8
SLD-0
  6
Continuous
 62
   179
100
AcDbCircle
 10
117.3610403083
 20
189.5271754714
 30
0.0
 40
2.500000020166131
100
AcDbArc
 50
131.3841046916
 51
228.6158700583
  0
ARC
  5
192
330
1F
100
AcDbEntity
  8
SLD-0
  6
Continuous
 62
   179
100
AcDbCircle
 10
102.3610392809
 20
189.5271754714
 30
0.0
 40
2.500000020166081
100
AcDbArc
 50
311.3841299417
 51
48.6158953084
  0
ARC
  5
193
330
1F
100
AcDbEntity
  8
SLD-0
  6
Continuous
 62
   179
100
AcDbCircle
 10
102.3610392809
 20
189.5271754714
 30
0.0
 40
2.500000006977309
100
AcDbArc
 50
131.384102545
 51
228.6158700583
  0
ARC
  5
194
330
1F
100
AcDbEntity
  8
SLD-0
  6
Continuous
 62
   179
100
AcDbCircle
 10
117.3610403083
 20
189.5271754714
 30
0.0
 40
2.500000006977299
100
AcDbArc
 50
311.3841299417
 51
48.615897455
  0
ARC
  5
195
330
1F
100
AcDbEntity
  8
SLD-0
  6
Continuous
 62
   179
100
AcDbCircle
 10
117.3610400926
 20
147.3092954815
 30
0.0
 40
2.545996312100001
100
AcDbArc
 50
33.3517022686
 51
146.6482977314
  0
ARC
  5
196
330
1F
100
AcDbEntity
  8
SLD-0
  6
Continuous
 62
   179
100
AcDbCircle
 10
102.3610394966
 20
147.3092955241
 30
0.0
 40
2.545996288699999
100
AcDbArc
 50
33.3517014673
 51
146.6482985327
  0
ARC
  5
197
330
1F
100
AcDbEntity
  8
SLD-0
  6
Continuous
 62
   179
100
AcDbCircle
 10
113.7154638286
 20
155.3170581972
 30
0.0
 40
11.34975734969714
100
AcDbArc
 50
215.606696451
 51
218.7264090763
  0
ARC
  5
198
330
1F
100
AcDbEntity
  8
SLD-0
  6
Continuous
 62
   179
100
AcDbCircle
 10
91.3417010739
 20
155.0630062101
 30
0.0
 40
10.92941390999143
100
AcDbArc
 50
321.2136537091
 51
324.4533783972
  0
ARC
  5
199
330
1F
100
AcDbEntity
  8
SLD-0
  6
Continuous
 62
   179
100
AcDbCircle
 10
128.7160651181
 20
155.3174968475
 30
0.0
 40
11.35050112326614
100
AcDbArc
 50
215.6067312938
 51
218.7262365995
  0
ARC
  5
19A
330
1F
100
AcDbEntity
  8
SLD-0
  6
Continuous
 62
   179
100
AcDbCircle
 10
106.3410595057
 20
155.063509162
 30
0.0
 40
10.93022880103778
100
AcDbArc
 50
321.2137042164
 51
324.4531902567
  0
ARC
  5
19B
330
1F
100
AcDbEntity
  8
SLD-0
  6
HIDDEN
 62
     8
100
AcDbCircle
 10
113.381020084
 20
155.0635091624
 30
0.0
 40
10.93022880166786
100
AcDbArc
 50
215.5468097437
 51
218.7862957837
  0
ARC
  5
19C
330
1F
100
AcDbEntity
  8
SLD-0
  6
HIDDEN
 62
     8
100
AcDbCircle
 10
102.3610394966
 20
147.3092955241
 30
0.0
 40
2.545996288699999
100
AcDbArc
 50
33.3517014673
 51
146.6482985327
  0
ARC
  5
19D
330
1F
100
AcDbEntity
  8
SLD-0
  6
HIDDEN
 62
     8
100
AcDbCircle
 10
91.0060144713
 20
155.3174968474
 30
0.0
 40
11.35050112303664
100
AcDbArc
 50
321.2737634003
 51
324.393268706
  0
ARC
  5
19E
330
1F
100
AcDbEntity
  8
SLD-0
  6
HIDDEN
 62
     8
100
AcDbCircle
 10
102.3610397294
 20
151.9166239001
 30
0.0
 40
2.500000000388956
100
AcDbArc
 50
56.6311662821
 51
123.3688337179
  0
ARC
  5
19F
330
1F
100
AcDbEntity
  8
SLD-0
  6
HIDDEN
 62
     8
100
AcDbCircle
 10
102.3610397294
 20
151.9166239001
 30
0.0
 40
2.500000000388956
100
AcDbArc
 50
56.6311662821
 51
123.3688337179
  0
ARC
  5
1A0
330
1F
100
AcDbEntity
  8
SLD-0
  6
HIDDEN
 62
     8
100
AcDbCircle
 10
128.3803785153
 20
155.06300621
 30
0.0
 40
10.92941390994083
100
AcDbArc
 50
215.5466216025
 51
218.7863462908
  0
ARC
  5
1A1
330
1F
100
AcDbEntity
  8
SLD-0
  6
HIDDEN
 62
     8
100
AcDbCircle
 10
117.3610400926
 20
147.3092954815
 30
0.0
 40
2.545996312100001
100
AcDbArc
 50
33.3517022686
 51
146.6482977314
  0
ARC
  5
1A2
330
1F
100
AcDbEntity
  8
SLD-0
  6
HIDDEN
 62
     8
100
AcDbCircle
 10
105.8372879389
 20
155.4454292803
 30
0.0
 40
11.56216781087294
100
AcDbArc
 50
321.3022541853
 51
324.3646402879
  0
ARC
  5
1A3
330
1F
100
AcDbEntity
  8
SLD-0
  6
HIDDEN
 62
     8
100
AcDbCircle
 10
117.3610398598
 20
151.9166239
 30
0.0
 40
2.500000000486264
100
AcDbArc
 50
56.6311662842
 51
123.3688337171
  0
ARC
  5
1A4
330
1F
100
AcDbEntity
  8
SLD-0
  6
HIDDEN
 62
     8
100
AcDbCircle
 10
117.3610398598
 20
151.9166239
 30
0.0
 40
2.500000000486264
100
AcDbArc
 50
56.6311662842
 51
123.3688337171
  0
ARC
  5
1A5
330
1F
100
AcDbEntity
  8
SLD-0
  6
Continuous
 62
   179
100
AcDbCircle
 10
70.7180626843
 20
154.3166238768
 30
0.0
 40
0.299999999995805
100
AcDbArc
 50
90.0
 51
135.0000000135
  0
ARC
  5
1A6
330
1F
100
AcDbEntity
  8
SLD-0
  6
Continuous
 62
   179
100
AcDbCircle
 10
72.6937986156
 20
154.1166238768
 30
0.0
 40
0.5
100
AcDbArc
 50
334.5807856114
 51
90.0
  0
ARC
  5
1A7
330
1F
100
AcDbEntity
  8
SLD-0
  6
Continuous
 62
   179
100
AcDbCircle
 10
58.6943319651
 20
160.7698136005
 30
0.0
 40
16.00000000001304
100
AcDbArc
 50
311.0794373955
 51
334.5807856116
  0
ARC
  5
1A8
330
1F
100
AcDbEntity
  8
SLD-0
  6
Continuous
 62
   179
100
AcDbCircle
 10
67.8937986157
 20
150.2166238768
 30
0.0
 40
2.000000000001655
100
AcDbArc
 50
228.9205626045
 51
311.0794373934
  0
ARC
  5
1A9
330
1F
100
AcDbEntity
  8
SLD-0
  6
Continuous
 62
   179
100
AcDbCircle
 10
77.093265266
 20
160.7698136006
 30
0.0
 40
15.99999999996553
100
AcDbArc
 50
205.4192143893
 51
228.9205626053
  0
ARC
  5
1AA
330
1F
100
AcDbEntity
  8
SLD-0
  6
Continuous
 62
   179
100
AcDbCircle
 10
65.0695345469
 20
154.3166238768
 30
0.0
 40
0.2999999999999843
100
AcDbArc
 50
45.0
 51
90.0
  0
ARC
  5
1AB
330
1F
100
AcDbEntity
  8
SLD-0
  6
Continuous
 62
   179
100
AcDbCircle
 10
66.0180626843
 20
154.2166238768
 30
0.0
 40
0.3000000000311616
100
AcDbArc
 50
225.0
 51
270.0
  0
ARC
  5
1AC
330
1F
100
AcDbEntity
  8
SLD-0
  6
Continuous
 62
   179
100
AcDbCircle
 10
69.7695345469
 20
154.2166238768
 30
0.0
 40
0.299999999995805
100
AcDbArc
 50
270.0
 51
314.9999999865
  0
ARC
  5
1AD
330
1F
100
AcDbEntity
  8
SLD-0
  6
Continuous
 62
   179
100
AcDbCircle
 10
63.0937986156
 20
154.1166238768
 30
0.0
 40
0.5000000000321165
100
AcDbArc
 50
90.0
 51
205.4192143908
  0
DIMENSION
  5
1AE
330
1F
100
AcDbEntity
  8
SLD-0
 62
     7
100
AcDbDimension
  2
*D5
 10
122.8610397946
 20
207.628788066
 30
0.0
 11
129.6112079989
 21
207.628788066
 31
0.0
 70
   160
 71
     1
 42
5.5
  3
SLDDIMSTYLE0
100
AcDbAlignedDimension
 13
117.3610397946
 23
194.5271758665
 33
0.0
 14
122.8610397946
 24
194.8271758665
 34
0.0
100
AcDbRotatedDimension
1001
ACAD
1000
DSTYLE
1002
{
1070
    77
1070
     3
1070
   143
1040
0.0393700787
1070
    41
1040
3.0
1070
    44
1040
1.0
1070
    42
1040
1.0
1070
   147
1040
1.524
1070
    73
1070
     0
1070
    74
1070
     0
1070
   140
1040
3.5
1070
   284
1070
    12
1070
    78
1070
    12
1002
}
  0
DIMENSION
  5
1CF
330
1F
100
AcDbEntity
  8
SLD-0
 62
     7
100
AcDbDimension
  2
*D7
 10
117.3610397946
 20
207.628788066
 30
0.0
 11
109.8610397946
 21
207.628788066
 31
0.0
 70
   160
 71
     1
 42
15.0
  3
SLDDIMSTYLE1
100
AcDbAlignedDimension
 13
102.3610397946
 23
194.5271758665
 33
0.0
 14
117.3610397946
 24
194.5271758665
 34
0.0
100
AcDbRotatedDimension
1001
ACAD
1000
DSTYLE
1002
{
1070
    77
1070
     3
1070
   143
1040
0.0393700787
1070
    41
1040
3.0
1070
    44
1040
1.0
1070
    42
1040
1.0
1070
   147
1040
1.524
1070
    73
1070
     0
1070
    74
1070
     0
1070
   140
1040
3.5
1070
   284
1070
    12
1070
    78
1070
    12
1002
}
  0
DIMENSION
  5
1E7
330
1F
100
AcDbEntity
  8
SLD-0
 62
     7
100
AcDbDimension
  2
*D8
 10
96.8610397946
 20
213.5726708423
 30
0.0
 11
109.8610397946
 21
213.5726708423
 31
0.0
 70
   160
 71
     1
 42
26.0
  3
SLDDIMSTYLE1
100
AcDbAlignedDimension
 13
122.8610397946
 23
194.8271758665
 33
0.0
 14
96.8610397946
 24
194.8271758665
 34
0.0
100
AcDbRotatedDimension
1001
ACAD
1000
DSTYLE
1002
{
1070
    77
1070
     3
1070
   143
1040
0.0393700787
1070
    41
1040
3.0
1070
    44
1040
1.0
1070
    42
1040
1.0
1070
   147
1040
1.524
1070
    73
1070
     0
1070
    74
1070
     0
1070
   140
1040
3.5
1070
   284
1070
    12
1070
    78
1070
    12
1002
}
  0
DIMENSION
  5
1FE
330
1F
100
AcDbEntity
  8
SLD-0
 62
     7
100
AcDbDimension
  2
*D9
 10
2.8512461006
 20
5.2792412253
 30
0.0
 11
87.9588911768
 21
-5.2792417942
 31
0.0
 70
   163
  1
2-M<><>
 71
     1
 42
5.9999993534
  3
SLDDIMSTYLE2
100
AcDbDiametricDimension
 15
0.0
 25
0.0
 35
0.0
 40
0.0
1001
ACAD
1000
DSTYLE
1002
{
1070
    77
1070
     0
1070
   143
1040
0.0393700787
1070
    41
1040
3.0
1070
    44
1040
1.0
1070
    42
1040
1.0
1070
   147
1040
1.524
1070
    73
1070
     1
1070
    74
1070
     1
1070
   140
1040
3.5
1070
   284
1070
    12
1070
    78
1070
    12
1002
}
  0
DIMENSION
  5
20F
330
1F
100
AcDbEntity
  8
SLD-0
 62
     7
100
AcDbDimension
  2
*D10
 10
145.1960699712
 20
194.8271758665
 30
0.0
 11
145.1960699712
 21
189.5271758665
 31
0.0
 70
   160
 71
     1
 42
10.6
  3
SLDDIMSTYLE0
100
AcDbAlignedDimension
 13
122.8610397946
 23
184.2271758665
 33
0.0
 14
122.8610397946
 24
194.8271758665
 34
0.0
 50
90.0
100
AcDbRotatedDimension
1001
ACAD
1000
DSTYLE
1002
{
1070
    77
1070
     3
1070
   143
1040
0.0393700787
1070
    41
1040
3.0
1070
    44
1040
1.0
1070
    42
1040
1.0
1070
   147
1040
1.524
1070
    73
1070
     0
1070
    74
1070
     0
1070
   140
1040
3.5
1070
   284
1070
    12
1070
    78
1070
    12
1002
}
  0
DIMENSION
  5
229
330
1F
100
AcDbEntity
  8
SLD-0
 62
     7
100
AcDbDimension
  2
*D11
 10
133.9252181712
 20
184.2271758665
 30
0.0
 11
133.9252181712
 21
177.2406773623
 31
0.0
 70
   160
 71
     1
 42
5.3
  3
SLDDIMSTYLE0
100
AcDbAlignedDimension
 13
122.3610397946
 23
189.5271758665
 33
0.0
 14
122.8610397946
 24
184.2271758665
 34
0.0
 50
90.0
100
AcDbRotatedDimension
1001
ACAD
1000
DSTYLE
1002
{
1070
    77
1070
     3
1070
   143
1040
0.0393700787
1070
    41
1040
3.0
1070
    44
1040
1.0
1070
    42
1040
1.0
1070
   147
1040
1.524
1070
    73
1070
     0
1070
    74
1070
     0
1070
   140
1040
3.5
1070
   284
1070
    12
1070
    78
1070
    12
1002
}
  0
MTEXT
  5
244
330
1F
100
AcDbEntity
  8
SLD-0
 62
     7
100
AcDbMText
 10
154.8105392413
 20
18.4938014013
 30
0.0
 40
3.5
 41
0.0
 71
     1
 72
     1
  1
131054
  7
SLDTEXTSTYLE0
 73
     1
 44
1.0
  0
MTEXT
  5
245
330
1F
100
AcDbEntity
  8
SLD-0
 62
     7
100
AcDbMText
 10
147.3760162014
 20
29.7138882404
 30
0.0
 40
4.2333333333
 41
0.0
 71
     1
 72
     1
  1
N01914-101-0
  7
SLDTEXTSTYLE1
 73
     1
 44
1.0
  0
MTEXT
  5
246
330
1F
100
AcDbEntity
  8
SLD-0
 62
     7
100
AcDbMText
 10
149.4388837948
 20
43.2377018572
 30
0.0
 40
4.2333333333
 41
0.0
 71
     1
 72
     1
  1
Nut M6-P15
  7
SLDTEXTSTYLE1
 73
     1
 44
1.0
  0
INSERT
  5
247
330
1F
100
AcDbEntity
  8
0
  6
Continuous
 62
     7
370
     0
100
AcDbBlockReference
  2
SURFACEFINISH39
 10
176.1663369538
 20
249.0193918395
 30
0.0
  0
INSERT
  5
248
330
1F
100
AcDbEntity
  8
0
  6
Continuous
 62
     7
370
     0
100
AcDbBlockReference
  2
注記
 10
107.5176828824
 20
55.5251153399
 30
0.0
  0
INSERT
  5
249
330
1F
100
AcDbEntity
  8
0
  6
Continuous
 62
     7
370
     0
100
AcDbBlockReference
  2
SW_CENTERMARK0
 10
0.0
 20
0.0
 30
0.0
  0
INSERT
  5
24A
330
1F
100
AcDbEntity
  8
0
  6
Continuous
 62
     7
370
     0
100
AcDbBlockReference
  2
SW_CENTERMARK1
 10
0.0
 20
0.0
 30
0.0
  0
ENDSEC
  0
SECTION
  2
OBJECTS
  0
DICTIONARY
  5
C
330
0
100
AcDbDictionary
281
     1
  3
ACAD_GROUP
350
D
  3
ACAD_LAYOUT
350
1A
  3
ACAD_MLINESTYLE
350
17
  3
ACAD_PLOTSETTINGS
350
19
  3
ACAD_PLOTSTYLENAME
350
E
  0
DICTIONARY
  5
D
102
{ACAD_REACTORS
330
C
102
}
330
C
100
AcDbDictionary
281
     1
  0
DICTIONARY
  5
1A
102
{ACAD_REACTORS
330
C
102
}
330
C
100
AcDbDictionary
281
     1
  3
Layout1
350
1E
  3
Layout2
350
26
  3
Model
350
22
  0
DICTIONARY
  5
17
102
{ACAD_REACTORS
330
C
102
}
330
C
100
AcDbDictionary
281
     1
  3
Standard
350
18
  0
DICTIONARY
  5
19
102
{ACAD_REACTORS
330
C
102
}
330
C
100
AcDbDictionary
281
     1
  0
ACDBDICTIONARYWDFLT
  5
E
102
{ACAD_REACTORS
330
C
102
}
330
C
100
AcDbDictionary
281
     1
  3
Normal
350
F
100
AcDbDictionaryWithDefault
340
F
  0
LAYOUT
  5
1E
102
{ACAD_REACTORS
330
1A
102
}
330
1A
100
AcDbPlotSettings
  1

  2

  4

  6

 40
0.0
 41
0.0
 42
0.0
 43
0.0
 44
0.0
 45
0.0
 46
0.0
 47
0.0
 48
0.0
 49
0.0
140
0.0
141
0.0
142
1.0
143
1.0
 70
   688
 72
     0
 73
     0
 74
     5
  7

 75
    16
147
1.0
148
0.0
149
0.0
100
AcDbLayout
  1
Layout1
 70
     1
 71
     1
 10
0.0
 20
0.0
 11
0.0
 21
0.0
 12
0.0
 22
0.0
 32
0.0
 14
0.0
 24
0.0
 34
0.0
 15
0.0
 25
0.0
 35
0.0
146
0.0
 13
0.0
 23
0.0
 33
0.0
 16
1.0
 26
0.0
 36
0.0
 17
0.0
 27
1.0
 37
0.0
 76
     0
330
1B
  0
LAYOUT
  5
26
102
{ACAD_REACTORS
330
1A
102
}
330
1A
100
AcDbPlotSettings
  1

  2

  4

  6

 40
0.0
 41
0.0
 42
0.0
 43
0.0
 44
0.0
 45
0.0
 46
0.0
 47
0.0
 48
0.0
 49
0.0
140
0.0
141
0.0
142
1.0
143
1.0
 70
   688
 72
     0
 73
     0
 74
     5
  7

 75
    16
147
1.0
148
0.0
149
0.0
100
AcDbLayout
  1
Layout2
 70
     1
 71
     2
 10
0.0
 20
0.0
 11
0.0
 21
0.0
 12
0.0
 22
0.0
 32
0.0
 14
0.0
 24
0.0
 34
0.0
 15
0.0
 25
0.0
 35
0.0
146
0.0
 13
0.0
 23
0.0
 33
0.0
 16
1.0
 26
0.0
 36
0.0
 17
0.0
 27
1.0
 37
0.0
 76
     0
330
23
  0
LAYOUT
  5
22
102
{ACAD_REACTORS
330
1A
102
}
330
1A
100
AcDbPlotSettings
  1

  2

  4

  6

 40
0.0
 41
0.0
 42
0.0
 43
0.0
 44
0.0
 45
0.0
 46
0.0
 47
0.0
 48
0.0
 49
0.0
140
0.0
141
0.0
142
1.0
143
1.0
 70
  1712
 72
     0
 73
     0
 74
     0
  7

 75
     0
147
1.0
148
0.0
149
0.0
100
AcDbLayout
  1
Model
 70
     1
 71
     0
 10
0.0
 20
0.0
 11
0.0
 21
0.0
 12
0.0
 22
0.0
 32
0.0
 14
0.0
 24
0.0
 34
0.0
 15
210.0
 25
297.0
 35
0.0
146
0.0
 13
0.0
 23
0.0
 33
0.0
 16
1.0
 26
0.0
 36
0.0
 17
0.0
 27
1.0
 37
0.0
 76
     0
330
1F
  0
MLINESTYLE
  5
18
102
{ACAD_REACTORS
330
17
102
}
330
17
100
AcDbMlineStyle
  2
Standard
 70
     0
  3

 62
   256
 51
90.0
 52
90.0
 71
     2
 49
0.5
 62
   256
  6
BYLAYER
 49
-0.5
 62
   256
  6
BYLAYER
  0
ACDBPLACEHOLDER
  5
F
102
{ACAD_REACTORS
330
E
102
}
330
E
  0
ENDSEC
  0
EOF
