  0
SECTION
  2
HEADER
  9
$ACADVER
  1
AC1015
  9
$ACADMAINTVER
 70
     6
  9
$DWGCODEPAGE
  3
DOS932
  9
$INSBASE
 10
0.0
 20
0.0
 30
0.0
  9
$EXTMIN
 10
0.0
 20
0.0
 30
0.0
  9
$EXTMAX
 10
210.0
 20
297.0
 30
0.0
  9
$LIMMIN
 10
0.0
 20
0.0
  9
$LIMMAX
 10
0.0
 20
0.0
  9
$ORTHOMODE
 70
     0
  9
$REGENMODE
 70
     1
  9
$FILLMODE
 70
     1
  9
$QTEXTMODE
 70
     0
  9
$MIRRTEXT
 70
     1
  9
$LTSCALE
 40
1.0
  9
$ATTMODE
 70
     1
  9
$TEXTSIZE
 40
3.5
  9
$TRACEWID
 40
1.0
  9
$TEXTSTYLE
  7
Standard
  9
$CLAYER
  8
0
  9
$CELTYPE
  6
ByLayer
  9
$CECOLOR
 62
   256
  9
$CELTSCALE
 40
1.0
  9
$DISPSILH
 70
     0
  9
$DIMSCALE
 40
1.0
  9
$DIMASZ
 40
3.0
  9
$DIMEXO
 40
1.0
  9
$DIMDLI
 40
3.75
  9
$DIMRND
 40
0.0
  9
$DIMDLE
 40
0.0
  9
$DIMEXE
 40
1.0
  9
$DIMTP
 40
0.0
  9
$DIMTM
 40
0.0
  9
$DIMTXT
 40
3.5
  9
$DIMCEN
 40
2.5
  9
$DIMTSZ
 40
0.0
  9
$DIMTOL
 70
     0
  9
$DIMLIM
 70
     0
  9
$DIMTIH
 70
     1
  9
$DIMTOH
 70
     1
  9
$DIMSE1
 70
     0
  9
$DIMSE2
 70
     0
  9
$DIMTAD
 70
     1
  9
$DIMZIN
 70
     1
  9
$DIMBLK
  1

  9
$DIMASO
 70
     1
  9
$DIMSHO
 70
     1
  9
$DIMPOST
  1

  9
$DIMAPOST
  1

  9
$DIMALT
 70
     0
  9
$DIMALTD
 70
     3
  9
$DIMALTF
 40
0.0393700787
  9
$DIMLFAC
 40
1.0
  9
$DIMTOFL
 70
     1
  9
$DIMTVP
 40
0.0
  9
$DIMTIX
 70
     0
  9
$DIMSOXD
 70
     0
  9
$DIMSAH
 70
     0
  9
$DIMBLK1
  1

  9
$DIMBLK2
  1

  9
$DIMSTYLE
  2
ISO-25
  9
$DIMCLRD
 70
     0
  9
$DIMCLRE
 70
     0
  9
$DIMCLRT
 70
     0
  9
$DIMTFAC
 40
1.0
  9
$DIMGAP
 40
1.524
  9
$DIMJUST
 70
     0
  9
$DIMSD1
 70
     0
  9
$DIMSD2
 70
     0
  9
$DIMTOLJ
 70
     0
  9
$DIMTZIN
 70
     1
  9
$DIMALTZ
 70
     0
  9
$DIMALTTZ
 70
     0
  9
$DIMUPT
 70
     0
  9
$DIMDEC
 70
     2
  9
$DIMTDEC
 70
     2
  9
$DIMALTU
 70
     2
  9
$DIMALTTD
 70
     3
  9
$DIMTXSTY
  7
Standard
  9
$DIMAUNIT
 70
     0
  9
$DIMADEC
 70
     0
  9
$DIMALTRND
 40
0.0
  9
$DIMAZIN
 70
     0
  9
$DIMDSEP
 70
    44
  9
$DIMATFIT
 70
     3
  9
$DIMFRAC
 70
     0
  9
$DIMLDRBLK
  1

  9
$DIMLUNIT
 70
     2
  9
$DIMLWD
 70
    -2
  9
$DIMLWE
 70
    -2
  9
$DIMTMOVE
 70
     0
  9
$LUNITS
 70
     2
  9
$LUPREC
 70
     1
  9
$SKETCHINC
 40
1.0
  9
$FILLETRAD
 40
10.0
  9
$AUNITS
 70
     0
  9
$AUPREC
 70
     0
  9
$MENU
  1
.
  9
$ELEVATION
 40
0.0
  9
$PELEVATION
 40
0.0
  9
$THICKNESS
 40
0.0
  9
$LIMCHECK
 70
     0
  9
$CHAMFERA
 40
10.0
  9
$CHAMFERB
 40
10.0
  9
$CHAMFERC
 40
20.0
  9
$CHAMFERD
 40
0.0
  9
$SKPOLY
 70
     0
  9
$TDCREATE
 40
2454309.425976921
  9
$TDUCREATE
 40
2454309.050976921
  9
$TDUPDATE
 40
2454309.425976933
  9
$TDUUPDATE
 40
2454309.050976933
  9
$TDINDWG
 40
0.0000000116
  9
$TDUSRTIMER
 40
0.0000000116
  9
$USRTIMER
 70
     1
  9
$ANGBASE
 50
0.0
  9
$ANGDIR
 70
     0
  9
$PDMODE
 70
     0
  9
$PDSIZE
 40
-1.0
  9
$PLINEWID
 40
0.0
  9
$SPLFRAME
 70
     0
  9
$SPLINETYPE
 70
     6
  9
$SPLINESEGS
 70
     8
  9
$HANDSEED
  5
25A
  9
$SURFTAB1
 70
     6
  9
$SURFTAB2
 70
     6
  9
$SURFTYPE
 70
     6
  9
$SURFU
 70
     6
  9
$SURFV
 70
     6
  9
$UCSBASE
  2

  9
$UCSNAME
  2

  9
$UCSORG
 10
0.0
 20
0.0
 30
0.0
  9
$UCSXDIR
 10
1.0
 20
0.0
 30
0.0
  9
$UCSYDIR
 10
0.0
 20
1.0
 30
0.0
  9
$UCSORTHOREF
  2

  9
$UCSORTHOVIEW
 70
     0
  9
$UCSORGTOP
 10
0.0
 20
0.0
 30
0.0
  9
$UCSORGBOTTOM
 10
0.0
 20
0.0
 30
0.0
  9
$UCSORGLEFT
 10
0.0
 20
0.0
 30
0.0
  9
$UCSORGRIGHT
 10
0.0
 20
0.0
 30
0.0
  9
$UCSORGFRONT
 10
0.0
 20
0.0
 30
0.0
  9
$UCSORGBACK
 10
0.0
 20
0.0
 30
0.0
  9
$PUCSBASE
  2

  9
$PUCSNAME
  2

  9
$PUCSORG
 10
0.0
 20
0.0
 30
0.0
  9
$PUCSXDIR
 10
1.0
 20
0.0
 30
0.0
  9
$PUCSYDIR
 10
0.0
 20
1.0
 30
0.0
  9
$PUCSORTHOREF
  2

  9
$PUCSORTHOVIEW
 70
     0
  9
$PUCSORGTOP
 10
0.0
 20
0.0
 30
0.0
  9
$PUCSORGBOTTOM
 10
0.0
 20
0.0
 30
0.0
  9
$PUCSORGLEFT
 10
0.0
 20
0.0
 30
0.0
  9
$PUCSORGRIGHT
 10
0.0
 20
0.0
 30
0.0
  9
$PUCSORGFRONT
 10
0.0
 20
0.0
 30
0.0
  9
$PUCSORGBACK
 10
0.0
 20
0.0
 30
0.0
  9
$USERI1
 70
     0
  9
$USERI2
 70
     0
  9
$USERI3
 70
     0
  9
$USERI4
 70
     0
  9
$USERI5
 70
     0
  9
$USERR1
 40
0.0
  9
$USERR2
 40
0.0
  9
$USERR3
 40
0.0
  9
$USERR4
 40
0.0
  9
$USERR5
 40
0.0
  9
$WORLDVIEW
 70
     1
  9
$SHADEDGE
 70
     3
  9
$SHADEDIF
 70
    70
  9
$TILEMODE
 70
     1
  9
$MAXACTVP
 70
    64
  9
$PINSBASE
 10
0.0
 20
0.0
 30
0.0
  9
$PLIMCHECK
 70
     0
  9
$PEXTMIN
 10
1.0000000000E+20
 20
1.0000000000E+20
 30
1.0000000000E+20
  9
$PEXTMAX
 10
-1.0000000000E+20
 20
-1.0000000000E+20
 30
-1.0000000000E+20
  9
$PLIMMIN
 10
0.0
 20
0.0
  9
$PLIMMAX
 10
420.0
 20
297.0
  9
$UNITMODE
 70
     0
  9
$VISRETAIN
 70
     1
  9
$PLINEGEN
 70
     0
  9
$PSLTSCALE
 70
     1
  9
$TREEDEPTH
 70
  3020
  9
$CMLSTYLE
  2
Standard
  9
$CMLJUST
 70
     0
  9
$CMLSCALE
 40
20.0
  9
$PROXYGRAPHICS
 70
     1
  9
$MEASUREMENT
 70
     1
  9
$CELWEIGHT
370
    -1
  9
$ENDCAPS
280
     0
  9
$JOINSTYLE
280
     0
  9
$LWDISPLAY
290
     1
  9
$INSUNITS
 70
     4
  9
$HYPERLINKBASE
  1

  9
$STYLESHEET
  1

  9
$XEDIT
290
     1
  9
$CEPSNTYPE
380
     0
  9
$PSTYLEMODE
290
     1
  9
$FINGERPRINTGUID
  2
{276EC231-6704-44E5-AB4C-A83F50F43362}
  9
$VERSIONGUID
  2
{FAEB1C32-E019-11D5-929B-00C0DF256EC4}
  9
$EXTNAMES
290
     1
  9
$PSVPSCALE
 40
0.0
  9
$OLESTARTUP
290
     0
  0
ENDSEC
  0
SECTION
  2
CLASSES
  0
CLASS
  1
ACDBDICTIONARYWDFLT
  2
AcDbDictionaryWithDefault
  3
ObjectDBX Classes
 90
        0
280
     0
281
     0
  0
CLASS
  1
ACDBPLACEHOLDER
  2
AcDbPlaceHolder
  3
ObjectDBX Classes
 90
        0
280
     0
281
     0
  0
CLASS
  1
LAYOUT
  2
AcDbLayout
  3
ObjectDBX Classes
 90
        0
280
     0
281
     0
  0
ENDSEC
  0
SECTION
  2
TABLES
  0
TABLE
  2
VPORT
  5
8
330
0
100
AcDbSymbolTable
 70
     1
  0
VPORT
  5
29
330
8
100
AcDbSymbolTableRecord
100
AcDbViewportTableRecord
  2
*Active
 70
     0
 10
0.0
 20
0.0
 11
1.0
 21
1.0
 12
105.0
 22
148.5
 13
0.0
 23
0.0
 14
10.0
 24
10.0
 15
10.0
 25
10.0
 16
0.0
 26
0.0
 36
1.0
 17
0.0
 27
0.0
 37
0.0
 40
297.0
 41
1.9729729729
 42
50.0
 43
0.0
 44
0.0
 50
0.0
 51
0.0
 71
     0
 72
  2000
 73
     1
 74
     3
 75
     0
 76
     0
 77
     0
 78
     0
281
     0
 65
     1
110
0.0
120
0.0
130
0.0
111
1.0
121
0.0
131
0.0
112
0.0
122
1.0
132
0.0
 79
     0
146
0.0
  0
ENDTAB
  0
TABLE
  2
LTYPE
  5
5
330
0
100
AcDbSymbolTable
 70
     6
  0
LTYPE
  5
14
330
5
100
AcDbSymbolTableRecord
100
AcDbLinetypeTableRecord
  2
ByBlock
 70
     0
  3

 72
    65
 73
     0
 40
0.0
  0
LTYPE
  5
15
330
5
100
AcDbSymbolTableRecord
100
AcDbLinetypeTableRecord
  2
ByLayer
 70
     0
  3

 72
    65
 73
     0
 40
0.0
  0
LTYPE
  5
16
330
5
100
AcDbSymbolTableRecord
100
AcDbLinetypeTableRecord
  2
Continuous
 70
     0
  3
Solid line
 72
    65
 73
     0
 40
0.0
  0
LTYPE
  5
2A
330
5
100
AcDbSymbolTableRecord
100
AcDbLinetypeTableRecord
  2
HIDDEN
 70
     0
  3
Hidden __ __ __ __ __ __ __ __ __ __ __ __ __ __
 72
    65
 73
     2
 40
1.905
 49
1.27
 74
     0
 49
-0.635
 74
     0
  0
LTYPE
  5
2B
330
5
100
AcDbSymbolTableRecord
100
AcDbLinetypeTableRecord
  2
PHANTOM
 70
     0
  3
Phantom ______  __  __  ______  __  __  ______
 72
    65
 73
     6
 40
12.7
 49
6.35
 74
     0
 49
-1.27
 74
     0
 49
1.27
 74
     0
 49
-1.27
 74
     0
 49
1.27
 74
     0
 49
-1.27
 74
     0
  0
LTYPE
  5
2C
330
5
100
AcDbSymbolTableRecord
100
AcDbLinetypeTableRecord
  2
CENTER
 70
     0
  3
Center ____ _ ____ _ ____ _ ____ _ ____ _ ____
 72
    65
 73
     4
 40
10.16
 49
6.35
 74
     0
 49
-1.27
 74
     0
 49
1.27
 74
     0
 49
-1.27
 74
     0
  0
LTYPE
  5
2D
330
5
100
AcDbSymbolTableRecord
100
AcDbLinetypeTableRecord
  2
CENTERX2
 70
     0
  3
Center (2x) ________  __  ________  __  _____
 72
    65
 73
     4
 40
20.32
 49
12.7
 74
     0
 49
-2.54
 74
     0
 49
2.54
 74
     0
 49
-2.54
 74
     0
  0
LTYPE
  5
2E
330
5
100
AcDbSymbolTableRecord
100
AcDbLinetypeTableRecord
  2
DOT2
 70
     0
  3
Dot (.5x) ........................................
 72
    65
 73
     2
 40
0.635
 49
0.0
 74
     0
 49
-0.635
 74
     0
  0
ENDTAB
  0
TABLE
  2
LAYER
  5
2
330
0
100
AcDbSymbolTable
 70
     4
  0
LAYER
  5
10
330
2
100
AcDbSymbolTableRecord
100
AcDbLayerTableRecord
  2
0
 70
     0
 62
     7
  6
Continuous
370
    -3
390
F
  0
LAYER
  5
2F
330
2
100
AcDbSymbolTableRecord
100
AcDbLayerTableRecord
  2
SLD-0
 70
     0
 62
   179
  6
Continuous
370
     0
390
F
  0
LAYER
  5
30
330
2
100
AcDbSymbolTableRecord
100
AcDbLayerTableRecord
  2
SLD-DEFPOINTS
 70
     0
 62
   179
  6
Continuous
370
     0
390
F
  0
LAYER
  5
1BF
330
2
100
AcDbSymbolTableRecord
100
AcDbLayerTableRecord
  2
Defpoints
 70
     0
 62
     7
  6
Continuous
290
     0
370
    -3
390
F
  0
ENDTAB
  0
TABLE
  2
STYLE
  5
3
330
0
100
AcDbSymbolTable
 70
     3
  0
STYLE
  5
11
330
3
100
AcDbSymbolTableRecord
100
AcDbTextStyleTableRecord
  2
Standard
 70
     0
 40
0.0
 41
1.0
 50
0.0
 71
     0
 42
2.5
  3
txt
  4
bigfont
  0
STYLE
  5
34
330
3
100
AcDbSymbolTableRecord
100
AcDbTextStyleTableRecord
  2
SLDTEXTSTYLE0
 70
     0
 40
0.0
 41
0.7
 50
0.0
 71
     0
 42
0.2
  3
TXT
  4
bigfont
  0
STYLE
  5
3C
330
3
100
AcDbSymbolTableRecord
100
AcDbTextStyleTableRecord
  2
SLDTEXTSTYLE1
 70
     0
 40
0.0
 41
0.5526315789
 50
0.0
 71
     0
 42
0.2
  3
TXT
  4
bigfont
  0
ENDTAB
  0
TABLE
  2
VIEW
  5
6
330
0
100
AcDbSymbolTable
 70
     0
  0
ENDTAB
  0
TABLE
  2
UCS
  5
7
330
0
100
AcDbSymbolTable
 70
     0
  0
ENDTAB
  0
TABLE
  2
APPID
  5
9
330
0
100
AcDbSymbolTable
 70
     1
  0
APPID
  5
12
330
9
100
AcDbSymbolTableRecord
100
AcDbRegAppTableRecord
  2
ACAD
 70
     0
  0
ENDTAB
  0
TABLE
  2
DIMSTYLE
  5
A
330
0
100
AcDbSymbolTable
 70
     4
100
AcDbDimStyleTable
  0
DIMSTYLE
105
27
330
A
100
AcDbSymbolTableRecord
100
AcDbDimStyleTableRecord
  2
ISO-25
 70
     0
 41
2.5
 42
0.625
 43
3.75
 44
1.25
 73
     0
 74
     0
 77
     1
 78
     8
140
2.5
141
2.5
143
0.0393700787
147
0.625
171
     3
172
     1
271
     2
272
     2
274
     3
278
    44
283
     0
284
     8
340
11
  0
DIMSTYLE
105
1CF
102
{ACAD_REACTORS
330
1BE
330
21F
330
238
102
}
330
A
100
AcDbSymbolTableRecord
100
AcDbDimStyleTableRecord
  2
SLDDIMSTYLE0
 70
     0
 41
3.0
 44
0.0
 73
     0
 74
     0
 77
     3
 78
    12
140
3.5
147
0.875
173
     1
271
     1
272
     3
284
    12
340
3C
341
1D0
343
1D0
344
1D0
  0
DIMSTYLE
105
1EC
102
{ACAD_REACTORS
330
1DF
330
1F7
102
}
330
A
100
AcDbSymbolTableRecord
100
AcDbDimStyleTableRecord
  2
SLDDIMSTYLE1
 70
     0
 41
3.0
 44
0.0
 73
     0
 74
     0
 77
     3
 78
    12
140
3.5
147
0.875
173
     1
271
     0
272
     3
284
    12
340
3C
341
1D0
343
1D0
344
1D0
  0
DIMSTYLE
105
218
102
{ACAD_REACTORS
330
20E
102
}
330
A
100
AcDbSymbolTableRecord
100
AcDbDimStyleTableRecord
  2
SLDDIMSTYLE2
 70
     0
 41
3.0
 44
0.0
 78
    12
140
3.5
147
0.875
172
     1
173
     1
271
     0
272
     3
284
    12
340
3C
341
1D0
343
1D0
344
1D0
  0
ENDTAB
  0
TABLE
  2
BLOCK_RECORD
  5
1
330
0
100
AcDbSymbolTable
 70
    12
  0
BLOCK_RECORD
  5
1F
330
1
100
AcDbSymbolTableRecord
100
AcDbBlockTableRecord
  2
*Model_Space
340
22
  0
BLOCK_RECORD
  5
1B
330
1
100
AcDbSymbolTableRecord
100
AcDbBlockTableRecord
  2
*Paper_Space
340
1E
  0
BLOCK_RECORD
  5
23
330
1
100
AcDbSymbolTableRecord
100
AcDbBlockTableRecord
  2
*Paper_Space0
340
26
  0
BLOCK_RECORD
  5
31
330
1
100
AcDbSymbolTableRecord
100
AcDbBlockTableRecord
  2
注記
340
0
102
{BLKREFS
331
257
102
}
  0
BLOCK_RECORD
  5
37
330
1
100
AcDbSymbolTableRecord
100
AcDbBlockTableRecord
  2
SURFACEFINISH39
340
0
102
{BLKREFS
331
256
102
}
  0
BLOCK_RECORD
  5
3E
330
1
100
AcDbSymbolTableRecord
100
AcDbBlockTableRecord
  2
SW_CENTERMARK0
340
0
102
{BLKREFS
331
258
102
}
  0
BLOCK_RECORD
  5
49
330
1
100
AcDbSymbolTableRecord
100
AcDbBlockTableRecord
  2
SW_CENTERMARK1
340
0
102
{BLKREFS
331
259
102
}
  0
BLOCK_RECORD
  5
1C0
330
1
100
AcDbSymbolTableRecord
100
AcDbBlockTableRecord
  2
*D5
340
0
  0
BLOCK_RECORD
  5
1D0
330
1
100
AcDbSymbolTableRecord
100
AcDbBlockTableRecord
  2
_None
340
0
102
{BLKREFS
331
1C6
331
1C5
331
1E5
331
1E4
331
1FD
331
1FC
331
213
331
226
331
225
331
23F
331
23E
102
}
  0
BLOCK_RECORD
  5
1E0
330
1
100
AcDbSymbolTableRecord
100
AcDbBlockTableRecord
  2
*D7
340
0
  0
BLOCK_RECORD
  5
1F8
330
1
100
AcDbSymbolTableRecord
100
AcDbBlockTableRecord
  2
*D8
340
0
  0
BLOCK_RECORD
  5
20F
330
1
100
AcDbSymbolTableRecord
100
AcDbBlockTableRecord
  2
*D9
340
0
  0
BLOCK_RECORD
  5
220
330
1
100
AcDbSymbolTableRecord
100
AcDbBlockTableRecord
  2
*D10
340
0
  0
BLOCK_RECORD
  5
239
330
1
100
AcDbSymbolTableRecord
100
AcDbBlockTableRecord
  2
*D11
340
0
  0
ENDTAB
  0
ENDSEC
  0
SECTION
  2
BLOCKS
  0
BLOCK
  5
20
330
1F
100
AcDbEntity
  8
0
100
AcDbBlockBegin
  2
*Model_Space
 70
     0
 71
     0
 10
0.0
 20
0.0
 30
0.0
  3
*Model_Space
  1

  0
ENDBLK
  5
21
330
1F
100
AcDbEntity
  8
0
100
AcDbBlockEnd
  0
BLOCK
  5
1C
330
1B
100
AcDbEntity
 67
     1
  8
0
100
AcDbBlockBegin
  2
*Paper_Space
 70
     0
 71
     0
 10
0.0
 20
0.0
 30
0.0
  3
*Paper_Space
  1

  0
ENDBLK
  5
1D
330
1B
100
AcDbEntity
 67
     1
  8
0
100
AcDbBlockEnd
  0
BLOCK
  5
24
330
23
100
AcDbEntity
  8
0
100
AcDbBlockBegin
  2
*Paper_Space0
 70
     0
 71
     0
 10
0.0
 20
0.0
 30
0.0
  3
*Paper_Space0
  1

  0
ENDBLK
  5
25
330
23
100
AcDbEntity
  8
0
100
AcDbBlockEnd
  0
BLOCK
  5
32
330
31
100
AcDbEntity
  8
0
100
AcDbBlockBegin
  2
注記
 70
     0
 71
     0
 10
0.0
 20
0.0
 30
0.0
  3
注記
  1

  0
MTEXT
  5
35
330
31
100
AcDbEntity
  8
0
  6
Continuous
 62
     7
370
     0
100
AcDbMText
 10
0.2636785918
 20
9.0739778448
 30
0.0
 40
3.5
 41
0.0
 71
     1
 72
     1
  1
１．特記ナキ角部ハ、バリ　カエリノ無キコト。
  7
SLDTEXTSTYLE0
 73
     1
 44
1.0
  0
MTEXT
  5
36
330
31
100
AcDbEntity
  8
0
  6
Continuous
 62
     7
370
     0
100
AcDbMText
 10
0.2636785918
 20
3.5759549983
 30
0.0
 40
3.5
 41
0.0
 71
     1
 72
     1
  1
２．特記ナキ隅部ハ、Ｒ０．４ＭＡＸトスル。
  7
SLDTEXTSTYLE0
 73
     1
 44
1.0
  0
ENDBLK
  5
33
330
31
100
AcDbEntity
  8
0
100
AcDbBlockEnd
  0
BLOCK
  5
38
330
37
100
AcDbEntity
  8
0
100
AcDbBlockBegin
  2
SURFACEFINISH39
 70
     0
 71
     0
 10
0.0
 20
0.0
 30
0.0
  3
SURFACEFINISH39
  1

  0
LINE
  5
3A
330
37
100
AcDbEntity
  8
SLD-0
  6
Continuous
 62
   179
100
AcDbLine
 10
0.6656399396
 20
-6.0449245738
 30
0.0
 11
-2.9003789868
 21
0.0000001164
 31
0.0
  0
LINE
  5
3B
330
37
100
AcDbEntity
  8
SLD-0
  6
Continuous
 62
   179
100
AcDbLine
 10
0.6656399396
 20
-6.0449245738
 30
0.0
 11
7.7976777926
 21
6.0449248066
 31
0.0
  0
MTEXT
  5
3D
330
37
100
AcDbEntity
  8
SLD-0
100
AcDbMText
 10
0.0
 20
4.9341236929
 30
0.0
 40
3.175
 41
0.0
 71
     1
 72
     1
  1
25
  7
SLDTEXTSTYLE1
 73
     1
 44
1.0
  0
ENDBLK
  5
39
330
37
100
AcDbEntity
  8
0
100
AcDbBlockEnd
  0
BLOCK
  5
3F
330
3E
100
AcDbEntity
  8
0
100
AcDbBlockBegin
  2
SW_CENTERMARK0
 70
     0
 71
     0
 10
0.0
 20
0.0
 30
0.0
  3
SW_CENTERMARK0
  1

  0
LINE
  5
41
330
3E
100
AcDbEntity
  8
SLD-0
  6
Continuous
 62
   179
100
AcDbLine
 10
103.8610399753
 20
189.5271749624
 30
0.0
 11
103.8610397946
 21
192.0271758665
 31
0.0
  0
LINE
  5
42
330
3E
100
AcDbEntity
  8
SLD-0
  6
Continuous
 62
   179
100
AcDbLine
 10
103.8610399753
 20
189.5271749624
 30
0.0
 11
101.3610397946
 21
189.5271758665
 31
0.0
  0
LINE
  5
43
330
3E
100
AcDbEntity
  8
SLD-0
  6
Continuous
 62
   179
100
AcDbLine
 10
103.8610399753
 20
189.5271749624
 30
0.0
 11
103.8610397946
 21
187.0271758665
 31
0.0
  0
LINE
  5
44
330
3E
100
AcDbEntity
  8
SLD-0
  6
Continuous
 62
   179
100
AcDbLine
 10
103.8610399753
 20
189.5271749624
 30
0.0
 11
106.3610397946
 21
189.5271758665
 31
0.0
  0
LINE
  5
45
330
3E
100
AcDbEntity
  8
SLD-0
  6
Continuous
 62
   179
100
AcDbLine
 10
103.8610397946
 20
192.0271758665
 30
0.0
 11
103.8610397946
 21
194.5271758665
 31
0.0
  0
LINE
  5
46
330
3E
100
AcDbEntity
  8
SLD-0
  6
Continuous
 62
   179
100
AcDbLine
 10
101.3610397946
 20
189.5271758665
 30
0.0
 11
98.8610397946
 21
189.5271758665
 31
0.0
  0
LINE
  5
47
330
3E
100
AcDbEntity
  8
SLD-0
  6
Continuous
 62
   179
100
AcDbLine
 10
103.8610397946
 20
187.0271758665
 30
0.0
 11
103.8610397946
 21
184.5271758665
 31
0.0
  0
LINE
  5
48
330
3E
100
AcDbEntity
  8
SLD-0
  6
Continuous
 62
   179
100
AcDbLine
 10
106.3610397946
 20
189.5271758665
 30
0.0
 11
108.8610397946
 21
189.5271758665
 31
0.0
  0
ENDBLK
  5
40
330
3E
100
AcDbEntity
  8
0
100
AcDbBlockEnd
  0
BLOCK
  5
4A
330
49
100
AcDbEntity
  8
0
100
AcDbBlockBegin
  2
SW_CENTERMARK1
 70
     0
 71
     0
 10
0.0
 20
0.0
 30
0.0
  3
SW_CENTERMARK1
  1

  0
LINE
  5
4C
330
49
100
AcDbEntity
  8
SLD-0
  6
Continuous
 62
   179
100
AcDbLine
 10
115.8610396139
 20
189.5271749624
 30
0.0
 11
115.8610397946
 21
192.0271758665
 31
0.0
  0
LINE
  5
4D
330
49
100
AcDbEntity
  8
SLD-0
  6
Continuous
 62
   179
100
AcDbLine
 10
115.8610396139
 20
189.5271749624
 30
0.0
 11
113.3610397946
 21
189.5271758665
 31
0.0
  0
LINE
  5
4E
330
49
100
AcDbEntity
  8
SLD-0
  6
Continuous
 62
   179
100
AcDbLine
 10
115.8610396139
 20
189.5271749624
 30
0.0
 11
115.8610397946
 21
187.0271758665
 31
0.0
  0
LINE
  5
4F
330
49
100
AcDbEntity
  8
SLD-0
  6
Continuous
 62
   179
100
AcDbLine
 10
115.8610396139
 20
189.5271749624
 30
0.0
 11
118.3610397946
 21
189.5271758665
 31
0.0
  0
LINE
  5
50
330
49
100
AcDbEntity
  8
SLD-0
  6
Continuous
 62
   179
100
AcDbLine
 10
115.8610397946
 20
192.0271758665
 30
0.0
 11
115.8610397946
 21
194.5271758665
 31
0.0
  0
LINE
  5
51
330
49
100
AcDbEntity
  8
SLD-0
  6
Continuous
 62
   179
100
AcDbLine
 10
113.3610397946
 20
189.5271758665
 30
0.0
 11
110.8610397946
 21
189.5271758665
 31
0.0
  0
LINE
  5
52
330
49
100
AcDbEntity
  8
SLD-0
  6
Continuous
 62
   179
100
AcDbLine
 10
115.8610397946
 20
187.0271758665
 30
0.0
 11
115.8610397946
 21
184.5271758665
 31
0.0
  0
LINE
  5
53
330
49
100
AcDbEntity
  8
SLD-0
  6
Continuous
 62
   179
100
AcDbLine
 10
118.3610397946
 20
189.5271758665
 30
0.0
 11
120.8610397946
 21
189.5271758665
 31
0.0
  0
ENDBLK
  5
4B
330
49
100
AcDbEntity
  8
0
100
AcDbBlockEnd
  0
BLOCK
  5
1CD
330
1C0
100
AcDbEntity
  8
0
100
AcDbBlockBegin
  2
*D5
 70
     1
 71
     0
 10
0.0
 20
0.0
 30
0.0
  3
*D5
  1

  0
LINE
  5
1D3
330
1C0
100
AcDbEntity
  8
SLD-0
 62
     7
100
AcDbLine
 10
120.3610397946
 20
195.8271758665
 30
0.0
 11
120.3610397946
 21
206.6062074208
 31
0.0
  0
LINE
  5
1D4
330
1C0
100
AcDbEntity
  8
SLD-0
 62
     7
100
AcDbLine
 10
115.8610397946
 20
195.5271758665
 30
0.0
 11
115.8610397946
 21
206.6062074208
 31
0.0
  0
LINE
  5
1D5
330
1C0
100
AcDbEntity
  8
SLD-0
 62
     7
100
AcDbLine
 10
120.3610397946
 20
205.6062074208
 30
0.0
 11
134.0408594374
 21
205.6062074208
 31
0.0
  0
LINE
  5
1D6
330
1C0
100
AcDbEntity
  8
SLD-0
 62
     7
100
AcDbLine
 10
120.3610397946
 20
205.6062074208
 30
0.0
 11
115.8610397946
 21
205.6062074208
 31
0.0
  0
LINE
  5
1D7
330
1C0
100
AcDbEntity
  8
SLD-0
 62
     7
100
AcDbLine
 10
115.8610397946
 20
205.6062074208
 30
0.0
 11
110.8610397946
 21
205.6062074208
 31
0.0
  0
LINE
  5
1D8
330
1C0
100
AcDbEntity
  8
SLD-0
 62
     7
100
AcDbLine
 10
123.3610397946
 20
204.8023604208
 30
0.0
 11
120.3610397946
 21
205.6062074208
 31
0.0
  0
LINE
  5
1D9
330
1C0
100
AcDbEntity
  8
SLD-0
 62
     7
100
AcDbLine
 10
120.3610397946
 20
205.6062074208
 30
0.0
 11
123.3610397946
 21
206.4100544208
 31
0.0
  0
LINE
  5
1DA
330
1C0
100
AcDbEntity
  8
SLD-0
 62
     7
100
AcDbLine
 10
120.3610397946
 20
205.6062074208
 30
0.0
 11
123.3610397946
 21
205.6062074208
 31
0.0
  0
LINE
  5
1DB
330
1C0
100
AcDbEntity
  8
SLD-0
 62
     7
100
AcDbLine
 10
112.8610397946
 20
206.4100544208
 30
0.0
 11
115.8610397946
 21
205.6062074208
 31
0.0
  0
LINE
  5
1DC
330
1C0
100
AcDbEntity
  8
SLD-0
 62
     7
100
AcDbLine
 10
115.8610397946
 20
205.6062074208
 30
0.0
 11
112.8610397946
 21
204.8023604208
 31
0.0
  0
LINE
  5
1DD
330
1C0
100
AcDbEntity
  8
SLD-0
 62
     7
100
AcDbLine
 10
115.8610397946
 20
205.6062074208
 30
0.0
 11
112.8610397946
 21
205.6062074208
 31
0.0
  0
MTEXT
  5
1DE
330
1C0
100
AcDbEntity
  8
SLD-0
 62
     7
100
AcDbMText
 10
126.3433994857
 20
210.1329011168
 30
0.1
 40
3.5
 41
0.0
 71
     1
 72
     1
  1
4.5
  7
SLDTEXTSTYLE0
 73
     1
 44
1.0
  0
ENDBLK
  5
1CE
330
1C0
100
AcDbEntity
  8
0
100
AcDbBlockEnd
  0
BLOCK
  5
1D1
330
1D0
100
AcDbEntity
  8
0
100
AcDbBlockBegin
  2
_None
 70
     0
 71
     0
 10
0.0
 20
0.0
 30
0.0
  3
_None
  1

  0
ENDBLK
  5
1D2
330
1D0
100
AcDbEntity
  8
0
100
AcDbBlockEnd
  0
BLOCK
  5
1EA
330
1E0
100
AcDbEntity
  8
0
100
AcDbBlockBegin
  2
*D7
 70
     1
 71
     0
 10
0.0
 20
0.0
 30
0.0
  3
*D7
  1

  0
LINE
  5
1ED
330
1E0
100
AcDbEntity
  8
SLD-0
 62
     7
100
AcDbLine
 10
115.8610397946
 20
195.5271758665
 30
0.0
 11
115.8610397946
 21
206.6062074208
 31
0.0
  0
LINE
  5
1EE
330
1E0
100
AcDbEntity
  8
SLD-0
 62
     7
100
AcDbLine
 10
103.8610397946
 20
195.5271758665
 30
0.0
 11
103.8610397946
 21
206.6062074208
 31
0.0
  0
LINE
  5
1EF
330
1E0
100
AcDbEntity
  8
SLD-0
 62
     7
100
AcDbLine
 10
115.8610397946
 20
205.6062074208
 30
0.0
 11
103.8610397946
 21
205.6062074208
 31
0.0
  0
LINE
  5
1F0
330
1E0
100
AcDbEntity
  8
SLD-0
 62
     7
100
AcDbLine
 10
112.8610397946
 20
206.4100544208
 30
0.0
 11
115.8610397946
 21
205.6062074208
 31
0.0
  0
LINE
  5
1F1
330
1E0
100
AcDbEntity
  8
SLD-0
 62
     7
100
AcDbLine
 10
115.8610397946
 20
205.6062074208
 30
0.0
 11
112.8610397946
 21
204.8023604208
 31
0.0
  0
LINE
  5
1F2
330
1E0
100
AcDbEntity
  8
SLD-0
 62
     7
100
AcDbLine
 10
115.8610397946
 20
205.6062074208
 30
0.0
 11
112.8610397946
 21
205.6062074208
 31
0.0
  0
LINE
  5
1F3
330
1E0
100
AcDbEntity
  8
SLD-0
 62
     7
100
AcDbLine
 10
106.8610397946
 20
204.8023604208
 30
0.0
 11
103.8610397946
 21
205.6062074208
 31
0.0
  0
LINE
  5
1F4
330
1E0
100
AcDbEntity
  8
SLD-0
 62
     7
100
AcDbLine
 10
103.8610397946
 20
205.6062074208
 30
0.0
 11
106.8610397946
 21
206.4100544208
 31
0.0
  0
LINE
  5
1F5
330
1E0
100
AcDbEntity
  8
SLD-0
 62
     7
100
AcDbLine
 10
103.8610397946
 20
205.6062074208
 30
0.0
 11
106.8610397946
 21
205.6062074208
 31
0.0
  0
MTEXT
  5
1F6
330
1E0
100
AcDbEntity
  8
SLD-0
 62
     7
100
AcDbMText
 10
107.8256045714
 20
210.1329011168
 30
0.1
 40
3.5
 41
0.0
 71
     1
 72
     1
  1
12
  7
SLDTEXTSTYLE0
 73
     1
 44
1.0
  0
ENDBLK
  5
1EB
330
1E0
100
AcDbEntity
  8
0
100
AcDbBlockEnd
  0
BLOCK
  5
202
330
1F8
100
AcDbEntity
  8
0
100
AcDbBlockBegin
  2
*D8
 70
     1
 71
     0
 10
0.0
 20
0.0
 30
0.0
  3
*D8
  1

  0
LINE
  5
204
330
1F8
100
AcDbEntity
  8
SLD-0
 62
     7
100
AcDbLine
 10
99.3610397946
 20
195.8271758665
 30
0.0
 11
99.3610397946
 21
214.5726708423
 31
0.0
  0
LINE
  5
205
330
1F8
100
AcDbEntity
  8
SLD-0
 62
     7
100
AcDbLine
 10
120.3610397946
 20
195.8271758665
 30
0.0
 11
120.3610397946
 21
214.5726708423
 31
0.0
  0
LINE
  5
206
330
1F8
100
AcDbEntity
  8
SLD-0
 62
     7
100
AcDbLine
 10
99.3610397946
 20
213.5726708423
 30
0.0
 11
120.3610397946
 21
213.5726708423
 31
0.0
  0
LINE
  5
207
330
1F8
100
AcDbEntity
  8
SLD-0
 62
     7
100
AcDbLine
 10
102.3610397946
 20
212.7688238423
 30
0.0
 11
99.3610397946
 21
213.5726708423
 31
0.0
  0
LINE
  5
208
330
1F8
100
AcDbEntity
  8
SLD-0
 62
     7
100
AcDbLine
 10
99.3610397946
 20
213.5726708423
 30
0.0
 11
102.3610397946
 21
214.3765178423
 31
0.0
  0
LINE
  5
209
330
1F8
100
AcDbEntity
  8
SLD-0
 62
     7
100
AcDbLine
 10
99.3610397946
 20
213.5726708423
 30
0.0
 11
102.3610397946
 21
213.5726708423
 31
0.0
  0
LINE
  5
20A
330
1F8
100
AcDbEntity
  8
SLD-0
 62
     7
100
AcDbLine
 10
117.3610397946
 20
214.3765178423
 30
0.0
 11
120.3610397946
 21
213.5726708423
 31
0.0
  0
LINE
  5
20B
330
1F8
100
AcDbEntity
  8
SLD-0
 62
     7
100
AcDbLine
 10
120.3610397946
 20
213.5726708423
 30
0.0
 11
117.3610397946
 21
212.7688238423
 31
0.0
  0
LINE
  5
20C
330
1F8
100
AcDbEntity
  8
SLD-0
 62
     7
100
AcDbLine
 10
120.3610397946
 20
213.5726708423
 30
0.0
 11
117.3610397946
 21
213.5726708423
 31
0.0
  0
MTEXT
  5
20D
330
1F8
100
AcDbEntity
  8
SLD-0
 62
     7
100
AcDbMText
 10
107.8256045714
 20
218.0993645383
 30
0.1
 40
3.5
 41
0.0
 71
     1
 72
     1
  1
21
  7
SLDTEXTSTYLE0
 73
     1
 44
1.0
  0
ENDBLK
  5
203
330
1F8
100
AcDbEntity
  8
0
100
AcDbBlockEnd
  0
BLOCK
  5
216
330
20F
100
AcDbEntity
  8
0
100
AcDbBlockBegin
  2
*D9
 70
     1
 71
     0
 10
0.0
 20
0.0
 30
0.0
  3
*D9
  1

  0
LINE
  5
219
330
20F
100
AcDbEntity
  8
SLD-0
 62
     7
100
AcDbLine
 10
102.3719574728
 20
192.1315248905
 30
0.0
 11
96.7065887643
 21
202.040041868
 31
0.0
  0
LINE
  5
21A
330
20F
100
AcDbEntity
  8
SLD-0
 62
     7
100
AcDbLine
 10
96.7065887643
 20
202.040041868
 30
0.0
 11
83.7986935894
 21
202.040041868
 31
0.0
  0
LINE
  5
21B
330
20F
100
AcDbEntity
  8
SLD-0
 62
     7
100
AcDbLine
 10
101.5807078676
 20
195.1348720336
 30
0.0
 11
102.3719574728
 21
192.1315248905
 31
0.0
  0
LINE
  5
21C
330
20F
100
AcDbEntity
  8
SLD-0
 62
     7
100
AcDbLine
 10
102.3719574728
 20
192.1315248905
 30
0.0
 11
100.1850424343
 21
194.3368757955
 31
0.0
  0
LINE
  5
21D
330
20F
100
AcDbEntity
  8
SLD-0
 62
     7
100
AcDbLine
 10
102.3719574728
 20
192.1315248905
 30
0.0
 11
100.882875151
 21
194.7358739145
 31
0.0
  0
MTEXT
  5
21E
330
20F
100
AcDbEntity
  8
SLD-0
 62
     7
100
AcDbMText
 10
85.3861935894
 20
206.566735564
 30
0.1
 40
3.5
 41
0.0
 71
     1
 72
     1
  1
2-M6
  7
SLDTEXTSTYLE0
 73
     1
 44
1.0
  0
ENDBLK
  5
217
330
20F
100
AcDbEntity
  8
0
100
AcDbBlockEnd
  0
BLOCK
  5
22B
330
220
100
AcDbEntity
  8
0
100
AcDbBlockBegin
  2
*D10
 70
     1
 71
     0
 10
0.0
 20
0.0
 30
0.0
  3
*D10
  1

  0
LINE
  5
22D
330
220
100
AcDbEntity
  8
SLD-0
 62
     7
100
AcDbLine
 10
121.3610397946
 20
194.8271758665
 30
0.0
 11
143.9564547677
 21
194.8271758665
 31
0.0
  0
LINE
  5
22E
330
220
100
AcDbEntity
  8
SLD-0
 62
     7
100
AcDbLine
 10
121.3610397946
 20
184.2271758665
 30
0.0
 11
143.9564547677
 21
184.2271758665
 31
0.0
  0
LINE
  5
22F
330
220
100
AcDbEntity
  8
SLD-0
 62
     7
100
AcDbLine
 10
142.9564547677
 20
194.8271758665
 30
0.0
 11
142.9564547677
 21
184.2271758665
 31
0.0
  0
LINE
  5
230
330
220
100
AcDbEntity
  8
SLD-0
 62
     7
100
AcDbLine
 10
142.9564547677
 20
184.2271758665
 30
0.0
 11
142.9564547677
 21
171.5804797748
 31
0.0
  0
LINE
  5
231
330
220
100
AcDbEntity
  8
SLD-0
 62
     7
100
AcDbLine
 10
142.1526077677
 20
191.8271758665
 30
0.0
 11
142.9564547677
 21
194.8271758665
 31
0.0
  0
LINE
  5
232
330
220
100
AcDbEntity
  8
SLD-0
 62
     7
100
AcDbLine
 10
142.9564547677
 20
194.8271758665
 30
0.0
 11
143.7603017677
 21
191.8271758665
 31
0.0
  0
LINE
  5
233
330
220
100
AcDbEntity
  8
SLD-0
 62
     7
100
AcDbLine
 10
142.9564547677
 20
194.8271758665
 30
0.0
 11
142.9564547677
 21
191.8271758665
 31
0.0
  0
LINE
  5
234
330
220
100
AcDbEntity
  8
SLD-0
 62
     7
100
AcDbLine
 10
143.7603017677
 20
187.2271758665
 30
0.0
 11
142.9564547677
 21
184.2271758665
 31
0.0
  0
LINE
  5
235
330
220
100
AcDbEntity
  8
SLD-0
 62
     7
100
AcDbLine
 10
142.9564547677
 20
184.2271758665
 30
0.0
 11
142.1526077677
 21
187.2271758665
 31
0.0
  0
LINE
  5
236
330
220
100
AcDbEntity
  8
SLD-0
 62
     7
100
AcDbLine
 10
142.9564547677
 20
184.2271758665
 30
0.0
 11
142.9564547677
 21
187.2271758665
 31
0.0
  0
MTEXT
  5
237
330
220
100
AcDbEntity
  8
SLD-0
 62
     7
100
AcDbMText
 10
138.4297610718
 20
173.1679797748
 30
0.1
 40
3.5
 41
0.0
 71
     1
 72
     1
  1
10.6
  7
SLDTEXTSTYLE0
 11
6.123031769111886E-17
 21
1.0
 31
0.0
 73
     1
 44
1.0
  0
ENDBLK
  5
22C
330
220
100
AcDbEntity
  8
0
100
AcDbBlockEnd
  0
BLOCK
  5
245
330
239
100
AcDbEntity
  8
0
100
AcDbBlockBegin
  2
*D11
 70
     1
 71
     0
 10
0.0
 20
0.0
 30
0.0
  3
*D11
  1

  0
LINE
  5
247
330
239
100
AcDbEntity
  8
SLD-0
 62
     7
100
AcDbLine
 10
121.3610397946
 20
184.2271758665
 30
0.0
 11
132.4252181712
 21
184.2271758665
 31
0.0
  0
LINE
  5
248
330
239
100
AcDbEntity
  8
SLD-0
 62
     7
100
AcDbLine
 10
121.8610397946
 20
189.5271758665
 30
0.0
 11
132.4252181712
 21
189.5271758665
 31
0.0
  0
LINE
  5
249
330
239
100
AcDbEntity
  8
SLD-0
 62
     7
100
AcDbLine
 10
131.4252181712
 20
184.2271758665
 30
0.0
 11
131.4252181712
 21
172.5981973864
 31
0.0
  0
LINE
  5
24A
330
239
100
AcDbEntity
  8
SLD-0
 62
     7
100
AcDbLine
 10
131.4252181712
 20
184.2271758665
 30
0.0
 11
131.4252181712
 21
189.5271758665
 31
0.0
  0
LINE
  5
24B
330
239
100
AcDbEntity
  8
SLD-0
 62
     7
100
AcDbLine
 10
131.4252181712
 20
189.5271758665
 30
0.0
 11
131.4252181712
 21
194.5271758665
 31
0.0
  0
LINE
  5
24C
330
239
100
AcDbEntity
  8
SLD-0
 62
     7
100
AcDbLine
 10
130.6213711712
 20
181.2271758665
 30
0.0
 11
131.4252181712
 21
184.2271758665
 31
0.0
  0
LINE
  5
24D
330
239
100
AcDbEntity
  8
SLD-0
 62
     7
100
AcDbLine
 10
131.4252181712
 20
184.2271758665
 30
0.0
 11
132.2290651712
 21
181.2271758665
 31
0.0
  0
LINE
  5
24E
330
239
100
AcDbEntity
  8
SLD-0
 62
     7
100
AcDbLine
 10
131.4252181712
 20
184.2271758665
 30
0.0
 11
131.4252181712
 21
181.2271758665
 31
0.0
  0
LINE
  5
24F
330
239
100
AcDbEntity
  8
SLD-0
 62
     7
100
AcDbLine
 10
132.2290651712
 20
192.5271758665
 30
0.0
 11
131.4252181712
 21
189.5271758665
 31
0.0
  0
LINE
  5
250
330
239
100
AcDbEntity
  8
SLD-0
 62
     7
100
AcDbLine
 10
131.4252181712
 20
189.5271758665
 30
0.0
 11
130.6213711712
 21
192.5271758665
 31
0.0
  0
LINE
  5
251
330
239
100
AcDbEntity
  8
SLD-0
 62
     7
100
AcDbLine
 10
131.4252181712
 20
189.5271758665
 30
0.0
 11
131.4252181712
 21
192.5271758665
 31
0.0
  0
MTEXT
  5
252
330
239
100
AcDbEntity
  8
SLD-0
 62
     7
100
AcDbMText
 10
126.8985244753
 20
174.1856973864
 30
0.1
 40
3.5
 41
0.0
 71
     1
 72
     1
  1
5.3
  7
SLDTEXTSTYLE0
 11
6.123031769111886E-17
 21
1.0
 31
0.0
 73
     1
 44
1.0
  0
ENDBLK
  5
246
330
239
100
AcDbEntity
  8
0
100
AcDbBlockEnd
  0
ENDSEC
  0
SECTION
  2
ENTITIES
  0
LINE
  5
54
330
1F
100
AcDbEntity
  8
SLD-0
  6
Continuous
 62
   179
100
AcDbLine
 10
20.2604743903
 20
285.0
 30
0.0
 11
196.7604743903
 21
285.0
 31
0.0
  0
LINE
  5
55
330
1F
100
AcDbEntity
  8
SLD-0
  6
Continuous
 62
   179
100
AcDbLine
 10
20.2604743903
 20
285.0
 30
0.0
 11
20.2604743903
 21
10.0
 31
0.0
  0
LINE
  5
56
330
1F
100
AcDbEntity
  8
SLD-0
  6
Continuous
 62
   179
100
AcDbLine
 10
20.2604743903
 20
10.0
 30
0.0
 11
196.7604743903
 21
10.0
 31
0.0
  0
LINE
  5
57
330
1F
100
AcDbEntity
  8
SLD-0
  6
Continuous
 62
   179
100
AcDbLine
 10
196.7604743903
 20
285.0
 30
0.0
 11
196.7604743903
 21
10.0
 31
0.0
  0
LINE
  5
58
330
1F
100
AcDbEntity
  8
SLD-0
  6
Continuous
 62
   179
100
AcDbLine
 10
127.0104743903
 20
50.75
 30
0.0
 11
196.7604743903
 21
50.75
 31
0.0
  0
LINE
  5
59
330
1F
100
AcDbEntity
  8
SLD-0
  6
Continuous
 62
   179
100
AcDbLine
 10
127.0104743903
 20
50.75
 30
0.0
 11
127.0104743903
 21
10.0
 31
0.0
  0
LINE
  5
5A
330
1F
100
AcDbEntity
  8
SLD-0
  6
Continuous
 62
   179
100
AcDbLine
 10
127.0104743903
 20
22.75
 30
0.0
 11
196.7604743903
 21
22.75
 31
0.0
  0
LINE
  5
5B
330
1F
100
AcDbEntity
  8
SLD-0
  6
Continuous
 62
   179
100
AcDbLine
 10
127.0104743903
 20
36.75
 30
0.0
 11
196.7604743903
 21
36.75
 31
0.0
  0
LINE
  5
5C
330
1F
100
AcDbEntity
  8
SLD-0
  6
Continuous
 62
   179
100
AcDbLine
 10
120.3610397946
 20
194.8271758665
 30
0.0
 11
99.3610397946
 21
194.8271758665
 31
0.0
  0
LINE
  5
5D
330
1F
100
AcDbEntity
  8
SLD-0
  6
Continuous
 62
   179
100
AcDbLine
 10
99.3610397946
 20
184.2271758665
 30
0.0
 11
120.3610397946
 21
184.2271758665
 31
0.0
  0
LINE
  5
5E
330
1F
100
AcDbEntity
  8
SLD-0
  6
Continuous
 62
   179
100
AcDbLine
 10
120.3610397946
 20
194.8271758665
 30
0.0
 11
120.3610397946
 21
194.3271758665
 31
0.0
  0
LINE
  5
5F
330
1F
100
AcDbEntity
  8
SLD-0
  6
Continuous
 62
   179
100
AcDbLine
 10
99.3610397946
 20
194.8271758665
 30
0.0
 11
99.3610397946
 21
194.3271758665
 31
0.0
  0
LINE
  5
60
330
1F
100
AcDbEntity
  8
SLD-0
  6
Continuous
 62
   179
100
AcDbLine
 10
120.3610397946
 20
194.3271758665
 30
0.0
 11
120.3610397946
 21
192.3514399352
 31
0.0
  0
LINE
  5
61
330
1F
100
AcDbEntity
  8
SLD-0
  6
Continuous
 62
   179
100
AcDbLine
 10
99.3610397946
 20
194.3271758665
 30
0.0
 11
99.3610397946
 21
192.3514399352
 31
0.0
  0
LINE
  5
62
330
1F
100
AcDbEntity
  8
SLD-0
  6
Continuous
 62
   179
100
AcDbLine
 10
99.3610397946
 20
192.3514399352
 30
0.0
 11
99.3610397946
 21
192.1393079009
 31
0.0
  0
LINE
  5
63
330
1F
100
AcDbEntity
  8
SLD-0
  6
Continuous
 62
   179
100
AcDbLine
 10
120.3610397946
 20
192.3514399352
 30
0.0
 11
120.3610397946
 21
192.1393079009
 31
0.0
  0
LINE
  5
64
330
1F
100
AcDbEntity
  8
SLD-0
  6
Continuous
 62
   179
100
AcDbLine
 10
99.3610397946
 20
184.7271758665
 30
0.0
 11
99.3610397946
 21
184.2271758665
 31
0.0
  0
LINE
  5
65
330
1F
100
AcDbEntity
  8
SLD-0
  6
Continuous
 62
   179
100
AcDbLine
 10
120.3610397946
 20
184.7271758665
 30
0.0
 11
120.3610397946
 21
184.2271758665
 31
0.0
  0
LINE
  5
66
330
1F
100
AcDbEntity
  8
SLD-0
  6
Continuous
 62
   179
100
AcDbLine
 10
99.3610397946
 20
186.7029117978
 30
0.0
 11
99.3610397946
 21
184.7271758665
 31
0.0
  0
LINE
  5
67
330
1F
100
AcDbEntity
  8
SLD-0
  6
Continuous
 62
   179
100
AcDbLine
 10
120.3610397946
 20
186.7029117978
 30
0.0
 11
120.3610397946
 21
184.7271758665
 31
0.0
  0
LINE
  5
68
330
1F
100
AcDbEntity
  8
SLD-0
  6
Continuous
 62
   179
100
AcDbLine
 10
99.3610397946
 20
186.9150438321
 30
0.0
 11
99.3610397946
 21
186.7029117978
 31
0.0
  0
LINE
  5
69
330
1F
100
AcDbEntity
  8
SLD-0
  6
Continuous
 62
   179
100
AcDbLine
 10
120.3610397946
 20
186.9150438321
 30
0.0
 11
120.3610397946
 21
186.7029117978
 31
0.0
  0
LINE
  5
6A
330
1F
100
AcDbEntity
  8
SLD-0
  6
Continuous
 62
   179
100
AcDbLine
 10
99.3610397946
 20
192.1393079009
 30
0.0
 11
99.3610397946
 21
191.6150438321
 31
0.0
  0
LINE
  5
6B
330
1F
100
AcDbEntity
  8
SLD-0
  6
Continuous
 62
   179
100
AcDbLine
 10
120.3610397946
 20
192.1393079009
 30
0.0
 11
120.3610397946
 21
191.6150438321
 31
0.0
  0
LINE
  5
6C
330
1F
100
AcDbEntity
  8
SLD-0
  6
Continuous
 62
   179
100
AcDbLine
 10
99.3610397946
 20
187.4393079009
 30
0.0
 11
99.3610397946
 21
186.9150438321
 31
0.0
  0
LINE
  5
6D
330
1F
100
AcDbEntity
  8
SLD-0
  6
Continuous
 62
   179
100
AcDbLine
 10
120.3610397946
 20
187.4393079009
 30
0.0
 11
120.3610397946
 21
186.9150438321
 31
0.0
  0
LINE
  5
6E
330
1F
100
AcDbEntity
  8
SLD-0
  6
Continuous
 62
   179
100
AcDbLine
 10
102.2082802426
 20
191.4029118023
 30
0.0
 11
102.3919882771
 21
191.550017579
 31
0.0
  0
LINE
  5
6F
330
1F
100
AcDbEntity
  8
SLD-0
  6
Continuous
 62
   179
100
AcDbLine
 10
102.3919882771
 20
191.550017579
 30
0.0
 11
102.485973626
 21
191.6150439181
 31
0.0
  0
LINE
  5
70
330
1F
100
AcDbEntity
  8
SLD-0
  6
Continuous
 62
   179
100
AcDbLine
 10
99.3610397946
 20
191.6150438321
 30
0.0
 11
99.3610397946
 21
191.4029117978
 31
0.0
  0
LINE
  5
71
330
1F
100
AcDbEntity
  8
SLD-0
  6
Continuous
 62
   179
100
AcDbLine
 10
114.2082798813
 20
191.4029118023
 30
0.0
 11
114.3919883814
 21
191.550017579
 31
0.0
  0
LINE
  5
72
330
1F
100
AcDbEntity
  8
SLD-0
  6
Continuous
 62
   179
100
AcDbLine
 10
114.3919883814
 20
191.550017579
 30
0.0
 11
114.4859732646
 21
191.6150439181
 31
0.0
  0
LINE
  5
73
330
1F
100
AcDbEntity
  8
SLD-0
  6
Continuous
 62
   179
100
AcDbLine
 10
105.2361063246
 20
191.6150439181
 30
0.0
 11
105.4090501327
 21
191.4902511169
 31
0.0
  0
LINE
  5
74
330
1F
100
AcDbEntity
  8
SLD-0
  6
Continuous
 62
   179
100
AcDbLine
 10
105.4090501327
 20
191.4902511169
 30
0.0
 11
105.513799708
 21
191.4029118023
 31
0.0
  0
LINE
  5
75
330
1F
100
AcDbEntity
  8
SLD-0
  6
Continuous
 62
   179
100
AcDbLine
 10
114.4859732646
 20
187.4393078149
 30
0.0
 11
114.3130294565
 21
187.5641006161
 31
0.0
  0
LINE
  5
76
330
1F
100
AcDbEntity
  8
SLD-0
  6
Continuous
 62
   179
100
AcDbLine
 10
114.3130294565
 20
187.5641006161
 30
0.0
 11
114.2082798813
 21
187.6514399307
 31
0.0
  0
LINE
  5
77
330
1F
100
AcDbEntity
  8
SLD-0
  6
Continuous
 62
   179
100
AcDbLine
 10
105.513799708
 20
187.6514399307
 30
0.0
 11
105.3300912078
 21
187.504334154
 31
0.0
  0
LINE
  5
78
330
1F
100
AcDbEntity
  8
SLD-0
  6
Continuous
 62
   179
100
AcDbLine
 10
105.3300912078
 20
187.504334154
 30
0.0
 11
105.2361063246
 21
187.4393078149
 31
0.0
  0
LINE
  5
79
330
1F
100
AcDbEntity
  8
SLD-0
  6
Continuous
 62
   179
100
AcDbLine
 10
117.5137993466
 20
187.6514399307
 30
0.0
 11
117.3300913122
 21
187.504334154
 31
0.0
  0
LINE
  5
7A
330
1F
100
AcDbEntity
  8
SLD-0
  6
Continuous
 62
   179
100
AcDbLine
 10
117.3300913122
 20
187.504334154
 30
0.0
 11
117.2361059632
 21
187.4393078149
 31
0.0
  0
LINE
  5
7B
330
1F
100
AcDbEntity
  8
SLD-0
  6
Continuous
 62
   179
100
AcDbLine
 10
120.3610397946
 20
187.6514399352
 30
0.0
 11
120.3610397946
 21
187.4393079009
 31
0.0
  0
LINE
  5
7C
330
1F
100
AcDbEntity
  8
SLD-0
  6
Continuous
 62
   179
100
AcDbLine
 10
117.2361059632
 20
191.6150439181
 30
0.0
 11
117.409050237
 21
191.4902511169
 31
0.0
  0
LINE
  5
7D
330
1F
100
AcDbEntity
  8
SLD-0
  6
Continuous
 62
   179
100
AcDbLine
 10
117.409050237
 20
191.4902511169
 30
0.0
 11
117.5137993466
 21
191.4029118023
 31
0.0
  0
LINE
  5
7E
330
1F
100
AcDbEntity
  8
SLD-0
  6
Continuous
 62
   179
100
AcDbLine
 10
120.3610397946
 20
191.6150438321
 30
0.0
 11
120.3610397946
 21
191.4029117978
 31
0.0
  0
LINE
  5
7F
330
1F
100
AcDbEntity
  8
SLD-0
  6
Continuous
 62
   179
100
AcDbLine
 10
102.485973626
 20
187.4393078149
 30
0.0
 11
102.3130293522
 21
187.5641006161
 31
0.0
  0
LINE
  5
80
330
1F
100
AcDbEntity
  8
SLD-0
  6
Continuous
 62
   179
100
AcDbLine
 10
102.3130293522
 20
187.5641006161
 30
0.0
 11
102.2082802426
 21
187.6514399307
 31
0.0
  0
LINE
  5
81
330
1F
100
AcDbEntity
  8
SLD-0
  6
Continuous
 62
   179
100
AcDbLine
 10
99.3610397946
 20
187.6514399352
 30
0.0
 11
99.3610397946
 21
187.4393079009
 31
0.0
  0
LINE
  5
82
330
1F
100
AcDbEntity
  8
SLD-0
  6
Continuous
 62
   179
100
AcDbLine
 10
99.3610397946
 20
191.4029117978
 30
0.0
 11
99.3610397946
 21
187.6514399352
 31
0.0
  0
LINE
  5
83
330
1F
100
AcDbEntity
  8
SLD-0
  6
Continuous
 62
   179
100
AcDbLine
 10
120.3610397946
 20
191.4029117978
 30
0.0
 11
120.3610397946
 21
187.6514399352
 31
0.0
  0
LINE
  5
84
330
1F
100
AcDbEntity
  8
SLD-0
 62
   179
100
AcDbLine
 10
117.5193523575
 20
187.0271759224
 30
0.0
 11
117.6943939697
 21
187.1525575523
 31
0.0
  0
LINE
  5
85
330
1F
100
AcDbEntity
  8
SLD-0
 62
   179
100
AcDbLine
 10
117.6943939697
 20
187.1525575523
 30
0.0
 11
117.8599924367
 21
187.2901711729
 31
0.0
  0
LINE
  5
86
330
1F
100
AcDbEntity
  8
SLD-0
 62
   179
100
AcDbLine
 10
117.8599924367
 20
187.2901711729
 30
0.0
 11
118.01529327
 21
187.4393078149
 31
0.0
  0
LINE
  5
87
330
1F
100
AcDbEntity
  8
SLD-0
 62
   179
100
AcDbLine
 10
118.01529327
 20
187.4393078149
 30
0.0
 11
118.2023242634
 21
187.6514399307
 31
0.0
  0
LINE
  5
88
330
1F
100
AcDbEntity
  8
SLD-0
 62
   179
100
AcDbLine
 10
118.2023242634
 20
187.6514399307
 30
0.0
 11
118.3721472096
 21
187.8857308882
 31
0.0
  0
LINE
  5
89
330
1F
100
AcDbEntity
  8
SLD-0
 62
   179
100
AcDbLine
 10
118.3721472096
 20
187.8857308882
 30
0.0
 11
118.5186069977
 21
188.1352930911
 31
0.0
  0
LINE
  5
8A
330
1F
100
AcDbEntity
  8
SLD-0
 62
   179
100
AcDbLine
 10
118.5186069977
 20
188.1352930911
 30
0.0
 11
118.640342034
 21
188.397804636
 31
0.0
  0
LINE
  5
8B
330
1F
100
AcDbEntity
  8
SLD-0
 62
   179
100
AcDbLine
 10
118.640342034
 20
188.397804636
 30
0.0
 11
118.7362198304
 21
188.6708234204
 31
0.0
  0
LINE
  5
8C
330
1F
100
AcDbEntity
  8
SLD-0
 62
   179
100
AcDbLine
 10
118.7362198304
 20
188.6708234204
 30
0.0
 11
118.8053481799
 21
188.9518092619
 31
0.0
  0
LINE
  5
8D
330
1F
100
AcDbEntity
  8
SLD-0
 62
   179
100
AcDbLine
 10
118.8053481799
 20
188.9518092619
 30
0.0
 11
118.8470844697
 21
189.2381480836
 31
0.0
  0
LINE
  5
8E
330
1F
100
AcDbEntity
  8
SLD-0
 62
   179
100
AcDbLine
 10
118.8470844697
 20
189.2381480836
 30
0.0
 11
118.8610394072
 21
189.5271758665
 31
0.0
  0
LINE
  5
8F
330
1F
100
AcDbEntity
  8
SLD-0
 62
   179
100
AcDbLine
 10
118.8610394072
 20
189.5271758665
 30
0.0
 11
118.8470844697
 21
189.8162036494
 31
0.0
  0
LINE
  5
90
330
1F
100
AcDbEntity
  8
SLD-0
 62
   179
100
AcDbLine
 10
118.8470844697
 20
189.8162036494
 30
0.0
 11
118.8053481799
 21
190.1025424711
 31
0.0
  0
LINE
  5
91
330
1F
100
AcDbEntity
  8
SLD-0
 62
   179
100
AcDbLine
 10
118.8053481799
 20
190.1025424711
 30
0.0
 11
118.7362198304
 21
190.3835283126
 31
0.0
  0
LINE
  5
92
330
1F
100
AcDbEntity
  8
SLD-0
 62
   179
100
AcDbLine
 10
118.7362198304
 20
190.3835283126
 30
0.0
 11
118.640342034
 21
190.656547097
 31
0.0
  0
LINE
  5
93
330
1F
100
AcDbEntity
  8
SLD-0
 62
   179
100
AcDbLine
 10
118.640342034
 20
190.656547097
 30
0.0
 11
118.5186069977
 21
190.9190586418
 31
0.0
  0
LINE
  5
94
330
1F
100
AcDbEntity
  8
SLD-0
 62
   179
100
AcDbLine
 10
118.5186069977
 20
190.9190586418
 30
0.0
 11
118.3721472096
 21
191.1686208448
 31
0.0
  0
LINE
  5
95
330
1F
100
AcDbEntity
  8
SLD-0
 62
   179
100
AcDbLine
 10
118.3721472096
 20
191.1686208448
 30
0.0
 11
118.2023242634
 21
191.4029118023
 31
0.0
  0
LINE
  5
96
330
1F
100
AcDbEntity
  8
SLD-0
 62
   179
100
AcDbLine
 10
118.2023242634
 20
191.4029118023
 30
0.0
 11
118.01529327
 21
191.6150439181
 31
0.0
  0
LINE
  5
97
330
1F
100
AcDbEntity
  8
SLD-0
 62
   179
100
AcDbLine
 10
118.01529327
 20
191.6150439181
 30
0.0
 11
117.8599924367
 21
191.7641805601
 31
0.0
  0
LINE
  5
98
330
1F
100
AcDbEntity
  8
SLD-0
 62
   179
100
AcDbLine
 10
117.8599924367
 20
191.7641805601
 30
0.0
 11
117.6943939697
 21
191.9017941807
 31
0.0
  0
LINE
  5
99
330
1F
100
AcDbEntity
  8
SLD-0
 62
   179
100
AcDbLine
 10
117.6943939697
 20
191.9017941807
 30
0.0
 11
117.5193523575
 21
192.0271758106
 31
0.0
  0
LINE
  5
9A
330
1F
100
AcDbEntity
  8
SLD-0
 62
   179
100
AcDbLine
 10
114.2027273361
 20
192.0271758106
 30
0.0
 11
114.0276857238
 21
191.9017941807
 31
0.0
  0
LINE
  5
9B
330
1F
100
AcDbEntity
  8
SLD-0
 62
   179
100
AcDbLine
 10
114.0276857238
 20
191.9017941807
 30
0.0
 11
113.8620877225
 21
191.7641805601
 31
0.0
  0
LINE
  5
9C
330
1F
100
AcDbEntity
  8
SLD-0
 62
   179
100
AcDbLine
 10
113.8620877225
 20
191.7641805601
 30
0.0
 11
113.7067864235
 21
191.6150439181
 31
0.0
  0
LINE
  5
9D
330
1F
100
AcDbEntity
  8
SLD-0
 62
   179
100
AcDbLine
 10
113.7067864235
 20
191.6150439181
 30
0.0
 11
113.5197549645
 21
191.4029118023
 31
0.0
  0
LINE
  5
9E
330
1F
100
AcDbEntity
  8
SLD-0
 62
   179
100
AcDbLine
 10
113.5197549645
 20
191.4029118023
 30
0.0
 11
113.3499327168
 21
191.1686208448
 31
0.0
  0
LINE
  5
9F
330
1F
100
AcDbEntity
  8
SLD-0
 62
   179
100
AcDbLine
 10
113.3499327168
 20
191.1686208448
 30
0.0
 11
113.2034729287
 21
190.9190586418
 31
0.0
  0
LINE
  5
A0
330
1F
100
AcDbEntity
  8
SLD-0
 62
   179
100
AcDbLine
 10
113.2034729287
 20
190.9190586418
 30
0.0
 11
113.0817376595
 21
190.656547097
 31
0.0
  0
LINE
  5
A1
330
1F
100
AcDbEntity
  8
SLD-0
 62
   179
100
AcDbLine
 10
113.0817376595
 20
190.656547097
 30
0.0
 11
112.9858596303
 21
190.3835283126
 31
0.0
  0
LINE
  5
A2
330
1F
100
AcDbEntity
  8
SLD-0
 62
   179
100
AcDbLine
 10
112.9858596303
 20
190.3835283126
 30
0.0
 11
112.9167312808
 21
190.1025424711
 31
0.0
  0
LINE
  5
A3
330
1F
100
AcDbEntity
  8
SLD-0
 62
   179
100
AcDbLine
 10
112.9167312808
 20
190.1025424711
 30
0.0
 11
112.874994991
 21
189.8162036494
 31
0.0
  0
LINE
  5
A4
330
1F
100
AcDbEntity
  8
SLD-0
 62
   179
100
AcDbLine
 10
112.874994991
 20
189.8162036494
 30
0.0
 11
112.8610398207
 21
189.5271758665
 31
0.0
  0
LINE
  5
A5
330
1F
100
AcDbEntity
  8
SLD-0
 62
   179
100
AcDbLine
 10
112.8610398207
 20
189.5271758665
 30
0.0
 11
112.874994991
 21
189.2381480836
 31
0.0
  0
LINE
  5
A6
330
1F
100
AcDbEntity
  8
SLD-0
 62
   179
100
AcDbLine
 10
112.874994991
 20
189.2381480836
 30
0.0
 11
112.9167312808
 21
188.9518092619
 31
0.0
  0
LINE
  5
A7
330
1F
100
AcDbEntity
  8
SLD-0
 62
   179
100
AcDbLine
 10
112.9167312808
 20
188.9518092619
 30
0.0
 11
112.9858596303
 21
188.6708234204
 31
0.0
  0
LINE
  5
A8
330
1F
100
AcDbEntity
  8
SLD-0
 62
   179
100
AcDbLine
 10
112.9858596303
 20
188.6708234204
 30
0.0
 11
113.0817376595
 21
188.397804636
 31
0.0
  0
LINE
  5
A9
330
1F
100
AcDbEntity
  8
SLD-0
 62
   179
100
AcDbLine
 10
113.0817376595
 20
188.397804636
 30
0.0
 11
113.2034729287
 21
188.1352930911
 31
0.0
  0
LINE
  5
AA
330
1F
100
AcDbEntity
  8
SLD-0
 62
   179
100
AcDbLine
 10
113.2034729287
 20
188.1352930911
 30
0.0
 11
113.3499327168
 21
187.8857308882
 31
0.0
  0
LINE
  5
AB
330
1F
100
AcDbEntity
  8
SLD-0
 62
   179
100
AcDbLine
 10
113.3499327168
 20
187.8857308882
 30
0.0
 11
113.5197549645
 21
187.6514399307
 31
0.0
  0
LINE
  5
AC
330
1F
100
AcDbEntity
  8
SLD-0
 62
   179
100
AcDbLine
 10
113.5197549645
 20
187.6514399307
 30
0.0
 11
113.7067864235
 21
187.4393078149
 31
0.0
  0
LINE
  5
AD
330
1F
100
AcDbEntity
  8
SLD-0
 62
   179
100
AcDbLine
 10
113.7067864235
 20
187.4393078149
 30
0.0
 11
113.8620877225
 21
187.2901711729
 31
0.0
  0
LINE
  5
AE
330
1F
100
AcDbEntity
  8
SLD-0
 62
   179
100
AcDbLine
 10
113.8620877225
 20
187.2901711729
 30
0.0
 11
114.0276857238
 21
187.1525575523
 31
0.0
  0
LINE
  5
AF
330
1F
100
AcDbEntity
  8
SLD-0
 62
   179
100
AcDbLine
 10
114.0276857238
 20
187.1525575523
 30
0.0
 11
114.2027273361
 21
187.0271759224
 31
0.0
  0
LINE
  5
B0
330
1F
100
AcDbEntity
  8
SLD-0
  6
HIDDEN
 62
   179
100
AcDbLine
 10
113.1642169837
 20
190.8413854078
 30
0.0
 11
113.2016053941
 21
190.9066441119
 31
0.0
  0
LINE
  5
B1
330
1F
100
AcDbEntity
  8
SLD-0
  6
HIDDEN
 62
   179
100
AcDbLine
 10
113.4702030156
 20
191.3281420827
 30
0.0
 11
113.8756691996
 21
191.7725538485
 31
0.0
  0
LINE
  5
B2
330
1F
100
AcDbEntity
  8
SLD-0
  6
HIDDEN
 62
   179
100
AcDbLine
 10
114.0856493782
 20
191.9360282016
 30
0.0
 11
114.2243861739
 21
192.0388820697
 31
0.0
  0
LINE
  5
B3
330
1F
100
AcDbEntity
  8
SLD-0
  6
HIDDEN
 62
   179
100
AcDbLine
 10
117.5077038404
 20
192.0341749326
 30
0.0
 11
117.7251481038
 21
191.8722153757
 31
0.0
  0
LINE
  5
B4
330
1F
100
AcDbEntity
  8
SLD-0
  6
HIDDEN
 62
   179
100
AcDbLine
 10
117.9498008039
 20
191.6730932542
 30
0.0
 11
118.052858166
 21
191.5745269623
 31
0.0
  0
LINE
  5
B5
330
1F
100
AcDbEntity
  8
SLD-0
  6
HIDDEN
 62
   179
100
AcDbLine
 10
118.0699646991
 20
191.5560760651
 30
0.0
 11
118.2541383948
 21
191.3320315186
 31
0.0
  0
LINE
  5
B6
330
1F
100
AcDbEntity
  8
SLD-0
  6
HIDDEN
 62
   179
100
AcDbLine
 10
118.4491387155
 20
191.022256168
 30
0.0
 11
118.5578622442
 21
190.8413854078
 31
0.0
  0
LINE
  5
B7
330
1F
100
AcDbEntity
  8
SLD-0
  6
HIDDEN
 62
   179
100
AcDbLine
 10
118.5578622442
 20
188.2129663252
 30
0.0
 11
118.5204742994
 21
188.1477076211
 31
0.0
  0
LINE
  5
B8
330
1F
100
AcDbEntity
  8
SLD-0
  6
HIDDEN
 62
   179
100
AcDbLine
 10
118.2518762123
 20
187.7262096502
 30
0.0
 11
117.8464100283
 21
187.2817978845
 31
0.0
  0
LINE
  5
B9
330
1F
100
AcDbEntity
  8
SLD-0
  6
HIDDEN
 62
   179
100
AcDbLine
 10
117.6364298496
 20
187.1183235314
 30
0.0
 11
117.4976935197
 21
187.0154696633
 31
0.0
  0
LINE
  5
BA
330
1F
100
AcDbEntity
  8
SLD-0
  6
HIDDEN
 62
   179
100
AcDbLine
 10
114.2143758532
 20
187.0201768004
 30
0.0
 11
113.9969315898
 21
187.1821363573
 31
0.0
  0
LINE
  5
BB
330
1F
100
AcDbEntity
  8
SLD-0
  6
HIDDEN
 62
   179
100
AcDbLine
 10
113.7722788896
 20
187.3812584788
 30
0.0
 11
113.6692217603
 21
187.4798247707
 31
0.0
  0
LINE
  5
BC
330
1F
100
AcDbEntity
  8
SLD-0
  6
HIDDEN
 62
   179
100
AcDbLine
 10
113.6521152273
 20
187.4982756679
 30
0.0
 11
113.4679410659
 21
187.7223202143
 31
0.0
  0
LINE
  5
BD
330
1F
100
AcDbEntity
  8
SLD-0
  6
HIDDEN
 62
   179
100
AcDbLine
 10
113.2729405124
 20
188.032095565
 30
0.0
 11
113.1642169837
 21
188.2129663252
 31
0.0
  0
LINE
  5
BE
330
1F
100
AcDbEntity
  8
SLD-0
  6
HIDDEN
 62
   179
100
AcDbLine
 10
117.5193523575
 20
187.0271759224
 30
0.0
 11
117.2678095806
 21
186.8774590664
 31
0.0
  0
LINE
  5
BF
330
1F
100
AcDbEntity
  8
SLD-0
  6
HIDDEN
 62
   179
100
AcDbLine
 10
117.2678095806
 20
186.8774590664
 30
0.0
 11
117.0028729882
 21
186.752970342
 31
0.0
  0
LINE
  5
C0
330
1F
100
AcDbEntity
  8
SLD-0
  6
HIDDEN
 62
   179
100
AcDbLine
 10
117.0028729882
 20
186.752970342
 30
0.0
 11
116.7270650674
 21
186.6548946243
 31
0.0
  0
LINE
  5
C1
330
1F
100
AcDbEntity
  8
SLD-0
  6
HIDDEN
 62
   179
100
AcDbLine
 10
116.7270650674
 20
186.6548946243
 30
0.0
 11
116.4430121478
 21
186.5841657971
 31
0.0
  0
LINE
  5
C2
330
1F
100
AcDbEntity
  8
SLD-0
  6
HIDDEN
 62
   179
100
AcDbLine
 10
116.4430121478
 20
186.5841657971
 30
0.0
 11
116.1534178589
 21
186.5414574393
 31
0.0
  0
LINE
  5
C3
330
1F
100
AcDbEntity
  8
SLD-0
  6
HIDDEN
 62
   179
100
AcDbLine
 10
116.1534178589
 20
186.5414574393
 30
0.0
 11
115.8610398468
 21
186.5271758404
 31
0.0
  0
LINE
  5
C4
330
1F
100
AcDbEntity
  8
SLD-0
  6
HIDDEN
 62
   179
100
AcDbLine
 10
115.8610398468
 20
186.5271758404
 30
0.0
 11
115.5686618347
 21
186.5414574393
 31
0.0
  0
LINE
  5
C5
330
1F
100
AcDbEntity
  8
SLD-0
  6
HIDDEN
 62
   179
100
AcDbLine
 10
115.5686618347
 20
186.5414574393
 30
0.0
 11
115.2790675458
 21
186.5841657971
 31
0.0
  0
LINE
  5
C6
330
1F
100
AcDbEntity
  8
SLD-0
  6
HIDDEN
 62
   179
100
AcDbLine
 10
115.2790675458
 20
186.5841657971
 30
0.0
 11
114.9950141605
 21
186.6548946243
 31
0.0
  0
LINE
  5
C7
330
1F
100
AcDbEntity
  8
SLD-0
  6
HIDDEN
 62
   179
100
AcDbLine
 10
114.9950141605
 20
186.6548946243
 30
0.0
 11
114.7192067053
 21
186.752970342
 31
0.0
  0
LINE
  5
C8
330
1F
100
AcDbEntity
  8
SLD-0
  6
HIDDEN
 62
   179
100
AcDbLine
 10
114.7192067053
 20
186.752970342
 30
0.0
 11
114.4542701129
 21
186.8774590664
 31
0.0
  0
LINE
  5
C9
330
1F
100
AcDbEntity
  8
SLD-0
  6
HIDDEN
 62
   179
100
AcDbLine
 10
114.4542701129
 20
186.8774590664
 30
0.0
 11
114.2027273361
 21
187.0271759224
 31
0.0
  0
LINE
  5
CA
330
1F
100
AcDbEntity
  8
SLD-0
  6
HIDDEN
 62
   179
100
AcDbLine
 10
114.2027273361
 20
192.0271758106
 30
0.0
 11
114.4542701129
 21
192.1768926666
 31
0.0
  0
LINE
  5
CB
330
1F
100
AcDbEntity
  8
SLD-0
  6
HIDDEN
 62
   179
100
AcDbLine
 10
114.4542701129
 20
192.1768926666
 30
0.0
 11
114.7192067053
 21
192.301381391
 31
0.0
  0
LINE
  5
CC
330
1F
100
AcDbEntity
  8
SLD-0
  6
HIDDEN
 62
   179
100
AcDbLine
 10
114.7192067053
 20
192.301381391
 30
0.0
 11
114.9950141605
 21
192.3994571087
 31
0.0
  0
LINE
  5
CD
330
1F
100
AcDbEntity
  8
SLD-0
  6
HIDDEN
 62
   179
100
AcDbLine
 10
114.9950141605
 20
192.3994571087
 30
0.0
 11
115.2790675458
 21
192.4701859359
 31
0.0
  0
LINE
  5
CE
330
1F
100
AcDbEntity
  8
SLD-0
  6
HIDDEN
 62
   179
100
AcDbLine
 10
115.2790675458
 20
192.4701859359
 30
0.0
 11
115.5686618347
 21
192.5128942937
 31
0.0
  0
LINE
  5
CF
330
1F
100
AcDbEntity
  8
SLD-0
  6
HIDDEN
 62
   179
100
AcDbLine
 10
115.5686618347
 20
192.5128942937
 30
0.0
 11
115.8610398468
 21
192.5271758926
 31
0.0
  0
LINE
  5
D0
330
1F
100
AcDbEntity
  8
SLD-0
  6
HIDDEN
 62
   179
100
AcDbLine
 10
115.8610398468
 20
192.5271758926
 30
0.0
 11
116.1534178589
 21
192.5128942937
 31
0.0
  0
LINE
  5
D1
330
1F
100
AcDbEntity
  8
SLD-0
  6
HIDDEN
 62
   179
100
AcDbLine
 10
116.1534178589
 20
192.5128942937
 30
0.0
 11
116.4430121478
 21
192.4701859359
 31
0.0
  0
LINE
  5
D2
330
1F
100
AcDbEntity
  8
SLD-0
  6
HIDDEN
 62
   179
100
AcDbLine
 10
116.4430121478
 20
192.4701859359
 30
0.0
 11
116.7270650674
 21
192.3994571087
 31
0.0
  0
LINE
  5
D3
330
1F
100
AcDbEntity
  8
SLD-0
  6
HIDDEN
 62
   179
100
AcDbLine
 10
116.7270650674
 20
192.3994571087
 30
0.0
 11
117.0028729882
 21
192.301381391
 31
0.0
  0
LINE
  5
D4
330
1F
100
AcDbEntity
  8
SLD-0
  6
HIDDEN
 62
   179
100
AcDbLine
 10
117.0028729882
 20
192.301381391
 30
0.0
 11
117.2678095806
 21
192.1768926666
 31
0.0
  0
LINE
  5
D5
330
1F
100
AcDbEntity
  8
SLD-0
  6
HIDDEN
 62
   179
100
AcDbLine
 10
117.2678095806
 20
192.1768926666
 30
0.0
 11
117.5193523575
 21
192.0271758106
 31
0.0
  0
LINE
  5
D6
330
1F
100
AcDbEntity
  8
SLD-0
 62
   179
100
AcDbLine
 10
106.0152931657
 20
187.4393078149
 30
0.0
 11
106.2023246247
 21
187.6514399307
 31
0.0
  0
LINE
  5
D7
330
1F
100
AcDbEntity
  8
SLD-0
 62
   179
100
AcDbLine
 10
106.2023246247
 20
187.6514399307
 30
0.0
 11
106.3721468724
 21
187.8857308882
 31
0.0
  0
LINE
  5
D8
330
1F
100
AcDbEntity
  8
SLD-0
 62
   179
100
AcDbLine
 10
106.3721468724
 20
187.8857308882
 30
0.0
 11
106.5186066605
 21
188.1352930911
 31
0.0
  0
LINE
  5
D9
330
1F
100
AcDbEntity
  8
SLD-0
 62
   179
100
AcDbLine
 10
106.5186066605
 20
188.1352930911
 30
0.0
 11
106.6403419297
 21
188.397804636
 31
0.0
  0
LINE
  5
DA
330
1F
100
AcDbEntity
  8
SLD-0
 62
   179
100
AcDbLine
 10
106.6403419297
 20
188.397804636
 30
0.0
 11
106.736219959
 21
188.6708234204
 31
0.0
  0
LINE
  5
DB
330
1F
100
AcDbEntity
  8
SLD-0
 62
   179
100
AcDbLine
 10
106.736219959
 20
188.6708234204
 30
0.0
 11
106.8053483084
 21
188.9518092619
 31
0.0
  0
LINE
  5
DC
330
1F
100
AcDbEntity
  8
SLD-0
 62
   179
100
AcDbLine
 10
106.8053483084
 20
188.9518092619
 30
0.0
 11
106.8470845982
 21
189.2381480836
 31
0.0
  0
LINE
  5
DD
330
1F
100
AcDbEntity
  8
SLD-0
 62
   179
100
AcDbLine
 10
106.8470845982
 20
189.2381480836
 30
0.0
 11
106.8610397685
 21
189.5271758665
 31
0.0
  0
LINE
  5
DE
330
1F
100
AcDbEntity
  8
SLD-0
 62
   179
100
AcDbLine
 10
106.8610397685
 20
189.5271758665
 30
0.0
 11
106.8470845982
 21
189.8162036494
 31
0.0
  0
LINE
  5
DF
330
1F
100
AcDbEntity
  8
SLD-0
 62
   179
100
AcDbLine
 10
106.8470845982
 20
189.8162036494
 30
0.0
 11
106.8053483084
 21
190.1025424711
 31
0.0
  0
LINE
  5
E0
330
1F
100
AcDbEntity
  8
SLD-0
 62
   179
100
AcDbLine
 10
106.8053483084
 20
190.1025424711
 30
0.0
 11
106.736219959
 21
190.3835283126
 31
0.0
  0
LINE
  5
E1
330
1F
100
AcDbEntity
  8
SLD-0
 62
   179
100
AcDbLine
 10
106.736219959
 20
190.3835283126
 30
0.0
 11
106.6403419297
 21
190.656547097
 31
0.0
  0
LINE
  5
E2
330
1F
100
AcDbEntity
  8
SLD-0
 62
   179
100
AcDbLine
 10
106.6403419297
 20
190.656547097
 30
0.0
 11
106.5186066605
 21
190.9190586418
 31
0.0
  0
LINE
  5
E3
330
1F
100
AcDbEntity
  8
SLD-0
 62
   179
100
AcDbLine
 10
106.5186066605
 20
190.9190586418
 30
0.0
 11
106.3721468724
 21
191.1686208448
 31
0.0
  0
LINE
  5
E4
330
1F
100
AcDbEntity
  8
SLD-0
 62
   179
100
AcDbLine
 10
106.3721468724
 20
191.1686208448
 30
0.0
 11
106.2023246247
 21
191.4029118023
 31
0.0
  0
LINE
  5
E5
330
1F
100
AcDbEntity
  8
SLD-0
 62
   179
100
AcDbLine
 10
106.2023246247
 20
191.4029118023
 30
0.0
 11
106.0152931657
 21
191.6150439181
 31
0.0
  0
LINE
  5
E6
330
1F
100
AcDbEntity
  8
SLD-0
 62
   179
100
AcDbLine
 10
106.0152931657
 20
191.6150439181
 30
0.0
 11
105.8599918667
 21
191.7641805601
 31
0.0
  0
LINE
  5
E7
330
1F
100
AcDbEntity
  8
SLD-0
 62
   179
100
AcDbLine
 10
105.8599918667
 20
191.7641805601
 30
0.0
 11
105.6943938654
 21
191.9017941807
 31
0.0
  0
LINE
  5
E8
330
1F
100
AcDbEntity
  8
SLD-0
 62
   179
100
AcDbLine
 10
105.6943938654
 20
191.9017941807
 30
0.0
 11
105.5193522532
 21
192.0271758106
 31
0.0
  0
LINE
  5
E9
330
1F
100
AcDbEntity
  8
SLD-0
 62
   179
100
AcDbLine
 10
102.2027272318
 20
192.0271758106
 30
0.0
 11
102.0276856195
 21
191.9017941807
 31
0.0
  0
LINE
  5
EA
330
1F
100
AcDbEntity
  8
SLD-0
 62
   179
100
AcDbLine
 10
102.0276856195
 20
191.9017941807
 30
0.0
 11
101.8620871525
 21
191.7641805601
 31
0.0
  0
LINE
  5
EB
330
1F
100
AcDbEntity
  8
SLD-0
 62
   179
100
AcDbLine
 10
101.8620871525
 20
191.7641805601
 30
0.0
 11
101.7067863192
 21
191.6150439181
 31
0.0
  0
LINE
  5
EC
330
1F
100
AcDbEntity
  8
SLD-0
 62
   179
100
AcDbLine
 10
101.7067863192
 20
191.6150439181
 30
0.0
 11
101.5197553258
 21
191.4029118023
 31
0.0
  0
LINE
  5
ED
330
1F
100
AcDbEntity
  8
SLD-0
 62
   179
100
AcDbLine
 10
101.5197553258
 20
191.4029118023
 30
0.0
 11
101.3499323796
 21
191.1686208448
 31
0.0
  0
LINE
  5
EE
330
1F
100
AcDbEntity
  8
SLD-0
 62
   179
100
AcDbLine
 10
101.3499323796
 20
191.1686208448
 30
0.0
 11
101.2034725916
 21
190.9190586418
 31
0.0
  0
LINE
  5
EF
330
1F
100
AcDbEntity
  8
SLD-0
 62
   179
100
AcDbLine
 10
101.2034725916
 20
190.9190586418
 30
0.0
 11
101.0817375552
 21
190.656547097
 31
0.0
  0
LINE
  5
F0
330
1F
100
AcDbEntity
  8
SLD-0
 62
   179
100
AcDbLine
 10
101.0817375552
 20
190.656547097
 30
0.0
 11
100.9858597588
 21
190.3835283126
 31
0.0
  0
LINE
  5
F1
330
1F
100
AcDbEntity
  8
SLD-0
 62
   179
100
AcDbLine
 10
100.9858597588
 20
190.3835283126
 30
0.0
 11
100.9167314094
 21
190.1025424711
 31
0.0
  0
LINE
  5
F2
330
1F
100
AcDbEntity
  8
SLD-0
 62
   179
100
AcDbLine
 10
100.9167314094
 20
190.1025424711
 30
0.0
 11
100.8749951195
 21
189.8162036494
 31
0.0
  0
LINE
  5
F3
330
1F
100
AcDbEntity
  8
SLD-0
 62
   179
100
AcDbLine
 10
100.8749951195
 20
189.8162036494
 30
0.0
 11
100.861040182
 21
189.5271758665
 31
0.0
  0
LINE
  5
F4
330
1F
100
AcDbEntity
  8
SLD-0
 62
   179
100
AcDbLine
 10
100.861040182
 20
189.5271758665
 30
0.0
 11
100.8749951195
 21
189.2381480836
 31
0.0
  0
LINE
  5
F5
330
1F
100
AcDbEntity
  8
SLD-0
 62
   179
100
AcDbLine
 10
100.8749951195
 20
189.2381480836
 30
0.0
 11
100.9167314094
 21
188.9518092619
 31
0.0
  0
LINE
  5
F6
330
1F
100
AcDbEntity
  8
SLD-0
 62
   179
100
AcDbLine
 10
100.9167314094
 20
188.9518092619
 30
0.0
 11
100.9858597588
 21
188.6708234204
 31
0.0
  0
LINE
  5
F7
330
1F
100
AcDbEntity
  8
SLD-0
 62
   179
100
AcDbLine
 10
100.9858597588
 20
188.6708234204
 30
0.0
 11
101.0817375552
 21
188.397804636
 31
0.0
  0
LINE
  5
F8
330
1F
100
AcDbEntity
  8
SLD-0
 62
   179
100
AcDbLine
 10
101.0817375552
 20
188.397804636
 30
0.0
 11
101.2034725916
 21
188.1352930911
 31
0.0
  0
LINE
  5
F9
330
1F
100
AcDbEntity
  8
SLD-0
 62
   179
100
AcDbLine
 10
101.2034725916
 20
188.1352930911
 30
0.0
 11
101.3499323796
 21
187.8857308882
 31
0.0
  0
LINE
  5
FA
330
1F
100
AcDbEntity
  8
SLD-0
 62
   179
100
AcDbLine
 10
101.3499323796
 20
187.8857308882
 30
0.0
 11
101.5197553258
 21
187.6514399307
 31
0.0
  0
LINE
  5
FB
330
1F
100
AcDbEntity
  8
SLD-0
 62
   179
100
AcDbLine
 10
101.5197553258
 20
187.6514399307
 30
0.0
 11
101.7067863192
 21
187.4393078149
 31
0.0
  0
LINE
  5
FC
330
1F
100
AcDbEntity
  8
SLD-0
 62
   179
100
AcDbLine
 10
101.7067863192
 20
187.4393078149
 30
0.0
 11
101.8620871525
 21
187.2901711729
 31
0.0
  0
LINE
  5
FD
330
1F
100
AcDbEntity
  8
SLD-0
 62
   179
100
AcDbLine
 10
101.8620871525
 20
187.2901711729
 30
0.0
 11
102.0276856195
 21
187.1525575523
 31
0.0
  0
LINE
  5
FE
330
1F
100
AcDbEntity
  8
SLD-0
 62
   179
100
AcDbLine
 10
102.0276856195
 20
187.1525575523
 30
0.0
 11
102.2027272318
 21
187.0271759224
 31
0.0
  0
LINE
  5
FF
330
1F
100
AcDbEntity
  8
SLD-0
 62
   179
100
AcDbLine
 10
105.5193522532
 20
187.0271759224
 30
0.0
 11
105.6943938654
 21
187.1525575523
 31
0.0
  0
LINE
  5
100
330
1F
100
AcDbEntity
  8
SLD-0
 62
   179
100
AcDbLine
 10
105.6943938654
 20
187.1525575523
 30
0.0
 11
105.8599918667
 21
187.2901711729
 31
0.0
  0
LINE
  5
101
330
1F
100
AcDbEntity
  8
SLD-0
 62
   179
100
AcDbLine
 10
105.8599918667
 20
187.2901711729
 30
0.0
 11
106.0152931657
 21
187.4393078149
 31
0.0
  0
LINE
  5
102
330
1F
100
AcDbEntity
  8
SLD-0
  6
HIDDEN
 62
   179
100
AcDbLine
 10
106.5578626055
 20
188.2129663252
 30
0.0
 11
106.5204741951
 21
188.1477076211
 31
0.0
  0
LINE
  5
103
330
1F
100
AcDbEntity
  8
SLD-0
  6
HIDDEN
 62
   179
100
AcDbLine
 10
106.2518765736
 20
187.7262096502
 30
0.0
 11
105.8464103896
 21
187.2817978845
 31
0.0
  0
LINE
  5
104
330
1F
100
AcDbEntity
  8
SLD-0
  6
HIDDEN
 62
   179
100
AcDbLine
 10
105.636430211
 20
187.1183235314
 30
0.0
 11
105.4976934154
 21
187.0154696633
 31
0.0
  0
LINE
  5
105
330
1F
100
AcDbEntity
  8
SLD-0
  6
HIDDEN
 62
   179
100
AcDbLine
 10
102.2143757489
 20
187.0201768004
 30
0.0
 11
101.9969314855
 21
187.1821363573
 31
0.0
  0
LINE
  5
106
330
1F
100
AcDbEntity
  8
SLD-0
  6
HIDDEN
 62
   179
100
AcDbLine
 10
101.7722787853
 20
187.3812584788
 30
0.0
 11
101.6692214232
 21
187.4798247707
 31
0.0
  0
LINE
  5
107
330
1F
100
AcDbEntity
  8
SLD-0
  6
HIDDEN
 62
   179
100
AcDbLine
 10
101.6521148901
 20
187.4982756679
 30
0.0
 11
101.4679411944
 21
187.7223202143
 31
0.0
  0
LINE
  5
108
330
1F
100
AcDbEntity
  8
SLD-0
  6
HIDDEN
 62
   179
100
AcDbLine
 10
101.2729408737
 20
188.032095565
 30
0.0
 11
101.164217345
 21
188.2129663252
 31
0.0
  0
LINE
  5
109
330
1F
100
AcDbEntity
  8
SLD-0
  6
HIDDEN
 62
   179
100
AcDbLine
 10
101.164217345
 20
190.8413854078
 30
0.0
 11
101.2016052898
 21
190.9066441119
 31
0.0
  0
LINE
  5
10A
330
1F
100
AcDbEntity
  8
SLD-0
  6
HIDDEN
 62
   179
100
AcDbLine
 10
101.4702033769
 20
191.3281420827
 30
0.0
 11
101.875669561
 21
191.7725538485
 31
0.0
  0
LINE
  5
10B
330
1F
100
AcDbEntity
  8
SLD-0
  6
HIDDEN
 62
   179
100
AcDbLine
 10
102.0856497396
 20
191.9360282016
 30
0.0
 11
102.2243860696
 21
192.0388820697
 31
0.0
  0
LINE
  5
10C
330
1F
100
AcDbEntity
  8
SLD-0
  6
HIDDEN
 62
   179
100
AcDbLine
 10
105.5077037361
 20
192.0341749326
 30
0.0
 11
105.7251479995
 21
191.8722153757
 31
0.0
  0
LINE
  5
10D
330
1F
100
AcDbEntity
  8
SLD-0
  6
HIDDEN
 62
   179
100
AcDbLine
 10
105.9498006996
 20
191.6730932542
 30
0.0
 11
106.0528578289
 21
191.5745269623
 31
0.0
  0
LINE
  5
10E
330
1F
100
AcDbEntity
  8
SLD-0
  6
HIDDEN
 62
   179
100
AcDbLine
 10
106.0699643619
 20
191.5560760651
 30
0.0
 11
106.2541385233
 21
191.3320315186
 31
0.0
  0
LINE
  5
10F
330
1F
100
AcDbEntity
  8
SLD-0
  6
HIDDEN
 62
   179
100
AcDbLine
 10
106.4491390768
 20
191.022256168
 30
0.0
 11
106.5578626055
 21
190.8413854078
 31
0.0
  0
LINE
  5
110
330
1F
100
AcDbEntity
  8
SLD-0
  6
HIDDEN
 62
   179
100
AcDbLine
 10
102.2027272318
 20
192.0271758106
 30
0.0
 11
102.4542700086
 21
192.1768926666
 31
0.0
  0
LINE
  5
111
330
1F
100
AcDbEntity
  8
SLD-0
  6
HIDDEN
 62
   179
100
AcDbLine
 10
102.4542700086
 20
192.1768926666
 30
0.0
 11
102.719206601
 21
192.301381391
 31
0.0
  0
LINE
  5
112
330
1F
100
AcDbEntity
  8
SLD-0
  6
HIDDEN
 62
   179
100
AcDbLine
 10
102.719206601
 20
192.301381391
 30
0.0
 11
102.9950145219
 21
192.3994571087
 31
0.0
  0
LINE
  5
113
330
1F
100
AcDbEntity
  8
SLD-0
  6
HIDDEN
 62
   179
100
AcDbLine
 10
102.9950145219
 20
192.3994571087
 30
0.0
 11
103.2790674414
 21
192.4701859359
 31
0.0
  0
LINE
  5
114
330
1F
100
AcDbEntity
  8
SLD-0
  6
HIDDEN
 62
   179
100
AcDbLine
 10
103.2790674414
 20
192.4701859359
 30
0.0
 11
103.5686617304
 21
192.5128942937
 31
0.0
  0
LINE
  5
115
330
1F
100
AcDbEntity
  8
SLD-0
  6
HIDDEN
 62
   179
100
AcDbLine
 10
103.5686617304
 20
192.5128942937
 30
0.0
 11
103.8610397425
 21
192.5271758926
 31
0.0
  0
LINE
  5
116
330
1F
100
AcDbEntity
  8
SLD-0
  6
HIDDEN
 62
   179
100
AcDbLine
 10
103.8610397425
 20
192.5271758926
 30
0.0
 11
104.1534177545
 21
192.5128942937
 31
0.0
  0
LINE
  5
117
330
1F
100
AcDbEntity
  8
SLD-0
  6
HIDDEN
 62
   179
100
AcDbLine
 10
104.1534177545
 20
192.5128942937
 30
0.0
 11
104.4430120435
 21
192.4701859359
 31
0.0
  0
LINE
  5
118
330
1F
100
AcDbEntity
  8
SLD-0
  6
HIDDEN
 62
   179
100
AcDbLine
 10
104.4430120435
 20
192.4701859359
 30
0.0
 11
104.7270654287
 21
192.3994571087
 31
0.0
  0
LINE
  5
119
330
1F
100
AcDbEntity
  8
SLD-0
  6
HIDDEN
 62
   179
100
AcDbLine
 10
104.7270654287
 20
192.3994571087
 30
0.0
 11
105.0028728839
 21
192.301381391
 31
0.0
  0
LINE
  5
11A
330
1F
100
AcDbEntity
  8
SLD-0
  6
HIDDEN
 62
   179
100
AcDbLine
 10
105.0028728839
 20
192.301381391
 30
0.0
 11
105.2678094763
 21
192.1768926666
 31
0.0
  0
LINE
  5
11B
330
1F
100
AcDbEntity
  8
SLD-0
  6
HIDDEN
 62
   179
100
AcDbLine
 10
105.2678094763
 20
192.1768926666
 30
0.0
 11
105.5193522532
 21
192.0271758106
 31
0.0
  0
LINE
  5
11C
330
1F
100
AcDbEntity
  8
SLD-0
  6
HIDDEN
 62
   179
100
AcDbLine
 10
105.5193522532
 20
187.0271759224
 30
0.0
 11
105.2678094763
 21
186.8774590664
 31
0.0
  0
LINE
  5
11D
330
1F
100
AcDbEntity
  8
SLD-0
  6
HIDDEN
 62
   179
100
AcDbLine
 10
105.2678094763
 20
186.8774590664
 30
0.0
 11
105.0028728839
 21
186.752970342
 31
0.0
  0
LINE
  5
11E
330
1F
100
AcDbEntity
  8
SLD-0
  6
HIDDEN
 62
   179
100
AcDbLine
 10
105.0028728839
 20
186.752970342
 30
0.0
 11
104.7270654287
 21
186.6548946243
 31
0.0
  0
LINE
  5
11F
330
1F
100
AcDbEntity
  8
SLD-0
  6
HIDDEN
 62
   179
100
AcDbLine
 10
104.7270654287
 20
186.6548946243
 30
0.0
 11
104.4430120435
 21
186.5841657971
 31
0.0
  0
LINE
  5
120
330
1F
100
AcDbEntity
  8
SLD-0
  6
HIDDEN
 62
   179
100
AcDbLine
 10
104.4430120435
 20
186.5841657971
 30
0.0
 11
104.1534177545
 21
186.5414574393
 31
0.0
  0
LINE
  5
121
330
1F
100
AcDbEntity
  8
SLD-0
  6
HIDDEN
 62
   179
100
AcDbLine
 10
104.1534177545
 20
186.5414574393
 30
0.0
 11
103.8610397425
 21
186.5271758404
 31
0.0
  0
LINE
  5
122
330
1F
100
AcDbEntity
  8
SLD-0
  6
HIDDEN
 62
   179
100
AcDbLine
 10
103.8610397425
 20
186.5271758404
 30
0.0
 11
103.5686617304
 21
186.5414574393
 31
0.0
  0
LINE
  5
123
330
1F
100
AcDbEntity
  8
SLD-0
  6
HIDDEN
 62
   179
100
AcDbLine
 10
103.5686617304
 20
186.5414574393
 30
0.0
 11
103.2790674414
 21
186.5841657971
 31
0.0
  0
LINE
  5
124
330
1F
100
AcDbEntity
  8
SLD-0
  6
HIDDEN
 62
   179
100
AcDbLine
 10
103.2790674414
 20
186.5841657971
 30
0.0
 11
102.9950145219
 21
186.6548946243
 31
0.0
  0
LINE
  5
125
330
1F
100
AcDbEntity
  8
SLD-0
  6
HIDDEN
 62
   179
100
AcDbLine
 10
102.9950145219
 20
186.6548946243
 30
0.0
 11
102.719206601
 21
186.752970342
 31
0.0
  0
LINE
  5
126
330
1F
100
AcDbEntity
  8
SLD-0
  6
HIDDEN
 62
   179
100
AcDbLine
 10
102.719206601
 20
186.752970342
 30
0.0
 11
102.4542700086
 21
186.8774590664
 31
0.0
  0
LINE
  5
127
330
1F
100
AcDbEntity
  8
SLD-0
  6
HIDDEN
 62
   179
100
AcDbLine
 10
102.4542700086
 20
186.8774590664
 30
0.0
 11
102.2027272318
 21
187.0271759224
 31
0.0
  0
LINE
  5
128
330
1F
100
AcDbEntity
  8
SLD-0
  6
Continuous
 62
   179
100
AcDbLine
 10
106.3610396866
 20
148.2166237807
 30
0.0
 11
113.3610399026
 21
148.2166237807
 31
0.0
  0
LINE
  5
129
330
1F
100
AcDbEntity
  8
SLD-0
  6
Continuous
 62
   179
100
AcDbLine
 10
118.3610402565
 20
148.2166237807
 30
0.0
 11
120.3610397946
 21
148.2166238768
 31
0.0
  0
LINE
  5
12A
330
1F
100
AcDbEntity
  8
SLD-0
  6
Continuous
 62
   179
100
AcDbLine
 10
99.3610397946
 20
148.2166238768
 30
0.0
 11
101.3610393327
 21
148.2166237807
 31
0.0
  0
LINE
  5
12B
330
1F
100
AcDbEntity
  8
SLD-0
  6
Continuous
 62
   179
100
AcDbLine
 10
120.3610397946
 20
154.6166238768
 30
0.0
 11
99.3610397946
 21
154.6166238768
 31
0.0
  0
LINE
  5
12C
330
1F
100
AcDbEntity
  8
SLD-0
  6
Continuous
 62
   179
100
AcDbLine
 10
120.3610397946
 20
154.6166238768
 30
0.0
 11
120.3610397946
 21
153.9020048534
 31
0.0
  0
LINE
  5
12D
330
1F
100
AcDbEntity
  8
SLD-0
  6
Continuous
 62
   179
100
AcDbLine
 10
99.3610397946
 20
154.6166238768
 30
0.0
 11
99.3610397946
 21
153.9020048534
 31
0.0
  0
LINE
  5
12E
330
1F
100
AcDbEntity
  8
SLD-0
  6
Continuous
 62
   179
100
AcDbLine
 10
120.3610397946
 20
153.9020048534
 30
0.0
 11
120.3610397946
 21
148.7090253448
 31
0.0
  0
LINE
  5
12F
330
1F
100
AcDbEntity
  8
SLD-0
  6
Continuous
 62
   179
100
AcDbLine
 10
99.3610397946
 20
153.9020048534
 30
0.0
 11
99.3610397946
 21
148.7090253448
 31
0.0
  0
LINE
  5
130
330
1F
100
AcDbEntity
  8
SLD-0
  6
Continuous
 62
   179
100
AcDbLine
 10
120.3610397946
 20
148.7090253448
 30
0.0
 11
120.3610397946
 21
148.2166238768
 31
0.0
  0
LINE
  5
131
330
1F
100
AcDbEntity
  8
SLD-0
  6
Continuous
 62
   179
100
AcDbLine
 10
99.3610397946
 20
148.7090253448
 30
0.0
 11
99.3610397946
 21
148.2166238768
 31
0.0
  0
LINE
  5
132
330
1F
100
AcDbEntity
  8
SLD-0
  6
HIDDEN
 62
     8
100
AcDbLine
 10
120.3610397946
 20
154.6166238768
 30
0.0
 11
99.3610397946
 21
154.6166238768
 31
0.0
  0
LINE
  5
133
330
1F
100
AcDbEntity
  8
SLD-0
  6
HIDDEN
 62
     8
100
AcDbLine
 10
120.3610397946
 20
154.5287559111
 30
0.0
 11
120.3610397946
 21
154.6166238768
 31
0.0
  0
LINE
  5
134
330
1F
100
AcDbEntity
  8
SLD-0
  6
HIDDEN
 62
     8
100
AcDbLine
 10
99.3610397946
 20
154.5287559111
 30
0.0
 11
99.3610397946
 21
154.6166238768
 31
0.0
  0
LINE
  5
135
330
1F
100
AcDbEntity
  8
SLD-0
  6
HIDDEN
 62
     8
100
AcDbLine
 10
120.3610397946
 20
154.0044918424
 30
0.0
 11
120.3610397946
 21
154.5287559111
 31
0.0
  0
LINE
  5
136
330
1F
100
AcDbEntity
  8
SLD-0
  6
HIDDEN
 62
     8
100
AcDbLine
 10
99.3610397946
 20
154.0044918424
 30
0.0
 11
99.3610397946
 21
154.5287559111
 31
0.0
  0
LINE
  5
137
330
1F
100
AcDbEntity
  8
SLD-0
  6
HIDDEN
 62
     8
100
AcDbLine
 10
105.5137995219
 20
153.9166238768
 30
0.0
 11
106.357926508
 21
153.9166238768
 31
0.0
  0
LINE
  5
138
330
1F
100
AcDbEntity
  8
SLD-0
  6
HIDDEN
 62
     8
100
AcDbLine
 10
105.5137995219
 20
153.9166238768
 30
0.0
 11
105.3300912078
 21
153.9551665778
 31
0.0
  0
LINE
  5
139
330
1F
100
AcDbEntity
  8
SLD-0
  6
HIDDEN
 62
     8
100
AcDbLine
 10
105.3300912078
 20
153.9551665778
 30
0.0
 11
105.2361063246
 21
154.0044918406
 31
0.0
  0
LINE
  5
13A
330
1F
100
AcDbEntity
  8
SLD-0
  6
HIDDEN
 62
     8
100
AcDbLine
 10
102.485973626
 20
154.0044918406
 30
0.0
 11
102.3130293522
 21
153.9296189062
 31
0.0
  0
LINE
  5
13B
330
1F
100
AcDbEntity
  8
SLD-0
  6
HIDDEN
 62
     8
100
AcDbLine
 10
102.3130293522
 20
153.9296189062
 30
0.0
 11
102.2082802426
 21
153.9166238768
 31
0.0
  0
LINE
  5
13C
330
1F
100
AcDbEntity
  8
SLD-0
  6
HIDDEN
 62
     8
100
AcDbLine
 10
102.2082802426
 20
153.9166238768
 30
0.0
 11
101.364152744
 21
153.9166238768
 31
0.0
  0
LINE
  5
13D
330
1F
100
AcDbEntity
  8
SLD-0
  6
HIDDEN
 62
     8
100
AcDbLine
 10
102.2082802426
 20
153.9166238768
 30
0.0
 11
102.3919882771
 21
153.9551665778
 31
0.0
  0
LINE
  5
13E
330
1F
100
AcDbEntity
  8
SLD-0
  6
HIDDEN
 62
     8
100
AcDbLine
 10
102.3919882771
 20
153.9551665778
 30
0.0
 11
102.485973626
 21
154.0044918406
 31
0.0
  0
LINE
  5
13F
330
1F
100
AcDbEntity
  8
SLD-0
  6
HIDDEN
 62
     8
100
AcDbLine
 10
105.2361063246
 20
154.0044918406
 30
0.0
 11
105.4090501327
 21
153.9296189062
 31
0.0
  0
LINE
  5
140
330
1F
100
AcDbEntity
  8
SLD-0
  6
HIDDEN
 62
     8
100
AcDbLine
 10
105.4090501327
 20
153.9296189062
 30
0.0
 11
105.5137995219
 21
153.9166238768
 31
0.0
  0
LINE
  5
141
330
1F
100
AcDbEntity
  8
SLD-0
  6
HIDDEN
 62
     8
100
AcDbLine
 10
114.4859732646
 20
154.0044918406
 30
0.0
 11
114.3130294565
 21
153.9296189062
 31
0.0
  0
LINE
  5
142
330
1F
100
AcDbEntity
  8
SLD-0
  6
HIDDEN
 62
     8
100
AcDbLine
 10
114.3130294565
 20
153.9296189062
 30
0.0
 11
114.2082798813
 21
153.9166238768
 31
0.0
  0
LINE
  5
143
330
1F
100
AcDbEntity
  8
SLD-0
  6
HIDDEN
 62
     8
100
AcDbLine
 10
114.2082798813
 20
153.9166238768
 30
0.0
 11
113.3641530812
 21
153.9166238768
 31
0.0
  0
LINE
  5
144
330
1F
100
AcDbEntity
  8
SLD-0
  6
HIDDEN
 62
     8
100
AcDbLine
 10
114.2082798813
 20
153.9166238768
 30
0.0
 11
114.3919883814
 21
153.9551665778
 31
0.0
  0
LINE
  5
145
330
1F
100
AcDbEntity
  8
SLD-0
  6
HIDDEN
 62
     8
100
AcDbLine
 10
114.3919883814
 20
153.9551665778
 30
0.0
 11
114.4859732646
 21
154.0044918406
 31
0.0
  0
LINE
  5
146
330
1F
100
AcDbEntity
  8
SLD-0
  6
HIDDEN
 62
     8
100
AcDbLine
 10
117.2361059632
 20
154.0044918407
 30
0.0
 11
117.409050237
 21
153.9296189062
 31
0.0
  0
LINE
  5
147
330
1F
100
AcDbEntity
  8
SLD-0
  6
HIDDEN
 62
     8
100
AcDbLine
 10
117.409050237
 20
153.9296189062
 30
0.0
 11
117.5137993466
 21
153.9166238768
 31
0.0
  0
LINE
  5
148
330
1F
100
AcDbEntity
  8
SLD-0
  6
HIDDEN
 62
     8
100
AcDbLine
 10
117.5137993466
 20
153.9166238768
 30
0.0
 11
118.3579268452
 21
153.9166238768
 31
0.0
  0
LINE
  5
149
330
1F
100
AcDbEntity
  8
SLD-0
  6
HIDDEN
 62
     8
100
AcDbLine
 10
117.5137993466
 20
153.9166238768
 30
0.0
 11
117.3300913122
 21
153.9551665778
 31
0.0
  0
LINE
  5
14A
330
1F
100
AcDbEntity
  8
SLD-0
  6
HIDDEN
 62
     8
100
AcDbLine
 10
117.3300913122
 20
153.9551665778
 30
0.0
 11
117.2361059632
 21
154.0044918407
 31
0.0
  0
LINE
  5
14B
330
1F
100
AcDbEntity
  8
SLD-0
  6
HIDDEN
 62
     8
100
AcDbLine
 10
120.3610397946
 20
153.9166238768
 30
0.0
 11
117.5137993466
 21
153.9166238768
 31
0.0
  0
LINE
  5
14C
330
1F
100
AcDbEntity
  8
SLD-0
  6
HIDDEN
 62
     8
100
AcDbLine
 10
120.3610397946
 20
153.9166238768
 30
0.0
 11
120.3610397946
 21
154.0044918424
 31
0.0
  0
LINE
  5
14D
330
1F
100
AcDbEntity
  8
SLD-0
  6
HIDDEN
 62
     8
100
AcDbLine
 10
102.2082802426
 20
153.9166238768
 30
0.0
 11
99.3610397946
 21
153.9166238768
 31
0.0
  0
LINE
  5
14E
330
1F
100
AcDbEntity
  8
SLD-0
  6
HIDDEN
 62
     8
100
AcDbLine
 10
99.3610397946
 20
153.9166238768
 30
0.0
 11
99.3610397946
 21
154.0044918424
 31
0.0
  0
LINE
  5
14F
330
1F
100
AcDbEntity
  8
SLD-0
  6
HIDDEN
 62
     8
100
AcDbLine
 10
114.2082798813
 20
153.9166238768
 30
0.0
 11
105.5137995219
 21
153.9166238768
 31
0.0
  0
LINE
  5
150
330
1F
100
AcDbEntity
  8
SLD-0
  6
HIDDEN
 62
     8
100
AcDbLine
 10
120.3610397946
 20
148.2166238768
 30
0.0
 11
120.3610397946
 21
148.7090253448
 31
0.0
  0
LINE
  5
151
330
1F
100
AcDbEntity
  8
SLD-0
  6
HIDDEN
 62
     8
100
AcDbLine
 10
99.3610397946
 20
148.2166238768
 30
0.0
 11
99.3610397946
 21
148.7090253448
 31
0.0
  0
LINE
  5
152
330
1F
100
AcDbEntity
  8
SLD-0
  6
HIDDEN
 62
     8
100
AcDbLine
 10
120.3610397946
 20
148.7090253448
 30
0.0
 11
120.3610397946
 21
153.9020048534
 31
0.0
  0
LINE
  5
153
330
1F
100
AcDbEntity
  8
SLD-0
  6
HIDDEN
 62
     8
100
AcDbLine
 10
99.3610397946
 20
148.7090253448
 30
0.0
 11
99.3610397946
 21
153.9020048534
 31
0.0
  0
LINE
  5
154
330
1F
100
AcDbEntity
  8
SLD-0
  6
HIDDEN
 62
     8
100
AcDbLine
 10
102.2082802426
 20
153.9166238768
 30
0.0
 11
99.3610397946
 21
153.9166238768
 31
0.0
  0
LINE
  5
155
330
1F
100
AcDbEntity
  8
SLD-0
  6
HIDDEN
 62
     8
100
AcDbLine
 10
99.3610397946
 20
154.0044918424
 30
0.0
 11
99.3610397946
 21
153.9166238768
 31
0.0
  0
LINE
  5
156
330
1F
100
AcDbEntity
  8
SLD-0
  6
HIDDEN
 62
     8
100
AcDbLine
 10
114.2082798813
 20
153.9166238768
 30
0.0
 11
105.5137995219
 21
153.9166238768
 31
0.0
  0
LINE
  5
157
330
1F
100
AcDbEntity
  8
SLD-0
  6
HIDDEN
 62
     8
100
AcDbLine
 10
120.3610397946
 20
153.9166238768
 30
0.0
 11
117.5137993466
 21
153.9166238768
 31
0.0
  0
LINE
  5
158
330
1F
100
AcDbEntity
  8
SLD-0
  6
HIDDEN
 62
     8
100
AcDbLine
 10
120.3610397946
 20
154.0044918424
 30
0.0
 11
120.3610397946
 21
153.9166238768
 31
0.0
  0
LINE
  5
159
330
1F
100
AcDbEntity
  8
SLD-0
  6
HIDDEN
 62
     8
100
AcDbLine
 10
120.3610397946
 20
154.5287559111
 30
0.0
 11
120.3610397946
 21
154.0044918424
 31
0.0
  0
LINE
  5
15A
330
1F
100
AcDbEntity
  8
SLD-0
  6
HIDDEN
 62
     8
100
AcDbLine
 10
99.3610397946
 20
154.5287559111
 30
0.0
 11
99.3610397946
 21
154.0044918424
 31
0.0
  0
LINE
  5
15B
330
1F
100
AcDbEntity
  8
SLD-0
  6
HIDDEN
 62
     8
100
AcDbLine
 10
120.3610397946
 20
154.6166238768
 30
0.0
 11
99.3610397946
 21
154.6166238768
 31
0.0
  0
LINE
  5
15C
330
1F
100
AcDbEntity
  8
SLD-0
  6
HIDDEN
 62
     8
100
AcDbLine
 10
120.3610397946
 20
154.6166238768
 30
0.0
 11
120.3610397946
 21
154.5287559111
 31
0.0
  0
LINE
  5
15D
330
1F
100
AcDbEntity
  8
SLD-0
  6
HIDDEN
 62
     8
100
AcDbLine
 10
99.3610397946
 20
154.6166238768
 30
0.0
 11
99.3610397946
 21
154.5287559111
 31
0.0
  0
LINE
  5
15E
330
1F
100
AcDbEntity
  8
SLD-0
  6
HIDDEN
 62
     8
100
AcDbLine
 10
120.3610397946
 20
154.6166238768
 30
0.0
 11
99.3610397946
 21
154.6166238768
 31
0.0
  0
LINE
  5
15F
330
1F
100
AcDbEntity
  8
SLD-0
  6
HIDDEN
 62
     8
100
AcDbLine
 10
120.3610397946
 20
153.9020048534
 30
0.0
 11
120.3610397946
 21
154.6166238768
 31
0.0
  0
LINE
  5
160
330
1F
100
AcDbEntity
  8
SLD-0
  6
HIDDEN
 62
     8
100
AcDbLine
 10
99.3610397946
 20
153.9020048534
 30
0.0
 11
99.3610397946
 21
154.6166238768
 31
0.0
  0
LINE
  5
161
330
1F
100
AcDbEntity
  8
SLD-0
 62
   179
100
AcDbLine
 10
118.8572787266
 20
148.2222391901
 30
0.0
 11
118.8568782579
 21
148.2228058999
 31
0.0
  0
LINE
  5
162
330
1F
100
AcDbEntity
  8
SLD-0
 62
   179
100
AcDbLine
 10
118.8568782579
 20
148.2228058999
 30
0.0
 11
118.8276254158
 21
148.2671028612
 31
0.0
  0
LINE
  5
163
330
1F
100
AcDbEntity
  8
SLD-0
 62
   179
100
AcDbLine
 10
118.8276254158
 20
148.2671028612
 30
0.0
 11
118.7751304876
 21
148.3479160493
 31
0.0
  0
LINE
  5
164
330
1F
100
AcDbEntity
  8
SLD-0
 62
   179
100
AcDbLine
 10
118.7751304876
 20
148.3479160493
 30
0.0
 11
118.703016318
 21
148.4625343842
 31
0.0
  0
LINE
  5
165
330
1F
100
AcDbEntity
  8
SLD-0
 62
   179
100
AcDbLine
 10
118.703016318
 20
148.4625343842
 30
0.0
 11
118.6338795867
 21
148.5769017277
 31
0.0
  0
LINE
  5
166
330
1F
100
AcDbEntity
  8
SLD-0
 62
   179
100
AcDbLine
 10
118.6338795867
 20
148.5769017277
 30
0.0
 11
118.5578622442
 21
148.7090252017
 31
0.0
  0
LINE
  5
167
330
1F
100
AcDbEntity
  8
SLD-0
 62
   179
100
AcDbLine
 10
113.1642169837
 20
148.7090252017
 30
0.0
 11
113.0557132471
 21
148.5224947942
 31
0.0
  0
LINE
  5
168
330
1F
100
AcDbEntity
  8
SLD-0
 62
   179
100
AcDbLine
 10
113.0557132471
 20
148.5224947942
 30
0.0
 11
112.8648011997
 21
148.2222391901
 31
0.0
  0
LINE
  5
169
330
1F
100
AcDbEntity
  8
SLD-0
 62
   179
100
AcDbLine
 10
118.5578622442
 20
148.7090252017
 30
0.0
 11
118.3584735315
 21
149.0216985954
 31
0.0
  0
LINE
  5
16A
330
1F
100
AcDbEntity
  8
SLD-0
 62
   179
100
AcDbLine
 10
118.3584735315
 20
149.0216985954
 30
0.0
 11
118.1103794422
 21
149.3286755545
 31
0.0
  0
LINE
  5
16B
330
1F
100
AcDbEntity
  8
SLD-0
 62
   179
100
AcDbLine
 10
118.1103794422
 20
149.3286755545
 30
0.0
 11
117.8145029169
 21
149.621070796
 31
0.0
  0
LINE
  5
16C
330
1F
100
AcDbEntity
  8
SLD-0
 62
   179
100
AcDbLine
 10
117.8145029169
 20
149.621070796
 30
0.0
 11
117.4722749326
 21
149.8884069411
 31
0.0
  0
LINE
  5
16D
330
1F
100
AcDbEntity
  8
SLD-0
 62
   179
100
AcDbLine
 10
117.4722749326
 20
149.8884069411
 30
0.0
 11
117.0796335261
 21
150.1200827447
 31
0.0
  0
LINE
  5
16E
330
1F
100
AcDbEntity
  8
SLD-0
 62
   179
100
AcDbLine
 10
117.0796335261
 20
150.1200827447
 30
0.0
 11
116.7441376071
 21
150.2625604303
 31
0.0
  0
LINE
  5
16F
330
1F
100
AcDbEntity
  8
SLD-0
 62
   179
100
AcDbLine
 10
116.7441376071
 20
150.2625604303
 30
0.0
 11
116.3830214698
 21
150.3636899547
 31
0.0
  0
LINE
  5
170
330
1F
100
AcDbEntity
  8
SLD-0
 62
   179
100
AcDbLine
 10
116.3830214698
 20
150.3636899547
 30
0.0
 11
115.9997696575
 21
150.4130821818
 31
0.0
  0
LINE
  5
171
330
1F
100
AcDbEntity
  8
SLD-0
 62
   179
100
AcDbLine
 10
115.9997696575
 20
150.4130821818
 30
0.0
 11
115.6113410886
 21
150.405119141
 31
0.0
  0
LINE
  5
172
330
1F
100
AcDbEntity
  8
SLD-0
 62
   179
100
AcDbLine
 10
115.6113410886
 20
150.405119141
 30
0.0
 11
115.2859965857
 21
150.3519885851
 31
0.0
  0
LINE
  5
173
330
1F
100
AcDbEntity
  8
SLD-0
 62
   179
100
AcDbLine
 10
115.2859965857
 20
150.3519885851
 30
0.0
 11
114.975088514
 21
150.2617338815
 31
0.0
  0
LINE
  5
174
330
1F
100
AcDbEntity
  8
SLD-0
 62
   179
100
AcDbLine
 10
114.975088514
 20
150.2617338815
 30
0.0
 11
114.5775571983
 21
150.0866990214
 31
0.0
  0
LINE
  5
175
330
1F
100
AcDbEntity
  8
SLD-0
 62
   179
100
AcDbLine
 10
114.5775571983
 20
150.0866990214
 30
0.0
 11
114.2219964001
 21
149.8690917765
 31
0.0
  0
LINE
  5
176
330
1F
100
AcDbEntity
  8
SLD-0
 62
   179
100
AcDbLine
 10
114.2219964001
 20
149.8690917765
 30
0.0
 11
113.9225361455
 21
149.6344073353
 31
0.0
  0
LINE
  5
177
330
1F
100
AcDbEntity
  8
SLD-0
 62
   179
100
AcDbLine
 10
113.9225361455
 20
149.6344073353
 30
0.0
 11
113.6601509113
 21
149.3811993537
 31
0.0
  0
LINE
  5
178
330
1F
100
AcDbEntity
  8
SLD-0
 62
   179
100
AcDbLine
 10
113.6601509113
 20
149.3811993537
 30
0.0
 11
113.4352318529
 21
149.1173873333
 31
0.0
  0
LINE
  5
179
330
1F
100
AcDbEntity
  8
SLD-0
 62
   179
100
AcDbLine
 10
113.4352318529
 20
149.1173873333
 30
0.0
 11
113.1642169837
 21
148.7090252017
 31
0.0
  0
LINE
  5
17A
330
1F
100
AcDbEntity
  8
SLD-0
 62
   179
100
AcDbLine
 10
101.164217345
 20
148.7090252017
 30
0.0
 11
101.0557126772
 21
148.5224947942
 31
0.0
  0
LINE
  5
17B
330
1F
100
AcDbEntity
  8
SLD-0
 62
   179
100
AcDbLine
 10
101.0557126772
 20
148.5224947942
 30
0.0
 11
100.8648008626
 21
148.2222391901
 31
0.0
  0
LINE
  5
17C
330
1F
100
AcDbEntity
  8
SLD-0
 62
   179
100
AcDbLine
 10
106.5578626055
 20
148.7090252017
 30
0.0
 11
106.3584734272
 21
149.0216985954
 31
0.0
  0
LINE
  5
17D
330
1F
100
AcDbEntity
  8
SLD-0
 62
   179
100
AcDbLine
 10
106.3584734272
 20
149.0216985954
 30
0.0
 11
106.1103795707
 21
149.3286755545
 31
0.0
  0
LINE
  5
17E
330
1F
100
AcDbEntity
  8
SLD-0
 62
   179
100
AcDbLine
 10
106.1103795707
 20
149.3286755545
 30
0.0
 11
105.8145023469
 21
149.621070796
 31
0.0
  0
LINE
  5
17F
330
1F
100
AcDbEntity
  8
SLD-0
 62
   179
100
AcDbLine
 10
105.8145023469
 20
149.621070796
 30
0.0
 11
105.472275294
 21
149.8884069411
 31
0.0
  0
LINE
  5
180
330
1F
100
AcDbEntity
  8
SLD-0
 62
   179
100
AcDbLine
 10
105.472275294
 20
149.8884069411
 30
0.0
 11
105.0796334218
 21
150.1200827447
 31
0.0
  0
LINE
  5
181
330
1F
100
AcDbEntity
  8
SLD-0
 62
   179
100
AcDbLine
 10
105.0796334218
 20
150.1200827447
 30
0.0
 11
104.7441375028
 21
150.2625604303
 31
0.0
  0
LINE
  5
182
330
1F
100
AcDbEntity
  8
SLD-0
 62
   179
100
AcDbLine
 10
104.7441375028
 20
150.2625604303
 30
0.0
 11
104.3830218311
 21
150.3636899547
 31
0.0
  0
LINE
  5
183
330
1F
100
AcDbEntity
  8
SLD-0
 62
   179
100
AcDbLine
 10
104.3830218311
 20
150.3636899547
 30
0.0
 11
103.9997695532
 21
150.4130821818
 31
0.0
  0
LINE
  5
184
330
1F
100
AcDbEntity
  8
SLD-0
 62
   179
100
AcDbLine
 10
103.9997695532
 20
150.4130821818
 30
0.0
 11
103.6113409843
 21
150.405119141
 31
0.0
  0
LINE
  5
185
330
1F
100
AcDbEntity
  8
SLD-0
 62
   179
100
AcDbLine
 10
103.6113409843
 20
150.405119141
 30
0.0
 11
103.2859969471
 21
150.3519885851
 31
0.0
  0
LINE
  5
186
330
1F
100
AcDbEntity
  8
SLD-0
 62
   179
100
AcDbLine
 10
103.2859969471
 20
150.3519885851
 30
0.0
 11
102.9750888754
 21
150.2617338815
 31
0.0
  0
LINE
  5
187
330
1F
100
AcDbEntity
  8
SLD-0
 62
   179
100
AcDbLine
 10
102.9750888754
 20
150.2617338815
 30
0.0
 11
102.5775575597
 21
150.0866990214
 31
0.0
  0
LINE
  5
188
330
1F
100
AcDbEntity
  8
SLD-0
 62
   179
100
AcDbLine
 10
102.5775575597
 20
150.0866990214
 30
0.0
 11
102.2219962958
 21
149.8690917765
 31
0.0
  0
LINE
  5
189
330
1F
100
AcDbEntity
  8
SLD-0
 62
   179
100
AcDbLine
 10
102.2219962958
 20
149.8690917765
 30
0.0
 11
101.9225365069
 21
149.6344073353
 31
0.0
  0
LINE
  5
18A
330
1F
100
AcDbEntity
  8
SLD-0
 62
   179
100
AcDbLine
 10
101.9225365069
 20
149.6344073353
 30
0.0
 11
101.6601512726
 21
149.3811993537
 31
0.0
  0
LINE
  5
18B
330
1F
100
AcDbEntity
  8
SLD-0
 62
   179
100
AcDbLine
 10
101.6601512726
 20
149.3811993537
 30
0.0
 11
101.4352322143
 21
149.1173873333
 31
0.0
  0
LINE
  5
18C
330
1F
100
AcDbEntity
  8
SLD-0
 62
   179
100
AcDbLine
 10
101.4352322143
 20
149.1173873333
 30
0.0
 11
101.164217345
 21
148.7090252017
 31
0.0
  0
LINE
  5
18D
330
1F
100
AcDbEntity
  8
SLD-0
 62
   179
100
AcDbLine
 10
106.8572783895
 20
148.2222391901
 30
0.0
 11
106.8568786193
 21
148.2228058999
 31
0.0
  0
LINE
  5
18E
330
1F
100
AcDbEntity
  8
SLD-0
 62
   179
100
AcDbLine
 10
106.8568786193
 20
148.2228058999
 30
0.0
 11
106.8276255444
 21
148.2671028612
 31
0.0
  0
LINE
  5
18F
330
1F
100
AcDbEntity
  8
SLD-0
 62
   179
100
AcDbLine
 10
106.8276255444
 20
148.2671028612
 30
0.0
 11
106.775130849
 21
148.3479160493
 31
0.0
  0
LINE
  5
190
330
1F
100
AcDbEntity
  8
SLD-0
 62
   179
100
AcDbLine
 10
106.775130849
 20
148.3479160493
 30
0.0
 11
106.7030159809
 21
148.4625343842
 31
0.0
  0
LINE
  5
191
330
1F
100
AcDbEntity
  8
SLD-0
 62
   179
100
AcDbLine
 10
106.7030159809
 20
148.4625343842
 30
0.0
 11
106.6338794824
 21
148.5769017277
 31
0.0
  0
LINE
  5
192
330
1F
100
AcDbEntity
  8
SLD-0
 62
   179
100
AcDbLine
 10
106.6338794824
 20
148.5769017277
 30
0.0
 11
106.5578626055
 21
148.7090252017
 31
0.0
  0
LINE
  5
193
330
1F
100
AcDbEntity
  8
SLD-0
  6
CENTERX2
 62
   179
100
AcDbLine
 10
115.8610397946
 20
146.7090253448
 30
0.0
 11
115.8610397946
 21
156.0044918424
 31
0.0
  0
LINE
  5
194
330
1F
100
AcDbEntity
  8
SLD-0
  6
CENTERX2
 62
   179
100
AcDbLine
 10
103.8610397946
 20
146.7090253448
 30
0.0
 11
103.8610397946
 21
156.0044918424
 31
0.0
  0
LINE
  5
195
330
1F
100
AcDbEntity
  8
SLD-0
  6
Continuous
 62
   179
100
AcDbLine
 10
69.9816665812
 20
154.0044918424
 30
0.0
 11
70.5059306499
 21
154.5287559111
 31
0.0
  0
LINE
  5
196
330
1F
100
AcDbEntity
  8
SLD-0
  6
Continuous
 62
   179
100
AcDbLine
 10
70.7180626843
 20
154.6166238768
 30
0.0
 11
72.6937986156
 21
154.6166238768
 31
0.0
  0
LINE
  5
197
330
1F
100
AcDbEntity
  8
SLD-0
  6
Continuous
 62
   179
100
AcDbLine
 10
63.0937986156
 20
154.6166238768
 30
0.0
 11
65.0695345469
 21
154.6166238768
 31
0.0
  0
LINE
  5
198
330
1F
100
AcDbEntity
  8
SLD-0
  6
Continuous
 62
   179
100
AcDbLine
 10
65.2816665813
 20
154.5287559112
 30
0.0
 11
65.8059306499
 21
154.0044918424
 31
0.0
  0
LINE
  5
199
330
1F
100
AcDbEntity
  8
SLD-0
  6
Continuous
 62
   179
100
AcDbLine
 10
66.0180626843
 20
153.9166238768
 30
0.0
 11
69.7695345469
 21
153.9166238768
 31
0.0
  0
LINE
  5
19A
330
1F
100
AcDbEntity
  8
SLD-0
 62
   179
100
AcDbLine
 10
70.8937986416
 20
150.410240251
 30
0.0
 11
70.8937986416
 21
150.4173737162
 31
0.0
  0
LINE
  5
19B
330
1F
100
AcDbEntity
  8
SLD-0
 62
   179
100
AcDbLine
 10
64.8937985895
 20
150.4173737162
 30
0.0
 11
64.8937985895
 21
150.410240251
 31
0.0
  0
LINE
  5
19C
330
1F
100
AcDbEntity
  8
SLD-0
  6
CENTERX2
 62
   179
100
AcDbLine
 10
67.8937986156
 20
146.7090253448
 30
0.0
 11
67.8937986156
 21
156.0044918424
 31
0.0
  0
ARC
  5
19D
330
1F
100
AcDbEntity
  8
SLD-0
  6
Continuous
 62
   179
100
AcDbCircle
 10
115.8610396139
 20
189.5271749624
 30
0.0
 40
2.50000084819999
100
AcDbArc
 50
56.63117908
 51
123.36882092
  0
ARC
  5
19E
330
1F
100
AcDbEntity
  8
SLD-0
  6
Continuous
 62
   179
100
AcDbCircle
 10
103.8610399753
 20
189.5271749624
 30
0.0
 40
2.50000084819999
100
AcDbArc
 50
56.63117908
 51
123.36882092
  0
ARC
  5
19F
330
1F
100
AcDbEntity
  8
SLD-0
  6
Continuous
 62
   179
100
AcDbCircle
 10
115.8610396139
 20
189.5271749624
 30
0.0
 40
2.499999338086872
100
AcDbArc
 50
236.6311562863
 51
303.3688437137
  0
ARC
  5
1A0
330
1F
100
AcDbEntity
  8
SLD-0
  6
Continuous
 62
   179
100
AcDbCircle
 10
103.8610399753
 20
189.5271749624
 30
0.0
 40
2.499999338086874
100
AcDbArc
 50
236.6311562865
 51
303.3688437136
  0
ARC
  5
1A1
330
1F
100
AcDbEntity
  8
SLD-0
  6
Continuous
 62
   179
100
AcDbCircle
 10
115.8610396139
 20
189.5271749624
 30
0.0
 40
2.500000685252341
100
AcDbArc
 50
131.3841025433
 51
228.6158974567
  0
ARC
  5
1A2
330
1F
100
AcDbEntity
  8
SLD-0
  6
Continuous
 62
   179
100
AcDbCircle
 10
103.8610399753
 20
189.5271749624
 30
0.0
 40
2.500000685318424
100
AcDbArc
 50
311.384102545
 51
48.615897455
  0
ARC
  5
1A3
330
1F
100
AcDbEntity
  8
SLD-0
  6
Continuous
 62
   179
100
AcDbCircle
 10
103.8610399753
 20
189.5271749624
 30
0.0
 40
2.500000685318452
100
AcDbArc
 50
131.384102545
 51
228.615897455
  0
ARC
  5
1A4
330
1F
100
AcDbEntity
  8
SLD-0
  6
Continuous
 62
   179
100
AcDbCircle
 10
115.8610396139
 20
189.5271749624
 30
0.0
 40
2.500000685318424
100
AcDbArc
 50
311.384102545
 51
48.615897455
  0
ARC
  5
1A5
330
1F
100
AcDbEntity
  8
SLD-0
  6
Continuous
 62
   179
100
AcDbCircle
 10
115.8610398468
 20
147.3086202917
 30
0.0
 40
2.546367578199988
100
AcDbArc
 50
33.3643926862
 51
146.6356073138
  0
ARC
  5
1A6
330
1F
100
AcDbEntity
  8
SLD-0
  6
Continuous
 62
   179
100
AcDbCircle
 10
103.8610397425
 20
147.3086202917
 30
0.0
 40
2.546367578199988
100
AcDbArc
 50
33.3643926862
 51
146.6356073138
  0
ARC
  5
1A7
330
1F
100
AcDbEntity
  8
SLD-0
  6
Continuous
 62
   179
100
AcDbCircle
 10
115.3845521879
 20
155.4452390188
 30
0.0
 40
11.5618621390532
100
AcDbArc
 50
215.6352855101
 51
218.6977512007
  0
ARC
  5
1A8
330
1F
100
AcDbEntity
  8
SLD-0
  6
Continuous
 62
   179
100
AcDbCircle
 10
92.4897575443
 20
155.32983851
 30
0.0
 40
11.37090428927876
100
AcDbArc
 50
321.2764925677
 51
324.3904019054
  0
ARC
  5
1A9
330
1F
100
AcDbEntity
  8
SLD-0
  6
Continuous
 62
   179
100
AcDbCircle
 10
127.3830243635
 20
155.4440891965
 30
0.0
 40
11.5599504135418
100
AcDbArc
 50
215.6350659332
 51
218.6980395937
  0
ARC
  5
1AA
330
1F
100
AcDbEntity
  8
SLD-0
  6
Continuous
 62
   179
100
AcDbCircle
 10
104.4876892964
 20
155.3313981811
 30
0.0
 40
11.37349399928565
100
AcDbArc
 50
321.2768822852
 51
324.3900810034
  0
ARC
  5
1AB
330
1F
100
AcDbEntity
  8
SLD-0
  6
HIDDEN
 62
     8
100
AcDbCircle
 10
115.2343902932
 20
155.3313981814
 30
0.0
 40
11.37349399970423
100
AcDbArc
 50
215.6099189969
 51
218.7231177142
  0
ARC
  5
1AC
330
1F
100
AcDbEntity
  8
SLD-0
  6
HIDDEN
 62
     8
100
AcDbCircle
 10
103.8610397425
 20
147.3086202917
 30
0.0
 40
2.546367578199988
100
AcDbArc
 50
33.3643926862
 51
146.6356073138
  0
ARC
  5
1AD
330
1F
100
AcDbEntity
  8
SLD-0
  6
HIDDEN
 62
     8
100
AcDbCircle
 10
92.3390552249
 20
155.4440891971
 30
0.0
 40
11.55995041461227
100
AcDbArc
 50
321.301960406
 51
324.364934067
  0
ARC
  5
1AE
330
1F
100
AcDbEntity
  8
SLD-0
  6
HIDDEN
 62
     8
100
AcDbCircle
 10
103.8610399753
 20
151.9166239001
 30
0.0
 40
2.500000000388964
100
AcDbArc
 50
56.6311662821
 51
123.3688337179
  0
ARC
  5
1AF
330
1F
100
AcDbEntity
  8
SLD-0
  6
HIDDEN
 62
     8
100
AcDbCircle
 10
103.8610399753
 20
151.9166239001
 30
0.0
 40
2.500000000388964
100
AcDbArc
 50
56.6311662821
 51
123.3688337179
  0
ARC
  5
1B0
330
1F
100
AcDbEntity
  8
SLD-0
  6
HIDDEN
 62
     8
100
AcDbCircle
 10
127.2323220446
 20
155.3298385097
 30
0.0
 40
11.37090428878625
100
AcDbArc
 50
215.6095980946
 51
218.7235074317
  0
ARC
  5
1B1
330
1F
100
AcDbEntity
  8
SLD-0
  6
HIDDEN
 62
     8
100
AcDbCircle
 10
115.8610398468
 20
147.3086202917
 30
0.0
 40
2.546367578199988
100
AcDbArc
 50
33.3643926862
 51
146.6356073138
  0
ARC
  5
1B2
330
1F
100
AcDbEntity
  8
SLD-0
  6
HIDDEN
 62
     8
100
AcDbCircle
 10
104.3375274014
 20
155.4452390188
 30
0.0
 40
11.5618621390532
100
AcDbArc
 50
321.3022487986
 51
324.3647144899
  0
ARC
  5
1B3
330
1F
100
AcDbEntity
  8
SLD-0
  6
HIDDEN
 62
     8
100
AcDbCircle
 10
115.8610396139
 20
151.9166239001
 30
0.0
 40
2.500000000499981
100
AcDbArc
 50
56.6311662836
 51
123.3688337163
  0
ARC
  5
1B4
330
1F
100
AcDbEntity
  8
SLD-0
  6
HIDDEN
 62
     8
100
AcDbCircle
 10
115.8610396139
 20
151.9166239001
 30
0.0
 40
2.500000000499981
100
AcDbArc
 50
56.6311662836
 51
123.3688337163
  0
ARC
  5
1B5
330
1F
100
AcDbEntity
  8
SLD-0
  6
Continuous
 62
   179
100
AcDbCircle
 10
70.7180626843
 20
154.3166238768
 30
0.0
 40
0.3000000000000114
100
AcDbArc
 50
90.0
 51
135.0000000119
  0
ARC
  5
1B6
330
1F
100
AcDbEntity
  8
SLD-0
  6
Continuous
 62
   179
100
AcDbCircle
 10
72.6937986156
 20
154.1166238768
 30
0.0
 40
0.5
100
AcDbArc
 50
334.5807856114
 51
90.0
  0
ARC
  5
1B7
330
1F
100
AcDbEntity
  8
SLD-0
  6
Continuous
 62
   179
100
AcDbCircle
 10
58.694331965
 20
160.7698136005
 30
0.0
 40
16.00000000002608
100
AcDbArc
 50
311.0794373954
 51
334.5807856116
  0
ARC
  5
1B8
330
1F
100
AcDbEntity
  8
SLD-0
  6
Continuous
 62
   179
100
AcDbCircle
 10
67.8937986156
 20
150.2166238768
 30
0.0
 40
2.000000000003271
100
AcDbArc
 50
228.9205626046
 51
311.0794373934
  0
ARC
  5
1B9
330
1F
100
AcDbEntity
  8
SLD-0
  6
Continuous
 62
   179
100
AcDbCircle
 10
77.0932652661
 20
160.7698136005
 30
0.0
 40
16.0
100
AcDbArc
 50
205.4192143886
 51
228.9205626047
  0
ARC
  5
1BA
330
1F
100
AcDbEntity
  8
SLD-0
  6
Continuous
 62
   179
100
AcDbCircle
 10
65.0695345469
 20
154.3166238768
 30
0.0
 40
0.2999999999999843
100
AcDbArc
 50
45.0
 51
90.0
  0
ARC
  5
1BB
330
1F
100
AcDbEntity
  8
SLD-0
  6
Continuous
 62
   179
100
AcDbCircle
 10
66.0180626843
 20
154.2166238768
 30
0.0
 40
0.3000000000622856
100
AcDbArc
 50
225.0
 51
270.0
  0
ARC
  5
1BC
330
1F
100
AcDbEntity
  8
SLD-0
  6
Continuous
 62
   179
100
AcDbCircle
 10
69.7695345469
 20
154.2166238768
 30
0.0
 40
0.3000000000000114
100
AcDbArc
 50
270.0
 51
314.9999999849
  0
ARC
  5
1BD
330
1F
100
AcDbEntity
  8
SLD-0
  6
Continuous
 62
   179
100
AcDbCircle
 10
63.0937986156
 20
154.1166238768
 30
0.0
 40
0.5000000000642326
100
AcDbArc
 50
90.0
 51
205.4192143908
  0
DIMENSION
  5
1BE
330
1F
100
AcDbEntity
  8
SLD-0
 62
     7
100
AcDbDimension
  2
*D5
 10
120.3610397946
 20
205.6062074208
 30
0.0
 11
129.3983794615
 21
205.6062074208
 31
0.0
 70
   160
 71
     1
 42
4.5
  3
SLDDIMSTYLE0
100
AcDbAlignedDimension
 13
115.8610397946
 23
194.5271758665
 33
0.0
 14
120.3610397946
 24
194.8271758665
 34
0.0
100
AcDbRotatedDimension
1001
ACAD
1000
DSTYLE
1002
{
1070
    77
1070
     3
1070
   143
1040
0.0393700787
1070
    41
1040
3.0
1070
    44
1040
1.0
1070
    42
1040
1.0
1070
   147
1040
1.524
1070
    73
1070
     0
1070
    74
1070
     0
1070
   140
1040
3.5
1070
   284
1070
    12
1070
    78
1070
    12
1002
}
  0
DIMENSION
  5
1DF
330
1F
100
AcDbEntity
  8
SLD-0
 62
     7
100
AcDbDimension
  2
*D7
 10
115.8610397946
 20
205.6062074208
 30
0.0
 11
109.8610397946
 21
205.6062074208
 31
0.0
 70
   160
 71
     1
 42
12.0
  3
SLDDIMSTYLE1
100
AcDbAlignedDimension
 13
103.8610397946
 23
194.5271758665
 33
0.0
 14
115.8610397946
 24
194.5271758665
 34
0.0
100
AcDbRotatedDimension
1001
ACAD
1000
DSTYLE
1002
{
1070
    77
1070
     3
1070
   143
1040
0.0393700787
1070
    41
1040
3.0
1070
    44
1040
1.0
1070
    42
1040
1.0
1070
   147
1040
1.524
1070
    73
1070
     0
1070
    74
1070
     0
1070
   140
1040
3.5
1070
   284
1070
    12
1070
    78
1070
    12
1002
}
  0
DIMENSION
  5
1F7
330
1F
100
AcDbEntity
  8
SLD-0
 62
     7
100
AcDbDimension
  2
*D8
 10
99.3610397946
 20
213.5726708423
 30
0.0
 11
109.8610397946
 21
213.5726708423
 31
0.0
 70
   160
 71
     1
 42
21.0
  3
SLDDIMSTYLE1
100
AcDbAlignedDimension
 13
120.3610397946
 23
194.8271758665
 33
0.0
 14
99.3610397946
 24
194.8271758665
 34
0.0
100
AcDbRotatedDimension
1001
ACAD
1000
DSTYLE
1002
{
1070
    77
1070
     3
1070
   143
1040
0.0393700787
1070
    41
1040
3.0
1070
    44
1040
1.0
1070
    42
1040
1.0
1070
   147
1040
1.524
1070
    73
1070
     0
1070
    74
1070
     0
1070
   140
1040
3.5
1070
   284
1070
    12
1070
    78
1070
    12
1002
}
  0
DIMENSION
  5
20E
330
1F
100
AcDbEntity
  8
SLD-0
 62
     7
100
AcDbDimension
  2
*D9
 10
2.8834324866
 20
5.2617306457
 30
0.0
 11
89.4588911768
 21
-5.261731209
 31
0.0
 70
   163
  1
2-M<><>
 71
     1
 42
5.9999993577
  3
SLDDIMSTYLE2
100
AcDbDiametricDimension
 15
0.0
 25
0.0
 35
0.0
 40
0.0
1001
ACAD
1000
DSTYLE
1002
{
1070
    77
1070
     0
1070
   143
1040
0.0393700787
1070
    41
1040
3.0
1070
    44
1040
1.0
1070
    42
1040
1.0
1070
   147
1040
1.524
1070
    73
1070
     1
1070
    74
1070
     1
1070
   140
1040
3.5
1070
   284
1070
    12
1070
    78
1070
    12
1002
}
  0
DIMENSION
  5
21F
330
1F
100
AcDbEntity
  8
SLD-0
 62
     7
100
AcDbDimension
  2
*D10
 10
142.9564547677
 20
194.8271758665
 30
0.0
 11
142.9564547677
 21
177.2406773623
 31
0.0
 70
   160
 71
     1
 42
10.6
  3
SLDDIMSTYLE0
100
AcDbAlignedDimension
 13
120.3610397946
 23
184.2271758665
 33
0.0
 14
120.3610397946
 24
194.8271758665
 34
0.0
 50
90.0
100
AcDbRotatedDimension
1001
ACAD
1000
DSTYLE
1002
{
1070
    77
1070
     3
1070
   143
1040
0.0393700787
1070
    41
1040
3.0
1070
    44
1040
1.0
1070
    42
1040
1.0
1070
   147
1040
1.524
1070
    73
1070
     0
1070
    74
1070
     0
1070
   140
1040
3.5
1070
   284
1070
    12
1070
    78
1070
    12
1002
}
  0
DIMENSION
  5
238
330
1F
100
AcDbEntity
  8
SLD-0
 62
     7
100
AcDbDimension
  2
*D11
 10
131.4252181712
 20
184.2271758665
 30
0.0
 11
131.4252181712
 21
177.2406773623
 31
0.0
 70
   160
 71
     1
 42
5.3
  3
SLDDIMSTYLE0
100
AcDbAlignedDimension
 13
120.8610397946
 23
189.5271758665
 33
0.0
 14
120.3610397946
 24
184.2271758665
 34
0.0
 50
90.0
100
AcDbRotatedDimension
1001
ACAD
1000
DSTYLE
1002
{
1070
    77
1070
     3
1070
   143
1040
0.0393700787
1070
    41
1040
3.0
1070
    44
1040
1.0
1070
    42
1040
1.0
1070
   147
1040
1.524
1070
    73
1070
     0
1070
    74
1070
     0
1070
   140
1040
3.5
1070
   284
1070
    12
1070
    78
1070
    12
1002
}
  0
MTEXT
  5
253
330
1F
100
AcDbEntity
  8
SLD-0
 62
     7
100
AcDbMText
 10
154.8105392413
 20
17.865946479
 30
0.0
 40
3.5
 41
0.0
 71
     1
 72
     1
  1
131055
  7
SLDTEXTSTYLE0
 73
     1
 44
1.0
  0
MTEXT
  5
254
330
1F
100
AcDbEntity
  8
SLD-0
 62
     7
100
AcDbMText
 10
147.3872852046
 20
29.7138882404
 30
0.0
 40
4.2333333333
 41
0.0
 71
     1
 72
     1
  1
N01914-102-1
  7
SLDTEXTSTYLE1
 73
     1
 44
1.0
  0
MTEXT
  5
255
330
1F
100
AcDbEntity
  8
SLD-0
 62
     7
100
AcDbMText
 10
149.4388837948
 20
43.2377018572
 30
0.0
 40
4.2333333333
 41
0.0
 71
     1
 72
     1
  1
Nut M6-P12
  7
SLDTEXTSTYLE1
 73
     1
 44
1.0
  0
INSERT
  5
256
330
1F
100
AcDbEntity
  8
0
  6
Continuous
 62
     7
370
     0
100
AcDbBlockReference
  2
SURFACEFINISH39
 10
176.1663369538
 20
249.0193918395
 30
0.0
  0
INSERT
  5
257
330
1F
100
AcDbEntity
  8
0
  6
Continuous
 62
     7
370
     0
100
AcDbBlockReference
  2
注記
 10
107.1777901577
 20
55.2566901623
 30
0.0
  0
INSERT
  5
258
330
1F
100
AcDbEntity
  8
0
  6
Continuous
 62
     7
370
     0
100
AcDbBlockReference
  2
SW_CENTERMARK0
 10
0.0
 20
0.0
 30
0.0
  0
INSERT
  5
259
330
1F
100
AcDbEntity
  8
0
  6
Continuous
 62
     7
370
     0
100
AcDbBlockReference
  2
SW_CENTERMARK1
 10
0.0
 20
0.0
 30
0.0
  0
ENDSEC
  0
SECTION
  2
OBJECTS
  0
DICTIONARY
  5
C
330
0
100
AcDbDictionary
281
     1
  3
ACAD_GROUP
350
D
  3
ACAD_LAYOUT
350
1A
  3
ACAD_MLINESTYLE
350
17
  3
ACAD_PLOTSETTINGS
350
19
  3
ACAD_PLOTSTYLENAME
350
E
  0
DICTIONARY
  5
D
102
{ACAD_REACTORS
330
C
102
}
330
C
100
AcDbDictionary
281
     1
  0
DICTIONARY
  5
1A
102
{ACAD_REACTORS
330
C
102
}
330
C
100
AcDbDictionary
281
     1
  3
Layout1
350
1E
  3
Layout2
350
26
  3
Model
350
22
  0
DICTIONARY
  5
17
102
{ACAD_REACTORS
330
C
102
}
330
C
100
AcDbDictionary
281
     1
  3
Standard
350
18
  0
DICTIONARY
  5
19
102
{ACAD_REACTORS
330
C
102
}
330
C
100
AcDbDictionary
281
     1
  0
ACDBDICTIONARYWDFLT
  5
E
102
{ACAD_REACTORS
330
C
102
}
330
C
100
AcDbDictionary
281
     1
  3
Normal
350
F
100
AcDbDictionaryWithDefault
340
F
  0
LAYOUT
  5
1E
102
{ACAD_REACTORS
330
1A
102
}
330
1A
100
AcDbPlotSettings
  1

  2

  4

  6

 40
0.0
 41
0.0
 42
0.0
 43
0.0
 44
0.0
 45
0.0
 46
0.0
 47
0.0
 48
0.0
 49
0.0
140
0.0
141
0.0
142
1.0
143
1.0
 70
   688
 72
     0
 73
     0
 74
     5
  7

 75
    16
147
1.0
148
0.0
149
0.0
100
AcDbLayout
  1
Layout1
 70
     1
 71
     1
 10
0.0
 20
0.0
 11
0.0
 21
0.0
 12
0.0
 22
0.0
 32
0.0
 14
0.0
 24
0.0
 34
0.0
 15
0.0
 25
0.0
 35
0.0
146
0.0
 13
0.0
 23
0.0
 33
0.0
 16
1.0
 26
0.0
 36
0.0
 17
0.0
 27
1.0
 37
0.0
 76
     0
330
1B
  0
LAYOUT
  5
26
102
{ACAD_REACTORS
330
1A
102
}
330
1A
100
AcDbPlotSettings
  1

  2

  4

  6

 40
0.0
 41
0.0
 42
0.0
 43
0.0
 44
0.0
 45
0.0
 46
0.0
 47
0.0
 48
0.0
 49
0.0
140
0.0
141
0.0
142
1.0
143
1.0
 70
   688
 72
     0
 73
     0
 74
     5
  7

 75
    16
147
1.0
148
0.0
149
0.0
100
AcDbLayout
  1
Layout2
 70
     1
 71
     2
 10
0.0
 20
0.0
 11
0.0
 21
0.0
 12
0.0
 22
0.0
 32
0.0
 14
0.0
 24
0.0
 34
0.0
 15
0.0
 25
0.0
 35
0.0
146
0.0
 13
0.0
 23
0.0
 33
0.0
 16
1.0
 26
0.0
 36
0.0
 17
0.0
 27
1.0
 37
0.0
 76
     0
330
23
  0
LAYOUT
  5
22
102
{ACAD_REACTORS
330
1A
102
}
330
1A
100
AcDbPlotSettings
  1

  2

  4

  6

 40
0.0
 41
0.0
 42
0.0
 43
0.0
 44
0.0
 45
0.0
 46
0.0
 47
0.0
 48
0.0
 49
0.0
140
0.0
141
0.0
142
1.0
143
1.0
 70
  1712
 72
     0
 73
     0
 74
     0
  7

 75
     0
147
1.0
148
0.0
149
0.0
100
AcDbLayout
  1
Model
 70
     1
 71
     0
 10
0.0
 20
0.0
 11
0.0
 21
0.0
 12
0.0
 22
0.0
 32
0.0
 14
0.0
 24
0.0
 34
0.0
 15
210.0
 25
297.0
 35
0.0
146
0.0
 13
0.0
 23
0.0
 33
0.0
 16
1.0
 26
0.0
 36
0.0
 17
0.0
 27
1.0
 37
0.0
 76
     0
330
1F
  0
MLINESTYLE
  5
18
102
{ACAD_REACTORS
330
17
102
}
330
17
100
AcDbMlineStyle
  2
Standard
 70
     0
  3

 62
   256
 51
90.0
 52
90.0
 71
     2
 49
0.5
 62
   256
  6
BYLAYER
 49
-0.5
 62
   256
  6
BYLAYER
  0
ACDBPLACEHOLDER
  5
F
102
{ACAD_REACTORS
330
E
102
}
330
E
  0
ENDSEC
  0
EOF
