  0
SECTION
  2
HEADER
  9
$ACADVER
  1
AC1015
  9
$ACADMAINTVER
 70
     6
  9
$DWGCODEPAGE
  3
DOS932
  9
$INSBASE
 10
0.0
 20
0.0
 30
0.0
  9
$EXTMIN
 10
0.0
 20
0.0
 30
0.0
  9
$EXTMAX
 10
210.0
 20
297.0
 30
0.0
  9
$LIMMIN
 10
0.0
 20
0.0
  9
$LIMMAX
 10
0.0
 20
0.0
  9
$ORTHOMODE
 70
     0
  9
$REGENMODE
 70
     1
  9
$FILLMODE
 70
     1
  9
$QTEXTMODE
 70
     0
  9
$MIRRTEXT
 70
     1
  9
$LTSCALE
 40
1.0
  9
$ATTMODE
 70
     1
  9
$TEXTSIZE
 40
3.5
  9
$TRACEWID
 40
1.0
  9
$TEXTSTYLE
  7
Standard
  9
$CLAYER
  8
0
  9
$CELTYPE
  6
ByLayer
  9
$CECOLOR
 62
   256
  9
$CELTSCALE
 40
1.0
  9
$DISPSILH
 70
     0
  9
$DIMSCALE
 40
1.0
  9
$DIMASZ
 40
3.0
  9
$DIMEXO
 40
1.0
  9
$DIMDLI
 40
3.75
  9
$DIMRND
 40
0.0
  9
$DIMDLE
 40
0.0
  9
$DIMEXE
 40
1.0
  9
$DIMTP
 40
0.0
  9
$DIMTM
 40
0.0
  9
$DIMTXT
 40
3.5
  9
$DIMCEN
 40
2.5
  9
$DIMTSZ
 40
0.0
  9
$DIMTOL
 70
     0
  9
$DIMLIM
 70
     0
  9
$DIMTIH
 70
     1
  9
$DIMTOH
 70
     1
  9
$DIMSE1
 70
     0
  9
$DIMSE2
 70
     0
  9
$DIMTAD
 70
     1
  9
$DIMZIN
 70
     1
  9
$DIMBLK
  1

  9
$DIMASO
 70
     1
  9
$DIMSHO
 70
     1
  9
$DIMPOST
  1

  9
$DIMAPOST
  1

  9
$DIMALT
 70
     0
  9
$DIMALTD
 70
     3
  9
$DIMALTF
 40
0.0393700787
  9
$DIMLFAC
 40
1.0
  9
$DIMTOFL
 70
     1
  9
$DIMTVP
 40
0.0
  9
$DIMTIX
 70
     0
  9
$DIMSOXD
 70
     0
  9
$DIMSAH
 70
     0
  9
$DIMBLK1
  1

  9
$DIMBLK2
  1

  9
$DIMSTYLE
  2
ISO-25
  9
$DIMCLRD
 70
     0
  9
$DIMCLRE
 70
     0
  9
$DIMCLRT
 70
     0
  9
$DIMTFAC
 40
1.0
  9
$DIMGAP
 40
1.524
  9
$DIMJUST
 70
     0
  9
$DIMSD1
 70
     0
  9
$DIMSD2
 70
     0
  9
$DIMTOLJ
 70
     0
  9
$DIMTZIN
 70
     1
  9
$DIMALTZ
 70
     0
  9
$DIMALTTZ
 70
     0
  9
$DIMUPT
 70
     0
  9
$DIMDEC
 70
     2
  9
$DIMTDEC
 70
     2
  9
$DIMALTU
 70
     2
  9
$DIMALTTD
 70
     3
  9
$DIMTXSTY
  7
Standard
  9
$DIMAUNIT
 70
     0
  9
$DIMADEC
 70
     0
  9
$DIMALTRND
 40
0.0
  9
$DIMAZIN
 70
     0
  9
$DIMDSEP
 70
    44
  9
$DIMATFIT
 70
     3
  9
$DIMFRAC
 70
     0
  9
$DIMLDRBLK
  1

  9
$DIMLUNIT
 70
     2
  9
$DIMLWD
 70
    -2
  9
$DIMLWE
 70
    -2
  9
$DIMTMOVE
 70
     0
  9
$LUNITS
 70
     2
  9
$LUPREC
 70
     1
  9
$SKETCHINC
 40
1.0
  9
$FILLETRAD
 40
10.0
  9
$AUNITS
 70
     0
  9
$AUPREC
 70
     0
  9
$MENU
  1
.
  9
$ELEVATION
 40
0.0
  9
$PELEVATION
 40
0.0
  9
$THICKNESS
 40
0.0
  9
$LIMCHECK
 70
     0
  9
$CHAMFERA
 40
10.0
  9
$CHAMFERB
 40
10.0
  9
$CHAMFERC
 40
20.0
  9
$CHAMFERD
 40
0.0
  9
$SKPOLY
 70
     0
  9
$TDCREATE
 40
2454309.432155127
  9
$TDUCREATE
 40
2454309.057155127
  9
$TDUPDATE
 40
2454309.432155139
  9
$TDUUPDATE
 40
2454309.057155139
  9
$TDINDWG
 40
0.0000000116
  9
$TDUSRTIMER
 40
0.0000000116
  9
$USRTIMER
 70
     1
  9
$ANGBASE
 50
0.0
  9
$ANGDIR
 70
     0
  9
$PDMODE
 70
     0
  9
$PDSIZE
 40
-1.0
  9
$PLINEWID
 40
0.0
  9
$SPLFRAME
 70
     0
  9
$SPLINETYPE
 70
     6
  9
$SPLINESEGS
 70
     8
  9
$HANDSEED
  5
1AF
  9
$SURFTAB1
 70
     6
  9
$SURFTAB2
 70
     6
  9
$SURFTYPE
 70
     6
  9
$SURFU
 70
     6
  9
$SURFV
 70
     6
  9
$UCSBASE
  2

  9
$UCSNAME
  2

  9
$UCSORG
 10
0.0
 20
0.0
 30
0.0
  9
$UCSXDIR
 10
1.0
 20
0.0
 30
0.0
  9
$UCSYDIR
 10
0.0
 20
1.0
 30
0.0
  9
$UCSORTHOREF
  2

  9
$UCSORTHOVIEW
 70
     0
  9
$UCSORGTOP
 10
0.0
 20
0.0
 30
0.0
  9
$UCSORGBOTTOM
 10
0.0
 20
0.0
 30
0.0
  9
$UCSORGLEFT
 10
0.0
 20
0.0
 30
0.0
  9
$UCSORGRIGHT
 10
0.0
 20
0.0
 30
0.0
  9
$UCSORGFRONT
 10
0.0
 20
0.0
 30
0.0
  9
$UCSORGBACK
 10
0.0
 20
0.0
 30
0.0
  9
$PUCSBASE
  2

  9
$PUCSNAME
  2

  9
$PUCSORG
 10
0.0
 20
0.0
 30
0.0
  9
$PUCSXDIR
 10
1.0
 20
0.0
 30
0.0
  9
$PUCSYDIR
 10
0.0
 20
1.0
 30
0.0
  9
$PUCSORTHOREF
  2

  9
$PUCSORTHOVIEW
 70
     0
  9
$PUCSORGTOP
 10
0.0
 20
0.0
 30
0.0
  9
$PUCSORGBOTTOM
 10
0.0
 20
0.0
 30
0.0
  9
$PUCSORGLEFT
 10
0.0
 20
0.0
 30
0.0
  9
$PUCSORGRIGHT
 10
0.0
 20
0.0
 30
0.0
  9
$PUCSORGFRONT
 10
0.0
 20
0.0
 30
0.0
  9
$PUCSORGBACK
 10
0.0
 20
0.0
 30
0.0
  9
$USERI1
 70
     0
  9
$USERI2
 70
     0
  9
$USERI3
 70
     0
  9
$USERI4
 70
     0
  9
$USERI5
 70
     0
  9
$USERR1
 40
0.0
  9
$USERR2
 40
0.0
  9
$USERR3
 40
0.0
  9
$USERR4
 40
0.0
  9
$USERR5
 40
0.0
  9
$WORLDVIEW
 70
     1
  9
$SHADEDGE
 70
     3
  9
$SHADEDIF
 70
    70
  9
$TILEMODE
 70
     1
  9
$MAXACTVP
 70
    64
  9
$PINSBASE
 10
0.0
 20
0.0
 30
0.0
  9
$PLIMCHECK
 70
     0
  9
$PEXTMIN
 10
1.0000000000E+20
 20
1.0000000000E+20
 30
1.0000000000E+20
  9
$PEXTMAX
 10
-1.0000000000E+20
 20
-1.0000000000E+20
 30
-1.0000000000E+20
  9
$PLIMMIN
 10
0.0
 20
0.0
  9
$PLIMMAX
 10
420.0
 20
297.0
  9
$UNITMODE
 70
     0
  9
$VISRETAIN
 70
     1
  9
$PLINEGEN
 70
     0
  9
$PSLTSCALE
 70
     1
  9
$TREEDEPTH
 70
  3020
  9
$CMLSTYLE
  2
Standard
  9
$CMLJUST
 70
     0
  9
$CMLSCALE
 40
20.0
  9
$PROXYGRAPHICS
 70
     1
  9
$MEASUREMENT
 70
     1
  9
$CELWEIGHT
370
    -1
  9
$ENDCAPS
280
     0
  9
$JOINSTYLE
280
     0
  9
$LWDISPLAY
290
     1
  9
$INSUNITS
 70
     4
  9
$HYPERLINKBASE
  1

  9
$STYLESHEET
  1

  9
$XEDIT
290
     1
  9
$CEPSNTYPE
380
     0
  9
$PSTYLEMODE
290
     1
  9
$FINGERPRINTGUID
  2
{15D05957-00BA-4180-94D5-5702AD01D898}
  9
$VERSIONGUID
  2
{FAEB1C32-E019-11D5-929B-00C0DF256EC4}
  9
$EXTNAMES
290
     1
  9
$PSVPSCALE
 40
0.0
  9
$OLESTARTUP
290
     0
  0
ENDSEC
  0
SECTION
  2
CLASSES
  0
CLASS
  1
ACDBDICTIONARYWDFLT
  2
AcDbDictionaryWithDefault
  3
ObjectDBX Classes
 90
        0
280
     0
281
     0
  0
CLASS
  1
ACDBPLACEHOLDER
  2
AcDbPlaceHolder
  3
ObjectDBX Classes
 90
        0
280
     0
281
     0
  0
CLASS
  1
LAYOUT
  2
AcDbLayout
  3
ObjectDBX Classes
 90
        0
280
     0
281
     0
  0
ENDSEC
  0
SECTION
  2
TABLES
  0
TABLE
  2
VPORT
  5
8
330
0
100
AcDbSymbolTable
 70
     1
  0
VPORT
  5
29
330
8
100
AcDbSymbolTableRecord
100
AcDbViewportTableRecord
  2
*Active
 70
     0
 10
0.0
 20
0.0
 11
1.0
 21
1.0
 12
105.0
 22
148.5
 13
0.0
 23
0.0
 14
10.0
 24
10.0
 15
10.0
 25
10.0
 16
0.0
 26
0.0
 36
1.0
 17
0.0
 27
0.0
 37
0.0
 40
297.0
 41
1.9729729729
 42
50.0
 43
0.0
 44
0.0
 50
0.0
 51
0.0
 71
     0
 72
  2000
 73
     1
 74
     3
 75
     0
 76
     0
 77
     0
 78
     0
281
     0
 65
     1
110
0.0
120
0.0
130
0.0
111
1.0
121
0.0
131
0.0
112
0.0
122
1.0
132
0.0
 79
     0
146
0.0
  0
ENDTAB
  0
TABLE
  2
LTYPE
  5
5
330
0
100
AcDbSymbolTable
 70
     6
  0
LTYPE
  5
14
330
5
100
AcDbSymbolTableRecord
100
AcDbLinetypeTableRecord
  2
ByBlock
 70
     0
  3

 72
    65
 73
     0
 40
0.0
  0
LTYPE
  5
15
330
5
100
AcDbSymbolTableRecord
100
AcDbLinetypeTableRecord
  2
ByLayer
 70
     0
  3

 72
    65
 73
     0
 40
0.0
  0
LTYPE
  5
16
330
5
100
AcDbSymbolTableRecord
100
AcDbLinetypeTableRecord
  2
Continuous
 70
     0
  3
Solid line
 72
    65
 73
     0
 40
0.0
  0
LTYPE
  5
2A
330
5
100
AcDbSymbolTableRecord
100
AcDbLinetypeTableRecord
  2
HIDDEN
 70
     0
  3
Hidden __ __ __ __ __ __ __ __ __ __ __ __ __ __
 72
    65
 73
     2
 40
1.905
 49
1.27
 74
     0
 49
-0.635
 74
     0
  0
LTYPE
  5
2B
330
5
100
AcDbSymbolTableRecord
100
AcDbLinetypeTableRecord
  2
PHANTOM
 70
     0
  3
Phantom ______  __  __  ______  __  __  ______
 72
    65
 73
     6
 40
12.7
 49
6.35
 74
     0
 49
-1.27
 74
     0
 49
1.27
 74
     0
 49
-1.27
 74
     0
 49
1.27
 74
     0
 49
-1.27
 74
     0
  0
LTYPE
  5
2C
330
5
100
AcDbSymbolTableRecord
100
AcDbLinetypeTableRecord
  2
CENTER
 70
     0
  3
Center ____ _ ____ _ ____ _ ____ _ ____ _ ____
 72
    65
 73
     4
 40
10.16
 49
6.35
 74
     0
 49
-1.27
 74
     0
 49
1.27
 74
     0
 49
-1.27
 74
     0
  0
LTYPE
  5
2D
330
5
100
AcDbSymbolTableRecord
100
AcDbLinetypeTableRecord
  2
CENTERX2
 70
     0
  3
Center (2x) ________  __  ________  __  _____
 72
    65
 73
     4
 40
20.32
 49
12.7
 74
     0
 49
-2.54
 74
     0
 49
2.54
 74
     0
 49
-2.54
 74
     0
  0
LTYPE
  5
2E
330
5
100
AcDbSymbolTableRecord
100
AcDbLinetypeTableRecord
  2
DOT2
 70
     0
  3
Dot (.5x) ........................................
 72
    65
 73
     2
 40
0.635
 49
0.0
 74
     0
 49
-0.635
 74
     0
  0
ENDTAB
  0
TABLE
  2
LAYER
  5
2
330
0
100
AcDbSymbolTable
 70
     6
  0
LAYER
  5
10
330
2
100
AcDbSymbolTableRecord
100
AcDbLayerTableRecord
  2
0
 70
     0
 62
     7
  6
Continuous
370
    -3
390
F
  0
LAYER
  5
2F
330
2
100
AcDbSymbolTableRecord
100
AcDbLayerTableRecord
  2
SLD-0_0
 70
     0
 62
   179
  6
Continuous
370
     0
390
F
  0
LAYER
  5
30
330
2
100
AcDbSymbolTableRecord
100
AcDbLayerTableRecord
  2
SLD-0
 70
     0
 62
   179
  6
Continuous
370
     0
390
F
  0
LAYER
  5
31
330
2
100
AcDbSymbolTableRecord
100
AcDbLayerTableRecord
  2
SLD-DEFPOINTS
 70
     0
 62
   179
  6
Continuous
370
     0
390
F
  0
LAYER
  5
32
330
2
100
AcDbSymbolTableRecord
100
AcDbLayerTableRecord
  2
SLD-DEFPOINTS_0
 70
     0
 62
   179
  6
Continuous
370
     0
390
F
  0
LAYER
  5
12C
330
2
100
AcDbSymbolTableRecord
100
AcDbLayerTableRecord
  2
Defpoints
 70
     0
 62
     7
  6
Continuous
290
     0
370
    -3
390
F
  0
ENDTAB
  0
TABLE
  2
STYLE
  5
3
330
0
100
AcDbSymbolTable
 70
     4
  0
STYLE
  5
11
330
3
100
AcDbSymbolTableRecord
100
AcDbTextStyleTableRecord
  2
Standard
 70
     0
 40
0.0
 41
1.0
 50
0.0
 71
     0
 42
2.5
  3
txt
  4
bigfont
  0
STYLE
  5
36
330
3
100
AcDbSymbolTableRecord
100
AcDbTextStyleTableRecord
  2
SLDTEXTSTYLE0
 70
     0
 40
0.0
 41
0.7
 50
0.0
 71
     0
 42
0.2
  3
TXT
  4
bigfont
  0
STYLE
  5
3E
330
3
100
AcDbSymbolTableRecord
100
AcDbTextStyleTableRecord
  2
SLDTEXTSTYLE1
 70
     0
 40
0.0
 41
0.407202216
 50
0.0
 71
     0
 42
0.2
  3
TXT
  4
bigfont
  0
STYLE
  5
1A8
330
3
100
AcDbSymbolTableRecord
100
AcDbTextStyleTableRecord
  2
SLDTEXTSTYLE2
 70
     0
 40
0.0
 41
0.5157894737
 50
0.0
 71
     0
 42
0.2
  3
TXT
  4
bigfont
  0
ENDTAB
  0
TABLE
  2
VIEW
  5
6
330
0
100
AcDbSymbolTable
 70
     0
  0
ENDTAB
  0
TABLE
  2
UCS
  5
7
330
0
100
AcDbSymbolTable
 70
     0
  0
ENDTAB
  0
TABLE
  2
APPID
  5
9
330
0
100
AcDbSymbolTable
 70
     1
  0
APPID
  5
12
330
9
100
AcDbSymbolTableRecord
100
AcDbRegAppTableRecord
  2
ACAD
 70
     0
  0
ENDTAB
  0
TABLE
  2
DIMSTYLE
  5
A
330
0
100
AcDbSymbolTable
 70
     4
100
AcDbDimStyleTable
  0
DIMSTYLE
105
27
330
A
100
AcDbSymbolTableRecord
100
AcDbDimStyleTableRecord
  2
ISO-25
 70
     0
 41
2.5
 42
0.625
 43
3.75
 44
1.25
 73
     0
 74
     0
 77
     1
 78
     8
140
2.5
141
2.5
143
0.0393700787
147
0.625
171
     3
172
     1
271
     2
272
     2
274
     3
278
    44
283
     0
284
     8
340
11
  0
DIMSTYLE
105
13A
102
{ACAD_REACTORS
330
12B
330
162
330
17B
102
}
330
A
100
AcDbSymbolTableRecord
100
AcDbDimStyleTableRecord
  2
SLDDIMSTYLE0
 70
     0
 41
3.0
 44
0.0
 73
     0
 74
     0
 77
     3
 78
    12
140
3.5
147
0.875
173
     1
271
     1
272
     3
284
    12
340
3E
341
13B
343
13B
344
13B
  0
DIMSTYLE
105
157
102
{ACAD_REACTORS
330
14A
102
}
330
A
100
AcDbSymbolTableRecord
100
AcDbDimStyleTableRecord
  2
SLDDIMSTYLE1
 70
     0
 41
3.0
 44
0.0
 73
     0
 74
     0
 77
     3
 78
    12
140
3.5
147
0.875
173
     1
271
     0
272
     3
284
    12
340
3E
341
13B
343
13B
344
13B
  0
DIMSTYLE
105
1A0
102
{ACAD_REACTORS
330
196
102
}
330
A
100
AcDbSymbolTableRecord
100
AcDbDimStyleTableRecord
  2
SLDDIMSTYLE2
 70
     0
 41
3.0
 44
0.0
 78
    12
140
3.5
147
0.875
172
     1
173
     1
271
     0
272
     3
284
    12
340
3E
341
13B
343
13B
344
13B
  0
ENDTAB
  0
TABLE
  2
BLOCK_RECORD
  5
1
330
0
100
AcDbSymbolTable
 70
    10
  0
BLOCK_RECORD
  5
1F
330
1
100
AcDbSymbolTableRecord
100
AcDbBlockTableRecord
  2
*Model_Space
340
22
  0
BLOCK_RECORD
  5
1B
330
1
100
AcDbSymbolTableRecord
100
AcDbBlockTableRecord
  2
*Paper_Space
340
1E
  0
BLOCK_RECORD
  5
23
330
1
100
AcDbSymbolTableRecord
100
AcDbBlockTableRecord
  2
*Paper_Space0
340
26
  0
BLOCK_RECORD
  5
33
330
1
100
AcDbSymbolTableRecord
100
AcDbBlockTableRecord
  2
注記
340
0
102
{BLKREFS
331
1AD
102
}
  0
BLOCK_RECORD
  5
39
330
1
100
AcDbSymbolTableRecord
100
AcDbBlockTableRecord
  2
SURFACEFINISH39
340
0
102
{BLKREFS
331
1AC
102
}
  0
BLOCK_RECORD
  5
40
330
1
100
AcDbSymbolTableRecord
100
AcDbBlockTableRecord
  2
SW_CENTERMARK0
340
0
102
{BLKREFS
331
1AE
102
}
  0
BLOCK_RECORD
  5
12D
330
1
100
AcDbSymbolTableRecord
100
AcDbBlockTableRecord
  2
*D4
340
0
  0
BLOCK_RECORD
  5
13B
330
1
100
AcDbSymbolTableRecord
100
AcDbBlockTableRecord
  2
_None
340
0
102
{BLKREFS
331
132
331
131
331
150
331
14F
331
169
331
168
331
182
331
181
331
19B
102
}
  0
BLOCK_RECORD
  5
14B
330
1
100
AcDbSymbolTableRecord
100
AcDbBlockTableRecord
  2
*D6
340
0
  0
BLOCK_RECORD
  5
163
330
1
100
AcDbSymbolTableRecord
100
AcDbBlockTableRecord
  2
*D7
340
0
  0
BLOCK_RECORD
  5
17C
330
1
100
AcDbSymbolTableRecord
100
AcDbBlockTableRecord
  2
*D8
340
0
  0
BLOCK_RECORD
  5
197
330
1
100
AcDbSymbolTableRecord
100
AcDbBlockTableRecord
  2
*D9
340
0
  0
ENDTAB
  0
ENDSEC
  0
SECTION
  2
BLOCKS
  0
BLOCK
  5
20
330
1F
100
AcDbEntity
  8
0
100
AcDbBlockBegin
  2
*Model_Space
 70
     0
 71
     0
 10
0.0
 20
0.0
 30
0.0
  3
*Model_Space
  1

  0
ENDBLK
  5
21
330
1F
100
AcDbEntity
  8
0
100
AcDbBlockEnd
  0
BLOCK
  5
1C
330
1B
100
AcDbEntity
 67
     1
  8
0
100
AcDbBlockBegin
  2
*Paper_Space
 70
     0
 71
     0
 10
0.0
 20
0.0
 30
0.0
  3
*Paper_Space
  1

  0
ENDBLK
  5
1D
330
1B
100
AcDbEntity
 67
     1
  8
0
100
AcDbBlockEnd
  0
BLOCK
  5
24
330
23
100
AcDbEntity
  8
0
100
AcDbBlockBegin
  2
*Paper_Space0
 70
     0
 71
     0
 10
0.0
 20
0.0
 30
0.0
  3
*Paper_Space0
  1

  0
ENDBLK
  5
25
330
23
100
AcDbEntity
  8
0
100
AcDbBlockEnd
  0
BLOCK
  5
34
330
33
100
AcDbEntity
  8
0
100
AcDbBlockBegin
  2
注記
 70
     0
 71
     0
 10
0.0
 20
0.0
 30
0.0
  3
注記
  1

  0
MTEXT
  5
37
330
33
100
AcDbEntity
  8
0
  6
Continuous
 62
     7
370
     0
100
AcDbMText
 10
0.2636785918
 20
9.0739778448
 30
0.0
 40
3.5
 41
0.0
 71
     1
 72
     1
  1
１．特記ナキ角部ハ、バリ　カエリノ無キコト。
  7
SLDTEXTSTYLE0
 73
     1
 44
1.0
  0
MTEXT
  5
38
330
33
100
AcDbEntity
  8
0
  6
Continuous
 62
     7
370
     0
100
AcDbMText
 10
0.2636785918
 20
3.5759549983
 30
0.0
 40
3.5
 41
0.0
 71
     1
 72
     1
  1
２．特記ナキ隅部ハ、Ｒ０．４ＭＡＸトスル。
  7
SLDTEXTSTYLE0
 73
     1
 44
1.0
  0
ENDBLK
  5
35
330
33
100
AcDbEntity
  8
0
100
AcDbBlockEnd
  0
BLOCK
  5
3A
330
39
100
AcDbEntity
  8
0
100
AcDbBlockBegin
  2
SURFACEFINISH39
 70
     0
 71
     0
 10
0.0
 20
0.0
 30
0.0
  3
SURFACEFINISH39
  1

  0
LINE
  5
3C
330
39
100
AcDbEntity
  8
SLD-0
  6
Continuous
 62
   179
100
AcDbLine
 10
0.6656399396
 20
-6.0449245738
 30
0.0
 11
-2.9003789868
 21
0.0000001164
 31
0.0
  0
LINE
  5
3D
330
39
100
AcDbEntity
  8
SLD-0
  6
Continuous
 62
   179
100
AcDbLine
 10
0.6656399396
 20
-6.0449245738
 30
0.0
 11
7.7976777926
 21
6.0449248066
 31
0.0
  0
MTEXT
  5
3F
330
39
100
AcDbEntity
  8
SLD-0
100
AcDbMText
 10
0.0
 20
4.3931031597
 30
0.0
 40
3.175
 41
0.0
 71
     1
 72
     1
  1
25
  7
SLDTEXTSTYLE1
 73
     1
 44
1.0
  0
ENDBLK
  5
3B
330
39
100
AcDbEntity
  8
0
100
AcDbBlockEnd
  0
BLOCK
  5
41
330
40
100
AcDbEntity
  8
0
100
AcDbBlockBegin
  2
SW_CENTERMARK0
 70
     0
 71
     0
 10
0.0
 20
0.0
 30
0.0
  3
SW_CENTERMARK0
  1

  0
LINE
  5
43
330
40
100
AcDbEntity
  8
SLD-0
  6
Continuous
 62
   179
100
AcDbLine
 10
109.8610397946
 20
189.5271753203
 30
0.0
 11
109.8610397946
 21
192.0271758665
 31
0.0
  0
LINE
  5
44
330
40
100
AcDbEntity
  8
SLD-0
  6
Continuous
 62
   179
100
AcDbLine
 10
109.8610397946
 20
189.5271753203
 30
0.0
 11
107.3610397946
 21
189.5271758665
 31
0.0
  0
LINE
  5
45
330
40
100
AcDbEntity
  8
SLD-0
  6
Continuous
 62
   179
100
AcDbLine
 10
109.8610397946
 20
189.5271753203
 30
0.0
 11
109.8610397946
 21
187.0271758665
 31
0.0
  0
LINE
  5
46
330
40
100
AcDbEntity
  8
SLD-0
  6
Continuous
 62
   179
100
AcDbLine
 10
109.8610397946
 20
189.5271753203
 30
0.0
 11
112.3610397946
 21
189.5271758665
 31
0.0
  0
LINE
  5
47
330
40
100
AcDbEntity
  8
SLD-0
  6
Continuous
 62
   179
100
AcDbLine
 10
109.8610397946
 20
192.0271758665
 30
0.0
 11
109.8610397946
 21
194.5271758665
 31
0.0
  0
LINE
  5
48
330
40
100
AcDbEntity
  8
SLD-0
  6
Continuous
 62
   179
100
AcDbLine
 10
107.3610397946
 20
189.5271758665
 30
0.0
 11
104.8610397946
 21
189.5271758665
 31
0.0
  0
LINE
  5
49
330
40
100
AcDbEntity
  8
SLD-0
  6
Continuous
 62
   179
100
AcDbLine
 10
109.8610397946
 20
187.0271758665
 30
0.0
 11
109.8610397946
 21
184.5271758665
 31
0.0
  0
LINE
  5
4A
330
40
100
AcDbEntity
  8
SLD-0
  6
Continuous
 62
   179
100
AcDbLine
 10
112.3610397946
 20
189.5271758665
 30
0.0
 11
114.8610397946
 21
189.5271758665
 31
0.0
  0
ENDBLK
  5
42
330
40
100
AcDbEntity
  8
0
100
AcDbBlockEnd
  0
BLOCK
  5
138
330
12D
100
AcDbEntity
  8
0
100
AcDbBlockBegin
  2
*D4
 70
     1
 71
     0
 10
0.0
 20
0.0
 30
0.0
  3
*D4
  1

  0
LINE
  5
13E
330
12D
100
AcDbEntity
  8
SLD-0
 62
     7
100
AcDbLine
 10
117.3610397946
 20
195.8271758665
 30
0.0
 11
117.3610397946
 21
203.0422252574
 31
0.0
  0
LINE
  5
13F
330
12D
100
AcDbEntity
  8
SLD-0
 62
     7
100
AcDbLine
 10
109.8610397946
 20
195.5271758665
 30
0.0
 11
109.8610397946
 21
203.0422252574
 31
0.0
  0
LINE
  5
140
330
12D
100
AcDbEntity
  8
SLD-0
 62
     7
100
AcDbLine
 10
117.3610397946
 20
202.0422252574
 30
0.0
 11
122.3610397946
 21
202.0422252574
 31
0.0
  0
LINE
  5
141
330
12D
100
AcDbEntity
  8
SLD-0
 62
     7
100
AcDbLine
 10
117.3610397946
 20
202.0422252574
 30
0.0
 11
109.8610397946
 21
202.0422252574
 31
0.0
  0
LINE
  5
142
330
12D
100
AcDbEntity
  8
SLD-0
 62
     7
100
AcDbLine
 10
109.8610397946
 20
202.0422252574
 30
0.0
 11
104.8610397946
 21
202.0422252574
 31
0.0
  0
LINE
  5
143
330
12D
100
AcDbEntity
  8
SLD-0
 62
     7
100
AcDbLine
 10
120.3610397946
 20
201.2383782574
 30
0.0
 11
117.3610397946
 21
202.0422252574
 31
0.0
  0
LINE
  5
144
330
12D
100
AcDbEntity
  8
SLD-0
 62
     7
100
AcDbLine
 10
117.3610397946
 20
202.0422252574
 30
0.0
 11
120.3610397946
 21
202.8460722574
 31
0.0
  0
LINE
  5
145
330
12D
100
AcDbEntity
  8
SLD-0
 62
     7
100
AcDbLine
 10
117.3610397946
 20
202.0422252574
 30
0.0
 11
120.3610397946
 21
202.0422252574
 31
0.0
  0
LINE
  5
146
330
12D
100
AcDbEntity
  8
SLD-0
 62
     7
100
AcDbLine
 10
106.8610397946
 20
202.8460722574
 30
0.0
 11
109.8610397946
 21
202.0422252574
 31
0.0
  0
LINE
  5
147
330
12D
100
AcDbEntity
  8
SLD-0
 62
     7
100
AcDbLine
 10
109.8610397946
 20
202.0422252574
 30
0.0
 11
106.8610397946
 21
201.2383782574
 31
0.0
  0
LINE
  5
148
330
12D
100
AcDbEntity
  8
SLD-0
 62
     7
100
AcDbLine
 10
109.8610397946
 20
202.0422252574
 30
0.0
 11
106.8610397946
 21
202.0422252574
 31
0.0
  0
MTEXT
  5
149
330
12D
100
AcDbEntity
  8
SLD-0
 62
     7
100
AcDbMText
 10
110.5560598187
 20
206.568918837
 30
0.2
 40
3.5
 41
0.0
 71
     1
 72
     1
  1
7.5
  7
SLDTEXTSTYLE0
 73
     1
 44
1.0
  0
ENDBLK
  5
139
330
12D
100
AcDbEntity
  8
0
100
AcDbBlockEnd
  0
BLOCK
  5
13C
330
13B
100
AcDbEntity
  8
0
100
AcDbBlockBegin
  2
_None
 70
     0
 71
     0
 10
0.0
 20
0.0
 30
0.0
  3
_None
  1

  0
ENDBLK
  5
13D
330
13B
100
AcDbEntity
  8
0
100
AcDbBlockEnd
  0
BLOCK
  5
155
330
14B
100
AcDbEntity
  8
0
100
AcDbBlockBegin
  2
*D6
 70
     1
 71
     0
 10
0.0
 20
0.0
 30
0.0
  3
*D6
  1

  0
LINE
  5
158
330
14B
100
AcDbEntity
  8
SLD-0
 62
     7
100
AcDbLine
 10
102.3610397946
 20
195.8271758665
 30
0.0
 11
102.3610397946
 21
210.1075672969
 31
0.0
  0
LINE
  5
159
330
14B
100
AcDbEntity
  8
SLD-0
 62
     7
100
AcDbLine
 10
117.3610397946
 20
195.8271758665
 30
0.0
 11
117.3610397946
 21
210.1075672969
 31
0.0
  0
LINE
  5
15A
330
14B
100
AcDbEntity
  8
SLD-0
 62
     7
100
AcDbLine
 10
102.3610397946
 20
209.1075672969
 30
0.0
 11
117.3610397946
 21
209.1075672969
 31
0.0
  0
LINE
  5
15B
330
14B
100
AcDbEntity
  8
SLD-0
 62
     7
100
AcDbLine
 10
105.3610397946
 20
208.3037202969
 30
0.0
 11
102.3610397946
 21
209.1075672969
 31
0.0
  0
LINE
  5
15C
330
14B
100
AcDbEntity
  8
SLD-0
 62
     7
100
AcDbLine
 10
102.3610397946
 20
209.1075672969
 30
0.0
 11
105.3610397946
 21
209.9114142969
 31
0.0
  0
LINE
  5
15D
330
14B
100
AcDbEntity
  8
SLD-0
 62
     7
100
AcDbLine
 10
102.3610397946
 20
209.1075672969
 30
0.0
 11
105.3610397946
 21
209.1075672969
 31
0.0
  0
LINE
  5
15E
330
14B
100
AcDbEntity
  8
SLD-0
 62
     7
100
AcDbLine
 10
114.3610397946
 20
209.9114142969
 30
0.0
 11
117.3610397946
 21
209.1075672969
 31
0.0
  0
LINE
  5
15F
330
14B
100
AcDbEntity
  8
SLD-0
 62
     7
100
AcDbLine
 10
117.3610397946
 20
209.1075672969
 30
0.0
 11
114.3610397946
 21
208.3037202969
 31
0.0
  0
LINE
  5
160
330
14B
100
AcDbEntity
  8
SLD-0
 62
     7
100
AcDbLine
 10
117.3610397946
 20
209.1075672969
 30
0.0
 11
114.3610397946
 21
209.1075672969
 31
0.0
  0
MTEXT
  5
161
330
14B
100
AcDbEntity
  8
SLD-0
 62
     7
100
AcDbMText
 10
107.8256045714
 20
213.6342608765
 30
0.2
 40
3.5
 41
0.0
 71
     1
 72
     1
  1
15
  7
SLDTEXTSTYLE0
 73
     1
 44
1.0
  0
ENDBLK
  5
156
330
14B
100
AcDbEntity
  8
0
100
AcDbBlockEnd
  0
BLOCK
  5
16E
330
163
100
AcDbEntity
  8
0
100
AcDbBlockBegin
  2
*D7
 70
     1
 71
     0
 10
0.0
 20
0.0
 30
0.0
  3
*D7
  1

  0
LINE
  5
170
330
163
100
AcDbEntity
  8
SLD-0
 62
     7
100
AcDbLine
 10
118.3610397946
 20
194.8271758665
 30
0.0
 11
140.9564547677
 21
194.8271758665
 31
0.0
  0
LINE
  5
171
330
163
100
AcDbEntity
  8
SLD-0
 62
     7
100
AcDbLine
 10
118.3610397946
 20
184.2271758665
 30
0.0
 11
140.9564547677
 21
184.2271758665
 31
0.0
  0
LINE
  5
172
330
163
100
AcDbEntity
  8
SLD-0
 62
     7
100
AcDbLine
 10
139.9564547677
 20
194.8271758665
 30
0.0
 11
139.9564547677
 21
184.2271758665
 31
0.0
  0
LINE
  5
173
330
163
100
AcDbEntity
  8
SLD-0
 62
     7
100
AcDbLine
 10
139.9564547677
 20
184.2271758665
 30
0.0
 11
139.9564547677
 21
171.5804797748
 31
0.0
  0
LINE
  5
174
330
163
100
AcDbEntity
  8
SLD-0
 62
     7
100
AcDbLine
 10
139.1526077677
 20
191.8271758665
 30
0.0
 11
139.9564547677
 21
194.8271758665
 31
0.0
  0
LINE
  5
175
330
163
100
AcDbEntity
  8
SLD-0
 62
     7
100
AcDbLine
 10
139.9564547677
 20
194.8271758665
 30
0.0
 11
140.7603017677
 21
191.8271758665
 31
0.0
  0
LINE
  5
176
330
163
100
AcDbEntity
  8
SLD-0
 62
     7
100
AcDbLine
 10
139.9564547677
 20
194.8271758665
 30
0.0
 11
139.9564547677
 21
191.8271758665
 31
0.0
  0
LINE
  5
177
330
163
100
AcDbEntity
  8
SLD-0
 62
     7
100
AcDbLine
 10
140.7603017677
 20
187.2271758665
 30
0.0
 11
139.9564547677
 21
184.2271758665
 31
0.0
  0
LINE
  5
178
330
163
100
AcDbEntity
  8
SLD-0
 62
     7
100
AcDbLine
 10
139.9564547677
 20
184.2271758665
 30
0.0
 11
139.1526077677
 21
187.2271758665
 31
0.0
  0
LINE
  5
179
330
163
100
AcDbEntity
  8
SLD-0
 62
     7
100
AcDbLine
 10
139.9564547677
 20
184.2271758665
 30
0.0
 11
139.9564547677
 21
187.2271758665
 31
0.0
  0
MTEXT
  5
17A
330
163
100
AcDbEntity
  8
SLD-0
 62
     7
100
AcDbMText
 10
135.4297611882
 20
173.1679797748
 30
0.2
 40
3.5
 41
0.0
 71
     1
 72
     1
  1
10.6
  7
SLDTEXTSTYLE0
 11
6.123031769111886E-17
 21
1.0
 31
0.0
 73
     1
 44
1.0
  0
ENDBLK
  5
16F
330
163
100
AcDbEntity
  8
0
100
AcDbBlockEnd
  0
BLOCK
  5
188
330
17C
100
AcDbEntity
  8
0
100
AcDbBlockBegin
  2
*D8
 70
     1
 71
     0
 10
0.0
 20
0.0
 30
0.0
  3
*D8
  1

  0
LINE
  5
18A
330
17C
100
AcDbEntity
  8
SLD-0
 62
     7
100
AcDbLine
 10
118.3610397946
 20
184.2271758665
 30
0.0
 11
129.4252181712
 21
184.2271758665
 31
0.0
  0
LINE
  5
18B
330
17C
100
AcDbEntity
  8
SLD-0
 62
     7
100
AcDbLine
 10
115.8610397946
 20
189.5271758665
 30
0.0
 11
129.4252181712
 21
189.5271758665
 31
0.0
  0
LINE
  5
18C
330
17C
100
AcDbEntity
  8
SLD-0
 62
     7
100
AcDbLine
 10
128.4252181712
 20
184.2271758665
 30
0.0
 11
128.4252181712
 21
172.5981973864
 31
0.0
  0
LINE
  5
18D
330
17C
100
AcDbEntity
  8
SLD-0
 62
     7
100
AcDbLine
 10
128.4252181712
 20
184.2271758665
 30
0.0
 11
128.4252181712
 21
189.5271758665
 31
0.0
  0
LINE
  5
18E
330
17C
100
AcDbEntity
  8
SLD-0
 62
     7
100
AcDbLine
 10
128.4252181712
 20
189.5271758665
 30
0.0
 11
128.4252181712
 21
194.5271758665
 31
0.0
  0
LINE
  5
18F
330
17C
100
AcDbEntity
  8
SLD-0
 62
     7
100
AcDbLine
 10
127.6213711712
 20
181.2271758665
 30
0.0
 11
128.4252181712
 21
184.2271758665
 31
0.0
  0
LINE
  5
190
330
17C
100
AcDbEntity
  8
SLD-0
 62
     7
100
AcDbLine
 10
128.4252181712
 20
184.2271758665
 30
0.0
 11
129.2290651712
 21
181.2271758665
 31
0.0
  0
LINE
  5
191
330
17C
100
AcDbEntity
  8
SLD-0
 62
     7
100
AcDbLine
 10
128.4252181712
 20
184.2271758665
 30
0.0
 11
128.4252181712
 21
181.2271758665
 31
0.0
  0
LINE
  5
192
330
17C
100
AcDbEntity
  8
SLD-0
 62
     7
100
AcDbLine
 10
129.2290651712
 20
192.5271758665
 30
0.0
 11
128.4252181712
 21
189.5271758665
 31
0.0
  0
LINE
  5
193
330
17C
100
AcDbEntity
  8
SLD-0
 62
     7
100
AcDbLine
 10
128.4252181712
 20
189.5271758665
 30
0.0
 11
127.6213711712
 21
192.5271758665
 31
0.0
  0
LINE
  5
194
330
17C
100
AcDbEntity
  8
SLD-0
 62
     7
100
AcDbLine
 10
128.4252181712
 20
189.5271758665
 30
0.0
 11
128.4252181712
 21
192.5271758665
 31
0.0
  0
MTEXT
  5
195
330
17C
100
AcDbEntity
  8
SLD-0
 62
     7
100
AcDbMText
 10
123.8985245917
 20
174.1856973864
 30
0.2
 40
3.5
 41
0.0
 71
     1
 72
     1
  1
5.3
  7
SLDTEXTSTYLE0
 11
6.123031769111886E-17
 21
1.0
 31
0.0
 73
     1
 44
1.0
  0
ENDBLK
  5
189
330
17C
100
AcDbEntity
  8
0
100
AcDbBlockEnd
  0
BLOCK
  5
19E
330
197
100
AcDbEntity
  8
0
100
AcDbBlockBegin
  2
*D9
 70
     1
 71
     0
 10
0.0
 20
0.0
 30
0.0
  3
*D9
  1

  0
LINE
  5
1A1
330
197
100
AcDbEntity
  8
SLD-0
 62
     7
100
AcDbLine
 10
108.3500408532
 20
186.9354810158
 30
0.0
 11
101.3233300675
 21
174.8831296467
 31
0.0
  0
LINE
  5
1A2
330
197
100
AcDbEntity
  8
SLD-0
 62
     7
100
AcDbLine
 10
101.3233300675
 20
174.8831296467
 30
0.0
 11
92.4899596211
 21
174.8831296467
 31
0.0
  0
LINE
  5
1A3
330
197
100
AcDbEntity
  8
SLD-0
 62
     7
100
AcDbLine
 10
106.1445998682
 20
184.7486568205
 30
0.0
 11
108.3500408532
 21
186.9354810158
 31
0.0
  0
LINE
  5
1A4
330
197
100
AcDbEntity
  8
SLD-0
 62
     7
100
AcDbLine
 10
108.3500408532
 20
186.9354810158
 30
0.0
 11
107.5334839553
 21
183.9389155098
 31
0.0
  0
LINE
  5
1A5
330
197
100
AcDbEntity
  8
SLD-0
 62
     7
100
AcDbLine
 10
108.3500408532
 20
186.9354810158
 30
0.0
 11
106.8390419118
 21
184.3437861651
 31
0.0
  0
MTEXT
  5
1A6
330
197
100
AcDbEntity
  8
SLD-0
 62
     7
100
AcDbMText
 10
94.0774596211
 20
179.4098232263
 30
0.2
 40
3.5
 41
0.0
 71
     1
 72
     1
  1
M
  7
SLDTEXTSTYLE0
 73
     1
 44
1.0
  0
MTEXT
  5
1A7
330
197
100
AcDbEntity
  8
SLD-0
 62
     7
100
AcDbMText
 10
96.1128948443
 20
179.4098232263
 30
0.2
 40
3.5
 41
0.0
 71
     1
 72
     1
  1
6
  7
SLDTEXTSTYLE0
 73
     1
 44
1.0
  0
ENDBLK
  5
19F
330
197
100
AcDbEntity
  8
0
100
AcDbBlockEnd
  0
ENDSEC
  0
SECTION
  2
ENTITIES
  0
LINE
  5
4B
330
1F
100
AcDbEntity
  8
SLD-0
  6
Continuous
 62
   179
100
AcDbLine
 10
20.2604743903
 20
285.0
 30
0.0
 11
196.7604743903
 21
285.0
 31
0.0
  0
LINE
  5
4C
330
1F
100
AcDbEntity
  8
SLD-0
  6
Continuous
 62
   179
100
AcDbLine
 10
20.2604743903
 20
285.0
 30
0.0
 11
20.2604743903
 21
10.0
 31
0.0
  0
LINE
  5
4D
330
1F
100
AcDbEntity
  8
SLD-0
  6
Continuous
 62
   179
100
AcDbLine
 10
20.2604743903
 20
10.0
 30
0.0
 11
196.7604743903
 21
10.0
 31
0.0
  0
LINE
  5
4E
330
1F
100
AcDbEntity
  8
SLD-0
  6
Continuous
 62
   179
100
AcDbLine
 10
196.7604743903
 20
285.0
 30
0.0
 11
196.7604743903
 21
10.0
 31
0.0
  0
LINE
  5
4F
330
1F
100
AcDbEntity
  8
SLD-0
  6
Continuous
 62
   179
100
AcDbLine
 10
127.0104743903
 20
50.75
 30
0.0
 11
196.7604743903
 21
50.75
 31
0.0
  0
LINE
  5
50
330
1F
100
AcDbEntity
  8
SLD-0
  6
Continuous
 62
   179
100
AcDbLine
 10
127.0104743903
 20
50.75
 30
0.0
 11
127.0104743903
 21
10.0
 31
0.0
  0
LINE
  5
51
330
1F
100
AcDbEntity
  8
SLD-0
  6
Continuous
 62
   179
100
AcDbLine
 10
127.0104743903
 20
22.75
 30
0.0
 11
196.7604743903
 21
22.75
 31
0.0
  0
LINE
  5
52
330
1F
100
AcDbEntity
  8
SLD-0
  6
Continuous
 62
   179
100
AcDbLine
 10
127.0104743903
 20
36.75
 30
0.0
 11
196.7604743903
 21
36.75
 31
0.0
  0
LINE
  5
53
330
1F
100
AcDbEntity
  8
SLD-0
  6
Continuous
 62
   179
100
AcDbLine
 10
117.3610397946
 20
194.8271758665
 30
0.0
 11
102.3610397946
 21
194.8271758665
 31
0.0
  0
LINE
  5
54
330
1F
100
AcDbEntity
  8
SLD-0
  6
Continuous
 62
   179
100
AcDbLine
 10
102.3610397946
 20
184.2271758665
 30
0.0
 11
117.3610397946
 21
184.2271758665
 31
0.0
  0
LINE
  5
55
330
1F
100
AcDbEntity
  8
SLD-0
  6
Continuous
 62
   179
100
AcDbLine
 10
117.3610397946
 20
194.8271758665
 30
0.0
 11
117.3610397946
 21
194.3271758665
 31
0.0
  0
LINE
  5
56
330
1F
100
AcDbEntity
  8
SLD-0
  6
Continuous
 62
   179
100
AcDbLine
 10
102.3610397946
 20
194.8271758665
 30
0.0
 11
102.3610397946
 21
194.3271758665
 31
0.0
  0
LINE
  5
57
330
1F
100
AcDbEntity
  8
SLD-0
  6
Continuous
 62
   179
100
AcDbLine
 10
117.3610397946
 20
194.3271758665
 30
0.0
 11
117.3610397946
 21
192.3514399352
 31
0.0
  0
LINE
  5
58
330
1F
100
AcDbEntity
  8
SLD-0
  6
Continuous
 62
   179
100
AcDbLine
 10
102.3610397946
 20
194.3271758665
 30
0.0
 11
102.3610397946
 21
192.3514399352
 31
0.0
  0
LINE
  5
59
330
1F
100
AcDbEntity
  8
SLD-0
  6
Continuous
 62
   179
100
AcDbLine
 10
117.3610397946
 20
192.3514399352
 30
0.0
 11
117.3610397946
 21
192.1393079009
 31
0.0
  0
LINE
  5
5A
330
1F
100
AcDbEntity
  8
SLD-0
  6
Continuous
 62
   179
100
AcDbLine
 10
102.3610397946
 20
192.3514399352
 30
0.0
 11
102.3610397946
 21
192.1393079009
 31
0.0
  0
LINE
  5
5B
330
1F
100
AcDbEntity
  8
SLD-0
  6
Continuous
 62
   179
100
AcDbLine
 10
117.3610397946
 20
184.7271758665
 30
0.0
 11
117.3610397946
 21
184.2271758665
 31
0.0
  0
LINE
  5
5C
330
1F
100
AcDbEntity
  8
SLD-0
  6
Continuous
 62
   179
100
AcDbLine
 10
102.3610397946
 20
184.7271758665
 30
0.0
 11
102.3610397946
 21
184.2271758665
 31
0.0
  0
LINE
  5
5D
330
1F
100
AcDbEntity
  8
SLD-0
  6
Continuous
 62
   179
100
AcDbLine
 10
117.3610397946
 20
186.9150438321
 30
0.0
 11
117.3610397946
 21
186.7029117978
 31
0.0
  0
LINE
  5
5E
330
1F
100
AcDbEntity
  8
SLD-0
  6
Continuous
 62
   179
100
AcDbLine
 10
102.3610397946
 20
186.9150438321
 30
0.0
 11
102.3610397946
 21
186.7029117978
 31
0.0
  0
LINE
  5
5F
330
1F
100
AcDbEntity
  8
SLD-0
  6
Continuous
 62
   179
100
AcDbLine
 10
117.3610397946
 20
186.7029117978
 30
0.0
 11
117.3610397946
 21
184.7271758665
 31
0.0
  0
LINE
  5
60
330
1F
100
AcDbEntity
  8
SLD-0
  6
Continuous
 62
   179
100
AcDbLine
 10
102.3610397946
 20
186.7029117978
 30
0.0
 11
102.3610397946
 21
184.7271758665
 31
0.0
  0
LINE
  5
61
330
1F
100
AcDbEntity
  8
SLD-0
  6
Continuous
 62
   179
100
AcDbLine
 10
117.3610397946
 20
192.1393079009
 30
0.0
 11
117.3610397946
 21
191.6150438321
 31
0.0
  0
LINE
  5
62
330
1F
100
AcDbEntity
  8
SLD-0
  6
Continuous
 62
   179
100
AcDbLine
 10
102.3610397946
 20
192.1393079009
 30
0.0
 11
102.3610397946
 21
191.6150438321
 31
0.0
  0
LINE
  5
63
330
1F
100
AcDbEntity
  8
SLD-0
  6
Continuous
 62
   179
100
AcDbLine
 10
117.3610397946
 20
187.4393079009
 30
0.0
 11
117.3610397946
 21
186.9150438321
 31
0.0
  0
LINE
  5
64
330
1F
100
AcDbEntity
  8
SLD-0
  6
Continuous
 62
   179
100
AcDbLine
 10
102.3610397946
 20
187.4393079009
 30
0.0
 11
102.3610397946
 21
186.9150438321
 31
0.0
  0
LINE
  5
65
330
1F
100
AcDbEntity
  8
SLD-0
  6
Continuous
 62
   179
100
AcDbLine
 10
102.3610397946
 20
191.6150438321
 30
0.0
 11
102.3610397946
 21
191.4029117978
 31
0.0
  0
LINE
  5
66
330
1F
100
AcDbEntity
  8
SLD-0
  6
Continuous
 62
   179
100
AcDbLine
 10
117.3610397946
 20
191.6150438321
 30
0.0
 11
117.3610397946
 21
191.4029117978
 31
0.0
  0
LINE
  5
67
330
1F
100
AcDbEntity
  8
SLD-0
  6
Continuous
 62
   179
100
AcDbLine
 10
117.3610397946
 20
187.6514399352
 30
0.0
 11
117.3610397946
 21
187.4393079009
 31
0.0
  0
LINE
  5
68
330
1F
100
AcDbEntity
  8
SLD-0
  6
Continuous
 62
   179
100
AcDbLine
 10
102.3610397946
 20
187.6514399352
 30
0.0
 11
102.3610397946
 21
187.4393079009
 31
0.0
  0
LINE
  5
69
330
1F
100
AcDbEntity
  8
SLD-0
  6
Continuous
 62
   179
100
AcDbLine
 10
117.3610397946
 20
191.4029117978
 30
0.0
 11
117.3610397946
 21
187.6514399352
 31
0.0
  0
LINE
  5
6A
330
1F
100
AcDbEntity
  8
SLD-0
  6
Continuous
 62
   179
100
AcDbLine
 10
102.3610397946
 20
191.4029117978
 30
0.0
 11
102.3610397946
 21
187.6514399352
 31
0.0
  0
LINE
  5
6B
330
1F
100
AcDbEntity
  8
SLD-0
 62
   179
100
AcDbLine
 10
107.5197549123
 20
191.4029118023
 30
0.0
 11
107.3699132591
 21
191.1987884785
 31
0.0
  0
LINE
  5
6C
330
1F
100
AcDbEntity
  8
SLD-0
 62
   179
100
AcDbLine
 10
107.3699132591
 20
191.1987884785
 30
0.0
 11
107.2378193546
 21
190.9827561001
 31
0.0
  0
LINE
  5
6D
330
1F
100
AcDbEntity
  8
SLD-0
 62
   179
100
AcDbLine
 10
107.2378193546
 20
190.9827561001
 30
0.0
 11
107.1244138345
 21
190.7563537941
 31
0.0
  0
LINE
  5
6E
330
1F
100
AcDbEntity
  8
SLD-0
 62
   179
100
AcDbLine
 10
107.1244138345
 20
190.7563537941
 30
0.0
 11
107.0305050869
 21
190.5211943783
 31
0.0
  0
LINE
  5
6F
330
1F
100
AcDbEntity
  8
SLD-0
 62
   179
100
AcDbLine
 10
107.0305050869
 20
190.5211943783
 30
0.0
 11
106.9567618012
 21
190.2789532439
 31
0.0
  0
LINE
  5
70
330
1F
100
AcDbEntity
  8
SLD-0
 62
   179
100
AcDbLine
 10
106.9567618012
 20
190.2789532439
 30
0.0
 11
106.9037094764
 21
190.0313561898
 31
0.0
  0
LINE
  5
71
330
1F
100
AcDbEntity
  8
SLD-0
 62
   179
100
AcDbLine
 10
106.9037094764
 20
190.0313561898
 30
0.0
 11
106.8717262294
 21
189.7801672283
 31
0.0
  0
LINE
  5
72
330
1F
100
AcDbEntity
  8
SLD-0
 62
   179
100
AcDbLine
 10
106.8717262294
 20
189.7801672283
 30
0.0
 11
106.8610397685
 21
189.5271758665
 31
0.0
  0
LINE
  5
73
330
1F
100
AcDbEntity
  8
SLD-0
 62
   179
100
AcDbLine
 10
106.8610397685
 20
189.5271758665
 30
0.0
 11
106.8717262294
 21
189.2741845047
 31
0.0
  0
LINE
  5
74
330
1F
100
AcDbEntity
  8
SLD-0
 62
   179
100
AcDbLine
 10
106.8717262294
 20
189.2741845047
 30
0.0
 11
106.9037094764
 21
189.0229955432
 31
0.0
  0
LINE
  5
75
330
1F
100
AcDbEntity
  8
SLD-0
 62
   179
100
AcDbLine
 10
106.9037094764
 20
189.0229955432
 30
0.0
 11
106.9567618012
 21
188.7753984891
 31
0.0
  0
LINE
  5
76
330
1F
100
AcDbEntity
  8
SLD-0
 62
   179
100
AcDbLine
 10
106.9567618012
 20
188.7753984891
 30
0.0
 11
107.0305050869
 21
188.5331573546
 31
0.0
  0
LINE
  5
77
330
1F
100
AcDbEntity
  8
SLD-0
 62
   179
100
AcDbLine
 10
107.0305050869
 20
188.5331573546
 30
0.0
 11
107.1244138345
 21
188.2979979389
 31
0.0
  0
LINE
  5
78
330
1F
100
AcDbEntity
  8
SLD-0
 62
   179
100
AcDbLine
 10
107.1244138345
 20
188.2979979389
 30
0.0
 11
107.2378193546
 21
188.0715956329
 31
0.0
  0
LINE
  5
79
330
1F
100
AcDbEntity
  8
SLD-0
 62
   179
100
AcDbLine
 10
107.2378193546
 20
188.0715956329
 30
0.0
 11
107.3699132591
 21
187.8555632545
 31
0.0
  0
LINE
  5
7A
330
1F
100
AcDbEntity
  8
SLD-0
 62
   179
100
AcDbLine
 10
107.3699132591
 20
187.8555632545
 30
0.0
 11
107.5197549123
 21
187.6514399307
 31
0.0
  0
LINE
  5
7B
330
1F
100
AcDbEntity
  8
SLD-0
 62
   179
100
AcDbLine
 10
107.7067863714
 20
191.6150439181
 30
0.0
 11
107.5197549123
 21
191.4029118023
 31
0.0
  0
LINE
  5
7C
330
1F
100
AcDbEntity
  8
SLD-0
 62
   179
100
AcDbLine
 10
107.5197549123
 20
187.6514399307
 30
0.0
 11
107.7067863714
 21
187.4393078149
 31
0.0
  0
LINE
  5
7D
330
1F
100
AcDbEntity
  8
SLD-0
 62
   179
100
AcDbLine
 10
108.2027274003
 20
192.0271758106
 30
0.0
 11
108.0276855553
 21
191.9017941807
 31
0.0
  0
LINE
  5
7E
330
1F
100
AcDbEntity
  8
SLD-0
 62
   179
100
AcDbLine
 10
108.0276855553
 20
191.9017941807
 30
0.0
 11
107.8620876703
 21
191.7641805601
 31
0.0
  0
LINE
  5
7F
330
1F
100
AcDbEntity
  8
SLD-0
 62
   179
100
AcDbLine
 10
107.8620876703
 20
191.7641805601
 30
0.0
 11
107.7067863714
 21
191.6150439181
 31
0.0
  0
LINE
  5
80
330
1F
100
AcDbEntity
  8
SLD-0
 62
   179
100
AcDbLine
 10
107.7067863714
 20
187.4393078149
 30
0.0
 11
107.8620876703
 21
187.2901711729
 31
0.0
  0
LINE
  5
81
330
1F
100
AcDbEntity
  8
SLD-0
 62
   179
100
AcDbLine
 10
107.8620876703
 20
187.2901711729
 30
0.0
 11
108.0276855553
 21
187.1525575523
 31
0.0
  0
LINE
  5
82
330
1F
100
AcDbEntity
  8
SLD-0
 62
   179
100
AcDbLine
 10
108.0276855553
 20
187.1525575523
 30
0.0
 11
108.2027274003
 21
187.0271759224
 31
0.0
  0
LINE
  5
83
330
1F
100
AcDbEntity
  8
SLD-0
 62
   179
100
AcDbLine
 10
112.2023246769
 20
191.4029118023
 30
0.0
 11
112.0152932178
 21
191.6150439181
 31
0.0
  0
LINE
  5
84
330
1F
100
AcDbEntity
  8
SLD-0
 62
   179
100
AcDbLine
 10
112.0152932178
 20
191.6150439181
 30
0.0
 11
111.8599919189
 21
191.7641805601
 31
0.0
  0
LINE
  5
85
330
1F
100
AcDbEntity
  8
SLD-0
 62
   179
100
AcDbLine
 10
111.8599919189
 20
191.7641805601
 30
0.0
 11
111.694394034
 21
191.9017941807
 31
0.0
  0
LINE
  5
86
330
1F
100
AcDbEntity
  8
SLD-0
 62
   179
100
AcDbLine
 10
111.694394034
 20
191.9017941807
 30
0.0
 11
111.5193521889
 21
192.0271758106
 31
0.0
  0
LINE
  5
87
330
1F
100
AcDbEntity
  8
SLD-0
 62
   179
100
AcDbLine
 10
112.2023246769
 20
187.6514399307
 30
0.0
 11
112.3521663301
 21
187.8555632545
 31
0.0
  0
LINE
  5
88
330
1F
100
AcDbEntity
  8
SLD-0
 62
   179
100
AcDbLine
 10
112.3521663301
 20
187.8555632545
 30
0.0
 11
112.4842602346
 21
188.0715956329
 31
0.0
  0
LINE
  5
89
330
1F
100
AcDbEntity
  8
SLD-0
 62
   179
100
AcDbLine
 10
112.4842602346
 20
188.0715956329
 30
0.0
 11
112.5976657547
 21
188.2979979389
 31
0.0
  0
LINE
  5
8A
330
1F
100
AcDbEntity
  8
SLD-0
 62
   179
100
AcDbLine
 10
112.5976657547
 20
188.2979979389
 30
0.0
 11
112.6915745024
 21
188.5331573546
 31
0.0
  0
LINE
  5
8B
330
1F
100
AcDbEntity
  8
SLD-0
 62
   179
100
AcDbLine
 10
112.6915745024
 20
188.5331573546
 30
0.0
 11
112.765317788
 21
188.7753984891
 31
0.0
  0
LINE
  5
8C
330
1F
100
AcDbEntity
  8
SLD-0
 62
   179
100
AcDbLine
 10
112.765317788
 20
188.7753984891
 30
0.0
 11
112.8183701128
 21
189.0229955432
 31
0.0
  0
LINE
  5
8D
330
1F
100
AcDbEntity
  8
SLD-0
 62
   179
100
AcDbLine
 10
112.8183701128
 20
189.0229955432
 30
0.0
 11
112.8503533598
 21
189.2741845047
 31
0.0
  0
LINE
  5
8E
330
1F
100
AcDbEntity
  8
SLD-0
 62
   179
100
AcDbLine
 10
112.8503533598
 20
189.2741845047
 30
0.0
 11
112.8610398207
 21
189.5271758665
 31
0.0
  0
LINE
  5
8F
330
1F
100
AcDbEntity
  8
SLD-0
 62
   179
100
AcDbLine
 10
112.8610398207
 20
189.5271758665
 30
0.0
 11
112.8503533598
 21
189.7801672283
 31
0.0
  0
LINE
  5
90
330
1F
100
AcDbEntity
  8
SLD-0
 62
   179
100
AcDbLine
 10
112.8503533598
 20
189.7801672283
 30
0.0
 11
112.8183701128
 21
190.0313561898
 31
0.0
  0
LINE
  5
91
330
1F
100
AcDbEntity
  8
SLD-0
 62
   179
100
AcDbLine
 10
112.8183701128
 20
190.0313561898
 30
0.0
 11
112.765317788
 21
190.2789532439
 31
0.0
  0
LINE
  5
92
330
1F
100
AcDbEntity
  8
SLD-0
 62
   179
100
AcDbLine
 10
112.765317788
 20
190.2789532439
 30
0.0
 11
112.6915745024
 21
190.5211943783
 31
0.0
  0
LINE
  5
93
330
1F
100
AcDbEntity
  8
SLD-0
 62
   179
100
AcDbLine
 10
112.6915745024
 20
190.5211943783
 30
0.0
 11
112.5976657547
 21
190.7563537941
 31
0.0
  0
LINE
  5
94
330
1F
100
AcDbEntity
  8
SLD-0
 62
   179
100
AcDbLine
 10
112.5976657547
 20
190.7563537941
 30
0.0
 11
112.4842602346
 21
190.9827561001
 31
0.0
  0
LINE
  5
95
330
1F
100
AcDbEntity
  8
SLD-0
 62
   179
100
AcDbLine
 10
112.4842602346
 20
190.9827561001
 30
0.0
 11
112.3521663301
 21
191.1987884785
 31
0.0
  0
LINE
  5
96
330
1F
100
AcDbEntity
  8
SLD-0
 62
   179
100
AcDbLine
 10
112.3521663301
 20
191.1987884785
 30
0.0
 11
112.2023246769
 21
191.4029118023
 31
0.0
  0
LINE
  5
97
330
1F
100
AcDbEntity
  8
SLD-0
 62
   179
100
AcDbLine
 10
112.0152932178
 20
187.4393078149
 30
0.0
 11
112.2023246769
 21
187.6514399307
 31
0.0
  0
LINE
  5
98
330
1F
100
AcDbEntity
  8
SLD-0
 62
   179
100
AcDbLine
 10
111.5193521889
 20
187.0271759224
 30
0.0
 11
111.694394034
 21
187.1525575523
 31
0.0
  0
LINE
  5
99
330
1F
100
AcDbEntity
  8
SLD-0
 62
   179
100
AcDbLine
 10
111.694394034
 20
187.1525575523
 30
0.0
 11
111.8599919189
 21
187.2901711729
 31
0.0
  0
LINE
  5
9A
330
1F
100
AcDbEntity
  8
SLD-0
 62
   179
100
AcDbLine
 10
111.8599919189
 20
187.2901711729
 30
0.0
 11
112.0152932178
 21
187.4393078149
 31
0.0
  0
LINE
  5
9B
330
1F
100
AcDbEntity
  8
SLD-0
  6
HIDDEN
 62
   179
100
AcDbLine
 10
108.2027274003
 20
192.0271758106
 30
0.0
 11
108.4174580226
 21
192.1570184757
 31
0.0
  0
LINE
  5
9C
330
1F
100
AcDbEntity
  8
SLD-0
  6
HIDDEN
 62
   179
100
AcDbLine
 10
108.4174580226
 20
192.1570184757
 30
0.0
 11
108.6422886053
 21
192.2684612334
 31
0.0
  0
LINE
  5
9D
330
1F
100
AcDbEntity
  8
SLD-0
  6
HIDDEN
 62
   179
100
AcDbLine
 10
108.6422886053
 20
192.2684612334
 30
0.0
 11
108.8756461447
 21
192.3607247998
 31
0.0
  0
LINE
  5
9E
330
1F
100
AcDbEntity
  8
SLD-0
  6
HIDDEN
 62
   179
100
AcDbLine
 10
108.8756461447
 20
192.3607247998
 30
0.0
 11
109.1158980323
 21
192.4331635353
 31
0.0
  0
LINE
  5
9F
330
1F
100
AcDbEntity
  8
SLD-0
  6
HIDDEN
 62
   179
100
AcDbLine
 10
109.1158980323
 20
192.4331635353
 30
0.0
 11
109.361363289
 21
192.4852703348
 31
0.0
  0
LINE
  5
A0
330
1F
100
AcDbEntity
  8
SLD-0
  6
HIDDEN
 62
   179
100
AcDbLine
 10
109.361363289
 20
192.4852703348
 30
0.0
 11
109.6103244688
 21
192.5166810513
 31
0.0
  0
LINE
  5
A1
330
1F
100
AcDbEntity
  8
SLD-0
  6
HIDDEN
 62
   179
100
AcDbLine
 10
109.6103244688
 20
192.5166810513
 30
0.0
 11
109.8610397946
 21
192.5271758926
 31
0.0
  0
LINE
  5
A2
330
1F
100
AcDbEntity
  8
SLD-0
  6
HIDDEN
 62
   179
100
AcDbLine
 10
109.8610397946
 20
192.5271758926
 30
0.0
 11
110.1117551204
 21
192.5166810513
 31
0.0
  0
LINE
  5
A3
330
1F
100
AcDbEntity
  8
SLD-0
  6
HIDDEN
 62
   179
100
AcDbLine
 10
110.1117551204
 20
192.5166810513
 30
0.0
 11
110.3607163002
 21
192.4852703348
 31
0.0
  0
LINE
  5
A4
330
1F
100
AcDbEntity
  8
SLD-0
  6
HIDDEN
 62
   179
100
AcDbLine
 10
110.3607163002
 20
192.4852703348
 30
0.0
 11
110.6061815569
 21
192.4331635353
 31
0.0
  0
LINE
  5
A5
330
1F
100
AcDbEntity
  8
SLD-0
  6
HIDDEN
 62
   179
100
AcDbLine
 10
110.6061815569
 20
192.4331635353
 30
0.0
 11
110.8464334445
 21
192.3607247998
 31
0.0
  0
LINE
  5
A6
330
1F
100
AcDbEntity
  8
SLD-0
  6
HIDDEN
 62
   179
100
AcDbLine
 10
110.8464334445
 20
192.3607247998
 30
0.0
 11
111.0797909839
 21
192.2684612334
 31
0.0
  0
LINE
  5
A7
330
1F
100
AcDbEntity
  8
SLD-0
  6
HIDDEN
 62
   179
100
AcDbLine
 10
111.0797909839
 20
192.2684612334
 30
0.0
 11
111.3046215666
 21
192.1570184757
 31
0.0
  0
LINE
  5
A8
330
1F
100
AcDbEntity
  8
SLD-0
  6
HIDDEN
 62
   179
100
AcDbLine
 10
111.3046215666
 20
192.1570184757
 30
0.0
 11
111.5193521889
 21
192.0271758106
 31
0.0
  0
LINE
  5
A9
330
1F
100
AcDbEntity
  8
SLD-0
  6
HIDDEN
 62
   179
100
AcDbLine
 10
111.5193521889
 20
187.0271759224
 30
0.0
 11
111.3046215666
 21
186.8973332573
 31
0.0
  0
LINE
  5
AA
330
1F
100
AcDbEntity
  8
SLD-0
  6
HIDDEN
 62
   179
100
AcDbLine
 10
111.3046215666
 20
186.8973332573
 30
0.0
 11
111.0797909839
 21
186.7858904996
 31
0.0
  0
LINE
  5
AB
330
1F
100
AcDbEntity
  8
SLD-0
  6
HIDDEN
 62
   179
100
AcDbLine
 10
111.0797909839
 20
186.7858904996
 30
0.0
 11
110.8464334445
 21
186.6936269332
 31
0.0
  0
LINE
  5
AC
330
1F
100
AcDbEntity
  8
SLD-0
  6
HIDDEN
 62
   179
100
AcDbLine
 10
110.8464334445
 20
186.6936269332
 30
0.0
 11
110.6061815569
 21
186.6211881977
 31
0.0
  0
LINE
  5
AD
330
1F
100
AcDbEntity
  8
SLD-0
  6
HIDDEN
 62
   179
100
AcDbLine
 10
110.6061815569
 20
186.6211881977
 30
0.0
 11
110.3607163002
 21
186.5690813982
 31
0.0
  0
LINE
  5
AE
330
1F
100
AcDbEntity
  8
SLD-0
  6
HIDDEN
 62
   179
100
AcDbLine
 10
110.3607163002
 20
186.5690813982
 30
0.0
 11
110.1117551204
 21
186.5376706817
 31
0.0
  0
LINE
  5
AF
330
1F
100
AcDbEntity
  8
SLD-0
  6
HIDDEN
 62
   179
100
AcDbLine
 10
110.1117551204
 20
186.5376706817
 30
0.0
 11
109.8610397946
 21
186.5271758404
 31
0.0
  0
LINE
  5
B0
330
1F
100
AcDbEntity
  8
SLD-0
  6
HIDDEN
 62
   179
100
AcDbLine
 10
109.8610397946
 20
186.5271758404
 30
0.0
 11
109.6103244688
 21
186.5376706817
 31
0.0
  0
LINE
  5
B1
330
1F
100
AcDbEntity
  8
SLD-0
  6
HIDDEN
 62
   179
100
AcDbLine
 10
109.6103244688
 20
186.5376706817
 30
0.0
 11
109.361363289
 21
186.5690813982
 31
0.0
  0
LINE
  5
B2
330
1F
100
AcDbEntity
  8
SLD-0
  6
HIDDEN
 62
   179
100
AcDbLine
 10
109.361363289
 20
186.5690813982
 30
0.0
 11
109.1158980323
 21
186.6211881977
 31
0.0
  0
LINE
  5
B3
330
1F
100
AcDbEntity
  8
SLD-0
  6
HIDDEN
 62
   179
100
AcDbLine
 10
109.1158980323
 20
186.6211881977
 30
0.0
 11
108.8756461447
 21
186.6936269332
 31
0.0
  0
LINE
  5
B4
330
1F
100
AcDbEntity
  8
SLD-0
  6
HIDDEN
 62
   179
100
AcDbLine
 10
108.8756461447
 20
186.6936269332
 30
0.0
 11
108.6422886053
 21
186.7858904996
 31
0.0
  0
LINE
  5
B5
330
1F
100
AcDbEntity
  8
SLD-0
  6
HIDDEN
 62
   179
100
AcDbLine
 10
108.6422886053
 20
186.7858904996
 30
0.0
 11
108.4174580226
 21
186.8973332573
 31
0.0
  0
LINE
  5
B6
330
1F
100
AcDbEntity
  8
SLD-0
  6
HIDDEN
 62
   179
100
AcDbLine
 10
108.4174580226
 20
186.8973332573
 30
0.0
 11
108.2027274003
 21
187.0271759224
 31
0.0
  0
LINE
  5
B7
330
1F
100
AcDbEntity
  8
SLD-0
  6
HIDDEN
 62
   179
100
AcDbLine
 10
107.1642169315
 20
190.8413854078
 30
0.0
 11
107.2168794978
 21
190.9333039191
 31
0.0
  0
LINE
  5
B8
330
1F
100
AcDbEntity
  8
SLD-0
  6
HIDDEN
 62
   179
100
AcDbLine
 10
107.461455749
 20
191.3167571299
 30
0.0
 11
107.8948592819
 21
191.7914736666
 31
0.0
  0
LINE
  5
B9
330
1F
100
AcDbEntity
  8
SLD-0
  6
HIDDEN
 62
   179
100
AcDbLine
 10
108.1751514046
 20
192.006063892
 30
0.0
 11
108.2455876801
 21
192.0508775045
 31
0.0
  0
LINE
  5
BA
330
1F
100
AcDbEntity
  8
SLD-0
  6
HIDDEN
 62
   179
100
AcDbLine
 10
111.5044573141
 20
192.0365931117
 30
0.0
 11
111.7522262555
 21
191.8520464212
 31
0.0
  0
LINE
  5
BB
330
1F
100
AcDbEntity
  8
SLD-0
  6
HIDDEN
 62
   179
100
AcDbLine
 10
111.9326117966
 20
191.6895331931
 30
0.0
 11
112.052857881
 21
191.5745269623
 31
0.0
  0
LINE
  5
BC
330
1F
100
AcDbEntity
  8
SLD-0
  6
HIDDEN
 62
   179
100
AcDbLine
 10
112.0699644141
 20
191.5560760651
 30
0.0
 11
112.270858144
 21
191.3116922485
 31
0.0
  0
LINE
  5
BD
330
1F
100
AcDbEntity
  8
SLD-0
  6
HIDDEN
 62
   179
100
AcDbLine
 10
112.3310455639
 20
191.2255128962
 30
0.0
 11
112.5578626577
 21
190.8413854078
 31
0.0
  0
LINE
  5
BE
330
1F
100
AcDbEntity
  8
SLD-0
  6
HIDDEN
 62
   179
100
AcDbLine
 10
112.5578626577
 20
188.2129663252
 30
0.0
 11
112.5052000914
 21
188.1210478139
 31
0.0
  0
LINE
  5
BF
330
1F
100
AcDbEntity
  8
SLD-0
  6
HIDDEN
 62
   179
100
AcDbLine
 10
112.2606238402
 20
187.7375946031
 30
0.0
 11
111.8272203073
 21
187.2628780664
 31
0.0
  0
LINE
  5
C0
330
1F
100
AcDbEntity
  8
SLD-0
  6
HIDDEN
 62
   179
100
AcDbLine
 10
111.5469281847
 20
187.048287841
 30
0.0
 11
111.4764919091
 21
187.0034742285
 31
0.0
  0
LINE
  5
C1
330
1F
100
AcDbEntity
  8
SLD-0
  6
HIDDEN
 62
   179
100
AcDbLine
 10
108.2176222751
 20
187.0177586213
 30
0.0
 11
107.9698533338
 21
187.2023053118
 31
0.0
  0
LINE
  5
C2
330
1F
100
AcDbEntity
  8
SLD-0
  6
HIDDEN
 62
   179
100
AcDbLine
 10
107.7894677926
 20
187.3648185399
 30
0.0
 11
107.6692217082
 21
187.4798247707
 31
0.0
  0
LINE
  5
C3
330
1F
100
AcDbEntity
  8
SLD-0
  6
HIDDEN
 62
   179
100
AcDbLine
 10
107.6521151751
 20
187.4982756679
 30
0.0
 11
107.4512214452
 21
187.7426594845
 31
0.0
  0
LINE
  5
C4
330
1F
100
AcDbEntity
  8
SLD-0
  6
HIDDEN
 62
   179
100
AcDbLine
 10
107.3910340253
 20
187.8288388368
 30
0.0
 11
107.1642169315
 21
188.2129663252
 31
0.0
  0
LINE
  5
C5
330
1F
100
AcDbEntity
  8
SLD-0
  6
Continuous
 62
   179
100
AcDbLine
 10
112.3610397387
 20
148.2166237807
 30
0.0
 11
117.3610397946
 21
148.2166238768
 31
0.0
  0
LINE
  5
C6
330
1F
100
AcDbEntity
  8
SLD-0
  6
Continuous
 62
   179
100
AcDbLine
 10
102.3610397946
 20
148.2166238768
 30
0.0
 11
107.3610398505
 21
148.2166237807
 31
0.0
  0
LINE
  5
C7
330
1F
100
AcDbEntity
  8
SLD-0
  6
Continuous
 62
   179
100
AcDbLine
 10
117.3610397946
 20
154.6166238768
 30
0.0
 11
102.3610397946
 21
154.6166238768
 31
0.0
  0
LINE
  5
C8
330
1F
100
AcDbEntity
  8
SLD-0
  6
Continuous
 62
   179
100
AcDbLine
 10
117.3610397946
 20
154.6166238768
 30
0.0
 11
117.3610397946
 21
153.9020048534
 31
0.0
  0
LINE
  5
C9
330
1F
100
AcDbEntity
  8
SLD-0
  6
Continuous
 62
   179
100
AcDbLine
 10
102.3610397946
 20
154.6166238768
 30
0.0
 11
102.3610397946
 21
153.9020048534
 31
0.0
  0
LINE
  5
CA
330
1F
100
AcDbEntity
  8
SLD-0
  6
Continuous
 62
   179
100
AcDbLine
 10
117.3610397946
 20
153.9020048534
 30
0.0
 11
117.3610397946
 21
148.7090253448
 31
0.0
  0
LINE
  5
CB
330
1F
100
AcDbEntity
  8
SLD-0
  6
Continuous
 62
   179
100
AcDbLine
 10
102.3610397946
 20
153.9020048534
 30
0.0
 11
102.3610397946
 21
148.7090253448
 31
0.0
  0
LINE
  5
CC
330
1F
100
AcDbEntity
  8
SLD-0
  6
Continuous
 62
   179
100
AcDbLine
 10
117.3610397946
 20
148.7090253448
 30
0.0
 11
117.3610397946
 21
148.2166238768
 31
0.0
  0
LINE
  5
CD
330
1F
100
AcDbEntity
  8
SLD-0
  6
Continuous
 62
   179
100
AcDbLine
 10
102.3610397946
 20
148.7090253448
 30
0.0
 11
102.3610397946
 21
148.2166238768
 31
0.0
  0
LINE
  5
CE
330
1F
100
AcDbEntity
  8
SLD-0
  6
HIDDEN
 62
     8
100
AcDbLine
 10
117.3610397946
 20
154.6166238768
 30
0.0
 11
102.3610397946
 21
154.6166238768
 31
0.0
  0
LINE
  5
CF
330
1F
100
AcDbEntity
  8
SLD-0
  6
HIDDEN
 62
     8
100
AcDbLine
 10
117.3610397946
 20
154.5287559111
 30
0.0
 11
117.3610397946
 21
154.6166238768
 31
0.0
  0
LINE
  5
D0
330
1F
100
AcDbEntity
  8
SLD-0
  6
HIDDEN
 62
     8
100
AcDbLine
 10
102.3610397946
 20
154.5287559111
 30
0.0
 11
102.3610397946
 21
154.6166238768
 31
0.0
  0
LINE
  5
D1
330
1F
100
AcDbEntity
  8
SLD-0
  6
HIDDEN
 62
     8
100
AcDbLine
 10
117.3610397946
 20
154.0044918424
 30
0.0
 11
117.3610397946
 21
154.5287559111
 31
0.0
  0
LINE
  5
D2
330
1F
100
AcDbEntity
  8
SLD-0
  6
HIDDEN
 62
     8
100
AcDbLine
 10
102.3610397946
 20
154.0044918424
 30
0.0
 11
102.3610397946
 21
154.5287559111
 31
0.0
  0
LINE
  5
D3
330
1F
100
AcDbEntity
  8
SLD-0
  6
HIDDEN
 62
     8
100
AcDbLine
 10
111.5137995219
 20
153.9166238769
 30
0.0
 11
112.3585472867
 21
153.9166238769
 31
0.0
  0
LINE
  5
D4
330
1F
100
AcDbEntity
  8
SLD-0
  6
HIDDEN
 62
     8
100
AcDbLine
 10
108.2082800619
 20
153.9166238768
 30
0.0
 11
107.3635323025
 21
153.9166238768
 31
0.0
  0
LINE
  5
D5
330
1F
100
AcDbEntity
  8
SLD-0
  6
HIDDEN
 62
     8
100
AcDbLine
 10
108.2082800619
 20
153.9166238768
 30
0.0
 11
102.3610397946
 21
153.9166238768
 31
0.0
  0
LINE
  5
D6
330
1F
100
AcDbEntity
  8
SLD-0
  6
HIDDEN
 62
     8
100
AcDbLine
 10
102.3610397946
 20
153.9166238768
 30
0.0
 11
102.3610397946
 21
154.0044918424
 31
0.0
  0
LINE
  5
D7
330
1F
100
AcDbEntity
  8
SLD-0
  6
HIDDEN
 62
     8
100
AcDbLine
 10
117.3610397946
 20
153.9166238769
 30
0.0
 11
111.5137995219
 21
153.9166238769
 31
0.0
  0
LINE
  5
D8
330
1F
100
AcDbEntity
  8
SLD-0
  6
HIDDEN
 62
     8
100
AcDbLine
 10
117.3610397946
 20
153.9166238769
 30
0.0
 11
117.3610397946
 21
154.0044918424
 31
0.0
  0
LINE
  5
D9
330
1F
100
AcDbEntity
  8
SLD-0
  6
HIDDEN
 62
     8
100
AcDbLine
 10
117.3610397946
 20
148.2166238768
 30
0.0
 11
117.3610397946
 21
148.7090253448
 31
0.0
  0
LINE
  5
DA
330
1F
100
AcDbEntity
  8
SLD-0
  6
HIDDEN
 62
     8
100
AcDbLine
 10
102.3610397946
 20
148.2166238768
 30
0.0
 11
102.3610397946
 21
148.7090253448
 31
0.0
  0
LINE
  5
DB
330
1F
100
AcDbEntity
  8
SLD-0
  6
HIDDEN
 62
     8
100
AcDbLine
 10
117.3610397946
 20
148.7090253448
 30
0.0
 11
117.3610397946
 21
153.9020048534
 31
0.0
  0
LINE
  5
DC
330
1F
100
AcDbEntity
  8
SLD-0
  6
HIDDEN
 62
     8
100
AcDbLine
 10
102.3610397946
 20
148.7090253448
 30
0.0
 11
102.3610397946
 21
153.9020048534
 31
0.0
  0
LINE
  5
DD
330
1F
100
AcDbEntity
  8
SLD-0
  6
HIDDEN
 62
     8
100
AcDbLine
 10
108.2082800619
 20
153.9166238768
 30
0.0
 11
102.3610397946
 21
153.9166238768
 31
0.0
  0
LINE
  5
DE
330
1F
100
AcDbEntity
  8
SLD-0
  6
HIDDEN
 62
     8
100
AcDbLine
 10
102.3610397946
 20
154.0044918424
 30
0.0
 11
102.3610397946
 21
153.9166238768
 31
0.0
  0
LINE
  5
DF
330
1F
100
AcDbEntity
  8
SLD-0
  6
HIDDEN
 62
     8
100
AcDbLine
 10
117.3610397946
 20
153.9166238769
 30
0.0
 11
111.5137995219
 21
153.9166238769
 31
0.0
  0
LINE
  5
E0
330
1F
100
AcDbEntity
  8
SLD-0
  6
HIDDEN
 62
     8
100
AcDbLine
 10
117.3610397946
 20
154.0044918424
 30
0.0
 11
117.3610397946
 21
153.9166238769
 31
0.0
  0
LINE
  5
E1
330
1F
100
AcDbEntity
  8
SLD-0
  6
HIDDEN
 62
     8
100
AcDbLine
 10
117.3610397946
 20
154.5287559111
 30
0.0
 11
117.3610397946
 21
154.0044918424
 31
0.0
  0
LINE
  5
E2
330
1F
100
AcDbEntity
  8
SLD-0
  6
HIDDEN
 62
     8
100
AcDbLine
 10
102.3610397946
 20
154.5287559111
 30
0.0
 11
102.3610397946
 21
154.0044918424
 31
0.0
  0
LINE
  5
E3
330
1F
100
AcDbEntity
  8
SLD-0
  6
HIDDEN
 62
     8
100
AcDbLine
 10
117.3610397946
 20
154.6166238768
 30
0.0
 11
102.3610397946
 21
154.6166238768
 31
0.0
  0
LINE
  5
E4
330
1F
100
AcDbEntity
  8
SLD-0
  6
HIDDEN
 62
     8
100
AcDbLine
 10
117.3610397946
 20
154.6166238768
 30
0.0
 11
117.3610397946
 21
154.5287559111
 31
0.0
  0
LINE
  5
E5
330
1F
100
AcDbEntity
  8
SLD-0
  6
HIDDEN
 62
     8
100
AcDbLine
 10
102.3610397946
 20
154.6166238768
 30
0.0
 11
102.3610397946
 21
154.5287559111
 31
0.0
  0
LINE
  5
E6
330
1F
100
AcDbEntity
  8
SLD-0
  6
HIDDEN
 62
     8
100
AcDbLine
 10
117.3610397946
 20
154.6166238768
 30
0.0
 11
102.3610397946
 21
154.6166238768
 31
0.0
  0
LINE
  5
E7
330
1F
100
AcDbEntity
  8
SLD-0
  6
HIDDEN
 62
     8
100
AcDbLine
 10
117.3610397946
 20
153.9020048534
 30
0.0
 11
117.3610397946
 21
154.6166238768
 31
0.0
  0
LINE
  5
E8
330
1F
100
AcDbEntity
  8
SLD-0
  6
HIDDEN
 62
     8
100
AcDbLine
 10
102.3610397946
 20
153.9020048534
 30
0.0
 11
102.3610397946
 21
154.6166238768
 31
0.0
  0
LINE
  5
E9
330
1F
100
AcDbEntity
  8
SLD-0
 62
   179
100
AcDbLine
 10
112.5578626577
 20
148.7090252017
 30
0.0
 11
112.3584734794
 21
149.0216985954
 31
0.0
  0
LINE
  5
EA
330
1F
100
AcDbEntity
  8
SLD-0
 62
   179
100
AcDbLine
 10
112.3584734794
 20
149.0216985954
 30
0.0
 11
112.1103796229
 21
149.3286755545
 31
0.0
  0
LINE
  5
EB
330
1F
100
AcDbEntity
  8
SLD-0
 62
   179
100
AcDbLine
 10
112.1103796229
 20
149.3286755545
 30
0.0
 11
111.814502399
 21
149.621070796
 31
0.0
  0
LINE
  5
EC
330
1F
100
AcDbEntity
  8
SLD-0
 62
   179
100
AcDbLine
 10
111.814502399
 20
149.621070796
 30
0.0
 11
111.5921076905
 21
149.8023527352
 31
0.0
  0
LINE
  5
ED
330
1F
100
AcDbEntity
  8
SLD-0
 62
   179
100
AcDbLine
 10
111.5921076905
 20
149.8023527352
 30
0.0
 11
111.3468408637
 21
149.9704993007
 31
0.0
  0
LINE
  5
EE
330
1F
100
AcDbEntity
  8
SLD-0
 62
   179
100
AcDbLine
 10
111.3468408637
 20
149.9704993007
 30
0.0
 11
111.079633474
 21
150.1200827447
 31
0.0
  0
LINE
  5
EF
330
1F
100
AcDbEntity
  8
SLD-0
 62
   179
100
AcDbLine
 10
111.079633474
 20
150.1200827447
 30
0.0
 11
110.7441374386
 21
150.2625604303
 31
0.0
  0
LINE
  5
F0
330
1F
100
AcDbEntity
  8
SLD-0
 62
   179
100
AcDbLine
 10
110.7441374386
 20
150.2625604303
 30
0.0
 11
110.3830215923
 21
150.3636899547
 31
0.0
  0
LINE
  5
F1
330
1F
100
AcDbEntity
  8
SLD-0
 62
   179
100
AcDbLine
 10
110.3830215923
 20
150.3636899547
 30
0.0
 11
110.1291907887
 21
150.4028367022
 31
0.0
  0
LINE
  5
F2
330
1F
100
AcDbEntity
  8
SLD-0
 62
   179
100
AcDbLine
 10
110.1291907887
 20
150.4028367022
 30
0.0
 11
109.8697734658
 21
150.4169548539
 31
0.0
  0
LINE
  5
F3
330
1F
100
AcDbEntity
  8
SLD-0
 62
   179
100
AcDbLine
 10
109.8697734658
 20
150.4169548539
 30
0.0
 11
109.6113409783
 21
150.405119141
 31
0.0
  0
LINE
  5
F4
330
1F
100
AcDbEntity
  8
SLD-0
 62
   179
100
AcDbLine
 10
109.6113409783
 20
150.405119141
 30
0.0
 11
109.2859967664
 21
150.3519885851
 31
0.0
  0
LINE
  5
F5
330
1F
100
AcDbEntity
  8
SLD-0
 62
   179
100
AcDbLine
 10
109.2859967664
 20
150.3519885851
 30
0.0
 11
108.9750886947
 21
150.2617338815
 31
0.0
  0
LINE
  5
F6
330
1F
100
AcDbEntity
  8
SLD-0
 62
   179
100
AcDbLine
 10
108.9750886947
 20
150.2617338815
 30
0.0
 11
108.7057505554
 21
150.1506687751
 31
0.0
  0
LINE
  5
F7
330
1F
100
AcDbEntity
  8
SLD-0
 62
   179
100
AcDbLine
 10
108.7057505554
 20
150.1506687751
 30
0.0
 11
108.4540275676
 21
150.0179990803
 31
0.0
  0
LINE
  5
F8
330
1F
100
AcDbEntity
  8
SLD-0
 62
   179
100
AcDbLine
 10
108.4540275676
 20
150.0179990803
 30
0.0
 11
108.2219964644
 21
149.8690917765
 31
0.0
  0
LINE
  5
F9
330
1F
100
AcDbEntity
  8
SLD-0
 62
   179
100
AcDbLine
 10
108.2219964644
 20
149.8690917765
 30
0.0
 11
107.9225363262
 21
149.6344073353
 31
0.0
  0
LINE
  5
FA
330
1F
100
AcDbEntity
  8
SLD-0
 62
   179
100
AcDbLine
 10
107.9225363262
 20
149.6344073353
 30
0.0
 11
107.660151092
 21
149.3811993537
 31
0.0
  0
LINE
  5
FB
330
1F
100
AcDbEntity
  8
SLD-0
 62
   179
100
AcDbLine
 10
107.660151092
 20
149.3811993537
 30
0.0
 11
107.4352318007
 21
149.1173873333
 31
0.0
  0
LINE
  5
FC
330
1F
100
AcDbEntity
  8
SLD-0
 62
   179
100
AcDbLine
 10
107.4352318007
 20
149.1173873333
 30
0.0
 11
107.289450714
 21
148.9141457392
 31
0.0
  0
LINE
  5
FD
330
1F
100
AcDbEntity
  8
SLD-0
 62
   179
100
AcDbLine
 10
107.289450714
 20
148.9141457392
 30
0.0
 11
107.1642169315
 21
148.7090252017
 31
0.0
  0
LINE
  5
FE
330
1F
100
AcDbEntity
  8
SLD-0
 62
   179
100
AcDbLine
 10
107.1642169315
 20
148.7090252017
 30
0.0
 11
107.0569355559
 21
148.5245837507
 31
0.0
  0
LINE
  5
FF
330
1F
100
AcDbEntity
  8
SLD-0
 62
   179
100
AcDbLine
 10
107.0569355559
 20
148.5245837507
 30
0.0
 11
106.8645992834
 21
148.2219672439
 31
0.0
  0
LINE
  5
100
330
1F
100
AcDbEntity
  8
SLD-0
 62
   179
100
AcDbLine
 10
112.8574803058
 20
148.2219672439
 30
0.0
 11
112.8573042858
 21
148.2222312739
 31
0.0
  0
LINE
  5
101
330
1F
100
AcDbEntity
  8
SLD-0
 62
   179
100
AcDbLine
 10
112.8573042858
 20
148.2222312739
 30
0.0
 11
112.8276255965
 21
148.2671028612
 31
0.0
  0
LINE
  5
102
330
1F
100
AcDbEntity
  8
SLD-0
 62
   179
100
AcDbLine
 10
112.8276255965
 20
148.2671028612
 30
0.0
 11
112.7759539574
 21
148.346670871
 31
0.0
  0
LINE
  5
103
330
1F
100
AcDbEntity
  8
SLD-0
 62
   179
100
AcDbLine
 10
112.7759539574
 20
148.346670871
 30
0.0
 11
112.703016033
 21
148.4625343842
 31
0.0
  0
LINE
  5
104
330
1F
100
AcDbEntity
  8
SLD-0
 62
   179
100
AcDbLine
 10
112.703016033
 20
148.4625343842
 30
0.0
 11
112.634317489
 21
148.5761762274
 31
0.0
  0
LINE
  5
105
330
1F
100
AcDbEntity
  8
SLD-0
 62
   179
100
AcDbLine
 10
112.634317489
 20
148.5761762274
 30
0.0
 11
112.5578626577
 21
148.7090252017
 31
0.0
  0
LINE
  5
106
330
1F
100
AcDbEntity
  8
SLD-0
  6
CENTERX2
 62
   179
100
AcDbLine
 10
109.8610397946
 20
146.7090253448
 30
0.0
 11
109.8610397946
 21
156.0044918424
 31
0.0
  0
LINE
  5
107
330
1F
100
AcDbEntity
  8
SLD-0
  6
Continuous
 62
   179
100
AcDbLine
 10
69.9816665812
 20
154.0044918424
 30
0.0
 11
70.5059306499
 21
154.5287559111
 31
0.0
  0
LINE
  5
108
330
1F
100
AcDbEntity
  8
SLD-0
  6
Continuous
 62
   179
100
AcDbLine
 10
70.7180626843
 20
154.6166238768
 30
0.0
 11
72.6937986156
 21
154.6166238768
 31
0.0
  0
LINE
  5
109
330
1F
100
AcDbEntity
  8
SLD-0
  6
Continuous
 62
   179
100
AcDbLine
 10
63.0937986156
 20
154.6166238768
 30
0.0
 11
65.0695345469
 21
154.6166238768
 31
0.0
  0
LINE
  5
10A
330
1F
100
AcDbEntity
  8
SLD-0
  6
Continuous
 62
   179
100
AcDbLine
 10
65.2816665813
 20
154.5287559111
 30
0.0
 11
65.80593065
 21
154.0044918424
 31
0.0
  0
LINE
  5
10B
330
1F
100
AcDbEntity
  8
SLD-0
  6
Continuous
 62
   179
100
AcDbLine
 10
66.0180626843
 20
153.9166238768
 30
0.0
 11
69.7695345469
 21
153.9166238768
 31
0.0
  0
LINE
  5
10C
330
1F
100
AcDbEntity
  8
SLD-0
 62
   179
100
AcDbLine
 10
70.8937986416
 20
150.416556015
 30
0.0
 11
70.8937986416
 21
150.4173737162
 31
0.0
  0
LINE
  5
10D
330
1F
100
AcDbEntity
  8
SLD-0
 62
   179
100
AcDbLine
 10
64.8937985895
 20
150.4173737162
 30
0.0
 11
64.8937985895
 21
150.416556015
 31
0.0
  0
LINE
  5
10E
330
1F
100
AcDbEntity
  8
SLD-0
  6
CENTERX2
 62
   179
100
AcDbLine
 10
67.8937986156
 20
146.7090253448
 30
0.0
 11
67.8937986156
 21
156.0044918424
 31
0.0
  0
ARC
  5
10F
330
1F
100
AcDbEntity
  8
SLD-0
  6
Continuous
 62
   179
100
AcDbCircle
 10
109.8610397946
 20
189.5271753203
 30
0.0
 40
2.499999617018172
100
AcDbArc
 50
56.6311745679
 51
131.384107968
  0
ARC
  5
110
330
1F
100
AcDbEntity
  8
SLD-0
  6
Continuous
 62
   179
100
AcDbCircle
 10
109.8610397946
 20
189.5271753203
 30
0.0
 40
2.499999617018133
100
AcDbArc
 50
236.6311607974
 51
303.3688392025
  0
ARC
  5
111
330
1F
100
AcDbEntity
  8
SLD-0
  6
Continuous
 62
   179
100
AcDbCircle
 10
109.8610397946
 20
189.5271753203
 30
0.0
 40
2.499999617018172
100
AcDbArc
 50
48.6158920308
 51
56.6311745679
  0
ARC
  5
112
330
1F
100
AcDbEntity
  8
SLD-0
  6
Continuous
 62
   179
100
AcDbCircle
 10
109.8610397946
 20
189.5271753203
 30
0.0
 40
2.499999617018143
100
AcDbArc
 50
303.3688392025
 51
311.3841245195
  0
ARC
  5
113
330
1F
100
AcDbEntity
  8
SLD-0
  6
Continuous
 62
   179
100
AcDbCircle
 10
109.8610397946
 20
189.5271753203
 30
0.0
 40
2.499999617018134
100
AcDbArc
 50
228.6158754816
 51
236.6311607974
  0
ARC
  5
114
330
1F
100
AcDbEntity
  8
SLD-0
  6
Continuous
 62
   179
100
AcDbCircle
 10
109.8610397946
 20
189.5271753203
 30
0.0
 40
2.499999617018168
100
AcDbArc
 50
311.3841245195
 51
48.6158920308
  0
ARC
  5
115
330
1F
100
AcDbEntity
  8
SLD-0
  6
Continuous
 62
   179
100
AcDbCircle
 10
109.8610397946
 20
189.5271753203
 30
0.0
 40
2.499999617018165
100
AcDbArc
 50
131.384107968
 51
228.6158754816
  0
ARC
  5
116
330
1F
100
AcDbEntity
  8
SLD-0
  6
Continuous
 62
   179
100
AcDbCircle
 10
109.8610397946
 20
147.3086207275
 30
0.0
 40
2.546367144100767
100
AcDbArc
 50
33.3643873781
 51
146.635612622
  0
ARC
  5
117
330
1F
100
AcDbEntity
  8
SLD-0
  6
Continuous
 62
   179
100
AcDbCircle
 10
121.3846718594
 20
155.4453341479
 30
0.0
 40
11.56201497243124
100
AcDbArc
 50
215.6353226107
 51
218.6977485073
  0
ARC
  5
118
330
1F
100
AcDbEntity
  8
SLD-0
  6
Continuous
 62
   179
100
AcDbCircle
 10
98.4875607582
 20
155.3314999613
 30
0.0
 40
11.37365791057834
100
AcDbArc
 50
321.2768871659
 51
324.3900417152
  0
ARC
  5
119
330
1F
100
AcDbEntity
  8
SLD-0
  6
HIDDEN
 62
     8
100
AcDbCircle
 10
111.5297747713
 20
154.4498491231
 30
0.0
 40
0.533464499084844
100
AcDbArc
 50
236.5991386585
 51
268.2839509823
  0
ARC
  5
11A
330
1F
100
AcDbEntity
  8
SLD-0
  6
HIDDEN
 62
     8
100
AcDbCircle
 10
108.197247927
 20
154.434227176
 30
0.0
 40
0.5177208546767493
100
AcDbArc
 50
271.2210105287
 51
303.8958992334
  0
ARC
  5
11B
330
1F
100
AcDbEntity
  8
SLD-0
  6
HIDDEN
 62
     8
100
AcDbCircle
 10
108.192304818
 20
154.4498491229
 30
0.0
 40
0.5334644988354697
100
AcDbArc
 50
271.7160484244
 51
303.4008613377
  0
ARC
  5
11C
330
1F
100
AcDbEntity
  8
SLD-0
  6
HIDDEN
 62
     8
100
AcDbCircle
 10
109.8610397946
 20
151.9166239074
 30
0.0
 40
2.499999994303659
100
AcDbArc
 50
56.6311661913
 51
123.3688338095
  0
ARC
  5
11D
330
1F
100
AcDbEntity
  8
SLD-0
  6
HIDDEN
 62
     8
100
AcDbCircle
 10
111.5248316622
 20
154.4342271761
 30
0.0
 40
0.5177208547819596
100
AcDbArc
 50
236.104100768
 51
268.7789888728
  0
ARC
  5
11E
330
1F
100
AcDbEntity
  8
SLD-0
  6
HIDDEN
 62
     8
100
AcDbCircle
 10
121.2345188316
 20
155.3314999617
 30
0.0
 40
11.37365791129624
100
AcDbArc
 50
215.6099582845
 51
218.7231128335
  0
ARC
  5
11F
330
1F
100
AcDbEntity
  8
SLD-0
  6
HIDDEN
 62
     8
100
AcDbCircle
 10
109.8610397946
 20
147.3086207275
 30
0.0
 40
2.546367144100767
100
AcDbArc
 50
33.3643873781
 51
146.635612622
  0
ARC
  5
120
330
1F
100
AcDbEntity
  8
SLD-0
  6
HIDDEN
 62
     8
100
AcDbCircle
 10
98.3374077286
 20
155.445334149
 30
0.0
 40
11.56201497405304
100
AcDbArc
 50
321.3022514924
 51
324.3646773886
  0
ARC
  5
121
330
1F
100
AcDbEntity
  8
SLD-0
  6
HIDDEN
 62
     8
100
AcDbCircle
 10
109.8610397946
 20
151.9166239074
 30
0.0
 40
2.499999994303659
100
AcDbArc
 50
56.6311661913
 51
123.3688338095
  0
ARC
  5
122
330
1F
100
AcDbEntity
  8
SLD-0
  6
Continuous
 62
   179
100
AcDbCircle
 10
70.7180626843
 20
154.3166238768
 30
0.0
 40
0.299999999995805
100
AcDbArc
 50
90.0
 51
135.0000000135
  0
ARC
  5
123
330
1F
100
AcDbEntity
  8
SLD-0
  6
Continuous
 62
   179
100
AcDbCircle
 10
72.6937986156
 20
154.1166238768
 30
0.0
 40
0.5000000000000284
100
AcDbArc
 50
334.5807856125
 51
90.0
  0
ARC
  5
124
330
1F
100
AcDbEntity
  8
SLD-0
  6
Continuous
 62
   179
100
AcDbCircle
 10
58.694331965
 20
160.7698136005
 30
0.0
 40
16.00000000001958
100
AcDbArc
 50
311.0794373955
 51
334.5807856117
  0
ARC
  5
125
330
1F
100
AcDbEntity
  8
SLD-0
  6
Continuous
 62
   179
100
AcDbCircle
 10
67.8937986156
 20
150.2166238768
 30
0.0
 40
2.00000000000899
100
AcDbArc
 50
228.9205626036
 51
311.0794373934
  0
ARC
  5
126
330
1F
100
AcDbEntity
  8
SLD-0
  6
Continuous
 62
   179
100
AcDbCircle
 10
65.0695345469
 20
154.3166238768
 30
0.0
 40
0.300000000031135
100
AcDbArc
 50
45.0
 51
90.0
  0
ARC
  5
127
330
1F
100
AcDbEntity
  8
SLD-0
  6
Continuous
 62
   179
100
AcDbCircle
 10
66.0180626843
 20
154.2166238768
 30
0.0
 40
0.2999999999604484
100
AcDbArc
 50
225.0
 51
270.0
  0
ARC
  5
128
330
1F
100
AcDbEntity
  8
SLD-0
  6
Continuous
 62
   179
100
AcDbCircle
 10
69.7695345469
 20
154.2166238768
 30
0.0
 40
0.2999999999958242
100
AcDbArc
 50
270.0
 51
314.9999999865
  0
ARC
  5
129
330
1F
100
AcDbEntity
  8
SLD-0
  6
Continuous
 62
   179
100
AcDbCircle
 10
77.093265266
 20
160.7698136006
 30
0.0
 40
15.99999999995395
100
AcDbArc
 50
205.4192143891
 51
228.920562605
  0
ARC
  5
12A
330
1F
100
AcDbEntity
  8
SLD-0
  6
Continuous
 62
   179
100
AcDbCircle
 10
63.0937986156
 20
154.1166238768
 30
0.0
 40
0.5000000000385697
100
AcDbArc
 50
90.0
 51
205.4192143883
  0
DIMENSION
  5
12B
330
1F
100
AcDbEntity
  8
SLD-0
 62
     7
100
AcDbDimension
  2
*D4
 10
109.8610397946
 20
202.0422252574
 30
0.0
 11
113.6110397946
 21
202.0422252574
 31
0.0
 70
   160
 71
     1
 42
7.5
  3
SLDDIMSTYLE0
100
AcDbAlignedDimension
 13
117.3610397946
 23
194.8271758665
 33
0.0
 14
109.8610397946
 24
194.5271758665
 34
0.0
100
AcDbRotatedDimension
1001
ACAD
1000
DSTYLE
1002
{
1070
    77
1070
     3
1070
   143
1040
0.0393700787
1070
    41
1040
3.0
1070
    44
1040
1.0
1070
    42
1040
1.0
1070
   147
1040
1.524
1070
    73
1070
     0
1070
    74
1070
     0
1070
   140
1040
3.5
1070
   284
1070
    12
1070
    78
1070
    12
1002
}
  0
DIMENSION
  5
14A
330
1F
100
AcDbEntity
  8
SLD-0
 62
     7
100
AcDbDimension
  2
*D6
 10
117.3610397946
 20
209.1075672969
 30
0.0
 11
109.8610397946
 21
209.1075672969
 31
0.0
 70
   160
 71
     1
 42
15.0
  3
SLDDIMSTYLE1
100
AcDbAlignedDimension
 13
102.3610397946
 23
194.8271758665
 33
0.0
 14
117.3610397946
 24
194.8271758665
 34
0.0
100
AcDbRotatedDimension
1001
ACAD
1000
DSTYLE
1002
{
1070
    77
1070
     3
1070
   143
1040
0.0393700787
1070
    41
1040
3.0
1070
    44
1040
1.0
1070
    42
1040
1.0
1070
   147
1040
1.524
1070
    73
1070
     0
1070
    74
1070
     0
1070
   140
1040
3.5
1070
   284
1070
    12
1070
    78
1070
    12
1002
}
  0
DIMENSION
  5
162
330
1F
100
AcDbEntity
  8
SLD-0
 62
     7
100
AcDbDimension
  2
*D7
 10
139.9564547677
 20
184.2271758665
 30
0.0
 11
139.9564547677
 21
177.2406773623
 31
0.0
 70
   160
 71
     1
 42
10.6
  3
SLDDIMSTYLE0
100
AcDbAlignedDimension
 13
117.3610397946
 23
194.8271758665
 33
0.0
 14
117.3610397946
 24
184.2271758665
 34
0.0
 50
90.0
100
AcDbRotatedDimension
1001
ACAD
1000
DSTYLE
1002
{
1070
    77
1070
     3
1070
   143
1040
0.0393700787
1070
    41
1040
3.0
1070
    44
1040
1.0
1070
    42
1040
1.0
1070
   147
1040
1.524
1070
    73
1070
     0
1070
    74
1070
     0
1070
   140
1040
3.5
1070
   284
1070
    12
1070
    78
1070
    12
1002
}
  0
DIMENSION
  5
17B
330
1F
100
AcDbEntity
  8
SLD-0
 62
     7
100
AcDbDimension
  2
*D8
 10
128.4252181712
 20
189.5271758665
 30
0.0
 11
128.4252181712
 21
177.2406773623
 31
0.0
 70
   160
 71
     1
 42
5.3
  3
SLDDIMSTYLE0
100
AcDbAlignedDimension
 13
117.3610397946
 23
184.2271758665
 33
0.0
 14
114.8610397946
 24
189.5271758665
 34
0.0
 50
90.0
100
AcDbRotatedDimension
1001
ACAD
1000
DSTYLE
1002
{
1070
    77
1070
     3
1070
   143
1040
0.0393700787
1070
    41
1040
3.0
1070
    44
1040
1.0
1070
    42
1040
1.0
1070
   147
1040
1.524
1070
    73
1070
     0
1070
    74
1070
     0
1070
   140
1040
3.5
1070
   284
1070
    12
1070
    78
1070
    12
1002
}
  0
DIMENSION
  5
196
330
1F
100
AcDbEntity
  8
SLD-0
 62
     7
100
AcDbDimension
  2
*D9
 10
3.0073114061
 20
5.1880743056
 30
0.0
 11
96.1128948443
 21
-5.1909563104
 31
0.0
 70
   163
  1
M<><>
 71
     1
 42
5.9966688164
  3
SLDDIMSTYLE2
100
AcDbDiametricDimension
 15
0.0
 25
0.0
 35
0.0
 40
0.0
1001
ACAD
1000
DSTYLE
1002
{
1070
    77
1070
     0
1070
   143
1040
0.0393700787
1070
    41
1040
3.0
1070
    44
1040
1.0
1070
    42
1040
1.0
1070
   147
1040
1.524
1070
    73
1070
     1
1070
    74
1070
     1
1070
   140
1040
3.5
1070
   284
1070
    12
1070
    78
1070
    12
1002
}
  0
MTEXT
  5
1A9
330
1F
100
AcDbEntity
  8
SLD-0
 62
     7
100
AcDbMText
 10
156.974176547
 20
15.3244265214
 30
0.0
 40
3.5
 41
0.0
 71
     1
 72
     1
  1
131056
  7
SLDTEXTSTYLE2
 73
     1
 44
1.0
  0
MTEXT
  5
1AA
330
1F
100
AcDbEntity
  8
SLD-0
 62
     7
100
AcDbMText
 10
147.3083984572
 20
28.9925274519
 30
0.0
 40
4.2333333333
 41
0.0
 71
     1
 72
     1
  1
N01914-103-0
  7
SLDTEXTSTYLE1
 73
     1
 44
1.0
  0
MTEXT
  5
1AB
330
1F
100
AcDbEntity
  8
SLD-0
 62
     7
100
AcDbMText
 10
155.2151308044
 20
42.5163410687
 30
0.0
 40
4.2333333333
 41
0.0
 71
     1
 72
     1
  1
Nut M6
  7
SLDTEXTSTYLE1
 73
     1
 44
1.0
  0
INSERT
  5
1AC
330
1F
100
AcDbEntity
  8
0
  6
Continuous
 62
     7
370
     0
100
AcDbBlockReference
  2
SURFACEFINISH39
 10
176.1663369538
 20
249.0193918395
 30
0.0
  0
INSERT
  5
1AD
330
1F
100
AcDbEntity
  8
0
  6
Continuous
 62
     7
370
     0
100
AcDbBlockReference
  2
注記
 10
109.57186908
 20
55.8552098929
 30
0.0
  0
INSERT
  5
1AE
330
1F
100
AcDbEntity
  8
0
  6
Continuous
 62
     7
370
     0
100
AcDbBlockReference
  2
SW_CENTERMARK0
 10
0.0
 20
0.0
 30
0.0
  0
ENDSEC
  0
SECTION
  2
OBJECTS
  0
DICTIONARY
  5
C
330
0
100
AcDbDictionary
281
     1
  3
ACAD_GROUP
350
D
  3
ACAD_LAYOUT
350
1A
  3
ACAD_MLINESTYLE
350
17
  3
ACAD_PLOTSETTINGS
350
19
  3
ACAD_PLOTSTYLENAME
350
E
  0
DICTIONARY
  5
D
102
{ACAD_REACTORS
330
C
102
}
330
C
100
AcDbDictionary
281
     1
  0
DICTIONARY
  5
1A
102
{ACAD_REACTORS
330
C
102
}
330
C
100
AcDbDictionary
281
     1
  3
Layout1
350
1E
  3
Layout2
350
26
  3
Model
350
22
  0
DICTIONARY
  5
17
102
{ACAD_REACTORS
330
C
102
}
330
C
100
AcDbDictionary
281
     1
  3
Standard
350
18
  0
DICTIONARY
  5
19
102
{ACAD_REACTORS
330
C
102
}
330
C
100
AcDbDictionary
281
     1
  0
ACDBDICTIONARYWDFLT
  5
E
102
{ACAD_REACTORS
330
C
102
}
330
C
100
AcDbDictionary
281
     1
  3
Normal
350
F
100
AcDbDictionaryWithDefault
340
F
  0
LAYOUT
  5
1E
102
{ACAD_REACTORS
330
1A
102
}
330
1A
100
AcDbPlotSettings
  1

  2

  4

  6

 40
0.0
 41
0.0
 42
0.0
 43
0.0
 44
0.0
 45
0.0
 46
0.0
 47
0.0
 48
0.0
 49
0.0
140
0.0
141
0.0
142
1.0
143
1.0
 70
   688
 72
     0
 73
     0
 74
     5
  7

 75
    16
147
1.0
148
0.0
149
0.0
100
AcDbLayout
  1
Layout1
 70
     1
 71
     1
 10
0.0
 20
0.0
 11
0.0
 21
0.0
 12
0.0
 22
0.0
 32
0.0
 14
0.0
 24
0.0
 34
0.0
 15
0.0
 25
0.0
 35
0.0
146
0.0
 13
0.0
 23
0.0
 33
0.0
 16
1.0
 26
0.0
 36
0.0
 17
0.0
 27
1.0
 37
0.0
 76
     0
330
1B
  0
LAYOUT
  5
26
102
{ACAD_REACTORS
330
1A
102
}
330
1A
100
AcDbPlotSettings
  1

  2

  4

  6

 40
0.0
 41
0.0
 42
0.0
 43
0.0
 44
0.0
 45
0.0
 46
0.0
 47
0.0
 48
0.0
 49
0.0
140
0.0
141
0.0
142
1.0
143
1.0
 70
   688
 72
     0
 73
     0
 74
     5
  7

 75
    16
147
1.0
148
0.0
149
0.0
100
AcDbLayout
  1
Layout2
 70
     1
 71
     2
 10
0.0
 20
0.0
 11
0.0
 21
0.0
 12
0.0
 22
0.0
 32
0.0
 14
0.0
 24
0.0
 34
0.0
 15
0.0
 25
0.0
 35
0.0
146
0.0
 13
0.0
 23
0.0
 33
0.0
 16
1.0
 26
0.0
 36
0.0
 17
0.0
 27
1.0
 37
0.0
 76
     0
330
23
  0
LAYOUT
  5
22
102
{ACAD_REACTORS
330
1A
102
}
330
1A
100
AcDbPlotSettings
  1

  2

  4

  6

 40
0.0
 41
0.0
 42
0.0
 43
0.0
 44
0.0
 45
0.0
 46
0.0
 47
0.0
 48
0.0
 49
0.0
140
0.0
141
0.0
142
1.0
143
1.0
 70
  1712
 72
     0
 73
     0
 74
     0
  7

 75
     0
147
1.0
148
0.0
149
0.0
100
AcDbLayout
  1
Model
 70
     1
 71
     0
 10
0.0
 20
0.0
 11
0.0
 21
0.0
 12
0.0
 22
0.0
 32
0.0
 14
0.0
 24
0.0
 34
0.0
 15
210.0
 25
297.0
 35
0.0
146
0.0
 13
0.0
 23
0.0
 33
0.0
 16
1.0
 26
0.0
 36
0.0
 17
0.0
 27
1.0
 37
0.0
 76
     0
330
1F
  0
MLINESTYLE
  5
18
102
{ACAD_REACTORS
330
17
102
}
330
17
100
AcDbMlineStyle
  2
Standard
 70
     0
  3

 62
   256
 51
90.0
 52
90.0
 71
     2
 49
0.5
 62
   256
  6
BYLAYER
 49
-0.5
 62
   256
  6
BYLAYER
  0
ACDBPLACEHOLDER
  5
F
102
{ACAD_REACTORS
330
E
102
}
330
E
  0
ENDSEC
  0
EOF
