  0
SECTION
  2
HEADER
  9
$ACADVER
  1
AC1015
  9
$ACADMAINTVER
 70
     6
  9
$DWGCODEPAGE
  3
DOS932
  9
$INSBASE
 10
0.0
 20
0.0
 30
0.0
  9
$EXTMIN
 10
0.0
 20
0.0
 30
0.0
  9
$EXTMAX
 10
210.0
 20
297.0
 30
0.0
  9
$LIMMIN
 10
0.0
 20
0.0
  9
$LIMMAX
 10
0.0
 20
0.0
  9
$ORTHOMODE
 70
     0
  9
$REGENMODE
 70
     1
  9
$FILLMODE
 70
     1
  9
$QTEXTMODE
 70
     0
  9
$MIRRTEXT
 70
     1
  9
$LTSCALE
 40
1.0
  9
$ATTMODE
 70
     1
  9
$TEXTSIZE
 40
3.5
  9
$TRACEWID
 40
1.0
  9
$TEXTSTYLE
  7
Standard
  9
$CLAYER
  8
0
  9
$CELTYPE
  6
ByLayer
  9
$CECOLOR
 62
   256
  9
$CELTSCALE
 40
1.0
  9
$DISPSILH
 70
     0
  9
$DIMSCALE
 40
1.0
  9
$DIMASZ
 40
3.0
  9
$DIMEXO
 40
1.0
  9
$DIMDLI
 40
3.75
  9
$DIMRND
 40
0.0
  9
$DIMDLE
 40
0.0
  9
$DIMEXE
 40
1.0
  9
$DIMTP
 40
0.0
  9
$DIMTM
 40
0.0
  9
$DIMTXT
 40
3.5
  9
$DIMCEN
 40
2.5
  9
$DIMTSZ
 40
0.0
  9
$DIMTOL
 70
     0
  9
$DIMLIM
 70
     0
  9
$DIMTIH
 70
     1
  9
$DIMTOH
 70
     1
  9
$DIMSE1
 70
     0
  9
$DIMSE2
 70
     0
  9
$DIMTAD
 70
     1
  9
$DIMZIN
 70
     1
  9
$DIMBLK
  1

  9
$DIMASO
 70
     1
  9
$DIMSHO
 70
     1
  9
$DIMPOST
  1

  9
$DIMAPOST
  1

  9
$DIMALT
 70
     0
  9
$DIMALTD
 70
     3
  9
$DIMALTF
 40
0.0393700787
  9
$DIMLFAC
 40
1.0
  9
$DIMTOFL
 70
     1
  9
$DIMTVP
 40
0.0
  9
$DIMTIX
 70
     0
  9
$DIMSOXD
 70
     0
  9
$DIMSAH
 70
     0
  9
$DIMBLK1
  1

  9
$DIMBLK2
  1

  9
$DIMSTYLE
  2
ISO-25
  9
$DIMCLRD
 70
     0
  9
$DIMCLRE
 70
     0
  9
$DIMCLRT
 70
     0
  9
$DIMTFAC
 40
1.0
  9
$DIMGAP
 40
1.524
  9
$DIMJUST
 70
     0
  9
$DIMSD1
 70
     0
  9
$DIMSD2
 70
     0
  9
$DIMTOLJ
 70
     0
  9
$DIMTZIN
 70
     1
  9
$DIMALTZ
 70
     0
  9
$DIMALTTZ
 70
     0
  9
$DIMUPT
 70
     0
  9
$DIMDEC
 70
     2
  9
$DIMTDEC
 70
     2
  9
$DIMALTU
 70
     2
  9
$DIMALTTD
 70
     3
  9
$DIMTXSTY
  7
Standard
  9
$DIMAUNIT
 70
     0
  9
$DIMADEC
 70
     0
  9
$DIMALTRND
 40
0.0
  9
$DIMAZIN
 70
     0
  9
$DIMDSEP
 70
    44
  9
$DIMATFIT
 70
     3
  9
$DIMFRAC
 70
     0
  9
$DIMLDRBLK
  1

  9
$DIMLUNIT
 70
     2
  9
$DIMLWD
 70
    -2
  9
$DIMLWE
 70
    -2
  9
$DIMTMOVE
 70
     0
  9
$LUNITS
 70
     2
  9
$LUPREC
 70
     1
  9
$SKETCHINC
 40
1.0
  9
$FILLETRAD
 40
10.0
  9
$AUNITS
 70
     0
  9
$AUPREC
 70
     0
  9
$MENU
  1
.
  9
$ELEVATION
 40
0.0
  9
$PELEVATION
 40
0.0
  9
$THICKNESS
 40
0.0
  9
$LIMCHECK
 70
     0
  9
$CHAMFERA
 40
10.0
  9
$CHAMFERB
 40
10.0
  9
$CHAMFERC
 40
20.0
  9
$CHAMFERD
 40
0.0
  9
$SKPOLY
 70
     0
  9
$TDCREATE
 40
2454309.43326985
  9
$TDUCREATE
 40
2454309.05826985
  9
$TDUPDATE
 40
2454309.433269861
  9
$TDUUPDATE
 40
2454309.058269861
  9
$TDINDWG
 40
0.0000000116
  9
$TDUSRTIMER
 40
0.0000000116
  9
$USRTIMER
 70
     1
  9
$ANGBASE
 50
0.0
  9
$ANGDIR
 70
     0
  9
$PDMODE
 70
     0
  9
$PDSIZE
 40
-1.0
  9
$PLINEWID
 40
0.0
  9
$SPLFRAME
 70
     0
  9
$SPLINETYPE
 70
     6
  9
$SPLINESEGS
 70
     8
  9
$HANDSEED
  5
240
  9
$SURFTAB1
 70
     6
  9
$SURFTAB2
 70
     6
  9
$SURFTYPE
 70
     6
  9
$SURFU
 70
     6
  9
$SURFV
 70
     6
  9
$UCSBASE
  2

  9
$UCSNAME
  2

  9
$UCSORG
 10
0.0
 20
0.0
 30
0.0
  9
$UCSXDIR
 10
1.0
 20
0.0
 30
0.0
  9
$UCSYDIR
 10
0.0
 20
1.0
 30
0.0
  9
$UCSORTHOREF
  2

  9
$UCSORTHOVIEW
 70
     0
  9
$UCSORGTOP
 10
0.0
 20
0.0
 30
0.0
  9
$UCSORGBOTTOM
 10
0.0
 20
0.0
 30
0.0
  9
$UCSORGLEFT
 10
0.0
 20
0.0
 30
0.0
  9
$UCSORGRIGHT
 10
0.0
 20
0.0
 30
0.0
  9
$UCSORGFRONT
 10
0.0
 20
0.0
 30
0.0
  9
$UCSORGBACK
 10
0.0
 20
0.0
 30
0.0
  9
$PUCSBASE
  2

  9
$PUCSNAME
  2

  9
$PUCSORG
 10
0.0
 20
0.0
 30
0.0
  9
$PUCSXDIR
 10
1.0
 20
0.0
 30
0.0
  9
$PUCSYDIR
 10
0.0
 20
1.0
 30
0.0
  9
$PUCSORTHOREF
  2

  9
$PUCSORTHOVIEW
 70
     0
  9
$PUCSORGTOP
 10
0.0
 20
0.0
 30
0.0
  9
$PUCSORGBOTTOM
 10
0.0
 20
0.0
 30
0.0
  9
$PUCSORGLEFT
 10
0.0
 20
0.0
 30
0.0
  9
$PUCSORGRIGHT
 10
0.0
 20
0.0
 30
0.0
  9
$PUCSORGFRONT
 10
0.0
 20
0.0
 30
0.0
  9
$PUCSORGBACK
 10
0.0
 20
0.0
 30
0.0
  9
$USERI1
 70
     0
  9
$USERI2
 70
     0
  9
$USERI3
 70
     0
  9
$USERI4
 70
     0
  9
$USERI5
 70
     0
  9
$USERR1
 40
0.0
  9
$USERR2
 40
0.0
  9
$USERR3
 40
0.0
  9
$USERR4
 40
0.0
  9
$USERR5
 40
0.0
  9
$WORLDVIEW
 70
     1
  9
$SHADEDGE
 70
     3
  9
$SHADEDIF
 70
    70
  9
$TILEMODE
 70
     1
  9
$MAXACTVP
 70
    64
  9
$PINSBASE
 10
0.0
 20
0.0
 30
0.0
  9
$PLIMCHECK
 70
     0
  9
$PEXTMIN
 10
1.0000000000E+20
 20
1.0000000000E+20
 30
1.0000000000E+20
  9
$PEXTMAX
 10
-1.0000000000E+20
 20
-1.0000000000E+20
 30
-1.0000000000E+20
  9
$PLIMMIN
 10
0.0
 20
0.0
  9
$PLIMMAX
 10
420.0
 20
297.0
  9
$UNITMODE
 70
     0
  9
$VISRETAIN
 70
     1
  9
$PLINEGEN
 70
     0
  9
$PSLTSCALE
 70
     1
  9
$TREEDEPTH
 70
  3020
  9
$CMLSTYLE
  2
Standard
  9
$CMLJUST
 70
     0
  9
$CMLSCALE
 40
20.0
  9
$PROXYGRAPHICS
 70
     1
  9
$MEASUREMENT
 70
     1
  9
$CELWEIGHT
370
    -1
  9
$ENDCAPS
280
     0
  9
$JOINSTYLE
280
     0
  9
$LWDISPLAY
290
     1
  9
$INSUNITS
 70
     4
  9
$HYPERLINKBASE
  1

  9
$STYLESHEET
  1

  9
$XEDIT
290
     1
  9
$CEPSNTYPE
380
     0
  9
$PSTYLEMODE
290
     1
  9
$FINGERPRINTGUID
  2
{BE9D901D-17A0-4FFE-9412-A9E46CF70C12}
  9
$VERSIONGUID
  2
{FAEB1C32-E019-11D5-929B-00C0DF256EC4}
  9
$EXTNAMES
290
     1
  9
$PSVPSCALE
 40
0.0
  9
$OLESTARTUP
290
     0
  0
ENDSEC
  0
SECTION
  2
CLASSES
  0
CLASS
  1
ACDBDICTIONARYWDFLT
  2
AcDbDictionaryWithDefault
  3
ObjectDBX Classes
 90
        0
280
     0
281
     0
  0
CLASS
  1
ACDBPLACEHOLDER
  2
AcDbPlaceHolder
  3
ObjectDBX Classes
 90
        0
280
     0
281
     0
  0
CLASS
  1
LAYOUT
  2
AcDbLayout
  3
ObjectDBX Classes
 90
        0
280
     0
281
     0
  0
ENDSEC
  0
SECTION
  2
TABLES
  0
TABLE
  2
VPORT
  5
8
330
0
100
AcDbSymbolTable
 70
     1
  0
VPORT
  5
29
330
8
100
AcDbSymbolTableRecord
100
AcDbViewportTableRecord
  2
*Active
 70
     0
 10
0.0
 20
0.0
 11
1.0
 21
1.0
 12
105.0
 22
148.5
 13
0.0
 23
0.0
 14
10.0
 24
10.0
 15
10.0
 25
10.0
 16
0.0
 26
0.0
 36
1.0
 17
0.0
 27
0.0
 37
0.0
 40
297.0
 41
1.9729729729
 42
50.0
 43
0.0
 44
0.0
 50
0.0
 51
0.0
 71
     0
 72
  2000
 73
     1
 74
     3
 75
     0
 76
     0
 77
     0
 78
     0
281
     0
 65
     1
110
0.0
120
0.0
130
0.0
111
1.0
121
0.0
131
0.0
112
0.0
122
1.0
132
0.0
 79
     0
146
0.0
  0
ENDTAB
  0
TABLE
  2
LTYPE
  5
5
330
0
100
AcDbSymbolTable
 70
     6
  0
LTYPE
  5
14
330
5
100
AcDbSymbolTableRecord
100
AcDbLinetypeTableRecord
  2
ByBlock
 70
     0
  3

 72
    65
 73
     0
 40
0.0
  0
LTYPE
  5
15
330
5
100
AcDbSymbolTableRecord
100
AcDbLinetypeTableRecord
  2
ByLayer
 70
     0
  3

 72
    65
 73
     0
 40
0.0
  0
LTYPE
  5
16
330
5
100
AcDbSymbolTableRecord
100
AcDbLinetypeTableRecord
  2
Continuous
 70
     0
  3
Solid line
 72
    65
 73
     0
 40
0.0
  0
LTYPE
  5
2A
330
5
100
AcDbSymbolTableRecord
100
AcDbLinetypeTableRecord
  2
HIDDEN
 70
     0
  3
Hidden __ __ __ __ __ __ __ __ __ __ __ __ __ __
 72
    65
 73
     2
 40
1.905
 49
1.27
 74
     0
 49
-0.635
 74
     0
  0
LTYPE
  5
2B
330
5
100
AcDbSymbolTableRecord
100
AcDbLinetypeTableRecord
  2
PHANTOM
 70
     0
  3
Phantom ______  __  __  ______  __  __  ______
 72
    65
 73
     6
 40
12.7
 49
6.35
 74
     0
 49
-1.27
 74
     0
 49
1.27
 74
     0
 49
-1.27
 74
     0
 49
1.27
 74
     0
 49
-1.27
 74
     0
  0
LTYPE
  5
2C
330
5
100
AcDbSymbolTableRecord
100
AcDbLinetypeTableRecord
  2
CENTER
 70
     0
  3
Center ____ _ ____ _ ____ _ ____ _ ____ _ ____
 72
    65
 73
     4
 40
10.16
 49
6.35
 74
     0
 49
-1.27
 74
     0
 49
1.27
 74
     0
 49
-1.27
 74
     0
  0
LTYPE
  5
2D
330
5
100
AcDbSymbolTableRecord
100
AcDbLinetypeTableRecord
  2
CENTERX2
 70
     0
  3
Center (2x) ________  __  ________  __  _____
 72
    65
 73
     4
 40
20.32
 49
12.7
 74
     0
 49
-2.54
 74
     0
 49
2.54
 74
     0
 49
-2.54
 74
     0
  0
LTYPE
  5
2E
330
5
100
AcDbSymbolTableRecord
100
AcDbLinetypeTableRecord
  2
DOT2
 70
     0
  3
Dot (.5x) ........................................
 72
    65
 73
     2
 40
0.635
 49
0.0
 74
     0
 49
-0.635
 74
     0
  0
ENDTAB
  0
TABLE
  2
LAYER
  5
2
330
0
100
AcDbSymbolTable
 70
     4
  0
LAYER
  5
10
330
2
100
AcDbSymbolTableRecord
100
AcDbLayerTableRecord
  2
0
 70
     0
 62
     7
  6
Continuous
370
    -3
390
F
  0
LAYER
  5
2F
330
2
100
AcDbSymbolTableRecord
100
AcDbLayerTableRecord
  2
SLD-0
 70
     0
 62
   179
  6
Continuous
370
     0
390
F
  0
LAYER
  5
30
330
2
100
AcDbSymbolTableRecord
100
AcDbLayerTableRecord
  2
SLD-DEFPOINTS
 70
     0
 62
   179
  6
Continuous
370
     0
390
F
  0
LAYER
  5
1A5
330
2
100
AcDbSymbolTableRecord
100
AcDbLayerTableRecord
  2
Defpoints
 70
     0
 62
     7
  6
Continuous
290
     0
370
    -3
390
F
  0
ENDTAB
  0
TABLE
  2
STYLE
  5
3
330
0
100
AcDbSymbolTable
 70
     3
  0
STYLE
  5
11
330
3
100
AcDbSymbolTableRecord
100
AcDbTextStyleTableRecord
  2
Standard
 70
     0
 40
0.0
 41
1.0
 50
0.0
 71
     0
 42
2.5
  3
txt
  4
bigfont
  0
STYLE
  5
34
330
3
100
AcDbSymbolTableRecord
100
AcDbTextStyleTableRecord
  2
SLDTEXTSTYLE0
 70
     0
 40
0.0
 41
0.7
 50
0.0
 71
     0
 42
0.2
  3
TXT
  4
bigfont
  0
STYLE
  5
3C
330
3
100
AcDbSymbolTableRecord
100
AcDbTextStyleTableRecord
  2
SLDTEXTSTYLE1
 70
     0
 40
0.0
 41
0.5526315789
 50
0.0
 71
     0
 42
0.2
  3
TXT
  4
bigfont
  0
ENDTAB
  0
TABLE
  2
VIEW
  5
6
330
0
100
AcDbSymbolTable
 70
     0
  0
ENDTAB
  0
TABLE
  2
UCS
  5
7
330
0
100
AcDbSymbolTable
 70
     0
  0
ENDTAB
  0
TABLE
  2
APPID
  5
9
330
0
100
AcDbSymbolTable
 70
     1
  0
APPID
  5
12
330
9
100
AcDbSymbolTableRecord
100
AcDbRegAppTableRecord
  2
ACAD
 70
     0
  0
ENDTAB
  0
TABLE
  2
DIMSTYLE
  5
A
330
0
100
AcDbSymbolTable
 70
     4
100
AcDbDimStyleTable
  0
DIMSTYLE
105
27
330
A
100
AcDbSymbolTableRecord
100
AcDbDimStyleTableRecord
  2
ISO-25
 70
     0
 41
2.5
 42
0.625
 43
3.75
 44
1.25
 73
     0
 74
     0
 77
     1
 78
     8
140
2.5
141
2.5
143
0.0393700787
147
0.625
171
     3
172
     1
271
     2
272
     2
274
     3
278
    44
283
     0
284
     8
340
11
  0
DIMSTYLE
105
1B5
102
{ACAD_REACTORS
330
1A4
330
205
330
21E
102
}
330
A
100
AcDbSymbolTableRecord
100
AcDbDimStyleTableRecord
  2
SLDDIMSTYLE0
 70
     0
 41
3.0
 44
0.0
 73
     0
 74
     0
 77
     3
 78
    12
140
3.5
147
0.875
173
     1
271
     1
272
     3
284
    12
340
3C
341
1B6
343
1B6
344
1B6
  0
DIMSTYLE
105
1D2
102
{ACAD_REACTORS
330
1C5
330
1DD
102
}
330
A
100
AcDbSymbolTableRecord
100
AcDbDimStyleTableRecord
  2
SLDDIMSTYLE1
 70
     0
 41
3.0
 44
0.0
 73
     0
 74
     0
 77
     3
 78
    12
140
3.5
147
0.875
173
     1
271
     0
272
     3
284
    12
340
3C
341
1B6
343
1B6
344
1B6
  0
DIMSTYLE
105
1FE
102
{ACAD_REACTORS
330
1F4
102
}
330
A
100
AcDbSymbolTableRecord
100
AcDbDimStyleTableRecord
  2
SLDDIMSTYLE2
 70
     0
 41
3.0
 44
0.0
 78
    12
140
3.5
147
0.875
172
     1
173
     1
271
     0
272
     3
284
    12
340
3C
341
1B6
343
1B6
344
1B6
  0
ENDTAB
  0
TABLE
  2
BLOCK_RECORD
  5
1
330
0
100
AcDbSymbolTable
 70
    12
  0
BLOCK_RECORD
  5
1F
330
1
100
AcDbSymbolTableRecord
100
AcDbBlockTableRecord
  2
*Model_Space
340
22
  0
BLOCK_RECORD
  5
1B
330
1
100
AcDbSymbolTableRecord
100
AcDbBlockTableRecord
  2
*Paper_Space
340
1E
  0
BLOCK_RECORD
  5
23
330
1
100
AcDbSymbolTableRecord
100
AcDbBlockTableRecord
  2
*Paper_Space0
340
26
  0
BLOCK_RECORD
  5
31
330
1
100
AcDbSymbolTableRecord
100
AcDbBlockTableRecord
  2
注記
340
0
102
{BLKREFS
331
23D
102
}
  0
BLOCK_RECORD
  5
37
330
1
100
AcDbSymbolTableRecord
100
AcDbBlockTableRecord
  2
SURFACEFINISH39
340
0
102
{BLKREFS
331
23C
102
}
  0
BLOCK_RECORD
  5
3E
330
1
100
AcDbSymbolTableRecord
100
AcDbBlockTableRecord
  2
SW_CENTERMARK0
340
0
102
{BLKREFS
331
23E
102
}
  0
BLOCK_RECORD
  5
49
330
1
100
AcDbSymbolTableRecord
100
AcDbBlockTableRecord
  2
SW_CENTERMARK1
340
0
102
{BLKREFS
331
23F
102
}
  0
BLOCK_RECORD
  5
1A6
330
1
100
AcDbSymbolTableRecord
100
AcDbBlockTableRecord
  2
*D5
340
0
  0
BLOCK_RECORD
  5
1B6
330
1
100
AcDbSymbolTableRecord
100
AcDbBlockTableRecord
  2
_None
340
0
102
{BLKREFS
331
1AC
331
1AB
331
1CB
331
1CA
331
1E3
331
1E2
331
1F9
331
20C
331
20B
331
225
331
224
102
}
  0
BLOCK_RECORD
  5
1C6
330
1
100
AcDbSymbolTableRecord
100
AcDbBlockTableRecord
  2
*D7
340
0
  0
BLOCK_RECORD
  5
1DE
330
1
100
AcDbSymbolTableRecord
100
AcDbBlockTableRecord
  2
*D8
340
0
  0
BLOCK_RECORD
  5
1F5
330
1
100
AcDbSymbolTableRecord
100
AcDbBlockTableRecord
  2
*D9
340
0
  0
BLOCK_RECORD
  5
206
330
1
100
AcDbSymbolTableRecord
100
AcDbBlockTableRecord
  2
*D10
340
0
  0
BLOCK_RECORD
  5
21F
330
1
100
AcDbSymbolTableRecord
100
AcDbBlockTableRecord
  2
*D11
340
0
  0
ENDTAB
  0
ENDSEC
  0
SECTION
  2
BLOCKS
  0
BLOCK
  5
20
330
1F
100
AcDbEntity
  8
0
100
AcDbBlockBegin
  2
*Model_Space
 70
     0
 71
     0
 10
0.0
 20
0.0
 30
0.0
  3
*Model_Space
  1

  0
ENDBLK
  5
21
330
1F
100
AcDbEntity
  8
0
100
AcDbBlockEnd
  0
BLOCK
  5
1C
330
1B
100
AcDbEntity
 67
     1
  8
0
100
AcDbBlockBegin
  2
*Paper_Space
 70
     0
 71
     0
 10
0.0
 20
0.0
 30
0.0
  3
*Paper_Space
  1

  0
ENDBLK
  5
1D
330
1B
100
AcDbEntity
 67
     1
  8
0
100
AcDbBlockEnd
  0
BLOCK
  5
24
330
23
100
AcDbEntity
  8
0
100
AcDbBlockBegin
  2
*Paper_Space0
 70
     0
 71
     0
 10
0.0
 20
0.0
 30
0.0
  3
*Paper_Space0
  1

  0
ENDBLK
  5
25
330
23
100
AcDbEntity
  8
0
100
AcDbBlockEnd
  0
BLOCK
  5
32
330
31
100
AcDbEntity
  8
0
100
AcDbBlockBegin
  2
注記
 70
     0
 71
     0
 10
0.0
 20
0.0
 30
0.0
  3
注記
  1

  0
MTEXT
  5
35
330
31
100
AcDbEntity
  8
0
  6
Continuous
 62
     7
370
     0
100
AcDbMText
 10
0.2636785918
 20
9.0739778448
 30
0.0
 40
3.5
 41
0.0
 71
     1
 72
     1
  1
１．特記ナキ角部ハ、バリ　カエリノ無キコト。
  7
SLDTEXTSTYLE0
 73
     1
 44
1.0
  0
MTEXT
  5
36
330
31
100
AcDbEntity
  8
0
  6
Continuous
 62
     7
370
     0
100
AcDbMText
 10
0.2636785918
 20
3.5759549983
 30
0.0
 40
3.5
 41
0.0
 71
     1
 72
     1
  1
２．特記ナキ隅部ハ、Ｒ０．４ＭＡＸトスル。
  7
SLDTEXTSTYLE0
 73
     1
 44
1.0
  0
ENDBLK
  5
33
330
31
100
AcDbEntity
  8
0
100
AcDbBlockEnd
  0
BLOCK
  5
38
330
37
100
AcDbEntity
  8
0
100
AcDbBlockBegin
  2
SURFACEFINISH39
 70
     0
 71
     0
 10
0.0
 20
0.0
 30
0.0
  3
SURFACEFINISH39
  1

  0
LINE
  5
3A
330
37
100
AcDbEntity
  8
SLD-0
  6
Continuous
 62
   179
100
AcDbLine
 10
0.6656399396
 20
-6.0449245738
 30
0.0
 11
-2.9003789868
 21
0.0000001164
 31
0.0
  0
LINE
  5
3B
330
37
100
AcDbEntity
  8
SLD-0
  6
Continuous
 62
   179
100
AcDbLine
 10
0.6656399396
 20
-6.0449245738
 30
0.0
 11
7.7976777926
 21
6.0449248066
 31
0.0
  0
MTEXT
  5
3D
330
37
100
AcDbEntity
  8
SLD-0
100
AcDbMText
 10
0.0
 20
4.9341236929
 30
0.0
 40
3.175
 41
0.0
 71
     1
 72
     1
  1
25
  7
SLDTEXTSTYLE1
 73
     1
 44
1.0
  0
ENDBLK
  5
39
330
37
100
AcDbEntity
  8
0
100
AcDbBlockEnd
  0
BLOCK
  5
3F
330
3E
100
AcDbEntity
  8
0
100
AcDbBlockBegin
  2
SW_CENTERMARK0
 70
     0
 71
     0
 10
0.0
 20
0.0
 30
0.0
  3
SW_CENTERMARK0
  1

  0
LINE
  5
41
330
3E
100
AcDbEntity
  8
SLD-0
  6
Continuous
 62
   179
100
AcDbLine
 10
99.8610400181
 20
189.5271756757
 30
0.0
 11
99.8610397946
 21
192.0271758665
 31
0.0
  0
LINE
  5
42
330
3E
100
AcDbEntity
  8
SLD-0
  6
Continuous
 62
   179
100
AcDbLine
 10
99.8610400181
 20
189.5271756757
 30
0.0
 11
97.3610397946
 21
189.5271758665
 31
0.0
  0
LINE
  5
43
330
3E
100
AcDbEntity
  8
SLD-0
  6
Continuous
 62
   179
100
AcDbLine
 10
99.8610400181
 20
189.5271756757
 30
0.0
 11
99.8610397946
 21
187.0271758665
 31
0.0
  0
LINE
  5
44
330
3E
100
AcDbEntity
  8
SLD-0
  6
Continuous
 62
   179
100
AcDbLine
 10
99.8610400181
 20
189.5271756757
 30
0.0
 11
102.3610397946
 21
189.5271758665
 31
0.0
  0
LINE
  5
45
330
3E
100
AcDbEntity
  8
SLD-0
  6
Continuous
 62
   179
100
AcDbLine
 10
99.8610397946
 20
192.0271758665
 30
0.0
 11
99.8610397946
 21
194.5271758665
 31
0.0
  0
LINE
  5
46
330
3E
100
AcDbEntity
  8
SLD-0
  6
Continuous
 62
   179
100
AcDbLine
 10
97.3610397946
 20
189.5271758665
 30
0.0
 11
94.8610397946
 21
189.5271758665
 31
0.0
  0
LINE
  5
47
330
3E
100
AcDbEntity
  8
SLD-0
  6
Continuous
 62
   179
100
AcDbLine
 10
99.8610397946
 20
187.0271758665
 30
0.0
 11
99.8610397946
 21
184.5271758665
 31
0.0
  0
LINE
  5
48
330
3E
100
AcDbEntity
  8
SLD-0
  6
Continuous
 62
   179
100
AcDbLine
 10
102.3610397946
 20
189.5271758665
 30
0.0
 11
104.8610397946
 21
189.5271758665
 31
0.0
  0
ENDBLK
  5
40
330
3E
100
AcDbEntity
  8
0
100
AcDbBlockEnd
  0
BLOCK
  5
4A
330
49
100
AcDbEntity
  8
0
100
AcDbBlockBegin
  2
SW_CENTERMARK1
 70
     0
 71
     0
 10
0.0
 20
0.0
 30
0.0
  3
SW_CENTERMARK1
  1

  0
LINE
  5
4C
330
49
100
AcDbEntity
  8
SLD-0
  6
Continuous
 62
   179
100
AcDbLine
 10
119.8610395711
 20
189.5271756757
 30
0.0
 11
119.8610397946
 21
192.0271758665
 31
0.0
  0
LINE
  5
4D
330
49
100
AcDbEntity
  8
SLD-0
  6
Continuous
 62
   179
100
AcDbLine
 10
119.8610395711
 20
189.5271756757
 30
0.0
 11
117.3610397946
 21
189.5271758665
 31
0.0
  0
LINE
  5
4E
330
49
100
AcDbEntity
  8
SLD-0
  6
Continuous
 62
   179
100
AcDbLine
 10
119.8610395711
 20
189.5271756757
 30
0.0
 11
119.8610397946
 21
187.0271758665
 31
0.0
  0
LINE
  5
4F
330
49
100
AcDbEntity
  8
SLD-0
  6
Continuous
 62
   179
100
AcDbLine
 10
119.8610395711
 20
189.5271756757
 30
0.0
 11
122.3610397946
 21
189.5271758665
 31
0.0
  0
LINE
  5
50
330
49
100
AcDbEntity
  8
SLD-0
  6
Continuous
 62
   179
100
AcDbLine
 10
119.8610397946
 20
192.0271758665
 30
0.0
 11
119.8610397946
 21
194.5271758665
 31
0.0
  0
LINE
  5
51
330
49
100
AcDbEntity
  8
SLD-0
  6
Continuous
 62
   179
100
AcDbLine
 10
117.3610397946
 20
189.5271758665
 30
0.0
 11
114.8610397946
 21
189.5271758665
 31
0.0
  0
LINE
  5
52
330
49
100
AcDbEntity
  8
SLD-0
  6
Continuous
 62
   179
100
AcDbLine
 10
119.8610397946
 20
187.0271758665
 30
0.0
 11
119.8610397946
 21
184.5271758665
 31
0.0
  0
LINE
  5
53
330
49
100
AcDbEntity
  8
SLD-0
  6
Continuous
 62
   179
100
AcDbLine
 10
122.3610397946
 20
189.5271758665
 30
0.0
 11
124.8610397946
 21
189.5271758665
 31
0.0
  0
ENDBLK
  5
4B
330
49
100
AcDbEntity
  8
0
100
AcDbBlockEnd
  0
BLOCK
  5
1B3
330
1A6
100
AcDbEntity
  8
0
100
AcDbBlockBegin
  2
*D5
 70
     1
 71
     0
 10
0.0
 20
0.0
 30
0.0
  3
*D5
  1

  0
LINE
  5
1B9
330
1A6
100
AcDbEntity
  8
SLD-0
 62
     7
100
AcDbLine
 10
125.3610397946
 20
195.8271758665
 30
0.0
 11
125.3610397946
 21
208.628788066
 31
0.0
  0
LINE
  5
1BA
330
1A6
100
AcDbEntity
  8
SLD-0
 62
     7
100
AcDbLine
 10
119.8610397946
 20
195.5271758665
 30
0.0
 11
119.8610397946
 21
208.628788066
 31
0.0
  0
LINE
  5
1BB
330
1A6
100
AcDbEntity
  8
SLD-0
 62
     7
100
AcDbLine
 10
125.3610397946
 20
207.628788066
 30
0.0
 11
136.7536879748
 21
207.628788066
 31
0.0
  0
LINE
  5
1BC
330
1A6
100
AcDbEntity
  8
SLD-0
 62
     7
100
AcDbLine
 10
125.3610397946
 20
207.628788066
 30
0.0
 11
119.8610397946
 21
207.628788066
 31
0.0
  0
LINE
  5
1BD
330
1A6
100
AcDbEntity
  8
SLD-0
 62
     7
100
AcDbLine
 10
119.8610397946
 20
207.628788066
 30
0.0
 11
114.8610397946
 21
207.628788066
 31
0.0
  0
LINE
  5
1BE
330
1A6
100
AcDbEntity
  8
SLD-0
 62
     7
100
AcDbLine
 10
128.3610397946
 20
206.824941066
 30
0.0
 11
125.3610397946
 21
207.628788066
 31
0.0
  0
LINE
  5
1BF
330
1A6
100
AcDbEntity
  8
SLD-0
 62
     7
100
AcDbLine
 10
125.3610397946
 20
207.628788066
 30
0.0
 11
128.3610397946
 21
208.432635066
 31
0.0
  0
LINE
  5
1C0
330
1A6
100
AcDbEntity
  8
SLD-0
 62
     7
100
AcDbLine
 10
125.3610397946
 20
207.628788066
 30
0.0
 11
128.3610397946
 21
207.628788066
 31
0.0
  0
LINE
  5
1C1
330
1A6
100
AcDbEntity
  8
SLD-0
 62
     7
100
AcDbLine
 10
116.8610397946
 20
208.432635066
 30
0.0
 11
119.8610397946
 21
207.628788066
 31
0.0
  0
LINE
  5
1C2
330
1A6
100
AcDbEntity
  8
SLD-0
 62
     7
100
AcDbLine
 10
119.8610397946
 20
207.628788066
 30
0.0
 11
116.8610397946
 21
206.824941066
 31
0.0
  0
LINE
  5
1C3
330
1A6
100
AcDbEntity
  8
SLD-0
 62
     7
100
AcDbLine
 10
119.8610397946
 20
207.628788066
 30
0.0
 11
116.8610397946
 21
207.628788066
 31
0.0
  0
MTEXT
  5
1C4
330
1A6
100
AcDbEntity
  8
SLD-0
 62
     7
100
AcDbMText
 10
129.0562280231
 20
212.1554817619
 30
0.1
 40
3.5
 41
0.0
 71
     1
 72
     1
  1
5.5
  7
SLDTEXTSTYLE0
 73
     1
 44
1.0
  0
ENDBLK
  5
1B4
330
1A6
100
AcDbEntity
  8
0
100
AcDbBlockEnd
  0
BLOCK
  5
1B7
330
1B6
100
AcDbEntity
  8
0
100
AcDbBlockBegin
  2
_None
 70
     0
 71
     0
 10
0.0
 20
0.0
 30
0.0
  3
_None
  1

  0
ENDBLK
  5
1B8
330
1B6
100
AcDbEntity
  8
0
100
AcDbBlockEnd
  0
BLOCK
  5
1D0
330
1C6
100
AcDbEntity
  8
0
100
AcDbBlockBegin
  2
*D7
 70
     1
 71
     0
 10
0.0
 20
0.0
 30
0.0
  3
*D7
  1

  0
LINE
  5
1D3
330
1C6
100
AcDbEntity
  8
SLD-0
 62
     7
100
AcDbLine
 10
119.8610397946
 20
195.5271758665
 30
0.0
 11
119.8610397946
 21
208.628788066
 31
0.0
  0
LINE
  5
1D4
330
1C6
100
AcDbEntity
  8
SLD-0
 62
     7
100
AcDbLine
 10
99.8610397946
 20
195.5271758665
 30
0.0
 11
99.8610397946
 21
208.628788066
 31
0.0
  0
LINE
  5
1D5
330
1C6
100
AcDbEntity
  8
SLD-0
 62
     7
100
AcDbLine
 10
119.8610397946
 20
207.628788066
 30
0.0
 11
99.8610397946
 21
207.628788066
 31
0.0
  0
LINE
  5
1D6
330
1C6
100
AcDbEntity
  8
SLD-0
 62
     7
100
AcDbLine
 10
116.8610397946
 20
208.432635066
 30
0.0
 11
119.8610397946
 21
207.628788066
 31
0.0
  0
LINE
  5
1D7
330
1C6
100
AcDbEntity
  8
SLD-0
 62
     7
100
AcDbLine
 10
119.8610397946
 20
207.628788066
 30
0.0
 11
116.8610397946
 21
206.824941066
 31
0.0
  0
LINE
  5
1D8
330
1C6
100
AcDbEntity
  8
SLD-0
 62
     7
100
AcDbLine
 10
119.8610397946
 20
207.628788066
 30
0.0
 11
116.8610397946
 21
207.628788066
 31
0.0
  0
LINE
  5
1D9
330
1C6
100
AcDbEntity
  8
SLD-0
 62
     7
100
AcDbLine
 10
102.8610397946
 20
206.824941066
 30
0.0
 11
99.8610397946
 21
207.628788066
 31
0.0
  0
LINE
  5
1DA
330
1C6
100
AcDbEntity
  8
SLD-0
 62
     7
100
AcDbLine
 10
99.8610397946
 20
207.628788066
 30
0.0
 11
102.8610397946
 21
208.432635066
 31
0.0
  0
LINE
  5
1DB
330
1C6
100
AcDbEntity
  8
SLD-0
 62
     7
100
AcDbLine
 10
99.8610397946
 20
207.628788066
 30
0.0
 11
102.8610397946
 21
207.628788066
 31
0.0
  0
MTEXT
  5
1DC
330
1C6
100
AcDbEntity
  8
SLD-0
 62
     7
100
AcDbMText
 10
107.8256045714
 20
212.1554817619
 30
0.1
 40
3.5
 41
0.0
 71
     1
 72
     1
  1
20
  7
SLDTEXTSTYLE0
 73
     1
 44
1.0
  0
ENDBLK
  5
1D1
330
1C6
100
AcDbEntity
  8
0
100
AcDbBlockEnd
  0
BLOCK
  5
1E8
330
1DE
100
AcDbEntity
  8
0
100
AcDbBlockBegin
  2
*D8
 70
     1
 71
     0
 10
0.0
 20
0.0
 30
0.0
  3
*D8
  1

  0
LINE
  5
1EA
330
1DE
100
AcDbEntity
  8
SLD-0
 62
     7
100
AcDbLine
 10
94.3610397946
 20
195.8271758665
 30
0.0
 11
94.3610397946
 21
214.5726708423
 31
0.0
  0
LINE
  5
1EB
330
1DE
100
AcDbEntity
  8
SLD-0
 62
     7
100
AcDbLine
 10
125.3610397946
 20
195.8271758665
 30
0.0
 11
125.3610397946
 21
214.5726708423
 31
0.0
  0
LINE
  5
1EC
330
1DE
100
AcDbEntity
  8
SLD-0
 62
     7
100
AcDbLine
 10
94.3610397946
 20
213.5726708423
 30
0.0
 11
125.3610397946
 21
213.5726708423
 31
0.0
  0
LINE
  5
1ED
330
1DE
100
AcDbEntity
  8
SLD-0
 62
     7
100
AcDbLine
 10
97.3610397946
 20
212.7688238423
 30
0.0
 11
94.3610397946
 21
213.5726708423
 31
0.0
  0
LINE
  5
1EE
330
1DE
100
AcDbEntity
  8
SLD-0
 62
     7
100
AcDbLine
 10
94.3610397946
 20
213.5726708423
 30
0.0
 11
97.3610397946
 21
214.3765178423
 31
0.0
  0
LINE
  5
1EF
330
1DE
100
AcDbEntity
  8
SLD-0
 62
     7
100
AcDbLine
 10
94.3610397946
 20
213.5726708423
 30
0.0
 11
97.3610397946
 21
213.5726708423
 31
0.0
  0
LINE
  5
1F0
330
1DE
100
AcDbEntity
  8
SLD-0
 62
     7
100
AcDbLine
 10
122.3610397946
 20
214.3765178423
 30
0.0
 11
125.3610397946
 21
213.5726708423
 31
0.0
  0
LINE
  5
1F1
330
1DE
100
AcDbEntity
  8
SLD-0
 62
     7
100
AcDbLine
 10
125.3610397946
 20
213.5726708423
 30
0.0
 11
122.3610397946
 21
212.7688238423
 31
0.0
  0
LINE
  5
1F2
330
1DE
100
AcDbEntity
  8
SLD-0
 62
     7
100
AcDbLine
 10
125.3610397946
 20
213.5726708423
 30
0.0
 11
122.3610397946
 21
213.5726708423
 31
0.0
  0
MTEXT
  5
1F3
330
1DE
100
AcDbEntity
  8
SLD-0
 62
     7
100
AcDbMText
 10
107.8256045714
 20
218.0993645383
 30
0.1
 40
3.5
 41
0.0
 71
     1
 72
     1
  1
31
  7
SLDTEXTSTYLE0
 73
     1
 44
1.0
  0
ENDBLK
  5
1E9
330
1DE
100
AcDbEntity
  8
0
100
AcDbBlockEnd
  0
BLOCK
  5
1FC
330
1F5
100
AcDbEntity
  8
0
100
AcDbBlockBegin
  2
*D9
 70
     1
 71
     0
 10
0.0
 20
0.0
 30
0.0
  3
*D9
  1

  0
LINE
  5
1FF
330
1F5
100
AcDbEntity
  8
SLD-0
 62
     7
100
AcDbLine
 10
98.3719574728
 20
192.1315248905
 30
0.0
 11
92.7065887643
 21
202.040041868
 31
0.0
  0
LINE
  5
200
330
1F5
100
AcDbEntity
  8
SLD-0
 62
     7
100
AcDbLine
 10
92.7065887643
 20
202.040041868
 30
0.0
 11
79.7986935894
 21
202.040041868
 31
0.0
  0
LINE
  5
201
330
1F5
100
AcDbEntity
  8
SLD-0
 62
     7
100
AcDbLine
 10
97.5807078676
 20
195.1348720336
 30
0.0
 11
98.3719574728
 21
192.1315248905
 31
0.0
  0
LINE
  5
202
330
1F5
100
AcDbEntity
  8
SLD-0
 62
     7
100
AcDbLine
 10
98.3719574728
 20
192.1315248905
 30
0.0
 11
96.1850424343
 21
194.3368757955
 31
0.0
  0
LINE
  5
203
330
1F5
100
AcDbEntity
  8
SLD-0
 62
     7
100
AcDbLine
 10
98.3719574728
 20
192.1315248905
 30
0.0
 11
96.882875151
 21
194.7358739145
 31
0.0
  0
MTEXT
  5
204
330
1F5
100
AcDbEntity
  8
SLD-0
 62
     7
100
AcDbMText
 10
81.3861935894
 20
206.566735564
 30
0.1
 40
3.5
 41
0.0
 71
     1
 72
     1
  1
2-M6
  7
SLDTEXTSTYLE0
 73
     1
 44
1.0
  0
ENDBLK
  5
1FD
330
1F5
100
AcDbEntity
  8
0
100
AcDbBlockEnd
  0
BLOCK
  5
211
330
206
100
AcDbEntity
  8
0
100
AcDbBlockBegin
  2
*D10
 70
     1
 71
     0
 10
0.0
 20
0.0
 30
0.0
  3
*D10
  1

  0
LINE
  5
213
330
206
100
AcDbEntity
  8
SLD-0
 62
     7
100
AcDbLine
 10
126.3610397946
 20
194.8271758665
 30
0.0
 11
148.9564547677
 21
194.8271758665
 31
0.0
  0
LINE
  5
214
330
206
100
AcDbEntity
  8
SLD-0
 62
     7
100
AcDbLine
 10
126.3610397946
 20
184.2271758665
 30
0.0
 11
148.9564547677
 21
184.2271758665
 31
0.0
  0
LINE
  5
215
330
206
100
AcDbEntity
  8
SLD-0
 62
     7
100
AcDbLine
 10
147.9564547677
 20
194.8271758665
 30
0.0
 11
147.9564547677
 21
184.2271758665
 31
0.0
  0
LINE
  5
216
330
206
100
AcDbEntity
  8
SLD-0
 62
     7
100
AcDbLine
 10
147.9564547677
 20
184.2271758665
 30
0.0
 11
147.9564547677
 21
171.5804797748
 31
0.0
  0
LINE
  5
217
330
206
100
AcDbEntity
  8
SLD-0
 62
     7
100
AcDbLine
 10
147.1526077677
 20
191.8271758665
 30
0.0
 11
147.9564547677
 21
194.8271758665
 31
0.0
  0
LINE
  5
218
330
206
100
AcDbEntity
  8
SLD-0
 62
     7
100
AcDbLine
 10
147.9564547677
 20
194.8271758665
 30
0.0
 11
148.7603017677
 21
191.8271758665
 31
0.0
  0
LINE
  5
219
330
206
100
AcDbEntity
  8
SLD-0
 62
     7
100
AcDbLine
 10
147.9564547677
 20
194.8271758665
 30
0.0
 11
147.9564547677
 21
191.8271758665
 31
0.0
  0
LINE
  5
21A
330
206
100
AcDbEntity
  8
SLD-0
 62
     7
100
AcDbLine
 10
148.7603017677
 20
187.2271758665
 30
0.0
 11
147.9564547677
 21
184.2271758665
 31
0.0
  0
LINE
  5
21B
330
206
100
AcDbEntity
  8
SLD-0
 62
     7
100
AcDbLine
 10
147.9564547677
 20
184.2271758665
 30
0.0
 11
147.1526077677
 21
187.2271758665
 31
0.0
  0
LINE
  5
21C
330
206
100
AcDbEntity
  8
SLD-0
 62
     7
100
AcDbLine
 10
147.9564547677
 20
184.2271758665
 30
0.0
 11
147.9564547677
 21
187.2271758665
 31
0.0
  0
MTEXT
  5
21D
330
206
100
AcDbEntity
  8
SLD-0
 62
     7
100
AcDbMText
 10
143.4297610718
 20
173.1679797748
 30
0.1
 40
3.5
 41
0.0
 71
     1
 72
     1
  1
10.6
  7
SLDTEXTSTYLE0
 11
6.123031769111886E-17
 21
1.0
 31
0.0
 73
     1
 44
1.0
  0
ENDBLK
  5
212
330
206
100
AcDbEntity
  8
0
100
AcDbBlockEnd
  0
BLOCK
  5
22B
330
21F
100
AcDbEntity
  8
0
100
AcDbBlockBegin
  2
*D11
 70
     1
 71
     0
 10
0.0
 20
0.0
 30
0.0
  3
*D11
  1

  0
LINE
  5
22D
330
21F
100
AcDbEntity
  8
SLD-0
 62
     7
100
AcDbLine
 10
126.3610397946
 20
184.2271758665
 30
0.0
 11
137.4252181712
 21
184.2271758665
 31
0.0
  0
LINE
  5
22E
330
21F
100
AcDbEntity
  8
SLD-0
 62
     7
100
AcDbLine
 10
125.8610397946
 20
189.5271758665
 30
0.0
 11
137.4252181712
 21
189.5271758665
 31
0.0
  0
LINE
  5
22F
330
21F
100
AcDbEntity
  8
SLD-0
 62
     7
100
AcDbLine
 10
136.4252181712
 20
184.2271758665
 30
0.0
 11
136.4252181712
 21
172.5981973864
 31
0.0
  0
LINE
  5
230
330
21F
100
AcDbEntity
  8
SLD-0
 62
     7
100
AcDbLine
 10
136.4252181712
 20
184.2271758665
 30
0.0
 11
136.4252181712
 21
189.5271758665
 31
0.0
  0
LINE
  5
231
330
21F
100
AcDbEntity
  8
SLD-0
 62
     7
100
AcDbLine
 10
136.4252181712
 20
189.5271758665
 30
0.0
 11
136.4252181712
 21
194.5271758665
 31
0.0
  0
LINE
  5
232
330
21F
100
AcDbEntity
  8
SLD-0
 62
     7
100
AcDbLine
 10
135.6213711712
 20
181.2271758665
 30
0.0
 11
136.4252181712
 21
184.2271758665
 31
0.0
  0
LINE
  5
233
330
21F
100
AcDbEntity
  8
SLD-0
 62
     7
100
AcDbLine
 10
136.4252181712
 20
184.2271758665
 30
0.0
 11
137.2290651712
 21
181.2271758665
 31
0.0
  0
LINE
  5
234
330
21F
100
AcDbEntity
  8
SLD-0
 62
     7
100
AcDbLine
 10
136.4252181712
 20
184.2271758665
 30
0.0
 11
136.4252181712
 21
181.2271758665
 31
0.0
  0
LINE
  5
235
330
21F
100
AcDbEntity
  8
SLD-0
 62
     7
100
AcDbLine
 10
137.2290651712
 20
192.5271758665
 30
0.0
 11
136.4252181712
 21
189.5271758665
 31
0.0
  0
LINE
  5
236
330
21F
100
AcDbEntity
  8
SLD-0
 62
     7
100
AcDbLine
 10
136.4252181712
 20
189.5271758665
 30
0.0
 11
135.6213711712
 21
192.5271758665
 31
0.0
  0
LINE
  5
237
330
21F
100
AcDbEntity
  8
SLD-0
 62
     7
100
AcDbLine
 10
136.4252181712
 20
189.5271758665
 30
0.0
 11
136.4252181712
 21
192.5271758665
 31
0.0
  0
MTEXT
  5
238
330
21F
100
AcDbEntity
  8
SLD-0
 62
     7
100
AcDbMText
 10
131.8985244753
 20
174.1856973864
 30
0.1
 40
3.5
 41
0.0
 71
     1
 72
     1
  1
5.3
  7
SLDTEXTSTYLE0
 11
6.123031769111886E-17
 21
1.0
 31
0.0
 73
     1
 44
1.0
  0
ENDBLK
  5
22C
330
21F
100
AcDbEntity
  8
0
100
AcDbBlockEnd
  0
ENDSEC
  0
SECTION
  2
ENTITIES
  0
LINE
  5
54
330
1F
100
AcDbEntity
  8
SLD-0
  6
Continuous
 62
   179
100
AcDbLine
 10
20.2604743903
 20
285.0
 30
0.0
 11
196.7604743903
 21
285.0
 31
0.0
  0
LINE
  5
55
330
1F
100
AcDbEntity
  8
SLD-0
  6
Continuous
 62
   179
100
AcDbLine
 10
20.2604743903
 20
285.0
 30
0.0
 11
20.2604743903
 21
10.0
 31
0.0
  0
LINE
  5
56
330
1F
100
AcDbEntity
  8
SLD-0
  6
Continuous
 62
   179
100
AcDbLine
 10
20.2604743903
 20
10.0
 30
0.0
 11
196.7604743903
 21
10.0
 31
0.0
  0
LINE
  5
57
330
1F
100
AcDbEntity
  8
SLD-0
  6
Continuous
 62
   179
100
AcDbLine
 10
196.7604743903
 20
285.0
 30
0.0
 11
196.7604743903
 21
10.0
 31
0.0
  0
LINE
  5
58
330
1F
100
AcDbEntity
  8
SLD-0
  6
Continuous
 62
   179
100
AcDbLine
 10
127.0104743903
 20
50.75
 30
0.0
 11
196.7604743903
 21
50.75
 31
0.0
  0
LINE
  5
59
330
1F
100
AcDbEntity
  8
SLD-0
  6
Continuous
 62
   179
100
AcDbLine
 10
127.0104743903
 20
50.75
 30
0.0
 11
127.0104743903
 21
10.0
 31
0.0
  0
LINE
  5
5A
330
1F
100
AcDbEntity
  8
SLD-0
  6
Continuous
 62
   179
100
AcDbLine
 10
127.0104743903
 20
22.75
 30
0.0
 11
196.7604743903
 21
22.75
 31
0.0
  0
LINE
  5
5B
330
1F
100
AcDbEntity
  8
SLD-0
  6
Continuous
 62
   179
100
AcDbLine
 10
127.0104743903
 20
36.75
 30
0.0
 11
196.7604743903
 21
36.75
 31
0.0
  0
LINE
  5
5C
330
1F
100
AcDbEntity
  8
SLD-0
  6
Continuous
 62
   179
100
AcDbLine
 10
125.3610397946
 20
194.8271758665
 30
0.0
 11
94.3610397946
 21
194.8271758665
 31
0.0
  0
LINE
  5
5D
330
1F
100
AcDbEntity
  8
SLD-0
  6
Continuous
 62
   179
100
AcDbLine
 10
94.3610397946
 20
184.2271758665
 30
0.0
 11
125.3610397946
 21
184.2271758665
 31
0.0
  0
LINE
  5
5E
330
1F
100
AcDbEntity
  8
SLD-0
  6
Continuous
 62
   179
100
AcDbLine
 10
125.3610397946
 20
194.8271758665
 30
0.0
 11
125.3610397946
 21
194.3271758665
 31
0.0
  0
LINE
  5
5F
330
1F
100
AcDbEntity
  8
SLD-0
  6
Continuous
 62
   179
100
AcDbLine
 10
94.3610397946
 20
194.8271758665
 30
0.0
 11
94.3610397946
 21
194.3271758665
 31
0.0
  0
LINE
  5
60
330
1F
100
AcDbEntity
  8
SLD-0
  6
Continuous
 62
   179
100
AcDbLine
 10
125.3610397946
 20
194.3271758665
 30
0.0
 11
125.3610397946
 21
192.3514399352
 31
0.0
  0
LINE
  5
61
330
1F
100
AcDbEntity
  8
SLD-0
  6
Continuous
 62
   179
100
AcDbLine
 10
94.3610397946
 20
194.3271758665
 30
0.0
 11
94.3610397946
 21
192.3514399352
 31
0.0
  0
LINE
  5
62
330
1F
100
AcDbEntity
  8
SLD-0
  6
Continuous
 62
   179
100
AcDbLine
 10
94.3610397946
 20
192.3514399352
 30
0.0
 11
94.3610397946
 21
192.1393079009
 31
0.0
  0
LINE
  5
63
330
1F
100
AcDbEntity
  8
SLD-0
  6
Continuous
 62
   179
100
AcDbLine
 10
125.3610397946
 20
192.3514399352
 30
0.0
 11
125.3610397946
 21
192.1393079009
 31
0.0
  0
LINE
  5
64
330
1F
100
AcDbEntity
  8
SLD-0
  6
Continuous
 62
   179
100
AcDbLine
 10
94.3610397946
 20
184.7271758665
 30
0.0
 11
94.3610397946
 21
184.2271758665
 31
0.0
  0
LINE
  5
65
330
1F
100
AcDbEntity
  8
SLD-0
  6
Continuous
 62
   179
100
AcDbLine
 10
125.3610397946
 20
184.7271758665
 30
0.0
 11
125.3610397946
 21
184.2271758665
 31
0.0
  0
LINE
  5
66
330
1F
100
AcDbEntity
  8
SLD-0
  6
Continuous
 62
   179
100
AcDbLine
 10
94.3610397946
 20
186.7029117978
 30
0.0
 11
94.3610397946
 21
184.7271758665
 31
0.0
  0
LINE
  5
67
330
1F
100
AcDbEntity
  8
SLD-0
  6
Continuous
 62
   179
100
AcDbLine
 10
125.3610397946
 20
186.7029117978
 30
0.0
 11
125.3610397946
 21
184.7271758665
 31
0.0
  0
LINE
  5
68
330
1F
100
AcDbEntity
  8
SLD-0
  6
Continuous
 62
   179
100
AcDbLine
 10
94.3610397946
 20
186.9150438321
 30
0.0
 11
94.3610397946
 21
186.7029117978
 31
0.0
  0
LINE
  5
69
330
1F
100
AcDbEntity
  8
SLD-0
  6
Continuous
 62
   179
100
AcDbLine
 10
125.3610397946
 20
186.9150438321
 30
0.0
 11
125.3610397946
 21
186.7029117978
 31
0.0
  0
LINE
  5
6A
330
1F
100
AcDbEntity
  8
SLD-0
  6
Continuous
 62
   179
100
AcDbLine
 10
94.3610397946
 20
192.1393079009
 30
0.0
 11
94.3610397946
 21
191.6150438321
 31
0.0
  0
LINE
  5
6B
330
1F
100
AcDbEntity
  8
SLD-0
  6
Continuous
 62
   179
100
AcDbLine
 10
125.3610397946
 20
192.1393079009
 30
0.0
 11
125.3610397946
 21
191.6150438321
 31
0.0
  0
LINE
  5
6C
330
1F
100
AcDbEntity
  8
SLD-0
  6
Continuous
 62
   179
100
AcDbLine
 10
94.3610397946
 20
187.4393079009
 30
0.0
 11
94.3610397946
 21
186.9150438321
 31
0.0
  0
LINE
  5
6D
330
1F
100
AcDbEntity
  8
SLD-0
  6
Continuous
 62
   179
100
AcDbLine
 10
125.3610397946
 20
187.4393079009
 30
0.0
 11
125.3610397946
 21
186.9150438321
 31
0.0
  0
LINE
  5
6E
330
1F
100
AcDbEntity
  8
SLD-0
  6
Continuous
 62
   179
100
AcDbLine
 10
121.2361055149
 20
191.6150439071
 30
0.0
 11
121.4090502544
 21
191.4902511059
 31
0.0
  0
LINE
  5
6F
330
1F
100
AcDbEntity
  8
SLD-0
  6
Continuous
 62
   179
100
AcDbLine
 10
121.4090502544
 20
191.4902511059
 30
0.0
 11
121.5137988983
 21
191.4029117913
 31
0.0
  0
LINE
  5
70
330
1F
100
AcDbEntity
  8
SLD-0
  6
Continuous
 62
   179
100
AcDbLine
 10
125.3610397946
 20
191.6150438321
 30
0.0
 11
125.3610397946
 21
191.4029117978
 31
0.0
  0
LINE
  5
71
330
1F
100
AcDbEntity
  8
SLD-0
  6
Continuous
 62
   179
100
AcDbLine
 10
118.2082800712
 20
191.4029118023
 30
0.0
 11
118.3919881057
 21
191.550017579
 31
0.0
  0
LINE
  5
72
330
1F
100
AcDbEntity
  8
SLD-0
  6
Continuous
 62
   179
100
AcDbLine
 10
118.3919881057
 20
191.550017579
 30
0.0
 11
118.4859734547
 21
191.6150439181
 31
0.0
  0
LINE
  5
73
330
1F
100
AcDbEntity
  8
SLD-0
  6
Continuous
 62
   179
100
AcDbLine
 10
101.2361061345
 20
191.6150439181
 30
0.0
 11
101.4090499427
 21
191.4902511169
 31
0.0
  0
LINE
  5
74
330
1F
100
AcDbEntity
  8
SLD-0
  6
Continuous
 62
   179
100
AcDbLine
 10
101.4090499427
 20
191.4902511169
 30
0.0
 11
101.513799518
 21
191.4029118023
 31
0.0
  0
LINE
  5
75
330
1F
100
AcDbEntity
  8
SLD-0
  6
Continuous
 62
   179
100
AcDbLine
 10
98.2082806909
 20
191.4029117913
 30
0.0
 11
98.3919887253
 21
191.550017568
 31
0.0
  0
LINE
  5
76
330
1F
100
AcDbEntity
  8
SLD-0
  6
Continuous
 62
   179
100
AcDbLine
 10
98.3919887253
 20
191.550017568
 30
0.0
 11
98.4859740743
 21
191.6150439071
 31
0.0
  0
LINE
  5
77
330
1F
100
AcDbEntity
  8
SLD-0
  6
Continuous
 62
   179
100
AcDbLine
 10
94.3610397946
 20
191.6150438321
 30
0.0
 11
94.3610397946
 21
191.4029117978
 31
0.0
  0
LINE
  5
78
330
1F
100
AcDbEntity
  8
SLD-0
  6
Continuous
 62
   179
100
AcDbLine
 10
121.5137990727
 20
187.6514399286
 30
0.0
 11
121.3300910198
 21
187.504334143
 31
0.0
  0
LINE
  5
79
330
1F
100
AcDbEntity
  8
SLD-0
  6
Continuous
 62
   179
100
AcDbLine
 10
121.3300910198
 20
187.504334143
 30
0.0
 11
121.2361056709
 21
187.4393078039
 31
0.0
  0
LINE
  5
7A
330
1F
100
AcDbEntity
  8
SLD-0
  6
Continuous
 62
   179
100
AcDbLine
 10
125.3610397946
 20
187.6514399352
 30
0.0
 11
125.3610397946
 21
187.4393079009
 31
0.0
  0
LINE
  5
7B
330
1F
100
AcDbEntity
  8
SLD-0
  6
Continuous
 62
   179
100
AcDbLine
 10
98.4859738998
 20
187.4393078129
 30
0.0
 11
98.3130291604
 21
187.564100614
 31
0.0
  0
LINE
  5
7C
330
1F
100
AcDbEntity
  8
SLD-0
  6
Continuous
 62
   179
100
AcDbLine
 10
98.3130291604
 20
187.564100614
 30
0.0
 11
98.2082805165
 21
187.6514399286
 31
0.0
  0
LINE
  5
7D
330
1F
100
AcDbEntity
  8
SLD-0
  6
Continuous
 62
   179
100
AcDbLine
 10
94.3610397946
 20
187.6514399352
 30
0.0
 11
94.3610397946
 21
187.4393079009
 31
0.0
  0
LINE
  5
7E
330
1F
100
AcDbEntity
  8
SLD-0
  6
Continuous
 62
   179
100
AcDbLine
 10
118.4859732654
 20
187.4393078149
 30
0.0
 11
118.3130294572
 21
187.5641006161
 31
0.0
  0
LINE
  5
7F
330
1F
100
AcDbEntity
  8
SLD-0
  6
Continuous
 62
   179
100
AcDbLine
 10
118.3130294572
 20
187.5641006161
 30
0.0
 11
118.2082798819
 21
187.6514399307
 31
0.0
  0
LINE
  5
80
330
1F
100
AcDbEntity
  8
SLD-0
  6
Continuous
 62
   179
100
AcDbLine
 10
101.5137997073
 20
187.6514399307
 30
0.0
 11
101.3300916576
 21
187.5043341407
 31
0.0
  0
LINE
  5
81
330
1F
100
AcDbEntity
  8
SLD-0
  6
Continuous
 62
   179
100
AcDbLine
 10
101.3300916576
 20
187.5043341407
 30
0.0
 11
101.2361063087
 21
187.4393078017
 31
0.0
  0
LINE
  5
82
330
1F
100
AcDbEntity
  8
SLD-0
  6
Continuous
 62
   179
100
AcDbLine
 10
94.3610397946
 20
191.4029117978
 30
0.0
 11
94.3610397946
 21
187.6514399352
 31
0.0
  0
LINE
  5
83
330
1F
100
AcDbEntity
  8
SLD-0
  6
Continuous
 62
   179
100
AcDbLine
 10
125.3610397946
 20
191.4029117978
 30
0.0
 11
125.3610397946
 21
187.6514399352
 31
0.0
  0
LINE
  5
84
330
1F
100
AcDbEntity
  8
SLD-0
 62
   179
100
AcDbLine
 10
121.5193525475
 20
187.0271759224
 30
0.0
 11
121.694393694
 21
187.1525575523
 31
0.0
  0
LINE
  5
85
330
1F
100
AcDbEntity
  8
SLD-0
 62
   179
100
AcDbLine
 10
121.694393694
 20
187.1525575523
 30
0.0
 11
121.859992161
 21
187.2901711729
 31
0.0
  0
LINE
  5
86
330
1F
100
AcDbEntity
  8
SLD-0
 62
   179
100
AcDbLine
 10
121.859992161
 20
187.2901711729
 30
0.0
 11
122.0152929943
 21
187.4393078149
 31
0.0
  0
LINE
  5
87
330
1F
100
AcDbEntity
  8
SLD-0
 62
   179
100
AcDbLine
 10
122.0152929943
 20
187.4393078149
 30
0.0
 11
122.202324919
 21
187.6514399307
 31
0.0
  0
LINE
  5
88
330
1F
100
AcDbEntity
  8
SLD-0
 62
   179
100
AcDbLine
 10
122.202324919
 20
187.6514399307
 30
0.0
 11
122.3982183781
 21
187.9263251437
 31
0.0
  0
LINE
  5
89
330
1F
100
AcDbEntity
  8
SLD-0
 62
   179
100
AcDbLine
 10
122.3982183781
 20
187.9263251437
 30
0.0
 11
122.5619933154
 21
188.2214764016
 31
0.0
  0
LINE
  5
8A
330
1F
100
AcDbEntity
  8
SLD-0
 62
   179
100
AcDbLine
 10
122.5619933154
 20
188.2214764016
 30
0.0
 11
122.6915747445
 21
188.5331573546
 31
0.0
  0
LINE
  5
8B
330
1F
100
AcDbEntity
  8
SLD-0
 62
   179
100
AcDbLine
 10
122.6915747445
 20
188.5331573546
 30
0.0
 11
122.7853226062
 21
188.8574222219
 31
0.0
  0
LINE
  5
8C
330
1F
100
AcDbEntity
  8
SLD-0
 62
   179
100
AcDbLine
 10
122.7853226062
 20
188.8574222219
 30
0.0
 11
122.8420503955
 21
189.1901658207
 31
0.0
  0
LINE
  5
8D
330
1F
100
AcDbEntity
  8
SLD-0
 62
   179
100
AcDbLine
 10
122.8420503955
 20
189.1901658207
 30
0.0
 11
122.8610400628
 21
189.5271758665
 31
0.0
  0
LINE
  5
8E
330
1F
100
AcDbEntity
  8
SLD-0
 62
   179
100
AcDbLine
 10
122.8610400628
 20
189.5271758665
 30
0.0
 11
122.8420503955
 21
189.8641859123
 31
0.0
  0
LINE
  5
8F
330
1F
100
AcDbEntity
  8
SLD-0
 62
   179
100
AcDbLine
 10
122.8420503955
 20
189.8641859123
 30
0.0
 11
122.7853226062
 21
190.1969295111
 31
0.0
  0
LINE
  5
90
330
1F
100
AcDbEntity
  8
SLD-0
 62
   179
100
AcDbLine
 10
122.7853226062
 20
190.1969295111
 30
0.0
 11
122.6915747445
 21
190.5211943783
 31
0.0
  0
LINE
  5
91
330
1F
100
AcDbEntity
  8
SLD-0
 62
   179
100
AcDbLine
 10
122.6915747445
 20
190.5211943783
 30
0.0
 11
122.5619933154
 21
190.8328753314
 31
0.0
  0
LINE
  5
92
330
1F
100
AcDbEntity
  8
SLD-0
 62
   179
100
AcDbLine
 10
122.5619933154
 20
190.8328753314
 30
0.0
 11
122.3982183781
 21
191.1280265892
 31
0.0
  0
LINE
  5
93
330
1F
100
AcDbEntity
  8
SLD-0
 62
   179
100
AcDbLine
 10
122.3982183781
 20
191.1280265892
 30
0.0
 11
122.202324919
 21
191.4029118023
 31
0.0
  0
LINE
  5
94
330
1F
100
AcDbEntity
  8
SLD-0
 62
   179
100
AcDbLine
 10
122.202324919
 20
191.4029118023
 30
0.0
 11
122.0152929943
 21
191.6150439181
 31
0.0
  0
LINE
  5
95
330
1F
100
AcDbEntity
  8
SLD-0
 62
   179
100
AcDbLine
 10
122.0152929943
 20
191.6150439181
 30
0.0
 11
121.859992161
 21
191.7641805601
 31
0.0
  0
LINE
  5
96
330
1F
100
AcDbEntity
  8
SLD-0
 62
   179
100
AcDbLine
 10
121.859992161
 20
191.7641805601
 30
0.0
 11
121.694393694
 21
191.9017941807
 31
0.0
  0
LINE
  5
97
330
1F
100
AcDbEntity
  8
SLD-0
 62
   179
100
AcDbLine
 10
121.694393694
 20
191.9017941807
 30
0.0
 11
121.5193525475
 21
192.0271758106
 31
0.0
  0
LINE
  5
98
330
1F
100
AcDbEntity
  8
SLD-0
 62
   179
100
AcDbLine
 10
118.2027275261
 20
192.0271758106
 30
0.0
 11
118.0276854482
 21
191.9017941807
 31
0.0
  0
LINE
  5
99
330
1F
100
AcDbEntity
  8
SLD-0
 62
   179
100
AcDbLine
 10
118.0276854482
 20
191.9017941807
 30
0.0
 11
117.8620879125
 21
191.7641805601
 31
0.0
  0
LINE
  5
9A
330
1F
100
AcDbEntity
  8
SLD-0
 62
   179
100
AcDbLine
 10
117.8620879125
 20
191.7641805601
 30
0.0
 11
117.7067861479
 21
191.6150439181
 31
0.0
  0
LINE
  5
9B
330
1F
100
AcDbEntity
  8
SLD-0
 62
   179
100
AcDbLine
 10
117.7067861479
 20
191.6150439181
 30
0.0
 11
117.5197551545
 21
191.4029118023
 31
0.0
  0
LINE
  5
9C
330
1F
100
AcDbEntity
  8
SLD-0
 62
   179
100
AcDbLine
 10
117.5197551545
 20
191.4029118023
 30
0.0
 11
117.3238607641
 21
191.1280265892
 31
0.0
  0
LINE
  5
9D
330
1F
100
AcDbEntity
  8
SLD-0
 62
   179
100
AcDbLine
 10
117.3238607641
 20
191.1280265892
 30
0.0
 11
117.1600862924
 21
190.8328753314
 31
0.0
  0
LINE
  5
9E
330
1F
100
AcDbEntity
  8
SLD-0
 62
   179
100
AcDbLine
 10
117.1600862924
 20
190.8328753314
 30
0.0
 11
117.0305048633
 21
190.5211943783
 31
0.0
  0
LINE
  5
9F
330
1F
100
AcDbEntity
  8
SLD-0
 62
   179
100
AcDbLine
 10
117.0305048633
 20
190.5211943783
 30
0.0
 11
116.9367570017
 21
190.1969295111
 31
0.0
  0
LINE
  5
A0
330
1F
100
AcDbEntity
  8
SLD-0
 62
   179
100
AcDbLine
 10
116.9367570017
 20
190.1969295111
 30
0.0
 11
116.8800292123
 21
189.8641859123
 31
0.0
  0
LINE
  5
A1
330
1F
100
AcDbEntity
  8
SLD-0
 62
   179
100
AcDbLine
 10
116.8800292123
 20
189.8641859123
 30
0.0
 11
116.8610400107
 21
189.5271758665
 31
0.0
  0
LINE
  5
A2
330
1F
100
AcDbEntity
  8
SLD-0
 62
   179
100
AcDbLine
 10
116.8610400107
 20
189.5271758665
 30
0.0
 11
116.8800292123
 21
189.1901658207
 31
0.0
  0
LINE
  5
A3
330
1F
100
AcDbEntity
  8
SLD-0
 62
   179
100
AcDbLine
 10
116.8800292123
 20
189.1901658207
 30
0.0
 11
116.9367570017
 21
188.8574222219
 31
0.0
  0
LINE
  5
A4
330
1F
100
AcDbEntity
  8
SLD-0
 62
   179
100
AcDbLine
 10
116.9367570017
 20
188.8574222219
 30
0.0
 11
117.0305048633
 21
188.5331573546
 31
0.0
  0
LINE
  5
A5
330
1F
100
AcDbEntity
  8
SLD-0
 62
   179
100
AcDbLine
 10
117.0305048633
 20
188.5331573546
 30
0.0
 11
117.1600862924
 21
188.2214764016
 31
0.0
  0
LINE
  5
A6
330
1F
100
AcDbEntity
  8
SLD-0
 62
   179
100
AcDbLine
 10
117.1600862924
 20
188.2214764016
 30
0.0
 11
117.3238607641
 21
187.9263251437
 31
0.0
  0
LINE
  5
A7
330
1F
100
AcDbEntity
  8
SLD-0
 62
   179
100
AcDbLine
 10
117.3238607641
 20
187.9263251437
 30
0.0
 11
117.5197551545
 21
187.6514399307
 31
0.0
  0
LINE
  5
A8
330
1F
100
AcDbEntity
  8
SLD-0
 62
   179
100
AcDbLine
 10
117.5197551545
 20
187.6514399307
 30
0.0
 11
117.7067861479
 21
187.4393078149
 31
0.0
  0
LINE
  5
A9
330
1F
100
AcDbEntity
  8
SLD-0
 62
   179
100
AcDbLine
 10
117.7067861479
 20
187.4393078149
 30
0.0
 11
117.8620879125
 21
187.2901711729
 31
0.0
  0
LINE
  5
AA
330
1F
100
AcDbEntity
  8
SLD-0
 62
   179
100
AcDbLine
 10
117.8620879125
 20
187.2901711729
 30
0.0
 11
118.0276854482
 21
187.1525575523
 31
0.0
  0
LINE
  5
AB
330
1F
100
AcDbEntity
  8
SLD-0
 62
   179
100
AcDbLine
 10
118.0276854482
 20
187.1525575523
 30
0.0
 11
118.2027275261
 21
187.0271759224
 31
0.0
  0
LINE
  5
AC
330
1F
100
AcDbEntity
  8
SLD-0
  6
HIDDEN
 62
   179
100
AcDbLine
 10
117.1642171737
 20
190.8413854078
 30
0.0
 11
117.2005978931
 21
190.9048857749
 31
0.0
  0
LINE
  5
AD
330
1F
100
AcDbEntity
  8
SLD-0
  6
HIDDEN
 62
   179
100
AcDbLine
 10
117.4800635833
 20
191.3409758242
 30
0.0
 11
117.8389249887
 21
191.7363274959
 31
0.0
  0
LINE
  5
AE
330
1F
100
AcDbEntity
  8
SLD-0
  6
HIDDEN
 62
   179
100
AcDbLine
 10
118.1278538477
 20
191.9673166819
 30
0.0
 11
118.2224529382
 21
192.0374492299
 31
0.0
  0
LINE
  5
AF
330
1F
100
AcDbEntity
  8
SLD-0
  6
HIDDEN
 62
   179
100
AcDbLine
 10
121.5069473308
 20
192.0344054349
 30
0.0
 11
121.7865638953
 21
191.8125655618
 31
0.0
  0
LINE
  5
B0
330
1F
100
AcDbEntity
  8
SLD-0
  6
HIDDEN
 62
   179
100
AcDbLine
 10
121.9725760218
 20
191.6519329068
 30
0.0
 11
122.2662890848
 21
191.3157715578
 31
0.0
  0
LINE
  5
B1
330
1F
100
AcDbEntity
  8
SLD-0
  6
HIDDEN
 62
   179
100
AcDbLine
 10
122.4178636964
 20
191.0742847365
 30
0.0
 11
122.5578628998
 21
190.8413854078
 31
0.0
  0
LINE
  5
B2
330
1F
100
AcDbEntity
  8
SLD-0
  6
HIDDEN
 62
   179
100
AcDbLine
 10
122.5578628998
 20
188.2129663252
 30
0.0
 11
122.5477338355
 21
188.1952872616
 31
0.0
  0
LINE
  5
B3
330
1F
100
AcDbEntity
  8
SLD-0
  6
HIDDEN
 62
   179
100
AcDbLine
 10
122.2420160245
 20
187.7133759088
 30
0.0
 11
121.8831541535
 21
187.3180242371
 31
0.0
  0
LINE
  5
B4
330
1F
100
AcDbEntity
  8
SLD-0
  6
HIDDEN
 62
   179
100
AcDbLine
 10
121.5942262258
 20
187.087035051
 30
0.0
 11
121.499626204
 21
187.0169025031
 31
0.0
  0
LINE
  5
B5
330
1F
100
AcDbEntity
  8
SLD-0
  6
HIDDEN
 62
   179
100
AcDbLine
 10
118.2151327427
 20
187.0199462981
 30
0.0
 11
117.9355161782
 21
187.2417861712
 31
0.0
  0
LINE
  5
B6
330
1F
100
AcDbEntity
  8
SLD-0
  6
HIDDEN
 62
   179
100
AcDbLine
 10
117.7495040517
 20
187.4024188262
 30
0.0
 11
117.4557909887
 21
187.7385801752
 31
0.0
  0
LINE
  5
B7
330
1F
100
AcDbEntity
  8
SLD-0
  6
HIDDEN
 62
   179
100
AcDbLine
 10
117.3042154457
 20
187.9800669965
 30
0.0
 11
117.1642171737
 21
188.2129663252
 31
0.0
  0
LINE
  5
B8
330
1F
100
AcDbEntity
  8
SLD-0
  6
HIDDEN
 62
   179
100
AcDbLine
 10
121.5193525475
 20
187.0271759224
 30
0.0
 11
121.2442407902
 21
186.8650799268
 31
0.0
  0
LINE
  5
B9
330
1F
100
AcDbEntity
  8
SLD-0
  6
HIDDEN
 62
   179
100
AcDbLine
 10
121.2442407902
 20
186.8650799268
 30
0.0
 11
120.9534595307
 21
186.7331429501
 31
0.0
  0
LINE
  5
BA
330
1F
100
AcDbEntity
  8
SLD-0
  6
HIDDEN
 62
   179
100
AcDbLine
 10
120.9534595307
 20
186.7331429501
 30
0.0
 11
120.6503009941
 21
186.632859765
 31
0.0
  0
LINE
  5
BB
330
1F
100
AcDbEntity
  8
SLD-0
  6
HIDDEN
 62
   179
100
AcDbLine
 10
120.6503009941
 20
186.632859765
 30
0.0
 11
120.3382017609
 21
186.5653661196
 31
0.0
  0
LINE
  5
BC
330
1F
100
AcDbEntity
  8
SLD-0
  6
HIDDEN
 62
   179
100
AcDbLine
 10
120.3382017609
 20
186.5653661196
 30
0.0
 11
120.0206971314
 21
186.531427328
 31
0.0
  0
LINE
  5
BD
330
1F
100
AcDbEntity
  8
SLD-0
  6
HIDDEN
 62
   179
100
AcDbLine
 10
120.0206971314
 20
186.531427328
 30
0.0
 11
119.7013829421
 21
186.531427328
 31
0.0
  0
LINE
  5
BE
330
1F
100
AcDbEntity
  8
SLD-0
  6
HIDDEN
 62
   179
100
AcDbLine
 10
119.7013829421
 20
186.531427328
 30
0.0
 11
119.3838773813
 21
186.5653661196
 31
0.0
  0
LINE
  5
BF
330
1F
100
AcDbEntity
  8
SLD-0
  6
HIDDEN
 62
   179
100
AcDbLine
 10
119.3838773813
 20
186.5653661196
 30
0.0
 11
119.071778148
 21
186.632859765
 31
0.0
  0
LINE
  5
C0
330
1F
100
AcDbEntity
  8
SLD-0
  6
HIDDEN
 62
   179
100
AcDbLine
 10
119.071778148
 20
186.632859765
 30
0.0
 11
118.7686205428
 21
186.7331429501
 31
0.0
  0
LINE
  5
C1
330
1F
100
AcDbEntity
  8
SLD-0
  6
HIDDEN
 62
   179
100
AcDbLine
 10
118.7686205428
 20
186.7331429501
 30
0.0
 11
118.4778383519
 21
186.8650799268
 31
0.0
  0
LINE
  5
C2
330
1F
100
AcDbEntity
  8
SLD-0
  6
HIDDEN
 62
   179
100
AcDbLine
 10
118.4778383519
 20
186.8650799268
 30
0.0
 11
118.2027275261
 21
187.0271759224
 31
0.0
  0
LINE
  5
C3
330
1F
100
AcDbEntity
  8
SLD-0
  6
HIDDEN
 62
   179
100
AcDbLine
 10
118.2027275261
 20
192.0271758106
 30
0.0
 11
118.4778383519
 21
192.1892718062
 31
0.0
  0
LINE
  5
C4
330
1F
100
AcDbEntity
  8
SLD-0
  6
HIDDEN
 62
   179
100
AcDbLine
 10
118.4778383519
 20
192.1892718062
 30
0.0
 11
118.7686205428
 21
192.3212087829
 31
0.0
  0
LINE
  5
C5
330
1F
100
AcDbEntity
  8
SLD-0
  6
HIDDEN
 62
   179
100
AcDbLine
 10
118.7686205428
 20
192.3212087829
 30
0.0
 11
119.071778148
 21
192.4214919679
 31
0.0
  0
LINE
  5
C6
330
1F
100
AcDbEntity
  8
SLD-0
  6
HIDDEN
 62
   179
100
AcDbLine
 10
119.071778148
 20
192.4214919679
 30
0.0
 11
119.3838773813
 21
192.4889856134
 31
0.0
  0
LINE
  5
C7
330
1F
100
AcDbEntity
  8
SLD-0
  6
HIDDEN
 62
   179
100
AcDbLine
 10
119.3838773813
 20
192.4889856134
 30
0.0
 11
119.7013829421
 21
192.522924405
 31
0.0
  0
LINE
  5
C8
330
1F
100
AcDbEntity
  8
SLD-0
  6
HIDDEN
 62
   179
100
AcDbLine
 10
119.7013829421
 20
192.522924405
 30
0.0
 11
120.0206971314
 21
192.522924405
 31
0.0
  0
LINE
  5
C9
330
1F
100
AcDbEntity
  8
SLD-0
  6
HIDDEN
 62
   179
100
AcDbLine
 10
120.0206971314
 20
192.522924405
 30
0.0
 11
120.3382017609
 21
192.4889856134
 31
0.0
  0
LINE
  5
CA
330
1F
100
AcDbEntity
  8
SLD-0
  6
HIDDEN
 62
   179
100
AcDbLine
 10
120.3382017609
 20
192.4889856134
 30
0.0
 11
120.6503009941
 21
192.4214919679
 31
0.0
  0
LINE
  5
CB
330
1F
100
AcDbEntity
  8
SLD-0
  6
HIDDEN
 62
   179
100
AcDbLine
 10
120.6503009941
 20
192.4214919679
 30
0.0
 11
120.9534595307
 21
192.3212087829
 31
0.0
  0
LINE
  5
CC
330
1F
100
AcDbEntity
  8
SLD-0
  6
HIDDEN
 62
   179
100
AcDbLine
 10
120.9534595307
 20
192.3212087829
 30
0.0
 11
121.2442407902
 21
192.1892718062
 31
0.0
  0
LINE
  5
CD
330
1F
100
AcDbEntity
  8
SLD-0
  6
HIDDEN
 62
   179
100
AcDbLine
 10
121.2442407902
 20
192.1892718062
 30
0.0
 11
121.5193525475
 21
192.0271758106
 31
0.0
  0
LINE
  5
CE
330
1F
100
AcDbEntity
  8
SLD-0
 62
   179
100
AcDbLine
 10
102.0152934413
 20
187.4393078149
 30
0.0
 11
102.2023244347
 21
187.6514399307
 31
0.0
  0
LINE
  5
CF
330
1F
100
AcDbEntity
  8
SLD-0
 62
   179
100
AcDbLine
 10
102.2023244347
 20
187.6514399307
 30
0.0
 11
102.3982188251
 21
187.9263251437
 31
0.0
  0
LINE
  5
D0
330
1F
100
AcDbEntity
  8
SLD-0
 62
   179
100
AcDbLine
 10
102.3982188251
 20
187.9263251437
 30
0.0
 11
102.5619932968
 21
188.2214764016
 31
0.0
  0
LINE
  5
D1
330
1F
100
AcDbEntity
  8
SLD-0
 62
   179
100
AcDbLine
 10
102.5619932968
 20
188.2214764016
 30
0.0
 11
102.6915747259
 21
188.5331573546
 31
0.0
  0
LINE
  5
D2
330
1F
100
AcDbEntity
  8
SLD-0
 62
   179
100
AcDbLine
 10
102.6915747259
 20
188.5331573546
 30
0.0
 11
102.7853225876
 21
188.8574222219
 31
0.0
  0
LINE
  5
D3
330
1F
100
AcDbEntity
  8
SLD-0
 62
   179
100
AcDbLine
 10
102.7853225876
 20
188.8574222219
 30
0.0
 11
102.8420503769
 21
189.1901658207
 31
0.0
  0
LINE
  5
D4
330
1F
100
AcDbEntity
  8
SLD-0
 62
   179
100
AcDbLine
 10
102.8420503769
 20
189.1901658207
 30
0.0
 11
102.8610395785
 21
189.5271758665
 31
0.0
  0
LINE
  5
D5
330
1F
100
AcDbEntity
  8
SLD-0
 62
   179
100
AcDbLine
 10
102.8610395785
 20
189.5271758665
 30
0.0
 11
102.8420503769
 21
189.8641859123
 31
0.0
  0
LINE
  5
D6
330
1F
100
AcDbEntity
  8
SLD-0
 62
   179
100
AcDbLine
 10
102.8420503769
 20
189.8641859123
 30
0.0
 11
102.7853225876
 21
190.1969295111
 31
0.0
  0
LINE
  5
D7
330
1F
100
AcDbEntity
  8
SLD-0
 62
   179
100
AcDbLine
 10
102.7853225876
 20
190.1969295111
 30
0.0
 11
102.6915747259
 21
190.5211943783
 31
0.0
  0
LINE
  5
D8
330
1F
100
AcDbEntity
  8
SLD-0
 62
   179
100
AcDbLine
 10
102.6915747259
 20
190.5211943783
 30
0.0
 11
102.5619932968
 21
190.8328753314
 31
0.0
  0
LINE
  5
D9
330
1F
100
AcDbEntity
  8
SLD-0
 62
   179
100
AcDbLine
 10
102.5619932968
 20
190.8328753314
 30
0.0
 11
102.3982188251
 21
191.1280265892
 31
0.0
  0
LINE
  5
DA
330
1F
100
AcDbEntity
  8
SLD-0
 62
   179
100
AcDbLine
 10
102.3982188251
 20
191.1280265892
 30
0.0
 11
102.2023244347
 21
191.4029118023
 31
0.0
  0
LINE
  5
DB
330
1F
100
AcDbEntity
  8
SLD-0
 62
   179
100
AcDbLine
 10
102.2023244347
 20
191.4029118023
 30
0.0
 11
102.0152934413
 21
191.6150439181
 31
0.0
  0
LINE
  5
DC
330
1F
100
AcDbEntity
  8
SLD-0
 62
   179
100
AcDbLine
 10
102.0152934413
 20
191.6150439181
 30
0.0
 11
101.8599916767
 21
191.7641805601
 31
0.0
  0
LINE
  5
DD
330
1F
100
AcDbEntity
  8
SLD-0
 62
   179
100
AcDbLine
 10
101.8599916767
 20
191.7641805601
 30
0.0
 11
101.6943941411
 21
191.9017941807
 31
0.0
  0
LINE
  5
DE
330
1F
100
AcDbEntity
  8
SLD-0
 62
   179
100
AcDbLine
 10
101.6943941411
 20
191.9017941807
 30
0.0
 11
101.5193520632
 21
192.0271758106
 31
0.0
  0
LINE
  5
DF
330
1F
100
AcDbEntity
  8
SLD-0
 62
   179
100
AcDbLine
 10
98.2027270418
 20
192.0271758106
 30
0.0
 11
98.0276858952
 21
191.9017941807
 31
0.0
  0
LINE
  5
E0
330
1F
100
AcDbEntity
  8
SLD-0
 62
   179
100
AcDbLine
 10
98.0276858952
 20
191.9017941807
 30
0.0
 11
97.8620874282
 21
191.7641805601
 31
0.0
  0
LINE
  5
E1
330
1F
100
AcDbEntity
  8
SLD-0
 62
   179
100
AcDbLine
 10
97.8620874282
 20
191.7641805601
 30
0.0
 11
97.7067865949
 21
191.6150439181
 31
0.0
  0
LINE
  5
E2
330
1F
100
AcDbEntity
  8
SLD-0
 62
   179
100
AcDbLine
 10
97.7067865949
 20
191.6150439181
 30
0.0
 11
97.5197546702
 21
191.4029118023
 31
0.0
  0
LINE
  5
E3
330
1F
100
AcDbEntity
  8
SLD-0
 62
   179
100
AcDbLine
 10
97.5197546702
 20
191.4029118023
 30
0.0
 11
97.3238612112
 21
191.1280265892
 31
0.0
  0
LINE
  5
E4
330
1F
100
AcDbEntity
  8
SLD-0
 62
   179
100
AcDbLine
 10
97.3238612112
 20
191.1280265892
 30
0.0
 11
97.1600862738
 21
190.8328753314
 31
0.0
  0
LINE
  5
E5
330
1F
100
AcDbEntity
  8
SLD-0
 62
   179
100
AcDbLine
 10
97.1600862738
 20
190.8328753314
 30
0.0
 11
97.0305048447
 21
190.5211943783
 31
0.0
  0
LINE
  5
E6
330
1F
100
AcDbEntity
  8
SLD-0
 62
   179
100
AcDbLine
 10
97.0305048447
 20
190.5211943783
 30
0.0
 11
96.936756983
 21
190.1969295111
 31
0.0
  0
LINE
  5
E7
330
1F
100
AcDbEntity
  8
SLD-0
 62
   179
100
AcDbLine
 10
96.936756983
 20
190.1969295111
 30
0.0
 11
96.8800291937
 21
189.8641859123
 31
0.0
  0
LINE
  5
E8
330
1F
100
AcDbEntity
  8
SLD-0
 62
   179
100
AcDbLine
 10
96.8800291937
 20
189.8641859123
 30
0.0
 11
96.8610395264
 21
189.5271758665
 31
0.0
  0
LINE
  5
E9
330
1F
100
AcDbEntity
  8
SLD-0
 62
   179
100
AcDbLine
 10
96.8610395264
 20
189.5271758665
 30
0.0
 11
96.8800291937
 21
189.1901658207
 31
0.0
  0
LINE
  5
EA
330
1F
100
AcDbEntity
  8
SLD-0
 62
   179
100
AcDbLine
 10
96.8800291937
 20
189.1901658207
 30
0.0
 11
96.936756983
 21
188.8574222219
 31
0.0
  0
LINE
  5
EB
330
1F
100
AcDbEntity
  8
SLD-0
 62
   179
100
AcDbLine
 10
96.936756983
 20
188.8574222219
 30
0.0
 11
97.0305048447
 21
188.5331573546
 31
0.0
  0
LINE
  5
EC
330
1F
100
AcDbEntity
  8
SLD-0
 62
   179
100
AcDbLine
 10
97.0305048447
 20
188.5331573546
 30
0.0
 11
97.1600862738
 21
188.2214764016
 31
0.0
  0
LINE
  5
ED
330
1F
100
AcDbEntity
  8
SLD-0
 62
   179
100
AcDbLine
 10
97.1600862738
 20
188.2214764016
 30
0.0
 11
97.3238612112
 21
187.9263251437
 31
0.0
  0
LINE
  5
EE
330
1F
100
AcDbEntity
  8
SLD-0
 62
   179
100
AcDbLine
 10
97.3238612112
 20
187.9263251437
 30
0.0
 11
97.5197546702
 21
187.6514399307
 31
0.0
  0
LINE
  5
EF
330
1F
100
AcDbEntity
  8
SLD-0
 62
   179
100
AcDbLine
 10
97.5197546702
 20
187.6514399307
 30
0.0
 11
97.7067865949
 21
187.4393078149
 31
0.0
  0
LINE
  5
F0
330
1F
100
AcDbEntity
  8
SLD-0
 62
   179
100
AcDbLine
 10
97.7067865949
 20
187.4393078149
 30
0.0
 11
97.8620874282
 21
187.2901711729
 31
0.0
  0
LINE
  5
F1
330
1F
100
AcDbEntity
  8
SLD-0
 62
   179
100
AcDbLine
 10
97.8620874282
 20
187.2901711729
 30
0.0
 11
98.0276858952
 21
187.1525575523
 31
0.0
  0
LINE
  5
F2
330
1F
100
AcDbEntity
  8
SLD-0
 62
   179
100
AcDbLine
 10
98.0276858952
 20
187.1525575523
 30
0.0
 11
98.2027270418
 21
187.0271759224
 31
0.0
  0
LINE
  5
F3
330
1F
100
AcDbEntity
  8
SLD-0
 62
   179
100
AcDbLine
 10
101.5193520632
 20
187.0271759224
 30
0.0
 11
101.6943941411
 21
187.1525575523
 31
0.0
  0
LINE
  5
F4
330
1F
100
AcDbEntity
  8
SLD-0
 62
   179
100
AcDbLine
 10
101.6943941411
 20
187.1525575523
 30
0.0
 11
101.8599916767
 21
187.2901711729
 31
0.0
  0
LINE
  5
F5
330
1F
100
AcDbEntity
  8
SLD-0
 62
   179
100
AcDbLine
 10
101.8599916767
 20
187.2901711729
 30
0.0
 11
102.0152934413
 21
187.4393078149
 31
0.0
  0
LINE
  5
F6
330
1F
100
AcDbEntity
  8
SLD-0
  6
HIDDEN
 62
   179
100
AcDbLine
 10
102.5578624155
 20
188.2129663252
 30
0.0
 11
102.5214816961
 21
188.1494659581
 31
0.0
  0
LINE
  5
F7
330
1F
100
AcDbEntity
  8
SLD-0
  6
HIDDEN
 62
   179
100
AcDbLine
 10
102.2420160059
 20
187.7133759088
 30
0.0
 11
101.8831546005
 21
187.3180242371
 31
0.0
  0
LINE
  5
F8
330
1F
100
AcDbEntity
  8
SLD-0
  6
HIDDEN
 62
   179
100
AcDbLine
 10
101.5942257415
 20
187.087035051
 30
0.0
 11
101.499626651
 21
187.0169025031
 31
0.0
  0
LINE
  5
F9
330
1F
100
AcDbEntity
  8
SLD-0
  6
HIDDEN
 62
   179
100
AcDbLine
 10
98.2151322585
 20
187.0199462981
 30
0.0
 11
97.9355156939
 21
187.2417861712
 31
0.0
  0
LINE
  5
FA
330
1F
100
AcDbEntity
  8
SLD-0
  6
HIDDEN
 62
   179
100
AcDbLine
 10
97.7495035674
 20
187.4024188262
 30
0.0
 11
97.4557905044
 21
187.7385801752
 31
0.0
  0
LINE
  5
FB
330
1F
100
AcDbEntity
  8
SLD-0
  6
HIDDEN
 62
   179
100
AcDbLine
 10
97.3042158928
 20
187.9800669965
 30
0.0
 11
97.1642166894
 21
188.2129663252
 31
0.0
  0
LINE
  5
FC
330
1F
100
AcDbEntity
  8
SLD-0
  6
HIDDEN
 62
   179
100
AcDbLine
 10
97.1642166894
 20
190.8413854078
 30
0.0
 11
97.1743457537
 21
190.8590644714
 31
0.0
  0
LINE
  5
FD
330
1F
100
AcDbEntity
  8
SLD-0
  6
HIDDEN
 62
   179
100
AcDbLine
 10
97.4800635647
 20
191.3409758242
 30
0.0
 11
97.8389254358
 21
191.7363274959
 31
0.0
  0
LINE
  5
FE
330
1F
100
AcDbEntity
  8
SLD-0
  6
HIDDEN
 62
   179
100
AcDbLine
 10
98.1278533634
 20
191.9673166819
 30
0.0
 11
98.2224533852
 21
192.0374492299
 31
0.0
  0
LINE
  5
FF
330
1F
100
AcDbEntity
  8
SLD-0
  6
HIDDEN
 62
   179
100
AcDbLine
 10
101.5069468465
 20
192.0344054349
 30
0.0
 11
101.786563411
 21
191.8125655618
 31
0.0
  0
LINE
  5
100
330
1F
100
AcDbEntity
  8
SLD-0
  6
HIDDEN
 62
   179
100
AcDbLine
 10
101.9725755375
 20
191.6519329068
 30
0.0
 11
102.2662886005
 21
191.3157715578
 31
0.0
  0
LINE
  5
101
330
1F
100
AcDbEntity
  8
SLD-0
  6
HIDDEN
 62
   179
100
AcDbLine
 10
102.4178641435
 20
191.0742847365
 30
0.0
 11
102.5578624155
 21
190.8413854078
 31
0.0
  0
LINE
  5
102
330
1F
100
AcDbEntity
  8
SLD-0
  6
HIDDEN
 62
   179
100
AcDbLine
 10
98.2027270418
 20
192.0271758106
 30
0.0
 11
98.477838799
 21
192.1892718062
 31
0.0
  0
LINE
  5
103
330
1F
100
AcDbEntity
  8
SLD-0
  6
HIDDEN
 62
   179
100
AcDbLine
 10
98.477838799
 20
192.1892718062
 30
0.0
 11
98.7686200585
 21
192.3212087829
 31
0.0
  0
LINE
  5
104
330
1F
100
AcDbEntity
  8
SLD-0
  6
HIDDEN
 62
   179
100
AcDbLine
 10
98.7686200585
 20
192.3212087829
 30
0.0
 11
99.0717785951
 21
192.4214919679
 31
0.0
  0
LINE
  5
105
330
1F
100
AcDbEntity
  8
SLD-0
  6
HIDDEN
 62
   179
100
AcDbLine
 10
99.0717785951
 20
192.4214919679
 30
0.0
 11
99.3838778283
 21
192.4889856134
 31
0.0
  0
LINE
  5
106
330
1F
100
AcDbEntity
  8
SLD-0
  6
HIDDEN
 62
   179
100
AcDbLine
 10
99.3838778283
 20
192.4889856134
 30
0.0
 11
99.7013824578
 21
192.522924405
 31
0.0
  0
LINE
  5
107
330
1F
100
AcDbEntity
  8
SLD-0
  6
HIDDEN
 62
   179
100
AcDbLine
 10
99.7013824578
 20
192.522924405
 30
0.0
 11
100.0206966471
 21
192.522924405
 31
0.0
  0
LINE
  5
108
330
1F
100
AcDbEntity
  8
SLD-0
  6
HIDDEN
 62
   179
100
AcDbLine
 10
100.0206966471
 20
192.522924405
 30
0.0
 11
100.3382022079
 21
192.4889856134
 31
0.0
  0
LINE
  5
109
330
1F
100
AcDbEntity
  8
SLD-0
  6
HIDDEN
 62
   179
100
AcDbLine
 10
100.3382022079
 20
192.4889856134
 30
0.0
 11
100.6503014412
 21
192.4214919679
 31
0.0
  0
LINE
  5
10A
330
1F
100
AcDbEntity
  8
SLD-0
  6
HIDDEN
 62
   179
100
AcDbLine
 10
100.6503014412
 20
192.4214919679
 30
0.0
 11
100.9534590464
 21
192.3212087829
 31
0.0
  0
LINE
  5
10B
330
1F
100
AcDbEntity
  8
SLD-0
  6
HIDDEN
 62
   179
100
AcDbLine
 10
100.9534590464
 20
192.3212087829
 30
0.0
 11
101.2442412373
 21
192.1892718062
 31
0.0
  0
LINE
  5
10C
330
1F
100
AcDbEntity
  8
SLD-0
  6
HIDDEN
 62
   179
100
AcDbLine
 10
101.2442412373
 20
192.1892718062
 30
0.0
 11
101.5193520632
 21
192.0271758106
 31
0.0
  0
LINE
  5
10D
330
1F
100
AcDbEntity
  8
SLD-0
  6
HIDDEN
 62
   179
100
AcDbLine
 10
101.5193520632
 20
187.0271759224
 30
0.0
 11
101.2442412373
 21
186.8650799268
 31
0.0
  0
LINE
  5
10E
330
1F
100
AcDbEntity
  8
SLD-0
  6
HIDDEN
 62
   179
100
AcDbLine
 10
101.2442412373
 20
186.8650799268
 30
0.0
 11
100.9534590464
 21
186.7331429501
 31
0.0
  0
LINE
  5
10F
330
1F
100
AcDbEntity
  8
SLD-0
  6
HIDDEN
 62
   179
100
AcDbLine
 10
100.9534590464
 20
186.7331429501
 30
0.0
 11
100.6503014412
 21
186.632859765
 31
0.0
  0
LINE
  5
110
330
1F
100
AcDbEntity
  8
SLD-0
  6
HIDDEN
 62
   179
100
AcDbLine
 10
100.6503014412
 20
186.632859765
 30
0.0
 11
100.3382022079
 21
186.5653661196
 31
0.0
  0
LINE
  5
111
330
1F
100
AcDbEntity
  8
SLD-0
  6
HIDDEN
 62
   179
100
AcDbLine
 10
100.3382022079
 20
186.5653661196
 30
0.0
 11
100.0206966471
 21
186.531427328
 31
0.0
  0
LINE
  5
112
330
1F
100
AcDbEntity
  8
SLD-0
  6
HIDDEN
 62
   179
100
AcDbLine
 10
100.0206966471
 20
186.531427328
 30
0.0
 11
99.7013824578
 21
186.531427328
 31
0.0
  0
LINE
  5
113
330
1F
100
AcDbEntity
  8
SLD-0
  6
HIDDEN
 62
   179
100
AcDbLine
 10
99.7013824578
 20
186.531427328
 30
0.0
 11
99.3838778283
 21
186.5653661196
 31
0.0
  0
LINE
  5
114
330
1F
100
AcDbEntity
  8
SLD-0
  6
HIDDEN
 62
   179
100
AcDbLine
 10
99.3838778283
 20
186.5653661196
 30
0.0
 11
99.0717785951
 21
186.632859765
 31
0.0
  0
LINE
  5
115
330
1F
100
AcDbEntity
  8
SLD-0
  6
HIDDEN
 62
   179
100
AcDbLine
 10
99.0717785951
 20
186.632859765
 30
0.0
 11
98.7686200585
 21
186.7331429501
 31
0.0
  0
LINE
  5
116
330
1F
100
AcDbEntity
  8
SLD-0
  6
HIDDEN
 62
   179
100
AcDbLine
 10
98.7686200585
 20
186.7331429501
 30
0.0
 11
98.477838799
 21
186.8650799268
 31
0.0
  0
LINE
  5
117
330
1F
100
AcDbEntity
  8
SLD-0
  6
HIDDEN
 62
   179
100
AcDbLine
 10
98.477838799
 20
186.8650799268
 30
0.0
 11
98.2027270418
 21
187.0271759224
 31
0.0
  0
LINE
  5
118
330
1F
100
AcDbEntity
  8
SLD-0
  6
Continuous
 62
   179
100
AcDbLine
 10
102.3610399622
 20
148.2166237807
 30
0.0
 11
117.361039627
 21
148.2166237807
 31
0.0
  0
LINE
  5
119
330
1F
100
AcDbEntity
  8
SLD-0
  6
Continuous
 62
   179
100
AcDbLine
 10
94.3610397946
 20
148.2166238768
 30
0.0
 11
97.3610396083
 21
148.2166237807
 31
0.0
  0
LINE
  5
11A
330
1F
100
AcDbEntity
  8
SLD-0
  6
Continuous
 62
   179
100
AcDbLine
 10
122.3610399808
 20
148.2166237807
 30
0.0
 11
125.3610397945
 21
148.2166238768
 31
0.0
  0
LINE
  5
11B
330
1F
100
AcDbEntity
  8
SLD-0
  6
Continuous
 62
   179
100
AcDbLine
 10
125.3610397945
 20
154.6166238768
 30
0.0
 11
94.3610397946
 21
154.6166238768
 31
0.0
  0
LINE
  5
11C
330
1F
100
AcDbEntity
  8
SLD-0
  6
Continuous
 62
   179
100
AcDbLine
 10
125.3610397945
 20
154.6166238768
 30
0.0
 11
125.3610397945
 21
153.9020048534
 31
0.0
  0
LINE
  5
11D
330
1F
100
AcDbEntity
  8
SLD-0
  6
Continuous
 62
   179
100
AcDbLine
 10
94.3610397946
 20
154.6166238768
 30
0.0
 11
94.3610397946
 21
153.9020048534
 31
0.0
  0
LINE
  5
11E
330
1F
100
AcDbEntity
  8
SLD-0
  6
Continuous
 62
   179
100
AcDbLine
 10
125.3610397945
 20
153.9020048534
 30
0.0
 11
125.3610397945
 21
148.7090253448
 31
0.0
  0
LINE
  5
11F
330
1F
100
AcDbEntity
  8
SLD-0
  6
Continuous
 62
   179
100
AcDbLine
 10
94.3610397946
 20
153.9020048534
 30
0.0
 11
94.3610397946
 21
148.7090253448
 31
0.0
  0
LINE
  5
120
330
1F
100
AcDbEntity
  8
SLD-0
  6
Continuous
 62
   179
100
AcDbLine
 10
94.3610397946
 20
148.7090253448
 30
0.0
 11
94.3610397946
 21
148.2166238768
 31
0.0
  0
LINE
  5
121
330
1F
100
AcDbEntity
  8
SLD-0
  6
Continuous
 62
   179
100
AcDbLine
 10
125.3610397945
 20
148.7090253448
 30
0.0
 11
125.3610397945
 21
148.2166238768
 31
0.0
  0
LINE
  5
122
330
1F
100
AcDbEntity
  8
SLD-0
  6
HIDDEN
 62
     8
100
AcDbLine
 10
125.3610397945
 20
154.6166238768
 30
0.0
 11
94.3610397946
 21
154.6166238768
 31
0.0
  0
LINE
  5
123
330
1F
100
AcDbEntity
  8
SLD-0
  6
HIDDEN
 62
     8
100
AcDbLine
 10
125.3610397945
 20
154.5287559111
 30
0.0
 11
125.3610397945
 21
154.6166238768
 31
0.0
  0
LINE
  5
124
330
1F
100
AcDbEntity
  8
SLD-0
  6
HIDDEN
 62
     8
100
AcDbLine
 10
94.3610397946
 20
154.5287559111
 30
0.0
 11
94.3610397946
 21
154.6166238768
 31
0.0
  0
LINE
  5
125
330
1F
100
AcDbEntity
  8
SLD-0
  6
HIDDEN
 62
     8
100
AcDbLine
 10
125.3610397945
 20
154.0044918424
 30
0.0
 11
125.3610397945
 21
154.5287559111
 31
0.0
  0
LINE
  5
126
330
1F
100
AcDbEntity
  8
SLD-0
  6
HIDDEN
 62
     8
100
AcDbLine
 10
94.3610397946
 20
154.0044918424
 30
0.0
 11
94.3610397946
 21
154.5287559111
 31
0.0
  0
LINE
  5
127
330
1F
100
AcDbEntity
  8
SLD-0
  6
HIDDEN
 62
     8
100
AcDbLine
 10
101.5137995219
 20
153.9166238768
 30
0.0
 11
102.3610399622
 21
153.9166238768
 31
0.0
  0
LINE
  5
128
330
1F
100
AcDbEntity
  8
SLD-0
  6
HIDDEN
 62
     8
100
AcDbLine
 10
101.5137995219
 20
153.9166238768
 30
0.0
 11
101.3300914835
 21
153.9551665778
 31
0.0
  0
LINE
  5
129
330
1F
100
AcDbEntity
  8
SLD-0
  6
HIDDEN
 62
     8
100
AcDbLine
 10
101.3300914835
 20
153.9551665778
 30
0.0
 11
101.2361061346
 21
154.0044918406
 31
0.0
  0
LINE
  5
12A
330
1F
100
AcDbEntity
  8
SLD-0
  6
HIDDEN
 62
     8
100
AcDbLine
 10
98.4859739017
 20
154.0044918406
 30
0.0
 11
98.3130291622
 21
153.9296189062
 31
0.0
  0
LINE
  5
12B
330
1F
100
AcDbEntity
  8
SLD-0
  6
HIDDEN
 62
     8
100
AcDbLine
 10
98.3130291622
 20
153.9296189062
 30
0.0
 11
98.2082805183
 21
153.9166238768
 31
0.0
  0
LINE
  5
12C
330
1F
100
AcDbEntity
  8
SLD-0
  6
HIDDEN
 62
     8
100
AcDbLine
 10
98.2082805183
 20
153.9166238768
 30
0.0
 11
97.3610396083
 21
153.9166238768
 31
0.0
  0
LINE
  5
12D
330
1F
100
AcDbEntity
  8
SLD-0
  6
HIDDEN
 62
     8
100
AcDbLine
 10
98.2082805183
 20
153.9166238768
 30
0.0
 11
98.3919885527
 21
153.9551665778
 31
0.0
  0
LINE
  5
12E
330
1F
100
AcDbEntity
  8
SLD-0
  6
HIDDEN
 62
     8
100
AcDbLine
 10
98.3919885527
 20
153.9551665778
 30
0.0
 11
98.4859739017
 21
154.0044918406
 31
0.0
  0
LINE
  5
12F
330
1F
100
AcDbEntity
  8
SLD-0
  6
HIDDEN
 62
     8
100
AcDbLine
 10
101.2361061346
 20
154.0044918406
 30
0.0
 11
101.4090499427
 21
153.9296189062
 31
0.0
  0
LINE
  5
130
330
1F
100
AcDbEntity
  8
SLD-0
  6
HIDDEN
 62
     8
100
AcDbLine
 10
101.4090499427
 20
153.9296189062
 30
0.0
 11
101.5137995219
 21
153.9166238768
 31
0.0
  0
LINE
  5
131
330
1F
100
AcDbEntity
  8
SLD-0
  6
HIDDEN
 62
     8
100
AcDbLine
 10
118.4859734546
 20
154.0044918406
 30
0.0
 11
118.3130296465
 21
153.9296189062
 31
0.0
  0
LINE
  5
132
330
1F
100
AcDbEntity
  8
SLD-0
  6
HIDDEN
 62
     8
100
AcDbLine
 10
118.3130296465
 20
153.9296189062
 30
0.0
 11
118.2082800712
 21
153.9166238768
 31
0.0
  0
LINE
  5
133
330
1F
100
AcDbEntity
  8
SLD-0
  6
HIDDEN
 62
     8
100
AcDbLine
 10
118.2082800712
 20
153.9166238768
 30
0.0
 11
117.361039627
 21
153.9166238768
 31
0.0
  0
LINE
  5
134
330
1F
100
AcDbEntity
  8
SLD-0
  6
HIDDEN
 62
     8
100
AcDbLine
 10
118.2082800712
 20
153.9166238768
 30
0.0
 11
118.3919881057
 21
153.9551665778
 31
0.0
  0
LINE
  5
135
330
1F
100
AcDbEntity
  8
SLD-0
  6
HIDDEN
 62
     8
100
AcDbLine
 10
118.3919881057
 20
153.9551665778
 30
0.0
 11
118.4859734546
 21
154.0044918406
 31
0.0
  0
LINE
  5
136
330
1F
100
AcDbEntity
  8
SLD-0
  6
HIDDEN
 62
     8
100
AcDbLine
 10
121.2361056876
 20
154.0044918407
 30
0.0
 11
121.409050427
 21
153.9296189062
 31
0.0
  0
LINE
  5
137
330
1F
100
AcDbEntity
  8
SLD-0
  6
HIDDEN
 62
     8
100
AcDbLine
 10
121.409050427
 20
153.9296189062
 30
0.0
 11
121.5137990709
 21
153.9166238768
 31
0.0
  0
LINE
  5
138
330
1F
100
AcDbEntity
  8
SLD-0
  6
HIDDEN
 62
     8
100
AcDbLine
 10
121.5137990709
 20
153.9166238768
 30
0.0
 11
122.3610399809
 21
153.9166238768
 31
0.0
  0
LINE
  5
139
330
1F
100
AcDbEntity
  8
SLD-0
  6
HIDDEN
 62
     8
100
AcDbLine
 10
121.5137990709
 20
153.9166238768
 30
0.0
 11
121.3300910365
 21
153.9551665778
 31
0.0
  0
LINE
  5
13A
330
1F
100
AcDbEntity
  8
SLD-0
  6
HIDDEN
 62
     8
100
AcDbLine
 10
121.3300910365
 20
153.9551665778
 30
0.0
 11
121.2361056876
 21
154.0044918407
 31
0.0
  0
LINE
  5
13B
330
1F
100
AcDbEntity
  8
SLD-0
  6
HIDDEN
 62
     8
100
AcDbLine
 10
125.3610397945
 20
153.9166238768
 30
0.0
 11
121.5137990709
 21
153.9166238768
 31
0.0
  0
LINE
  5
13C
330
1F
100
AcDbEntity
  8
SLD-0
  6
HIDDEN
 62
     8
100
AcDbLine
 10
125.3610397945
 20
153.9166238768
 30
0.0
 11
125.3610397945
 21
154.0044918424
 31
0.0
  0
LINE
  5
13D
330
1F
100
AcDbEntity
  8
SLD-0
  6
HIDDEN
 62
     8
100
AcDbLine
 10
98.2082805183
 20
153.9166238768
 30
0.0
 11
94.3610397946
 21
153.9166238768
 31
0.0
  0
LINE
  5
13E
330
1F
100
AcDbEntity
  8
SLD-0
  6
HIDDEN
 62
     8
100
AcDbLine
 10
94.3610397946
 20
153.9166238768
 30
0.0
 11
94.3610397946
 21
154.0044918424
 31
0.0
  0
LINE
  5
13F
330
1F
100
AcDbEntity
  8
SLD-0
  6
HIDDEN
 62
     8
100
AcDbLine
 10
118.2082800712
 20
153.9166238768
 30
0.0
 11
101.5137995219
 21
153.9166238768
 31
0.0
  0
LINE
  5
140
330
1F
100
AcDbEntity
  8
SLD-0
  6
HIDDEN
 62
     8
100
AcDbLine
 10
94.3610397946
 20
148.2166238768
 30
0.0
 11
94.3610397946
 21
148.7090253448
 31
0.0
  0
LINE
  5
141
330
1F
100
AcDbEntity
  8
SLD-0
  6
HIDDEN
 62
     8
100
AcDbLine
 10
125.3610397945
 20
148.2166238768
 30
0.0
 11
125.3610397945
 21
148.7090253448
 31
0.0
  0
LINE
  5
142
330
1F
100
AcDbEntity
  8
SLD-0
  6
HIDDEN
 62
     8
100
AcDbLine
 10
125.3610397945
 20
148.7090253448
 30
0.0
 11
125.3610397945
 21
153.9020048534
 31
0.0
  0
LINE
  5
143
330
1F
100
AcDbEntity
  8
SLD-0
  6
HIDDEN
 62
     8
100
AcDbLine
 10
94.3610397946
 20
148.7090253448
 30
0.0
 11
94.3610397946
 21
153.9020048534
 31
0.0
  0
LINE
  5
144
330
1F
100
AcDbEntity
  8
SLD-0
  6
HIDDEN
 62
     8
100
AcDbLine
 10
118.2082800712
 20
153.9166238768
 30
0.0
 11
101.5137995219
 21
153.9166238768
 31
0.0
  0
LINE
  5
145
330
1F
100
AcDbEntity
  8
SLD-0
  6
HIDDEN
 62
     8
100
AcDbLine
 10
98.2082805183
 20
153.9166238768
 30
0.0
 11
94.3610397946
 21
153.9166238768
 31
0.0
  0
LINE
  5
146
330
1F
100
AcDbEntity
  8
SLD-0
  6
HIDDEN
 62
     8
100
AcDbLine
 10
94.3610397946
 20
154.0044918424
 30
0.0
 11
94.3610397946
 21
153.9166238768
 31
0.0
  0
LINE
  5
147
330
1F
100
AcDbEntity
  8
SLD-0
  6
HIDDEN
 62
     8
100
AcDbLine
 10
125.3610397945
 20
153.9166238768
 30
0.0
 11
121.5137990709
 21
153.9166238768
 31
0.0
  0
LINE
  5
148
330
1F
100
AcDbEntity
  8
SLD-0
  6
HIDDEN
 62
     8
100
AcDbLine
 10
125.3610397945
 20
154.0044918424
 30
0.0
 11
125.3610397945
 21
153.9166238768
 31
0.0
  0
LINE
  5
149
330
1F
100
AcDbEntity
  8
SLD-0
  6
HIDDEN
 62
     8
100
AcDbLine
 10
125.3610397945
 20
154.5287559111
 30
0.0
 11
125.3610397945
 21
154.0044918424
 31
0.0
  0
LINE
  5
14A
330
1F
100
AcDbEntity
  8
SLD-0
  6
HIDDEN
 62
     8
100
AcDbLine
 10
94.3610397946
 20
154.5287559111
 30
0.0
 11
94.3610397946
 21
154.0044918424
 31
0.0
  0
LINE
  5
14B
330
1F
100
AcDbEntity
  8
SLD-0
  6
HIDDEN
 62
     8
100
AcDbLine
 10
125.3610397945
 20
154.6166238768
 30
0.0
 11
94.3610397946
 21
154.6166238768
 31
0.0
  0
LINE
  5
14C
330
1F
100
AcDbEntity
  8
SLD-0
  6
HIDDEN
 62
     8
100
AcDbLine
 10
125.3610397945
 20
154.6166238768
 30
0.0
 11
125.3610397945
 21
154.5287559111
 31
0.0
  0
LINE
  5
14D
330
1F
100
AcDbEntity
  8
SLD-0
  6
HIDDEN
 62
     8
100
AcDbLine
 10
94.3610397946
 20
154.6166238768
 30
0.0
 11
94.3610397946
 21
154.5287559111
 31
0.0
  0
LINE
  5
14E
330
1F
100
AcDbEntity
  8
SLD-0
  6
HIDDEN
 62
     8
100
AcDbLine
 10
125.3610397945
 20
154.6166238768
 30
0.0
 11
94.3610397946
 21
154.6166238768
 31
0.0
  0
LINE
  5
14F
330
1F
100
AcDbEntity
  8
SLD-0
  6
HIDDEN
 62
     8
100
AcDbLine
 10
125.3610397945
 20
153.9020048534
 30
0.0
 11
125.3610397945
 21
154.6166238768
 31
0.0
  0
LINE
  5
150
330
1F
100
AcDbEntity
  8
SLD-0
  6
HIDDEN
 62
     8
100
AcDbLine
 10
94.3610397946
 20
153.9020048534
 30
0.0
 11
94.3610397946
 21
154.6166238768
 31
0.0
  0
LINE
  5
151
330
1F
100
AcDbEntity
  8
SLD-0
 62
   179
100
AcDbLine
 10
122.857278451
 20
148.2222391901
 30
0.0
 11
122.8568789136
 21
148.2228058999
 31
0.0
  0
LINE
  5
152
330
1F
100
AcDbEntity
  8
SLD-0
 62
   179
100
AcDbLine
 10
122.8568789136
 20
148.2228058999
 30
0.0
 11
122.5578628998
 21
148.7090252017
 31
0.0
  0
LINE
  5
153
330
1F
100
AcDbEntity
  8
SLD-0
 62
   179
100
AcDbLine
 10
117.1642171737
 20
148.7090252017
 30
0.0
 11
117.0557129715
 21
148.5224947942
 31
0.0
  0
LINE
  5
154
330
1F
100
AcDbEntity
  8
SLD-0
 62
   179
100
AcDbLine
 10
117.0557129715
 20
148.5224947942
 30
0.0
 11
116.8648011569
 21
148.2222391901
 31
0.0
  0
LINE
  5
155
330
1F
100
AcDbEntity
  8
SLD-0
 62
   179
100
AcDbLine
 10
122.5578628998
 20
148.7090252017
 30
0.0
 11
122.3584732559
 21
149.0216985954
 31
0.0
  0
LINE
  5
156
330
1F
100
AcDbEntity
  8
SLD-0
 62
   179
100
AcDbLine
 10
122.3584732559
 20
149.0216985954
 30
0.0
 11
122.1103791665
 21
149.3286755545
 31
0.0
  0
LINE
  5
157
330
1F
100
AcDbEntity
  8
SLD-0
 62
   179
100
AcDbLine
 10
122.1103791665
 20
149.3286755545
 30
0.0
 11
121.8145026412
 21
149.621070796
 31
0.0
  0
LINE
  5
158
330
1F
100
AcDbEntity
  8
SLD-0
 62
   179
100
AcDbLine
 10
121.8145026412
 20
149.621070796
 30
0.0
 11
121.4722751226
 21
149.8884069411
 31
0.0
  0
LINE
  5
159
330
1F
100
AcDbEntity
  8
SLD-0
 62
   179
100
AcDbLine
 10
121.4722751226
 20
149.8884069411
 30
0.0
 11
121.0796332505
 21
150.1200827447
 31
0.0
  0
LINE
  5
15A
330
1F
100
AcDbEntity
  8
SLD-0
 62
   179
100
AcDbLine
 10
121.0796332505
 20
150.1200827447
 30
0.0
 11
120.7441373315
 21
150.2625604303
 31
0.0
  0
LINE
  5
15B
330
1F
100
AcDbEntity
  8
SLD-0
 62
   179
100
AcDbLine
 10
120.7441373315
 20
150.2625604303
 30
0.0
 11
120.3830216598
 21
150.3636899547
 31
0.0
  0
LINE
  5
15C
330
1F
100
AcDbEntity
  8
SLD-0
 62
   179
100
AcDbLine
 10
120.3830216598
 20
150.3636899547
 30
0.0
 11
119.9997693818
 21
150.4130821818
 31
0.0
  0
LINE
  5
15D
330
1F
100
AcDbEntity
  8
SLD-0
 62
   179
100
AcDbLine
 10
119.9997693818
 20
150.4130821818
 30
0.0
 11
119.611340813
 21
150.405119141
 31
0.0
  0
LINE
  5
15E
330
1F
100
AcDbEntity
  8
SLD-0
 62
   179
100
AcDbLine
 10
119.611340813
 20
150.405119141
 30
0.0
 11
119.28599631
 21
150.3519885851
 31
0.0
  0
LINE
  5
15F
330
1F
100
AcDbEntity
  8
SLD-0
 62
   179
100
AcDbLine
 10
119.28599631
 20
150.3519885851
 30
0.0
 11
118.9750891697
 21
150.2617338815
 31
0.0
  0
LINE
  5
160
330
1F
100
AcDbEntity
  8
SLD-0
 62
   179
100
AcDbLine
 10
118.9750891697
 20
150.2617338815
 30
0.0
 11
118.5775569227
 21
150.0866990214
 31
0.0
  0
LINE
  5
161
330
1F
100
AcDbEntity
  8
SLD-0
 62
   179
100
AcDbLine
 10
118.5775569227
 20
150.0866990214
 30
0.0
 11
118.2219965901
 21
149.8690917765
 31
0.0
  0
LINE
  5
162
330
1F
100
AcDbEntity
  8
SLD-0
 62
   179
100
AcDbLine
 10
118.2219965901
 20
149.8690917765
 30
0.0
 11
117.7866852429
 21
149.5096236145
 31
0.0
  0
LINE
  5
163
330
1F
100
AcDbEntity
  8
SLD-0
 62
   179
100
AcDbLine
 10
117.7866852429
 20
149.5096236145
 30
0.0
 11
117.4352315772
 21
149.1173873333
 31
0.0
  0
LINE
  5
164
330
1F
100
AcDbEntity
  8
SLD-0
 62
   179
100
AcDbLine
 10
117.4352315772
 20
149.1173873333
 30
0.0
 11
117.1642171737
 21
148.7090252017
 31
0.0
  0
LINE
  5
165
330
1F
100
AcDbEntity
  8
SLD-0
 62
   179
100
AcDbLine
 10
97.1642166894
 20
148.7090252017
 30
0.0
 11
97.0557129528
 21
148.5224947942
 31
0.0
  0
LINE
  5
166
330
1F
100
AcDbEntity
  8
SLD-0
 62
   179
100
AcDbLine
 10
97.0557129528
 20
148.5224947942
 30
0.0
 11
96.8648011383
 21
148.2222391901
 31
0.0
  0
LINE
  5
167
330
1F
100
AcDbEntity
  8
SLD-0
 62
   179
100
AcDbLine
 10
102.5578624155
 20
148.7090252017
 30
0.0
 11
102.3584737029
 21
149.0216985954
 31
0.0
  0
LINE
  5
168
330
1F
100
AcDbEntity
  8
SLD-0
 62
   179
100
AcDbLine
 10
102.3584737029
 20
149.0216985954
 30
0.0
 11
102.1103796136
 21
149.3286755545
 31
0.0
  0
LINE
  5
169
330
1F
100
AcDbEntity
  8
SLD-0
 62
   179
100
AcDbLine
 10
102.1103796136
 20
149.3286755545
 30
0.0
 11
101.8145021569
 21
149.621070796
 31
0.0
  0
LINE
  5
16A
330
1F
100
AcDbEntity
  8
SLD-0
 62
   179
100
AcDbLine
 10
101.8145021569
 20
149.621070796
 30
0.0
 11
101.4722746383
 21
149.8884069411
 31
0.0
  0
LINE
  5
16B
330
1F
100
AcDbEntity
  8
SLD-0
 62
   179
100
AcDbLine
 10
101.4722746383
 20
149.8884069411
 30
0.0
 11
101.0796336975
 21
150.1200827447
 31
0.0
  0
LINE
  5
16C
330
1F
100
AcDbEntity
  8
SLD-0
 62
   179
100
AcDbLine
 10
101.0796336975
 20
150.1200827447
 30
0.0
 11
100.7441377785
 21
150.2625604303
 31
0.0
  0
LINE
  5
16D
330
1F
100
AcDbEntity
  8
SLD-0
 62
   179
100
AcDbLine
 10
100.7441377785
 20
150.2625604303
 30
0.0
 11
100.3830211755
 21
150.3636899547
 31
0.0
  0
LINE
  5
16E
330
1F
100
AcDbEntity
  8
SLD-0
 62
   179
100
AcDbLine
 10
100.3830211755
 20
150.3636899547
 30
0.0
 11
99.9997698288
 21
150.4130821818
 31
0.0
  0
LINE
  5
16F
330
1F
100
AcDbEntity
  8
SLD-0
 62
   179
100
AcDbLine
 10
99.9997698288
 20
150.4130821818
 30
0.0
 11
99.61134126
 21
150.405119141
 31
0.0
  0
LINE
  5
170
330
1F
100
AcDbEntity
  8
SLD-0
 62
   179
100
AcDbLine
 10
99.61134126
 20
150.405119141
 30
0.0
 11
99.2859967571
 21
150.3519885851
 31
0.0
  0
LINE
  5
171
330
1F
100
AcDbEntity
  8
SLD-0
 62
   179
100
AcDbLine
 10
99.2859967571
 20
150.3519885851
 30
0.0
 11
98.9750886854
 21
150.2617338815
 31
0.0
  0
LINE
  5
172
330
1F
100
AcDbEntity
  8
SLD-0
 62
   179
100
AcDbLine
 10
98.9750886854
 20
150.2617338815
 30
0.0
 11
98.5775573697
 21
150.0866990214
 31
0.0
  0
LINE
  5
173
330
1F
100
AcDbEntity
  8
SLD-0
 62
   179
100
AcDbLine
 10
98.5775573697
 20
150.0866990214
 30
0.0
 11
98.2219961058
 21
149.8690917765
 31
0.0
  0
LINE
  5
174
330
1F
100
AcDbEntity
  8
SLD-0
 62
   179
100
AcDbLine
 10
98.2219961058
 20
149.8690917765
 30
0.0
 11
97.7866847586
 21
149.5096236145
 31
0.0
  0
LINE
  5
175
330
1F
100
AcDbEntity
  8
SLD-0
 62
   179
100
AcDbLine
 10
97.7866847586
 20
149.5096236145
 30
0.0
 11
97.4352315586
 21
149.1173873333
 31
0.0
  0
LINE
  5
176
330
1F
100
AcDbEntity
  8
SLD-0
 62
   179
100
AcDbLine
 10
97.4352315586
 20
149.1173873333
 30
0.0
 11
97.1642166894
 21
148.7090252017
 31
0.0
  0
LINE
  5
177
330
1F
100
AcDbEntity
  8
SLD-0
 62
   179
100
AcDbLine
 10
102.8572784323
 20
148.2222391901
 30
0.0
 11
102.8568788949
 21
148.2228058999
 31
0.0
  0
LINE
  5
178
330
1F
100
AcDbEntity
  8
SLD-0
 62
   179
100
AcDbLine
 10
102.8568788949
 20
148.2228058999
 30
0.0
 11
102.5578624155
 21
148.7090252017
 31
0.0
  0
LINE
  5
179
330
1F
100
AcDbEntity
  8
SLD-0
  6
CENTERX2
 62
   179
100
AcDbLine
 10
119.8610397946
 20
146.7090253448
 30
0.0
 11
119.8610397946
 21
156.0044918424
 31
0.0
  0
LINE
  5
17A
330
1F
100
AcDbEntity
  8
SLD-0
  6
CENTERX2
 62
   179
100
AcDbLine
 10
99.8610397946
 20
146.7090253448
 30
0.0
 11
99.8610397946
 21
156.0044918424
 31
0.0
  0
LINE
  5
17B
330
1F
100
AcDbEntity
  8
SLD-0
  6
Continuous
 62
   179
100
AcDbLine
 10
69.9816665812
 20
154.0044918424
 30
0.0
 11
70.5059306499
 21
154.5287559111
 31
0.0
  0
LINE
  5
17C
330
1F
100
AcDbEntity
  8
SLD-0
  6
Continuous
 62
   179
100
AcDbLine
 10
70.7180626843
 20
154.6166238768
 30
0.0
 11
72.6937986156
 21
154.6166238768
 31
0.0
  0
LINE
  5
17D
330
1F
100
AcDbEntity
  8
SLD-0
  6
Continuous
 62
   179
100
AcDbLine
 10
63.0937986156
 20
154.6166238768
 30
0.0
 11
65.0695345469
 21
154.6166238768
 31
0.0
  0
LINE
  5
17E
330
1F
100
AcDbEntity
  8
SLD-0
  6
Continuous
 62
   179
100
AcDbLine
 10
65.2816665813
 20
154.5287559112
 30
0.0
 11
65.80593065
 21
154.0044918425
 31
0.0
  0
LINE
  5
17F
330
1F
100
AcDbEntity
  8
SLD-0
  6
Continuous
 62
   179
100
AcDbLine
 10
66.0180626843
 20
153.9166238768
 30
0.0
 11
69.7695345469
 21
153.9166238768
 31
0.0
  0
LINE
  5
180
330
1F
100
AcDbEntity
  8
SLD-0
 62
   179
100
AcDbLine
 10
70.8937986416
 20
150.410240251
 30
0.0
 11
70.8937986416
 21
150.4173737162
 31
0.0
  0
LINE
  5
181
330
1F
100
AcDbEntity
  8
SLD-0
 62
   179
100
AcDbLine
 10
64.8937985895
 20
150.4173737162
 30
0.0
 11
64.8937985895
 21
150.410240251
 31
0.0
  0
LINE
  5
182
330
1F
100
AcDbEntity
  8
SLD-0
  6
CENTERX2
 62
   179
100
AcDbLine
 10
67.8937986156
 20
146.7090253448
 30
0.0
 11
67.8937986156
 21
156.0044918424
 31
0.0
  0
ARC
  5
183
330
1F
100
AcDbEntity
  8
SLD-0
  6
Continuous
 62
   179
100
AcDbCircle
 10
119.8610394765
 20
189.5271757831
 30
0.0
 40
2.499999982642332
100
AcDbArc
 50
56.631174544
 51
123.3688249984
  0
ARC
  5
184
330
1F
100
AcDbEntity
  8
SLD-0
  6
Continuous
 62
   179
100
AcDbCircle
 10
99.8610401127
 20
189.5271757831
 30
0.0
 40
2.499999982642333
100
AcDbArc
 50
56.6311750016
 51
123.3688254559
  0
ARC
  5
185
330
1F
100
AcDbEntity
  8
SLD-0
  6
Continuous
 62
   179
100
AcDbCircle
 10
119.8610394765
 20
189.5271757831
 30
0.0
 40
2.499999947549052
100
AcDbArc
 50
236.6311692774
 51
303.3688302652
  0
ARC
  5
186
330
1F
100
AcDbEntity
  8
SLD-0
  6
Continuous
 62
   179
100
AcDbCircle
 10
99.8610401127
 20
189.5271757831
 30
0.0
 40
2.49999995022165
100
AcDbArc
 50
236.6311692673
 51
303.3688302663
  0
ARC
  5
187
330
1F
100
AcDbEntity
  8
SLD-0
  6
Continuous
 62
   179
100
AcDbCircle
 10
99.8610401127
 20
189.5271757831
 30
0.0
 40
2.499999855789488
100
AcDbArc
 50
131.3841098007
 51
228.6158848706
  0
ARC
  5
188
330
1F
100
AcDbEntity
  8
SLD-0
  6
Continuous
 62
   179
100
AcDbCircle
 10
119.8610394765
 20
189.5271757831
 30
0.0
 40
2.499999855789497
100
AcDbArc
 50
311.3841151294
 51
48.6158901993
  0
ARC
  5
189
330
1F
100
AcDbEntity
  8
SLD-0
  6
Continuous
 62
   179
100
AcDbCircle
 10
119.8610394765
 20
189.5271757831
 30
0.0
 40
2.499999853072276
100
AcDbArc
 50
131.3841093494
 51
228.6158848689
  0
ARC
  5
18A
330
1F
100
AcDbEntity
  8
SLD-0
  6
Continuous
 62
   179
100
AcDbCircle
 10
99.8610401127
 20
189.5271757831
 30
0.0
 40
2.499999853072267
100
AcDbArc
 50
311.3841151311
 51
48.6158906506
  0
ARC
  5
18B
330
1F
100
AcDbEntity
  8
SLD-0
  6
Continuous
 62
   179
100
AcDbCircle
 10
119.8610395711
 20
147.3086203364
 30
0.0
 40
2.546367553600011
100
AcDbArc
 50
33.3643918462
 51
146.6356081538
  0
ARC
  5
18C
330
1F
100
AcDbEntity
  8
SLD-0
  6
Continuous
 62
   179
100
AcDbCircle
 10
99.8610400181
 20
147.308620247
 30
0.0
 40
2.546367602799989
100
AcDbArc
 50
33.3643935263
 51
146.6356064738
  0
ARC
  5
18D
330
1F
100
AcDbEntity
  8
SLD-0
  6
Continuous
 62
   179
100
AcDbCircle
 10
111.382784917
 20
155.443899006
 30
0.0
 40
11.55964485665309
100
AcDbArc
 50
215.6349917339
 51
218.698044983
  0
ARC
  5
18E
330
1F
100
AcDbEntity
  8
SLD-0
  6
Continuous
 62
   179
100
AcDbCircle
 10
88.8410594306
 20
155.0635091625
 30
0.0
 40
10.93022880183511
100
AcDbArc
 50
321.2137042165
 51
324.4531902565
  0
ARC
  5
18F
330
1F
100
AcDbEntity
  8
SLD-0
  6
Continuous
 62
   179
100
AcDbCircle
 10
131.3830240889
 20
155.4440891974
 30
0.0
 40
11.55995041500528
100
AcDbArc
 50
215.6350659333
 51
218.6980395938
  0
ARC
  5
190
330
1F
100
AcDbEntity
  8
SLD-0
  6
Continuous
 62
   179
100
AcDbCircle
 10
108.841380078
 20
155.0632576769
 30
0.0
 40
10.92982134071974
100
AcDbArc
 50
321.2136789626
 51
324.4532843266
  0
ARC
  5
191
330
1F
100
AcDbEntity
  8
SLD-0
  6
HIDDEN
 62
     8
100
AcDbCircle
 10
110.8806995112
 20
155.0632576777
 30
0.0
 40
10.9298213411424
100
AcDbArc
 50
215.5467156764
 51
218.7863210405
  0
ARC
  5
192
330
1F
100
AcDbEntity
  8
SLD-0
  6
HIDDEN
 62
     8
100
AcDbCircle
 10
99.8610400181
 20
147.308620247
 30
0.0
 40
2.546367602799989
100
AcDbArc
 50
33.3643935263
 51
146.6356064738
  0
ARC
  5
193
330
1F
100
AcDbEntity
  8
SLD-0
  6
HIDDEN
 62
     8
100
AcDbCircle
 10
88.3390555015
 20
155.4440891964
 30
0.0
 40
11.55995041334915
100
AcDbArc
 50
321.3019604061
 51
324.364934067
  0
ARC
  5
194
330
1F
100
AcDbEntity
  8
SLD-0
  6
HIDDEN
 62
     8
100
AcDbCircle
 10
99.8610400182
 20
151.9166246207
 30
0.0
 40
2.499999270508266
100
AcDbArc
 50
56.6311616552
 51
123.3688383448
  0
ARC
  5
195
330
1F
100
AcDbEntity
  8
SLD-0
  6
HIDDEN
 62
     8
100
AcDbCircle
 10
99.8610400182
 20
151.9166246207
 30
0.0
 40
2.499999270508266
100
AcDbArc
 50
56.6311616552
 51
123.3688383448
  0
ARC
  5
196
330
1F
100
AcDbEntity
  8
SLD-0
  6
HIDDEN
 62
     8
100
AcDbCircle
 10
130.8810201585
 20
155.0635091625
 30
0.0
 40
10.93022880185175
100
AcDbArc
 50
215.5468097435
 51
218.7862957835
  0
ARC
  5
197
330
1F
100
AcDbEntity
  8
SLD-0
  6
HIDDEN
 62
     8
100
AcDbCircle
 10
119.8610395711
 20
147.3086203364
 30
0.0
 40
2.546367553600011
100
AcDbArc
 50
33.3643918462
 51
146.6356081538
  0
ARC
  5
198
330
1F
100
AcDbEntity
  8
SLD-0
  6
HIDDEN
 62
     8
100
AcDbCircle
 10
108.339294671
 20
155.4438990062
 30
0.0
 40
11.55964485772988
100
AcDbArc
 50
321.3019550203
 51
324.3650082689
  0
ARC
  5
199
330
1F
100
AcDbEntity
  8
SLD-0
  6
HIDDEN
 62
     8
100
AcDbCircle
 10
119.8610395712
 20
151.9166246207
 30
0.0
 40
2.499999270567878
100
AcDbArc
 50
56.631161657
 51
123.3688383469
  0
ARC
  5
19A
330
1F
100
AcDbEntity
  8
SLD-0
  6
HIDDEN
 62
     8
100
AcDbCircle
 10
119.8610395712
 20
151.9166246207
 30
0.0
 40
2.499999270567878
100
AcDbArc
 50
56.631161657
 51
123.3688383469
  0
ARC
  5
19B
330
1F
100
AcDbEntity
  8
SLD-0
  6
Continuous
 62
   179
100
AcDbCircle
 10
70.7180626843
 20
154.3166238768
 30
0.0
 40
0.299999999995805
100
AcDbArc
 50
90.0
 51
135.0000000135
  0
ARC
  5
19C
330
1F
100
AcDbEntity
  8
SLD-0
  6
Continuous
 62
   179
100
AcDbCircle
 10
72.6937986156
 20
154.1166238768
 30
0.0
 40
0.5
100
AcDbArc
 50
334.5807856114
 51
90.0
  0
ARC
  5
19D
330
1F
100
AcDbEntity
  8
SLD-0
  6
Continuous
 62
   179
100
AcDbCircle
 10
58.6943319651
 20
160.7698136005
 30
0.0
 40
16.00000000001304
100
AcDbArc
 50
311.0794373955
 51
334.5807856116
  0
ARC
  5
19E
330
1F
100
AcDbEntity
  8
SLD-0
  6
Continuous
 62
   179
100
AcDbCircle
 10
67.8937986157
 20
150.2166238768
 30
0.0
 40
2.000000000001655
100
AcDbArc
 50
228.9205626045
 51
311.0794373934
  0
ARC
  5
19F
330
1F
100
AcDbEntity
  8
SLD-0
  6
Continuous
 62
   179
100
AcDbCircle
 10
77.093265266
 20
160.7698136006
 30
0.0
 40
15.99999999996553
100
AcDbArc
 50
205.4192143893
 51
228.9205626053
  0
ARC
  5
1A0
330
1F
100
AcDbEntity
  8
SLD-0
  6
Continuous
 62
   179
100
AcDbCircle
 10
65.0695345469
 20
154.3166238768
 30
0.0
 40
0.2999999999999843
100
AcDbArc
 50
45.0
 51
90.0
  0
ARC
  5
1A1
330
1F
100
AcDbEntity
  8
SLD-0
  6
Continuous
 62
   179
100
AcDbCircle
 10
66.0180626843
 20
154.2166238768
 30
0.0
 40
0.3000000000311616
100
AcDbArc
 50
225.0
 51
270.0
  0
ARC
  5
1A2
330
1F
100
AcDbEntity
  8
SLD-0
  6
Continuous
 62
   179
100
AcDbCircle
 10
69.7695345469
 20
154.2166238768
 30
0.0
 40
0.299999999995805
100
AcDbArc
 50
270.0
 51
314.9999999865
  0
ARC
  5
1A3
330
1F
100
AcDbEntity
  8
SLD-0
  6
Continuous
 62
   179
100
AcDbCircle
 10
63.0937986156
 20
154.1166238768
 30
0.0
 40
0.5000000000321165
100
AcDbArc
 50
90.0
 51
205.4192143908
  0
DIMENSION
  5
1A4
330
1F
100
AcDbEntity
  8
SLD-0
 62
     7
100
AcDbDimension
  2
*D5
 10
125.3610397946
 20
207.628788066
 30
0.0
 11
132.1112079989
 21
207.628788066
 31
0.0
 70
   160
 71
     1
 42
5.5
  3
SLDDIMSTYLE0
100
AcDbAlignedDimension
 13
119.8610397946
 23
194.5271758665
 33
0.0
 14
125.3610397946
 24
194.8271758665
 34
0.0
100
AcDbRotatedDimension
1001
ACAD
1000
DSTYLE
1002
{
1070
    77
1070
     3
1070
   143
1040
0.0393700787
1070
    41
1040
3.0
1070
    44
1040
1.0
1070
    42
1040
1.0
1070
   147
1040
1.524
1070
    73
1070
     0
1070
    74
1070
     0
1070
   140
1040
3.5
1070
   284
1070
    12
1070
    78
1070
    12
1002
}
  0
DIMENSION
  5
1C5
330
1F
100
AcDbEntity
  8
SLD-0
 62
     7
100
AcDbDimension
  2
*D7
 10
119.8610397946
 20
207.628788066
 30
0.0
 11
109.8610397946
 21
207.628788066
 31
0.0
 70
   160
 71
     1
 42
20.0
  3
SLDDIMSTYLE1
100
AcDbAlignedDimension
 13
99.8610397946
 23
194.5271758665
 33
0.0
 14
119.8610397946
 24
194.5271758665
 34
0.0
100
AcDbRotatedDimension
1001
ACAD
1000
DSTYLE
1002
{
1070
    77
1070
     3
1070
   143
1040
0.0393700787
1070
    41
1040
3.0
1070
    44
1040
1.0
1070
    42
1040
1.0
1070
   147
1040
1.524
1070
    73
1070
     0
1070
    74
1070
     0
1070
   140
1040
3.5
1070
   284
1070
    12
1070
    78
1070
    12
1002
}
  0
DIMENSION
  5
1DD
330
1F
100
AcDbEntity
  8
SLD-0
 62
     7
100
AcDbDimension
  2
*D8
 10
94.3610397946
 20
213.5726708423
 30
0.0
 11
109.8610397946
 21
213.5726708423
 31
0.0
 70
   160
 71
     1
 42
31.0
  3
SLDDIMSTYLE1
100
AcDbAlignedDimension
 13
125.3610397946
 23
194.8271758665
 33
0.0
 14
94.3610397946
 24
194.8271758665
 34
0.0
100
AcDbRotatedDimension
1001
ACAD
1000
DSTYLE
1002
{
1070
    77
1070
     3
1070
   143
1040
0.0393700787
1070
    41
1040
3.0
1070
    44
1040
1.0
1070
    42
1040
1.0
1070
   147
1040
1.524
1070
    73
1070
     0
1070
    74
1070
     0
1070
   140
1040
3.5
1070
   284
1070
    12
1070
    78
1070
    12
1002
}
  0
DIMENSION
  5
1F4
330
1F
100
AcDbEntity
  8
SLD-0
 62
     7
100
AcDbDimension
  2
*D9
 10
2.7968882522
 20
5.3082396573
 30
0.0
 11
85.4588911768
 21
-5.3082402357
 31
0.0
 70
   163
  1
2-M<><>
 71
     1
 42
5.9999993463
  3
SLDDIMSTYLE2
100
AcDbDiametricDimension
 15
0.0
 25
0.0
 35
0.0
 40
0.0
1001
ACAD
1000
DSTYLE
1002
{
1070
    77
1070
     0
1070
   143
1040
0.0393700787
1070
    41
1040
3.0
1070
    44
1040
1.0
1070
    42
1040
1.0
1070
   147
1040
1.524
1070
    73
1070
     1
1070
    74
1070
     1
1070
   140
1040
3.5
1070
   284
1070
    12
1070
    78
1070
    12
1002
}
  0
DIMENSION
  5
205
330
1F
100
AcDbEntity
  8
SLD-0
 62
     7
100
AcDbDimension
  2
*D10
 10
147.9564547677
 20
194.8271758665
 30
0.0
 11
147.9564547677
 21
177.2406773623
 31
0.0
 70
   160
 71
     1
 42
10.6
  3
SLDDIMSTYLE0
100
AcDbAlignedDimension
 13
125.3610397946
 23
184.2271758665
 33
0.0
 14
125.3610397946
 24
194.8271758665
 34
0.0
 50
90.0
100
AcDbRotatedDimension
1001
ACAD
1000
DSTYLE
1002
{
1070
    77
1070
     3
1070
   143
1040
0.0393700787
1070
    41
1040
3.0
1070
    44
1040
1.0
1070
    42
1040
1.0
1070
   147
1040
1.524
1070
    73
1070
     0
1070
    74
1070
     0
1070
   140
1040
3.5
1070
   284
1070
    12
1070
    78
1070
    12
1002
}
  0
DIMENSION
  5
21E
330
1F
100
AcDbEntity
  8
SLD-0
 62
     7
100
AcDbDimension
  2
*D11
 10
136.4252181712
 20
184.2271758665
 30
0.0
 11
136.4252181712
 21
177.2406773623
 31
0.0
 70
   160
 71
     1
 42
5.3
  3
SLDDIMSTYLE0
100
AcDbAlignedDimension
 13
124.8610397946
 23
189.5271758665
 33
0.0
 14
125.3610397946
 24
184.2271758665
 34
0.0
 50
90.0
100
AcDbRotatedDimension
1001
ACAD
1000
DSTYLE
1002
{
1070
    77
1070
     3
1070
   143
1040
0.0393700787
1070
    41
1040
3.0
1070
    44
1040
1.0
1070
    42
1040
1.0
1070
   147
1040
1.524
1070
    73
1070
     0
1070
    74
1070
     0
1070
   140
1040
3.5
1070
   284
1070
    12
1070
    78
1070
    12
1002
}
  0
MTEXT
  5
239
330
1F
100
AcDbEntity
  8
SLD-0
 62
     7
100
AcDbMText
 10
154.0923134961
 20
17.4919120544
 30
0.0
 40
3.5
 41
0.0
 71
     1
 72
     1
  1
131058
  7
SLDTEXTSTYLE0
 73
     1
 44
1.0
  0
MTEXT
  5
23A
330
1F
100
AcDbEntity
  8
SLD-0
 62
     7
100
AcDbMText
 10
147.3083984572
 20
29.7138882404
 30
0.0
 40
4.2333333333
 41
0.0
 71
     1
 72
     1
  1
N01914-105-0
  7
SLDTEXTSTYLE1
 73
     1
 44
1.0
  0
MTEXT
  5
23B
330
1F
100
AcDbEntity
  8
SLD-0
 62
     7
100
AcDbMText
 10
149.3599989101
 20
43.2377018572
 30
0.0
 40
4.2333333333
 41
0.0
 71
     1
 72
     1
  1
Nut M6-P20
  7
SLDTEXTSTYLE1
 73
     1
 44
1.0
  0
INSERT
  5
23C
330
1F
100
AcDbEntity
  8
0
  6
Continuous
 62
     7
370
     0
100
AcDbBlockReference
  2
SURFACEFINISH39
 10
176.1663369538
 20
249.0193918395
 30
0.0
  0
INSERT
  5
23D
330
1F
100
AcDbEntity
  8
0
  6
Continuous
 62
     7
370
     0
100
AcDbBlockReference
  2
注記
 10
108.5743361957
 20
55.2566901623
 30
0.0
  0
INSERT
  5
23E
330
1F
100
AcDbEntity
  8
0
  6
Continuous
 62
     7
370
     0
100
AcDbBlockReference
  2
SW_CENTERMARK0
 10
0.0
 20
0.0
 30
0.0
  0
INSERT
  5
23F
330
1F
100
AcDbEntity
  8
0
  6
Continuous
 62
     7
370
     0
100
AcDbBlockReference
  2
SW_CENTERMARK1
 10
0.0
 20
0.0
 30
0.0
  0
ENDSEC
  0
SECTION
  2
OBJECTS
  0
DICTIONARY
  5
C
330
0
100
AcDbDictionary
281
     1
  3
ACAD_GROUP
350
D
  3
ACAD_LAYOUT
350
1A
  3
ACAD_MLINESTYLE
350
17
  3
ACAD_PLOTSETTINGS
350
19
  3
ACAD_PLOTSTYLENAME
350
E
  0
DICTIONARY
  5
D
102
{ACAD_REACTORS
330
C
102
}
330
C
100
AcDbDictionary
281
     1
  0
DICTIONARY
  5
1A
102
{ACAD_REACTORS
330
C
102
}
330
C
100
AcDbDictionary
281
     1
  3
Layout1
350
1E
  3
Layout2
350
26
  3
Model
350
22
  0
DICTIONARY
  5
17
102
{ACAD_REACTORS
330
C
102
}
330
C
100
AcDbDictionary
281
     1
  3
Standard
350
18
  0
DICTIONARY
  5
19
102
{ACAD_REACTORS
330
C
102
}
330
C
100
AcDbDictionary
281
     1
  0
ACDBDICTIONARYWDFLT
  5
E
102
{ACAD_REACTORS
330
C
102
}
330
C
100
AcDbDictionary
281
     1
  3
Normal
350
F
100
AcDbDictionaryWithDefault
340
F
  0
LAYOUT
  5
1E
102
{ACAD_REACTORS
330
1A
102
}
330
1A
100
AcDbPlotSettings
  1

  2

  4

  6

 40
0.0
 41
0.0
 42
0.0
 43
0.0
 44
0.0
 45
0.0
 46
0.0
 47
0.0
 48
0.0
 49
0.0
140
0.0
141
0.0
142
1.0
143
1.0
 70
   688
 72
     0
 73
     0
 74
     5
  7

 75
    16
147
1.0
148
0.0
149
0.0
100
AcDbLayout
  1
Layout1
 70
     1
 71
     1
 10
0.0
 20
0.0
 11
0.0
 21
0.0
 12
0.0
 22
0.0
 32
0.0
 14
0.0
 24
0.0
 34
0.0
 15
0.0
 25
0.0
 35
0.0
146
0.0
 13
0.0
 23
0.0
 33
0.0
 16
1.0
 26
0.0
 36
0.0
 17
0.0
 27
1.0
 37
0.0
 76
     0
330
1B
  0
LAYOUT
  5
26
102
{ACAD_REACTORS
330
1A
102
}
330
1A
100
AcDbPlotSettings
  1

  2

  4

  6

 40
0.0
 41
0.0
 42
0.0
 43
0.0
 44
0.0
 45
0.0
 46
0.0
 47
0.0
 48
0.0
 49
0.0
140
0.0
141
0.0
142
1.0
143
1.0
 70
   688
 72
     0
 73
     0
 74
     5
  7

 75
    16
147
1.0
148
0.0
149
0.0
100
AcDbLayout
  1
Layout2
 70
     1
 71
     2
 10
0.0
 20
0.0
 11
0.0
 21
0.0
 12
0.0
 22
0.0
 32
0.0
 14
0.0
 24
0.0
 34
0.0
 15
0.0
 25
0.0
 35
0.0
146
0.0
 13
0.0
 23
0.0
 33
0.0
 16
1.0
 26
0.0
 36
0.0
 17
0.0
 27
1.0
 37
0.0
 76
     0
330
23
  0
LAYOUT
  5
22
102
{ACAD_REACTORS
330
1A
102
}
330
1A
100
AcDbPlotSettings
  1

  2

  4

  6

 40
0.0
 41
0.0
 42
0.0
 43
0.0
 44
0.0
 45
0.0
 46
0.0
 47
0.0
 48
0.0
 49
0.0
140
0.0
141
0.0
142
1.0
143
1.0
 70
  1712
 72
     0
 73
     0
 74
     0
  7

 75
     0
147
1.0
148
0.0
149
0.0
100
AcDbLayout
  1
Model
 70
     1
 71
     0
 10
0.0
 20
0.0
 11
0.0
 21
0.0
 12
0.0
 22
0.0
 32
0.0
 14
0.0
 24
0.0
 34
0.0
 15
210.0
 25
297.0
 35
0.0
146
0.0
 13
0.0
 23
0.0
 33
0.0
 16
1.0
 26
0.0
 36
0.0
 17
0.0
 27
1.0
 37
0.0
 76
     0
330
1F
  0
MLINESTYLE
  5
18
102
{ACAD_REACTORS
330
17
102
}
330
17
100
AcDbMlineStyle
  2
Standard
 70
     0
  3

 62
   256
 51
90.0
 52
90.0
 71
     2
 49
0.5
 62
   256
  6
BYLAYER
 49
-0.5
 62
   256
  6
BYLAYER
  0
ACDBPLACEHOLDER
  5
F
102
{ACAD_REACTORS
330
E
102
}
330
E
  0
ENDSEC
  0
EOF
