  0
SECTION
  2
HEADER
  9
$ACADVER
  1
AC1015
  9
$ACADMAINTVER
 70
     6
  9
$DWGCODEPAGE
  3
DOS932
  9
$INSBASE
 10
0.0
 20
0.0
 30
0.0
  9
$EXTMIN
 10
0.0
 20
0.0
 30
0.0
  9
$EXTMAX
 10
210.0
 20
297.0
 30
0.0
  9
$LIMMIN
 10
0.0
 20
0.0
  9
$LIMMAX
 10
0.0
 20
0.0
  9
$ORTHOMODE
 70
     0
  9
$REGENMODE
 70
     1
  9
$FILLMODE
 70
     1
  9
$QTEXTMODE
 70
     0
  9
$MIRRTEXT
 70
     1
  9
$LTSCALE
 40
1.0
  9
$ATTMODE
 70
     1
  9
$TEXTSIZE
 40
3.5
  9
$TRACEWID
 40
1.0
  9
$TEXTSTYLE
  7
Standard
  9
$CLAYER
  8
0
  9
$CELTYPE
  6
ByLayer
  9
$CECOLOR
 62
   256
  9
$CELTSCALE
 40
1.0
  9
$DISPSILH
 70
     0
  9
$DIMSCALE
 40
1.0
  9
$DIMASZ
 40
3.0
  9
$DIMEXO
 40
1.0
  9
$DIMDLI
 40
3.75
  9
$DIMRND
 40
0.0
  9
$DIMDLE
 40
0.0
  9
$DIMEXE
 40
1.0
  9
$DIMTP
 40
0.0
  9
$DIMTM
 40
0.0
  9
$DIMTXT
 40
3.5
  9
$DIMCEN
 40
2.5
  9
$DIMTSZ
 40
0.0
  9
$DIMTOL
 70
     0
  9
$DIMLIM
 70
     0
  9
$DIMTIH
 70
     1
  9
$DIMTOH
 70
     1
  9
$DIMSE1
 70
     0
  9
$DIMSE2
 70
     0
  9
$DIMTAD
 70
     1
  9
$DIMZIN
 70
     1
  9
$DIMBLK
  1

  9
$DIMASO
 70
     1
  9
$DIMSHO
 70
     1
  9
$DIMPOST
  1

  9
$DIMAPOST
  1

  9
$DIMALT
 70
     0
  9
$DIMALTD
 70
     3
  9
$DIMALTF
 40
0.0393700787
  9
$DIMLFAC
 40
1.0
  9
$DIMTOFL
 70
     1
  9
$DIMTVP
 40
0.0
  9
$DIMTIX
 70
     0
  9
$DIMSOXD
 70
     0
  9
$DIMSAH
 70
     0
  9
$DIMBLK1
  1

  9
$DIMBLK2
  1

  9
$DIMSTYLE
  2
ISO-25
  9
$DIMCLRD
 70
     0
  9
$DIMCLRE
 70
     0
  9
$DIMCLRT
 70
     0
  9
$DIMTFAC
 40
1.0
  9
$DIMGAP
 40
1.524
  9
$DIMJUST
 70
     0
  9
$DIMSD1
 70
     0
  9
$DIMSD2
 70
     0
  9
$DIMTOLJ
 70
     0
  9
$DIMTZIN
 70
     1
  9
$DIMALTZ
 70
     0
  9
$DIMALTTZ
 70
     0
  9
$DIMUPT
 70
     0
  9
$DIMDEC
 70
     2
  9
$DIMTDEC
 70
     2
  9
$DIMALTU
 70
     2
  9
$DIMALTTD
 70
     3
  9
$DIMTXSTY
  7
Standard
  9
$DIMAUNIT
 70
     0
  9
$DIMADEC
 70
     0
  9
$DIMALTRND
 40
0.0
  9
$DIMAZIN
 70
     0
  9
$DIMDSEP
 70
    44
  9
$DIMATFIT
 70
     3
  9
$DIMFRAC
 70
     0
  9
$DIMLDRBLK
  1

  9
$DIMLUNIT
 70
     2
  9
$DIMLWD
 70
    -2
  9
$DIMLWE
 70
    -2
  9
$DIMTMOVE
 70
     0
  9
$LUNITS
 70
     2
  9
$LUPREC
 70
     1
  9
$SKETCHINC
 40
1.0
  9
$FILLETRAD
 40
10.0
  9
$AUNITS
 70
     0
  9
$AUPREC
 70
     0
  9
$MENU
  1
.
  9
$ELEVATION
 40
0.0
  9
$PELEVATION
 40
0.0
  9
$THICKNESS
 40
0.0
  9
$LIMCHECK
 70
     0
  9
$CHAMFERA
 40
10.0
  9
$CHAMFERB
 40
10.0
  9
$CHAMFERC
 40
20.0
  9
$CHAMFERD
 40
0.0
  9
$SKPOLY
 70
     0
  9
$TDCREATE
 40
2454309.434343345
  9
$TDUCREATE
 40
2454309.059343345
  9
$TDUPDATE
 40
2454309.434343357
  9
$TDUUPDATE
 40
2454309.059343357
  9
$TDINDWG
 40
0.0000000116
  9
$TDUSRTIMER
 40
0.0000000116
  9
$USRTIMER
 70
     1
  9
$ANGBASE
 50
0.0
  9
$ANGDIR
 70
     0
  9
$PDMODE
 70
     0
  9
$PDSIZE
 40
-1.0
  9
$PLINEWID
 40
0.0
  9
$SPLFRAME
 70
     0
  9
$SPLINETYPE
 70
     6
  9
$SPLINESEGS
 70
     8
  9
$HANDSEED
  5
232
  9
$SURFTAB1
 70
     6
  9
$SURFTAB2
 70
     6
  9
$SURFTYPE
 70
     6
  9
$SURFU
 70
     6
  9
$SURFV
 70
     6
  9
$UCSBASE
  2

  9
$UCSNAME
  2

  9
$UCSORG
 10
0.0
 20
0.0
 30
0.0
  9
$UCSXDIR
 10
1.0
 20
0.0
 30
0.0
  9
$UCSYDIR
 10
0.0
 20
1.0
 30
0.0
  9
$UCSORTHOREF
  2

  9
$UCSORTHOVIEW
 70
     0
  9
$UCSORGTOP
 10
0.0
 20
0.0
 30
0.0
  9
$UCSORGBOTTOM
 10
0.0
 20
0.0
 30
0.0
  9
$UCSORGLEFT
 10
0.0
 20
0.0
 30
0.0
  9
$UCSORGRIGHT
 10
0.0
 20
0.0
 30
0.0
  9
$UCSORGFRONT
 10
0.0
 20
0.0
 30
0.0
  9
$UCSORGBACK
 10
0.0
 20
0.0
 30
0.0
  9
$PUCSBASE
  2

  9
$PUCSNAME
  2

  9
$PUCSORG
 10
0.0
 20
0.0
 30
0.0
  9
$PUCSXDIR
 10
1.0
 20
0.0
 30
0.0
  9
$PUCSYDIR
 10
0.0
 20
1.0
 30
0.0
  9
$PUCSORTHOREF
  2

  9
$PUCSORTHOVIEW
 70
     0
  9
$PUCSORGTOP
 10
0.0
 20
0.0
 30
0.0
  9
$PUCSORGBOTTOM
 10
0.0
 20
0.0
 30
0.0
  9
$PUCSORGLEFT
 10
0.0
 20
0.0
 30
0.0
  9
$PUCSORGRIGHT
 10
0.0
 20
0.0
 30
0.0
  9
$PUCSORGFRONT
 10
0.0
 20
0.0
 30
0.0
  9
$PUCSORGBACK
 10
0.0
 20
0.0
 30
0.0
  9
$USERI1
 70
     0
  9
$USERI2
 70
     0
  9
$USERI3
 70
     0
  9
$USERI4
 70
     0
  9
$USERI5
 70
     0
  9
$USERR1
 40
0.0
  9
$USERR2
 40
0.0
  9
$USERR3
 40
0.0
  9
$USERR4
 40
0.0
  9
$USERR5
 40
0.0
  9
$WORLDVIEW
 70
     1
  9
$SHADEDGE
 70
     3
  9
$SHADEDIF
 70
    70
  9
$TILEMODE
 70
     1
  9
$MAXACTVP
 70
    64
  9
$PINSBASE
 10
0.0
 20
0.0
 30
0.0
  9
$PLIMCHECK
 70
     0
  9
$PEXTMIN
 10
1.0000000000E+20
 20
1.0000000000E+20
 30
1.0000000000E+20
  9
$PEXTMAX
 10
-1.0000000000E+20
 20
-1.0000000000E+20
 30
-1.0000000000E+20
  9
$PLIMMIN
 10
0.0
 20
0.0
  9
$PLIMMAX
 10
420.0
 20
297.0
  9
$UNITMODE
 70
     0
  9
$VISRETAIN
 70
     1
  9
$PLINEGEN
 70
     0
  9
$PSLTSCALE
 70
     1
  9
$TREEDEPTH
 70
  3020
  9
$CMLSTYLE
  2
Standard
  9
$CMLJUST
 70
     0
  9
$CMLSCALE
 40
20.0
  9
$PROXYGRAPHICS
 70
     1
  9
$MEASUREMENT
 70
     1
  9
$CELWEIGHT
370
    -1
  9
$ENDCAPS
280
     0
  9
$JOINSTYLE
280
     0
  9
$LWDISPLAY
290
     1
  9
$INSUNITS
 70
     4
  9
$HYPERLINKBASE
  1

  9
$STYLESHEET
  1

  9
$XEDIT
290
     1
  9
$CEPSNTYPE
380
     0
  9
$PSTYLEMODE
290
     1
  9
$FINGERPRINTGUID
  2
{22D10CE0-A760-481E-909E-7968B94D40E0}
  9
$VERSIONGUID
  2
{FAEB1C32-E019-11D5-929B-00C0DF256EC4}
  9
$EXTNAMES
290
     1
  9
$PSVPSCALE
 40
0.0
  9
$OLESTARTUP
290
     0
  0
ENDSEC
  0
SECTION
  2
CLASSES
  0
CLASS
  1
ACDBDICTIONARYWDFLT
  2
AcDbDictionaryWithDefault
  3
ObjectDBX Classes
 90
        0
280
     0
281
     0
  0
CLASS
  1
ACDBPLACEHOLDER
  2
AcDbPlaceHolder
  3
ObjectDBX Classes
 90
        0
280
     0
281
     0
  0
CLASS
  1
LAYOUT
  2
AcDbLayout
  3
ObjectDBX Classes
 90
        0
280
     0
281
     0
  0
ENDSEC
  0
SECTION
  2
TABLES
  0
TABLE
  2
VPORT
  5
8
330
0
100
AcDbSymbolTable
 70
     1
  0
VPORT
  5
29
330
8
100
AcDbSymbolTableRecord
100
AcDbViewportTableRecord
  2
*Active
 70
     0
 10
0.0
 20
0.0
 11
1.0
 21
1.0
 12
105.0
 22
148.5
 13
0.0
 23
0.0
 14
10.0
 24
10.0
 15
10.0
 25
10.0
 16
0.0
 26
0.0
 36
1.0
 17
0.0
 27
0.0
 37
0.0
 40
297.0
 41
1.9729729729
 42
50.0
 43
0.0
 44
0.0
 50
0.0
 51
0.0
 71
     0
 72
  2000
 73
     1
 74
     3
 75
     0
 76
     0
 77
     0
 78
     0
281
     0
 65
     1
110
0.0
120
0.0
130
0.0
111
1.0
121
0.0
131
0.0
112
0.0
122
1.0
132
0.0
 79
     0
146
0.0
  0
ENDTAB
  0
TABLE
  2
LTYPE
  5
5
330
0
100
AcDbSymbolTable
 70
     6
  0
LTYPE
  5
14
330
5
100
AcDbSymbolTableRecord
100
AcDbLinetypeTableRecord
  2
ByBlock
 70
     0
  3

 72
    65
 73
     0
 40
0.0
  0
LTYPE
  5
15
330
5
100
AcDbSymbolTableRecord
100
AcDbLinetypeTableRecord
  2
ByLayer
 70
     0
  3

 72
    65
 73
     0
 40
0.0
  0
LTYPE
  5
16
330
5
100
AcDbSymbolTableRecord
100
AcDbLinetypeTableRecord
  2
Continuous
 70
     0
  3
Solid line
 72
    65
 73
     0
 40
0.0
  0
LTYPE
  5
2A
330
5
100
AcDbSymbolTableRecord
100
AcDbLinetypeTableRecord
  2
HIDDEN
 70
     0
  3
Hidden __ __ __ __ __ __ __ __ __ __ __ __ __ __
 72
    65
 73
     2
 40
1.905
 49
1.27
 74
     0
 49
-0.635
 74
     0
  0
LTYPE
  5
2B
330
5
100
AcDbSymbolTableRecord
100
AcDbLinetypeTableRecord
  2
PHANTOM
 70
     0
  3
Phantom ______  __  __  ______  __  __  ______
 72
    65
 73
     6
 40
12.7
 49
6.35
 74
     0
 49
-1.27
 74
     0
 49
1.27
 74
     0
 49
-1.27
 74
     0
 49
1.27
 74
     0
 49
-1.27
 74
     0
  0
LTYPE
  5
2C
330
5
100
AcDbSymbolTableRecord
100
AcDbLinetypeTableRecord
  2
CENTER
 70
     0
  3
Center ____ _ ____ _ ____ _ ____ _ ____ _ ____
 72
    65
 73
     4
 40
10.16
 49
6.35
 74
     0
 49
-1.27
 74
     0
 49
1.27
 74
     0
 49
-1.27
 74
     0
  0
LTYPE
  5
2D
330
5
100
AcDbSymbolTableRecord
100
AcDbLinetypeTableRecord
  2
CENTERX2
 70
     0
  3
Center (2x) ________  __  ________  __  _____
 72
    65
 73
     4
 40
20.32
 49
12.7
 74
     0
 49
-2.54
 74
     0
 49
2.54
 74
     0
 49
-2.54
 74
     0
  0
LTYPE
  5
2E
330
5
100
AcDbSymbolTableRecord
100
AcDbLinetypeTableRecord
  2
DOT2
 70
     0
  3
Dot (.5x) ........................................
 72
    65
 73
     2
 40
0.635
 49
0.0
 74
     0
 49
-0.635
 74
     0
  0
ENDTAB
  0
TABLE
  2
LAYER
  5
2
330
0
100
AcDbSymbolTable
 70
     4
  0
LAYER
  5
10
330
2
100
AcDbSymbolTableRecord
100
AcDbLayerTableRecord
  2
0
 70
     0
 62
     7
  6
Continuous
370
    -3
390
F
  0
LAYER
  5
2F
330
2
100
AcDbSymbolTableRecord
100
AcDbLayerTableRecord
  2
SLD-0
 70
     0
 62
   179
  6
Continuous
370
     0
390
F
  0
LAYER
  5
30
330
2
100
AcDbSymbolTableRecord
100
AcDbLayerTableRecord
  2
SLD-DEFPOINTS
 70
     0
 62
   179
  6
Continuous
370
     0
390
F
  0
LAYER
  5
197
330
2
100
AcDbSymbolTableRecord
100
AcDbLayerTableRecord
  2
Defpoints
 70
     0
 62
     7
  6
Continuous
290
     0
370
    -3
390
F
  0
ENDTAB
  0
TABLE
  2
STYLE
  5
3
330
0
100
AcDbSymbolTable
 70
     3
  0
STYLE
  5
11
330
3
100
AcDbSymbolTableRecord
100
AcDbTextStyleTableRecord
  2
Standard
 70
     0
 40
0.0
 41
1.0
 50
0.0
 71
     0
 42
2.5
  3
txt
  4
bigfont
  0
STYLE
  5
34
330
3
100
AcDbSymbolTableRecord
100
AcDbTextStyleTableRecord
  2
SLDTEXTSTYLE0
 70
     0
 40
0.0
 41
0.7
 50
0.0
 71
     0
 42
0.2
  3
TXT
  4
bigfont
  0
STYLE
  5
3C
330
3
100
AcDbSymbolTableRecord
100
AcDbTextStyleTableRecord
  2
SLDTEXTSTYLE1
 70
     0
 40
0.0
 41
0.5526315789
 50
0.0
 71
     0
 42
0.2
  3
TXT
  4
bigfont
  0
ENDTAB
  0
TABLE
  2
VIEW
  5
6
330
0
100
AcDbSymbolTable
 70
     0
  0
ENDTAB
  0
TABLE
  2
UCS
  5
7
330
0
100
AcDbSymbolTable
 70
     0
  0
ENDTAB
  0
TABLE
  2
APPID
  5
9
330
0
100
AcDbSymbolTable
 70
     1
  0
APPID
  5
12
330
9
100
AcDbSymbolTableRecord
100
AcDbRegAppTableRecord
  2
ACAD
 70
     0
  0
ENDTAB
  0
TABLE
  2
DIMSTYLE
  5
A
330
0
100
AcDbSymbolTable
 70
     4
100
AcDbDimStyleTable
  0
DIMSTYLE
105
27
330
A
100
AcDbSymbolTableRecord
100
AcDbDimStyleTableRecord
  2
ISO-25
 70
     0
 41
2.5
 42
0.625
 43
3.75
 44
1.25
 73
     0
 74
     0
 77
     1
 78
     8
140
2.5
141
2.5
143
0.0393700787
147
0.625
171
     3
172
     1
271
     2
272
     2
274
     3
278
    44
283
     0
284
     8
340
11
  0
DIMSTYLE
105
1A7
102
{ACAD_REACTORS
330
196
330
1F7
330
210
102
}
330
A
100
AcDbSymbolTableRecord
100
AcDbDimStyleTableRecord
  2
SLDDIMSTYLE0
 70
     0
 41
3.0
 44
0.0
 73
     0
 74
     0
 77
     3
 78
    12
140
3.5
147
0.875
173
     1
271
     1
272
     3
284
    12
340
3C
341
1A8
343
1A8
344
1A8
  0
DIMSTYLE
105
1C4
102
{ACAD_REACTORS
330
1B7
330
1CF
102
}
330
A
100
AcDbSymbolTableRecord
100
AcDbDimStyleTableRecord
  2
SLDDIMSTYLE1
 70
     0
 41
3.0
 44
0.0
 73
     0
 74
     0
 77
     3
 78
    12
140
3.5
147
0.875
173
     1
271
     0
272
     3
284
    12
340
3C
341
1A8
343
1A8
344
1A8
  0
DIMSTYLE
105
1F0
102
{ACAD_REACTORS
330
1E6
102
}
330
A
100
AcDbSymbolTableRecord
100
AcDbDimStyleTableRecord
  2
SLDDIMSTYLE2
 70
     0
 41
3.0
 44
0.0
 78
    12
140
3.5
147
0.875
172
     1
173
     1
271
     0
272
     3
284
    12
340
3C
341
1A8
343
1A8
344
1A8
  0
ENDTAB
  0
TABLE
  2
BLOCK_RECORD
  5
1
330
0
100
AcDbSymbolTable
 70
    12
  0
BLOCK_RECORD
  5
1F
330
1
100
AcDbSymbolTableRecord
100
AcDbBlockTableRecord
  2
*Model_Space
340
22
  0
BLOCK_RECORD
  5
1B
330
1
100
AcDbSymbolTableRecord
100
AcDbBlockTableRecord
  2
*Paper_Space
340
1E
  0
BLOCK_RECORD
  5
23
330
1
100
AcDbSymbolTableRecord
100
AcDbBlockTableRecord
  2
*Paper_Space0
340
26
  0
BLOCK_RECORD
  5
31
330
1
100
AcDbSymbolTableRecord
100
AcDbBlockTableRecord
  2
注記
340
0
102
{BLKREFS
331
22F
102
}
  0
BLOCK_RECORD
  5
37
330
1
100
AcDbSymbolTableRecord
100
AcDbBlockTableRecord
  2
SURFACEFINISH39
340
0
102
{BLKREFS
331
22E
102
}
  0
BLOCK_RECORD
  5
3E
330
1
100
AcDbSymbolTableRecord
100
AcDbBlockTableRecord
  2
SW_CENTERMARK0
340
0
102
{BLKREFS
331
230
102
}
  0
BLOCK_RECORD
  5
49
330
1
100
AcDbSymbolTableRecord
100
AcDbBlockTableRecord
  2
SW_CENTERMARK1
340
0
102
{BLKREFS
331
231
102
}
  0
BLOCK_RECORD
  5
198
330
1
100
AcDbSymbolTableRecord
100
AcDbBlockTableRecord
  2
*D5
340
0
  0
BLOCK_RECORD
  5
1A8
330
1
100
AcDbSymbolTableRecord
100
AcDbBlockTableRecord
  2
_None
340
0
102
{BLKREFS
331
19E
331
19D
331
1BD
331
1BC
331
1D5
331
1D4
331
1EB
331
1FE
331
1FD
331
217
331
216
102
}
  0
BLOCK_RECORD
  5
1B8
330
1
100
AcDbSymbolTableRecord
100
AcDbBlockTableRecord
  2
*D7
340
0
  0
BLOCK_RECORD
  5
1D0
330
1
100
AcDbSymbolTableRecord
100
AcDbBlockTableRecord
  2
*D8
340
0
  0
BLOCK_RECORD
  5
1E7
330
1
100
AcDbSymbolTableRecord
100
AcDbBlockTableRecord
  2
*D9
340
0
  0
BLOCK_RECORD
  5
1F8
330
1
100
AcDbSymbolTableRecord
100
AcDbBlockTableRecord
  2
*D10
340
0
  0
BLOCK_RECORD
  5
211
330
1
100
AcDbSymbolTableRecord
100
AcDbBlockTableRecord
  2
*D11
340
0
  0
ENDTAB
  0
ENDSEC
  0
SECTION
  2
BLOCKS
  0
BLOCK
  5
20
330
1F
100
AcDbEntity
  8
0
100
AcDbBlockBegin
  2
*Model_Space
 70
     0
 71
     0
 10
0.0
 20
0.0
 30
0.0
  3
*Model_Space
  1

  0
ENDBLK
  5
21
330
1F
100
AcDbEntity
  8
0
100
AcDbBlockEnd
  0
BLOCK
  5
1C
330
1B
100
AcDbEntity
 67
     1
  8
0
100
AcDbBlockBegin
  2
*Paper_Space
 70
     0
 71
     0
 10
0.0
 20
0.0
 30
0.0
  3
*Paper_Space
  1

  0
ENDBLK
  5
1D
330
1B
100
AcDbEntity
 67
     1
  8
0
100
AcDbBlockEnd
  0
BLOCK
  5
24
330
23
100
AcDbEntity
  8
0
100
AcDbBlockBegin
  2
*Paper_Space0
 70
     0
 71
     0
 10
0.0
 20
0.0
 30
0.0
  3
*Paper_Space0
  1

  0
ENDBLK
  5
25
330
23
100
AcDbEntity
  8
0
100
AcDbBlockEnd
  0
BLOCK
  5
32
330
31
100
AcDbEntity
  8
0
100
AcDbBlockBegin
  2
注記
 70
     0
 71
     0
 10
0.0
 20
0.0
 30
0.0
  3
注記
  1

  0
MTEXT
  5
35
330
31
100
AcDbEntity
  8
0
  6
Continuous
 62
     7
370
     0
100
AcDbMText
 10
0.2636785918
 20
9.0739778448
 30
0.0
 40
3.5
 41
0.0
 71
     1
 72
     1
  1
１．特記ナキ角部ハ、バリ　カエリノ無キコト。
  7
SLDTEXTSTYLE0
 73
     1
 44
1.0
  0
MTEXT
  5
36
330
31
100
AcDbEntity
  8
0
  6
Continuous
 62
     7
370
     0
100
AcDbMText
 10
0.2636785918
 20
3.5759549983
 30
0.0
 40
3.5
 41
0.0
 71
     1
 72
     1
  1
２．特記ナキ隅部ハ、Ｒ０．４ＭＡＸトスル。
  7
SLDTEXTSTYLE0
 73
     1
 44
1.0
  0
ENDBLK
  5
33
330
31
100
AcDbEntity
  8
0
100
AcDbBlockEnd
  0
BLOCK
  5
38
330
37
100
AcDbEntity
  8
0
100
AcDbBlockBegin
  2
SURFACEFINISH39
 70
     0
 71
     0
 10
0.0
 20
0.0
 30
0.0
  3
SURFACEFINISH39
  1

  0
LINE
  5
3A
330
37
100
AcDbEntity
  8
SLD-0
  6
Continuous
 62
   179
100
AcDbLine
 10
0.6656399396
 20
-6.0449245738
 30
0.0
 11
-2.9003789868
 21
0.0000001164
 31
0.0
  0
LINE
  5
3B
330
37
100
AcDbEntity
  8
SLD-0
  6
Continuous
 62
   179
100
AcDbLine
 10
0.6656399396
 20
-6.0449245738
 30
0.0
 11
7.7976777926
 21
6.0449248066
 31
0.0
  0
MTEXT
  5
3D
330
37
100
AcDbEntity
  8
SLD-0
100
AcDbMText
 10
0.0
 20
4.9341236929
 30
0.0
 40
3.175
 41
0.0
 71
     1
 72
     1
  1
25
  7
SLDTEXTSTYLE1
 73
     1
 44
1.0
  0
ENDBLK
  5
39
330
37
100
AcDbEntity
  8
0
100
AcDbBlockEnd
  0
BLOCK
  5
3F
330
3E
100
AcDbEntity
  8
0
100
AcDbBlockBegin
  2
SW_CENTERMARK0
 70
     0
 71
     0
 10
0.0
 20
0.0
 30
0.0
  3
SW_CENTERMARK0
  1

  0
LINE
  5
41
330
3E
100
AcDbEntity
  8
SLD-0
  6
Continuous
 62
   179
100
AcDbLine
 10
97.3610396083
 20
189.5271756757
 30
0.0
 11
97.3610397946
 21
192.0271758665
 31
0.0
  0
LINE
  5
42
330
3E
100
AcDbEntity
  8
SLD-0
  6
Continuous
 62
   179
100
AcDbLine
 10
97.3610396083
 20
189.5271756757
 30
0.0
 11
94.8610397946
 21
189.5271758665
 31
0.0
  0
LINE
  5
43
330
3E
100
AcDbEntity
  8
SLD-0
  6
Continuous
 62
   179
100
AcDbLine
 10
97.3610396083
 20
189.5271756757
 30
0.0
 11
97.3610397946
 21
187.0271758665
 31
0.0
  0
LINE
  5
44
330
3E
100
AcDbEntity
  8
SLD-0
  6
Continuous
 62
   179
100
AcDbLine
 10
97.3610396083
 20
189.5271756757
 30
0.0
 11
99.8610397946
 21
189.5271758665
 31
0.0
  0
LINE
  5
45
330
3E
100
AcDbEntity
  8
SLD-0
  6
Continuous
 62
   179
100
AcDbLine
 10
97.3610397946
 20
192.0271758665
 30
0.0
 11
97.3610397946
 21
194.5271758665
 31
0.0
  0
LINE
  5
46
330
3E
100
AcDbEntity
  8
SLD-0
  6
Continuous
 62
   179
100
AcDbLine
 10
94.8610397946
 20
189.5271758665
 30
0.0
 11
92.3610397946
 21
189.5271758665
 31
0.0
  0
LINE
  5
47
330
3E
100
AcDbEntity
  8
SLD-0
  6
Continuous
 62
   179
100
AcDbLine
 10
97.3610397946
 20
187.0271758665
 30
0.0
 11
97.3610397946
 21
184.5271758665
 31
0.0
  0
LINE
  5
48
330
3E
100
AcDbEntity
  8
SLD-0
  6
Continuous
 62
   179
100
AcDbLine
 10
99.8610397946
 20
189.5271758665
 30
0.0
 11
102.3610397946
 21
189.5271758665
 31
0.0
  0
ENDBLK
  5
40
330
3E
100
AcDbEntity
  8
0
100
AcDbBlockEnd
  0
BLOCK
  5
4A
330
49
100
AcDbEntity
  8
0
100
AcDbBlockBegin
  2
SW_CENTERMARK1
 70
     0
 71
     0
 10
0.0
 20
0.0
 30
0.0
  3
SW_CENTERMARK1
  1

  0
LINE
  5
4C
330
49
100
AcDbEntity
  8
SLD-0
  6
Continuous
 62
   179
100
AcDbLine
 10
122.3610399809
 20
189.5271756757
 30
0.0
 11
122.3610397946
 21
192.0271758665
 31
0.0
  0
LINE
  5
4D
330
49
100
AcDbEntity
  8
SLD-0
  6
Continuous
 62
   179
100
AcDbLine
 10
122.3610399809
 20
189.5271756757
 30
0.0
 11
119.8610397946
 21
189.5271758665
 31
0.0
  0
LINE
  5
4E
330
49
100
AcDbEntity
  8
SLD-0
  6
Continuous
 62
   179
100
AcDbLine
 10
122.3610399809
 20
189.5271756757
 30
0.0
 11
122.3610397946
 21
187.0271758665
 31
0.0
  0
LINE
  5
4F
330
49
100
AcDbEntity
  8
SLD-0
  6
Continuous
 62
   179
100
AcDbLine
 10
122.3610399809
 20
189.5271756757
 30
0.0
 11
124.8610397946
 21
189.5271758665
 31
0.0
  0
LINE
  5
50
330
49
100
AcDbEntity
  8
SLD-0
  6
Continuous
 62
   179
100
AcDbLine
 10
122.3610397946
 20
192.0271758665
 30
0.0
 11
122.3610397946
 21
194.5271758665
 31
0.0
  0
LINE
  5
51
330
49
100
AcDbEntity
  8
SLD-0
  6
Continuous
 62
   179
100
AcDbLine
 10
119.8610397946
 20
189.5271758665
 30
0.0
 11
117.3610397946
 21
189.5271758665
 31
0.0
  0
LINE
  5
52
330
49
100
AcDbEntity
  8
SLD-0
  6
Continuous
 62
   179
100
AcDbLine
 10
122.3610397946
 20
187.0271758665
 30
0.0
 11
122.3610397946
 21
184.5271758665
 31
0.0
  0
LINE
  5
53
330
49
100
AcDbEntity
  8
SLD-0
  6
Continuous
 62
   179
100
AcDbLine
 10
124.8610397946
 20
189.5271758665
 30
0.0
 11
127.3610397946
 21
189.5271758665
 31
0.0
  0
ENDBLK
  5
4B
330
49
100
AcDbEntity
  8
0
100
AcDbBlockEnd
  0
BLOCK
  5
1A5
330
198
100
AcDbEntity
  8
0
100
AcDbBlockBegin
  2
*D5
 70
     1
 71
     0
 10
0.0
 20
0.0
 30
0.0
  3
*D5
  1

  0
LINE
  5
1AB
330
198
100
AcDbEntity
  8
SLD-0
 62
     7
100
AcDbLine
 10
127.8610397946
 20
195.8271758665
 30
0.0
 11
127.8610397946
 21
208.628788066
 31
0.0
  0
LINE
  5
1AC
330
198
100
AcDbEntity
  8
SLD-0
 62
     7
100
AcDbLine
 10
122.3610397946
 20
195.5271758665
 30
0.0
 11
122.3610397946
 21
208.628788066
 31
0.0
  0
LINE
  5
1AD
330
198
100
AcDbEntity
  8
SLD-0
 62
     7
100
AcDbLine
 10
127.8610397946
 20
207.628788066
 30
0.0
 11
139.2536879748
 21
207.628788066
 31
0.0
  0
LINE
  5
1AE
330
198
100
AcDbEntity
  8
SLD-0
 62
     7
100
AcDbLine
 10
127.8610397946
 20
207.628788066
 30
0.0
 11
122.3610397946
 21
207.628788066
 31
0.0
  0
LINE
  5
1AF
330
198
100
AcDbEntity
  8
SLD-0
 62
     7
100
AcDbLine
 10
122.3610397946
 20
207.628788066
 30
0.0
 11
117.3610397946
 21
207.628788066
 31
0.0
  0
LINE
  5
1B0
330
198
100
AcDbEntity
  8
SLD-0
 62
     7
100
AcDbLine
 10
130.8610397946
 20
206.824941066
 30
0.0
 11
127.8610397946
 21
207.628788066
 31
0.0
  0
LINE
  5
1B1
330
198
100
AcDbEntity
  8
SLD-0
 62
     7
100
AcDbLine
 10
127.8610397946
 20
207.628788066
 30
0.0
 11
130.8610397946
 21
208.432635066
 31
0.0
  0
LINE
  5
1B2
330
198
100
AcDbEntity
  8
SLD-0
 62
     7
100
AcDbLine
 10
127.8610397946
 20
207.628788066
 30
0.0
 11
130.8610397946
 21
207.628788066
 31
0.0
  0
LINE
  5
1B3
330
198
100
AcDbEntity
  8
SLD-0
 62
     7
100
AcDbLine
 10
119.3610397946
 20
208.432635066
 30
0.0
 11
122.3610397946
 21
207.628788066
 31
0.0
  0
LINE
  5
1B4
330
198
100
AcDbEntity
  8
SLD-0
 62
     7
100
AcDbLine
 10
122.3610397946
 20
207.628788066
 30
0.0
 11
119.3610397946
 21
206.824941066
 31
0.0
  0
LINE
  5
1B5
330
198
100
AcDbEntity
  8
SLD-0
 62
     7
100
AcDbLine
 10
122.3610397946
 20
207.628788066
 30
0.0
 11
119.3610397946
 21
207.628788066
 31
0.0
  0
MTEXT
  5
1B6
330
198
100
AcDbEntity
  8
SLD-0
 62
     7
100
AcDbMText
 10
131.5562280231
 20
212.1554817619
 30
0.1
 40
3.5
 41
0.0
 71
     1
 72
     1
  1
5.5
  7
SLDTEXTSTYLE0
 73
     1
 44
1.0
  0
ENDBLK
  5
1A6
330
198
100
AcDbEntity
  8
0
100
AcDbBlockEnd
  0
BLOCK
  5
1A9
330
1A8
100
AcDbEntity
  8
0
100
AcDbBlockBegin
  2
_None
 70
     0
 71
     0
 10
0.0
 20
0.0
 30
0.0
  3
_None
  1

  0
ENDBLK
  5
1AA
330
1A8
100
AcDbEntity
  8
0
100
AcDbBlockEnd
  0
BLOCK
  5
1C2
330
1B8
100
AcDbEntity
  8
0
100
AcDbBlockBegin
  2
*D7
 70
     1
 71
     0
 10
0.0
 20
0.0
 30
0.0
  3
*D7
  1

  0
LINE
  5
1C5
330
1B8
100
AcDbEntity
  8
SLD-0
 62
     7
100
AcDbLine
 10
122.3610397946
 20
195.5271758665
 30
0.0
 11
122.3610397946
 21
208.628788066
 31
0.0
  0
LINE
  5
1C6
330
1B8
100
AcDbEntity
  8
SLD-0
 62
     7
100
AcDbLine
 10
97.3610397946
 20
195.5271758665
 30
0.0
 11
97.3610397946
 21
208.628788066
 31
0.0
  0
LINE
  5
1C7
330
1B8
100
AcDbEntity
  8
SLD-0
 62
     7
100
AcDbLine
 10
122.3610397946
 20
207.628788066
 30
0.0
 11
97.3610397946
 21
207.628788066
 31
0.0
  0
LINE
  5
1C8
330
1B8
100
AcDbEntity
  8
SLD-0
 62
     7
100
AcDbLine
 10
119.3610397946
 20
208.432635066
 30
0.0
 11
122.3610397946
 21
207.628788066
 31
0.0
  0
LINE
  5
1C9
330
1B8
100
AcDbEntity
  8
SLD-0
 62
     7
100
AcDbLine
 10
122.3610397946
 20
207.628788066
 30
0.0
 11
119.3610397946
 21
206.824941066
 31
0.0
  0
LINE
  5
1CA
330
1B8
100
AcDbEntity
  8
SLD-0
 62
     7
100
AcDbLine
 10
122.3610397946
 20
207.628788066
 30
0.0
 11
119.3610397946
 21
207.628788066
 31
0.0
  0
LINE
  5
1CB
330
1B8
100
AcDbEntity
  8
SLD-0
 62
     7
100
AcDbLine
 10
100.3610397946
 20
206.824941066
 30
0.0
 11
97.3610397946
 21
207.628788066
 31
0.0
  0
LINE
  5
1CC
330
1B8
100
AcDbEntity
  8
SLD-0
 62
     7
100
AcDbLine
 10
97.3610397946
 20
207.628788066
 30
0.0
 11
100.3610397946
 21
208.432635066
 31
0.0
  0
LINE
  5
1CD
330
1B8
100
AcDbEntity
  8
SLD-0
 62
     7
100
AcDbLine
 10
97.3610397946
 20
207.628788066
 30
0.0
 11
100.3610397946
 21
207.628788066
 31
0.0
  0
MTEXT
  5
1CE
330
1B8
100
AcDbEntity
  8
SLD-0
 62
     7
100
AcDbMText
 10
107.8256045714
 20
212.1554817619
 30
0.1
 40
3.5
 41
0.0
 71
     1
 72
     1
  1
25
  7
SLDTEXTSTYLE0
 73
     1
 44
1.0
  0
ENDBLK
  5
1C3
330
1B8
100
AcDbEntity
  8
0
100
AcDbBlockEnd
  0
BLOCK
  5
1DA
330
1D0
100
AcDbEntity
  8
0
100
AcDbBlockBegin
  2
*D8
 70
     1
 71
     0
 10
0.0
 20
0.0
 30
0.0
  3
*D8
  1

  0
LINE
  5
1DC
330
1D0
100
AcDbEntity
  8
SLD-0
 62
     7
100
AcDbLine
 10
91.8610397946
 20
195.3271758665
 30
0.0
 11
91.8610397946
 21
214.0726708423
 31
0.0
  0
LINE
  5
1DD
330
1D0
100
AcDbEntity
  8
SLD-0
 62
     7
100
AcDbLine
 10
127.8610397946
 20
195.3271758665
 30
0.0
 11
127.8610397946
 21
214.0726708423
 31
0.0
  0
LINE
  5
1DE
330
1D0
100
AcDbEntity
  8
SLD-0
 62
     7
100
AcDbLine
 10
91.8610397946
 20
213.0726708423
 30
0.0
 11
127.8610397946
 21
213.0726708423
 31
0.0
  0
LINE
  5
1DF
330
1D0
100
AcDbEntity
  8
SLD-0
 62
     7
100
AcDbLine
 10
94.8610397946
 20
212.2688238423
 30
0.0
 11
91.8610397946
 21
213.0726708423
 31
0.0
  0
LINE
  5
1E0
330
1D0
100
AcDbEntity
  8
SLD-0
 62
     7
100
AcDbLine
 10
91.8610397946
 20
213.0726708423
 30
0.0
 11
94.8610397946
 21
213.8765178423
 31
0.0
  0
LINE
  5
1E1
330
1D0
100
AcDbEntity
  8
SLD-0
 62
     7
100
AcDbLine
 10
91.8610397946
 20
213.0726708423
 30
0.0
 11
94.8610397946
 21
213.0726708423
 31
0.0
  0
LINE
  5
1E2
330
1D0
100
AcDbEntity
  8
SLD-0
 62
     7
100
AcDbLine
 10
124.8610397946
 20
213.8765178423
 30
0.0
 11
127.8610397946
 21
213.0726708423
 31
0.0
  0
LINE
  5
1E3
330
1D0
100
AcDbEntity
  8
SLD-0
 62
     7
100
AcDbLine
 10
127.8610397946
 20
213.0726708423
 30
0.0
 11
124.8610397946
 21
212.2688238423
 31
0.0
  0
LINE
  5
1E4
330
1D0
100
AcDbEntity
  8
SLD-0
 62
     7
100
AcDbLine
 10
127.8610397946
 20
213.0726708423
 30
0.0
 11
124.8610397946
 21
213.0726708423
 31
0.0
  0
MTEXT
  5
1E5
330
1D0
100
AcDbEntity
  8
SLD-0
 62
     7
100
AcDbMText
 10
107.8256045714
 20
217.5993645383
 30
0.1
 40
3.5
 41
0.0
 71
     1
 72
     1
  1
36
  7
SLDTEXTSTYLE0
 73
     1
 44
1.0
  0
ENDBLK
  5
1DB
330
1D0
100
AcDbEntity
  8
0
100
AcDbBlockEnd
  0
BLOCK
  5
1EE
330
1E7
100
AcDbEntity
  8
0
100
AcDbBlockBegin
  2
*D9
 70
     1
 71
     0
 10
0.0
 20
0.0
 30
0.0
  3
*D9
  1

  0
LINE
  5
1F1
330
1E7
100
AcDbEntity
  8
SLD-0
 62
     7
100
AcDbLine
 10
95.8719574728
 20
192.1315248905
 30
0.0
 11
90.2065887643
 21
202.040041868
 31
0.0
  0
LINE
  5
1F2
330
1E7
100
AcDbEntity
  8
SLD-0
 62
     7
100
AcDbLine
 10
90.2065887643
 20
202.040041868
 30
0.0
 11
77.2986935894
 21
202.040041868
 31
0.0
  0
LINE
  5
1F3
330
1E7
100
AcDbEntity
  8
SLD-0
 62
     7
100
AcDbLine
 10
95.0807078676
 20
195.1348720336
 30
0.0
 11
95.8719574728
 21
192.1315248905
 31
0.0
  0
LINE
  5
1F4
330
1E7
100
AcDbEntity
  8
SLD-0
 62
     7
100
AcDbLine
 10
95.8719574728
 20
192.1315248905
 30
0.0
 11
93.6850424343
 21
194.3368757955
 31
0.0
  0
LINE
  5
1F5
330
1E7
100
AcDbEntity
  8
SLD-0
 62
     7
100
AcDbLine
 10
95.8719574728
 20
192.1315248905
 30
0.0
 11
94.382875151
 21
194.7358739145
 31
0.0
  0
MTEXT
  5
1F6
330
1E7
100
AcDbEntity
  8
SLD-0
 62
     7
100
AcDbMText
 10
78.8861935894
 20
206.566735564
 30
0.1
 40
3.5
 41
0.0
 71
     1
 72
     1
  1
2-M6
  7
SLDTEXTSTYLE0
 73
     1
 44
1.0
  0
ENDBLK
  5
1EF
330
1E7
100
AcDbEntity
  8
0
100
AcDbBlockEnd
  0
BLOCK
  5
203
330
1F8
100
AcDbEntity
  8
0
100
AcDbBlockBegin
  2
*D10
 70
     1
 71
     0
 10
0.0
 20
0.0
 30
0.0
  3
*D10
  1

  0
LINE
  5
205
330
1F8
100
AcDbEntity
  8
SLD-0
 62
     7
100
AcDbLine
 10
128.8610397946
 20
194.8271758665
 30
0.0
 11
151.4564547677
 21
194.8271758665
 31
0.0
  0
LINE
  5
206
330
1F8
100
AcDbEntity
  8
SLD-0
 62
     7
100
AcDbLine
 10
128.8610397946
 20
184.2271758665
 30
0.0
 11
151.4564547677
 21
184.2271758665
 31
0.0
  0
LINE
  5
207
330
1F8
100
AcDbEntity
  8
SLD-0
 62
     7
100
AcDbLine
 10
150.4564547677
 20
194.8271758665
 30
0.0
 11
150.4564547677
 21
184.2271758665
 31
0.0
  0
LINE
  5
208
330
1F8
100
AcDbEntity
  8
SLD-0
 62
     7
100
AcDbLine
 10
150.4564547677
 20
184.2271758665
 30
0.0
 11
150.4564547677
 21
171.5804797748
 31
0.0
  0
LINE
  5
209
330
1F8
100
AcDbEntity
  8
SLD-0
 62
     7
100
AcDbLine
 10
149.6526077677
 20
191.8271758665
 30
0.0
 11
150.4564547677
 21
194.8271758665
 31
0.0
  0
LINE
  5
20A
330
1F8
100
AcDbEntity
  8
SLD-0
 62
     7
100
AcDbLine
 10
150.4564547677
 20
194.8271758665
 30
0.0
 11
151.2603017677
 21
191.8271758665
 31
0.0
  0
LINE
  5
20B
330
1F8
100
AcDbEntity
  8
SLD-0
 62
     7
100
AcDbLine
 10
150.4564547677
 20
194.8271758665
 30
0.0
 11
150.4564547677
 21
191.8271758665
 31
0.0
  0
LINE
  5
20C
330
1F8
100
AcDbEntity
  8
SLD-0
 62
     7
100
AcDbLine
 10
151.2603017677
 20
187.2271758665
 30
0.0
 11
150.4564547677
 21
184.2271758665
 31
0.0
  0
LINE
  5
20D
330
1F8
100
AcDbEntity
  8
SLD-0
 62
     7
100
AcDbLine
 10
150.4564547677
 20
184.2271758665
 30
0.0
 11
149.6526077677
 21
187.2271758665
 31
0.0
  0
LINE
  5
20E
330
1F8
100
AcDbEntity
  8
SLD-0
 62
     7
100
AcDbLine
 10
150.4564547677
 20
184.2271758665
 30
0.0
 11
150.4564547677
 21
187.2271758665
 31
0.0
  0
MTEXT
  5
20F
330
1F8
100
AcDbEntity
  8
SLD-0
 62
     7
100
AcDbMText
 10
145.9297610718
 20
173.1679797748
 30
0.1
 40
3.5
 41
0.0
 71
     1
 72
     1
  1
10.6
  7
SLDTEXTSTYLE0
 11
6.123031769111886E-17
 21
1.0
 31
0.0
 73
     1
 44
1.0
  0
ENDBLK
  5
204
330
1F8
100
AcDbEntity
  8
0
100
AcDbBlockEnd
  0
BLOCK
  5
21D
330
211
100
AcDbEntity
  8
0
100
AcDbBlockBegin
  2
*D11
 70
     1
 71
     0
 10
0.0
 20
0.0
 30
0.0
  3
*D11
  1

  0
LINE
  5
21F
330
211
100
AcDbEntity
  8
SLD-0
 62
     7
100
AcDbLine
 10
128.8610397946
 20
184.2271758665
 30
0.0
 11
139.9252181712
 21
184.2271758665
 31
0.0
  0
LINE
  5
220
330
211
100
AcDbEntity
  8
SLD-0
 62
     7
100
AcDbLine
 10
128.3610397946
 20
189.5271758665
 30
0.0
 11
139.9252181712
 21
189.5271758665
 31
0.0
  0
LINE
  5
221
330
211
100
AcDbEntity
  8
SLD-0
 62
     7
100
AcDbLine
 10
138.9252181712
 20
184.2271758665
 30
0.0
 11
138.9252181712
 21
172.5981973864
 31
0.0
  0
LINE
  5
222
330
211
100
AcDbEntity
  8
SLD-0
 62
     7
100
AcDbLine
 10
138.9252181712
 20
184.2271758665
 30
0.0
 11
138.9252181712
 21
189.5271758665
 31
0.0
  0
LINE
  5
223
330
211
100
AcDbEntity
  8
SLD-0
 62
     7
100
AcDbLine
 10
138.9252181712
 20
189.5271758665
 30
0.0
 11
138.9252181712
 21
194.5271758665
 31
0.0
  0
LINE
  5
224
330
211
100
AcDbEntity
  8
SLD-0
 62
     7
100
AcDbLine
 10
138.1213711712
 20
181.2271758665
 30
0.0
 11
138.9252181712
 21
184.2271758665
 31
0.0
  0
LINE
  5
225
330
211
100
AcDbEntity
  8
SLD-0
 62
     7
100
AcDbLine
 10
138.9252181712
 20
184.2271758665
 30
0.0
 11
139.7290651712
 21
181.2271758665
 31
0.0
  0
LINE
  5
226
330
211
100
AcDbEntity
  8
SLD-0
 62
     7
100
AcDbLine
 10
138.9252181712
 20
184.2271758665
 30
0.0
 11
138.9252181712
 21
181.2271758665
 31
0.0
  0
LINE
  5
227
330
211
100
AcDbEntity
  8
SLD-0
 62
     7
100
AcDbLine
 10
139.7290651712
 20
192.5271758665
 30
0.0
 11
138.9252181712
 21
189.5271758665
 31
0.0
  0
LINE
  5
228
330
211
100
AcDbEntity
  8
SLD-0
 62
     7
100
AcDbLine
 10
138.9252181712
 20
189.5271758665
 30
0.0
 11
138.1213711712
 21
192.5271758665
 31
0.0
  0
LINE
  5
229
330
211
100
AcDbEntity
  8
SLD-0
 62
     7
100
AcDbLine
 10
138.9252181712
 20
189.5271758665
 30
0.0
 11
138.9252181712
 21
192.5271758665
 31
0.0
  0
MTEXT
  5
22A
330
211
100
AcDbEntity
  8
SLD-0
 62
     7
100
AcDbMText
 10
134.3985244753
 20
174.1856973864
 30
0.1
 40
3.5
 41
0.0
 71
     1
 72
     1
  1
5.3
  7
SLDTEXTSTYLE0
 11
6.123031769111886E-17
 21
1.0
 31
0.0
 73
     1
 44
1.0
  0
ENDBLK
  5
21E
330
211
100
AcDbEntity
  8
0
100
AcDbBlockEnd
  0
ENDSEC
  0
SECTION
  2
ENTITIES
  0
LINE
  5
54
330
1F
100
AcDbEntity
  8
SLD-0
  6
Continuous
 62
   179
100
AcDbLine
 10
20.2604743903
 20
285.0
 30
0.0
 11
196.7604743903
 21
285.0
 31
0.0
  0
LINE
  5
55
330
1F
100
AcDbEntity
  8
SLD-0
  6
Continuous
 62
   179
100
AcDbLine
 10
20.2604743903
 20
285.0
 30
0.0
 11
20.2604743903
 21
10.0
 31
0.0
  0
LINE
  5
56
330
1F
100
AcDbEntity
  8
SLD-0
  6
Continuous
 62
   179
100
AcDbLine
 10
20.2604743903
 20
10.0
 30
0.0
 11
196.7604743903
 21
10.0
 31
0.0
  0
LINE
  5
57
330
1F
100
AcDbEntity
  8
SLD-0
  6
Continuous
 62
   179
100
AcDbLine
 10
196.7604743903
 20
285.0
 30
0.0
 11
196.7604743903
 21
10.0
 31
0.0
  0
LINE
  5
58
330
1F
100
AcDbEntity
  8
SLD-0
  6
Continuous
 62
   179
100
AcDbLine
 10
127.0104743903
 20
50.75
 30
0.0
 11
196.7604743903
 21
50.75
 31
0.0
  0
LINE
  5
59
330
1F
100
AcDbEntity
  8
SLD-0
  6
Continuous
 62
   179
100
AcDbLine
 10
127.0104743903
 20
50.75
 30
0.0
 11
127.0104743903
 21
10.0
 31
0.0
  0
LINE
  5
5A
330
1F
100
AcDbEntity
  8
SLD-0
  6
Continuous
 62
   179
100
AcDbLine
 10
127.0104743903
 20
22.75
 30
0.0
 11
196.7604743903
 21
22.75
 31
0.0
  0
LINE
  5
5B
330
1F
100
AcDbEntity
  8
SLD-0
  6
Continuous
 62
   179
100
AcDbLine
 10
127.0104743903
 20
36.75
 30
0.0
 11
196.7604743903
 21
36.75
 31
0.0
  0
LINE
  5
5C
330
1F
100
AcDbEntity
  8
SLD-0
  6
Continuous
 62
   179
100
AcDbLine
 10
127.8610397946
 20
194.8271758665
 30
0.0
 11
91.8610397946
 21
194.8271758665
 31
0.0
  0
LINE
  5
5D
330
1F
100
AcDbEntity
  8
SLD-0
  6
Continuous
 62
   179
100
AcDbLine
 10
91.8610397946
 20
184.2271758665
 30
0.0
 11
127.8610397946
 21
184.2271758665
 31
0.0
  0
LINE
  5
5E
330
1F
100
AcDbEntity
  8
SLD-0
  6
Continuous
 62
   179
100
AcDbLine
 10
127.8610397946
 20
194.8271758665
 30
0.0
 11
127.8610397946
 21
194.3271758665
 31
0.0
  0
LINE
  5
5F
330
1F
100
AcDbEntity
  8
SLD-0
  6
Continuous
 62
   179
100
AcDbLine
 10
91.8610397946
 20
194.8271758665
 30
0.0
 11
91.8610397946
 21
194.3271758665
 31
0.0
  0
LINE
  5
60
330
1F
100
AcDbEntity
  8
SLD-0
  6
Continuous
 62
   179
100
AcDbLine
 10
127.8610397946
 20
194.3271758665
 30
0.0
 11
127.8610397946
 21
192.3514399352
 31
0.0
  0
LINE
  5
61
330
1F
100
AcDbEntity
  8
SLD-0
  6
Continuous
 62
   179
100
AcDbLine
 10
91.8610397946
 20
194.3271758665
 30
0.0
 11
91.8610397946
 21
192.3514399352
 31
0.0
  0
LINE
  5
62
330
1F
100
AcDbEntity
  8
SLD-0
  6
Continuous
 62
   179
100
AcDbLine
 10
91.8610397946
 20
192.3514399352
 30
0.0
 11
91.8610397946
 21
192.1393079009
 31
0.0
  0
LINE
  5
63
330
1F
100
AcDbEntity
  8
SLD-0
  6
Continuous
 62
   179
100
AcDbLine
 10
127.8610397946
 20
192.3514399352
 30
0.0
 11
127.8610397946
 21
192.1393079009
 31
0.0
  0
LINE
  5
64
330
1F
100
AcDbEntity
  8
SLD-0
  6
Continuous
 62
   179
100
AcDbLine
 10
91.8610397946
 20
184.7271758665
 30
0.0
 11
91.8610397946
 21
184.2271758665
 31
0.0
  0
LINE
  5
65
330
1F
100
AcDbEntity
  8
SLD-0
  6
Continuous
 62
   179
100
AcDbLine
 10
127.8610397946
 20
184.7271758665
 30
0.0
 11
127.8610397946
 21
184.2271758665
 31
0.0
  0
LINE
  5
66
330
1F
100
AcDbEntity
  8
SLD-0
  6
Continuous
 62
   179
100
AcDbLine
 10
91.8610397946
 20
186.7029117978
 30
0.0
 11
91.8610397946
 21
184.7271758665
 31
0.0
  0
LINE
  5
67
330
1F
100
AcDbEntity
  8
SLD-0
  6
Continuous
 62
   179
100
AcDbLine
 10
127.8610397946
 20
186.7029117978
 30
0.0
 11
127.8610397946
 21
184.7271758665
 31
0.0
  0
LINE
  5
68
330
1F
100
AcDbEntity
  8
SLD-0
  6
Continuous
 62
   179
100
AcDbLine
 10
91.8610397946
 20
186.9150438321
 30
0.0
 11
91.8610397946
 21
186.7029117978
 31
0.0
  0
LINE
  5
69
330
1F
100
AcDbEntity
  8
SLD-0
  6
Continuous
 62
   179
100
AcDbLine
 10
127.8610397946
 20
186.9150438321
 30
0.0
 11
127.8610397946
 21
186.7029117978
 31
0.0
  0
LINE
  5
6A
330
1F
100
AcDbEntity
  8
SLD-0
  6
Continuous
 62
   179
100
AcDbLine
 10
91.8610397946
 20
192.1393079009
 30
0.0
 11
91.8610397946
 21
191.6150438321
 31
0.0
  0
LINE
  5
6B
330
1F
100
AcDbEntity
  8
SLD-0
  6
Continuous
 62
   179
100
AcDbLine
 10
127.8610397946
 20
192.1393079009
 30
0.0
 11
127.8610397946
 21
191.6150438321
 31
0.0
  0
LINE
  5
6C
330
1F
100
AcDbEntity
  8
SLD-0
  6
Continuous
 62
   179
100
AcDbLine
 10
91.8610397946
 20
187.4393079009
 30
0.0
 11
91.8610397946
 21
186.9150438321
 31
0.0
  0
LINE
  5
6D
330
1F
100
AcDbEntity
  8
SLD-0
  6
Continuous
 62
   179
100
AcDbLine
 10
127.8610397946
 20
187.4393079009
 30
0.0
 11
127.8610397946
 21
186.9150438321
 31
0.0
  0
LINE
  5
6E
330
1F
100
AcDbEntity
  8
SLD-0
  6
Continuous
 62
   179
100
AcDbLine
 10
123.7361059247
 20
191.6150439071
 30
0.0
 11
123.9090497329
 21
191.4902511059
 31
0.0
  0
LINE
  5
6F
330
1F
100
AcDbEntity
  8
SLD-0
  6
Continuous
 62
   179
100
AcDbLine
 10
123.9090497329
 20
191.4902511059
 30
0.0
 11
124.0137993081
 21
191.4029117913
 31
0.0
  0
LINE
  5
70
330
1F
100
AcDbEntity
  8
SLD-0
  6
Continuous
 62
   179
100
AcDbLine
 10
127.8610397946
 20
191.6150438321
 30
0.0
 11
127.8610397946
 21
191.4029117978
 31
0.0
  0
LINE
  5
71
330
1F
100
AcDbEntity
  8
SLD-0
  6
Continuous
 62
   179
100
AcDbLine
 10
95.7082802811
 20
191.4029117913
 30
0.0
 11
95.8919883156
 21
191.550017568
 31
0.0
  0
LINE
  5
72
330
1F
100
AcDbEntity
  8
SLD-0
  6
Continuous
 62
   179
100
AcDbLine
 10
95.8919883156
 20
191.550017568
 30
0.0
 11
95.9859736645
 21
191.6150439071
 31
0.0
  0
LINE
  5
73
330
1F
100
AcDbEntity
  8
SLD-0
  6
Continuous
 62
   179
100
AcDbLine
 10
91.8610397946
 20
191.6150438321
 30
0.0
 11
91.8610397946
 21
191.4029117978
 31
0.0
  0
LINE
  5
74
330
1F
100
AcDbEntity
  8
SLD-0
  6
Continuous
 62
   179
100
AcDbLine
 10
120.708280481
 20
191.4029118023
 30
0.0
 11
120.8919885155
 21
191.550017579
 31
0.0
  0
LINE
  5
75
330
1F
100
AcDbEntity
  8
SLD-0
  6
Continuous
 62
   179
100
AcDbLine
 10
120.8919885155
 20
191.550017579
 30
0.0
 11
120.9859738645
 21
191.615043918
 31
0.0
  0
LINE
  5
76
330
1F
100
AcDbEntity
  8
SLD-0
  6
Continuous
 62
   179
100
AcDbLine
 10
98.7361057247
 20
191.615043918
 30
0.0
 11
98.9090504643
 21
191.4902511169
 31
0.0
  0
LINE
  5
77
330
1F
100
AcDbEntity
  8
SLD-0
  6
Continuous
 62
   179
100
AcDbLine
 10
98.9090504643
 20
191.4902511169
 30
0.0
 11
99.0137991082
 21
191.4029118023
 31
0.0
  0
LINE
  5
78
330
1F
100
AcDbEntity
  8
SLD-0
  6
Continuous
 62
   179
100
AcDbLine
 10
124.0137994825
 20
187.6514399286
 30
0.0
 11
123.8300914296
 21
187.504334143
 31
0.0
  0
LINE
  5
79
330
1F
100
AcDbEntity
  8
SLD-0
  6
Continuous
 62
   179
100
AcDbLine
 10
123.8300914296
 20
187.504334143
 30
0.0
 11
123.7361060807
 21
187.4393078039
 31
0.0
  0
LINE
  5
7A
330
1F
100
AcDbEntity
  8
SLD-0
  6
Continuous
 62
   179
100
AcDbLine
 10
127.8610397946
 20
187.6514399352
 30
0.0
 11
127.8610397946
 21
187.4393079009
 31
0.0
  0
LINE
  5
7B
330
1F
100
AcDbEntity
  8
SLD-0
  6
Continuous
 62
   179
100
AcDbLine
 10
95.98597349
 20
187.4393078129
 30
0.0
 11
95.813029682
 21
187.564100614
 31
0.0
  0
LINE
  5
7C
330
1F
100
AcDbEntity
  8
SLD-0
  6
Continuous
 62
   179
100
AcDbLine
 10
95.813029682
 20
187.564100614
 30
0.0
 11
95.7082801067
 21
187.6514399286
 31
0.0
  0
LINE
  5
7D
330
1F
100
AcDbEntity
  8
SLD-0
  6
Continuous
 62
   179
100
AcDbLine
 10
91.8610397946
 20
187.6514399352
 30
0.0
 11
91.8610397946
 21
187.4393079009
 31
0.0
  0
LINE
  5
7E
330
1F
100
AcDbEntity
  8
SLD-0
  6
Continuous
 62
   179
100
AcDbLine
 10
120.9859736752
 20
187.4393078149
 30
0.0
 11
120.8130289357
 21
187.5641006161
 31
0.0
  0
LINE
  5
7F
330
1F
100
AcDbEntity
  8
SLD-0
  6
Continuous
 62
   179
100
AcDbLine
 10
120.8130289357
 20
187.5641006161
 30
0.0
 11
120.7082802917
 21
187.6514399307
 31
0.0
  0
LINE
  5
80
330
1F
100
AcDbEntity
  8
SLD-0
  6
Continuous
 62
   179
100
AcDbLine
 10
99.0137992975
 20
187.6514399307
 30
0.0
 11
98.8300912478
 21
187.5043341407
 31
0.0
  0
LINE
  5
81
330
1F
100
AcDbEntity
  8
SLD-0
  6
Continuous
 62
   179
100
AcDbLine
 10
98.8300912478
 20
187.5043341407
 30
0.0
 11
98.7361058989
 21
187.4393078017
 31
0.0
  0
LINE
  5
82
330
1F
100
AcDbEntity
  8
SLD-0
  6
Continuous
 62
   179
100
AcDbLine
 10
91.8610397946
 20
191.4029117978
 30
0.0
 11
91.8610397946
 21
187.6514399352
 31
0.0
  0
LINE
  5
83
330
1F
100
AcDbEntity
  8
SLD-0
  6
Continuous
 62
   179
100
AcDbLine
 10
127.8610397946
 20
191.4029117978
 30
0.0
 11
127.8610397946
 21
187.6514399352
 31
0.0
  0
LINE
  5
84
330
1F
100
AcDbEntity
  8
SLD-0
 62
   179
100
AcDbLine
 10
124.0193520259
 20
187.0271759224
 30
0.0
 11
124.1943941038
 21
187.1525575523
 31
0.0
  0
LINE
  5
85
330
1F
100
AcDbEntity
  8
SLD-0
 62
   179
100
AcDbLine
 10
124.1943941038
 20
187.1525575523
 30
0.0
 11
124.3599916395
 21
187.2901711729
 31
0.0
  0
LINE
  5
86
330
1F
100
AcDbEntity
  8
SLD-0
 62
   179
100
AcDbLine
 10
124.3599916395
 20
187.2901711729
 30
0.0
 11
124.5152934041
 21
187.4393078149
 31
0.0
  0
LINE
  5
87
330
1F
100
AcDbEntity
  8
SLD-0
 62
   179
100
AcDbLine
 10
124.5152934041
 20
187.4393078149
 30
0.0
 11
124.7023243975
 21
187.6514399307
 31
0.0
  0
LINE
  5
88
330
1F
100
AcDbEntity
  8
SLD-0
 62
   179
100
AcDbLine
 10
124.7023243975
 20
187.6514399307
 30
0.0
 11
124.9144685041
 21
187.9523741197
 31
0.0
  0
LINE
  5
89
330
1F
100
AcDbEntity
  8
SLD-0
 62
   179
100
AcDbLine
 10
124.9144685041
 20
187.9523741197
 30
0.0
 11
125.0881508511
 21
188.2770293275
 31
0.0
  0
LINE
  5
8A
330
1F
100
AcDbEntity
  8
SLD-0
 62
   179
100
AcDbLine
 10
125.0881508511
 20
188.2770293275
 30
0.0
 11
125.2207544219
 21
188.6205155286
 31
0.0
  0
LINE
  5
8B
330
1F
100
AcDbEntity
  8
SLD-0
 62
   179
100
AcDbLine
 10
125.2207544219
 20
188.6205155286
 30
0.0
 11
125.310282461
 21
188.9776586438
 31
0.0
  0
LINE
  5
8C
330
1F
100
AcDbEntity
  8
SLD-0
 62
   179
100
AcDbLine
 10
125.310282461
 20
188.9776586438
 30
0.0
 11
125.3553854819
 21
189.3430791067
 31
0.0
  0
LINE
  5
8D
330
1F
100
AcDbEntity
  8
SLD-0
 62
   179
100
AcDbLine
 10
125.3553854819
 20
189.3430791067
 30
0.0
 11
125.3553854819
 21
189.7112726263
 31
0.0
  0
LINE
  5
8E
330
1F
100
AcDbEntity
  8
SLD-0
 62
   179
100
AcDbLine
 10
125.3553854819
 20
189.7112726263
 30
0.0
 11
125.310282461
 21
190.0766930892
 31
0.0
  0
LINE
  5
8F
330
1F
100
AcDbEntity
  8
SLD-0
 62
   179
100
AcDbLine
 10
125.310282461
 20
190.0766930892
 30
0.0
 11
125.2207544219
 21
190.4338362044
 31
0.0
  0
LINE
  5
90
330
1F
100
AcDbEntity
  8
SLD-0
 62
   179
100
AcDbLine
 10
125.2207544219
 20
190.4338362044
 30
0.0
 11
125.0881508511
 21
190.7773224054
 31
0.0
  0
LINE
  5
91
330
1F
100
AcDbEntity
  8
SLD-0
 62
   179
100
AcDbLine
 10
125.0881508511
 20
190.7773224054
 30
0.0
 11
124.9144685041
 21
191.1019776133
 31
0.0
  0
LINE
  5
92
330
1F
100
AcDbEntity
  8
SLD-0
 62
   179
100
AcDbLine
 10
124.9144685041
 20
191.1019776133
 30
0.0
 11
124.7023243975
 21
191.4029118023
 31
0.0
  0
LINE
  5
93
330
1F
100
AcDbEntity
  8
SLD-0
 62
   179
100
AcDbLine
 10
124.7023243975
 20
191.4029118023
 30
0.0
 11
124.5152934041
 21
191.6150439181
 31
0.0
  0
LINE
  5
94
330
1F
100
AcDbEntity
  8
SLD-0
 62
   179
100
AcDbLine
 10
124.5152934041
 20
191.6150439181
 30
0.0
 11
124.3599916395
 21
191.7641805601
 31
0.0
  0
LINE
  5
95
330
1F
100
AcDbEntity
  8
SLD-0
 62
   179
100
AcDbLine
 10
124.3599916395
 20
191.7641805601
 30
0.0
 11
124.1943941038
 21
191.9017941807
 31
0.0
  0
LINE
  5
96
330
1F
100
AcDbEntity
  8
SLD-0
 62
   179
100
AcDbLine
 10
124.1943941038
 20
191.9017941807
 30
0.0
 11
124.0193520259
 21
192.0271758106
 31
0.0
  0
LINE
  5
97
330
1F
100
AcDbEntity
  8
SLD-0
 62
   179
100
AcDbLine
 10
120.7027270045
 20
192.0271758106
 30
0.0
 11
120.5276858579
 21
191.9017941807
 31
0.0
  0
LINE
  5
98
330
1F
100
AcDbEntity
  8
SLD-0
 62
   179
100
AcDbLine
 10
120.5276858579
 20
191.9017941807
 30
0.0
 11
120.3620873909
 21
191.7641805601
 31
0.0
  0
LINE
  5
99
330
1F
100
AcDbEntity
  8
SLD-0
 62
   179
100
AcDbLine
 10
120.3620873909
 20
191.7641805601
 30
0.0
 11
120.2067865577
 21
191.6150439181
 31
0.0
  0
LINE
  5
9A
330
1F
100
AcDbEntity
  8
SLD-0
 62
   179
100
AcDbLine
 10
120.2067865577
 20
191.6150439181
 30
0.0
 11
120.0197546329
 21
191.4029118023
 31
0.0
  0
LINE
  5
9B
330
1F
100
AcDbEntity
  8
SLD-0
 62
   179
100
AcDbLine
 10
120.0197546329
 20
191.4029118023
 30
0.0
 11
119.8076105263
 21
191.1019776133
 31
0.0
  0
LINE
  5
9C
330
1F
100
AcDbEntity
  8
SLD-0
 62
   179
100
AcDbLine
 10
119.8076105263
 20
191.1019776133
 30
0.0
 11
119.6339291107
 21
190.7773224054
 31
0.0
  0
LINE
  5
9D
330
1F
100
AcDbEntity
  8
SLD-0
 62
   179
100
AcDbLine
 10
119.6339291107
 20
190.7773224054
 30
0.0
 11
119.5013255399
 21
190.4338362044
 31
0.0
  0
LINE
  5
9E
330
1F
100
AcDbEntity
  8
SLD-0
 62
   179
100
AcDbLine
 10
119.5013255399
 20
190.4338362044
 30
0.0
 11
119.4117975008
 21
190.0766930892
 31
0.0
  0
LINE
  5
9F
330
1F
100
AcDbEntity
  8
SLD-0
 62
   179
100
AcDbLine
 10
119.4117975008
 20
190.0766930892
 30
0.0
 11
119.3666935485
 21
189.7112726263
 31
0.0
  0
LINE
  5
A0
330
1F
100
AcDbEntity
  8
SLD-0
 62
   179
100
AcDbLine
 10
119.3666935485
 20
189.7112726263
 30
0.0
 11
119.3666935485
 21
189.3430791067
 31
0.0
  0
LINE
  5
A1
330
1F
100
AcDbEntity
  8
SLD-0
 62
   179
100
AcDbLine
 10
119.3666935485
 20
189.3430791067
 30
0.0
 11
119.4117975008
 21
188.9776586438
 31
0.0
  0
LINE
  5
A2
330
1F
100
AcDbEntity
  8
SLD-0
 62
   179
100
AcDbLine
 10
119.4117975008
 20
188.9776586438
 30
0.0
 11
119.5013255399
 21
188.6205155286
 31
0.0
  0
LINE
  5
A3
330
1F
100
AcDbEntity
  8
SLD-0
 62
   179
100
AcDbLine
 10
119.5013255399
 20
188.6205155286
 30
0.0
 11
119.6339291107
 21
188.2770293275
 31
0.0
  0
LINE
  5
A4
330
1F
100
AcDbEntity
  8
SLD-0
 62
   179
100
AcDbLine
 10
119.6339291107
 20
188.2770293275
 30
0.0
 11
119.8076105263
 21
187.9523741197
 31
0.0
  0
LINE
  5
A5
330
1F
100
AcDbEntity
  8
SLD-0
 62
   179
100
AcDbLine
 10
119.8076105263
 20
187.9523741197
 30
0.0
 11
120.0197546329
 21
187.6514399307
 31
0.0
  0
LINE
  5
A6
330
1F
100
AcDbEntity
  8
SLD-0
 62
   179
100
AcDbLine
 10
120.0197546329
 20
187.6514399307
 30
0.0
 11
120.2067865577
 21
187.4393078149
 31
0.0
  0
LINE
  5
A7
330
1F
100
AcDbEntity
  8
SLD-0
 62
   179
100
AcDbLine
 10
120.2067865577
 20
187.4393078149
 30
0.0
 11
120.3620873909
 21
187.2901711729
 31
0.0
  0
LINE
  5
A8
330
1F
100
AcDbEntity
  8
SLD-0
 62
   179
100
AcDbLine
 10
120.3620873909
 20
187.2901711729
 30
0.0
 11
120.5276858579
 21
187.1525575523
 31
0.0
  0
LINE
  5
A9
330
1F
100
AcDbEntity
  8
SLD-0
 62
   179
100
AcDbLine
 10
120.5276858579
 20
187.1525575523
 30
0.0
 11
120.7027270045
 21
187.0271759224
 31
0.0
  0
LINE
  5
AA
330
1F
100
AcDbEntity
  8
SLD-0
  6
HIDDEN
 62
   179
100
AcDbLine
 10
119.6642166521
 20
190.8413854078
 30
0.0
 11
119.9816225614
 21
191.3543728995
 31
0.0
  0
LINE
  5
AB
330
1F
100
AcDbEntity
  8
SLD-0
  6
HIDDEN
 62
   179
100
AcDbLine
 10
119.9816225614
 20
191.3543728995
 30
0.0
 11
120.3436798003
 21
191.7365619563
 31
0.0
  0
LINE
  5
AC
330
1F
100
AcDbEntity
  8
SLD-0
  6
HIDDEN
 62
   179
100
AcDbLine
 10
120.6387851905
 20
191.9754205853
 30
0.0
 11
120.7216728996
 21
192.036870413
 31
0.0
  0
LINE
  5
AD
330
1F
100
AcDbEntity
  8
SLD-0
  6
HIDDEN
 62
   179
100
AcDbLine
 10
124.0031740215
 20
192.0373987057
 30
0.0
 11
124.2464457225
 21
191.8443944421
 31
0.0
  0
LINE
  5
AE
330
1F
100
AcDbEntity
  8
SLD-0
  6
HIDDEN
 62
   179
100
AcDbLine
 10
124.4741112512
 20
191.6501757339
 30
0.0
 11
125.0578623783
 21
190.8413854078
 31
0.0
  0
LINE
  5
AF
330
1F
100
AcDbEntity
  8
SLD-0
  6
HIDDEN
 62
   179
100
AcDbLine
 10
125.0578623783
 20
188.2129663252
 30
0.0
 11
124.7404574003
 21
187.6999788335
 31
0.0
  0
LINE
  5
B0
330
1F
100
AcDbEntity
  8
SLD-0
  6
HIDDEN
 62
   179
100
AcDbLine
 10
124.7404574003
 20
187.6999788335
 30
0.0
 11
124.3784001615
 21
187.3177897767
 31
0.0
  0
LINE
  5
B1
330
1F
100
AcDbEntity
  8
SLD-0
  6
HIDDEN
 62
   179
100
AcDbLine
 10
124.0832947712
 20
187.0789311477
 30
0.0
 11
124.0004070621
 21
187.01748132
 31
0.0
  0
LINE
  5
B2
330
1F
100
AcDbEntity
  8
SLD-0
  6
HIDDEN
 62
   179
100
AcDbLine
 10
120.718905009
 20
187.0169530273
 30
0.0
 11
120.4756342392
 21
187.2099572909
 31
0.0
  0
LINE
  5
B3
330
1F
100
AcDbEntity
  8
SLD-0
  6
HIDDEN
 62
   179
100
AcDbLine
 10
120.2479687106
 20
187.4041759991
 30
0.0
 11
119.6642166521
 21
188.2129663252
 31
0.0
  0
LINE
  5
B4
330
1F
100
AcDbEntity
  8
SLD-0
  6
HIDDEN
 62
   179
100
AcDbLine
 10
124.0193520259
 20
187.0271759224
 30
0.0
 11
123.7158144411
 21
186.8505017017
 31
0.0
  0
LINE
  5
B5
330
1F
100
AcDbEntity
  8
SLD-0
  6
HIDDEN
 62
   179
100
AcDbLine
 10
123.7158144411
 20
186.8505017017
 30
0.0
 11
123.3937090781
 21
186.7105122772
 31
0.0
  0
LINE
  5
B6
330
1F
100
AcDbEntity
  8
SLD-0
  6
HIDDEN
 62
   179
100
AcDbLine
 10
123.3937090781
 20
186.7105122772
 30
0.0
 11
123.0574513372
 21
186.609126639
 31
0.0
  0
LINE
  5
B7
330
1F
100
AcDbEntity
  8
SLD-0
  6
HIDDEN
 62
   179
100
AcDbLine
 10
123.0574513372
 20
186.609126639
 30
0.0
 11
122.7116484713
 21
186.5477340878
 31
0.0
  0
LINE
  5
B8
330
1F
100
AcDbEntity
  8
SLD-0
  6
HIDDEN
 62
   179
100
AcDbLine
 10
122.7116484713
 20
186.5477340878
 30
0.0
 11
122.3610399809
 21
186.5271758404
 31
0.0
  0
LINE
  5
B9
330
1F
100
AcDbEntity
  8
SLD-0
  6
HIDDEN
 62
   179
100
AcDbLine
 10
122.3610399809
 20
186.5271758404
 30
0.0
 11
122.0104314905
 21
186.5477340878
 31
0.0
  0
LINE
  5
BA
330
1F
100
AcDbEntity
  8
SLD-0
  6
HIDDEN
 62
   179
100
AcDbLine
 10
122.0104314905
 20
186.5477340878
 30
0.0
 11
121.6646286245
 21
186.609126639
 31
0.0
  0
LINE
  5
BB
330
1F
100
AcDbEntity
  8
SLD-0
  6
HIDDEN
 62
   179
100
AcDbLine
 10
121.6646286245
 20
186.609126639
 30
0.0
 11
121.3283699524
 21
186.7105122772
 31
0.0
  0
LINE
  5
BC
330
1F
100
AcDbEntity
  8
SLD-0
  6
HIDDEN
 62
   179
100
AcDbLine
 10
121.3283699524
 20
186.7105122772
 30
0.0
 11
121.0062645894
 21
186.8505017017
 31
0.0
  0
LINE
  5
BD
330
1F
100
AcDbEntity
  8
SLD-0
  6
HIDDEN
 62
   179
100
AcDbLine
 10
121.0062645894
 20
186.8505017017
 30
0.0
 11
120.7027270045
 21
187.0271759224
 31
0.0
  0
LINE
  5
BE
330
1F
100
AcDbEntity
  8
SLD-0
  6
HIDDEN
 62
   179
100
AcDbLine
 10
120.7027270045
 20
192.0271758106
 30
0.0
 11
121.0062645894
 21
192.2038500313
 31
0.0
  0
LINE
  5
BF
330
1F
100
AcDbEntity
  8
SLD-0
  6
HIDDEN
 62
   179
100
AcDbLine
 10
121.0062645894
 20
192.2038500313
 30
0.0
 11
121.3283699524
 21
192.3438394558
 31
0.0
  0
LINE
  5
C0
330
1F
100
AcDbEntity
  8
SLD-0
  6
HIDDEN
 62
   179
100
AcDbLine
 10
121.3283699524
 20
192.3438394558
 30
0.0
 11
121.6646286245
 21
192.4452250939
 31
0.0
  0
LINE
  5
C1
330
1F
100
AcDbEntity
  8
SLD-0
  6
HIDDEN
 62
   179
100
AcDbLine
 10
121.6646286245
 20
192.4452250939
 30
0.0
 11
122.0104314905
 21
192.5066176452
 31
0.0
  0
LINE
  5
C2
330
1F
100
AcDbEntity
  8
SLD-0
  6
HIDDEN
 62
   179
100
AcDbLine
 10
122.0104314905
 20
192.5066176452
 30
0.0
 11
122.3610399809
 21
192.5271758926
 31
0.0
  0
LINE
  5
C3
330
1F
100
AcDbEntity
  8
SLD-0
  6
HIDDEN
 62
   179
100
AcDbLine
 10
122.3610399809
 20
192.5271758926
 30
0.0
 11
122.7116484713
 21
192.5066176452
 31
0.0
  0
LINE
  5
C4
330
1F
100
AcDbEntity
  8
SLD-0
  6
HIDDEN
 62
   179
100
AcDbLine
 10
122.7116484713
 20
192.5066176452
 30
0.0
 11
123.0574513372
 21
192.4452250939
 31
0.0
  0
LINE
  5
C5
330
1F
100
AcDbEntity
  8
SLD-0
  6
HIDDEN
 62
   179
100
AcDbLine
 10
123.0574513372
 20
192.4452250939
 30
0.0
 11
123.3937090781
 21
192.3438394558
 31
0.0
  0
LINE
  5
C6
330
1F
100
AcDbEntity
  8
SLD-0
  6
HIDDEN
 62
   179
100
AcDbLine
 10
123.3937090781
 20
192.3438394558
 30
0.0
 11
123.7158144411
 21
192.2038500313
 31
0.0
  0
LINE
  5
C7
330
1F
100
AcDbEntity
  8
SLD-0
  6
HIDDEN
 62
   179
100
AcDbLine
 10
123.7158144411
 20
192.2038500313
 30
0.0
 11
124.0193520259
 21
192.0271758106
 31
0.0
  0
LINE
  5
C8
330
1F
100
AcDbEntity
  8
SLD-0
 62
   179
100
AcDbLine
 10
99.5152930316
 20
187.4393078149
 30
0.0
 11
99.7023249563
 21
187.6514399307
 31
0.0
  0
LINE
  5
C9
330
1F
100
AcDbEntity
  8
SLD-0
 62
   179
100
AcDbLine
 10
99.7023249563
 20
187.6514399307
 30
0.0
 11
99.9144690629
 21
187.9523741197
 31
0.0
  0
LINE
  5
CA
330
1F
100
AcDbEntity
  8
SLD-0
 62
   179
100
AcDbLine
 10
99.9144690629
 20
187.9523741197
 30
0.0
 11
100.0881504785
 21
188.2770293275
 31
0.0
  0
LINE
  5
CB
330
1F
100
AcDbEntity
  8
SLD-0
 62
   179
100
AcDbLine
 10
100.0881504785
 20
188.2770293275
 30
0.0
 11
100.2207540493
 21
188.6205155286
 31
0.0
  0
LINE
  5
CC
330
1F
100
AcDbEntity
  8
SLD-0
 62
   179
100
AcDbLine
 10
100.2207540493
 20
188.6205155286
 30
0.0
 11
100.3102820884
 21
188.9776586438
 31
0.0
  0
LINE
  5
CD
330
1F
100
AcDbEntity
  8
SLD-0
 62
   179
100
AcDbLine
 10
100.3102820884
 20
188.9776586438
 30
0.0
 11
100.3553860407
 21
189.3430791067
 31
0.0
  0
LINE
  5
CE
330
1F
100
AcDbEntity
  8
SLD-0
 62
   179
100
AcDbLine
 10
100.3553860407
 20
189.3430791067
 30
0.0
 11
100.3553860407
 21
189.7112726263
 31
0.0
  0
LINE
  5
CF
330
1F
100
AcDbEntity
  8
SLD-0
 62
   179
100
AcDbLine
 10
100.3553860407
 20
189.7112726263
 30
0.0
 11
100.3102820884
 21
190.0766930892
 31
0.0
  0
LINE
  5
D0
330
1F
100
AcDbEntity
  8
SLD-0
 62
   179
100
AcDbLine
 10
100.3102820884
 20
190.0766930892
 30
0.0
 11
100.2207540493
 21
190.4338362044
 31
0.0
  0
LINE
  5
D1
330
1F
100
AcDbEntity
  8
SLD-0
 62
   179
100
AcDbLine
 10
100.2207540493
 20
190.4338362044
 30
0.0
 11
100.0881504785
 21
190.7773224054
 31
0.0
  0
LINE
  5
D2
330
1F
100
AcDbEntity
  8
SLD-0
 62
   179
100
AcDbLine
 10
100.0881504785
 20
190.7773224054
 30
0.0
 11
99.9144690629
 21
191.1019776133
 31
0.0
  0
LINE
  5
D3
330
1F
100
AcDbEntity
  8
SLD-0
 62
   179
100
AcDbLine
 10
99.9144690629
 20
191.1019776133
 30
0.0
 11
99.7023249563
 21
191.4029118023
 31
0.0
  0
LINE
  5
D4
330
1F
100
AcDbEntity
  8
SLD-0
 62
   179
100
AcDbLine
 10
99.7023249563
 20
191.4029118023
 30
0.0
 11
99.5152930316
 21
191.6150439181
 31
0.0
  0
LINE
  5
D5
330
1F
100
AcDbEntity
  8
SLD-0
 62
   179
100
AcDbLine
 10
99.5152930316
 20
191.6150439181
 30
0.0
 11
99.3599921983
 21
191.7641805601
 31
0.0
  0
LINE
  5
D6
330
1F
100
AcDbEntity
  8
SLD-0
 62
   179
100
AcDbLine
 10
99.3599921983
 20
191.7641805601
 30
0.0
 11
99.1943937313
 21
191.9017941807
 31
0.0
  0
LINE
  5
D7
330
1F
100
AcDbEntity
  8
SLD-0
 62
   179
100
AcDbLine
 10
99.1943937313
 20
191.9017941807
 30
0.0
 11
99.0193525847
 21
192.0271758106
 31
0.0
  0
LINE
  5
D8
330
1F
100
AcDbEntity
  8
SLD-0
 62
   179
100
AcDbLine
 10
95.7027275633
 20
192.0271758106
 30
0.0
 11
95.5276854854
 21
191.9017941807
 31
0.0
  0
LINE
  5
D9
330
1F
100
AcDbEntity
  8
SLD-0
 62
   179
100
AcDbLine
 10
95.5276854854
 20
191.9017941807
 30
0.0
 11
95.3620879497
 21
191.7641805601
 31
0.0
  0
LINE
  5
DA
330
1F
100
AcDbEntity
  8
SLD-0
 62
   179
100
AcDbLine
 10
95.3620879497
 20
191.7641805601
 30
0.0
 11
95.2067861851
 21
191.6150439181
 31
0.0
  0
LINE
  5
DB
330
1F
100
AcDbEntity
  8
SLD-0
 62
   179
100
AcDbLine
 10
95.2067861851
 20
191.6150439181
 30
0.0
 11
95.0197551917
 21
191.4029118023
 31
0.0
  0
LINE
  5
DC
330
1F
100
AcDbEntity
  8
SLD-0
 62
   179
100
AcDbLine
 10
95.0197551917
 20
191.4029118023
 30
0.0
 11
94.8076110851
 21
191.1019776133
 31
0.0
  0
LINE
  5
DD
330
1F
100
AcDbEntity
  8
SLD-0
 62
   179
100
AcDbLine
 10
94.8076110851
 20
191.1019776133
 30
0.0
 11
94.6339287382
 21
190.7773224054
 31
0.0
  0
LINE
  5
DE
330
1F
100
AcDbEntity
  8
SLD-0
 62
   179
100
AcDbLine
 10
94.6339287382
 20
190.7773224054
 30
0.0
 11
94.5013251673
 21
190.4338362044
 31
0.0
  0
LINE
  5
DF
330
1F
100
AcDbEntity
  8
SLD-0
 62
   179
100
AcDbLine
 10
94.5013251673
 20
190.4338362044
 30
0.0
 11
94.4117971282
 21
190.0766930892
 31
0.0
  0
LINE
  5
E0
330
1F
100
AcDbEntity
  8
SLD-0
 62
   179
100
AcDbLine
 10
94.4117971282
 20
190.0766930892
 30
0.0
 11
94.3666941073
 21
189.7112726263
 31
0.0
  0
LINE
  5
E1
330
1F
100
AcDbEntity
  8
SLD-0
 62
   179
100
AcDbLine
 10
94.3666941073
 20
189.7112726263
 30
0.0
 11
94.3666941073
 21
189.3430791067
 31
0.0
  0
LINE
  5
E2
330
1F
100
AcDbEntity
  8
SLD-0
 62
   179
100
AcDbLine
 10
94.3666941073
 20
189.3430791067
 30
0.0
 11
94.4117971282
 21
188.9776586438
 31
0.0
  0
LINE
  5
E3
330
1F
100
AcDbEntity
  8
SLD-0
 62
   179
100
AcDbLine
 10
94.4117971282
 20
188.9776586438
 30
0.0
 11
94.5013251673
 21
188.6205155286
 31
0.0
  0
LINE
  5
E4
330
1F
100
AcDbEntity
  8
SLD-0
 62
   179
100
AcDbLine
 10
94.5013251673
 20
188.6205155286
 30
0.0
 11
94.6339287382
 21
188.2770293275
 31
0.0
  0
LINE
  5
E5
330
1F
100
AcDbEntity
  8
SLD-0
 62
   179
100
AcDbLine
 10
94.6339287382
 20
188.2770293275
 30
0.0
 11
94.8076110851
 21
187.9523741197
 31
0.0
  0
LINE
  5
E6
330
1F
100
AcDbEntity
  8
SLD-0
 62
   179
100
AcDbLine
 10
94.8076110851
 20
187.9523741197
 30
0.0
 11
95.0197551917
 21
187.6514399307
 31
0.0
  0
LINE
  5
E7
330
1F
100
AcDbEntity
  8
SLD-0
 62
   179
100
AcDbLine
 10
95.0197551917
 20
187.6514399307
 30
0.0
 11
95.2067861851
 21
187.4393078149
 31
0.0
  0
LINE
  5
E8
330
1F
100
AcDbEntity
  8
SLD-0
 62
   179
100
AcDbLine
 10
95.2067861851
 20
187.4393078149
 30
0.0
 11
95.3620879497
 21
187.2901711729
 31
0.0
  0
LINE
  5
E9
330
1F
100
AcDbEntity
  8
SLD-0
 62
   179
100
AcDbLine
 10
95.3620879497
 20
187.2901711729
 30
0.0
 11
95.5276854854
 21
187.1525575523
 31
0.0
  0
LINE
  5
EA
330
1F
100
AcDbEntity
  8
SLD-0
 62
   179
100
AcDbLine
 10
95.5276854854
 20
187.1525575523
 30
0.0
 11
95.7027275633
 21
187.0271759224
 31
0.0
  0
LINE
  5
EB
330
1F
100
AcDbEntity
  8
SLD-0
 62
   179
100
AcDbLine
 10
99.0193525847
 20
187.0271759224
 30
0.0
 11
99.1943937313
 21
187.1525575523
 31
0.0
  0
LINE
  5
EC
330
1F
100
AcDbEntity
  8
SLD-0
 62
   179
100
AcDbLine
 10
99.1943937313
 20
187.1525575523
 30
0.0
 11
99.3599921983
 21
187.2901711729
 31
0.0
  0
LINE
  5
ED
330
1F
100
AcDbEntity
  8
SLD-0
 62
   179
100
AcDbLine
 10
99.3599921983
 20
187.2901711729
 30
0.0
 11
99.5152930316
 21
187.4393078149
 31
0.0
  0
LINE
  5
EE
330
1F
100
AcDbEntity
  8
SLD-0
  6
HIDDEN
 62
   179
100
AcDbLine
 10
100.0578629371
 20
188.2129663252
 30
0.0
 11
99.7404570278
 21
187.6999788335
 31
0.0
  0
LINE
  5
EF
330
1F
100
AcDbEntity
  8
SLD-0
  6
HIDDEN
 62
   179
100
AcDbLine
 10
99.7404570278
 20
187.6999788335
 30
0.0
 11
99.378399789
 21
187.3177897767
 31
0.0
  0
LINE
  5
F0
330
1F
100
AcDbEntity
  8
SLD-0
  6
HIDDEN
 62
   179
100
AcDbLine
 10
99.0832943987
 20
187.0789311477
 30
0.0
 11
99.0004066896
 21
187.01748132
 31
0.0
  0
LINE
  5
F1
330
1F
100
AcDbEntity
  8
SLD-0
  6
HIDDEN
 62
   179
100
AcDbLine
 10
95.7189055677
 20
187.0169530273
 30
0.0
 11
95.4756338667
 21
187.2099572909
 31
0.0
  0
LINE
  5
F2
330
1F
100
AcDbEntity
  8
SLD-0
  6
HIDDEN
 62
   179
100
AcDbLine
 10
95.2479683381
 20
187.4041759991
 30
0.0
 11
94.6642172109
 21
188.2129663252
 31
0.0
  0
LINE
  5
F3
330
1F
100
AcDbEntity
  8
SLD-0
  6
HIDDEN
 62
   179
100
AcDbLine
 10
94.6642172109
 20
190.8413854078
 30
0.0
 11
94.9816221889
 21
191.3543728995
 31
0.0
  0
LINE
  5
F4
330
1F
100
AcDbEntity
  8
SLD-0
  6
HIDDEN
 62
   179
100
AcDbLine
 10
94.9816221889
 20
191.3543728995
 30
0.0
 11
95.3436794277
 21
191.7365619563
 31
0.0
  0
LINE
  5
F5
330
1F
100
AcDbEntity
  8
SLD-0
  6
HIDDEN
 62
   179
100
AcDbLine
 10
95.638784818
 20
191.9754205853
 30
0.0
 11
95.7216725271
 21
192.036870413
 31
0.0
  0
LINE
  5
F6
330
1F
100
AcDbEntity
  8
SLD-0
  6
HIDDEN
 62
   179
100
AcDbLine
 10
99.0031745803
 20
192.0373987057
 30
0.0
 11
99.24644535
 21
191.8443944421
 31
0.0
  0
LINE
  5
F7
330
1F
100
AcDbEntity
  8
SLD-0
  6
HIDDEN
 62
   179
100
AcDbLine
 10
99.4741108786
 20
191.6501757339
 30
0.0
 11
100.0578629371
 21
190.8413854078
 31
0.0
  0
LINE
  5
F8
330
1F
100
AcDbEntity
  8
SLD-0
  6
HIDDEN
 62
   179
100
AcDbLine
 10
95.7027275633
 20
192.0271758106
 30
0.0
 11
96.0062651481
 21
192.2038500313
 31
0.0
  0
LINE
  5
F9
330
1F
100
AcDbEntity
  8
SLD-0
  6
HIDDEN
 62
   179
100
AcDbLine
 10
96.0062651481
 20
192.2038500313
 30
0.0
 11
96.3283705112
 21
192.3438394558
 31
0.0
  0
LINE
  5
FA
330
1F
100
AcDbEntity
  8
SLD-0
  6
HIDDEN
 62
   179
100
AcDbLine
 10
96.3283705112
 20
192.3438394558
 30
0.0
 11
96.664628252
 21
192.4452250939
 31
0.0
  0
LINE
  5
FB
330
1F
100
AcDbEntity
  8
SLD-0
  6
HIDDEN
 62
   179
100
AcDbLine
 10
96.664628252
 20
192.4452250939
 30
0.0
 11
97.0104311179
 21
192.5066176452
 31
0.0
  0
LINE
  5
FC
330
1F
100
AcDbEntity
  8
SLD-0
  6
HIDDEN
 62
   179
100
AcDbLine
 10
97.0104311179
 20
192.5066176452
 30
0.0
 11
97.3610396083
 21
192.5271758926
 31
0.0
  0
LINE
  5
FD
330
1F
100
AcDbEntity
  8
SLD-0
  6
HIDDEN
 62
   179
100
AcDbLine
 10
97.3610396083
 20
192.5271758926
 30
0.0
 11
97.7116480988
 21
192.5066176452
 31
0.0
  0
LINE
  5
FE
330
1F
100
AcDbEntity
  8
SLD-0
  6
HIDDEN
 62
   179
100
AcDbLine
 10
97.7116480988
 20
192.5066176452
 30
0.0
 11
98.0574509647
 21
192.4452250939
 31
0.0
  0
LINE
  5
FF
330
1F
100
AcDbEntity
  8
SLD-0
  6
HIDDEN
 62
   179
100
AcDbLine
 10
98.0574509647
 20
192.4452250939
 30
0.0
 11
98.3937096369
 21
192.3438394558
 31
0.0
  0
LINE
  5
100
330
1F
100
AcDbEntity
  8
SLD-0
  6
HIDDEN
 62
   179
100
AcDbLine
 10
98.3937096369
 20
192.3438394558
 30
0.0
 11
98.7158149999
 21
192.2038500313
 31
0.0
  0
LINE
  5
101
330
1F
100
AcDbEntity
  8
SLD-0
  6
HIDDEN
 62
   179
100
AcDbLine
 10
98.7158149999
 20
192.2038500313
 30
0.0
 11
99.0193525847
 21
192.0271758106
 31
0.0
  0
LINE
  5
102
330
1F
100
AcDbEntity
  8
SLD-0
  6
HIDDEN
 62
   179
100
AcDbLine
 10
99.0193525847
 20
187.0271759224
 30
0.0
 11
98.7158149999
 21
186.8505017017
 31
0.0
  0
LINE
  5
103
330
1F
100
AcDbEntity
  8
SLD-0
  6
HIDDEN
 62
   179
100
AcDbLine
 10
98.7158149999
 20
186.8505017017
 30
0.0
 11
98.3937096369
 21
186.7105122772
 31
0.0
  0
LINE
  5
104
330
1F
100
AcDbEntity
  8
SLD-0
  6
HIDDEN
 62
   179
100
AcDbLine
 10
98.3937096369
 20
186.7105122772
 30
0.0
 11
98.0574509647
 21
186.609126639
 31
0.0
  0
LINE
  5
105
330
1F
100
AcDbEntity
  8
SLD-0
  6
HIDDEN
 62
   179
100
AcDbLine
 10
98.0574509647
 20
186.609126639
 30
0.0
 11
97.7116480988
 21
186.5477340878
 31
0.0
  0
LINE
  5
106
330
1F
100
AcDbEntity
  8
SLD-0
  6
HIDDEN
 62
   179
100
AcDbLine
 10
97.7116480988
 20
186.5477340878
 30
0.0
 11
97.3610396083
 21
186.5271758404
 31
0.0
  0
LINE
  5
107
330
1F
100
AcDbEntity
  8
SLD-0
  6
HIDDEN
 62
   179
100
AcDbLine
 10
97.3610396083
 20
186.5271758404
 30
0.0
 11
97.0104311179
 21
186.5477340878
 31
0.0
  0
LINE
  5
108
330
1F
100
AcDbEntity
  8
SLD-0
  6
HIDDEN
 62
   179
100
AcDbLine
 10
97.0104311179
 20
186.5477340878
 30
0.0
 11
96.664628252
 21
186.609126639
 31
0.0
  0
LINE
  5
109
330
1F
100
AcDbEntity
  8
SLD-0
  6
HIDDEN
 62
   179
100
AcDbLine
 10
96.664628252
 20
186.609126639
 30
0.0
 11
96.3283705112
 21
186.7105122772
 31
0.0
  0
LINE
  5
10A
330
1F
100
AcDbEntity
  8
SLD-0
  6
HIDDEN
 62
   179
100
AcDbLine
 10
96.3283705112
 20
186.7105122772
 30
0.0
 11
96.0062651481
 21
186.8505017017
 31
0.0
  0
LINE
  5
10B
330
1F
100
AcDbEntity
  8
SLD-0
  6
HIDDEN
 62
   179
100
AcDbLine
 10
96.0062651481
 20
186.8505017017
 30
0.0
 11
95.7027275633
 21
187.0271759224
 31
0.0
  0
LINE
  5
10C
330
1F
100
AcDbEntity
  8
SLD-0
  6
Continuous
 62
   179
100
AcDbLine
 10
99.861040018
 20
148.2166237807
 30
0.0
 11
119.861039571
 21
148.2166237807
 31
0.0
  0
LINE
  5
10D
330
1F
100
AcDbEntity
  8
SLD-0
  6
Continuous
 62
   179
100
AcDbLine
 10
124.8610394592
 20
148.2166237807
 30
0.0
 11
127.8610397945
 21
148.2166238768
 31
0.0
  0
LINE
  5
10E
330
1F
100
AcDbEntity
  8
SLD-0
  6
Continuous
 62
   179
100
AcDbLine
 10
91.8610397946
 20
148.2166238768
 30
0.0
 11
94.8610401299
 21
148.2166237807
 31
0.0
  0
LINE
  5
10F
330
1F
100
AcDbEntity
  8
SLD-0
  6
Continuous
 62
   179
100
AcDbLine
 10
127.8610397945
 20
154.6166238768
 30
0.0
 11
91.8610397946
 21
154.6166238768
 31
0.0
  0
LINE
  5
110
330
1F
100
AcDbEntity
  8
SLD-0
  6
Continuous
 62
   179
100
AcDbLine
 10
127.8610397945
 20
154.6166238768
 30
0.0
 11
127.8610397945
 21
153.9020048534
 31
0.0
  0
LINE
  5
111
330
1F
100
AcDbEntity
  8
SLD-0
  6
Continuous
 62
   179
100
AcDbLine
 10
91.8610397946
 20
154.6166238768
 30
0.0
 11
91.8610397946
 21
153.9020048534
 31
0.0
  0
LINE
  5
112
330
1F
100
AcDbEntity
  8
SLD-0
  6
Continuous
 62
   179
100
AcDbLine
 10
127.8610397945
 20
153.9020048534
 30
0.0
 11
127.8610397945
 21
148.7090253448
 31
0.0
  0
LINE
  5
113
330
1F
100
AcDbEntity
  8
SLD-0
  6
Continuous
 62
   179
100
AcDbLine
 10
91.8610397946
 20
153.9020048534
 30
0.0
 11
91.8610397946
 21
148.7090253448
 31
0.0
  0
LINE
  5
114
330
1F
100
AcDbEntity
  8
SLD-0
  6
Continuous
 62
   179
100
AcDbLine
 10
127.8610397945
 20
148.7090253448
 30
0.0
 11
127.8610397945
 21
148.2166238768
 31
0.0
  0
LINE
  5
115
330
1F
100
AcDbEntity
  8
SLD-0
  6
Continuous
 62
   179
100
AcDbLine
 10
91.8610397946
 20
148.7090253448
 30
0.0
 11
91.8610397946
 21
148.2166238768
 31
0.0
  0
LINE
  5
116
330
1F
100
AcDbEntity
  8
SLD-0
  6
HIDDEN
 62
     8
100
AcDbLine
 10
127.8610397945
 20
154.6166238768
 30
0.0
 11
91.8610397946
 21
154.6166238768
 31
0.0
  0
LINE
  5
117
330
1F
100
AcDbEntity
  8
SLD-0
  6
HIDDEN
 62
     8
100
AcDbLine
 10
127.8610397945
 20
154.5287559111
 30
0.0
 11
127.8610397945
 21
154.6166238768
 31
0.0
  0
LINE
  5
118
330
1F
100
AcDbEntity
  8
SLD-0
  6
HIDDEN
 62
     8
100
AcDbLine
 10
91.8610397946
 20
154.5287559111
 30
0.0
 11
91.8610397946
 21
154.6166238768
 31
0.0
  0
LINE
  5
119
330
1F
100
AcDbEntity
  8
SLD-0
  6
HIDDEN
 62
     8
100
AcDbLine
 10
127.8610397945
 20
154.0044918424
 30
0.0
 11
127.8610397945
 21
154.5287559111
 31
0.0
  0
LINE
  5
11A
330
1F
100
AcDbEntity
  8
SLD-0
  6
HIDDEN
 62
     8
100
AcDbLine
 10
91.8610397946
 20
154.0044918424
 30
0.0
 11
91.8610397946
 21
154.5287559111
 31
0.0
  0
LINE
  5
11B
330
1F
100
AcDbEntity
  8
SLD-0
  6
HIDDEN
 62
     8
100
AcDbLine
 10
99.0137995219
 20
153.9166238768
 30
0.0
 11
99.8557165783
 21
153.9166238768
 31
0.0
  0
LINE
  5
11C
330
1F
100
AcDbEntity
  8
SLD-0
  6
HIDDEN
 62
     8
100
AcDbLine
 10
99.0137995219
 20
153.9166238768
 30
0.0
 11
98.8300910737
 21
153.9551665778
 31
0.0
  0
LINE
  5
11D
330
1F
100
AcDbEntity
  8
SLD-0
  6
HIDDEN
 62
     8
100
AcDbLine
 10
98.8300910737
 20
153.9551665778
 30
0.0
 11
98.7361057248
 21
154.0044918406
 31
0.0
  0
LINE
  5
11E
330
1F
100
AcDbEntity
  8
SLD-0
  6
HIDDEN
 62
     8
100
AcDbLine
 10
95.9859734919
 20
154.0044918406
 30
0.0
 11
95.8130296838
 21
153.9296189062
 31
0.0
  0
LINE
  5
11F
330
1F
100
AcDbEntity
  8
SLD-0
  6
HIDDEN
 62
     8
100
AcDbLine
 10
95.8130296838
 20
153.9296189062
 30
0.0
 11
95.7082801085
 21
153.9166238768
 31
0.0
  0
LINE
  5
120
330
1F
100
AcDbEntity
  8
SLD-0
  6
HIDDEN
 62
     8
100
AcDbLine
 10
95.7082801085
 20
153.9166238768
 30
0.0
 11
94.8663626384
 21
153.9166238768
 31
0.0
  0
LINE
  5
121
330
1F
100
AcDbEntity
  8
SLD-0
  6
HIDDEN
 62
     8
100
AcDbLine
 10
95.7082801085
 20
153.9166238768
 30
0.0
 11
95.891988143
 21
153.9551665778
 31
0.0
  0
LINE
  5
122
330
1F
100
AcDbEntity
  8
SLD-0
  6
HIDDEN
 62
     8
100
AcDbLine
 10
95.891988143
 20
153.9551665778
 30
0.0
 11
95.9859734919
 21
154.0044918406
 31
0.0
  0
LINE
  5
123
330
1F
100
AcDbEntity
  8
SLD-0
  6
HIDDEN
 62
     8
100
AcDbLine
 10
98.7361057248
 20
154.0044918406
 30
0.0
 11
98.9090504643
 21
153.9296189062
 31
0.0
  0
LINE
  5
124
330
1F
100
AcDbEntity
  8
SLD-0
  6
HIDDEN
 62
     8
100
AcDbLine
 10
98.9090504643
 20
153.9296189062
 30
0.0
 11
99.0137995219
 21
153.9166238768
 31
0.0
  0
LINE
  5
125
330
1F
100
AcDbEntity
  8
SLD-0
  6
HIDDEN
 62
     8
100
AcDbLine
 10
120.9859738644
 20
154.0044918406
 30
0.0
 11
120.813029125
 21
153.9296189062
 31
0.0
  0
LINE
  5
126
330
1F
100
AcDbEntity
  8
SLD-0
  6
HIDDEN
 62
     8
100
AcDbLine
 10
120.813029125
 20
153.9296189062
 30
0.0
 11
120.708280481
 21
153.9166238768
 31
0.0
  0
LINE
  5
127
330
1F
100
AcDbEntity
  8
SLD-0
  6
HIDDEN
 62
     8
100
AcDbLine
 10
120.708280481
 20
153.9166238768
 30
0.0
 11
119.8663630109
 21
153.9166238768
 31
0.0
  0
LINE
  5
128
330
1F
100
AcDbEntity
  8
SLD-0
  6
HIDDEN
 62
     8
100
AcDbLine
 10
120.708280481
 20
153.9166238768
 30
0.0
 11
120.8919885155
 21
153.9551665778
 31
0.0
  0
LINE
  5
129
330
1F
100
AcDbEntity
  8
SLD-0
  6
HIDDEN
 62
     8
100
AcDbLine
 10
120.8919885155
 20
153.9551665778
 30
0.0
 11
120.9859738644
 21
154.0044918406
 31
0.0
  0
LINE
  5
12A
330
1F
100
AcDbEntity
  8
SLD-0
  6
HIDDEN
 62
     8
100
AcDbLine
 10
123.7361060974
 20
154.0044918407
 30
0.0
 11
123.9090499055
 21
153.9296189062
 31
0.0
  0
LINE
  5
12B
330
1F
100
AcDbEntity
  8
SLD-0
  6
HIDDEN
 62
     8
100
AcDbLine
 10
123.9090499055
 20
153.9296189062
 30
0.0
 11
124.0137994807
 21
153.9166238768
 31
0.0
  0
LINE
  5
12C
330
1F
100
AcDbEntity
  8
SLD-0
  6
HIDDEN
 62
     8
100
AcDbLine
 10
124.0137994807
 20
153.9166238768
 30
0.0
 11
124.8557169508
 21
153.9166238768
 31
0.0
  0
LINE
  5
12D
330
1F
100
AcDbEntity
  8
SLD-0
  6
HIDDEN
 62
     8
100
AcDbLine
 10
124.0137994807
 20
153.9166238768
 30
0.0
 11
123.8300914463
 21
153.9551665778
 31
0.0
  0
LINE
  5
12E
330
1F
100
AcDbEntity
  8
SLD-0
  6
HIDDEN
 62
     8
100
AcDbLine
 10
123.8300914463
 20
153.9551665778
 30
0.0
 11
123.7361060974
 21
154.0044918407
 31
0.0
  0
LINE
  5
12F
330
1F
100
AcDbEntity
  8
SLD-0
  6
HIDDEN
 62
     8
100
AcDbLine
 10
127.8610397945
 20
153.9166238768
 30
0.0
 11
124.0137994807
 21
153.9166238768
 31
0.0
  0
LINE
  5
130
330
1F
100
AcDbEntity
  8
SLD-0
  6
HIDDEN
 62
     8
100
AcDbLine
 10
127.8610397945
 20
153.9166238768
 30
0.0
 11
127.8610397945
 21
154.0044918424
 31
0.0
  0
LINE
  5
131
330
1F
100
AcDbEntity
  8
SLD-0
  6
HIDDEN
 62
     8
100
AcDbLine
 10
95.7082801085
 20
153.9166238768
 30
0.0
 11
91.8610397946
 21
153.9166238768
 31
0.0
  0
LINE
  5
132
330
1F
100
AcDbEntity
  8
SLD-0
  6
HIDDEN
 62
     8
100
AcDbLine
 10
91.8610397946
 20
153.9166238768
 30
0.0
 11
91.8610397946
 21
154.0044918424
 31
0.0
  0
LINE
  5
133
330
1F
100
AcDbEntity
  8
SLD-0
  6
HIDDEN
 62
     8
100
AcDbLine
 10
120.708280481
 20
153.9166238768
 30
0.0
 11
99.0137995219
 21
153.9166238768
 31
0.0
  0
LINE
  5
134
330
1F
100
AcDbEntity
  8
SLD-0
  6
HIDDEN
 62
     8
100
AcDbLine
 10
127.8610397945
 20
148.2166238768
 30
0.0
 11
127.8610397945
 21
148.7090253448
 31
0.0
  0
LINE
  5
135
330
1F
100
AcDbEntity
  8
SLD-0
  6
HIDDEN
 62
     8
100
AcDbLine
 10
91.8610397946
 20
148.2166238768
 30
0.0
 11
91.8610397946
 21
148.7090253448
 31
0.0
  0
LINE
  5
136
330
1F
100
AcDbEntity
  8
SLD-0
  6
HIDDEN
 62
     8
100
AcDbLine
 10
127.8610397945
 20
148.7090253448
 30
0.0
 11
127.8610397945
 21
153.9020048534
 31
0.0
  0
LINE
  5
137
330
1F
100
AcDbEntity
  8
SLD-0
  6
HIDDEN
 62
     8
100
AcDbLine
 10
91.8610397946
 20
148.7090253448
 30
0.0
 11
91.8610397946
 21
153.9020048534
 31
0.0
  0
LINE
  5
138
330
1F
100
AcDbEntity
  8
SLD-0
  6
HIDDEN
 62
     8
100
AcDbLine
 10
95.7082801085
 20
153.9166238768
 30
0.0
 11
91.8610397946
 21
153.9166238768
 31
0.0
  0
LINE
  5
139
330
1F
100
AcDbEntity
  8
SLD-0
  6
HIDDEN
 62
     8
100
AcDbLine
 10
91.8610397946
 20
154.0044918424
 30
0.0
 11
91.8610397946
 21
153.9166238768
 31
0.0
  0
LINE
  5
13A
330
1F
100
AcDbEntity
  8
SLD-0
  6
HIDDEN
 62
     8
100
AcDbLine
 10
120.708280481
 20
153.9166238768
 30
0.0
 11
99.0137995219
 21
153.9166238768
 31
0.0
  0
LINE
  5
13B
330
1F
100
AcDbEntity
  8
SLD-0
  6
HIDDEN
 62
     8
100
AcDbLine
 10
127.8610397945
 20
153.9166238768
 30
0.0
 11
124.0137994807
 21
153.9166238768
 31
0.0
  0
LINE
  5
13C
330
1F
100
AcDbEntity
  8
SLD-0
  6
HIDDEN
 62
     8
100
AcDbLine
 10
127.8610397945
 20
154.0044918424
 30
0.0
 11
127.8610397945
 21
153.9166238768
 31
0.0
  0
LINE
  5
13D
330
1F
100
AcDbEntity
  8
SLD-0
  6
HIDDEN
 62
     8
100
AcDbLine
 10
127.8610397945
 20
154.5287559111
 30
0.0
 11
127.8610397945
 21
154.0044918424
 31
0.0
  0
LINE
  5
13E
330
1F
100
AcDbEntity
  8
SLD-0
  6
HIDDEN
 62
     8
100
AcDbLine
 10
91.8610397946
 20
154.5287559111
 30
0.0
 11
91.8610397946
 21
154.0044918424
 31
0.0
  0
LINE
  5
13F
330
1F
100
AcDbEntity
  8
SLD-0
  6
HIDDEN
 62
     8
100
AcDbLine
 10
127.8610397945
 20
154.6166238768
 30
0.0
 11
91.8610397946
 21
154.6166238768
 31
0.0
  0
LINE
  5
140
330
1F
100
AcDbEntity
  8
SLD-0
  6
HIDDEN
 62
     8
100
AcDbLine
 10
127.8610397945
 20
154.6166238768
 30
0.0
 11
127.8610397945
 21
154.5287559111
 31
0.0
  0
LINE
  5
141
330
1F
100
AcDbEntity
  8
SLD-0
  6
HIDDEN
 62
     8
100
AcDbLine
 10
91.8610397946
 20
154.6166238768
 30
0.0
 11
91.8610397946
 21
154.5287559111
 31
0.0
  0
LINE
  5
142
330
1F
100
AcDbEntity
  8
SLD-0
  6
HIDDEN
 62
     8
100
AcDbLine
 10
127.8610397945
 20
154.6166238768
 30
0.0
 11
91.8610397946
 21
154.6166238768
 31
0.0
  0
LINE
  5
143
330
1F
100
AcDbEntity
  8
SLD-0
  6
HIDDEN
 62
     8
100
AcDbLine
 10
127.8610397945
 20
153.9020048534
 30
0.0
 11
127.8610397945
 21
154.6166238768
 31
0.0
  0
LINE
  5
144
330
1F
100
AcDbEntity
  8
SLD-0
  6
HIDDEN
 62
     8
100
AcDbLine
 10
91.8610397946
 20
153.9020048534
 30
0.0
 11
91.8610397946
 21
154.6166238768
 31
0.0
  0
LINE
  5
145
330
1F
100
AcDbEntity
  8
SLD-0
 62
   179
100
AcDbLine
 10
125.3572788607
 20
148.2222391901
 30
0.0
 11
125.356878392
 21
148.2228058999
 31
0.0
  0
LINE
  5
146
330
1F
100
AcDbEntity
  8
SLD-0
 62
   179
100
AcDbLine
 10
125.356878392
 20
148.2228058999
 30
0.0
 11
125.0578623783
 21
148.7090252017
 31
0.0
  0
LINE
  5
147
330
1F
100
AcDbEntity
  8
SLD-0
 62
   179
100
AcDbLine
 10
119.6642166521
 20
148.7090252017
 30
0.0
 11
119.5557129156
 21
148.5224947942
 31
0.0
  0
LINE
  5
148
330
1F
100
AcDbEntity
  8
SLD-0
 62
   179
100
AcDbLine
 10
119.5557129156
 20
148.5224947942
 30
0.0
 11
119.364801101
 21
148.2222391901
 31
0.0
  0
LINE
  5
149
330
1F
100
AcDbEntity
  8
SLD-0
 62
   179
100
AcDbLine
 10
125.0578623783
 20
148.7090252017
 30
0.0
 11
124.7404574003
 21
149.1764546049
 31
0.0
  0
LINE
  5
14A
330
1F
100
AcDbEntity
  8
SLD-0
 62
   179
100
AcDbLine
 10
124.7404574003
 20
149.1764546049
 30
0.0
 11
124.3145021196
 21
149.621070796
 31
0.0
  0
LINE
  5
14B
330
1F
100
AcDbEntity
  8
SLD-0
 62
   179
100
AcDbLine
 10
124.3145021196
 20
149.621070796
 30
0.0
 11
123.9722755324
 21
149.8884069411
 31
0.0
  0
LINE
  5
14C
330
1F
100
AcDbEntity
  8
SLD-0
 62
   179
100
AcDbLine
 10
123.9722755324
 20
149.8884069411
 30
0.0
 11
123.5796336602
 21
150.1200827447
 31
0.0
  0
LINE
  5
14D
330
1F
100
AcDbEntity
  8
SLD-0
 62
   179
100
AcDbLine
 10
123.5796336602
 20
150.1200827447
 30
0.0
 11
123.2441377413
 21
150.2625604303
 31
0.0
  0
LINE
  5
14E
330
1F
100
AcDbEntity
  8
SLD-0
 62
   179
100
AcDbLine
 10
123.2441377413
 20
150.2625604303
 30
0.0
 11
122.8830220696
 21
150.3636899547
 31
0.0
  0
LINE
  5
14F
330
1F
100
AcDbEntity
  8
SLD-0
 62
   179
100
AcDbLine
 10
122.8830220696
 20
150.3636899547
 30
0.0
 11
122.4997697916
 21
150.4130821818
 31
0.0
  0
LINE
  5
150
330
1F
100
AcDbEntity
  8
SLD-0
 62
   179
100
AcDbLine
 10
122.4997697916
 20
150.4130821818
 30
0.0
 11
122.1113412227
 21
150.405119141
 31
0.0
  0
LINE
  5
151
330
1F
100
AcDbEntity
  8
SLD-0
 62
   179
100
AcDbLine
 10
122.1113412227
 20
150.405119141
 30
0.0
 11
121.7859967198
 21
150.3519885851
 31
0.0
  0
LINE
  5
152
330
1F
100
AcDbEntity
  8
SLD-0
 62
   179
100
AcDbLine
 10
121.7859967198
 20
150.3519885851
 30
0.0
 11
121.4750886481
 21
150.2617338815
 31
0.0
  0
LINE
  5
153
330
1F
100
AcDbEntity
  8
SLD-0
 62
   179
100
AcDbLine
 10
121.4750886481
 20
150.2617338815
 30
0.0
 11
121.0775573324
 21
150.0866990214
 31
0.0
  0
LINE
  5
154
330
1F
100
AcDbEntity
  8
SLD-0
 62
   179
100
AcDbLine
 10
121.0775573324
 20
150.0866990214
 30
0.0
 11
120.7219960686
 21
149.8690917765
 31
0.0
  0
LINE
  5
155
330
1F
100
AcDbEntity
  8
SLD-0
 62
   179
100
AcDbLine
 10
120.7219960686
 20
149.8690917765
 30
0.0
 11
120.2866847213
 21
149.5096236145
 31
0.0
  0
LINE
  5
156
330
1F
100
AcDbEntity
  8
SLD-0
 62
   179
100
AcDbLine
 10
120.2866847213
 20
149.5096236145
 30
0.0
 11
119.9352315214
 21
149.1173873333
 31
0.0
  0
LINE
  5
157
330
1F
100
AcDbEntity
  8
SLD-0
 62
   179
100
AcDbLine
 10
119.9352315214
 20
149.1173873333
 30
0.0
 11
119.6642166521
 21
148.7090252017
 31
0.0
  0
LINE
  5
158
330
1F
100
AcDbEntity
  8
SLD-0
 62
   179
100
AcDbLine
 10
94.6642172109
 20
148.7090252017
 30
0.0
 11
94.5557134744
 21
148.5224947942
 31
0.0
  0
LINE
  5
159
330
1F
100
AcDbEntity
  8
SLD-0
 62
   179
100
AcDbLine
 10
94.5557134744
 20
148.5224947942
 30
0.0
 11
94.3648007285
 21
148.2222391901
 31
0.0
  0
LINE
  5
15A
330
1F
100
AcDbEntity
  8
SLD-0
 62
   179
100
AcDbLine
 10
100.0578629371
 20
148.7090252017
 30
0.0
 11
99.7404570278
 21
149.1764546049
 31
0.0
  0
LINE
  5
15B
330
1F
100
AcDbEntity
  8
SLD-0
 62
   179
100
AcDbLine
 10
99.7404570278
 20
149.1764546049
 30
0.0
 11
99.3145026784
 21
149.621070796
 31
0.0
  0
LINE
  5
15C
330
1F
100
AcDbEntity
  8
SLD-0
 62
   179
100
AcDbLine
 10
99.3145026784
 20
149.621070796
 30
0.0
 11
98.9722751599
 21
149.8884069411
 31
0.0
  0
LINE
  5
15D
330
1F
100
AcDbEntity
  8
SLD-0
 62
   179
100
AcDbLine
 10
98.9722751599
 20
149.8884069411
 30
0.0
 11
98.5796332877
 21
150.1200827447
 31
0.0
  0
LINE
  5
15E
330
1F
100
AcDbEntity
  8
SLD-0
 62
   179
100
AcDbLine
 10
98.5796332877
 20
150.1200827447
 30
0.0
 11
98.2441373687
 21
150.2625604303
 31
0.0
  0
LINE
  5
15F
330
1F
100
AcDbEntity
  8
SLD-0
 62
   179
100
AcDbLine
 10
98.2441373687
 20
150.2625604303
 30
0.0
 11
97.883021697
 21
150.3636899547
 31
0.0
  0
LINE
  5
160
330
1F
100
AcDbEntity
  8
SLD-0
 62
   179
100
AcDbLine
 10
97.883021697
 20
150.3636899547
 30
0.0
 11
97.4997694191
 21
150.4130821818
 31
0.0
  0
LINE
  5
161
330
1F
100
AcDbEntity
  8
SLD-0
 62
   179
100
AcDbLine
 10
97.4997694191
 20
150.4130821818
 30
0.0
 11
97.1113408502
 21
150.405119141
 31
0.0
  0
LINE
  5
162
330
1F
100
AcDbEntity
  8
SLD-0
 62
   179
100
AcDbLine
 10
97.1113408502
 20
150.405119141
 30
0.0
 11
96.7859963473
 21
150.3519885851
 31
0.0
  0
LINE
  5
163
330
1F
100
AcDbEntity
  8
SLD-0
 62
   179
100
AcDbLine
 10
96.7859963473
 20
150.3519885851
 30
0.0
 11
96.4750882756
 21
150.2617338815
 31
0.0
  0
LINE
  5
164
330
1F
100
AcDbEntity
  8
SLD-0
 62
   179
100
AcDbLine
 10
96.4750882756
 20
150.2617338815
 30
0.0
 11
96.0775569599
 21
150.0866990214
 31
0.0
  0
LINE
  5
165
330
1F
100
AcDbEntity
  8
SLD-0
 62
   179
100
AcDbLine
 10
96.0775569599
 20
150.0866990214
 30
0.0
 11
95.7219966274
 21
149.8690917765
 31
0.0
  0
LINE
  5
166
330
1F
100
AcDbEntity
  8
SLD-0
 62
   179
100
AcDbLine
 10
95.7219966274
 20
149.8690917765
 30
0.0
 11
95.2866852801
 21
149.5096236145
 31
0.0
  0
LINE
  5
167
330
1F
100
AcDbEntity
  8
SLD-0
 62
   179
100
AcDbLine
 10
95.2866852801
 20
149.5096236145
 30
0.0
 11
94.9352320801
 21
149.1173873333
 31
0.0
  0
LINE
  5
168
330
1F
100
AcDbEntity
  8
SLD-0
 62
   179
100
AcDbLine
 10
94.9352320801
 20
149.1173873333
 30
0.0
 11
94.6642172109
 21
148.7090252017
 31
0.0
  0
LINE
  5
169
330
1F
100
AcDbEntity
  8
SLD-0
 62
   179
100
AcDbLine
 10
100.3572784882
 20
148.2222391901
 30
0.0
 11
100.3568789508
 21
148.2228058999
 31
0.0
  0
LINE
  5
16A
330
1F
100
AcDbEntity
  8
SLD-0
 62
   179
100
AcDbLine
 10
100.3568789508
 20
148.2228058999
 30
0.0
 11
100.0578629371
 21
148.7090252017
 31
0.0
  0
LINE
  5
16B
330
1F
100
AcDbEntity
  8
SLD-0
  6
CENTERX2
 62
   179
100
AcDbLine
 10
122.3610397946
 20
146.7090253448
 30
0.0
 11
122.3610397946
 21
156.0044918424
 31
0.0
  0
LINE
  5
16C
330
1F
100
AcDbEntity
  8
SLD-0
  6
CENTERX2
 62
   179
100
AcDbLine
 10
97.3610397946
 20
146.7090253448
 30
0.0
 11
97.3610397946
 21
156.0044918424
 31
0.0
  0
LINE
  5
16D
330
1F
100
AcDbEntity
  8
SLD-0
  6
Continuous
 62
   179
100
AcDbLine
 10
69.9816665812
 20
154.0044918424
 30
0.0
 11
70.5059306499
 21
154.5287559111
 31
0.0
  0
LINE
  5
16E
330
1F
100
AcDbEntity
  8
SLD-0
  6
Continuous
 62
   179
100
AcDbLine
 10
70.7180626843
 20
154.6166238768
 30
0.0
 11
72.6937986156
 21
154.6166238768
 31
0.0
  0
LINE
  5
16F
330
1F
100
AcDbEntity
  8
SLD-0
  6
Continuous
 62
   179
100
AcDbLine
 10
65.2816665813
 20
154.5287559112
 30
0.0
 11
65.80593065
 21
154.0044918425
 31
0.0
  0
LINE
  5
170
330
1F
100
AcDbEntity
  8
SLD-0
  6
Continuous
 62
   179
100
AcDbLine
 10
66.0180626843
 20
153.9166238768
 30
0.0
 11
69.7695345469
 21
153.9166238768
 31
0.0
  0
LINE
  5
171
330
1F
100
AcDbEntity
  8
SLD-0
  6
Continuous
 62
   179
100
AcDbLine
 10
63.0937986156
 20
154.6166238768
 30
0.0
 11
65.0695345469
 21
154.6166238768
 31
0.0
  0
LINE
  5
172
330
1F
100
AcDbEntity
  8
SLD-0
 62
   179
100
AcDbLine
 10
70.8937986416
 20
150.410240251
 30
0.0
 11
70.8937986416
 21
150.4173737162
 31
0.0
  0
LINE
  5
173
330
1F
100
AcDbEntity
  8
SLD-0
 62
   179
100
AcDbLine
 10
64.8937985895
 20
150.4173737162
 30
0.0
 11
64.8937985895
 21
150.410240251
 31
0.0
  0
LINE
  5
174
330
1F
100
AcDbEntity
  8
SLD-0
  6
CENTERX2
 62
   179
100
AcDbLine
 10
67.8937986156
 20
146.7090253448
 30
0.0
 11
67.8937986156
 21
156.0044918424
 31
0.0
  0
ARC
  5
175
330
1F
100
AcDbEntity
  8
SLD-0
  6
Continuous
 62
   179
100
AcDbCircle
 10
122.3610398863
 20
189.5271757831
 30
0.0
 40
2.49999998264233
100
AcDbArc
 50
56.631174544
 51
123.3688249985
  0
ARC
  5
176
330
1F
100
AcDbEntity
  8
SLD-0
  6
Continuous
 62
   179
100
AcDbCircle
 10
97.3610397029
 20
189.5271757831
 30
0.0
 40
2.49999998264233
100
AcDbArc
 50
56.6311750015
 51
123.368825456
  0
ARC
  5
177
330
1F
100
AcDbEntity
  8
SLD-0
  6
Continuous
 62
   179
100
AcDbCircle
 10
122.3610398863
 20
189.5271757831
 30
0.0
 40
2.49999994754904
100
AcDbArc
 50
236.6311692774
 51
303.3688302652
  0
ARC
  5
178
330
1F
100
AcDbEntity
  8
SLD-0
  6
Continuous
 62
   179
100
AcDbCircle
 10
97.3610397029
 20
189.5271757831
 30
0.0
 40
2.499999950221658
100
AcDbArc
 50
236.6311692673
 51
303.3688302663
  0
ARC
  5
179
330
1F
100
AcDbEntity
  8
SLD-0
  6
Continuous
 62
   179
100
AcDbCircle
 10
97.3610397029
 20
189.5271757831
 30
0.0
 40
2.499999855789478
100
AcDbArc
 50
131.3841098007
 51
228.6158848706
  0
ARC
  5
17A
330
1F
100
AcDbEntity
  8
SLD-0
  6
Continuous
 62
   179
100
AcDbCircle
 10
122.3610398863
 20
189.5271757831
 30
0.0
 40
2.499999855789478
100
AcDbArc
 50
311.3841151294
 51
48.6158901993
  0
ARC
  5
17B
330
1F
100
AcDbEntity
  8
SLD-0
  6
Continuous
 62
   179
100
AcDbCircle
 10
122.3610398863
 20
189.5271757831
 30
0.0
 40
2.499999853072276
100
AcDbArc
 50
131.3841093494
 51
228.6158848689
  0
ARC
  5
17C
330
1F
100
AcDbEntity
  8
SLD-0
  6
Continuous
 62
   179
100
AcDbCircle
 10
97.3610397029
 20
189.5271757831
 30
0.0
 40
2.499999853072276
100
AcDbArc
 50
311.3841151311
 51
48.6158906506
  0
ARC
  5
17D
330
1F
100
AcDbEntity
  8
SLD-0
  6
Continuous
 62
   179
100
AcDbCircle
 10
122.3610399808
 20
147.308620247
 30
0.0
 40
2.546367602799999
100
AcDbArc
 50
33.3643935262
 51
146.6356064737
  0
ARC
  5
17E
330
1F
100
AcDbEntity
  8
SLD-0
  6
Continuous
 62
   179
100
AcDbCircle
 10
97.3610396083
 20
147.3086203364
 30
0.0
 40
2.546367553600019
100
AcDbArc
 50
33.3643918462
 51
146.6356081538
  0
ARC
  5
17F
330
1F
100
AcDbEntity
  8
SLD-0
  6
Continuous
 62
   179
100
AcDbCircle
 10
108.8830241254
 20
155.4440891967
 30
0.0
 40
11.55995041400565
100
AcDbArc
 50
215.6350659329
 51
218.6980395936
  0
ARC
  5
180
330
1F
100
AcDbEntity
  8
SLD-0
  6
Continuous
 62
   179
100
AcDbCircle
 10
86.3401856521
 20
155.064155166
 30
0.0
 40
10.93131497601043
100
AcDbArc
 50
321.2139354945
 51
324.4530966114
  0
ARC
  5
181
330
1F
100
AcDbEntity
  8
SLD-0
  6
Continuous
 62
   179
100
AcDbCircle
 10
133.8860808728
 20
155.4463892308
 30
0.0
 40
11.5637745126998
100
AcDbArc
 50
215.635505089
 51
218.6974628051
  0
ARC
  5
182
330
1F
100
AcDbEntity
  8
SLD-0
  6
Continuous
 62
   179
100
AcDbCircle
 10
111.3410593933
 20
155.0635091625
 30
0.0
 40
10.93022880183502
100
AcDbArc
 50
321.2137042164
 51
324.4531902564
  0
ARC
  5
183
330
1F
100
AcDbEntity
  8
SLD-0
  6
HIDDEN
 62
     8
100
AcDbCircle
 10
108.3810201959
 20
155.0635091625
 30
0.0
 40
10.9302288019314
100
AcDbArc
 50
215.5468097432
 51
218.7862957832
  0
ARC
  5
184
330
1F
100
AcDbEntity
  8
SLD-0
  6
HIDDEN
 62
     8
100
AcDbCircle
 10
97.3610396083
 20
147.3086203364
 30
0.0
 40
2.546367553600019
100
AcDbArc
 50
33.3643918462
 51
146.6356081538
  0
ARC
  5
185
330
1F
100
AcDbEntity
  8
SLD-0
  6
HIDDEN
 62
     8
100
AcDbCircle
 10
85.8359987168
 20
155.4463892305
 30
0.0
 40
11.56377451213695
100
AcDbArc
 50
321.3025371948
 51
324.3644949111
  0
ARC
  5
186
330
1F
100
AcDbEntity
  8
SLD-0
  6
HIDDEN
 62
     8
100
AcDbCircle
 10
97.3610396083
 20
151.9166246207
 30
0.0
 40
2.499999270508266
100
AcDbArc
 50
56.6311616552
 51
123.3688383448
  0
ARC
  5
187
330
1F
100
AcDbEntity
  8
SLD-0
  6
HIDDEN
 62
     8
100
AcDbCircle
 10
97.3610396083
 20
151.9166246207
 30
0.0
 40
2.499999270508266
100
AcDbArc
 50
56.6311616552
 51
123.3688383448
  0
ARC
  5
188
330
1F
100
AcDbEntity
  8
SLD-0
  6
HIDDEN
 62
     8
100
AcDbCircle
 10
133.3818939365
 20
155.0641551656
 30
0.0
 40
10.93131497535397
100
AcDbArc
 50
215.5469033885
 51
218.7860645056
  0
ARC
  5
189
330
1F
100
AcDbEntity
  8
SLD-0
  6
HIDDEN
 62
     8
100
AcDbCircle
 10
122.3610399808
 20
147.308620247
 30
0.0
 40
2.546367602799999
100
AcDbArc
 50
33.3643935262
 51
146.6356064737
  0
ARC
  5
18A
330
1F
100
AcDbEntity
  8
SLD-0
  6
HIDDEN
 62
     8
100
AcDbCircle
 10
110.8390554628
 20
155.4440891975
 30
0.0
 40
11.55995041512858
100
AcDbArc
 50
321.3019604062
 51
324.3649340666
  0
ARC
  5
18B
330
1F
100
AcDbEntity
  8
SLD-0
  6
HIDDEN
 62
     8
100
AcDbCircle
 10
122.361039981
 20
151.9166246207
 30
0.0
 40
2.499999270567881
100
AcDbArc
 50
56.631161657
 51
123.3688383469
  0
ARC
  5
18C
330
1F
100
AcDbEntity
  8
SLD-0
  6
HIDDEN
 62
     8
100
AcDbCircle
 10
122.361039981
 20
151.9166246207
 30
0.0
 40
2.499999270567881
100
AcDbArc
 50
56.631161657
 51
123.3688383469
  0
ARC
  5
18D
330
1F
100
AcDbEntity
  8
SLD-0
  6
Continuous
 62
   179
100
AcDbCircle
 10
70.7180626843
 20
154.3166238768
 30
0.0
 40
0.299999999995805
100
AcDbArc
 50
90.0
 51
135.0000000135
  0
ARC
  5
18E
330
1F
100
AcDbEntity
  8
SLD-0
  6
Continuous
 62
   179
100
AcDbCircle
 10
72.6937986156
 20
154.1166238768
 30
0.0
 40
0.5
100
AcDbArc
 50
334.5807856114
 51
90.0
  0
ARC
  5
18F
330
1F
100
AcDbEntity
  8
SLD-0
  6
Continuous
 62
   179
100
AcDbCircle
 10
58.6943319651
 20
160.7698136005
 30
0.0
 40
16.00000000001304
100
AcDbArc
 50
311.0794373955
 51
334.5807856116
  0
ARC
  5
190
330
1F
100
AcDbEntity
  8
SLD-0
  6
Continuous
 62
   179
100
AcDbCircle
 10
67.8937986157
 20
150.2166238768
 30
0.0
 40
2.000000000001633
100
AcDbArc
 50
228.9205626045
 51
311.0794373934
  0
ARC
  5
191
330
1F
100
AcDbEntity
  8
SLD-0
  6
Continuous
 62
   179
100
AcDbCircle
 10
65.0695345469
 20
154.3166238768
 30
0.0
 40
0.3000000000000114
100
AcDbArc
 50
45.0
 51
90.0
  0
ARC
  5
192
330
1F
100
AcDbEntity
  8
SLD-0
  6
Continuous
 62
   179
100
AcDbCircle
 10
66.0180626843
 20
154.2166238768
 30
0.0
 40
0.300000000031145
100
AcDbArc
 50
225.0
 51
270.0
  0
ARC
  5
193
330
1F
100
AcDbEntity
  8
SLD-0
  6
Continuous
 62
   179
100
AcDbCircle
 10
69.7695345469
 20
154.2166238768
 30
0.0
 40
0.299999999995805
100
AcDbArc
 50
270.0
 51
314.9999999865
  0
ARC
  5
194
330
1F
100
AcDbEntity
  8
SLD-0
  6
Continuous
 62
   179
100
AcDbCircle
 10
77.093265266
 20
160.7698136006
 30
0.0
 40
15.99999999996554
100
AcDbArc
 50
205.4192143893
 51
228.9205626053
  0
ARC
  5
195
330
1F
100
AcDbEntity
  8
SLD-0
  6
Continuous
 62
   179
100
AcDbCircle
 10
63.0937986156
 20
154.1166238768
 30
0.0
 40
0.5000000000321165
100
AcDbArc
 50
90.0
 51
205.4192143908
  0
DIMENSION
  5
196
330
1F
100
AcDbEntity
  8
SLD-0
 62
     7
100
AcDbDimension
  2
*D5
 10
127.8610397946
 20
207.628788066
 30
0.0
 11
134.6112079989
 21
207.628788066
 31
0.0
 70
   160
 71
     1
 42
5.5
  3
SLDDIMSTYLE0
100
AcDbAlignedDimension
 13
122.3610397946
 23
194.5271758665
 33
0.0
 14
127.8610397946
 24
194.8271758665
 34
0.0
100
AcDbRotatedDimension
1001
ACAD
1000
DSTYLE
1002
{
1070
    77
1070
     3
1070
   143
1040
0.0393700787
1070
    41
1040
3.0
1070
    44
1040
1.0
1070
    42
1040
1.0
1070
   147
1040
1.524
1070
    73
1070
     0
1070
    74
1070
     0
1070
   140
1040
3.5
1070
   284
1070
    12
1070
    78
1070
    12
1002
}
  0
DIMENSION
  5
1B7
330
1F
100
AcDbEntity
  8
SLD-0
 62
     7
100
AcDbDimension
  2
*D7
 10
122.3610397946
 20
207.628788066
 30
0.0
 11
109.8610397946
 21
207.628788066
 31
0.0
 70
   160
 71
     1
 42
25.0
  3
SLDDIMSTYLE1
100
AcDbAlignedDimension
 13
97.3610397946
 23
194.5271758665
 33
0.0
 14
122.3610397946
 24
194.5271758665
 34
0.0
100
AcDbRotatedDimension
1001
ACAD
1000
DSTYLE
1002
{
1070
    77
1070
     3
1070
   143
1040
0.0393700787
1070
    41
1040
3.0
1070
    44
1040
1.0
1070
    42
1040
1.0
1070
   147
1040
1.524
1070
    73
1070
     0
1070
    74
1070
     0
1070
   140
1040
3.5
1070
   284
1070
    12
1070
    78
1070
    12
1002
}
  0
DIMENSION
  5
1CF
330
1F
100
AcDbEntity
  8
SLD-0
 62
     7
100
AcDbDimension
  2
*D8
 10
91.8610397946
 20
213.0726708423
 30
0.0
 11
109.8610397946
 21
213.0726708423
 31
0.0
 70
   160
 71
     1
 42
36.0
  3
SLDDIMSTYLE1
100
AcDbAlignedDimension
 13
127.8610397946
 23
194.3271758665
 33
0.0
 14
91.8610397946
 24
194.3271758665
 34
0.0
100
AcDbRotatedDimension
1001
ACAD
1000
DSTYLE
1002
{
1070
    77
1070
     3
1070
   143
1040
0.0393700787
1070
    41
1040
3.0
1070
    44
1040
1.0
1070
    42
1040
1.0
1070
   147
1040
1.524
1070
    73
1070
     0
1070
    74
1070
     0
1070
   140
1040
3.5
1070
   284
1070
    12
1070
    78
1070
    12
1002
}
  0
DIMENSION
  5
1E6
330
1F
100
AcDbEntity
  8
SLD-0
 62
     7
100
AcDbDimension
  2
*D9
 10
2.7416360814
 20
5.3369863844
 30
0.0
 11
82.9588911768
 21
-5.3369869722
 31
0.0
 70
   163
  1
2-M<><>
 71
     1
 42
5.9999993392
  3
SLDDIMSTYLE2
100
AcDbDiametricDimension
 15
0.0
 25
0.0
 35
0.0
 40
0.0
1001
ACAD
1000
DSTYLE
1002
{
1070
    77
1070
     0
1070
   143
1040
0.0393700787
1070
    41
1040
3.0
1070
    44
1040
1.0
1070
    42
1040
1.0
1070
   147
1040
1.524
1070
    73
1070
     1
1070
    74
1070
     1
1070
   140
1040
3.5
1070
   284
1070
    12
1070
    78
1070
    12
1002
}
  0
DIMENSION
  5
1F7
330
1F
100
AcDbEntity
  8
SLD-0
 62
     7
100
AcDbDimension
  2
*D10
 10
150.4564547677
 20
194.8271758665
 30
0.0
 11
150.4564547677
 21
177.2406773623
 31
0.0
 70
   160
 71
     1
 42
10.6
  3
SLDDIMSTYLE0
100
AcDbAlignedDimension
 13
127.8610397946
 23
184.2271758665
 33
0.0
 14
127.8610397946
 24
194.8271758665
 34
0.0
 50
90.0
100
AcDbRotatedDimension
1001
ACAD
1000
DSTYLE
1002
{
1070
    77
1070
     3
1070
   143
1040
0.0393700787
1070
    41
1040
3.0
1070
    44
1040
1.0
1070
    42
1040
1.0
1070
   147
1040
1.524
1070
    73
1070
     0
1070
    74
1070
     0
1070
   140
1040
3.5
1070
   284
1070
    12
1070
    78
1070
    12
1002
}
  0
DIMENSION
  5
210
330
1F
100
AcDbEntity
  8
SLD-0
 62
     7
100
AcDbDimension
  2
*D11
 10
138.9252181712
 20
184.2271758665
 30
0.0
 11
138.9252181712
 21
177.2406773623
 31
0.0
 70
   160
 71
     1
 42
5.3
  3
SLDDIMSTYLE0
100
AcDbAlignedDimension
 13
127.3610397946
 23
189.5271758665
 33
0.0
 14
127.8610397946
 24
184.2271758665
 34
0.0
 50
90.0
100
AcDbRotatedDimension
1001
ACAD
1000
DSTYLE
1002
{
1070
    77
1070
     3
1070
   143
1040
0.0393700787
1070
    41
1040
3.0
1070
    44
1040
1.0
1070
    42
1040
1.0
1070
   147
1040
1.524
1070
    73
1070
     0
1070
    74
1070
     0
1070
   140
1040
3.5
1070
   284
1070
    12
1070
    78
1070
    12
1002
}
  0
MTEXT
  5
22B
330
1F
100
AcDbEntity
  8
SLD-0
 62
     7
100
AcDbMText
 10
157.2881040081
 20
15.920827308
 30
0.0
 40
3.5
 41
0.0
 71
     1
 72
     1
  1
131059
  7
SLDTEXTSTYLE0
 73
     1
 44
1.0
  0
MTEXT
  5
22C
330
1F
100
AcDbEntity
  8
SLD-0
 62
     7
100
AcDbMText
 10
147.3108496982
 20
29.7138882404
 30
0.0
 40
4.2333333333
 41
0.0
 71
     1
 72
     1
  1
N01914-106-0
  7
SLDTEXTSTYLE1
 73
     1
 44
1.0
  0
MTEXT
  5
22D
330
1F
100
AcDbEntity
  8
SLD-0
 62
     7
100
AcDbMText
 10
149.3717577889
 20
43.2377018572
 30
0.0
 40
4.2333333333
 41
0.0
 71
     1
 72
     1
  1
Nut M6-P25
  7
SLDTEXTSTYLE1
 73
     1
 44
1.0
  0
INSERT
  5
22E
330
1F
100
AcDbEntity
  8
0
  6
Continuous
 62
     7
370
     0
100
AcDbBlockReference
  2
SURFACEFINISH39
 10
176.1663369538
 20
249.0193918395
 30
0.0
  0
INSERT
  5
22F
330
1F
100
AcDbEntity
  8
0
  6
Continuous
 62
     7
370
     0
100
AcDbBlockReference
  2
注記
 10
106.265760092
 20
56.9881222401
 30
0.0
  0
INSERT
  5
230
330
1F
100
AcDbEntity
  8
0
  6
Continuous
 62
     7
370
     0
100
AcDbBlockReference
  2
SW_CENTERMARK0
 10
0.0
 20
0.0
 30
0.0
  0
INSERT
  5
231
330
1F
100
AcDbEntity
  8
0
  6
Continuous
 62
     7
370
     0
100
AcDbBlockReference
  2
SW_CENTERMARK1
 10
0.0
 20
0.0
 30
0.0
  0
ENDSEC
  0
SECTION
  2
OBJECTS
  0
DICTIONARY
  5
C
330
0
100
AcDbDictionary
281
     1
  3
ACAD_GROUP
350
D
  3
ACAD_LAYOUT
350
1A
  3
ACAD_MLINESTYLE
350
17
  3
ACAD_PLOTSETTINGS
350
19
  3
ACAD_PLOTSTYLENAME
350
E
  0
DICTIONARY
  5
D
102
{ACAD_REACTORS
330
C
102
}
330
C
100
AcDbDictionary
281
     1
  0
DICTIONARY
  5
1A
102
{ACAD_REACTORS
330
C
102
}
330
C
100
AcDbDictionary
281
     1
  3
Layout1
350
1E
  3
Layout2
350
26
  3
Model
350
22
  0
DICTIONARY
  5
17
102
{ACAD_REACTORS
330
C
102
}
330
C
100
AcDbDictionary
281
     1
  3
Standard
350
18
  0
DICTIONARY
  5
19
102
{ACAD_REACTORS
330
C
102
}
330
C
100
AcDbDictionary
281
     1
  0
ACDBDICTIONARYWDFLT
  5
E
102
{ACAD_REACTORS
330
C
102
}
330
C
100
AcDbDictionary
281
     1
  3
Normal
350
F
100
AcDbDictionaryWithDefault
340
F
  0
LAYOUT
  5
1E
102
{ACAD_REACTORS
330
1A
102
}
330
1A
100
AcDbPlotSettings
  1

  2

  4

  6

 40
0.0
 41
0.0
 42
0.0
 43
0.0
 44
0.0
 45
0.0
 46
0.0
 47
0.0
 48
0.0
 49
0.0
140
0.0
141
0.0
142
1.0
143
1.0
 70
   688
 72
     0
 73
     0
 74
     5
  7

 75
    16
147
1.0
148
0.0
149
0.0
100
AcDbLayout
  1
Layout1
 70
     1
 71
     1
 10
0.0
 20
0.0
 11
0.0
 21
0.0
 12
0.0
 22
0.0
 32
0.0
 14
0.0
 24
0.0
 34
0.0
 15
0.0
 25
0.0
 35
0.0
146
0.0
 13
0.0
 23
0.0
 33
0.0
 16
1.0
 26
0.0
 36
0.0
 17
0.0
 27
1.0
 37
0.0
 76
     0
330
1B
  0
LAYOUT
  5
26
102
{ACAD_REACTORS
330
1A
102
}
330
1A
100
AcDbPlotSettings
  1

  2

  4

  6

 40
0.0
 41
0.0
 42
0.0
 43
0.0
 44
0.0
 45
0.0
 46
0.0
 47
0.0
 48
0.0
 49
0.0
140
0.0
141
0.0
142
1.0
143
1.0
 70
   688
 72
     0
 73
     0
 74
     5
  7

 75
    16
147
1.0
148
0.0
149
0.0
100
AcDbLayout
  1
Layout2
 70
     1
 71
     2
 10
0.0
 20
0.0
 11
0.0
 21
0.0
 12
0.0
 22
0.0
 32
0.0
 14
0.0
 24
0.0
 34
0.0
 15
0.0
 25
0.0
 35
0.0
146
0.0
 13
0.0
 23
0.0
 33
0.0
 16
1.0
 26
0.0
 36
0.0
 17
0.0
 27
1.0
 37
0.0
 76
     0
330
23
  0
LAYOUT
  5
22
102
{ACAD_REACTORS
330
1A
102
}
330
1A
100
AcDbPlotSettings
  1

  2

  4

  6

 40
0.0
 41
0.0
 42
0.0
 43
0.0
 44
0.0
 45
0.0
 46
0.0
 47
0.0
 48
0.0
 49
0.0
140
0.0
141
0.0
142
1.0
143
1.0
 70
  1712
 72
     0
 73
     0
 74
     0
  7

 75
     0
147
1.0
148
0.0
149
0.0
100
AcDbLayout
  1
Model
 70
     1
 71
     0
 10
0.0
 20
0.0
 11
0.0
 21
0.0
 12
0.0
 22
0.0
 32
0.0
 14
0.0
 24
0.0
 34
0.0
 15
210.0
 25
297.0
 35
0.0
146
0.0
 13
0.0
 23
0.0
 33
0.0
 16
1.0
 26
0.0
 36
0.0
 17
0.0
 27
1.0
 37
0.0
 76
     0
330
1F
  0
MLINESTYLE
  5
18
102
{ACAD_REACTORS
330
17
102
}
330
17
100
AcDbMlineStyle
  2
Standard
 70
     0
  3

 62
   256
 51
90.0
 52
90.0
 71
     2
 49
0.5
 62
   256
  6
BYLAYER
 49
-0.5
 62
   256
  6
BYLAYER
  0
ACDBPLACEHOLDER
  5
F
102
{ACAD_REACTORS
330
E
102
}
330
E
  0
ENDSEC
  0
EOF
