  0
SECTION
  2
HEADER
  9
$ACADVER
  1
AC1015
  9
$ACADMAINTVER
 70
     6
  9
$DWGCODEPAGE
  3
DOS932
  9
$INSBASE
 10
0.0
 20
0.0
 30
0.0
  9
$EXTMIN
 10
0.0
 20
0.0
 30
0.0
  9
$EXTMAX
 10
210.0
 20
297.0
 30
0.0
  9
$LIMMIN
 10
0.0
 20
0.0
  9
$LIMMAX
 10
0.0
 20
0.0
  9
$ORTHOMODE
 70
     0
  9
$REGENMODE
 70
     1
  9
$FILLMODE
 70
     1
  9
$QTEXTMODE
 70
     0
  9
$MIRRTEXT
 70
     1
  9
$LTSCALE
 40
1.0
  9
$ATTMODE
 70
     1
  9
$TEXTSIZE
 40
3.5
  9
$TRACEWID
 40
1.0
  9
$TEXTSTYLE
  7
Standard
  9
$CLAYER
  8
0
  9
$CELTYPE
  6
ByLayer
  9
$CECOLOR
 62
   256
  9
$CELTSCALE
 40
1.0
  9
$DISPSILH
 70
     0
  9
$DIMSCALE
 40
1.0
  9
$DIMASZ
 40
3.0
  9
$DIMEXO
 40
1.0
  9
$DIMDLI
 40
3.75
  9
$DIMRND
 40
0.0
  9
$DIMDLE
 40
0.0
  9
$DIMEXE
 40
1.0
  9
$DIMTP
 40
0.0
  9
$DIMTM
 40
0.0
  9
$DIMTXT
 40
3.5
  9
$DIMCEN
 40
2.5
  9
$DIMTSZ
 40
0.0
  9
$DIMTOL
 70
     0
  9
$DIMLIM
 70
     0
  9
$DIMTIH
 70
     1
  9
$DIMTOH
 70
     1
  9
$DIMSE1
 70
     0
  9
$DIMSE2
 70
     0
  9
$DIMTAD
 70
     1
  9
$DIMZIN
 70
     1
  9
$DIMBLK
  1

  9
$DIMASO
 70
     1
  9
$DIMSHO
 70
     1
  9
$DIMPOST
  1

  9
$DIMAPOST
  1

  9
$DIMALT
 70
     0
  9
$DIMALTD
 70
     3
  9
$DIMALTF
 40
0.0393700787
  9
$DIMLFAC
 40
1.0
  9
$DIMTOFL
 70
     1
  9
$DIMTVP
 40
0.0
  9
$DIMTIX
 70
     0
  9
$DIMSOXD
 70
     0
  9
$DIMSAH
 70
     0
  9
$DIMBLK1
  1

  9
$DIMBLK2
  1

  9
$DIMSTYLE
  2
ISO-25
  9
$DIMCLRD
 70
     0
  9
$DIMCLRE
 70
     0
  9
$DIMCLRT
 70
     0
  9
$DIMTFAC
 40
1.0
  9
$DIMGAP
 40
1.524
  9
$DIMJUST
 70
     0
  9
$DIMSD1
 70
     0
  9
$DIMSD2
 70
     0
  9
$DIMTOLJ
 70
     0
  9
$DIMTZIN
 70
     1
  9
$DIMALTZ
 70
     0
  9
$DIMALTTZ
 70
     0
  9
$DIMUPT
 70
     0
  9
$DIMDEC
 70
     2
  9
$DIMTDEC
 70
     2
  9
$DIMALTU
 70
     2
  9
$DIMALTTD
 70
     3
  9
$DIMTXSTY
  7
Standard
  9
$DIMAUNIT
 70
     0
  9
$DIMADEC
 70
     0
  9
$DIMALTRND
 40
0.0
  9
$DIMAZIN
 70
     0
  9
$DIMDSEP
 70
    44
  9
$DIMATFIT
 70
     3
  9
$DIMFRAC
 70
     0
  9
$DIMLDRBLK
  1

  9
$DIMLUNIT
 70
     2
  9
$DIMLWD
 70
    -2
  9
$DIMLWE
 70
    -2
  9
$DIMTMOVE
 70
     0
  9
$LUNITS
 70
     2
  9
$LUPREC
 70
     1
  9
$SKETCHINC
 40
1.0
  9
$FILLETRAD
 40
10.0
  9
$AUNITS
 70
     0
  9
$AUPREC
 70
     0
  9
$MENU
  1
.
  9
$ELEVATION
 40
0.0
  9
$PELEVATION
 40
0.0
  9
$THICKNESS
 40
0.0
  9
$LIMCHECK
 70
     0
  9
$CHAMFERA
 40
10.0
  9
$CHAMFERB
 40
10.0
  9
$CHAMFERC
 40
20.0
  9
$CHAMFERD
 40
0.0
  9
$SKPOLY
 70
     0
  9
$TDCREATE
 40
2454314.633009618
  9
$TDUCREATE
 40
2454314.258009618
  9
$TDUPDATE
 40
2454314.63300963
  9
$TDUUPDATE
 40
2454314.25800963
  9
$TDINDWG
 40
0.0000000116
  9
$TDUSRTIMER
 40
0.0000000116
  9
$USRTIMER
 70
     1
  9
$ANGBASE
 50
0.0
  9
$ANGDIR
 70
     0
  9
$PDMODE
 70
     0
  9
$PDSIZE
 40
-1.0
  9
$PLINEWID
 40
0.0
  9
$SPLFRAME
 70
     0
  9
$SPLINETYPE
 70
     6
  9
$SPLINESEGS
 70
     8
  9
$HANDSEED
  5
299
  9
$SURFTAB1
 70
     6
  9
$SURFTAB2
 70
     6
  9
$SURFTYPE
 70
     6
  9
$SURFU
 70
     6
  9
$SURFV
 70
     6
  9
$UCSBASE
  2

  9
$UCSNAME
  2

  9
$UCSORG
 10
0.0
 20
0.0
 30
0.0
  9
$UCSXDIR
 10
1.0
 20
0.0
 30
0.0
  9
$UCSYDIR
 10
0.0
 20
1.0
 30
0.0
  9
$UCSORTHOREF
  2

  9
$UCSORTHOVIEW
 70
     0
  9
$UCSORGTOP
 10
0.0
 20
0.0
 30
0.0
  9
$UCSORGBOTTOM
 10
0.0
 20
0.0
 30
0.0
  9
$UCSORGLEFT
 10
0.0
 20
0.0
 30
0.0
  9
$UCSORGRIGHT
 10
0.0
 20
0.0
 30
0.0
  9
$UCSORGFRONT
 10
0.0
 20
0.0
 30
0.0
  9
$UCSORGBACK
 10
0.0
 20
0.0
 30
0.0
  9
$PUCSBASE
  2

  9
$PUCSNAME
  2

  9
$PUCSORG
 10
0.0
 20
0.0
 30
0.0
  9
$PUCSXDIR
 10
1.0
 20
0.0
 30
0.0
  9
$PUCSYDIR
 10
0.0
 20
1.0
 30
0.0
  9
$PUCSORTHOREF
  2

  9
$PUCSORTHOVIEW
 70
     0
  9
$PUCSORGTOP
 10
0.0
 20
0.0
 30
0.0
  9
$PUCSORGBOTTOM
 10
0.0
 20
0.0
 30
0.0
  9
$PUCSORGLEFT
 10
0.0
 20
0.0
 30
0.0
  9
$PUCSORGRIGHT
 10
0.0
 20
0.0
 30
0.0
  9
$PUCSORGFRONT
 10
0.0
 20
0.0
 30
0.0
  9
$PUCSORGBACK
 10
0.0
 20
0.0
 30
0.0
  9
$USERI1
 70
     0
  9
$USERI2
 70
     0
  9
$USERI3
 70
     0
  9
$USERI4
 70
     0
  9
$USERI5
 70
     0
  9
$USERR1
 40
0.0
  9
$USERR2
 40
0.0
  9
$USERR3
 40
0.0
  9
$USERR4
 40
0.0
  9
$USERR5
 40
0.0
  9
$WORLDVIEW
 70
     1
  9
$SHADEDGE
 70
     3
  9
$SHADEDIF
 70
    70
  9
$TILEMODE
 70
     1
  9
$MAXACTVP
 70
    64
  9
$PINSBASE
 10
0.0
 20
0.0
 30
0.0
  9
$PLIMCHECK
 70
     0
  9
$PEXTMIN
 10
1.0000000000E+20
 20
1.0000000000E+20
 30
1.0000000000E+20
  9
$PEXTMAX
 10
-1.0000000000E+20
 20
-1.0000000000E+20
 30
-1.0000000000E+20
  9
$PLIMMIN
 10
0.0
 20
0.0
  9
$PLIMMAX
 10
420.0
 20
297.0
  9
$UNITMODE
 70
     0
  9
$VISRETAIN
 70
     1
  9
$PLINEGEN
 70
     0
  9
$PSLTSCALE
 70
     1
  9
$TREEDEPTH
 70
  3020
  9
$CMLSTYLE
  2
Standard
  9
$CMLJUST
 70
     0
  9
$CMLSCALE
 40
20.0
  9
$PROXYGRAPHICS
 70
     1
  9
$MEASUREMENT
 70
     1
  9
$CELWEIGHT
370
    -1
  9
$ENDCAPS
280
     0
  9
$JOINSTYLE
280
     0
  9
$LWDISPLAY
290
     1
  9
$INSUNITS
 70
     4
  9
$HYPERLINKBASE
  1

  9
$STYLESHEET
  1

  9
$XEDIT
290
     1
  9
$CEPSNTYPE
380
     0
  9
$PSTYLEMODE
290
     1
  9
$FINGERPRINTGUID
  2
{D23CD7D1-6FFF-4CD0-80E7-263038F90BC2}
  9
$VERSIONGUID
  2
{FAEB1C32-E019-11D5-929B-00C0DF256EC4}
  9
$EXTNAMES
290
     1
  9
$PSVPSCALE
 40
0.0
  9
$OLESTARTUP
290
     0
  0
ENDSEC
  0
SECTION
  2
CLASSES
  0
CLASS
  1
ACDBDICTIONARYWDFLT
  2
AcDbDictionaryWithDefault
  3
ObjectDBX Classes
 90
        0
280
     0
281
     0
  0
CLASS
  1
ACDBPLACEHOLDER
  2
AcDbPlaceHolder
  3
ObjectDBX Classes
 90
        0
280
     0
281
     0
  0
CLASS
  1
LAYOUT
  2
AcDbLayout
  3
ObjectDBX Classes
 90
        0
280
     0
281
     0
  0
ENDSEC
  0
SECTION
  2
TABLES
  0
TABLE
  2
VPORT
  5
8
330
0
100
AcDbSymbolTable
 70
     1
  0
VPORT
  5
29
330
8
100
AcDbSymbolTableRecord
100
AcDbViewportTableRecord
  2
*Active
 70
     0
 10
0.0
 20
0.0
 11
1.0
 21
1.0
 12
105.0
 22
148.5
 13
0.0
 23
0.0
 14
10.0
 24
10.0
 15
10.0
 25
10.0
 16
0.0
 26
0.0
 36
1.0
 17
0.0
 27
0.0
 37
0.0
 40
297.0
 41
1.9729729729
 42
50.0
 43
0.0
 44
0.0
 50
0.0
 51
0.0
 71
     0
 72
  2000
 73
     1
 74
     3
 75
     0
 76
     0
 77
     0
 78
     0
281
     0
 65
     1
110
0.0
120
0.0
130
0.0
111
1.0
121
0.0
131
0.0
112
0.0
122
1.0
132
0.0
 79
     0
146
0.0
  0
ENDTAB
  0
TABLE
  2
LTYPE
  5
5
330
0
100
AcDbSymbolTable
 70
     6
  0
LTYPE
  5
14
330
5
100
AcDbSymbolTableRecord
100
AcDbLinetypeTableRecord
  2
ByBlock
 70
     0
  3

 72
    65
 73
     0
 40
0.0
  0
LTYPE
  5
15
330
5
100
AcDbSymbolTableRecord
100
AcDbLinetypeTableRecord
  2
ByLayer
 70
     0
  3

 72
    65
 73
     0
 40
0.0
  0
LTYPE
  5
16
330
5
100
AcDbSymbolTableRecord
100
AcDbLinetypeTableRecord
  2
Continuous
 70
     0
  3
Solid line
 72
    65
 73
     0
 40
0.0
  0
LTYPE
  5
2A
330
5
100
AcDbSymbolTableRecord
100
AcDbLinetypeTableRecord
  2
HIDDEN
 70
     0
  3
Hidden __ __ __ __ __ __ __ __ __ __ __ __ __ __
 72
    65
 73
     2
 40
1.905
 49
1.27
 74
     0
 49
-0.635
 74
     0
  0
LTYPE
  5
2B
330
5
100
AcDbSymbolTableRecord
100
AcDbLinetypeTableRecord
  2
PHANTOM
 70
     0
  3
Phantom ______  __  __  ______  __  __  ______
 72
    65
 73
     6
 40
12.7
 49
6.35
 74
     0
 49
-1.27
 74
     0
 49
1.27
 74
     0
 49
-1.27
 74
     0
 49
1.27
 74
     0
 49
-1.27
 74
     0
  0
LTYPE
  5
2C
330
5
100
AcDbSymbolTableRecord
100
AcDbLinetypeTableRecord
  2
CENTER
 70
     0
  3
Center ____ _ ____ _ ____ _ ____ _ ____ _ ____
 72
    65
 73
     4
 40
10.16
 49
6.35
 74
     0
 49
-1.27
 74
     0
 49
1.27
 74
     0
 49
-1.27
 74
     0
  0
LTYPE
  5
2D
330
5
100
AcDbSymbolTableRecord
100
AcDbLinetypeTableRecord
  2
CENTERX2
 70
     0
  3
Center (2x) ________  __  ________  __  _____
 72
    65
 73
     4
 40
20.32
 49
12.7
 74
     0
 49
-2.54
 74
     0
 49
2.54
 74
     0
 49
-2.54
 74
     0
  0
LTYPE
  5
2E
330
5
100
AcDbSymbolTableRecord
100
AcDbLinetypeTableRecord
  2
DOT2
 70
     0
  3
Dot (.5x) ........................................
 72
    65
 73
     2
 40
0.635
 49
0.0
 74
     0
 49
-0.635
 74
     0
  0
ENDTAB
  0
TABLE
  2
LAYER
  5
2
330
0
100
AcDbSymbolTable
 70
     4
  0
LAYER
  5
10
330
2
100
AcDbSymbolTableRecord
100
AcDbLayerTableRecord
  2
0
 70
     0
 62
     7
  6
Continuous
370
    -3
390
F
  0
LAYER
  5
2F
330
2
100
AcDbSymbolTableRecord
100
AcDbLayerTableRecord
  2
SLD-0
 70
     0
 62
   179
  6
Continuous
370
     0
390
F
  0
LAYER
  5
30
330
2
100
AcDbSymbolTableRecord
100
AcDbLayerTableRecord
  2
SLD-DEFPOINTS
 70
     0
 62
   179
  6
Continuous
370
     0
390
F
  0
LAYER
  5
1F6
330
2
100
AcDbSymbolTableRecord
100
AcDbLayerTableRecord
  2
Defpoints
 70
     0
 62
     7
  6
Continuous
290
     0
370
    -3
390
F
  0
ENDTAB
  0
TABLE
  2
STYLE
  5
3
330
0
100
AcDbSymbolTable
 70
     3
  0
STYLE
  5
11
330
3
100
AcDbSymbolTableRecord
100
AcDbTextStyleTableRecord
  2
Standard
 70
     0
 40
0.0
 41
1.0
 50
0.0
 71
     0
 42
2.5
  3
txt
  4
bigfont
  0
STYLE
  5
34
330
3
100
AcDbSymbolTableRecord
100
AcDbTextStyleTableRecord
  2
SLDTEXTSTYLE0
 70
     0
 40
0.0
 41
0.7
 50
0.0
 71
     0
 42
0.2
  3
TXT
  4
bigfont
  0
STYLE
  5
203
330
3
100
AcDbSymbolTableRecord
100
AcDbTextStyleTableRecord
  2
SLDTEXTSTYLE1
 70
     0
 40
0.0
 41
0.5526315789
 50
0.0
 71
     0
 42
0.2
  3
TXT
  4
bigfont
  0
ENDTAB
  0
TABLE
  2
VIEW
  5
6
330
0
100
AcDbSymbolTable
 70
     0
  0
ENDTAB
  0
TABLE
  2
UCS
  5
7
330
0
100
AcDbSymbolTable
 70
     0
  0
ENDTAB
  0
TABLE
  2
APPID
  5
9
330
0
100
AcDbSymbolTable
 70
     1
  0
APPID
  5
12
330
9
100
AcDbSymbolTableRecord
100
AcDbRegAppTableRecord
  2
ACAD
 70
     0
  0
ENDTAB
  0
TABLE
  2
DIMSTYLE
  5
A
330
0
100
AcDbSymbolTable
 70
     3
100
AcDbDimStyleTable
  0
DIMSTYLE
105
27
330
A
100
AcDbSymbolTableRecord
100
AcDbDimStyleTableRecord
  2
ISO-25
 70
     0
 41
2.5
 42
0.625
 43
3.75
 44
1.25
 73
     0
 74
     0
 77
     1
 78
     8
140
2.5
141
2.5
143
0.0393700787
147
0.625
171
     3
172
     1
271
     2
272
     2
274
     3
278
    44
283
     0
284
     8
340
11
  0
DIMSTYLE
105
204
102
{ACAD_REACTORS
330
1F5
330
212
330
27B
102
}
330
A
100
AcDbSymbolTableRecord
100
AcDbDimStyleTableRecord
  2
SLDDIMSTYLE0
 70
     0
 41
3.0
 44
0.0
 73
     0
 74
     0
 77
     3
 78
    12
140
3.5
147
0.875
173
     1
271
     0
272
     3
284
    12
340
203
341
205
343
205
344
205
  0
DIMSTYLE
105
237
102
{ACAD_REACTORS
330
229
330
244
330
25F
102
}
330
A
100
AcDbSymbolTableRecord
100
AcDbDimStyleTableRecord
  2
SLDDIMSTYLE1
 70
     0
 41
3.0
 44
0.0
 73
     0
 74
     0
 77
     3
 78
    12
140
3.5
147
0.875
173
     1
271
     1
272
     3
284
    12
340
203
341
205
343
205
344
205
  0
ENDTAB
  0
TABLE
  2
BLOCK_RECORD
  5
1
330
0
100
AcDbSymbolTable
 70
    12
  0
BLOCK_RECORD
  5
1F
330
1
100
AcDbSymbolTableRecord
100
AcDbBlockTableRecord
  2
*Model_Space
340
22
  0
BLOCK_RECORD
  5
1B
330
1
100
AcDbSymbolTableRecord
100
AcDbBlockTableRecord
  2
*Paper_Space
340
1E
  0
BLOCK_RECORD
  5
23
330
1
100
AcDbSymbolTableRecord
100
AcDbBlockTableRecord
  2
*Paper_Space0
340
26
  0
BLOCK_RECORD
  5
31
330
1
100
AcDbSymbolTableRecord
100
AcDbBlockTableRecord
  2
注記
340
0
102
{BLKREFS
331
295
102
}
  0
BLOCK_RECORD
  5
37
330
1
100
AcDbSymbolTableRecord
100
AcDbBlockTableRecord
  2
SW_CENTERMARK0
340
0
102
{BLKREFS
331
296
102
}
  0
BLOCK_RECORD
  5
42
330
1
100
AcDbSymbolTableRecord
100
AcDbBlockTableRecord
  2
SW_CENTERMARK1
340
0
102
{BLKREFS
331
297
102
}
  0
BLOCK_RECORD
  5
4D
330
1
100
AcDbSymbolTableRecord
100
AcDbBlockTableRecord
  2
SW_CENTERMARK2
340
0
102
{BLKREFS
331
298
102
}
  0
BLOCK_RECORD
  5
1F7
330
1
100
AcDbSymbolTableRecord
100
AcDbBlockTableRecord
  2
*D5
340
0
  0
BLOCK_RECORD
  5
205
330
1
100
AcDbSymbolTableRecord
100
AcDbBlockTableRecord
  2
_None
340
0
102
{BLKREFS
331
1FC
331
1FB
331
218
331
217
331
22F
331
22E
331
24B
331
24A
331
266
331
265
331
281
331
280
102
}
  0
BLOCK_RECORD
  5
213
330
1
100
AcDbSymbolTableRecord
100
AcDbBlockTableRecord
  2
*D7
340
0
  0
BLOCK_RECORD
  5
22A
330
1
100
AcDbSymbolTableRecord
100
AcDbBlockTableRecord
  2
*D8
340
0
  0
BLOCK_RECORD
  5
245
330
1
100
AcDbSymbolTableRecord
100
AcDbBlockTableRecord
  2
*D9
340
0
  0
BLOCK_RECORD
  5
260
330
1
100
AcDbSymbolTableRecord
100
AcDbBlockTableRecord
  2
*D10
340
0
  0
BLOCK_RECORD
  5
27C
330
1
100
AcDbSymbolTableRecord
100
AcDbBlockTableRecord
  2
*D11
340
0
  0
ENDTAB
  0
ENDSEC
  0
SECTION
  2
BLOCKS
  0
BLOCK
  5
20
330
1F
100
AcDbEntity
  8
0
100
AcDbBlockBegin
  2
*Model_Space
 70
     0
 71
     0
 10
0.0
 20
0.0
 30
0.0
  3
*Model_Space
  1

  0
ENDBLK
  5
21
330
1F
100
AcDbEntity
  8
0
100
AcDbBlockEnd
  0
BLOCK
  5
1C
330
1B
100
AcDbEntity
 67
     1
  8
0
100
AcDbBlockBegin
  2
*Paper_Space
 70
     0
 71
     0
 10
0.0
 20
0.0
 30
0.0
  3
*Paper_Space
  1

  0
ENDBLK
  5
1D
330
1B
100
AcDbEntity
 67
     1
  8
0
100
AcDbBlockEnd
  0
BLOCK
  5
24
330
23
100
AcDbEntity
  8
0
100
AcDbBlockBegin
  2
*Paper_Space0
 70
     0
 71
     0
 10
0.0
 20
0.0
 30
0.0
  3
*Paper_Space0
  1

  0
ENDBLK
  5
25
330
23
100
AcDbEntity
  8
0
100
AcDbBlockEnd
  0
BLOCK
  5
32
330
31
100
AcDbEntity
  8
0
100
AcDbBlockBegin
  2
注記
 70
     0
 71
     0
 10
0.0
 20
0.0
 30
0.0
  3
注記
  1

  0
MTEXT
  5
35
330
31
100
AcDbEntity
  8
0
  6
Continuous
 62
     7
370
     0
100
AcDbMText
 10
0.2636785918
 20
9.0739778448
 30
0.0
 40
3.5
 41
0.0
 71
     1
 72
     1
  1
１．特記ナキ角部ハ、バリ　カエリノ無キコト。
  7
SLDTEXTSTYLE0
 73
     1
 44
1.0
  0
MTEXT
  5
36
330
31
100
AcDbEntity
  8
0
  6
Continuous
 62
     7
370
     0
100
AcDbMText
 10
0.2636785918
 20
3.5759549983
 30
0.0
 40
3.5
 41
0.0
 71
     1
 72
     1
  1
２．特記ナキ隅部ハ、Ｒ０．４ＭＡＸトスル。
  7
SLDTEXTSTYLE0
 73
     1
 44
1.0
  0
ENDBLK
  5
33
330
31
100
AcDbEntity
  8
0
100
AcDbBlockEnd
  0
BLOCK
  5
38
330
37
100
AcDbEntity
  8
0
100
AcDbBlockBegin
  2
SW_CENTERMARK0
 70
     0
 71
     0
 10
0.0
 20
0.0
 30
0.0
  3
SW_CENTERMARK0
  1

  0
LINE
  5
3A
330
37
100
AcDbEntity
  8
SLD-0
  6
Continuous
 62
   179
100
AcDbLine
 10
87.6382287292
 20
169.9368855038
 30
0.0
 11
87.6382280587
 21
172.4368854138
 31
0.0
  0
LINE
  5
3B
330
37
100
AcDbEntity
  8
SLD-0
  6
Continuous
 62
   179
100
AcDbLine
 10
87.6382287292
 20
169.9368855038
 30
0.0
 11
85.1382280587
 21
169.9368854138
 31
0.0
  0
LINE
  5
3C
330
37
100
AcDbEntity
  8
SLD-0
  6
Continuous
 62
   179
100
AcDbLine
 10
87.6382287292
 20
169.9368855038
 30
0.0
 11
87.6382280587
 21
167.4368854138
 31
0.0
  0
LINE
  5
3D
330
37
100
AcDbEntity
  8
SLD-0
  6
Continuous
 62
   179
100
AcDbLine
 10
87.6382287292
 20
169.9368855038
 30
0.0
 11
90.1382280587
 21
169.9368854138
 31
0.0
  0
LINE
  5
3E
330
37
100
AcDbEntity
  8
SLD-0
  6
Continuous
 62
   179
100
AcDbLine
 10
87.6382280587
 20
172.4368854138
 30
0.0
 11
87.6382280587
 21
174.9368854138
 31
0.0
  0
LINE
  5
3F
330
37
100
AcDbEntity
  8
SLD-0
  6
Continuous
 62
   179
100
AcDbLine
 10
85.1382280587
 20
169.9368854138
 30
0.0
 11
82.6382280587
 21
169.9368854138
 31
0.0
  0
LINE
  5
40
330
37
100
AcDbEntity
  8
SLD-0
  6
Continuous
 62
   179
100
AcDbLine
 10
87.6382280587
 20
167.4368854138
 30
0.0
 11
87.6382280587
 21
164.9368854138
 31
0.0
  0
LINE
  5
41
330
37
100
AcDbEntity
  8
SLD-0
  6
Continuous
 62
   179
100
AcDbLine
 10
90.1382280587
 20
169.9368854138
 30
0.0
 11
92.6382280587
 21
169.9368854138
 31
0.0
  0
ENDBLK
  5
39
330
37
100
AcDbEntity
  8
0
100
AcDbBlockEnd
  0
BLOCK
  5
43
330
42
100
AcDbEntity
  8
0
100
AcDbBlockBegin
  2
SW_CENTERMARK1
 70
     0
 71
     0
 10
0.0
 20
0.0
 30
0.0
  3
SW_CENTERMARK1
  1

  0
LINE
  5
45
330
42
100
AcDbEntity
  8
SLD-0
  6
Continuous
 62
   179
100
AcDbLine
 10
117.6382280587
 20
169.9368852798
 30
0.0
 11
117.6382280587
 21
172.4368854138
 31
0.0
  0
LINE
  5
46
330
42
100
AcDbEntity
  8
SLD-0
  6
Continuous
 62
   179
100
AcDbLine
 10
117.6382280587
 20
169.9368852798
 30
0.0
 11
115.1382280587
 21
169.9368854138
 31
0.0
  0
LINE
  5
47
330
42
100
AcDbEntity
  8
SLD-0
  6
Continuous
 62
   179
100
AcDbLine
 10
117.6382280587
 20
169.9368852798
 30
0.0
 11
117.6382280587
 21
167.4368854138
 31
0.0
  0
LINE
  5
48
330
42
100
AcDbEntity
  8
SLD-0
  6
Continuous
 62
   179
100
AcDbLine
 10
117.6382280587
 20
169.9368852798
 30
0.0
 11
120.1382280587
 21
169.9368854138
 31
0.0
  0
LINE
  5
49
330
42
100
AcDbEntity
  8
SLD-0
  6
Continuous
 62
   179
100
AcDbLine
 10
117.6382280587
 20
172.4368854138
 30
0.0
 11
117.6382280587
 21
174.9368854138
 31
0.0
  0
LINE
  5
4A
330
42
100
AcDbEntity
  8
SLD-0
  6
Continuous
 62
   179
100
AcDbLine
 10
115.1382280587
 20
169.9368854138
 30
0.0
 11
112.6382280587
 21
169.9368854138
 31
0.0
  0
LINE
  5
4B
330
42
100
AcDbEntity
  8
SLD-0
  6
Continuous
 62
   179
100
AcDbLine
 10
117.6382280587
 20
167.4368854138
 30
0.0
 11
117.6382280587
 21
164.9368854138
 31
0.0
  0
LINE
  5
4C
330
42
100
AcDbEntity
  8
SLD-0
  6
Continuous
 62
   179
100
AcDbLine
 10
120.1382280587
 20
169.9368854138
 30
0.0
 11
122.6382280587
 21
169.9368854138
 31
0.0
  0
ENDBLK
  5
44
330
42
100
AcDbEntity
  8
0
100
AcDbBlockEnd
  0
BLOCK
  5
4E
330
4D
100
AcDbEntity
  8
0
100
AcDbBlockBegin
  2
SW_CENTERMARK2
 70
     0
 71
     0
 10
0.0
 20
0.0
 30
0.0
  3
SW_CENTERMARK2
  1

  0
LINE
  5
50
330
4D
100
AcDbEntity
  8
SLD-0
  6
Continuous
 62
   179
100
AcDbLine
 10
147.6382273881
 20
169.9368864629
 30
0.0
 11
147.6382280587
 21
172.4368854138
 31
0.0
  0
LINE
  5
51
330
4D
100
AcDbEntity
  8
SLD-0
  6
Continuous
 62
   179
100
AcDbLine
 10
147.6382273881
 20
169.9368864629
 30
0.0
 11
145.1382280587
 21
169.9368854138
 31
0.0
  0
LINE
  5
52
330
4D
100
AcDbEntity
  8
SLD-0
  6
Continuous
 62
   179
100
AcDbLine
 10
147.6382273881
 20
169.9368864629
 30
0.0
 11
147.6382280587
 21
167.4368854138
 31
0.0
  0
LINE
  5
53
330
4D
100
AcDbEntity
  8
SLD-0
  6
Continuous
 62
   179
100
AcDbLine
 10
147.6382273881
 20
169.9368864629
 30
0.0
 11
150.1382280587
 21
169.9368854138
 31
0.0
  0
LINE
  5
54
330
4D
100
AcDbEntity
  8
SLD-0
  6
Continuous
 62
   179
100
AcDbLine
 10
147.6382280587
 20
172.4368854138
 30
0.0
 11
147.6382280587
 21
174.9368854138
 31
0.0
  0
LINE
  5
55
330
4D
100
AcDbEntity
  8
SLD-0
  6
Continuous
 62
   179
100
AcDbLine
 10
145.1382280587
 20
169.9368854138
 30
0.0
 11
142.6382280587
 21
169.9368854138
 31
0.0
  0
LINE
  5
56
330
4D
100
AcDbEntity
  8
SLD-0
  6
Continuous
 62
   179
100
AcDbLine
 10
147.6382280587
 20
167.4368854138
 30
0.0
 11
147.6382280587
 21
164.9368854138
 31
0.0
  0
LINE
  5
57
330
4D
100
AcDbEntity
  8
SLD-0
  6
Continuous
 62
   179
100
AcDbLine
 10
150.1382280587
 20
169.9368854138
 30
0.0
 11
152.6382280587
 21
169.9368854138
 31
0.0
  0
ENDBLK
  5
4F
330
4D
100
AcDbEntity
  8
0
100
AcDbBlockEnd
  0
BLOCK
  5
201
330
1F7
100
AcDbEntity
  8
0
100
AcDbBlockBegin
  2
*D5
 70
     1
 71
     0
 10
0.0
 20
0.0
 30
0.0
  3
*D5
  1

  0
LINE
  5
208
330
1F7
100
AcDbEntity
  8
SLD-0
 62
     7
100
AcDbLine
 10
117.6382280587
 20
175.9368854138
 30
0.0
 11
117.6382280587
 21
186.1789543594
 31
0.0
  0
LINE
  5
209
330
1F7
100
AcDbEntity
  8
SLD-0
 62
     7
100
AcDbLine
 10
87.6382280587
 20
175.9368854138
 30
0.0
 11
87.6382280587
 21
186.1789543594
 31
0.0
  0
LINE
  5
20A
330
1F7
100
AcDbEntity
  8
SLD-0
 62
     7
100
AcDbLine
 10
117.6382280587
 20
185.1789543594
 30
0.0
 11
87.6382280587
 21
185.1789543594
 31
0.0
  0
LINE
  5
20B
330
1F7
100
AcDbEntity
  8
SLD-0
 62
     7
100
AcDbLine
 10
114.6382280587
 20
185.9828013594
 30
0.0
 11
117.6382280587
 21
185.1789543594
 31
0.0
  0
LINE
  5
20C
330
1F7
100
AcDbEntity
  8
SLD-0
 62
     7
100
AcDbLine
 10
117.6382280587
 20
185.1789543594
 30
0.0
 11
114.6382280587
 21
184.3751073594
 31
0.0
  0
LINE
  5
20D
330
1F7
100
AcDbEntity
  8
SLD-0
 62
     7
100
AcDbLine
 10
117.6382280587
 20
185.1789543594
 30
0.0
 11
114.6382280587
 21
185.1789543594
 31
0.0
  0
LINE
  5
20E
330
1F7
100
AcDbEntity
  8
SLD-0
 62
     7
100
AcDbLine
 10
90.6382280587
 20
184.3751073594
 30
0.0
 11
87.6382280587
 21
185.1789543594
 31
0.0
  0
LINE
  5
20F
330
1F7
100
AcDbEntity
  8
SLD-0
 62
     7
100
AcDbLine
 10
87.6382280587
 20
185.1789543594
 30
0.0
 11
90.6382280587
 21
185.9828013594
 31
0.0
  0
LINE
  5
210
330
1F7
100
AcDbEntity
  8
SLD-0
 62
     7
100
AcDbLine
 10
87.6382280587
 20
185.1789543594
 30
0.0
 11
90.6382280587
 21
185.1789543594
 31
0.0
  0
MTEXT
  5
211
330
1F7
100
AcDbEntity
  8
SLD-0
 62
     7
100
AcDbMText
 10
100.6020255005
 20
189.7056480553
 30
0.1
 40
3.5
 41
0.0
 71
     1
 72
     1
  1
30
  7
SLDTEXTSTYLE0
 73
     1
 44
1.0
  0
ENDBLK
  5
202
330
1F7
100
AcDbEntity
  8
0
100
AcDbBlockEnd
  0
BLOCK
  5
206
330
205
100
AcDbEntity
  8
0
100
AcDbBlockBegin
  2
_None
 70
     0
 71
     0
 10
0.0
 20
0.0
 30
0.0
  3
_None
  1

  0
ENDBLK
  5
207
330
205
100
AcDbEntity
  8
0
100
AcDbBlockEnd
  0
BLOCK
  5
21D
330
213
100
AcDbEntity
  8
0
100
AcDbBlockBegin
  2
*D7
 70
     1
 71
     0
 10
0.0
 20
0.0
 30
0.0
  3
*D7
  1

  0
LINE
  5
21F
330
213
100
AcDbEntity
  8
SLD-0
 62
     7
100
AcDbLine
 10
80.1382280587
 20
176.2368854138
 30
0.0
 11
80.1382280587
 21
194.9823803896
 31
0.0
  0
LINE
  5
220
330
213
100
AcDbEntity
  8
SLD-0
 62
     7
100
AcDbLine
 10
155.1382280587
 20
176.2368854138
 30
0.0
 11
155.1382280587
 21
194.9823803896
 31
0.0
  0
LINE
  5
221
330
213
100
AcDbEntity
  8
SLD-0
 62
     7
100
AcDbLine
 10
80.1382280587
 20
193.9823803896
 30
0.0
 11
155.1382280587
 21
193.9823803896
 31
0.0
  0
LINE
  5
222
330
213
100
AcDbEntity
  8
SLD-0
 62
     7
100
AcDbLine
 10
83.1382280587
 20
193.1785333896
 30
0.0
 11
80.1382280587
 21
193.9823803896
 31
0.0
  0
LINE
  5
223
330
213
100
AcDbEntity
  8
SLD-0
 62
     7
100
AcDbLine
 10
80.1382280587
 20
193.9823803896
 30
0.0
 11
83.1382280587
 21
194.7862273896
 31
0.0
  0
LINE
  5
224
330
213
100
AcDbEntity
  8
SLD-0
 62
     7
100
AcDbLine
 10
80.1382280587
 20
193.9823803896
 30
0.0
 11
83.1382280587
 21
193.9823803896
 31
0.0
  0
LINE
  5
225
330
213
100
AcDbEntity
  8
SLD-0
 62
     7
100
AcDbLine
 10
152.1382280587
 20
194.7862273896
 30
0.0
 11
155.1382280587
 21
193.9823803896
 31
0.0
  0
LINE
  5
226
330
213
100
AcDbEntity
  8
SLD-0
 62
     7
100
AcDbLine
 10
155.1382280587
 20
193.9823803896
 30
0.0
 11
152.1382280587
 21
193.1785333896
 31
0.0
  0
LINE
  5
227
330
213
100
AcDbEntity
  8
SLD-0
 62
     7
100
AcDbLine
 10
155.1382280587
 20
193.9823803896
 30
0.0
 11
152.1382280587
 21
193.9823803896
 31
0.0
  0
MTEXT
  5
228
330
213
100
AcDbEntity
  8
SLD-0
 62
     7
100
AcDbMText
 10
115.6020255005
 20
198.5090740856
 30
0.1
 40
3.5
 41
0.0
 71
     1
 72
     1
  1
75
  7
SLDTEXTSTYLE0
 73
     1
 44
1.0
  0
ENDBLK
  5
21E
330
213
100
AcDbEntity
  8
0
100
AcDbBlockEnd
  0
BLOCK
  5
235
330
22A
100
AcDbEntity
  8
0
100
AcDbBlockBegin
  2
*D8
 70
     1
 71
     0
 10
0.0
 20
0.0
 30
0.0
  3
*D8
  1

  0
LINE
  5
238
330
22A
100
AcDbEntity
  8
SLD-0
 62
     7
100
AcDbLine
 10
156.1382280587
 20
175.2368854138
 30
0.0
 11
178.4732582353
 21
175.2368854138
 31
0.0
  0
LINE
  5
239
330
22A
100
AcDbEntity
  8
SLD-0
 62
     7
100
AcDbLine
 10
156.1382280587
 20
164.6368854138
 30
0.0
 11
178.4732582353
 21
164.6368854138
 31
0.0
  0
LINE
  5
23A
330
22A
100
AcDbEntity
  8
SLD-0
 62
     7
100
AcDbLine
 10
177.4732582353
 20
175.2368854138
 30
0.0
 11
177.4732582353
 21
180.2368854138
 31
0.0
  0
LINE
  5
23B
330
22A
100
AcDbEntity
  8
SLD-0
 62
     7
100
AcDbLine
 10
177.4732582353
 20
175.2368854138
 30
0.0
 11
177.4732582353
 21
164.6368854138
 31
0.0
  0
LINE
  5
23C
330
22A
100
AcDbEntity
  8
SLD-0
 62
     7
100
AcDbLine
 10
177.4732582353
 20
164.6368854138
 30
0.0
 11
177.4732582353
 21
159.6368854138
 31
0.0
  0
LINE
  5
23D
330
22A
100
AcDbEntity
  8
SLD-0
 62
     7
100
AcDbLine
 10
178.2771052353
 20
178.2368854138
 30
0.0
 11
177.4732582353
 21
175.2368854138
 31
0.0
  0
LINE
  5
23E
330
22A
100
AcDbEntity
  8
SLD-0
 62
     7
100
AcDbLine
 10
177.4732582353
 20
175.2368854138
 30
0.0
 11
176.6694112353
 21
178.2368854138
 31
0.0
  0
LINE
  5
23F
330
22A
100
AcDbEntity
  8
SLD-0
 62
     7
100
AcDbLine
 10
177.4732582353
 20
175.2368854138
 30
0.0
 11
177.4732582353
 21
178.2368854138
 31
0.0
  0
LINE
  5
240
330
22A
100
AcDbEntity
  8
SLD-0
 62
     7
100
AcDbLine
 10
176.6694112353
 20
161.6368854138
 30
0.0
 11
177.4732582353
 21
164.6368854138
 31
0.0
  0
LINE
  5
241
330
22A
100
AcDbEntity
  8
SLD-0
 62
     7
100
AcDbLine
 10
177.4732582353
 20
164.6368854138
 30
0.0
 11
178.2771052353
 21
161.6368854138
 31
0.0
  0
LINE
  5
242
330
22A
100
AcDbEntity
  8
SLD-0
 62
     7
100
AcDbLine
 10
177.4732582353
 20
164.6368854138
 30
0.0
 11
177.4732582353
 21
161.6368854138
 31
0.0
  0
MTEXT
  5
243
330
22A
100
AcDbEntity
  8
SLD-0
 62
     7
100
AcDbMText
 10
172.9465645393
 20
165.8644802975
 30
0.1
 40
3.5
 41
0.0
 71
     1
 72
     1
  1
10.6
  7
SLDTEXTSTYLE0
 11
6.123031769111886E-17
 21
1.0
 31
0.0
 73
     1
 44
1.0
  0
ENDBLK
  5
236
330
22A
100
AcDbEntity
  8
0
100
AcDbBlockEnd
  0
BLOCK
  5
251
330
245
100
AcDbEntity
  8
0
100
AcDbBlockBegin
  2
*D9
 70
     1
 71
     0
 10
0.0
 20
0.0
 30
0.0
  3
*D9
  1

  0
LINE
  5
253
330
245
100
AcDbEntity
  8
SLD-0
 62
     7
100
AcDbLine
 10
156.1382280587
 20
164.6368854138
 30
0.0
 11
167.2024064353
 21
164.6368854138
 31
0.0
  0
LINE
  5
254
330
245
100
AcDbEntity
  8
SLD-0
 62
     7
100
AcDbLine
 10
123.6382280587
 20
169.9368854138
 30
0.0
 11
167.2024064353
 21
169.9368854138
 31
0.0
  0
LINE
  5
255
330
245
100
AcDbEntity
  8
SLD-0
 62
     7
100
AcDbLine
 10
166.2024064353
 20
164.6368854138
 30
0.0
 11
166.2024064353
 21
153.0085830723
 31
0.0
  0
LINE
  5
256
330
245
100
AcDbEntity
  8
SLD-0
 62
     7
100
AcDbLine
 10
166.2024064353
 20
164.6368854138
 30
0.0
 11
166.2024064353
 21
169.9368854138
 31
0.0
  0
LINE
  5
257
330
245
100
AcDbEntity
  8
SLD-0
 62
     7
100
AcDbLine
 10
166.2024064353
 20
169.9368854138
 30
0.0
 11
166.2024064353
 21
174.9368854138
 31
0.0
  0
LINE
  5
258
330
245
100
AcDbEntity
  8
SLD-0
 62
     7
100
AcDbLine
 10
165.3985594353
 20
161.6368854138
 30
0.0
 11
166.2024064353
 21
164.6368854138
 31
0.0
  0
LINE
  5
259
330
245
100
AcDbEntity
  8
SLD-0
 62
     7
100
AcDbLine
 10
166.2024064353
 20
164.6368854138
 30
0.0
 11
167.0062534353
 21
161.6368854138
 31
0.0
  0
LINE
  5
25A
330
245
100
AcDbEntity
  8
SLD-0
 62
     7
100
AcDbLine
 10
166.2024064353
 20
164.6368854138
 30
0.0
 11
166.2024064353
 21
161.6368854138
 31
0.0
  0
LINE
  5
25B
330
245
100
AcDbEntity
  8
SLD-0
 62
     7
100
AcDbLine
 10
167.0062534353
 20
172.9368854138
 30
0.0
 11
166.2024064353
 21
169.9368854138
 31
0.0
  0
LINE
  5
25C
330
245
100
AcDbEntity
  8
SLD-0
 62
     7
100
AcDbLine
 10
166.2024064353
 20
169.9368854138
 30
0.0
 11
165.3985594353
 21
172.9368854138
 31
0.0
  0
LINE
  5
25D
330
245
100
AcDbEntity
  8
SLD-0
 62
     7
100
AcDbLine
 10
166.2024064353
 20
169.9368854138
 30
0.0
 11
166.2024064353
 21
172.9368854138
 31
0.0
  0
MTEXT
  5
25E
330
245
100
AcDbEntity
  8
SLD-0
 62
     7
100
AcDbMText
 10
161.6757127393
 20
154.5960830723
 30
0.1
 40
3.5
 41
0.0
 71
     1
 72
     1
  1
5.3
  7
SLDTEXTSTYLE0
 11
6.123031769111886E-17
 21
1.0
 31
0.0
 73
     1
 44
1.0
  0
ENDBLK
  5
252
330
245
100
AcDbEntity
  8
0
100
AcDbBlockEnd
  0
BLOCK
  5
26D
330
260
100
AcDbEntity
  8
0
100
AcDbBlockBegin
  2
*D10
 70
     1
 71
     0
 10
0.0
 20
0.0
 30
0.0
  3
*D10
  1

  0
LINE
  5
26F
330
260
100
AcDbEntity
  8
SLD-0
 62
     7
100
AcDbLine
 10
155.1382280587
 20
176.2368854138
 30
0.0
 11
155.1382280587
 21
186.1789543594
 31
0.0
  0
LINE
  5
270
330
260
100
AcDbEntity
  8
SLD-0
 62
     7
100
AcDbLine
 10
147.6382280587
 20
175.9368854138
 30
0.0
 11
147.6382280587
 21
186.1789543594
 31
0.0
  0
LINE
  5
271
330
260
100
AcDbEntity
  8
SLD-0
 62
     7
100
AcDbLine
 10
155.1382280587
 20
185.1789543594
 30
0.0
 11
167.6257853824
 21
185.1789543594
 31
0.0
  0
LINE
  5
272
330
260
100
AcDbEntity
  8
SLD-0
 62
     7
100
AcDbLine
 10
155.1382280587
 20
185.1789543594
 30
0.0
 11
147.6382280587
 21
185.1789543594
 31
0.0
  0
LINE
  5
273
330
260
100
AcDbEntity
  8
SLD-0
 62
     7
100
AcDbLine
 10
147.6382280587
 20
185.1789543594
 30
0.0
 11
142.6382280587
 21
185.1789543594
 31
0.0
  0
LINE
  5
274
330
260
100
AcDbEntity
  8
SLD-0
 62
     7
100
AcDbLine
 10
158.1382280587
 20
184.3751073594
 30
0.0
 11
155.1382280587
 21
185.1789543594
 31
0.0
  0
LINE
  5
275
330
260
100
AcDbEntity
  8
SLD-0
 62
     7
100
AcDbLine
 10
155.1382280587
 20
185.1789543594
 30
0.0
 11
158.1382280587
 21
185.9828013594
 31
0.0
  0
LINE
  5
276
330
260
100
AcDbEntity
  8
SLD-0
 62
     7
100
AcDbLine
 10
155.1382280587
 20
185.1789543594
 30
0.0
 11
158.1382280587
 21
185.1789543594
 31
0.0
  0
LINE
  5
277
330
260
100
AcDbEntity
  8
SLD-0
 62
     7
100
AcDbLine
 10
144.6382280587
 20
185.9828013594
 30
0.0
 11
147.6382280587
 21
185.1789543594
 31
0.0
  0
LINE
  5
278
330
260
100
AcDbEntity
  8
SLD-0
 62
     7
100
AcDbLine
 10
147.6382280587
 20
185.1789543594
 30
0.0
 11
144.6382280587
 21
184.3751073594
 31
0.0
  0
LINE
  5
279
330
260
100
AcDbEntity
  8
SLD-0
 62
     7
100
AcDbLine
 10
147.6382280587
 20
185.1789543594
 30
0.0
 11
144.6382280587
 21
185.1789543594
 31
0.0
  0
MTEXT
  5
27A
330
260
100
AcDbEntity
  8
SLD-0
 62
     7
100
AcDbMText
 10
159.929677708
 20
189.7056480553
 30
0.1
 40
3.5
 41
0.0
 71
     1
 72
     1
  1
7.5
  7
SLDTEXTSTYLE0
 73
     1
 44
1.0
  0
ENDBLK
  5
26E
330
260
100
AcDbEntity
  8
0
100
AcDbBlockEnd
  0
BLOCK
  5
286
330
27C
100
AcDbEntity
  8
0
100
AcDbBlockBegin
  2
*D11
 70
     1
 71
     0
 10
0.0
 20
0.0
 30
0.0
  3
*D11
  1

  0
LINE
  5
288
330
27C
100
AcDbEntity
  8
SLD-0
 62
     7
100
AcDbLine
 10
147.6382280587
 20
175.9368854138
 30
0.0
 11
147.6382280587
 21
186.1789543594
 31
0.0
  0
LINE
  5
289
330
27C
100
AcDbEntity
  8
SLD-0
 62
     7
100
AcDbLine
 10
117.6382280587
 20
175.9368854138
 30
0.0
 11
117.6382280587
 21
186.1789543594
 31
0.0
  0
LINE
  5
28A
330
27C
100
AcDbEntity
  8
SLD-0
 62
     7
100
AcDbLine
 10
147.6382280587
 20
185.1789543594
 30
0.0
 11
117.6382280587
 21
185.1789543594
 31
0.0
  0
LINE
  5
28B
330
27C
100
AcDbEntity
  8
SLD-0
 62
     7
100
AcDbLine
 10
144.6382280587
 20
185.9828013594
 30
0.0
 11
147.6382280587
 21
185.1789543594
 31
0.0
  0
LINE
  5
28C
330
27C
100
AcDbEntity
  8
SLD-0
 62
     7
100
AcDbLine
 10
147.6382280587
 20
185.1789543594
 30
0.0
 11
144.6382280587
 21
184.3751073594
 31
0.0
  0
LINE
  5
28D
330
27C
100
AcDbEntity
  8
SLD-0
 62
     7
100
AcDbLine
 10
147.6382280587
 20
185.1789543594
 30
0.0
 11
144.6382280587
 21
185.1789543594
 31
0.0
  0
LINE
  5
28E
330
27C
100
AcDbEntity
  8
SLD-0
 62
     7
100
AcDbLine
 10
120.6382280587
 20
184.3751073594
 30
0.0
 11
117.6382280587
 21
185.1789543594
 31
0.0
  0
LINE
  5
28F
330
27C
100
AcDbEntity
  8
SLD-0
 62
     7
100
AcDbLine
 10
117.6382280587
 20
185.1789543594
 30
0.0
 11
120.6382280587
 21
185.9828013594
 31
0.0
  0
LINE
  5
290
330
27C
100
AcDbEntity
  8
SLD-0
 62
     7
100
AcDbLine
 10
117.6382280587
 20
185.1789543594
 30
0.0
 11
120.6382280587
 21
185.1789543594
 31
0.0
  0
MTEXT
  5
291
330
27C
100
AcDbEntity
  8
SLD-0
 62
     7
100
AcDbMText
 10
130.6020255005
 20
189.7056480553
 30
0.1
 40
3.5
 41
0.0
 71
     1
 72
     1
  1
30
  7
SLDTEXTSTYLE0
 73
     1
 44
1.0
  0
ENDBLK
  5
287
330
27C
100
AcDbEntity
  8
0
100
AcDbBlockEnd
  0
ENDSEC
  0
SECTION
  2
ENTITIES
  0
LINE
  5
58
330
1F
100
AcDbEntity
  8
SLD-0
  6
Continuous
 62
   179
100
AcDbLine
 10
20.2604743903
 20
285.0
 30
0.0
 11
196.7604743903
 21
285.0
 31
0.0
  0
LINE
  5
59
330
1F
100
AcDbEntity
  8
SLD-0
  6
Continuous
 62
   179
100
AcDbLine
 10
20.2604743903
 20
285.0
 30
0.0
 11
20.2604743903
 21
10.0
 31
0.0
  0
LINE
  5
5A
330
1F
100
AcDbEntity
  8
SLD-0
  6
Continuous
 62
   179
100
AcDbLine
 10
20.2604743903
 20
10.0
 30
0.0
 11
196.7604743903
 21
10.0
 31
0.0
  0
LINE
  5
5B
330
1F
100
AcDbEntity
  8
SLD-0
  6
Continuous
 62
   179
100
AcDbLine
 10
196.7604743903
 20
285.0
 30
0.0
 11
196.7604743903
 21
10.0
 31
0.0
  0
LINE
  5
5C
330
1F
100
AcDbEntity
  8
SLD-0
  6
Continuous
 62
   179
100
AcDbLine
 10
127.0104743903
 20
50.75
 30
0.0
 11
196.7604743903
 21
50.75
 31
0.0
  0
LINE
  5
5D
330
1F
100
AcDbEntity
  8
SLD-0
  6
Continuous
 62
   179
100
AcDbLine
 10
127.0104743903
 20
50.75
 30
0.0
 11
127.0104743903
 21
10.0
 31
0.0
  0
LINE
  5
5E
330
1F
100
AcDbEntity
  8
SLD-0
  6
Continuous
 62
   179
100
AcDbLine
 10
127.0104743903
 20
22.75
 30
0.0
 11
196.7604743903
 21
22.75
 31
0.0
  0
LINE
  5
5F
330
1F
100
AcDbEntity
  8
SLD-0
  6
Continuous
 62
   179
100
AcDbLine
 10
127.0104743903
 20
36.75
 30
0.0
 11
196.7604743903
 21
36.75
 31
0.0
  0
LINE
  5
60
330
1F
100
AcDbEntity
  8
SLD-0
  6
Continuous
 62
   179
100
AcDbLine
 10
155.1382280587
 20
175.2368854138
 30
0.0
 11
80.1382280587
 21
175.2368854138
 31
0.0
  0
LINE
  5
61
330
1F
100
AcDbEntity
  8
SLD-0
  6
Continuous
 62
   179
100
AcDbLine
 10
80.1382280587
 20
164.6368854138
 30
0.0
 11
155.1382280587
 21
164.6368854138
 31
0.0
  0
LINE
  5
62
330
1F
100
AcDbEntity
  8
SLD-0
  6
Continuous
 62
   179
100
AcDbLine
 10
155.1382280587
 20
174.7368854138
 30
0.0
 11
155.1382280587
 21
172.7611494825
 31
0.0
  0
LINE
  5
63
330
1F
100
AcDbEntity
  8
SLD-0
  6
Continuous
 62
   179
100
AcDbLine
 10
80.1382280587
 20
174.7368854138
 30
0.0
 11
80.1382280587
 21
172.7611494825
 31
0.0
  0
LINE
  5
64
330
1F
100
AcDbEntity
  8
SLD-0
  6
Continuous
 62
   179
100
AcDbLine
 10
80.1382280587
 20
175.2368854138
 30
0.0
 11
80.1382280587
 21
174.7368854138
 31
0.0
  0
LINE
  5
65
330
1F
100
AcDbEntity
  8
SLD-0
  6
Continuous
 62
   179
100
AcDbLine
 10
155.1382280587
 20
175.2368854138
 30
0.0
 11
155.1382280587
 21
174.7368854138
 31
0.0
  0
LINE
  5
66
330
1F
100
AcDbEntity
  8
SLD-0
  6
Continuous
 62
   179
100
AcDbLine
 10
80.1382280587
 20
165.1368854138
 30
0.0
 11
80.1382280587
 21
164.6368854138
 31
0.0
  0
LINE
  5
67
330
1F
100
AcDbEntity
  8
SLD-0
  6
Continuous
 62
   179
100
AcDbLine
 10
155.1382280587
 20
165.1368854138
 30
0.0
 11
155.1382280587
 21
164.6368854138
 31
0.0
  0
LINE
  5
68
330
1F
100
AcDbEntity
  8
SLD-0
  6
Continuous
 62
   179
100
AcDbLine
 10
80.1382280587
 20
172.7611494825
 30
0.0
 11
80.1382280587
 21
172.5490174481
 31
0.0
  0
LINE
  5
69
330
1F
100
AcDbEntity
  8
SLD-0
  6
Continuous
 62
   179
100
AcDbLine
 10
155.1382280587
 20
172.7611494825
 30
0.0
 11
155.1382280587
 21
172.5490174481
 31
0.0
  0
LINE
  5
6A
330
1F
100
AcDbEntity
  8
SLD-0
  6
Continuous
 62
   179
100
AcDbLine
 10
80.1382280587
 20
167.3247533794
 30
0.0
 11
80.1382280587
 21
167.1126213451
 31
0.0
  0
LINE
  5
6B
330
1F
100
AcDbEntity
  8
SLD-0
  6
Continuous
 62
   179
100
AcDbLine
 10
155.1382280587
 20
167.3247533794
 30
0.0
 11
155.1382280587
 21
167.1126213451
 31
0.0
  0
LINE
  5
6C
330
1F
100
AcDbEntity
  8
SLD-0
  6
Continuous
 62
   179
100
AcDbLine
 10
80.1382280587
 20
167.1126213451
 30
0.0
 11
80.1382280587
 21
165.1368854138
 31
0.0
  0
LINE
  5
6D
330
1F
100
AcDbEntity
  8
SLD-0
  6
Continuous
 62
   179
100
AcDbLine
 10
155.1382280587
 20
167.1126213451
 30
0.0
 11
155.1382280587
 21
165.1368854138
 31
0.0
  0
LINE
  5
6E
330
1F
100
AcDbEntity
  8
SLD-0
  6
Continuous
 62
   179
100
AcDbLine
 10
80.1382280587
 20
172.5490174481
 30
0.0
 11
80.1382280587
 21
172.0247533794
 31
0.0
  0
LINE
  5
6F
330
1F
100
AcDbEntity
  8
SLD-0
  6
Continuous
 62
   179
100
AcDbLine
 10
155.1382280587
 20
172.5490174481
 30
0.0
 11
155.1382280587
 21
172.0247533794
 31
0.0
  0
LINE
  5
70
330
1F
100
AcDbEntity
  8
SLD-0
  6
Continuous
 62
   179
100
AcDbLine
 10
80.1382280587
 20
167.8490174481
 30
0.0
 11
80.1382280587
 21
167.3247533794
 31
0.0
  0
LINE
  5
71
330
1F
100
AcDbEntity
  8
SLD-0
  6
Continuous
 62
   179
100
AcDbLine
 10
155.1382280587
 20
167.8490174481
 30
0.0
 11
155.1382280587
 21
167.3247533794
 31
0.0
  0
LINE
  5
72
330
1F
100
AcDbEntity
  8
SLD-0
  6
Continuous
 62
   179
100
AcDbLine
 10
149.0132935045
 20
172.0247534654
 30
0.0
 11
149.1862401067
 21
171.8999606642
 31
0.0
  0
LINE
  5
73
330
1F
100
AcDbEntity
  8
SLD-0
  6
Continuous
 62
   179
100
AcDbLine
 10
149.1862401067
 20
171.8999606642
 30
0.0
 11
149.2909878193
 21
171.8126213495
 31
0.0
  0
LINE
  5
74
330
1F
100
AcDbEntity
  8
SLD-0
  6
Continuous
 62
   179
100
AcDbLine
 10
155.1382280587
 20
172.0247533794
 30
0.0
 11
155.1382280587
 21
171.8126213451
 31
0.0
  0
LINE
  5
75
330
1F
100
AcDbEntity
  8
SLD-0
  6
Continuous
 62
   179
100
AcDbLine
 10
115.985468326
 20
171.8126213495
 30
0.0
 11
116.1691767097
 21
171.9597271262
 31
0.0
  0
LINE
  5
76
330
1F
100
AcDbEntity
  8
SLD-0
  6
Continuous
 62
   179
100
AcDbLine
 10
116.1691767097
 20
171.9597271262
 30
0.0
 11
116.2631617094
 21
172.0247534654
 31
0.0
  0
LINE
  5
77
330
1F
100
AcDbEntity
  8
SLD-0
  6
Continuous
 62
   179
100
AcDbLine
 10
89.0132948456
 20
172.0247534654
 30
0.0
 11
89.1862377225
 21
171.8999606642
 31
0.0
  0
LINE
  5
78
330
1F
100
AcDbEntity
  8
SLD-0
  6
Continuous
 62
   179
100
AcDbLine
 10
89.1862377225
 20
171.8999606642
 30
0.0
 11
89.2909872977
 21
171.8126213495
 31
0.0
  0
LINE
  5
79
330
1F
100
AcDbEntity
  8
SLD-0
  6
Continuous
 62
   179
100
AcDbLine
 10
85.985468298
 20
171.8126213495
 30
0.0
 11
86.1691772638
 21
171.9597271262
 31
0.0
  0
LINE
  5
7A
330
1F
100
AcDbEntity
  8
SLD-0
  6
Continuous
 62
   179
100
AcDbLine
 10
86.1691772638
 20
171.9597271262
 30
0.0
 11
86.2631626128
 21
172.0247534654
 31
0.0
  0
LINE
  5
7B
330
1F
100
AcDbEntity
  8
SLD-0
  6
Continuous
 62
   179
100
AcDbLine
 10
80.1382280587
 20
172.0247533794
 30
0.0
 11
80.1382280587
 21
171.8126213451
 31
0.0
  0
LINE
  5
7C
330
1F
100
AcDbEntity
  8
SLD-0
  6
Continuous
 62
   179
100
AcDbLine
 10
119.013294408
 20
172.0247534654
 30
0.0
 11
119.1862383325
 21
171.8999606642
 31
0.0
  0
LINE
  5
7D
330
1F
100
AcDbEntity
  8
SLD-0
  6
Continuous
 62
   179
100
AcDbLine
 10
119.1862383325
 20
171.8999606642
 30
0.0
 11
119.2909877913
 21
171.8126213495
 31
0.0
  0
LINE
  5
7E
330
1F
100
AcDbEntity
  8
SLD-0
  6
Continuous
 62
   179
100
AcDbLine
 10
145.9854688196
 20
171.8126213495
 30
0.0
 11
146.1691759227
 21
171.9597271262
 31
0.0
  0
LINE
  5
7F
330
1F
100
AcDbEntity
  8
SLD-0
  6
Continuous
 62
   179
100
AcDbLine
 10
146.1691759227
 20
171.9597271262
 30
0.0
 11
146.2631612717
 21
172.0247534654
 31
0.0
  0
LINE
  5
80
330
1F
100
AcDbEntity
  8
SLD-0
  6
Continuous
 62
   179
100
AcDbLine
 10
116.2631617094
 20
167.8490173622
 30
0.0
 11
116.0902177848
 21
167.9738101634
 31
0.0
  0
LINE
  5
81
330
1F
100
AcDbEntity
  8
SLD-0
  6
Continuous
 62
   179
100
AcDbLine
 10
116.0902177848
 20
167.9738101634
 30
0.0
 11
115.985468326
 21
168.061149478
 31
0.0
  0
LINE
  5
82
330
1F
100
AcDbEntity
  8
SLD-0
  6
Continuous
 62
   179
100
AcDbLine
 10
89.2909872977
 20
168.061149478
 30
0.0
 11
89.1072801946
 21
167.9140437013
 31
0.0
  0
LINE
  5
83
330
1F
100
AcDbEntity
  8
SLD-0
  6
Continuous
 62
   179
100
AcDbLine
 10
89.1072801946
 20
167.9140437013
 30
0.0
 11
89.0132948456
 21
167.8490173622
 31
0.0
  0
LINE
  5
84
330
1F
100
AcDbEntity
  8
SLD-0
  6
Continuous
 62
   179
100
AcDbLine
 10
149.2909878193
 20
168.061149478
 30
0.0
 11
149.1072788535
 21
167.9140437013
 31
0.0
  0
LINE
  5
85
330
1F
100
AcDbEntity
  8
SLD-0
  6
Continuous
 62
   179
100
AcDbLine
 10
149.1072788535
 20
167.9140437013
 30
0.0
 11
149.0132935045
 21
167.8490173622
 31
0.0
  0
LINE
  5
86
330
1F
100
AcDbEntity
  8
SLD-0
  6
Continuous
 62
   179
100
AcDbLine
 10
155.1382280587
 20
168.0611494825
 30
0.0
 11
155.1382280587
 21
167.8490174481
 31
0.0
  0
LINE
  5
87
330
1F
100
AcDbEntity
  8
SLD-0
  6
Continuous
 62
   179
100
AcDbLine
 10
86.2631626128
 20
167.8490173622
 30
0.0
 11
86.0902160107
 21
167.9738101634
 31
0.0
  0
LINE
  5
88
330
1F
100
AcDbEntity
  8
SLD-0
  6
Continuous
 62
   179
100
AcDbLine
 10
86.0902160107
 20
167.9738101634
 30
0.0
 11
85.985468298
 21
168.061149478
 31
0.0
  0
LINE
  5
89
330
1F
100
AcDbEntity
  8
SLD-0
  6
Continuous
 62
   179
100
AcDbLine
 10
80.1382280587
 20
168.0611494825
 30
0.0
 11
80.1382280587
 21
167.8490174481
 31
0.0
  0
LINE
  5
8A
330
1F
100
AcDbEntity
  8
SLD-0
  6
Continuous
 62
   179
100
AcDbLine
 10
119.2909877913
 20
168.061149478
 30
0.0
 11
119.1072794076
 21
167.9140437013
 31
0.0
  0
LINE
  5
8B
330
1F
100
AcDbEntity
  8
SLD-0
  6
Continuous
 62
   179
100
AcDbLine
 10
119.1072794076
 20
167.9140437013
 30
0.0
 11
119.013294408
 21
167.8490173622
 31
0.0
  0
LINE
  5
8C
330
1F
100
AcDbEntity
  8
SLD-0
  6
Continuous
 62
   179
100
AcDbLine
 10
146.2631612717
 20
167.8490173622
 30
0.0
 11
146.0902183948
 21
167.9738101634
 31
0.0
  0
LINE
  5
8D
330
1F
100
AcDbEntity
  8
SLD-0
  6
Continuous
 62
   179
100
AcDbLine
 10
146.0902183948
 20
167.9738101634
 30
0.0
 11
145.9854688196
 21
168.061149478
 31
0.0
  0
LINE
  5
8E
330
1F
100
AcDbEntity
  8
SLD-0
  6
Continuous
 62
   179
100
AcDbLine
 10
155.1382280587
 20
171.8126213451
 30
0.0
 11
155.1382280587
 21
168.0611494825
 31
0.0
  0
LINE
  5
8F
330
1F
100
AcDbEntity
  8
SLD-0
  6
Continuous
 62
   179
100
AcDbLine
 10
80.1382280587
 20
171.8126213451
 30
0.0
 11
80.1382280587
 21
168.0611494825
 31
0.0
  0
LINE
  5
90
330
1F
100
AcDbEntity
  8
SLD-0
 62
   179
100
AcDbLine
 10
149.2965422271
 20
167.4368854697
 30
0.0
 11
149.4715824424
 21
167.5622670996
 31
0.0
  0
LINE
  5
91
330
1F
100
AcDbEntity
  8
SLD-0
 62
   179
100
AcDbLine
 10
149.4715824424
 20
167.5622670996
 30
0.0
 11
149.6371790467
 21
167.6998807202
 31
0.0
  0
LINE
  5
92
330
1F
100
AcDbEntity
  8
SLD-0
 62
   179
100
AcDbLine
 10
149.6371790467
 20
167.6998807202
 30
0.0
 11
149.792482674
 21
167.8490173622
 31
0.0
  0
LINE
  5
93
330
1F
100
AcDbEntity
  8
SLD-0
 62
   179
100
AcDbLine
 10
149.792482674
 20
167.8490173622
 30
0.0
 11
149.9795145987
 21
168.061149478
 31
0.0
  0
LINE
  5
94
330
1F
100
AcDbEntity
  8
SLD-0
 62
   179
100
AcDbLine
 10
149.9795145987
 20
168.061149478
 30
0.0
 11
150.2614482938
 21
168.4813051802
 31
0.0
  0
LINE
  5
95
330
1F
100
AcDbEntity
  8
SLD-0
 62
   179
100
AcDbLine
 10
150.2614482938
 20
168.4813051802
 30
0.0
 11
150.4687644242
 21
168.9428669019
 31
0.0
  0
LINE
  5
96
330
1F
100
AcDbEntity
  8
SLD-0
 62
   179
100
AcDbLine
 10
150.4687644242
 20
168.9428669019
 30
0.0
 11
150.5955584048
 21
169.4327050904
 31
0.0
  0
LINE
  5
97
330
1F
100
AcDbEntity
  8
SLD-0
 62
   179
100
AcDbLine
 10
150.5955584048
 20
169.4327050904
 30
0.0
 11
150.6382278799
 21
169.9368854138
 31
0.0
  0
LINE
  5
98
330
1F
100
AcDbEntity
  8
SLD-0
 62
   179
100
AcDbLine
 10
150.6382278799
 20
169.9368854138
 30
0.0
 11
150.5955584048
 21
170.4410657371
 31
0.0
  0
LINE
  5
99
330
1F
100
AcDbEntity
  8
SLD-0
 62
   179
100
AcDbLine
 10
150.5955584048
 20
170.4410657371
 30
0.0
 11
150.4687644242
 21
170.9309039256
 31
0.0
  0
LINE
  5
9A
330
1F
100
AcDbEntity
  8
SLD-0
 62
   179
100
AcDbLine
 10
150.4687644242
 20
170.9309039256
 30
0.0
 11
150.2614482938
 21
171.3924656474
 31
0.0
  0
LINE
  5
9B
330
1F
100
AcDbEntity
  8
SLD-0
 62
   179
100
AcDbLine
 10
150.2614482938
 20
171.3924656474
 30
0.0
 11
149.9795145987
 21
171.8126213495
 31
0.0
  0
LINE
  5
9C
330
1F
100
AcDbEntity
  8
SLD-0
 62
   179
100
AcDbLine
 10
149.9795145987
 20
171.8126213495
 30
0.0
 11
149.792482674
 21
172.0247534654
 31
0.0
  0
LINE
  5
9D
330
1F
100
AcDbEntity
  8
SLD-0
 62
   179
100
AcDbLine
 10
149.792482674
 20
172.0247534654
 30
0.0
 11
149.6371790467
 21
172.1738901074
 31
0.0
  0
LINE
  5
9E
330
1F
100
AcDbEntity
  8
SLD-0
 62
   179
100
AcDbLine
 10
149.6371790467
 20
172.1738901074
 30
0.0
 11
149.4715824424
 21
172.311503728
 31
0.0
  0
LINE
  5
9F
330
1F
100
AcDbEntity
  8
SLD-0
 62
   179
100
AcDbLine
 10
149.4715824424
 20
172.311503728
 30
0.0
 11
149.2965422271
 21
172.4368853579
 31
0.0
  0
LINE
  5
A0
330
1F
100
AcDbEntity
  8
SLD-0
 62
   179
100
AcDbLine
 10
145.9799162744
 20
172.4368853579
 30
0.0
 11
145.8048741965
 21
172.311503728
 31
0.0
  0
LINE
  5
A1
330
1F
100
AcDbEntity
  8
SLD-0
 62
   179
100
AcDbLine
 10
145.8048741965
 20
172.311503728
 30
0.0
 11
145.6392757295
 21
172.1738901074
 31
0.0
  0
LINE
  5
A2
330
1F
100
AcDbEntity
  8
SLD-0
 62
   179
100
AcDbLine
 10
145.6392757295
 20
172.1738901074
 30
0.0
 11
145.4839739649
 21
172.0247534654
 31
0.0
  0
LINE
  5
A3
330
1F
100
AcDbEntity
  8
SLD-0
 62
   179
100
AcDbLine
 10
145.4839739649
 20
172.0247534654
 30
0.0
 11
145.2969439028
 21
171.8126213495
 31
0.0
  0
LINE
  5
A4
330
1F
100
AcDbEntity
  8
SLD-0
 62
   179
100
AcDbLine
 10
145.2969439028
 20
171.8126213495
 30
0.0
 11
145.0150083451
 21
171.3924656474
 31
0.0
  0
LINE
  5
A5
330
1F
100
AcDbEntity
  8
SLD-0
 62
   179
100
AcDbLine
 10
145.0150083451
 20
171.3924656474
 30
0.0
 11
144.8076940773
 21
170.9309039256
 31
0.0
  0
LINE
  5
A6
330
1F
100
AcDbEntity
  8
SLD-0
 62
   179
100
AcDbLine
 10
144.8076940773
 20
170.9309039256
 30
0.0
 11
144.6808982341
 21
170.4410657371
 31
0.0
  0
LINE
  5
A7
330
1F
100
AcDbEntity
  8
SLD-0
 62
   179
100
AcDbLine
 10
144.6808982341
 20
170.4410657371
 30
0.0
 11
144.638228759
 21
169.9368854138
 31
0.0
  0
LINE
  5
A8
330
1F
100
AcDbEntity
  8
SLD-0
 62
   179
100
AcDbLine
 10
144.638228759
 20
169.9368854138
 30
0.0
 11
144.6808982341
 21
169.4327050904
 31
0.0
  0
LINE
  5
A9
330
1F
100
AcDbEntity
  8
SLD-0
 62
   179
100
AcDbLine
 10
144.6808982341
 20
169.4327050904
 30
0.0
 11
144.8076940773
 21
168.9428669019
 31
0.0
  0
LINE
  5
AA
330
1F
100
AcDbEntity
  8
SLD-0
 62
   179
100
AcDbLine
 10
144.8076940773
 20
168.9428669019
 30
0.0
 11
145.0150083451
 21
168.4813051802
 31
0.0
  0
LINE
  5
AB
330
1F
100
AcDbEntity
  8
SLD-0
 62
   179
100
AcDbLine
 10
145.0150083451
 20
168.4813051802
 30
0.0
 11
145.2969439028
 21
168.061149478
 31
0.0
  0
LINE
  5
AC
330
1F
100
AcDbEntity
  8
SLD-0
 62
   179
100
AcDbLine
 10
145.2969439028
 20
168.061149478
 30
0.0
 11
145.4839739649
 21
167.8490173622
 31
0.0
  0
LINE
  5
AD
330
1F
100
AcDbEntity
  8
SLD-0
 62
   179
100
AcDbLine
 10
145.4839739649
 20
167.8490173622
 30
0.0
 11
145.6392757295
 21
167.6998807202
 31
0.0
  0
LINE
  5
AE
330
1F
100
AcDbEntity
  8
SLD-0
 62
   179
100
AcDbLine
 10
145.6392757295
 20
167.6998807202
 30
0.0
 11
145.8048741965
 21
167.5622670996
 31
0.0
  0
LINE
  5
AF
330
1F
100
AcDbEntity
  8
SLD-0
 62
   179
100
AcDbLine
 10
145.8048741965
 20
167.5622670996
 30
0.0
 11
145.9799162744
 21
167.4368854697
 31
0.0
  0
LINE
  5
B0
330
1F
100
AcDbEntity
  8
SLD-0
  6
HIDDEN
 62
   179
100
AcDbLine
 10
144.941405922
 20
171.2510949551
 30
0.0
 11
145.2588099687
 21
171.7640824468
 31
0.0
  0
LINE
  5
B1
330
1F
100
AcDbEntity
  8
SLD-0
  6
HIDDEN
 62
   179
100
AcDbLine
 10
145.2588099687
 20
171.7640824468
 30
0.0
 11
145.5863244532
 21
172.1098067323
 31
0.0
  0
LINE
  5
B2
330
1F
100
AcDbEntity
  8
SLD-0
  6
HIDDEN
 62
   179
100
AcDbLine
 10
145.931385055
 20
172.3965560636
 30
0.0
 11
145.99506703
 21
172.4437666676
 31
0.0
  0
LINE
  5
B3
330
1F
100
AcDbEntity
  8
SLD-0
  6
HIDDEN
 62
   179
100
AcDbLine
 10
149.2870501874
 20
172.4418029739
 30
0.0
 11
149.3659443854
 21
172.3792113448
 31
0.0
  0
LINE
  5
B4
330
1F
100
AcDbEntity
  8
SLD-0
  6
HIDDEN
 62
   179
100
AcDbLine
 10
149.7541978656
 20
172.0565662804
 30
0.0
 11
150.0471733211
 21
171.7212501066
 31
0.0
  0
LINE
  5
B5
330
1F
100
AcDbEntity
  8
SLD-0
  6
HIDDEN
 62
   179
100
AcDbLine
 10
150.1426860391
 20
171.5711075199
 30
0.0
 11
150.3350525795
 21
171.2510949551
 31
0.0
  0
LINE
  5
B6
330
1F
100
AcDbEntity
  8
SLD-0
  6
HIDDEN
 62
   179
100
AcDbLine
 10
150.3350525795
 20
168.6226758725
 30
0.0
 11
150.0176466702
 21
168.1096883808
 31
0.0
  0
LINE
  5
B7
330
1F
100
AcDbEntity
  8
SLD-0
  6
HIDDEN
 62
   179
100
AcDbLine
 10
150.0176466702
 20
168.1096883808
 30
0.0
 11
149.690130323
 21
167.7639640952
 31
0.0
  0
LINE
  5
B8
330
1F
100
AcDbEntity
  8
SLD-0
  6
HIDDEN
 62
   179
100
AcDbLine
 10
149.3450715838
 20
167.4772147639
 30
0.0
 11
149.2813914715
 21
167.43000416
 31
0.0
  0
LINE
  5
B9
330
1F
100
AcDbEntity
  8
SLD-0
  6
HIDDEN
 62
   179
100
AcDbLine
 10
145.9894064514
 20
167.4319678536
 30
0.0
 11
145.9105141161
 21
167.4945594827
 31
0.0
  0
LINE
  5
BA
330
1F
100
AcDbEntity
  8
SLD-0
  6
HIDDEN
 62
   179
100
AcDbLine
 10
145.5222569107
 20
167.8172045472
 30
0.0
 11
145.2292833178
 21
168.1525207209
 31
0.0
  0
LINE
  5
BB
330
1F
100
AcDbEntity
  8
SLD-0
  6
HIDDEN
 62
   179
100
AcDbLine
 10
145.1337687372
 20
168.3026633077
 30
0.0
 11
144.941405922
 21
168.6226758725
 31
0.0
  0
LINE
  5
BC
330
1F
100
AcDbEntity
  8
SLD-0
  6
HIDDEN
 62
   179
100
AcDbLine
 10
149.2965422271
 20
167.4368854697
 30
0.0
 11
148.9140480457
 21
167.2216908159
 31
0.0
  0
LINE
  5
BD
330
1F
100
AcDbEntity
  8
SLD-0
  6
HIDDEN
 62
   179
100
AcDbLine
 10
148.9140480457
 20
167.2216908159
 30
0.0
 11
148.5042530744
 21
167.0646041716
 31
0.0
  0
LINE
  5
BE
330
1F
100
AcDbEntity
  8
SLD-0
  6
HIDDEN
 62
   179
100
AcDbLine
 10
148.5042530744
 20
167.0646041716
 30
0.0
 11
148.0759247838
 21
166.9689869127
 31
0.0
  0
LINE
  5
BF
330
1F
100
AcDbEntity
  8
SLD-0
  6
HIDDEN
 62
   179
100
AcDbLine
 10
148.0759247838
 20
166.9689869127
 30
0.0
 11
147.6382273881
 21
166.9368853877
 31
0.0
  0
LINE
  5
C0
330
1F
100
AcDbEntity
  8
SLD-0
  6
HIDDEN
 62
   179
100
AcDbLine
 10
147.6382273881
 20
166.9368853877
 30
0.0
 11
147.2005318551
 21
166.9689869127
 31
0.0
  0
LINE
  5
C1
330
1F
100
AcDbEntity
  8
SLD-0
  6
HIDDEN
 62
   179
100
AcDbLine
 10
147.2005318551
 20
166.9689869127
 30
0.0
 11
146.7722035645
 21
167.0646041716
 31
0.0
  0
LINE
  5
C2
330
1F
100
AcDbEntity
  8
SLD-0
  6
HIDDEN
 62
   179
100
AcDbLine
 10
146.7722035645
 20
167.0646041716
 30
0.0
 11
146.3624067305
 21
167.2216908159
 31
0.0
  0
LINE
  5
C3
330
1F
100
AcDbEntity
  8
SLD-0
  6
HIDDEN
 62
   179
100
AcDbLine
 10
146.3624067305
 20
167.2216908159
 30
0.0
 11
145.9799162744
 21
167.4368854697
 31
0.0
  0
LINE
  5
C4
330
1F
100
AcDbEntity
  8
SLD-0
  6
HIDDEN
 62
   179
100
AcDbLine
 10
145.9799162744
 20
172.4368853579
 30
0.0
 11
146.3624067305
 21
172.6520800116
 31
0.0
  0
LINE
  5
C5
330
1F
100
AcDbEntity
  8
SLD-0
  6
HIDDEN
 62
   179
100
AcDbLine
 10
146.3624067305
 20
172.6520800116
 30
0.0
 11
146.7722035645
 21
172.8091666559
 31
0.0
  0
LINE
  5
C6
330
1F
100
AcDbEntity
  8
SLD-0
  6
HIDDEN
 62
   179
100
AcDbLine
 10
146.7722035645
 20
172.8091666559
 30
0.0
 11
147.2005318551
 21
172.9047839149
 31
0.0
  0
LINE
  5
C7
330
1F
100
AcDbEntity
  8
SLD-0
  6
HIDDEN
 62
   179
100
AcDbLine
 10
147.2005318551
 20
172.9047839149
 30
0.0
 11
147.6382273881
 21
172.9368854399
 31
0.0
  0
LINE
  5
C8
330
1F
100
AcDbEntity
  8
SLD-0
  6
HIDDEN
 62
   179
100
AcDbLine
 10
147.6382273881
 20
172.9368854399
 30
0.0
 11
148.0759247838
 21
172.9047839149
 31
0.0
  0
LINE
  5
C9
330
1F
100
AcDbEntity
  8
SLD-0
  6
HIDDEN
 62
   179
100
AcDbLine
 10
148.0759247838
 20
172.9047839149
 30
0.0
 11
148.5042530744
 21
172.8091666559
 31
0.0
  0
LINE
  5
CA
330
1F
100
AcDbEntity
  8
SLD-0
  6
HIDDEN
 62
   179
100
AcDbLine
 10
148.5042530744
 20
172.8091666559
 30
0.0
 11
148.9140480457
 21
172.6520800116
 31
0.0
  0
LINE
  5
CB
330
1F
100
AcDbEntity
  8
SLD-0
  6
HIDDEN
 62
   179
100
AcDbLine
 10
148.9140480457
 20
172.6520800116
 30
0.0
 11
149.2965422271
 21
172.4368853579
 31
0.0
  0
LINE
  5
CC
330
1F
100
AcDbEntity
  8
SLD-0
 62
   179
100
AcDbLine
 10
115.9799156644
 20
172.4368853579
 30
0.0
 11
115.8048738193
 21
172.311503728
 31
0.0
  0
LINE
  5
CD
330
1F
100
AcDbEntity
  8
SLD-0
 62
   179
100
AcDbLine
 10
115.8048738193
 20
172.311503728
 30
0.0
 11
115.6392759344
 21
172.1738901074
 31
0.0
  0
LINE
  5
CE
330
1F
100
AcDbEntity
  8
SLD-0
 62
   179
100
AcDbLine
 10
115.6392759344
 20
172.1738901074
 30
0.0
 11
115.4839746355
 21
172.0247534654
 31
0.0
  0
LINE
  5
CF
330
1F
100
AcDbEntity
  8
SLD-0
 62
   179
100
AcDbLine
 10
115.4839746355
 20
172.0247534654
 30
0.0
 11
115.2969431764
 21
171.8126213495
 31
0.0
  0
LINE
  5
D0
330
1F
100
AcDbEntity
  8
SLD-0
 62
   179
100
AcDbLine
 10
115.2969431764
 20
171.8126213495
 30
0.0
 11
115.0150076187
 21
171.3924656474
 31
0.0
  0
LINE
  5
D1
330
1F
100
AcDbEntity
  8
SLD-0
 62
   179
100
AcDbLine
 10
115.0150076187
 20
171.3924656474
 30
0.0
 11
114.8076933509
 21
170.9309039256
 31
0.0
  0
LINE
  5
D2
330
1F
100
AcDbEntity
  8
SLD-0
 62
   179
100
AcDbLine
 10
114.8076933509
 20
170.9309039256
 30
0.0
 11
114.6808977405
 21
170.4410657371
 31
0.0
  0
LINE
  5
D3
330
1F
100
AcDbEntity
  8
SLD-0
 62
   179
100
AcDbLine
 10
114.6808977405
 20
170.4410657371
 30
0.0
 11
114.6382280326
 21
169.9368854138
 31
0.0
  0
LINE
  5
D4
330
1F
100
AcDbEntity
  8
SLD-0
 62
   179
100
AcDbLine
 10
114.6382280326
 20
169.9368854138
 30
0.0
 11
114.6808977405
 21
169.4327050904
 31
0.0
  0
LINE
  5
D5
330
1F
100
AcDbEntity
  8
SLD-0
 62
   179
100
AcDbLine
 10
114.6808977405
 20
169.4327050904
 30
0.0
 11
114.8076933509
 21
168.9428669019
 31
0.0
  0
LINE
  5
D6
330
1F
100
AcDbEntity
  8
SLD-0
 62
   179
100
AcDbLine
 10
114.8076933509
 20
168.9428669019
 30
0.0
 11
115.0150076187
 21
168.4813051802
 31
0.0
  0
LINE
  5
D7
330
1F
100
AcDbEntity
  8
SLD-0
 62
   179
100
AcDbLine
 10
115.0150076187
 20
168.4813051802
 30
0.0
 11
115.2969431764
 21
168.061149478
 31
0.0
  0
LINE
  5
D8
330
1F
100
AcDbEntity
  8
SLD-0
 62
   179
100
AcDbLine
 10
115.2969431764
 20
168.061149478
 30
0.0
 11
115.4839746355
 21
167.8490173622
 31
0.0
  0
LINE
  5
D9
330
1F
100
AcDbEntity
  8
SLD-0
 62
   179
100
AcDbLine
 10
115.4839746355
 20
167.8490173622
 30
0.0
 11
115.6392759344
 21
167.6998807202
 31
0.0
  0
LINE
  5
DA
330
1F
100
AcDbEntity
  8
SLD-0
 62
   179
100
AcDbLine
 10
115.6392759344
 20
167.6998807202
 30
0.0
 11
115.8048738193
 21
167.5622670996
 31
0.0
  0
LINE
  5
DB
330
1F
100
AcDbEntity
  8
SLD-0
 62
   179
100
AcDbLine
 10
115.8048738193
 20
167.5622670996
 30
0.0
 11
115.9799156644
 21
167.4368854697
 31
0.0
  0
LINE
  5
DC
330
1F
100
AcDbEntity
  8
SLD-0
 62
   179
100
AcDbLine
 10
119.7924814819
 20
172.0247534654
 30
0.0
 11
119.6371801829
 21
172.1738901074
 31
0.0
  0
LINE
  5
DD
330
1F
100
AcDbEntity
  8
SLD-0
 62
   179
100
AcDbLine
 10
119.6371801829
 20
172.1738901074
 30
0.0
 11
119.471582298
 21
172.311503728
 31
0.0
  0
LINE
  5
DE
330
1F
100
AcDbEntity
  8
SLD-0
 62
   179
100
AcDbLine
 10
119.471582298
 20
172.311503728
 30
0.0
 11
119.296540453
 21
172.4368853579
 31
0.0
  0
LINE
  5
DF
330
1F
100
AcDbEntity
  8
SLD-0
 62
   179
100
AcDbLine
 10
119.9795129409
 20
171.8126213495
 30
0.0
 11
119.7924814819
 21
172.0247534654
 31
0.0
  0
LINE
  5
E0
330
1F
100
AcDbEntity
  8
SLD-0
 62
   179
100
AcDbLine
 10
119.9795129409
 20
168.061149478
 30
0.0
 11
120.2614484987
 21
168.4813051802
 31
0.0
  0
LINE
  5
E1
330
1F
100
AcDbEntity
  8
SLD-0
 62
   179
100
AcDbLine
 10
120.2614484987
 20
168.4813051802
 30
0.0
 11
120.4687627664
 21
168.9428669019
 31
0.0
  0
LINE
  5
E2
330
1F
100
AcDbEntity
  8
SLD-0
 62
   179
100
AcDbLine
 10
120.4687627664
 20
168.9428669019
 30
0.0
 11
120.5955583768
 21
169.4327050904
 31
0.0
  0
LINE
  5
E3
330
1F
100
AcDbEntity
  8
SLD-0
 62
   179
100
AcDbLine
 10
120.5955583768
 20
169.4327050904
 30
0.0
 11
120.6382280847
 21
169.9368854138
 31
0.0
  0
LINE
  5
E4
330
1F
100
AcDbEntity
  8
SLD-0
 62
   179
100
AcDbLine
 10
120.6382280847
 20
169.9368854138
 30
0.0
 11
120.5955583768
 21
170.4410657371
 31
0.0
  0
LINE
  5
E5
330
1F
100
AcDbEntity
  8
SLD-0
 62
   179
100
AcDbLine
 10
120.5955583768
 20
170.4410657371
 30
0.0
 11
120.4687627664
 21
170.9309039256
 31
0.0
  0
LINE
  5
E6
330
1F
100
AcDbEntity
  8
SLD-0
 62
   179
100
AcDbLine
 10
120.4687627664
 20
170.9309039256
 30
0.0
 11
120.2614484987
 21
171.3924656474
 31
0.0
  0
LINE
  5
E7
330
1F
100
AcDbEntity
  8
SLD-0
 62
   179
100
AcDbLine
 10
120.2614484987
 20
171.3924656474
 30
0.0
 11
119.9795129409
 21
171.8126213495
 31
0.0
  0
LINE
  5
E8
330
1F
100
AcDbEntity
  8
SLD-0
 62
   179
100
AcDbLine
 10
119.7924814819
 20
167.8490173622
 30
0.0
 11
119.9795129409
 21
168.061149478
 31
0.0
  0
LINE
  5
E9
330
1F
100
AcDbEntity
  8
SLD-0
 62
   179
100
AcDbLine
 10
119.296540453
 20
167.4368854697
 30
0.0
 11
119.471582298
 21
167.5622670996
 31
0.0
  0
LINE
  5
EA
330
1F
100
AcDbEntity
  8
SLD-0
 62
   179
100
AcDbLine
 10
119.471582298
 20
167.5622670996
 30
0.0
 11
119.6371801829
 21
167.6998807202
 31
0.0
  0
LINE
  5
EB
330
1F
100
AcDbEntity
  8
SLD-0
 62
   179
100
AcDbLine
 10
119.6371801829
 20
167.6998807202
 30
0.0
 11
119.7924814819
 21
167.8490173622
 31
0.0
  0
LINE
  5
EC
330
1F
100
AcDbEntity
  8
SLD-0
  6
HIDDEN
 62
   179
100
AcDbLine
 10
115.9799156644
 20
172.4368853579
 30
0.0
 11
116.3624072846
 21
172.6520800116
 31
0.0
  0
LINE
  5
ED
330
1F
100
AcDbEntity
  8
SLD-0
  6
HIDDEN
 62
   179
100
AcDbLine
 10
116.3624072846
 20
172.6520800116
 30
0.0
 11
116.7722026634
 21
172.8091666559
 31
0.0
  0
LINE
  5
EE
330
1F
100
AcDbEntity
  8
SLD-0
  6
HIDDEN
 62
   179
100
AcDbLine
 10
116.7722026634
 20
172.8091666559
 30
0.0
 11
117.200531798
 21
172.9047839149
 31
0.0
  0
LINE
  5
EF
330
1F
100
AcDbEntity
  8
SLD-0
  6
HIDDEN
 62
   179
100
AcDbLine
 10
117.200531798
 20
172.9047839149
 30
0.0
 11
117.6382280587
 21
172.9368854399
 31
0.0
  0
LINE
  5
F0
330
1F
100
AcDbEntity
  8
SLD-0
  6
HIDDEN
 62
   179
100
AcDbLine
 10
117.6382280587
 20
172.9368854399
 30
0.0
 11
118.0759243193
 21
172.9047839149
 31
0.0
  0
LINE
  5
F1
330
1F
100
AcDbEntity
  8
SLD-0
  6
HIDDEN
 62
   179
100
AcDbLine
 10
118.0759243193
 20
172.9047839149
 30
0.0
 11
118.5042534539
 21
172.8091666559
 31
0.0
  0
LINE
  5
F2
330
1F
100
AcDbEntity
  8
SLD-0
  6
HIDDEN
 62
   179
100
AcDbLine
 10
118.5042534539
 20
172.8091666559
 30
0.0
 11
118.9140488327
 21
172.6520800116
 31
0.0
  0
LINE
  5
F3
330
1F
100
AcDbEntity
  8
SLD-0
  6
HIDDEN
 62
   179
100
AcDbLine
 10
118.9140488327
 20
172.6520800116
 30
0.0
 11
119.296540453
 21
172.4368853579
 31
0.0
  0
LINE
  5
F4
330
1F
100
AcDbEntity
  8
SLD-0
  6
HIDDEN
 62
   179
100
AcDbLine
 10
119.296540453
 20
167.4368854697
 30
0.0
 11
118.9140488327
 21
167.2216908159
 31
0.0
  0
LINE
  5
F5
330
1F
100
AcDbEntity
  8
SLD-0
  6
HIDDEN
 62
   179
100
AcDbLine
 10
118.9140488327
 20
167.2216908159
 30
0.0
 11
118.5042534539
 21
167.0646041716
 31
0.0
  0
LINE
  5
F6
330
1F
100
AcDbEntity
  8
SLD-0
  6
HIDDEN
 62
   179
100
AcDbLine
 10
118.5042534539
 20
167.0646041716
 30
0.0
 11
118.0759243193
 21
166.9689869127
 31
0.0
  0
LINE
  5
F7
330
1F
100
AcDbEntity
  8
SLD-0
  6
HIDDEN
 62
   179
100
AcDbLine
 10
118.0759243193
 20
166.9689869127
 30
0.0
 11
117.6382280587
 21
166.9368853877
 31
0.0
  0
LINE
  5
F8
330
1F
100
AcDbEntity
  8
SLD-0
  6
HIDDEN
 62
   179
100
AcDbLine
 10
117.6382280587
 20
166.9368853877
 30
0.0
 11
117.200531798
 21
166.9689869127
 31
0.0
  0
LINE
  5
F9
330
1F
100
AcDbEntity
  8
SLD-0
  6
HIDDEN
 62
   179
100
AcDbLine
 10
117.200531798
 20
166.9689869127
 30
0.0
 11
116.7722026634
 21
167.0646041716
 31
0.0
  0
LINE
  5
FA
330
1F
100
AcDbEntity
  8
SLD-0
  6
HIDDEN
 62
   179
100
AcDbLine
 10
116.7722026634
 20
167.0646041716
 30
0.0
 11
116.3624072846
 21
167.2216908159
 31
0.0
  0
LINE
  5
FB
330
1F
100
AcDbEntity
  8
SLD-0
  6
HIDDEN
 62
   179
100
AcDbLine
 10
116.3624072846
 20
167.2216908159
 30
0.0
 11
115.9799156644
 21
167.4368854697
 31
0.0
  0
LINE
  5
FC
330
1F
100
AcDbEntity
  8
SLD-0
  6
HIDDEN
 62
   179
100
AcDbLine
 10
114.9414051956
 20
171.2510949551
 30
0.0
 11
115.2588108721
 21
171.7640824468
 31
0.0
  0
LINE
  5
FD
330
1F
100
AcDbEntity
  8
SLD-0
  6
HIDDEN
 62
   179
100
AcDbLine
 10
115.2588108721
 20
171.7640824468
 30
0.0
 11
115.5863241924
 21
172.1098067323
 31
0.0
  0
LINE
  5
FE
330
1F
100
AcDbEntity
  8
SLD-0
  6
HIDDEN
 62
   179
100
AcDbLine
 10
115.9313850271
 20
172.3965560636
 30
0.0
 11
115.9950661872
 21
172.4437666676
 31
0.0
  0
LINE
  5
FF
330
1F
100
AcDbEntity
  8
SLD-0
  6
HIDDEN
 62
   179
100
AcDbLine
 10
119.2870495774
 20
172.4418029739
 30
0.0
 11
119.365942844
 21
172.3792113448
 31
0.0
  0
LINE
  5
100
330
1F
100
AcDbEntity
  8
SLD-0
  6
HIDDEN
 62
   179
100
AcDbLine
 10
119.7541992346
 20
172.0565662804
 30
0.0
 11
120.0471737588
 21
171.7212501066
 31
0.0
  0
LINE
  5
101
330
1F
100
AcDbEntity
  8
SLD-0
  6
HIDDEN
 62
   179
100
AcDbLine
 10
120.1426874081
 20
171.5711075199
 30
0.0
 11
120.3350509217
 21
171.2510949551
 31
0.0
  0
LINE
  5
102
330
1F
100
AcDbEntity
  8
SLD-0
  6
HIDDEN
 62
   179
100
AcDbLine
 10
120.3350509217
 20
168.6226758725
 30
0.0
 11
120.0176452453
 21
168.1096883808
 31
0.0
  0
LINE
  5
103
330
1F
100
AcDbEntity
  8
SLD-0
  6
HIDDEN
 62
   179
100
AcDbLine
 10
120.0176452453
 20
168.1096883808
 30
0.0
 11
119.6901319249
 21
167.7639640952
 31
0.0
  0
LINE
  5
104
330
1F
100
AcDbEntity
  8
SLD-0
  6
HIDDEN
 62
   179
100
AcDbLine
 10
119.3450710902
 20
167.4772147639
 30
0.0
 11
119.2813899301
 21
167.43000416
 31
0.0
  0
LINE
  5
105
330
1F
100
AcDbEntity
  8
SLD-0
  6
HIDDEN
 62
   179
100
AcDbLine
 10
115.9894065399
 20
167.4319678536
 30
0.0
 11
115.9105132733
 21
167.4945594827
 31
0.0
  0
LINE
  5
106
330
1F
100
AcDbEntity
  8
SLD-0
  6
HIDDEN
 62
   179
100
AcDbLine
 10
115.5222568827
 20
167.8172045472
 30
0.0
 11
115.2292823585
 21
168.1525207209
 31
0.0
  0
LINE
  5
107
330
1F
100
AcDbEntity
  8
SLD-0
  6
HIDDEN
 62
   179
100
AcDbLine
 10
115.1337687092
 20
168.3026633077
 30
0.0
 11
114.9414051956
 21
168.6226758725
 31
0.0
  0
LINE
  5
108
330
1F
100
AcDbEntity
  8
SLD-0
 62
   179
100
AcDbLine
 10
85.2969415186
 20
171.8126213495
 30
0.0
 11
85.0150078236
 21
171.3924656474
 31
0.0
  0
LINE
  5
109
330
1F
100
AcDbEntity
  8
SLD-0
 62
   179
100
AcDbLine
 10
85.0150078236
 20
171.3924656474
 30
0.0
 11
84.8076916932
 21
170.9309039256
 31
0.0
  0
LINE
  5
10A
330
1F
100
AcDbEntity
  8
SLD-0
 62
   179
100
AcDbLine
 10
84.8076916932
 20
170.9309039256
 30
0.0
 11
84.6808977126
 21
170.4410657371
 31
0.0
  0
LINE
  5
10B
330
1F
100
AcDbEntity
  8
SLD-0
 62
   179
100
AcDbLine
 10
84.6808977126
 20
170.4410657371
 30
0.0
 11
84.6382282375
 21
169.9368854138
 31
0.0
  0
LINE
  5
10C
330
1F
100
AcDbEntity
  8
SLD-0
 62
   179
100
AcDbLine
 10
84.6382282375
 20
169.9368854138
 30
0.0
 11
84.6808977126
 21
169.4327050904
 31
0.0
  0
LINE
  5
10D
330
1F
100
AcDbEntity
  8
SLD-0
 62
   179
100
AcDbLine
 10
84.6808977126
 20
169.4327050904
 30
0.0
 11
84.8076916932
 21
168.9428669019
 31
0.0
  0
LINE
  5
10E
330
1F
100
AcDbEntity
  8
SLD-0
 62
   179
100
AcDbLine
 10
84.8076916932
 20
168.9428669019
 30
0.0
 11
85.0150078236
 21
168.4813051802
 31
0.0
  0
LINE
  5
10F
330
1F
100
AcDbEntity
  8
SLD-0
 62
   179
100
AcDbLine
 10
85.0150078236
 20
168.4813051802
 30
0.0
 11
85.2969415186
 21
168.061149478
 31
0.0
  0
LINE
  5
110
330
1F
100
AcDbEntity
  8
SLD-0
 62
   179
100
AcDbLine
 10
85.2969415186
 20
168.061149478
 30
0.0
 11
85.4839734434
 21
167.8490173622
 31
0.0
  0
LINE
  5
111
330
1F
100
AcDbEntity
  8
SLD-0
 62
   179
100
AcDbLine
 10
85.4839734434
 20
172.0247534654
 30
0.0
 11
85.2969415186
 21
171.8126213495
 31
0.0
  0
LINE
  5
112
330
1F
100
AcDbEntity
  8
SLD-0
 62
   179
100
AcDbLine
 10
85.9799138902
 20
172.4368853579
 30
0.0
 11
85.804873675
 21
172.311503728
 31
0.0
  0
LINE
  5
113
330
1F
100
AcDbEntity
  8
SLD-0
 62
   179
100
AcDbLine
 10
85.804873675
 20
172.311503728
 30
0.0
 11
85.6392770706
 21
172.1738901074
 31
0.0
  0
LINE
  5
114
330
1F
100
AcDbEntity
  8
SLD-0
 62
   179
100
AcDbLine
 10
85.6392770706
 20
172.1738901074
 30
0.0
 11
85.4839734434
 21
172.0247534654
 31
0.0
  0
LINE
  5
115
330
1F
100
AcDbEntity
  8
SLD-0
 62
   179
100
AcDbLine
 10
85.4839734434
 20
167.8490173622
 30
0.0
 11
85.6392770706
 21
167.6998807202
 31
0.0
  0
LINE
  5
116
330
1F
100
AcDbEntity
  8
SLD-0
 62
   179
100
AcDbLine
 10
85.6392770706
 20
167.6998807202
 30
0.0
 11
85.804873675
 21
167.5622670996
 31
0.0
  0
LINE
  5
117
330
1F
100
AcDbEntity
  8
SLD-0
 62
   179
100
AcDbLine
 10
85.804873675
 20
167.5622670996
 30
0.0
 11
85.9799138902
 21
167.4368854697
 31
0.0
  0
LINE
  5
118
330
1F
100
AcDbEntity
  8
SLD-0
 62
   179
100
AcDbLine
 10
89.7924821524
 20
172.0247534654
 30
0.0
 11
89.6371803878
 21
172.1738901074
 31
0.0
  0
LINE
  5
119
330
1F
100
AcDbEntity
  8
SLD-0
 62
   179
100
AcDbLine
 10
89.6371803878
 20
172.1738901074
 30
0.0
 11
89.4715819208
 21
172.311503728
 31
0.0
  0
LINE
  5
11A
330
1F
100
AcDbEntity
  8
SLD-0
 62
   179
100
AcDbLine
 10
89.4715819208
 20
172.311503728
 30
0.0
 11
89.2965398429
 21
172.4368853579
 31
0.0
  0
LINE
  5
11B
330
1F
100
AcDbEntity
  8
SLD-0
 62
   179
100
AcDbLine
 10
89.9795122145
 20
171.8126213495
 30
0.0
 11
89.7924821524
 21
172.0247534654
 31
0.0
  0
LINE
  5
11C
330
1F
100
AcDbEntity
  8
SLD-0
 62
   179
100
AcDbLine
 10
89.9795122145
 20
168.061149478
 30
0.0
 11
90.2614477722
 21
168.4813051802
 31
0.0
  0
LINE
  5
11D
330
1F
100
AcDbEntity
  8
SLD-0
 62
   179
100
AcDbLine
 10
90.2614477722
 20
168.4813051802
 30
0.0
 11
90.46876204
 21
168.9428669019
 31
0.0
  0
LINE
  5
11E
330
1F
100
AcDbEntity
  8
SLD-0
 62
   179
100
AcDbLine
 10
90.46876204
 20
168.9428669019
 30
0.0
 11
90.5955578832
 21
169.4327050904
 31
0.0
  0
LINE
  5
11F
330
1F
100
AcDbEntity
  8
SLD-0
 62
   179
100
AcDbLine
 10
90.5955578832
 20
169.4327050904
 30
0.0
 11
90.6382273583
 21
169.9368854138
 31
0.0
  0
LINE
  5
120
330
1F
100
AcDbEntity
  8
SLD-0
 62
   179
100
AcDbLine
 10
90.6382273583
 20
169.9368854138
 30
0.0
 11
90.5955578832
 21
170.4410657371
 31
0.0
  0
LINE
  5
121
330
1F
100
AcDbEntity
  8
SLD-0
 62
   179
100
AcDbLine
 10
90.5955578832
 20
170.4410657371
 30
0.0
 11
90.46876204
 21
170.9309039256
 31
0.0
  0
LINE
  5
122
330
1F
100
AcDbEntity
  8
SLD-0
 62
   179
100
AcDbLine
 10
90.46876204
 20
170.9309039256
 30
0.0
 11
90.2614477722
 21
171.3924656474
 31
0.0
  0
LINE
  5
123
330
1F
100
AcDbEntity
  8
SLD-0
 62
   179
100
AcDbLine
 10
90.2614477722
 20
171.3924656474
 30
0.0
 11
89.9795122145
 21
171.8126213495
 31
0.0
  0
LINE
  5
124
330
1F
100
AcDbEntity
  8
SLD-0
 62
   179
100
AcDbLine
 10
89.7924821524
 20
167.8490173622
 30
0.0
 11
89.9795122145
 21
168.061149478
 31
0.0
  0
LINE
  5
125
330
1F
100
AcDbEntity
  8
SLD-0
 62
   179
100
AcDbLine
 10
89.2965398429
 20
167.4368854697
 30
0.0
 11
89.4715819208
 21
167.5622670996
 31
0.0
  0
LINE
  5
126
330
1F
100
AcDbEntity
  8
SLD-0
 62
   179
100
AcDbLine
 10
89.4715819208
 20
167.5622670996
 30
0.0
 11
89.6371803878
 21
167.6998807202
 31
0.0
  0
LINE
  5
127
330
1F
100
AcDbEntity
  8
SLD-0
 62
   179
100
AcDbLine
 10
89.6371803878
 20
167.6998807202
 30
0.0
 11
89.7924821524
 21
167.8490173622
 31
0.0
  0
LINE
  5
128
330
1F
100
AcDbEntity
  8
SLD-0
  6
HIDDEN
 62
   179
100
AcDbLine
 10
85.9799138902
 20
172.4368853579
 30
0.0
 11
86.3624080716
 21
172.6520800116
 31
0.0
  0
LINE
  5
129
330
1F
100
AcDbEntity
  8
SLD-0
  6
HIDDEN
 62
   179
100
AcDbLine
 10
86.3624080716
 20
172.6520800116
 30
0.0
 11
86.772203043
 21
172.8091666559
 31
0.0
  0
LINE
  5
12A
330
1F
100
AcDbEntity
  8
SLD-0
  6
HIDDEN
 62
   179
100
AcDbLine
 10
86.772203043
 20
172.8091666559
 30
0.0
 11
87.2005313335
 21
172.9047839149
 31
0.0
  0
LINE
  5
12B
330
1F
100
AcDbEntity
  8
SLD-0
  6
HIDDEN
 62
   179
100
AcDbLine
 10
87.2005313335
 20
172.9047839149
 30
0.0
 11
87.6382287292
 21
172.9368854399
 31
0.0
  0
LINE
  5
12C
330
1F
100
AcDbEntity
  8
SLD-0
  6
HIDDEN
 62
   179
100
AcDbLine
 10
87.6382287292
 20
172.9368854399
 30
0.0
 11
88.0759242623
 21
172.9047839149
 31
0.0
  0
LINE
  5
12D
330
1F
100
AcDbEntity
  8
SLD-0
  6
HIDDEN
 62
   179
100
AcDbLine
 10
88.0759242623
 20
172.9047839149
 30
0.0
 11
88.5042525528
 21
172.8091666559
 31
0.0
  0
LINE
  5
12E
330
1F
100
AcDbEntity
  8
SLD-0
  6
HIDDEN
 62
   179
100
AcDbLine
 10
88.5042525528
 20
172.8091666559
 30
0.0
 11
88.9140493868
 21
172.6520800116
 31
0.0
  0
LINE
  5
12F
330
1F
100
AcDbEntity
  8
SLD-0
  6
HIDDEN
 62
   179
100
AcDbLine
 10
88.9140493868
 20
172.6520800116
 30
0.0
 11
89.2965398429
 21
172.4368853579
 31
0.0
  0
LINE
  5
130
330
1F
100
AcDbEntity
  8
SLD-0
  6
HIDDEN
 62
   179
100
AcDbLine
 10
89.2965398429
 20
167.4368854697
 30
0.0
 11
88.9140493868
 21
167.2216908159
 31
0.0
  0
LINE
  5
131
330
1F
100
AcDbEntity
  8
SLD-0
  6
HIDDEN
 62
   179
100
AcDbLine
 10
88.9140493868
 20
167.2216908159
 30
0.0
 11
88.5042525528
 21
167.0646041716
 31
0.0
  0
LINE
  5
132
330
1F
100
AcDbEntity
  8
SLD-0
  6
HIDDEN
 62
   179
100
AcDbLine
 10
88.5042525528
 20
167.0646041716
 30
0.0
 11
88.0759242623
 21
166.9689869127
 31
0.0
  0
LINE
  5
133
330
1F
100
AcDbEntity
  8
SLD-0
  6
HIDDEN
 62
   179
100
AcDbLine
 10
88.0759242623
 20
166.9689869127
 30
0.0
 11
87.6382287292
 21
166.9368853877
 31
0.0
  0
LINE
  5
134
330
1F
100
AcDbEntity
  8
SLD-0
  6
HIDDEN
 62
   179
100
AcDbLine
 10
87.6382287292
 20
166.9368853877
 30
0.0
 11
87.2005313335
 21
166.9689869127
 31
0.0
  0
LINE
  5
135
330
1F
100
AcDbEntity
  8
SLD-0
  6
HIDDEN
 62
   179
100
AcDbLine
 10
87.2005313335
 20
166.9689869127
 30
0.0
 11
86.772203043
 21
167.0646041716
 31
0.0
  0
LINE
  5
136
330
1F
100
AcDbEntity
  8
SLD-0
  6
HIDDEN
 62
   179
100
AcDbLine
 10
86.772203043
 20
167.0646041716
 30
0.0
 11
86.3624080716
 21
167.2216908159
 31
0.0
  0
LINE
  5
137
330
1F
100
AcDbEntity
  8
SLD-0
  6
HIDDEN
 62
   179
100
AcDbLine
 10
86.3624080716
 20
167.2216908159
 30
0.0
 11
85.9799138902
 21
167.4368854697
 31
0.0
  0
LINE
  5
138
330
1F
100
AcDbEntity
  8
SLD-0
  6
HIDDEN
 62
   179
100
AcDbLine
 10
84.9414035378
 20
171.2510949551
 30
0.0
 11
85.2588094471
 21
171.7640824468
 31
0.0
  0
LINE
  5
139
330
1F
100
AcDbEntity
  8
SLD-0
  6
HIDDEN
 62
   179
100
AcDbLine
 10
85.2588094471
 20
171.7640824468
 30
0.0
 11
85.5863257943
 21
172.1098067323
 31
0.0
  0
LINE
  5
13A
330
1F
100
AcDbEntity
  8
SLD-0
  6
HIDDEN
 62
   179
100
AcDbLine
 10
85.9313845335
 20
172.3965560636
 30
0.0
 11
85.9950646459
 21
172.4437666676
 31
0.0
  0
LINE
  5
13B
330
1F
100
AcDbEntity
  8
SLD-0
  6
HIDDEN
 62
   179
100
AcDbLine
 10
89.2870496659
 20
172.4418029739
 30
0.0
 11
89.3659420012
 21
172.3792113448
 31
0.0
  0
LINE
  5
13C
330
1F
100
AcDbEntity
  8
SLD-0
  6
HIDDEN
 62
   179
100
AcDbLine
 10
89.7541992067
 20
172.0565662804
 30
0.0
 11
90.0471727996
 21
171.7212501066
 31
0.0
  0
LINE
  5
13D
330
1F
100
AcDbEntity
  8
SLD-0
  6
HIDDEN
 62
   179
100
AcDbLine
 10
90.1426873802
 20
171.5711075199
 30
0.0
 11
90.3350501953
 21
171.2510949551
 31
0.0
  0
LINE
  5
13E
330
1F
100
AcDbEntity
  8
SLD-0
  6
HIDDEN
 62
   179
100
AcDbLine
 10
90.3350501953
 20
168.6226758725
 30
0.0
 11
90.0176461487
 21
168.1096883808
 31
0.0
  0
LINE
  5
13F
330
1F
100
AcDbEntity
  8
SLD-0
  6
HIDDEN
 62
   179
100
AcDbLine
 10
90.0176461487
 20
168.1096883808
 30
0.0
 11
89.6901316641
 21
167.7639640952
 31
0.0
  0
LINE
  5
140
330
1F
100
AcDbEntity
  8
SLD-0
  6
HIDDEN
 62
   179
100
AcDbLine
 10
89.3450710623
 20
167.4772147639
 30
0.0
 11
89.2813890873
 21
167.43000416
 31
0.0
  0
LINE
  5
141
330
1F
100
AcDbEntity
  8
SLD-0
  6
HIDDEN
 62
   179
100
AcDbLine
 10
85.9894059299
 20
167.4319678536
 30
0.0
 11
85.910511732
 21
167.4945594827
 31
0.0
  0
LINE
  5
142
330
1F
100
AcDbEntity
  8
SLD-0
  6
HIDDEN
 62
   179
100
AcDbLine
 10
85.5222582518
 20
167.8172045472
 30
0.0
 11
85.2292827962
 21
168.1525207209
 31
0.0
  0
LINE
  5
143
330
1F
100
AcDbEntity
  8
SLD-0
  6
HIDDEN
 62
   179
100
AcDbLine
 10
85.1337700783
 20
168.3026633077
 30
0.0
 11
84.9414035378
 21
168.6226758725
 31
0.0
  0
LINE
  5
144
330
1F
100
AcDbEntity
  8
SLD-0
  6
Continuous
 62
   179
100
AcDbLine
 10
90.1382282077
 20
127.9061107541
 30
0.0
 11
115.1382281145
 21
127.9061107541
 31
0.0
  0
LINE
  5
145
330
1F
100
AcDbEntity
  8
SLD-0
  6
Continuous
 62
   179
100
AcDbLine
 10
150.1382268666
 20
127.9061107541
 30
0.0
 11
155.1382280587
 21
127.9061108502
 31
0.0
  0
LINE
  5
146
330
1F
100
AcDbEntity
  8
SLD-0
  6
Continuous
 62
   179
100
AcDbLine
 10
120.1382280028
 20
127.9061107541
 30
0.0
 11
145.1382279097
 21
127.9061107541
 31
0.0
  0
LINE
  5
147
330
1F
100
AcDbEntity
  8
SLD-0
  6
Continuous
 62
   179
100
AcDbLine
 10
80.1382280587
 20
127.9061108502
 30
0.0
 11
85.1382292508
 21
127.9061107541
 31
0.0
  0
LINE
  5
148
330
1F
100
AcDbEntity
  8
SLD-0
  6
Continuous
 62
   179
100
AcDbLine
 10
155.1382280587
 20
134.3061108502
 30
0.0
 11
80.1382280587
 21
134.3061108502
 31
0.0
  0
LINE
  5
149
330
1F
100
AcDbEntity
  8
SLD-0
  6
Continuous
 62
   179
100
AcDbLine
 10
155.1382280587
 20
134.3061108502
 30
0.0
 11
155.1382280587
 21
133.5914918268
 31
0.0
  0
LINE
  5
14A
330
1F
100
AcDbEntity
  8
SLD-0
  6
Continuous
 62
   179
100
AcDbLine
 10
80.1382280587
 20
134.3061108502
 30
0.0
 11
80.1382280587
 21
133.5914918268
 31
0.0
  0
LINE
  5
14B
330
1F
100
AcDbEntity
  8
SLD-0
  6
Continuous
 62
   179
100
AcDbLine
 10
155.1382280587
 20
133.5914918268
 30
0.0
 11
155.1382280587
 21
128.3985123182
 31
0.0
  0
LINE
  5
14C
330
1F
100
AcDbEntity
  8
SLD-0
  6
Continuous
 62
   179
100
AcDbLine
 10
80.1382280587
 20
133.5914918268
 30
0.0
 11
80.1382280587
 21
128.3985123182
 31
0.0
  0
LINE
  5
14D
330
1F
100
AcDbEntity
  8
SLD-0
  6
Continuous
 62
   179
100
AcDbLine
 10
155.1382280587
 20
128.3985123182
 30
0.0
 11
155.1382280587
 21
127.9061108502
 31
0.0
  0
LINE
  5
14E
330
1F
100
AcDbEntity
  8
SLD-0
  6
Continuous
 62
   179
100
AcDbLine
 10
80.1382280587
 20
128.3985123182
 30
0.0
 11
80.1382280587
 21
127.9061108502
 31
0.0
  0
LINE
  5
14F
330
1F
100
AcDbEntity
  8
SLD-0
  6
HIDDEN
 62
     8
100
AcDbLine
 10
155.1382280587
 20
134.3061108502
 30
0.0
 11
80.1382280587
 21
134.3061108502
 31
0.0
  0
LINE
  5
150
330
1F
100
AcDbEntity
  8
SLD-0
  6
HIDDEN
 62
     8
100
AcDbLine
 10
155.1382280587
 20
134.2182428845
 30
0.0
 11
155.1382280587
 21
134.3061108502
 31
0.0
  0
LINE
  5
151
330
1F
100
AcDbEntity
  8
SLD-0
  6
HIDDEN
 62
     8
100
AcDbLine
 10
80.1382280587
 20
134.2182428845
 30
0.0
 11
80.1382280587
 21
134.3061108502
 31
0.0
  0
LINE
  5
152
330
1F
100
AcDbEntity
  8
SLD-0
  6
HIDDEN
 62
     8
100
AcDbLine
 10
155.1382280587
 20
133.6939788158
 30
0.0
 11
155.1382280587
 21
134.2182428845
 31
0.0
  0
LINE
  5
153
330
1F
100
AcDbEntity
  8
SLD-0
  6
HIDDEN
 62
     8
100
AcDbLine
 10
80.1382280587
 20
133.6939788158
 30
0.0
 11
80.1382280587
 21
134.2182428845
 31
0.0
  0
LINE
  5
154
330
1F
100
AcDbEntity
  8
SLD-0
  6
HIDDEN
 62
     8
100
AcDbLine
 10
146.2631612717
 20
133.693978814
 30
0.0
 11
146.0902183948
 21
133.6191058796
 31
0.0
  0
LINE
  5
155
330
1F
100
AcDbEntity
  8
SLD-0
  6
HIDDEN
 62
     8
100
AcDbLine
 10
146.0902183948
 20
133.6191058796
 30
0.0
 11
145.9854688196
 21
133.6061108502
 31
0.0
  0
LINE
  5
156
330
1F
100
AcDbEntity
  8
SLD-0
  6
HIDDEN
 62
     8
100
AcDbLine
 10
145.9854688196
 20
133.6061108502
 30
0.0
 11
145.1493311374
 21
133.6061108502
 31
0.0
  0
LINE
  5
157
330
1F
100
AcDbEntity
  8
SLD-0
  6
HIDDEN
 62
     8
100
AcDbLine
 10
145.9854688196
 20
133.6061108502
 30
0.0
 11
146.1691759227
 21
133.6446535512
 31
0.0
  0
LINE
  5
158
330
1F
100
AcDbEntity
  8
SLD-0
  6
HIDDEN
 62
     8
100
AcDbLine
 10
146.1691759227
 20
133.6446535512
 30
0.0
 11
146.2631612717
 21
133.693978814
 31
0.0
  0
LINE
  5
159
330
1F
100
AcDbEntity
  8
SLD-0
  6
HIDDEN
 62
     8
100
AcDbLine
 10
149.0132935046
 20
133.693978814
 30
0.0
 11
149.1862401067
 21
133.6191058796
 31
0.0
  0
LINE
  5
15A
330
1F
100
AcDbEntity
  8
SLD-0
  6
HIDDEN
 62
     8
100
AcDbLine
 10
149.1862401067
 20
133.6191058796
 30
0.0
 11
149.2909878193
 21
133.6061108502
 31
0.0
  0
LINE
  5
15B
330
1F
100
AcDbEntity
  8
SLD-0
  6
HIDDEN
 62
     8
100
AcDbLine
 10
149.2909878193
 20
133.6061108502
 30
0.0
 11
150.1271255015
 21
133.6061108502
 31
0.0
  0
LINE
  5
15C
330
1F
100
AcDbEntity
  8
SLD-0
  6
HIDDEN
 62
     8
100
AcDbLine
 10
149.2909878193
 20
133.6061108502
 30
0.0
 11
149.1072788535
 21
133.6446535512
 31
0.0
  0
LINE
  5
15D
330
1F
100
AcDbEntity
  8
SLD-0
  6
HIDDEN
 62
     8
100
AcDbLine
 10
149.1072788535
 20
133.6446535512
 30
0.0
 11
149.0132935046
 21
133.693978814
 31
0.0
  0
LINE
  5
15E
330
1F
100
AcDbEntity
  8
SLD-0
  6
HIDDEN
 62
     8
100
AcDbLine
 10
119.2909877859
 20
133.6061108502
 30
0.0
 11
120.1271257064
 21
133.6061108502
 31
0.0
  0
LINE
  5
15F
330
1F
100
AcDbEntity
  8
SLD-0
  6
HIDDEN
 62
     8
100
AcDbLine
 10
119.2909877859
 20
133.6061108502
 30
0.0
 11
119.1072794076
 21
133.6446535512
 31
0.0
  0
LINE
  5
160
330
1F
100
AcDbEntity
  8
SLD-0
  6
HIDDEN
 62
     8
100
AcDbLine
 10
119.1072794076
 20
133.6446535512
 30
0.0
 11
119.0132944079
 21
133.693978814
 31
0.0
  0
LINE
  5
161
330
1F
100
AcDbEntity
  8
SLD-0
  6
HIDDEN
 62
     8
100
AcDbLine
 10
116.2631617094
 20
133.693978814
 30
0.0
 11
116.0902177848
 21
133.6191058796
 31
0.0
  0
LINE
  5
162
330
1F
100
AcDbEntity
  8
SLD-0
  6
HIDDEN
 62
     8
100
AcDbLine
 10
116.0902177848
 20
133.6191058796
 30
0.0
 11
115.985468326
 21
133.6061108502
 31
0.0
  0
LINE
  5
163
330
1F
100
AcDbEntity
  8
SLD-0
  6
HIDDEN
 62
     8
100
AcDbLine
 10
115.985468326
 20
133.6061108502
 30
0.0
 11
115.149330411
 21
133.6061108502
 31
0.0
  0
LINE
  5
164
330
1F
100
AcDbEntity
  8
SLD-0
  6
HIDDEN
 62
     8
100
AcDbLine
 10
115.985468326
 20
133.6061108502
 30
0.0
 11
116.1691767097
 21
133.6446535512
 31
0.0
  0
LINE
  5
165
330
1F
100
AcDbEntity
  8
SLD-0
  6
HIDDEN
 62
     8
100
AcDbLine
 10
116.1691767097
 20
133.6446535512
 30
0.0
 11
116.2631617094
 21
133.693978814
 31
0.0
  0
LINE
  5
166
330
1F
100
AcDbEntity
  8
SLD-0
  6
HIDDEN
 62
     8
100
AcDbLine
 10
119.0132944079
 20
133.693978814
 30
0.0
 11
119.1862383325
 21
133.6191058796
 31
0.0
  0
LINE
  5
167
330
1F
100
AcDbEntity
  8
SLD-0
  6
HIDDEN
 62
     8
100
AcDbLine
 10
119.1862383325
 20
133.6191058796
 30
0.0
 11
119.2909877859
 21
133.6061108502
 31
0.0
  0
LINE
  5
168
330
1F
100
AcDbEntity
  8
SLD-0
  6
HIDDEN
 62
     8
100
AcDbLine
 10
89.2909877859
 20
133.6061108502
 30
0.0
 11
90.1271249799
 21
133.6061108502
 31
0.0
  0
LINE
  5
169
330
1F
100
AcDbEntity
  8
SLD-0
  6
HIDDEN
 62
     8
100
AcDbLine
 10
89.2909877859
 20
133.6061108502
 30
0.0
 11
89.1072801946
 21
133.6446535512
 31
0.0
  0
LINE
  5
16A
330
1F
100
AcDbEntity
  8
SLD-0
  6
HIDDEN
 62
     8
100
AcDbLine
 10
89.1072801946
 20
133.6446535512
 30
0.0
 11
89.0132948457
 21
133.693978814
 31
0.0
  0
LINE
  5
16B
330
1F
100
AcDbEntity
  8
SLD-0
  6
HIDDEN
 62
     8
100
AcDbLine
 10
86.2631626128
 20
133.693978814
 30
0.0
 11
86.0902160107
 21
133.6191058796
 31
0.0
  0
LINE
  5
16C
330
1F
100
AcDbEntity
  8
SLD-0
  6
HIDDEN
 62
     8
100
AcDbLine
 10
86.0902160107
 20
133.6191058796
 30
0.0
 11
85.985468298
 21
133.6061108502
 31
0.0
  0
LINE
  5
16D
330
1F
100
AcDbEntity
  8
SLD-0
  6
HIDDEN
 62
     8
100
AcDbLine
 10
85.985468298
 20
133.6061108502
 30
0.0
 11
85.1493306158
 21
133.6061108502
 31
0.0
  0
LINE
  5
16E
330
1F
100
AcDbEntity
  8
SLD-0
  6
HIDDEN
 62
     8
100
AcDbLine
 10
85.985468298
 20
133.6061108502
 30
0.0
 11
86.1691772638
 21
133.6446535512
 31
0.0
  0
LINE
  5
16F
330
1F
100
AcDbEntity
  8
SLD-0
  6
HIDDEN
 62
     8
100
AcDbLine
 10
86.1691772638
 20
133.6446535512
 30
0.0
 11
86.2631626128
 21
133.693978814
 31
0.0
  0
LINE
  5
170
330
1F
100
AcDbEntity
  8
SLD-0
  6
HIDDEN
 62
     8
100
AcDbLine
 10
89.0132948457
 20
133.693978814
 30
0.0
 11
89.1862377225
 21
133.6191058796
 31
0.0
  0
LINE
  5
171
330
1F
100
AcDbEntity
  8
SLD-0
  6
HIDDEN
 62
     8
100
AcDbLine
 10
89.1862377225
 20
133.6191058796
 30
0.0
 11
89.2909877859
 21
133.6061108502
 31
0.0
  0
LINE
  5
172
330
1F
100
AcDbEntity
  8
SLD-0
  6
HIDDEN
 62
     8
100
AcDbLine
 10
85.985468298
 20
133.6061108502
 30
0.0
 11
80.1382280587
 21
133.6061108502
 31
0.0
  0
LINE
  5
173
330
1F
100
AcDbEntity
  8
SLD-0
  6
HIDDEN
 62
     8
100
AcDbLine
 10
80.1382280587
 20
133.6061108502
 30
0.0
 11
80.1382280587
 21
133.6939788158
 31
0.0
  0
LINE
  5
174
330
1F
100
AcDbEntity
  8
SLD-0
  6
HIDDEN
 62
     8
100
AcDbLine
 10
155.1382280587
 20
133.6061108502
 30
0.0
 11
149.2909878193
 21
133.6061108502
 31
0.0
  0
LINE
  5
175
330
1F
100
AcDbEntity
  8
SLD-0
  6
HIDDEN
 62
     8
100
AcDbLine
 10
155.1382280587
 20
133.6061108502
 30
0.0
 11
155.1382280587
 21
133.6939788158
 31
0.0
  0
LINE
  5
176
330
1F
100
AcDbEntity
  8
SLD-0
  6
HIDDEN
 62
     8
100
AcDbLine
 10
115.985468326
 20
133.6061108502
 30
0.0
 11
89.2909877859
 21
133.6061108502
 31
0.0
  0
LINE
  5
177
330
1F
100
AcDbEntity
  8
SLD-0
  6
HIDDEN
 62
     8
100
AcDbLine
 10
145.9854688196
 20
133.6061108502
 30
0.0
 11
119.2909877859
 21
133.6061108502
 31
0.0
  0
LINE
  5
178
330
1F
100
AcDbEntity
  8
SLD-0
  6
HIDDEN
 62
     8
100
AcDbLine
 10
155.1382280587
 20
127.9061108502
 30
0.0
 11
155.1382280587
 21
128.3985123182
 31
0.0
  0
LINE
  5
179
330
1F
100
AcDbEntity
  8
SLD-0
  6
HIDDEN
 62
     8
100
AcDbLine
 10
80.1382280587
 20
127.9061108502
 30
0.0
 11
80.1382280587
 21
128.3985123182
 31
0.0
  0
LINE
  5
17A
330
1F
100
AcDbEntity
  8
SLD-0
  6
HIDDEN
 62
     8
100
AcDbLine
 10
155.1382280587
 20
128.3985123182
 30
0.0
 11
155.1382280587
 21
133.5914918268
 31
0.0
  0
LINE
  5
17B
330
1F
100
AcDbEntity
  8
SLD-0
  6
HIDDEN
 62
     8
100
AcDbLine
 10
80.1382280587
 20
128.3985123182
 30
0.0
 11
80.1382280587
 21
133.5914918268
 31
0.0
  0
LINE
  5
17C
330
1F
100
AcDbEntity
  8
SLD-0
  6
HIDDEN
 62
     8
100
AcDbLine
 10
85.985468298
 20
133.6061108502
 30
0.0
 11
80.1382280587
 21
133.6061108502
 31
0.0
  0
LINE
  5
17D
330
1F
100
AcDbEntity
  8
SLD-0
  6
HIDDEN
 62
     8
100
AcDbLine
 10
80.1382280587
 20
133.6939788158
 30
0.0
 11
80.1382280587
 21
133.6061108502
 31
0.0
  0
LINE
  5
17E
330
1F
100
AcDbEntity
  8
SLD-0
  6
HIDDEN
 62
     8
100
AcDbLine
 10
155.1382280587
 20
133.6061108502
 30
0.0
 11
149.2909878193
 21
133.6061108502
 31
0.0
  0
LINE
  5
17F
330
1F
100
AcDbEntity
  8
SLD-0
  6
HIDDEN
 62
     8
100
AcDbLine
 10
155.1382280587
 20
133.6939788158
 30
0.0
 11
155.1382280587
 21
133.6061108502
 31
0.0
  0
LINE
  5
180
330
1F
100
AcDbEntity
  8
SLD-0
  6
HIDDEN
 62
     8
100
AcDbLine
 10
115.985468326
 20
133.6061108502
 30
0.0
 11
89.2909877859
 21
133.6061108502
 31
0.0
  0
LINE
  5
181
330
1F
100
AcDbEntity
  8
SLD-0
  6
HIDDEN
 62
     8
100
AcDbLine
 10
145.9854688196
 20
133.6061108502
 30
0.0
 11
119.2909877859
 21
133.6061108502
 31
0.0
  0
LINE
  5
182
330
1F
100
AcDbEntity
  8
SLD-0
  6
HIDDEN
 62
     8
100
AcDbLine
 10
155.1382280587
 20
134.2182428845
 30
0.0
 11
155.1382280587
 21
133.6939788158
 31
0.0
  0
LINE
  5
183
330
1F
100
AcDbEntity
  8
SLD-0
  6
HIDDEN
 62
     8
100
AcDbLine
 10
80.1382280587
 20
134.2182428845
 30
0.0
 11
80.1382280587
 21
133.6939788158
 31
0.0
  0
LINE
  5
184
330
1F
100
AcDbEntity
  8
SLD-0
  6
HIDDEN
 62
     8
100
AcDbLine
 10
155.1382280587
 20
134.3061108502
 30
0.0
 11
80.1382280587
 21
134.3061108502
 31
0.0
  0
LINE
  5
185
330
1F
100
AcDbEntity
  8
SLD-0
  6
HIDDEN
 62
     8
100
AcDbLine
 10
155.1382280587
 20
134.3061108502
 30
0.0
 11
155.1382280587
 21
134.2182428845
 31
0.0
  0
LINE
  5
186
330
1F
100
AcDbEntity
  8
SLD-0
  6
HIDDEN
 62
     8
100
AcDbLine
 10
80.1382280587
 20
134.3061108502
 30
0.0
 11
80.1382280587
 21
134.2182428845
 31
0.0
  0
LINE
  5
187
330
1F
100
AcDbEntity
  8
SLD-0
  6
HIDDEN
 62
     8
100
AcDbLine
 10
155.1382280587
 20
134.3061108502
 30
0.0
 11
80.1382280587
 21
134.3061108502
 31
0.0
  0
LINE
  5
188
330
1F
100
AcDbEntity
  8
SLD-0
  6
HIDDEN
 62
     8
100
AcDbLine
 10
155.1382280587
 20
133.5914918268
 30
0.0
 11
155.1382280587
 21
134.3061108502
 31
0.0
  0
LINE
  5
189
330
1F
100
AcDbEntity
  8
SLD-0
  6
HIDDEN
 62
     8
100
AcDbLine
 10
80.1382280587
 20
133.5914918268
 30
0.0
 11
80.1382280587
 21
134.3061108502
 31
0.0
  0
LINE
  5
18A
330
1F
100
AcDbEntity
  8
SLD-0
 62
   179
100
AcDbLine
 10
150.6275959013
 20
127.9221481288
 30
0.0
 11
150.6048157512
 21
127.9565898346
 31
0.0
  0
LINE
  5
18B
330
1F
100
AcDbEntity
  8
SLD-0
 62
   179
100
AcDbLine
 10
150.6048157512
 20
127.9565898346
 30
0.0
 11
150.3350525795
 21
128.3985121751
 31
0.0
  0
LINE
  5
18C
330
1F
100
AcDbEntity
  8
SLD-0
 62
   179
100
AcDbLine
 10
144.941405922
 20
128.3985121751
 30
0.0
 11
144.7415664493
 21
128.0647401342
 31
0.0
  0
LINE
  5
18D
330
1F
100
AcDbEntity
  8
SLD-0
 62
   179
100
AcDbLine
 10
144.7415664493
 20
128.0647401342
 30
0.0
 11
144.6488607375
 21
127.9221481288
 31
0.0
  0
LINE
  5
18E
330
1F
100
AcDbEntity
  8
SLD-0
 62
   179
100
AcDbLine
 10
150.3350525795
 20
128.3985121751
 30
0.0
 11
150.0176466702
 21
128.8659415783
 31
0.0
  0
LINE
  5
18F
330
1F
100
AcDbEntity
  8
SLD-0
 62
   179
100
AcDbLine
 10
150.0176466702
 20
128.8659415783
 30
0.0
 11
149.5916895269
 21
129.3105577694
 31
0.0
  0
LINE
  5
190
330
1F
100
AcDbEntity
  8
SLD-0
 62
   179
100
AcDbLine
 10
149.5916895269
 20
129.3105577694
 30
0.0
 11
149.2494620083
 21
129.5778939145
 31
0.0
  0
LINE
  5
191
330
1F
100
AcDbEntity
  8
SLD-0
 62
   179
100
AcDbLine
 10
149.2494620083
 20
129.5778939145
 30
0.0
 11
148.8568219988
 21
129.8095697181
 31
0.0
  0
LINE
  5
192
330
1F
100
AcDbEntity
  8
SLD-0
 62
   179
100
AcDbLine
 10
148.8568219988
 20
129.8095697181
 30
0.0
 11
148.1602094768
 21
130.0531769281
 31
0.0
  0
LINE
  5
193
330
1F
100
AcDbEntity
  8
SLD-0
 62
   179
100
AcDbLine
 10
148.1602094768
 20
130.0531769281
 30
0.0
 11
147.7769571988
 21
130.1025691552
 31
0.0
  0
LINE
  5
194
330
1F
100
AcDbEntity
  8
SLD-0
 62
   179
100
AcDbLine
 10
147.7769571988
 20
130.1025691552
 30
0.0
 11
147.38852863
 21
130.0946061144
 31
0.0
  0
LINE
  5
195
330
1F
100
AcDbEntity
  8
SLD-0
 62
   179
100
AcDbLine
 10
147.38852863
 20
130.0946061144
 30
0.0
 11
146.7522769867
 21
129.9512208549
 31
0.0
  0
LINE
  5
196
330
1F
100
AcDbEntity
  8
SLD-0
 62
   179
100
AcDbLine
 10
146.7522769867
 20
129.9512208549
 30
0.0
 11
146.354745671
 21
129.7761859948
 31
0.0
  0
LINE
  5
197
330
1F
100
AcDbEntity
  8
SLD-0
 62
   179
100
AcDbLine
 10
146.354745671
 20
129.7761859948
 30
0.0
 11
145.9991853385
 21
129.5585787499
 31
0.0
  0
LINE
  5
198
330
1F
100
AcDbEntity
  8
SLD-0
 62
   179
100
AcDbLine
 10
145.9991853385
 20
129.5585787499
 30
0.0
 11
145.5638739912
 21
129.1991105879
 31
0.0
  0
LINE
  5
199
330
1F
100
AcDbEntity
  8
SLD-0
 62
   179
100
AcDbLine
 10
145.5638739912
 20
129.1991105879
 30
0.0
 11
145.2124207912
 21
128.8068743067
 31
0.0
  0
LINE
  5
19A
330
1F
100
AcDbEntity
  8
SLD-0
 62
   179
100
AcDbLine
 10
145.2124207912
 20
128.8068743067
 30
0.0
 11
144.941405922
 21
128.3985121751
 31
0.0
  0
LINE
  5
19B
330
1F
100
AcDbEntity
  8
SLD-0
 62
   179
100
AcDbLine
 10
120.6275958734
 20
127.9221481288
 30
0.0
 11
120.6048138606
 21
127.9565898346
 31
0.0
  0
LINE
  5
19C
330
1F
100
AcDbEntity
  8
SLD-0
 62
   179
100
AcDbLine
 10
120.6048138606
 20
127.9565898346
 30
0.0
 11
120.3350509217
 21
128.3985121751
 31
0.0
  0
LINE
  5
19D
330
1F
100
AcDbEntity
  8
SLD-0
 62
   179
100
AcDbLine
 10
114.9414051956
 20
128.3985121751
 30
0.0
 11
114.741566887
 21
128.0647401342
 31
0.0
  0
LINE
  5
19E
330
1F
100
AcDbEntity
  8
SLD-0
 62
   179
100
AcDbLine
 10
114.741566887
 20
128.0647401342
 30
0.0
 11
114.6488602439
 21
127.9221481288
 31
0.0
  0
LINE
  5
19F
330
1F
100
AcDbEntity
  8
SLD-0
 62
   179
100
AcDbLine
 10
120.3350509217
 20
128.3985121751
 30
0.0
 11
120.0176452453
 21
128.8659415783
 31
0.0
  0
LINE
  5
1A0
330
1F
100
AcDbEntity
  8
SLD-0
 62
   179
100
AcDbLine
 10
120.0176452453
 20
128.8659415783
 30
0.0
 11
119.5916906631
 21
129.3105577694
 31
0.0
  0
LINE
  5
1A1
330
1F
100
AcDbEntity
  8
SLD-0
 62
   179
100
AcDbLine
 10
119.5916906631
 20
129.3105577694
 30
0.0
 11
119.2494633774
 21
129.5778939145
 31
0.0
  0
LINE
  5
1A2
330
1F
100
AcDbEntity
  8
SLD-0
 62
   179
100
AcDbLine
 10
119.2494633774
 20
129.5778939145
 30
0.0
 11
118.856821738
 21
129.8095697181
 31
0.0
  0
LINE
  5
1A3
330
1F
100
AcDbEntity
  8
SLD-0
 62
   179
100
AcDbLine
 10
118.856821738
 20
129.8095697181
 30
0.0
 11
118.1602098563
 21
130.0531769281
 31
0.0
  0
LINE
  5
1A4
330
1F
100
AcDbEntity
  8
SLD-0
 62
   179
100
AcDbLine
 10
118.1602098563
 20
130.0531769281
 30
0.0
 11
117.7769579858
 21
130.1025691552
 31
0.0
  0
LINE
  5
1A5
330
1F
100
AcDbEntity
  8
SLD-0
 62
   179
100
AcDbLine
 10
117.7769579858
 20
130.1025691552
 30
0.0
 11
117.3885292423
 21
130.0946061144
 31
0.0
  0
LINE
  5
1A6
330
1F
100
AcDbEntity
  8
SLD-0
 62
   179
100
AcDbLine
 10
117.3885292423
 20
130.0946061144
 30
0.0
 11
116.7522769587
 21
129.9512208549
 31
0.0
  0
LINE
  5
1A7
330
1F
100
AcDbEntity
  8
SLD-0
 62
   179
100
AcDbLine
 10
116.7522769587
 20
129.9512208549
 30
0.0
 11
116.3547456431
 21
129.7761859948
 31
0.0
  0
LINE
  5
1A8
330
1F
100
AcDbEntity
  8
SLD-0
 62
   179
100
AcDbLine
 10
116.3547456431
 20
129.7761859948
 30
0.0
 11
115.9991847285
 21
129.5585787499
 31
0.0
  0
LINE
  5
1A9
330
1F
100
AcDbEntity
  8
SLD-0
 62
   179
100
AcDbLine
 10
115.9991847285
 20
129.5585787499
 30
0.0
 11
115.563873032
 21
129.1991105879
 31
0.0
  0
LINE
  5
1AA
330
1F
100
AcDbEntity
  8
SLD-0
 62
   179
100
AcDbLine
 10
115.563873032
 20
129.1991105879
 30
0.0
 11
115.2124200648
 21
128.8068743067
 31
0.0
  0
LINE
  5
1AB
330
1F
100
AcDbEntity
  8
SLD-0
 62
   179
100
AcDbLine
 10
115.2124200648
 20
128.8068743067
 30
0.0
 11
114.9414051956
 21
128.3985121751
 31
0.0
  0
LINE
  5
1AC
330
1F
100
AcDbEntity
  8
SLD-0
 62
   179
100
AcDbLine
 10
84.9414035378
 20
128.3985121751
 30
0.0
 11
84.7415677904
 21
128.0647401342
 31
0.0
  0
LINE
  5
1AD
330
1F
100
AcDbEntity
  8
SLD-0
 62
   179
100
AcDbLine
 10
84.7415677904
 20
128.0647401342
 30
0.0
 11
84.648860216
 21
127.9221481288
 31
0.0
  0
LINE
  5
1AE
330
1F
100
AcDbEntity
  8
SLD-0
 62
   179
100
AcDbLine
 10
90.3350501953
 20
128.3985121751
 30
0.0
 11
90.0176461487
 21
128.8659415783
 31
0.0
  0
LINE
  5
1AF
330
1F
100
AcDbEntity
  8
SLD-0
 62
   179
100
AcDbLine
 10
90.0176461487
 20
128.8659415783
 30
0.0
 11
89.591690868
 21
129.3105577694
 31
0.0
  0
LINE
  5
1B0
330
1F
100
AcDbEntity
  8
SLD-0
 62
   179
100
AcDbLine
 10
89.591690868
 20
129.3105577694
 30
0.0
 11
89.2494633494
 21
129.5778939145
 31
0.0
  0
LINE
  5
1B1
330
1F
100
AcDbEntity
  8
SLD-0
 62
   179
100
AcDbLine
 10
89.2494633494
 20
129.5778939145
 30
0.0
 11
88.8568214773
 21
129.8095697181
 31
0.0
  0
LINE
  5
1B2
330
1F
100
AcDbEntity
  8
SLD-0
 62
   179
100
AcDbLine
 10
88.8568214773
 20
129.8095697181
 30
0.0
 11
88.1602089553
 21
130.0531769281
 31
0.0
  0
LINE
  5
1B3
330
1F
100
AcDbEntity
  8
SLD-0
 62
   179
100
AcDbLine
 10
88.1602089553
 20
130.0531769281
 30
0.0
 11
87.7769585399
 21
130.1025691552
 31
0.0
  0
LINE
  5
1B4
330
1F
100
AcDbEntity
  8
SLD-0
 62
   179
100
AcDbLine
 10
87.7769585399
 20
130.1025691552
 30
0.0
 11
87.3885299711
 21
130.0946061144
 31
0.0
  0
LINE
  5
1B5
330
1F
100
AcDbEntity
  8
SLD-0
 62
   179
100
AcDbLine
 10
87.3885299711
 20
130.0946061144
 30
0.0
 11
86.7522764651
 21
129.9512208549
 31
0.0
  0
LINE
  5
1B6
330
1F
100
AcDbEntity
  8
SLD-0
 62
   179
100
AcDbLine
 10
86.7522764651
 20
129.9512208549
 30
0.0
 11
86.3547451495
 21
129.7761859948
 31
0.0
  0
LINE
  5
1B7
330
1F
100
AcDbEntity
  8
SLD-0
 62
   179
100
AcDbLine
 10
86.3547451495
 20
129.7761859948
 30
0.0
 11
85.9991848169
 21
129.5585787499
 31
0.0
  0
LINE
  5
1B8
330
1F
100
AcDbEntity
  8
SLD-0
 62
   179
100
AcDbLine
 10
85.9991848169
 20
129.5585787499
 30
0.0
 11
85.5638734697
 21
129.1991105879
 31
0.0
  0
LINE
  5
1B9
330
1F
100
AcDbEntity
  8
SLD-0
 62
   179
100
AcDbLine
 10
85.5638734697
 20
129.1991105879
 30
0.0
 11
85.2124184071
 21
128.8068743067
 31
0.0
  0
LINE
  5
1BA
330
1F
100
AcDbEntity
  8
SLD-0
 62
   179
100
AcDbLine
 10
85.2124184071
 20
128.8068743067
 30
0.0
 11
84.9414035378
 21
128.3985121751
 31
0.0
  0
LINE
  5
1BB
330
1F
100
AcDbEntity
  8
SLD-0
 62
   179
100
AcDbLine
 10
90.6275953798
 20
127.9221481288
 30
0.0
 11
90.604813367
 21
127.9565898346
 31
0.0
  0
LINE
  5
1BC
330
1F
100
AcDbEntity
  8
SLD-0
 62
   179
100
AcDbLine
 10
90.604813367
 20
127.9565898346
 30
0.0
 11
90.3350501953
 21
128.3985121751
 31
0.0
  0
LINE
  5
1BD
330
1F
100
AcDbEntity
  8
SLD-0
  6
CENTERX2
 62
   179
100
AcDbLine
 10
117.6382280587
 20
126.3985123182
 30
0.0
 11
117.6382280587
 21
135.6939788158
 31
0.0
  0
LINE
  5
1BE
330
1F
100
AcDbEntity
  8
SLD-0
  6
CENTERX2
 62
   179
100
AcDbLine
 10
87.6382280587
 20
126.3985123182
 30
0.0
 11
87.6382280587
 21
135.6939788158
 31
0.0
  0
LINE
  5
1BF
330
1F
100
AcDbEntity
  8
SLD-0
  6
CENTERX2
 62
   179
100
AcDbLine
 10
147.6382280587
 20
126.3985123182
 30
0.0
 11
147.6382280587
 21
135.6939788158
 31
0.0
  0
LINE
  5
1C0
330
1F
100
AcDbEntity
  8
SLD-0
  6
Continuous
 62
   179
100
AcDbLine
 10
55.8360292219
 20
133.6939788158
 30
0.0
 11
56.3602932906
 21
134.2182428845
 31
0.0
  0
LINE
  5
1C1
330
1F
100
AcDbEntity
  8
SLD-0
  6
Continuous
 62
   179
100
AcDbLine
 10
56.572425325
 20
134.3061108502
 30
0.0
 11
58.5481612563
 21
134.3061108502
 31
0.0
  0
LINE
  5
1C2
330
1F
100
AcDbEntity
  8
SLD-0
  6
Continuous
 62
   179
100
AcDbLine
 10
48.9481612563
 20
134.3061108502
 30
0.0
 11
50.9238971876
 21
134.3061108502
 31
0.0
  0
LINE
  5
1C3
330
1F
100
AcDbEntity
  8
SLD-0
  6
Continuous
 62
   179
100
AcDbLine
 10
51.136029222
 20
134.2182428846
 30
0.0
 11
51.6602932906
 21
133.6939788158
 31
0.0
  0
LINE
  5
1C4
330
1F
100
AcDbEntity
  8
SLD-0
  6
Continuous
 62
   179
100
AcDbLine
 10
51.872425325
 20
133.6061108502
 30
0.0
 11
55.6238971876
 21
133.6061108502
 31
0.0
  0
LINE
  5
1C5
330
1F
100
AcDbEntity
  8
SLD-0
 62
   179
100
AcDbLine
 10
56.7481612824
 20
130.0996787956
 30
0.0
 11
56.7481612824
 21
130.1068606896
 31
0.0
  0
LINE
  5
1C6
330
1F
100
AcDbEntity
  8
SLD-0
 62
   179
100
AcDbLine
 10
50.7481612302
 20
130.1068606896
 30
0.0
 11
50.7481612302
 21
130.0996787956
 31
0.0
  0
LINE
  5
1C7
330
1F
100
AcDbEntity
  8
SLD-0
  6
CENTERX2
 62
   179
100
AcDbLine
 10
53.7481612563
 20
126.3985123182
 30
0.0
 11
53.7481612563
 21
135.6939788158
 31
0.0
  0
ARC
  5
1C8
330
1F
100
AcDbEntity
  8
SLD-0
  6
Continuous
 62
   179
100
AcDbCircle
 10
147.6382273881
 20
169.9368864629
 30
0.0
 40
2.499999088900019
100
AcDbArc
 50
56.6311589145
 51
123.3688410855
  0
ARC
  5
1C9
330
1F
100
AcDbEntity
  8
SLD-0
  6
Continuous
 62
   179
100
AcDbCircle
 10
117.6382280587
 20
169.9368852798
 30
0.0
 40
2.500000205099975
100
AcDbArc
 50
56.6311693722
 51
123.3688306278
  0
ARC
  5
1CA
330
1F
100
AcDbEntity
  8
SLD-0
  6
Continuous
 62
   179
100
AcDbCircle
 10
87.6382287292
 20
169.9368855038
 30
0.0
 40
2.499999889900028
100
AcDbArc
 50
56.6311710046
 51
123.3688289954
  0
ARC
  5
1CB
330
1F
100
AcDbEntity
  8
SLD-0
  6
Continuous
 62
   179
100
AcDbCircle
 10
117.6382280587
 20
169.9368852798
 30
0.0
 40
2.499999981280608
100
AcDbArc
 50
236.6311659938
 51
303.3688340061
  0
ARC
  5
1CC
330
1F
100
AcDbEntity
  8
SLD-0
  6
Continuous
 62
   179
100
AcDbCircle
 10
147.6382273881
 20
169.9368864629
 30
0.0
 40
2.500000841216277
100
AcDbArc
 50
236.6311853637
 51
303.3688146363
  0
ARC
  5
1CD
330
1F
100
AcDbEntity
  8
SLD-0
  6
Continuous
 62
   179
100
AcDbCircle
 10
87.6382287292
 20
169.9368855038
 30
0.0
 40
2.500000040216129
100
AcDbArc
 50
236.6311732737
 51
303.3688267263
  0
ARC
  5
1CE
330
1F
100
AcDbEntity
  8
SLD-0
  6
Continuous
 62
   179
100
AcDbCircle
 10
147.6382273881
 20
169.9368864629
 30
0.0
 40
2.50000125589208
100
AcDbArc
 50
311.3841123591
 51
48.6158876409
  0
ARC
  5
1CF
330
1F
100
AcDbEntity
  8
SLD-0
  6
Continuous
 62
   179
100
AcDbCircle
 10
117.6382280587
 20
169.9368852798
 30
0.0
 40
2.500000107375501
100
AcDbArc
 50
311.3841142129
 51
48.6158857871
  0
ARC
  5
1D0
330
1F
100
AcDbEntity
  8
SLD-0
  6
Continuous
 62
   179
100
AcDbCircle
 10
147.6382273881
 20
169.9368864629
 30
0.0
 40
2.500000024454364
100
AcDbArc
 50
131.3840803291
 51
228.6159196709
  0
ARC
  5
1D1
330
1F
100
AcDbEntity
  8
SLD-0
  6
Continuous
 62
   179
100
AcDbCircle
 10
87.6382287292
 20
169.9368855038
 30
0.0
 40
2.500000536284782
100
AcDbArc
 50
131.3841268908
 51
228.6158731092
  0
ARC
  5
1D2
330
1F
100
AcDbEntity
  8
SLD-0
  6
Continuous
 62
   179
100
AcDbCircle
 10
117.6382280587
 20
169.9368852798
 30
0.0
 40
2.500000107441604
100
AcDbArc
 50
131.3841142146
 51
228.6158857854
  0
ARC
  5
1D3
330
1F
100
AcDbEntity
  8
SLD-0
  6
Continuous
 62
   179
100
AcDbCircle
 10
87.6382287292
 20
169.9368855038
 30
0.0
 40
2.499999304846711
100
AcDbArc
 50
311.3840948607
 51
48.6159051393
  0
ARC
  5
1D4
330
1F
100
AcDbEntity
  8
SLD-0
  6
Continuous
 62
   179
100
AcDbCircle
 10
147.6382273881
 20
126.992372363
 30
0.0
 40
2.549525277599998
100
AcDbArc
 50
33.4720444616
 51
146.5279555385
  0
ARC
  5
1D5
330
1F
100
AcDbEntity
  8
SLD-0
  6
Continuous
 62
   179
100
AcDbCircle
 10
117.6382280587
 20
126.9923709254
 30
0.0
 40
2.549526653200014
100
AcDbArc
 50
33.4720627528
 51
146.5279372472
  0
ARC
  5
1D6
330
1F
100
AcDbEntity
  8
SLD-0
  6
Continuous
 62
   179
100
AcDbCircle
 10
87.6382287292
 20
126.992371664
 30
0.0
 40
2.549525663199993
100
AcDbArc
 50
33.4720575659
 51
146.5279424341
  0
ARC
  5
1D7
330
1F
100
AcDbEntity
  8
SLD-0
  6
Continuous
 62
   179
100
AcDbCircle
 10
159.3891588697
 20
135.3071465207
 30
0.0
 40
11.84715465194612
100
AcDbArc
 50
215.6722014751
 51
218.6609040524
  0
ARC
  5
1D8
330
1F
100
AcDbEntity
  8
SLD-0
  6
Continuous
 62
   179
100
AcDbCircle
 10
136.6182477323
 20
134.7529961356
 30
0.0
 40
10.93022880142019
100
AcDbArc
 50
321.2137042165
 51
324.4531902565
  0
ARC
  5
1D9
330
1F
100
AcDbEntity
  8
SLD-0
  6
Continuous
 62
   179
100
AcDbCircle
 10
129.368392393
 20
135.2913976033
 30
0.0
 40
11.82109963222891
100
AcDbArc
 50
215.6688901461
 51
218.6641809727
  0
ARC
  5
1DA
330
1F
100
AcDbEntity
  8
SLD-0
  6
Continuous
 62
   179
100
AcDbCircle
 10
106.6180293791
 20
134.753157624
 30
0.0
 40
10.93050032390423
100
AcDbArc
 50
321.2137620351
 51
324.4531668451
  0
ARC
  5
1DB
330
1F
100
AcDbEntity
  8
SLD-0
  6
Continuous
 62
   179
100
AcDbCircle
 10
99.3891602155
 20
135.3071465243
 30
0.0
 40
11.84715465778186
100
AcDbArc
 50
215.6722014758
 51
218.6609040513
  0
ARC
  5
1DC
330
1F
100
AcDbEntity
  8
SLD-0
  6
Continuous
 62
   179
100
AcDbCircle
 10
76.6182490734
 20
134.7529961356
 30
0.0
 40
10.9302288013878
100
AcDbArc
 50
321.2137042167
 51
324.4531902563
  0
ARC
  5
1DD
330
1F
100
AcDbEntity
  8
SLD-0
  6
HIDDEN
 62
     8
100
AcDbCircle
 10
158.6582070439
 20
134.7529961356
 30
0.0
 40
10.93022880142002
100
AcDbArc
 50
215.5468097435
 51
218.7862957844
  0
ARC
  5
1DE
330
1F
100
AcDbEntity
  8
SLD-0
  6
HIDDEN
 62
     8
100
AcDbCircle
 10
147.6382273881
 20
126.992372363
 30
0.0
 40
2.549525277599998
100
AcDbArc
 50
33.4720444616
 51
146.5279555385
  0
ARC
  5
1DF
330
1F
100
AcDbEntity
  8
SLD-0
  6
HIDDEN
 62
     8
100
AcDbCircle
 10
135.8872958991
 20
135.3071465264
 30
0.0
 40
11.84715466128178
100
AcDbArc
 50
321.3390959492
 51
324.3277985234
  0
ARC
  5
1E0
330
1F
100
AcDbEntity
  8
SLD-0
  6
HIDDEN
 62
     8
100
AcDbCircle
 10
147.6382273881
 20
131.6061117666
 30
0.0
 40
2.499999126499992
100
AcDbArc
 50
56.6311594809
 51
123.3688405171
  0
ARC
  5
1E1
330
1F
100
AcDbEntity
  8
SLD-0
  6
HIDDEN
 62
     8
100
AcDbCircle
 10
147.6382273881
 20
131.6061117666
 30
0.0
 40
2.499999126499992
100
AcDbArc
 50
56.6311594809
 51
123.3688405171
  0
ARC
  5
1E2
330
1F
100
AcDbEntity
  8
SLD-0
  6
HIDDEN
 62
     8
100
AcDbCircle
 10
128.658426738
 20
134.7531576238
 30
0.0
 40
10.93050032355209
100
AcDbArc
 50
215.546833155
 51
218.7862379643
  0
ARC
  5
1E3
330
1F
100
AcDbEntity
  8
SLD-0
  6
HIDDEN
 62
     8
100
AcDbCircle
 10
117.6382280587
 20
126.9923709254
 30
0.0
 40
2.549526653200014
100
AcDbArc
 50
33.4720627528
 51
146.5279372472
  0
ARC
  5
1E4
330
1F
100
AcDbEntity
  8
SLD-0
  6
HIDDEN
 62
     8
100
AcDbCircle
 10
105.9080637293
 20
135.2913975996
 30
0.0
 40
11.82109962608491
100
AcDbArc
 50
321.3358190258
 51
324.3311098546
  0
ARC
  5
1E5
330
1F
100
AcDbEntity
  8
SLD-0
  6
HIDDEN
 62
     8
100
AcDbCircle
 10
117.6382280587
 20
131.6061105835
 30
0.0
 40
2.500000242581668
100
AcDbArc
 50
56.6311699405
 51
123.3688300623
  0
ARC
  5
1E6
330
1F
100
AcDbEntity
  8
SLD-0
  6
HIDDEN
 62
     8
100
AcDbCircle
 10
117.6382280587
 20
131.6061105835
 30
0.0
 40
2.500000242581668
100
AcDbArc
 50
56.6311699405
 51
123.3688300623
  0
ARC
  5
1E7
330
1F
100
AcDbEntity
  8
SLD-0
  6
HIDDEN
 62
     8
100
AcDbCircle
 10
98.658208385
 20
134.7529961356
 30
0.0
 40
10.93022880133835
100
AcDbArc
 50
215.5468097433
 51
218.7862957838
  0
ARC
  5
1E8
330
1F
100
AcDbEntity
  8
SLD-0
  6
HIDDEN
 62
     8
100
AcDbCircle
 10
87.6382287292
 20
126.992371664
 30
0.0
 40
2.549525663199993
100
AcDbArc
 50
33.4720575659
 51
146.5279424341
  0
ARC
  5
1E9
330
1F
100
AcDbEntity
  8
SLD-0
  6
HIDDEN
 62
     8
100
AcDbCircle
 10
75.8872972419
 20
135.3071465251
 30
0.0
 40
11.8471546591117
100
AcDbArc
 50
321.3390959492
 51
324.3277985235
  0
ARC
  5
1EA
330
1F
100
AcDbEntity
  8
SLD-0
  6
HIDDEN
 62
     8
100
AcDbCircle
 10
87.6382287292
 20
131.6061108075
 30
0.0
 40
2.499999927462541
100
AcDbArc
 50
56.6311715699
 51
123.3688284274
  0
ARC
  5
1EB
330
1F
100
AcDbEntity
  8
SLD-0
  6
HIDDEN
 62
     8
100
AcDbCircle
 10
87.6382287292
 20
131.6061108075
 30
0.0
 40
2.499999927462541
100
AcDbArc
 50
56.6311715699
 51
123.3688284274
  0
ARC
  5
1EC
330
1F
100
AcDbEntity
  8
SLD-0
  6
Continuous
 62
   179
100
AcDbCircle
 10
56.572425325
 20
134.0061108502
 30
0.0
 40
0.3000000000000114
100
AcDbArc
 50
90.0
 51
135.0000000119
  0
ARC
  5
1ED
330
1F
100
AcDbEntity
  8
SLD-0
  6
Continuous
 62
   179
100
AcDbCircle
 10
58.5481612563
 20
133.8061108502
 30
0.0
 40
0.5
100
AcDbArc
 50
334.5807856114
 51
90.0
  0
ARC
  5
1EE
330
1F
100
AcDbEntity
  8
SLD-0
  6
Continuous
 62
   179
100
AcDbCircle
 10
44.5486946057
 20
140.4593005739
 30
0.0
 40
16.00000000002608
100
AcDbArc
 50
311.0794373954
 51
334.5807856116
  0
ARC
  5
1EF
330
1F
100
AcDbEntity
  8
SLD-0
  6
Continuous
 62
   179
100
AcDbCircle
 10
53.7481612563
 20
129.9061108502
 30
0.0
 40
2.000000000003255
100
AcDbArc
 50
228.9205626046
 51
311.0794373934
  0
ARC
  5
1F0
330
1F
100
AcDbEntity
  8
SLD-0
  6
Continuous
 62
   179
100
AcDbCircle
 10
62.9476279068
 20
140.4593005739
 30
0.0
 40
16.00000000000001
100
AcDbArc
 50
205.4192143886
 51
228.9205626047
  0
ARC
  5
1F1
330
1F
100
AcDbEntity
  8
SLD-0
  6
Continuous
 62
   179
100
AcDbCircle
 10
48.9481612563
 20
133.8061108502
 30
0.0
 40
0.500000000064232
100
AcDbArc
 50
90.0
 51
205.4192143908
  0
ARC
  5
1F2
330
1F
100
AcDbEntity
  8
SLD-0
  6
Continuous
 62
   179
100
AcDbCircle
 10
50.9238971876
 20
134.0061108502
 30
0.0
 40
0.3000000000000114
100
AcDbArc
 50
45.0
 51
90.0
  0
ARC
  5
1F3
330
1F
100
AcDbEntity
  8
SLD-0
  6
Continuous
 62
   179
100
AcDbCircle
 10
51.872425325
 20
133.9061108502
 30
0.0
 40
0.3000000000622906
100
AcDbArc
 50
225.0
 51
270.0
  0
ARC
  5
1F4
330
1F
100
AcDbEntity
  8
SLD-0
  6
Continuous
 62
   179
100
AcDbCircle
 10
55.6238971876
 20
133.9061108502
 30
0.0
 40
0.3000000000000114
100
AcDbArc
 50
270.0
 51
314.9999999849
  0
DIMENSION
  5
1F5
330
1F
100
AcDbEntity
  8
SLD-0
 62
     7
100
AcDbDimension
  2
*D5
 10
117.6382280587
 20
185.1789543594
 30
0.0
 11
102.6382280587
 21
185.1789543594
 31
0.0
 70
   160
 71
     1
 42
30.0
  3
SLDDIMSTYLE0
100
AcDbAlignedDimension
 13
87.6382280587
 23
174.9368854138
 33
0.0
 14
117.6382280587
 24
174.9368854138
 34
0.0
100
AcDbRotatedDimension
1001
ACAD
1000
DSTYLE
1002
{
1070
    77
1070
     3
1070
   143
1040
0.0393700787
1070
    41
1040
3.0
1070
    44
1040
1.0
1070
    42
1040
1.0
1070
   147
1040
1.524
1070
    73
1070
     0
1070
    74
1070
     0
1070
   140
1040
3.5
1070
   284
1070
    12
1070
    78
1070
    12
1002
}
  0
DIMENSION
  5
212
330
1F
100
AcDbEntity
  8
SLD-0
 62
     7
100
AcDbDimension
  2
*D7
 10
80.1382280587
 20
193.9823803896
 30
0.0
 11
117.6382280587
 21
193.9823803896
 31
0.0
 70
   160
 71
     1
 42
75.0
  3
SLDDIMSTYLE0
100
AcDbAlignedDimension
 13
155.1382280587
 23
175.2368854138
 33
0.0
 14
80.1382280587
 24
175.2368854138
 34
0.0
100
AcDbRotatedDimension
1001
ACAD
1000
DSTYLE
1002
{
1070
    77
1070
     3
1070
   143
1040
0.0393700787
1070
    41
1040
3.0
1070
    44
1040
1.0
1070
    42
1040
1.0
1070
   147
1040
1.524
1070
    73
1070
     0
1070
    74
1070
     0
1070
   140
1040
3.5
1070
   284
1070
    12
1070
    78
1070
    12
1002
}
  0
DIMENSION
  5
229
330
1F
100
AcDbEntity
  8
SLD-0
 62
     7
100
AcDbDimension
  2
*D8
 10
177.4732582353
 20
175.2368854138
 30
0.0
 11
177.4732582353
 21
169.9368854138
 31
0.0
 70
   160
 71
     1
 42
10.6
  3
SLDDIMSTYLE1
100
AcDbAlignedDimension
 13
155.1382280587
 23
164.6368854138
 33
0.0
 14
155.1382280587
 24
175.2368854138
 34
0.0
 50
90.0
100
AcDbRotatedDimension
1001
ACAD
1000
DSTYLE
1002
{
1070
    77
1070
     3
1070
   143
1040
0.0393700787
1070
    41
1040
3.0
1070
    44
1040
1.0
1070
    42
1040
1.0
1070
   147
1040
1.524
1070
    73
1070
     0
1070
    74
1070
     0
1070
   140
1040
3.5
1070
   284
1070
    12
1070
    78
1070
    12
1002
}
  0
DIMENSION
  5
244
330
1F
100
AcDbEntity
  8
SLD-0
 62
     7
100
AcDbDimension
  2
*D9
 10
166.2024064353
 20
164.6368854138
 30
0.0
 11
166.2024064353
 21
157.6503869095
 31
0.0
 70
   160
 71
     1
 42
5.3
  3
SLDDIMSTYLE1
100
AcDbAlignedDimension
 13
122.6382280587
 23
169.9368854138
 33
0.0
 14
155.1382280587
 24
164.6368854138
 34
0.0
 50
90.0
100
AcDbRotatedDimension
1001
ACAD
1000
DSTYLE
1002
{
1070
    77
1070
     3
1070
   143
1040
0.0393700787
1070
    41
1040
3.0
1070
    44
1040
1.0
1070
    42
1040
1.0
1070
   147
1040
1.524
1070
    73
1070
     0
1070
    74
1070
     0
1070
   140
1040
3.5
1070
   284
1070
    12
1070
    78
1070
    12
1002
}
  0
DIMENSION
  5
25F
330
1F
100
AcDbEntity
  8
SLD-0
 62
     7
100
AcDbDimension
  2
*D10
 10
155.1382280587
 20
185.1789543594
 30
0.0
 11
162.9839815452
 21
185.1789543594
 31
0.0
 70
   160
 71
     1
 42
7.5
  3
SLDDIMSTYLE1
100
AcDbAlignedDimension
 13
147.6382280587
 23
174.9368854138
 33
0.0
 14
155.1382280587
 24
175.2368854138
 34
0.0
100
AcDbRotatedDimension
1001
ACAD
1000
DSTYLE
1002
{
1070
    77
1070
     3
1070
   143
1040
0.0393700787
1070
    41
1040
3.0
1070
    44
1040
1.0
1070
    42
1040
1.0
1070
   147
1040
1.524
1070
    73
1070
     0
1070
    74
1070
     0
1070
   140
1040
3.5
1070
   284
1070
    12
1070
    78
1070
    12
1002
}
  0
DIMENSION
  5
27B
330
1F
100
AcDbEntity
  8
SLD-0
 62
     7
100
AcDbDimension
  2
*D11
 10
147.6382280587
 20
185.1789543594
 30
0.0
 11
132.6382280587
 21
185.1789543594
 31
0.0
 70
   160
 71
     1
 42
30.0
  3
SLDDIMSTYLE0
100
AcDbAlignedDimension
 13
117.6382280587
 23
174.9368854138
 33
0.0
 14
147.6382280587
 24
174.9368854138
 34
0.0
100
AcDbRotatedDimension
1001
ACAD
1000
DSTYLE
1002
{
1070
    77
1070
     3
1070
   143
1040
0.0393700787
1070
    41
1040
3.0
1070
    44
1040
1.0
1070
    42
1040
1.0
1070
   147
1040
1.524
1070
    73
1070
     0
1070
    74
1070
     0
1070
   140
1040
3.5
1070
   284
1070
    12
1070
    78
1070
    12
1002
}
  0
MTEXT
  5
292
330
1F
100
AcDbEntity
  8
SLD-0
 62
     7
100
AcDbMText
 10
158.9412885535
 20
16.8983841615
 30
0.0
 40
4.2333333333
 41
0.0
 71
     1
 72
     1
  1
131060
  7
SLDTEXTSTYLE1
 73
     1
 44
1.0
  0
MTEXT
  5
293
330
1F
100
AcDbEntity
  8
SLD-0
 62
     7
100
AcDbMText
 10
147.318199696
 20
29.7138882404
 30
0.0
 40
4.2333333333
 41
0.0
 71
     1
 72
     1
  1
N01914-107-0
  7
SLDTEXTSTYLE1
 73
     1
 44
1.0
  0
MTEXT
  5
294
330
1F
100
AcDbEntity
  8
SLD-0
 62
     7
100
AcDbMText
 10
146.7004461795
 20
43.2377018572
 30
0.0
 40
4.2333333333
 41
0.0
 71
     1
 72
     1
  1
Nut M6-P30x2
  7
SLDTEXTSTYLE1
 73
     1
 44
1.0
  0
INSERT
  5
295
330
1F
100
AcDbEntity
  8
0
  6
Continuous
 62
     7
370
     0
100
AcDbBlockReference
  2
注記
 10
105.9669599193
 20
64.2126835591
 30
0.0
  0
INSERT
  5
296
330
1F
100
AcDbEntity
  8
0
  6
Continuous
 62
     7
370
     0
100
AcDbBlockReference
  2
SW_CENTERMARK0
 10
0.0
 20
0.0
 30
0.0
  0
INSERT
  5
297
330
1F
100
AcDbEntity
  8
0
  6
Continuous
 62
     7
370
     0
100
AcDbBlockReference
  2
SW_CENTERMARK1
 10
0.0
 20
0.0
 30
0.0
  0
INSERT
  5
298
330
1F
100
AcDbEntity
  8
0
  6
Continuous
 62
     7
370
     0
100
AcDbBlockReference
  2
SW_CENTERMARK2
 10
0.0
 20
0.0
 30
0.0
  0
ENDSEC
  0
SECTION
  2
OBJECTS
  0
DICTIONARY
  5
C
330
0
100
AcDbDictionary
281
     1
  3
ACAD_GROUP
350
D
  3
ACAD_LAYOUT
350
1A
  3
ACAD_MLINESTYLE
350
17
  3
ACAD_PLOTSETTINGS
350
19
  3
ACAD_PLOTSTYLENAME
350
E
  0
DICTIONARY
  5
D
102
{ACAD_REACTORS
330
C
102
}
330
C
100
AcDbDictionary
281
     1
  0
DICTIONARY
  5
1A
102
{ACAD_REACTORS
330
C
102
}
330
C
100
AcDbDictionary
281
     1
  3
Layout1
350
1E
  3
Layout2
350
26
  3
Model
350
22
  0
DICTIONARY
  5
17
102
{ACAD_REACTORS
330
C
102
}
330
C
100
AcDbDictionary
281
     1
  3
Standard
350
18
  0
DICTIONARY
  5
19
102
{ACAD_REACTORS
330
C
102
}
330
C
100
AcDbDictionary
281
     1
  0
ACDBDICTIONARYWDFLT
  5
E
102
{ACAD_REACTORS
330
C
102
}
330
C
100
AcDbDictionary
281
     1
  3
Normal
350
F
100
AcDbDictionaryWithDefault
340
F
  0
LAYOUT
  5
1E
102
{ACAD_REACTORS
330
1A
102
}
330
1A
100
AcDbPlotSettings
  1

  2

  4

  6

 40
0.0
 41
0.0
 42
0.0
 43
0.0
 44
0.0
 45
0.0
 46
0.0
 47
0.0
 48
0.0
 49
0.0
140
0.0
141
0.0
142
1.0
143
1.0
 70
   688
 72
     0
 73
     0
 74
     5
  7

 75
    16
147
1.0
148
0.0
149
0.0
100
AcDbLayout
  1
Layout1
 70
     1
 71
     1
 10
0.0
 20
0.0
 11
0.0
 21
0.0
 12
0.0
 22
0.0
 32
0.0
 14
0.0
 24
0.0
 34
0.0
 15
0.0
 25
0.0
 35
0.0
146
0.0
 13
0.0
 23
0.0
 33
0.0
 16
1.0
 26
0.0
 36
0.0
 17
0.0
 27
1.0
 37
0.0
 76
     0
330
1B
  0
LAYOUT
  5
26
102
{ACAD_REACTORS
330
1A
102
}
330
1A
100
AcDbPlotSettings
  1

  2

  4

  6

 40
0.0
 41
0.0
 42
0.0
 43
0.0
 44
0.0
 45
0.0
 46
0.0
 47
0.0
 48
0.0
 49
0.0
140
0.0
141
0.0
142
1.0
143
1.0
 70
   688
 72
     0
 73
     0
 74
     5
  7

 75
    16
147
1.0
148
0.0
149
0.0
100
AcDbLayout
  1
Layout2
 70
     1
 71
     2
 10
0.0
 20
0.0
 11
0.0
 21
0.0
 12
0.0
 22
0.0
 32
0.0
 14
0.0
 24
0.0
 34
0.0
 15
0.0
 25
0.0
 35
0.0
146
0.0
 13
0.0
 23
0.0
 33
0.0
 16
1.0
 26
0.0
 36
0.0
 17
0.0
 27
1.0
 37
0.0
 76
     0
330
23
  0
LAYOUT
  5
22
102
{ACAD_REACTORS
330
1A
102
}
330
1A
100
AcDbPlotSettings
  1

  2

  4

  6

 40
0.0
 41
0.0
 42
0.0
 43
0.0
 44
0.0
 45
0.0
 46
0.0
 47
0.0
 48
0.0
 49
0.0
140
0.0
141
0.0
142
1.0
143
1.0
 70
  1712
 72
     0
 73
     0
 74
     0
  7

 75
     0
147
1.0
148
0.0
149
0.0
100
AcDbLayout
  1
Model
 70
     1
 71
     0
 10
0.0
 20
0.0
 11
0.0
 21
0.0
 12
0.0
 22
0.0
 32
0.0
 14
0.0
 24
0.0
 34
0.0
 15
210.0
 25
297.0
 35
0.0
146
0.0
 13
0.0
 23
0.0
 33
0.0
 16
1.0
 26
0.0
 36
0.0
 17
0.0
 27
1.0
 37
0.0
 76
     0
330
1F
  0
MLINESTYLE
  5
18
102
{ACAD_REACTORS
330
17
102
}
330
17
100
AcDbMlineStyle
  2
Standard
 70
     0
  3

 62
   256
 51
90.0
 52
90.0
 71
     2
 49
0.5
 62
   256
  6
BYLAYER
 49
-0.5
 62
   256
  6
BYLAYER
  0
ACDBPLACEHOLDER
  5
F
102
{ACAD_REACTORS
330
E
102
}
330
E
  0
ENDSEC
  0
EOF
