  0
SECTION
  2
HEADER
  9
$ACADVER
  1
AC1015
  9
$ACADMAINTVER
 70
     6
  9
$DWGCODEPAGE
  3
DOS932
  9
$INSBASE
 10
0.0
 20
0.0
 30
0.0
  9
$EXTMIN
 10
0.0
 20
0.0
 30
0.0
  9
$EXTMAX
 10
210.0
 20
297.0
 30
0.0
  9
$LIMMIN
 10
0.0
 20
0.0
  9
$LIMMAX
 10
0.0
 20
0.0
  9
$ORTHOMODE
 70
     0
  9
$REGENMODE
 70
     1
  9
$FILLMODE
 70
     1
  9
$QTEXTMODE
 70
     0
  9
$MIRRTEXT
 70
     1
  9
$LTSCALE
 40
1.0
  9
$ATTMODE
 70
     1
  9
$TEXTSIZE
 40
3.5
  9
$TRACEWID
 40
1.0
  9
$TEXTSTYLE
  7
Standard
  9
$CLAYER
  8
0
  9
$CELTYPE
  6
ByLayer
  9
$CECOLOR
 62
   256
  9
$CELTSCALE
 40
1.0
  9
$DISPSILH
 70
     0
  9
$DIMSCALE
 40
1.0
  9
$DIMASZ
 40
3.0
  9
$DIMEXO
 40
1.0
  9
$DIMDLI
 40
3.75
  9
$DIMRND
 40
0.0
  9
$DIMDLE
 40
0.0
  9
$DIMEXE
 40
1.0
  9
$DIMTP
 40
0.0
  9
$DIMTM
 40
0.0
  9
$DIMTXT
 40
3.5
  9
$DIMCEN
 40
2.5
  9
$DIMTSZ
 40
0.0
  9
$DIMTOL
 70
     0
  9
$DIMLIM
 70
     0
  9
$DIMTIH
 70
     1
  9
$DIMTOH
 70
     1
  9
$DIMSE1
 70
     0
  9
$DIMSE2
 70
     0
  9
$DIMTAD
 70
     1
  9
$DIMZIN
 70
     1
  9
$DIMBLK
  1

  9
$DIMASO
 70
     1
  9
$DIMSHO
 70
     1
  9
$DIMPOST
  1

  9
$DIMAPOST
  1

  9
$DIMALT
 70
     0
  9
$DIMALTD
 70
     3
  9
$DIMALTF
 40
0.0393700787
  9
$DIMLFAC
 40
1.0
  9
$DIMTOFL
 70
     1
  9
$DIMTVP
 40
0.0
  9
$DIMTIX
 70
     0
  9
$DIMSOXD
 70
     0
  9
$DIMSAH
 70
     0
  9
$DIMBLK1
  1

  9
$DIMBLK2
  1

  9
$DIMSTYLE
  2
ISO-25
  9
$DIMCLRD
 70
     0
  9
$DIMCLRE
 70
     0
  9
$DIMCLRT
 70
     0
  9
$DIMTFAC
 40
1.0
  9
$DIMGAP
 40
1.524
  9
$DIMJUST
 70
     0
  9
$DIMSD1
 70
     0
  9
$DIMSD2
 70
     0
  9
$DIMTOLJ
 70
     0
  9
$DIMTZIN
 70
     1
  9
$DIMALTZ
 70
     0
  9
$DIMALTTZ
 70
     0
  9
$DIMUPT
 70
     0
  9
$DIMDEC
 70
     2
  9
$DIMTDEC
 70
     2
  9
$DIMALTU
 70
     2
  9
$DIMALTTD
 70
     3
  9
$DIMTXSTY
  7
Standard
  9
$DIMAUNIT
 70
     0
  9
$DIMADEC
 70
     0
  9
$DIMALTRND
 40
0.0
  9
$DIMAZIN
 70
     0
  9
$DIMDSEP
 70
    44
  9
$DIMATFIT
 70
     3
  9
$DIMFRAC
 70
     0
  9
$DIMLDRBLK
  1

  9
$DIMLUNIT
 70
     2
  9
$DIMLWD
 70
    -2
  9
$DIMLWE
 70
    -2
  9
$DIMTMOVE
 70
     0
  9
$LUNITS
 70
     2
  9
$LUPREC
 70
     1
  9
$SKETCHINC
 40
1.0
  9
$FILLETRAD
 40
10.0
  9
$AUNITS
 70
     0
  9
$AUPREC
 70
     0
  9
$MENU
  1
.
  9
$ELEVATION
 40
0.0
  9
$PELEVATION
 40
0.0
  9
$THICKNESS
 40
0.0
  9
$LIMCHECK
 70
     0
  9
$CHAMFERA
 40
10.0
  9
$CHAMFERB
 40
10.0
  9
$CHAMFERC
 40
20.0
  9
$CHAMFERD
 40
0.0
  9
$SKPOLY
 70
     0
  9
$TDCREATE
 40
2454314.636109294
  9
$TDUCREATE
 40
2454314.261109294
  9
$TDUPDATE
 40
2454314.636109306
  9
$TDUUPDATE
 40
2454314.261109306
  9
$TDINDWG
 40
0.0000000116
  9
$TDUSRTIMER
 40
0.0000000116
  9
$USRTIMER
 70
     1
  9
$ANGBASE
 50
0.0
  9
$ANGDIR
 70
     0
  9
$PDMODE
 70
     0
  9
$PDSIZE
 40
-1.0
  9
$PLINEWID
 40
0.0
  9
$SPLFRAME
 70
     0
  9
$SPLINETYPE
 70
     6
  9
$SPLINESEGS
 70
     8
  9
$HANDSEED
  5
279
  9
$SURFTAB1
 70
     6
  9
$SURFTAB2
 70
     6
  9
$SURFTYPE
 70
     6
  9
$SURFU
 70
     6
  9
$SURFV
 70
     6
  9
$UCSBASE
  2

  9
$UCSNAME
  2

  9
$UCSORG
 10
0.0
 20
0.0
 30
0.0
  9
$UCSXDIR
 10
1.0
 20
0.0
 30
0.0
  9
$UCSYDIR
 10
0.0
 20
1.0
 30
0.0
  9
$UCSORTHOREF
  2

  9
$UCSORTHOVIEW
 70
     0
  9
$UCSORGTOP
 10
0.0
 20
0.0
 30
0.0
  9
$UCSORGBOTTOM
 10
0.0
 20
0.0
 30
0.0
  9
$UCSORGLEFT
 10
0.0
 20
0.0
 30
0.0
  9
$UCSORGRIGHT
 10
0.0
 20
0.0
 30
0.0
  9
$UCSORGFRONT
 10
0.0
 20
0.0
 30
0.0
  9
$UCSORGBACK
 10
0.0
 20
0.0
 30
0.0
  9
$PUCSBASE
  2

  9
$PUCSNAME
  2

  9
$PUCSORG
 10
0.0
 20
0.0
 30
0.0
  9
$PUCSXDIR
 10
1.0
 20
0.0
 30
0.0
  9
$PUCSYDIR
 10
0.0
 20
1.0
 30
0.0
  9
$PUCSORTHOREF
  2

  9
$PUCSORTHOVIEW
 70
     0
  9
$PUCSORGTOP
 10
0.0
 20
0.0
 30
0.0
  9
$PUCSORGBOTTOM
 10
0.0
 20
0.0
 30
0.0
  9
$PUCSORGLEFT
 10
0.0
 20
0.0
 30
0.0
  9
$PUCSORGRIGHT
 10
0.0
 20
0.0
 30
0.0
  9
$PUCSORGFRONT
 10
0.0
 20
0.0
 30
0.0
  9
$PUCSORGBACK
 10
0.0
 20
0.0
 30
0.0
  9
$USERI1
 70
     0
  9
$USERI2
 70
     0
  9
$USERI3
 70
     0
  9
$USERI4
 70
     0
  9
$USERI5
 70
     0
  9
$USERR1
 40
0.0
  9
$USERR2
 40
0.0
  9
$USERR3
 40
0.0
  9
$USERR4
 40
0.0
  9
$USERR5
 40
0.0
  9
$WORLDVIEW
 70
     1
  9
$SHADEDGE
 70
     3
  9
$SHADEDIF
 70
    70
  9
$TILEMODE
 70
     1
  9
$MAXACTVP
 70
    64
  9
$PINSBASE
 10
0.0
 20
0.0
 30
0.0
  9
$PLIMCHECK
 70
     0
  9
$PEXTMIN
 10
1.0000000000E+20
 20
1.0000000000E+20
 30
1.0000000000E+20
  9
$PEXTMAX
 10
-1.0000000000E+20
 20
-1.0000000000E+20
 30
-1.0000000000E+20
  9
$PLIMMIN
 10
0.0
 20
0.0
  9
$PLIMMAX
 10
420.0
 20
297.0
  9
$UNITMODE
 70
     0
  9
$VISRETAIN
 70
     1
  9
$PLINEGEN
 70
     0
  9
$PSLTSCALE
 70
     1
  9
$TREEDEPTH
 70
  3020
  9
$CMLSTYLE
  2
Standard
  9
$CMLJUST
 70
     0
  9
$CMLSCALE
 40
20.0
  9
$PROXYGRAPHICS
 70
     1
  9
$MEASUREMENT
 70
     1
  9
$CELWEIGHT
370
    -1
  9
$ENDCAPS
280
     0
  9
$JOINSTYLE
280
     0
  9
$LWDISPLAY
290
     1
  9
$INSUNITS
 70
     4
  9
$HYPERLINKBASE
  1

  9
$STYLESHEET
  1

  9
$XEDIT
290
     1
  9
$CEPSNTYPE
380
     0
  9
$PSTYLEMODE
290
     1
  9
$FINGERPRINTGUID
  2
{DA7F89E1-416A-41A2-B2D3-F006746E6B0A}
  9
$VERSIONGUID
  2
{FAEB1C32-E019-11D5-929B-00C0DF256EC4}
  9
$EXTNAMES
290
     1
  9
$PSVPSCALE
 40
0.0
  9
$OLESTARTUP
290
     0
  0
ENDSEC
  0
SECTION
  2
CLASSES
  0
CLASS
  1
ACDBDICTIONARYWDFLT
  2
AcDbDictionaryWithDefault
  3
ObjectDBX Classes
 90
        0
280
     0
281
     0
  0
CLASS
  1
ACDBPLACEHOLDER
  2
AcDbPlaceHolder
  3
ObjectDBX Classes
 90
        0
280
     0
281
     0
  0
CLASS
  1
LAYOUT
  2
AcDbLayout
  3
ObjectDBX Classes
 90
        0
280
     0
281
     0
  0
ENDSEC
  0
SECTION
  2
TABLES
  0
TABLE
  2
VPORT
  5
8
330
0
100
AcDbSymbolTable
 70
     1
  0
VPORT
  5
29
330
8
100
AcDbSymbolTableRecord
100
AcDbViewportTableRecord
  2
*Active
 70
     0
 10
0.0
 20
0.0
 11
1.0
 21
1.0
 12
105.0
 22
148.5
 13
0.0
 23
0.0
 14
10.0
 24
10.0
 15
10.0
 25
10.0
 16
0.0
 26
0.0
 36
1.0
 17
0.0
 27
0.0
 37
0.0
 40
297.0
 41
1.9729729729
 42
50.0
 43
0.0
 44
0.0
 50
0.0
 51
0.0
 71
     0
 72
  2000
 73
     1
 74
     3
 75
     0
 76
     0
 77
     0
 78
     0
281
     0
 65
     1
110
0.0
120
0.0
130
0.0
111
1.0
121
0.0
131
0.0
112
0.0
122
1.0
132
0.0
 79
     0
146
0.0
  0
ENDTAB
  0
TABLE
  2
LTYPE
  5
5
330
0
100
AcDbSymbolTable
 70
     6
  0
LTYPE
  5
14
330
5
100
AcDbSymbolTableRecord
100
AcDbLinetypeTableRecord
  2
ByBlock
 70
     0
  3

 72
    65
 73
     0
 40
0.0
  0
LTYPE
  5
15
330
5
100
AcDbSymbolTableRecord
100
AcDbLinetypeTableRecord
  2
ByLayer
 70
     0
  3

 72
    65
 73
     0
 40
0.0
  0
LTYPE
  5
16
330
5
100
AcDbSymbolTableRecord
100
AcDbLinetypeTableRecord
  2
Continuous
 70
     0
  3
Solid line
 72
    65
 73
     0
 40
0.0
  0
LTYPE
  5
2A
330
5
100
AcDbSymbolTableRecord
100
AcDbLinetypeTableRecord
  2
HIDDEN
 70
     0
  3
Hidden __ __ __ __ __ __ __ __ __ __ __ __ __ __
 72
    65
 73
     2
 40
1.905
 49
1.27
 74
     0
 49
-0.635
 74
     0
  0
LTYPE
  5
2B
330
5
100
AcDbSymbolTableRecord
100
AcDbLinetypeTableRecord
  2
PHANTOM
 70
     0
  3
Phantom ______  __  __  ______  __  __  ______
 72
    65
 73
     6
 40
12.7
 49
6.35
 74
     0
 49
-1.27
 74
     0
 49
1.27
 74
     0
 49
-1.27
 74
     0
 49
1.27
 74
     0
 49
-1.27
 74
     0
  0
LTYPE
  5
2C
330
5
100
AcDbSymbolTableRecord
100
AcDbLinetypeTableRecord
  2
CENTER
 70
     0
  3
Center ____ _ ____ _ ____ _ ____ _ ____ _ ____
 72
    65
 73
     4
 40
10.16
 49
6.35
 74
     0
 49
-1.27
 74
     0
 49
1.27
 74
     0
 49
-1.27
 74
     0
  0
LTYPE
  5
2D
330
5
100
AcDbSymbolTableRecord
100
AcDbLinetypeTableRecord
  2
CENTERX2
 70
     0
  3
Center (2x) ________  __  ________  __  _____
 72
    65
 73
     4
 40
20.32
 49
12.7
 74
     0
 49
-2.54
 74
     0
 49
2.54
 74
     0
 49
-2.54
 74
     0
  0
LTYPE
  5
2E
330
5
100
AcDbSymbolTableRecord
100
AcDbLinetypeTableRecord
  2
DOT2
 70
     0
  3
Dot (.5x) ........................................
 72
    65
 73
     2
 40
0.635
 49
0.0
 74
     0
 49
-0.635
 74
     0
  0
ENDTAB
  0
TABLE
  2
LAYER
  5
2
330
0
100
AcDbSymbolTable
 70
     4
  0
LAYER
  5
10
330
2
100
AcDbSymbolTableRecord
100
AcDbLayerTableRecord
  2
0
 70
     0
 62
     7
  6
Continuous
370
    -3
390
F
  0
LAYER
  5
2F
330
2
100
AcDbSymbolTableRecord
100
AcDbLayerTableRecord
  2
SLD-0
 70
     0
 62
   179
  6
Continuous
370
     0
390
F
  0
LAYER
  5
30
330
2
100
AcDbSymbolTableRecord
100
AcDbLayerTableRecord
  2
SLD-DEFPOINTS
 70
     0
 62
   179
  6
Continuous
370
     0
390
F
  0
LAYER
  5
195
330
2
100
AcDbSymbolTableRecord
100
AcDbLayerTableRecord
  2
Defpoints
 70
     0
 62
     7
  6
Continuous
290
     0
370
    -3
390
F
  0
ENDTAB
  0
TABLE
  2
STYLE
  5
3
330
0
100
AcDbSymbolTable
 70
     3
  0
STYLE
  5
11
330
3
100
AcDbSymbolTableRecord
100
AcDbTextStyleTableRecord
  2
Standard
 70
     0
 40
0.0
 41
1.0
 50
0.0
 71
     0
 42
2.5
  3
txt
  4
bigfont
  0
STYLE
  5
34
330
3
100
AcDbSymbolTableRecord
100
AcDbTextStyleTableRecord
  2
SLDTEXTSTYLE0
 70
     0
 40
0.0
 41
0.7
 50
0.0
 71
     0
 42
0.2
  3
TXT
  4
bigfont
  0
STYLE
  5
3C
330
3
100
AcDbSymbolTableRecord
100
AcDbTextStyleTableRecord
  2
SLDTEXTSTYLE1
 70
     0
 40
0.0
 41
0.5526315789
 50
0.0
 71
     0
 42
0.2
  3
TXT
  4
bigfont
  0
ENDTAB
  0
TABLE
  2
VIEW
  5
6
330
0
100
AcDbSymbolTable
 70
     0
  0
ENDTAB
  0
TABLE
  2
UCS
  5
7
330
0
100
AcDbSymbolTable
 70
     0
  0
ENDTAB
  0
TABLE
  2
APPID
  5
9
330
0
100
AcDbSymbolTable
 70
     1
  0
APPID
  5
12
330
9
100
AcDbSymbolTableRecord
100
AcDbRegAppTableRecord
  2
ACAD
 70
     0
  0
ENDTAB
  0
TABLE
  2
DIMSTYLE
  5
A
330
0
100
AcDbSymbolTable
 70
     4
100
AcDbDimStyleTable
  0
DIMSTYLE
105
27
330
A
100
AcDbSymbolTableRecord
100
AcDbDimStyleTableRecord
  2
ISO-25
 70
     0
 41
2.5
 42
0.625
 43
3.75
 44
1.25
 73
     0
 74
     0
 77
     1
 78
     8
140
2.5
141
2.5
143
0.0393700787
147
0.625
171
     3
172
     1
271
     2
272
     2
274
     3
278
    44
283
     0
284
     8
340
11
  0
DIMSTYLE
105
1A5
102
{ACAD_REACTORS
330
194
330
1F5
330
225
330
240
102
}
330
A
100
AcDbSymbolTableRecord
100
AcDbDimStyleTableRecord
  2
SLDDIMSTYLE0
 70
     0
 41
3.0
 44
0.0
 73
     0
 74
     0
 77
     3
 78
    12
140
3.5
147
0.875
173
     1
271
     1
272
     3
284
    12
340
3C
341
1A6
343
1A6
344
1A6
  0
DIMSTYLE
105
1C2
102
{ACAD_REACTORS
330
1B5
330
1CD
330
20E
102
}
330
A
100
AcDbSymbolTableRecord
100
AcDbDimStyleTableRecord
  2
SLDDIMSTYLE1
 70
     0
 41
3.0
 44
0.0
 73
     0
 74
     0
 77
     3
 78
    12
140
3.5
147
0.875
173
     1
271
     0
272
     3
284
    12
340
3C
341
1A6
343
1A6
344
1A6
  0
DIMSTYLE
105
1EE
102
{ACAD_REACTORS
330
1E4
330
259
102
}
330
A
100
AcDbSymbolTableRecord
100
AcDbDimStyleTableRecord
  2
SLDDIMSTYLE2
 70
     0
 41
3.0
 44
0.0
 78
    12
140
3.5
147
0.875
172
     1
173
     1
271
     0
272
     3
284
    12
340
3C
341
1A6
343
1A6
344
1A6
  0
ENDTAB
  0
TABLE
  2
BLOCK_RECORD
  5
1
330
0
100
AcDbSymbolTable
 70
    17
  0
BLOCK_RECORD
  5
1F
330
1
100
AcDbSymbolTableRecord
100
AcDbBlockTableRecord
  2
*Model_Space
340
22
  0
BLOCK_RECORD
  5
1B
330
1
100
AcDbSymbolTableRecord
100
AcDbBlockTableRecord
  2
*Paper_Space
340
1E
  0
BLOCK_RECORD
  5
23
330
1
100
AcDbSymbolTableRecord
100
AcDbBlockTableRecord
  2
*Paper_Space0
340
26
  0
BLOCK_RECORD
  5
31
330
1
100
AcDbSymbolTableRecord
100
AcDbBlockTableRecord
  2
注記
340
0
102
{BLKREFS
331
274
102
}
  0
BLOCK_RECORD
  5
37
330
1
100
AcDbSymbolTableRecord
100
AcDbBlockTableRecord
  2
SURFACEFINISH46
340
0
102
{BLKREFS
331
273
102
}
  0
BLOCK_RECORD
  5
3E
330
1
100
AcDbSymbolTableRecord
100
AcDbBlockTableRecord
  2
SW_CENTERMARK0
340
0
102
{BLKREFS
331
275
102
}
  0
BLOCK_RECORD
  5
49
330
1
100
AcDbSymbolTableRecord
100
AcDbBlockTableRecord
  2
SW_CENTERMARK1
340
0
102
{BLKREFS
331
276
102
}
  0
BLOCK_RECORD
  5
54
330
1
100
AcDbSymbolTableRecord
100
AcDbBlockTableRecord
  2
SW_CENTERMARK2
340
0
102
{BLKREFS
331
277
102
}
  0
BLOCK_RECORD
  5
5F
330
1
100
AcDbSymbolTableRecord
100
AcDbBlockTableRecord
  2
SW_CENTERMARK3
340
0
102
{BLKREFS
331
278
102
}
  0
BLOCK_RECORD
  5
196
330
1
100
AcDbSymbolTableRecord
100
AcDbBlockTableRecord
  2
*D7
340
0
  0
BLOCK_RECORD
  5
1A6
330
1
100
AcDbSymbolTableRecord
100
AcDbBlockTableRecord
  2
_None
340
0
102
{BLKREFS
331
19C
331
19B
331
1BB
331
1BA
331
1D3
331
1D2
331
1E9
331
1FB
331
1FA
331
214
331
213
331
22C
331
22B
331
247
331
246
331
25E
102
}
  0
BLOCK_RECORD
  5
1B6
330
1
100
AcDbSymbolTableRecord
100
AcDbBlockTableRecord
  2
*D9
340
0
  0
BLOCK_RECORD
  5
1CE
330
1
100
AcDbSymbolTableRecord
100
AcDbBlockTableRecord
  2
*D10
340
0
  0
BLOCK_RECORD
  5
1E5
330
1
100
AcDbSymbolTableRecord
100
AcDbBlockTableRecord
  2
*D11
340
0
  0
BLOCK_RECORD
  5
1F6
330
1
100
AcDbSymbolTableRecord
100
AcDbBlockTableRecord
  2
*D12
340
0
  0
BLOCK_RECORD
  5
20F
330
1
100
AcDbSymbolTableRecord
100
AcDbBlockTableRecord
  2
*D13
340
0
  0
BLOCK_RECORD
  5
226
330
1
100
AcDbSymbolTableRecord
100
AcDbBlockTableRecord
  2
*D14
340
0
  0
BLOCK_RECORD
  5
241
330
1
100
AcDbSymbolTableRecord
100
AcDbBlockTableRecord
  2
*D15
340
0
  0
BLOCK_RECORD
  5
25A
330
1
100
AcDbSymbolTableRecord
100
AcDbBlockTableRecord
  2
*D16
340
0
  0
ENDTAB
  0
ENDSEC
  0
SECTION
  2
BLOCKS
  0
BLOCK
  5
20
330
1F
100
AcDbEntity
  8
0
100
AcDbBlockBegin
  2
*Model_Space
 70
     0
 71
     0
 10
0.0
 20
0.0
 30
0.0
  3
*Model_Space
  1

  0
ENDBLK
  5
21
330
1F
100
AcDbEntity
  8
0
100
AcDbBlockEnd
  0
BLOCK
  5
1C
330
1B
100
AcDbEntity
 67
     1
  8
0
100
AcDbBlockBegin
  2
*Paper_Space
 70
     0
 71
     0
 10
0.0
 20
0.0
 30
0.0
  3
*Paper_Space
  1

  0
ENDBLK
  5
1D
330
1B
100
AcDbEntity
 67
     1
  8
0
100
AcDbBlockEnd
  0
BLOCK
  5
24
330
23
100
AcDbEntity
  8
0
100
AcDbBlockBegin
  2
*Paper_Space0
 70
     0
 71
     0
 10
0.0
 20
0.0
 30
0.0
  3
*Paper_Space0
  1

  0
ENDBLK
  5
25
330
23
100
AcDbEntity
  8
0
100
AcDbBlockEnd
  0
BLOCK
  5
32
330
31
100
AcDbEntity
  8
0
100
AcDbBlockBegin
  2
注記
 70
     0
 71
     0
 10
0.0
 20
0.0
 30
0.0
  3
注記
  1

  0
MTEXT
  5
35
330
31
100
AcDbEntity
  8
0
  6
Continuous
 62
     7
370
     0
100
AcDbMText
 10
0.2636785918
 20
9.0739778448
 30
0.0
 40
3.5
 41
0.0
 71
     1
 72
     1
  1
１．特記ナキ角部ハ、バリ　カエリノ無キコト。
  7
SLDTEXTSTYLE0
 73
     1
 44
1.0
  0
MTEXT
  5
36
330
31
100
AcDbEntity
  8
0
  6
Continuous
 62
     7
370
     0
100
AcDbMText
 10
0.2636785918
 20
3.5759549983
 30
0.0
 40
3.5
 41
0.0
 71
     1
 72
     1
  1
２．特記ナキ隅部ハ、Ｒ０．４ＭＡＸトスル。
  7
SLDTEXTSTYLE0
 73
     1
 44
1.0
  0
ENDBLK
  5
33
330
31
100
AcDbEntity
  8
0
100
AcDbBlockEnd
  0
BLOCK
  5
38
330
37
100
AcDbEntity
  8
0
100
AcDbBlockBegin
  2
SURFACEFINISH46
 70
     0
 71
     0
 10
0.0
 20
0.0
 30
0.0
  3
SURFACEFINISH46
  1

  0
LINE
  5
3A
330
37
100
AcDbEntity
  8
SLD-0
  6
Continuous
 62
   179
100
AcDbLine
 10
0.6656399396
 20
-6.0449245738
 30
0.0
 11
-2.9003789868
 21
0.0000001164
 31
0.0
  0
LINE
  5
3B
330
37
100
AcDbEntity
  8
SLD-0
  6
Continuous
 62
   179
100
AcDbLine
 10
0.6656399396
 20
-6.0449245738
 30
0.0
 11
7.7976777926
 21
6.0449248066
 31
0.0
  0
MTEXT
  5
3D
330
37
100
AcDbEntity
  8
SLD-0
100
AcDbMText
 10
0.0
 20
4.9341236929
 30
0.0
 40
3.175
 41
0.0
 71
     1
 72
     1
  1
25
  7
SLDTEXTSTYLE1
 73
     1
 44
1.0
  0
ENDBLK
  5
39
330
37
100
AcDbEntity
  8
0
100
AcDbBlockEnd
  0
BLOCK
  5
3F
330
3E
100
AcDbEntity
  8
0
100
AcDbBlockBegin
  2
SW_CENTERMARK0
 70
     0
 71
     0
 10
0.0
 20
0.0
 30
0.0
  3
SW_CENTERMARK0
  1

  0
LINE
  5
41
330
3E
100
AcDbEntity
  8
SLD-0
  6
Continuous
 62
   179
100
AcDbLine
 10
92.3945178898
 20
181.81726783
 30
0.0
 11
92.3945178898
 21
184.31726783
 31
0.0
  0
LINE
  5
42
330
3E
100
AcDbEntity
  8
SLD-0
  6
Continuous
 62
   179
100
AcDbLine
 10
92.3945178898
 20
181.81726783
 30
0.0
 11
89.8945178898
 21
181.81726783
 31
0.0
  0
LINE
  5
43
330
3E
100
AcDbEntity
  8
SLD-0
  6
Continuous
 62
   179
100
AcDbLine
 10
92.3945178898
 20
181.81726783
 30
0.0
 11
92.3945178898
 21
179.31726783
 31
0.0
  0
LINE
  5
44
330
3E
100
AcDbEntity
  8
SLD-0
  6
Continuous
 62
   179
100
AcDbLine
 10
92.3945178898
 20
181.81726783
 30
0.0
 11
94.8945178898
 21
181.81726783
 31
0.0
  0
LINE
  5
45
330
3E
100
AcDbEntity
  8
SLD-0
  6
Continuous
 62
   179
100
AcDbLine
 10
92.3945178898
 20
184.31726783
 30
0.0
 11
92.3945178898
 21
185.96726783
 31
0.0
  0
LINE
  5
46
330
3E
100
AcDbEntity
  8
SLD-0
  6
Continuous
 62
   179
100
AcDbLine
 10
89.8945178898
 20
181.81726783
 30
0.0
 11
88.2445178898
 21
181.81726783
 31
0.0
  0
LINE
  5
47
330
3E
100
AcDbEntity
  8
SLD-0
  6
Continuous
 62
   179
100
AcDbLine
 10
92.3945178898
 20
179.31726783
 30
0.0
 11
92.3945178898
 21
177.66726783
 31
0.0
  0
LINE
  5
48
330
3E
100
AcDbEntity
  8
SLD-0
  6
Continuous
 62
   179
100
AcDbLine
 10
94.8945178898
 20
181.81726783
 30
0.0
 11
96.5445178898
 21
181.81726783
 31
0.0
  0
ENDBLK
  5
40
330
3E
100
AcDbEntity
  8
0
100
AcDbBlockEnd
  0
BLOCK
  5
4A
330
49
100
AcDbEntity
  8
0
100
AcDbBlockBegin
  2
SW_CENTERMARK1
 70
     0
 71
     0
 10
0.0
 20
0.0
 30
0.0
  3
SW_CENTERMARK1
  1

  0
LINE
  5
4C
330
49
100
AcDbEntity
  8
SLD-0
  6
Continuous
 62
   179
100
AcDbLine
 10
130.3945178898
 20
181.81726783
 30
0.0
 11
130.3945178898
 21
184.31726783
 31
0.0
  0
LINE
  5
4D
330
49
100
AcDbEntity
  8
SLD-0
  6
Continuous
 62
   179
100
AcDbLine
 10
130.3945178898
 20
181.81726783
 30
0.0
 11
127.8945178898
 21
181.81726783
 31
0.0
  0
LINE
  5
4E
330
49
100
AcDbEntity
  8
SLD-0
  6
Continuous
 62
   179
100
AcDbLine
 10
130.3945178898
 20
181.81726783
 30
0.0
 11
130.3945178898
 21
179.31726783
 31
0.0
  0
LINE
  5
4F
330
49
100
AcDbEntity
  8
SLD-0
  6
Continuous
 62
   179
100
AcDbLine
 10
130.3945178898
 20
181.81726783
 30
0.0
 11
132.8945178898
 21
181.81726783
 31
0.0
  0
LINE
  5
50
330
49
100
AcDbEntity
  8
SLD-0
  6
Continuous
 62
   179
100
AcDbLine
 10
130.3945178898
 20
184.31726783
 30
0.0
 11
130.3945178898
 21
185.96726783
 31
0.0
  0
LINE
  5
51
330
49
100
AcDbEntity
  8
SLD-0
  6
Continuous
 62
   179
100
AcDbLine
 10
127.8945178898
 20
181.81726783
 30
0.0
 11
126.2445178898
 21
181.81726783
 31
0.0
  0
LINE
  5
52
330
49
100
AcDbEntity
  8
SLD-0
  6
Continuous
 62
   179
100
AcDbLine
 10
130.3945178898
 20
179.31726783
 30
0.0
 11
130.3945178898
 21
177.66726783
 31
0.0
  0
LINE
  5
53
330
49
100
AcDbEntity
  8
SLD-0
  6
Continuous
 62
   179
100
AcDbLine
 10
132.8945178898
 20
181.81726783
 30
0.0
 11
134.5445178898
 21
181.81726783
 31
0.0
  0
ENDBLK
  5
4B
330
49
100
AcDbEntity
  8
0
100
AcDbBlockEnd
  0
BLOCK
  5
55
330
54
100
AcDbEntity
  8
0
100
AcDbBlockBegin
  2
SW_CENTERMARK2
 70
     0
 71
     0
 10
0.0
 20
0.0
 30
0.0
  3
SW_CENTERMARK2
  1

  0
LINE
  5
57
330
54
100
AcDbEntity
  8
SLD-0
  6
Continuous
 62
   179
100
AcDbLine
 10
101.3945178898
 20
181.81726783
 30
0.0
 11
101.3945178898
 21
184.31726783
 31
0.0
  0
LINE
  5
58
330
54
100
AcDbEntity
  8
SLD-0
  6
Continuous
 62
   179
100
AcDbLine
 10
101.3945178898
 20
181.81726783
 30
0.0
 11
98.8945178898
 21
181.81726783
 31
0.0
  0
LINE
  5
59
330
54
100
AcDbEntity
  8
SLD-0
  6
Continuous
 62
   179
100
AcDbLine
 10
101.3945178898
 20
181.81726783
 30
0.0
 11
101.3945178898
 21
179.31726783
 31
0.0
  0
LINE
  5
5A
330
54
100
AcDbEntity
  8
SLD-0
  6
Continuous
 62
   179
100
AcDbLine
 10
101.3945178898
 20
181.81726783
 30
0.0
 11
103.8945178898
 21
181.81726783
 31
0.0
  0
LINE
  5
5B
330
54
100
AcDbEntity
  8
SLD-0
  6
Continuous
 62
   179
100
AcDbLine
 10
101.3945178898
 20
184.31726783
 30
0.0
 11
101.3945178898
 21
185.56726783
 31
0.0
  0
LINE
  5
5C
330
54
100
AcDbEntity
  8
SLD-0
  6
Continuous
 62
   179
100
AcDbLine
 10
98.8945178898
 20
181.81726783
 30
0.0
 11
97.6445178898
 21
181.81726783
 31
0.0
  0
LINE
  5
5D
330
54
100
AcDbEntity
  8
SLD-0
  6
Continuous
 62
   179
100
AcDbLine
 10
101.3945178898
 20
179.31726783
 30
0.0
 11
101.3945178898
 21
178.06726783
 31
0.0
  0
LINE
  5
5E
330
54
100
AcDbEntity
  8
SLD-0
  6
Continuous
 62
   179
100
AcDbLine
 10
103.8945178898
 20
181.81726783
 30
0.0
 11
105.1445178898
 21
181.81726783
 31
0.0
  0
ENDBLK
  5
56
330
54
100
AcDbEntity
  8
0
100
AcDbBlockEnd
  0
BLOCK
  5
60
330
5F
100
AcDbEntity
  8
0
100
AcDbBlockBegin
  2
SW_CENTERMARK3
 70
     0
 71
     0
 10
0.0
 20
0.0
 30
0.0
  3
SW_CENTERMARK3
  1

  0
LINE
  5
62
330
5F
100
AcDbEntity
  8
SLD-0
  6
Continuous
 62
   179
100
AcDbLine
 10
121.3945178898
 20
181.81726783
 30
0.0
 11
121.3945178898
 21
184.31726783
 31
0.0
  0
LINE
  5
63
330
5F
100
AcDbEntity
  8
SLD-0
  6
Continuous
 62
   179
100
AcDbLine
 10
121.3945178898
 20
181.81726783
 30
0.0
 11
118.8945178898
 21
181.81726783
 31
0.0
  0
LINE
  5
64
330
5F
100
AcDbEntity
  8
SLD-0
  6
Continuous
 62
   179
100
AcDbLine
 10
121.3945178898
 20
181.81726783
 30
0.0
 11
121.3945178898
 21
179.31726783
 31
0.0
  0
LINE
  5
65
330
5F
100
AcDbEntity
  8
SLD-0
  6
Continuous
 62
   179
100
AcDbLine
 10
121.3945178898
 20
181.81726783
 30
0.0
 11
123.8945178898
 21
181.81726783
 31
0.0
  0
LINE
  5
66
330
5F
100
AcDbEntity
  8
SLD-0
  6
Continuous
 62
   179
100
AcDbLine
 10
121.3945178898
 20
184.31726783
 30
0.0
 11
121.3945178898
 21
185.56726783
 31
0.0
  0
LINE
  5
67
330
5F
100
AcDbEntity
  8
SLD-0
  6
Continuous
 62
   179
100
AcDbLine
 10
118.8945178898
 20
181.81726783
 30
0.0
 11
117.6445178898
 21
181.81726783
 31
0.0
  0
LINE
  5
68
330
5F
100
AcDbEntity
  8
SLD-0
  6
Continuous
 62
   179
100
AcDbLine
 10
121.3945178898
 20
179.31726783
 30
0.0
 11
121.3945178898
 21
178.06726783
 31
0.0
  0
LINE
  5
69
330
5F
100
AcDbEntity
  8
SLD-0
  6
Continuous
 62
   179
100
AcDbLine
 10
123.8945178898
 20
181.81726783
 30
0.0
 11
125.1445178898
 21
181.81726783
 31
0.0
  0
ENDBLK
  5
61
330
5F
100
AcDbEntity
  8
0
100
AcDbBlockEnd
  0
BLOCK
  5
1A3
330
196
100
AcDbEntity
  8
0
100
AcDbBlockBegin
  2
*D7
 70
     1
 71
     0
 10
0.0
 20
0.0
 30
0.0
  3
*D7
  1

  0
LINE
  5
1A9
330
196
100
AcDbEntity
  8
SLD-0
 62
     7
100
AcDbLine
 10
135.8945178898
 20
188.11726783
 30
0.0
 11
135.8945178898
 21
203.1356402169
 31
0.0
  0
LINE
  5
1AA
330
196
100
AcDbEntity
  8
SLD-0
 62
     7
100
AcDbLine
 10
130.3945178898
 20
186.96726783
 30
0.0
 11
130.3945178898
 21
203.1356402169
 31
0.0
  0
LINE
  5
1AB
330
196
100
AcDbEntity
  8
SLD-0
 62
     7
100
AcDbLine
 10
135.8945178898
 20
202.1356402169
 30
0.0
 11
147.831006755
 21
202.1356402169
 31
0.0
  0
LINE
  5
1AC
330
196
100
AcDbEntity
  8
SLD-0
 62
     7
100
AcDbLine
 10
135.8945178898
 20
202.1356402169
 30
0.0
 11
130.3945178898
 21
202.1356402169
 31
0.0
  0
LINE
  5
1AD
330
196
100
AcDbEntity
  8
SLD-0
 62
     7
100
AcDbLine
 10
130.3945178898
 20
202.1356402169
 30
0.0
 11
125.3945178898
 21
202.1356402169
 31
0.0
  0
LINE
  5
1AE
330
196
100
AcDbEntity
  8
SLD-0
 62
     7
100
AcDbLine
 10
138.8945178898
 20
201.3317932169
 30
0.0
 11
135.8945178898
 21
202.1356402169
 31
0.0
  0
LINE
  5
1AF
330
196
100
AcDbEntity
  8
SLD-0
 62
     7
100
AcDbLine
 10
135.8945178898
 20
202.1356402169
 30
0.0
 11
138.8945178898
 21
202.9394872169
 31
0.0
  0
LINE
  5
1B0
330
196
100
AcDbEntity
  8
SLD-0
 62
     7
100
AcDbLine
 10
135.8945178898
 20
202.1356402169
 30
0.0
 11
138.8945178898
 21
202.1356402169
 31
0.0
  0
LINE
  5
1B1
330
196
100
AcDbEntity
  8
SLD-0
 62
     7
100
AcDbLine
 10
127.3945178898
 20
202.9394872169
 30
0.0
 11
130.3945178898
 21
202.1356402169
 31
0.0
  0
LINE
  5
1B2
330
196
100
AcDbEntity
  8
SLD-0
 62
     7
100
AcDbLine
 10
130.3945178898
 20
202.1356402169
 30
0.0
 11
127.3945178898
 21
201.3317932169
 31
0.0
  0
LINE
  5
1B3
330
196
100
AcDbEntity
  8
SLD-0
 62
     7
100
AcDbLine
 10
130.3945178898
 20
202.1356402169
 30
0.0
 11
127.3945178898
 21
202.1356402169
 31
0.0
  0
MTEXT
  5
1B4
330
196
100
AcDbEntity
  8
SLD-0
 62
     7
100
AcDbMText
 10
140.1335468032
 20
206.6623339129
 30
0.1
 40
3.5
 41
0.0
 71
     1
 72
     1
  1
5.5
  7
SLDTEXTSTYLE0
 73
     1
 44
1.0
  0
ENDBLK
  5
1A4
330
196
100
AcDbEntity
  8
0
100
AcDbBlockEnd
  0
BLOCK
  5
1A7
330
1A6
100
AcDbEntity
  8
0
100
AcDbBlockBegin
  2
_None
 70
     0
 71
     0
 10
0.0
 20
0.0
 30
0.0
  3
_None
  1

  0
ENDBLK
  5
1A8
330
1A6
100
AcDbEntity
  8
0
100
AcDbBlockEnd
  0
BLOCK
  5
1C0
330
1B6
100
AcDbEntity
  8
0
100
AcDbBlockBegin
  2
*D9
 70
     1
 71
     0
 10
0.0
 20
0.0
 30
0.0
  3
*D9
  1

  0
LINE
  5
1C3
330
1B6
100
AcDbEntity
  8
SLD-0
 62
     7
100
AcDbLine
 10
130.3945178898
 20
186.96726783
 30
0.0
 11
130.3945178898
 21
203.1356402169
 31
0.0
  0
LINE
  5
1C4
330
1B6
100
AcDbEntity
  8
SLD-0
 62
     7
100
AcDbLine
 10
92.3945178898
 20
186.96726783
 30
0.0
 11
92.3945178898
 21
203.1356402169
 31
0.0
  0
LINE
  5
1C5
330
1B6
100
AcDbEntity
  8
SLD-0
 62
     7
100
AcDbLine
 10
130.3945178898
 20
202.1356402169
 30
0.0
 11
92.3945178898
 21
202.1356402169
 31
0.0
  0
LINE
  5
1C6
330
1B6
100
AcDbEntity
  8
SLD-0
 62
     7
100
AcDbLine
 10
127.3945178898
 20
202.9394872169
 30
0.0
 11
130.3945178898
 21
202.1356402169
 31
0.0
  0
LINE
  5
1C7
330
1B6
100
AcDbEntity
  8
SLD-0
 62
     7
100
AcDbLine
 10
130.3945178898
 20
202.1356402169
 30
0.0
 11
127.3945178898
 21
201.3317932169
 31
0.0
  0
LINE
  5
1C8
330
1B6
100
AcDbEntity
  8
SLD-0
 62
     7
100
AcDbLine
 10
130.3945178898
 20
202.1356402169
 30
0.0
 11
127.3945178898
 21
202.1356402169
 31
0.0
  0
LINE
  5
1C9
330
1B6
100
AcDbEntity
  8
SLD-0
 62
     7
100
AcDbLine
 10
95.3945178898
 20
201.3317932169
 30
0.0
 11
92.3945178898
 21
202.1356402169
 31
0.0
  0
LINE
  5
1CA
330
1B6
100
AcDbEntity
  8
SLD-0
 62
     7
100
AcDbLine
 10
92.3945178898
 20
202.1356402169
 30
0.0
 11
95.3945178898
 21
202.9394872169
 31
0.0
  0
LINE
  5
1CB
330
1B6
100
AcDbEntity
  8
SLD-0
 62
     7
100
AcDbLine
 10
92.3945178898
 20
202.1356402169
 30
0.0
 11
95.3945178898
 21
202.1356402169
 31
0.0
  0
MTEXT
  5
1CC
330
1B6
100
AcDbEntity
  8
SLD-0
 62
     7
100
AcDbMText
 10
109.3590826666
 20
206.6623339129
 30
0.1
 40
3.5
 41
0.0
 71
     1
 72
     1
  1
38
  7
SLDTEXTSTYLE0
 73
     1
 44
1.0
  0
ENDBLK
  5
1C1
330
1B6
100
AcDbEntity
  8
0
100
AcDbBlockEnd
  0
BLOCK
  5
1D8
330
1CE
100
AcDbEntity
  8
0
100
AcDbBlockBegin
  2
*D10
 70
     1
 71
     0
 10
0.0
 20
0.0
 30
0.0
  3
*D10
  1

  0
LINE
  5
1DA
330
1CE
100
AcDbEntity
  8
SLD-0
 62
     7
100
AcDbLine
 10
86.8945178898
 20
188.11726783
 30
0.0
 11
86.8945178898
 21
210.966946081
 31
0.0
  0
LINE
  5
1DB
330
1CE
100
AcDbEntity
  8
SLD-0
 62
     7
100
AcDbLine
 10
135.8945178898
 20
188.11726783
 30
0.0
 11
135.8945178898
 21
210.966946081
 31
0.0
  0
LINE
  5
1DC
330
1CE
100
AcDbEntity
  8
SLD-0
 62
     7
100
AcDbLine
 10
86.8945178898
 20
209.966946081
 30
0.0
 11
135.8945178898
 21
209.966946081
 31
0.0
  0
LINE
  5
1DD
330
1CE
100
AcDbEntity
  8
SLD-0
 62
     7
100
AcDbLine
 10
89.8945178898
 20
209.163099081
 30
0.0
 11
86.8945178898
 21
209.966946081
 31
0.0
  0
LINE
  5
1DE
330
1CE
100
AcDbEntity
  8
SLD-0
 62
     7
100
AcDbLine
 10
86.8945178898
 20
209.966946081
 30
0.0
 11
89.8945178898
 21
210.770793081
 31
0.0
  0
LINE
  5
1DF
330
1CE
100
AcDbEntity
  8
SLD-0
 62
     7
100
AcDbLine
 10
86.8945178898
 20
209.966946081
 30
0.0
 11
89.8945178898
 21
209.966946081
 31
0.0
  0
LINE
  5
1E0
330
1CE
100
AcDbEntity
  8
SLD-0
 62
     7
100
AcDbLine
 10
132.8945178898
 20
210.770793081
 30
0.0
 11
135.8945178898
 21
209.966946081
 31
0.0
  0
LINE
  5
1E1
330
1CE
100
AcDbEntity
  8
SLD-0
 62
     7
100
AcDbLine
 10
135.8945178898
 20
209.966946081
 30
0.0
 11
132.8945178898
 21
209.163099081
 31
0.0
  0
LINE
  5
1E2
330
1CE
100
AcDbEntity
  8
SLD-0
 62
     7
100
AcDbLine
 10
135.8945178898
 20
209.966946081
 30
0.0
 11
132.8945178898
 21
209.966946081
 31
0.0
  0
MTEXT
  5
1E3
330
1CE
100
AcDbEntity
  8
SLD-0
 62
     7
100
AcDbMText
 10
109.3590826666
 20
214.493639777
 30
0.1
 40
3.5
 41
0.0
 71
     1
 72
     1
  1
49
  7
SLDTEXTSTYLE0
 73
     1
 44
1.0
  0
ENDBLK
  5
1D9
330
1CE
100
AcDbEntity
  8
0
100
AcDbBlockEnd
  0
BLOCK
  5
1EC
330
1E5
100
AcDbEntity
  8
0
100
AcDbBlockBegin
  2
*D11
 70
     1
 71
     0
 10
0.0
 20
0.0
 30
0.0
  3
*D11
  1

  0
LINE
  5
1EF
330
1E5
100
AcDbEntity
  8
SLD-0
 62
     7
100
AcDbLine
 10
91.4352829087
 20
183.5722231717
 30
0.0
 11
85.9435949384
 21
193.6194663691
 31
0.0
  0
LINE
  5
1F0
330
1E5
100
AcDbEntity
  8
SLD-0
 62
     7
100
AcDbLine
 10
85.9435949384
 20
193.6194663691
 30
0.0
 11
73.0356997635
 21
193.6194663691
 31
0.0
  0
LINE
  5
1F1
330
1E5
100
AcDbEntity
  8
SLD-0
 62
     7
100
AcDbLine
 10
90.7017882304
 20
186.5901952651
 30
0.0
 11
91.4352829087
 21
183.5722231717
 31
0.0
  0
LINE
  5
1F2
330
1E5
100
AcDbEntity
  8
SLD-0
 62
     7
100
AcDbLine
 10
91.4352829087
 20
183.5722231717
 30
0.0
 11
89.2910726439
 21
185.8191171032
 31
0.0
  0
LINE
  5
1F3
330
1E5
100
AcDbEntity
  8
SLD-0
 62
     7
100
AcDbLine
 10
91.4352829087
 20
183.5722231717
 30
0.0
 11
89.9964304371
 21
186.2046561841
 31
0.0
  0
MTEXT
  5
1F4
330
1E5
100
AcDbEntity
  8
SLD-0
 62
     7
100
AcDbMText
 10
74.6231997635
 20
198.146160065
 30
0.1
 40
3.5
 41
0.0
 71
     1
 72
     1
  1
2-M4
  7
SLDTEXTSTYLE0
 73
     1
 44
1.0
  0
ENDBLK
  5
1ED
330
1E5
100
AcDbEntity
  8
0
100
AcDbBlockEnd
  0
BLOCK
  5
200
330
1F6
100
AcDbEntity
  8
0
100
AcDbBlockBegin
  2
*D12
 70
     1
 71
     0
 10
0.0
 20
0.0
 30
0.0
  3
*D12
  1

  0
LINE
  5
202
330
1F6
100
AcDbEntity
  8
SLD-0
 62
     7
100
AcDbLine
 10
135.8945178898
 20
175.51726783
 30
0.0
 11
135.8945178898
 21
163.1431945887
 31
0.0
  0
LINE
  5
203
330
1F6
100
AcDbEntity
  8
SLD-0
 62
     7
100
AcDbLine
 10
121.3945178898
 20
180.81726783
 30
0.0
 11
121.3945178898
 21
163.1431945887
 31
0.0
  0
LINE
  5
204
330
1F6
100
AcDbEntity
  8
SLD-0
 62
     7
100
AcDbLine
 10
135.8945178898
 20
164.1431945887
 30
0.0
 11
140.8945178898
 21
164.1431945887
 31
0.0
  0
LINE
  5
205
330
1F6
100
AcDbEntity
  8
SLD-0
 62
     7
100
AcDbLine
 10
135.8945178898
 20
164.1431945887
 30
0.0
 11
121.3945178898
 21
164.1431945887
 31
0.0
  0
LINE
  5
206
330
1F6
100
AcDbEntity
  8
SLD-0
 62
     7
100
AcDbLine
 10
121.3945178898
 20
164.1431945887
 30
0.0
 11
116.3945178898
 21
164.1431945887
 31
0.0
  0
LINE
  5
207
330
1F6
100
AcDbEntity
  8
SLD-0
 62
     7
100
AcDbLine
 10
138.8945178898
 20
163.3393475887
 30
0.0
 11
135.8945178898
 21
164.1431945887
 31
0.0
  0
LINE
  5
208
330
1F6
100
AcDbEntity
  8
SLD-0
 62
     7
100
AcDbLine
 10
135.8945178898
 20
164.1431945887
 30
0.0
 11
138.8945178898
 21
164.9470415887
 31
0.0
  0
LINE
  5
209
330
1F6
100
AcDbEntity
  8
SLD-0
 62
     7
100
AcDbLine
 10
135.8945178898
 20
164.1431945887
 30
0.0
 11
138.8945178898
 21
164.1431945887
 31
0.0
  0
LINE
  5
20A
330
1F6
100
AcDbEntity
  8
SLD-0
 62
     7
100
AcDbLine
 10
118.3945178898
 20
164.9470415887
 30
0.0
 11
121.3945178898
 21
164.1431945887
 31
0.0
  0
LINE
  5
20B
330
1F6
100
AcDbEntity
  8
SLD-0
 62
     7
100
AcDbLine
 10
121.3945178898
 20
164.1431945887
 30
0.0
 11
118.3945178898
 21
163.3393475887
 31
0.0
  0
LINE
  5
20C
330
1F6
100
AcDbEntity
  8
SLD-0
 62
     7
100
AcDbLine
 10
121.3945178898
 20
164.1431945887
 30
0.0
 11
118.3945178898
 21
164.1431945887
 31
0.0
  0
MTEXT
  5
20D
330
1F6
100
AcDbEntity
  8
SLD-0
 62
     7
100
AcDbMText
 10
124.5718203023
 20
168.6698882847
 30
0.1
 40
3.5
 41
0.0
 71
     1
 72
     1
  1
14.5
  7
SLDTEXTSTYLE0
 73
     1
 44
1.0
  0
ENDBLK
  5
201
330
1F6
100
AcDbEntity
  8
0
100
AcDbBlockEnd
  0
BLOCK
  5
219
330
20F
100
AcDbEntity
  8
0
100
AcDbBlockBegin
  2
*D13
 70
     1
 71
     0
 10
0.0
 20
0.0
 30
0.0
  3
*D13
  1

  0
LINE
  5
21B
330
20F
100
AcDbEntity
  8
SLD-0
 62
     7
100
AcDbLine
 10
121.3945178898
 20
180.81726783
 30
0.0
 11
121.3945178898
 21
163.1431945887
 31
0.0
  0
LINE
  5
21C
330
20F
100
AcDbEntity
  8
SLD-0
 62
     7
100
AcDbLine
 10
101.3945178898
 20
180.81726783
 30
0.0
 11
101.3945178898
 21
163.1431945887
 31
0.0
  0
LINE
  5
21D
330
20F
100
AcDbEntity
  8
SLD-0
 62
     7
100
AcDbLine
 10
121.3945178898
 20
164.1431945887
 30
0.0
 11
101.3945178898
 21
164.1431945887
 31
0.0
  0
LINE
  5
21E
330
20F
100
AcDbEntity
  8
SLD-0
 62
     7
100
AcDbLine
 10
118.3945178898
 20
164.9470415887
 30
0.0
 11
121.3945178898
 21
164.1431945887
 31
0.0
  0
LINE
  5
21F
330
20F
100
AcDbEntity
  8
SLD-0
 62
     7
100
AcDbLine
 10
121.3945178898
 20
164.1431945887
 30
0.0
 11
118.3945178898
 21
163.3393475887
 31
0.0
  0
LINE
  5
220
330
20F
100
AcDbEntity
  8
SLD-0
 62
     7
100
AcDbLine
 10
121.3945178898
 20
164.1431945887
 30
0.0
 11
118.3945178898
 21
164.1431945887
 31
0.0
  0
LINE
  5
221
330
20F
100
AcDbEntity
  8
SLD-0
 62
     7
100
AcDbLine
 10
104.3945178898
 20
163.3393475887
 30
0.0
 11
101.3945178898
 21
164.1431945887
 31
0.0
  0
LINE
  5
222
330
20F
100
AcDbEntity
  8
SLD-0
 62
     7
100
AcDbLine
 10
101.3945178898
 20
164.1431945887
 30
0.0
 11
104.3945178898
 21
164.9470415887
 31
0.0
  0
LINE
  5
223
330
20F
100
AcDbEntity
  8
SLD-0
 62
     7
100
AcDbLine
 10
101.3945178898
 20
164.1431945887
 30
0.0
 11
104.3945178898
 21
164.1431945887
 31
0.0
  0
MTEXT
  5
224
330
20F
100
AcDbEntity
  8
SLD-0
 62
     7
100
AcDbMText
 10
109.3590826666
 20
168.6698882847
 30
0.1
 40
3.5
 41
0.0
 71
     1
 72
     1
  1
20
  7
SLDTEXTSTYLE0
 73
     1
 44
1.0
  0
ENDBLK
  5
21A
330
20F
100
AcDbEntity
  8
0
100
AcDbBlockEnd
  0
BLOCK
  5
232
330
226
100
AcDbEntity
  8
0
100
AcDbBlockBegin
  2
*D14
 70
     1
 71
     0
 10
0.0
 20
0.0
 30
0.0
  3
*D14
  1

  0
LINE
  5
234
330
226
100
AcDbEntity
  8
SLD-0
 62
     7
100
AcDbLine
 10
136.8945178898
 20
176.51726783
 30
0.0
 11
153.1307079581
 21
176.51726783
 31
0.0
  0
LINE
  5
235
330
226
100
AcDbEntity
  8
SLD-0
 62
     7
100
AcDbLine
 10
135.5445178898
 20
181.81726783
 30
0.0
 11
153.1307079581
 21
181.81726783
 31
0.0
  0
LINE
  5
236
330
226
100
AcDbEntity
  8
SLD-0
 62
     7
100
AcDbLine
 10
152.1307079581
 20
176.51726783
 30
0.0
 11
152.1307079581
 21
171.51726783
 31
0.0
  0
LINE
  5
237
330
226
100
AcDbEntity
  8
SLD-0
 62
     7
100
AcDbLine
 10
152.1307079581
 20
176.51726783
 30
0.0
 11
152.1307079581
 21
181.81726783
 31
0.0
  0
LINE
  5
238
330
226
100
AcDbEntity
  8
SLD-0
 62
     7
100
AcDbLine
 10
152.1307079581
 20
181.81726783
 30
0.0
 11
152.1307079581
 21
199.0398492715
 31
0.0
  0
LINE
  5
239
330
226
100
AcDbEntity
  8
SLD-0
 62
     7
100
AcDbLine
 10
151.3268609581
 20
173.51726783
 30
0.0
 11
152.1307079581
 21
176.51726783
 31
0.0
  0
LINE
  5
23A
330
226
100
AcDbEntity
  8
SLD-0
 62
     7
100
AcDbLine
 10
152.1307079581
 20
176.51726783
 30
0.0
 11
152.9345549581
 21
173.51726783
 31
0.0
  0
LINE
  5
23B
330
226
100
AcDbEntity
  8
SLD-0
 62
     7
100
AcDbLine
 10
152.1307079581
 20
176.51726783
 30
0.0
 11
152.1307079581
 21
173.51726783
 31
0.0
  0
LINE
  5
23C
330
226
100
AcDbEntity
  8
SLD-0
 62
     7
100
AcDbLine
 10
152.9345549581
 20
184.81726783
 30
0.0
 11
152.1307079581
 21
181.81726783
 31
0.0
  0
LINE
  5
23D
330
226
100
AcDbEntity
  8
SLD-0
 62
     7
100
AcDbLine
 10
152.1307079581
 20
181.81726783
 30
0.0
 11
151.3268609581
 21
184.81726783
 31
0.0
  0
LINE
  5
23E
330
226
100
AcDbEntity
  8
SLD-0
 62
     7
100
AcDbLine
 10
152.1307079581
 20
181.81726783
 30
0.0
 11
152.1307079581
 21
184.81726783
 31
0.0
  0
MTEXT
  5
23F
330
226
100
AcDbEntity
  8
SLD-0
 62
     7
100
AcDbMText
 10
147.6040142621
 20
191.3423893197
 30
0.1
 40
3.5
 41
0.0
 71
     1
 72
     1
  1
5.3
  7
SLDTEXTSTYLE0
 11
6.123031769111886E-17
 21
1.0
 31
0.0
 73
     1
 44
1.0
  0
ENDBLK
  5
233
330
226
100
AcDbEntity
  8
0
100
AcDbBlockEnd
  0
BLOCK
  5
24C
330
241
100
AcDbEntity
  8
0
100
AcDbBlockBegin
  2
*D15
 70
     1
 71
     0
 10
0.0
 20
0.0
 30
0.0
  3
*D15
  1

  0
LINE
  5
24E
330
241
100
AcDbEntity
  8
SLD-0
 62
     7
100
AcDbLine
 10
136.8945178898
 20
187.11726783
 30
0.0
 11
161.9868541357
 21
187.11726783
 31
0.0
  0
LINE
  5
24F
330
241
100
AcDbEntity
  8
SLD-0
 62
     7
100
AcDbLine
 10
136.8945178898
 20
176.51726783
 30
0.0
 11
161.9868541357
 21
176.51726783
 31
0.0
  0
LINE
  5
250
330
241
100
AcDbEntity
  8
SLD-0
 62
     7
100
AcDbLine
 10
160.9868541357
 20
187.11726783
 30
0.0
 11
160.9868541357
 21
199.2944316573
 31
0.0
  0
LINE
  5
251
330
241
100
AcDbEntity
  8
SLD-0
 62
     7
100
AcDbLine
 10
160.9868541357
 20
187.11726783
 30
0.0
 11
160.9868541357
 21
176.51726783
 31
0.0
  0
LINE
  5
252
330
241
100
AcDbEntity
  8
SLD-0
 62
     7
100
AcDbLine
 10
160.1830071357
 20
184.11726783
 30
0.0
 11
160.9868541357
 21
187.11726783
 31
0.0
  0
LINE
  5
253
330
241
100
AcDbEntity
  8
SLD-0
 62
     7
100
AcDbLine
 10
160.9868541357
 20
187.11726783
 30
0.0
 11
161.7907011357
 21
184.11726783
 31
0.0
  0
LINE
  5
254
330
241
100
AcDbEntity
  8
SLD-0
 62
     7
100
AcDbLine
 10
160.9868541357
 20
187.11726783
 30
0.0
 11
160.9868541357
 21
184.11726783
 31
0.0
  0
LINE
  5
255
330
241
100
AcDbEntity
  8
SLD-0
 62
     7
100
AcDbLine
 10
161.7907011357
 20
179.51726783
 30
0.0
 11
160.9868541357
 21
176.51726783
 31
0.0
  0
LINE
  5
256
330
241
100
AcDbEntity
  8
SLD-0
 62
     7
100
AcDbLine
 10
160.9868541357
 20
176.51726783
 30
0.0
 11
160.1830071357
 21
179.51726783
 31
0.0
  0
LINE
  5
257
330
241
100
AcDbEntity
  8
SLD-0
 62
     7
100
AcDbLine
 10
160.9868541357
 20
176.51726783
 30
0.0
 11
160.9868541357
 21
179.51726783
 31
0.0
  0
MTEXT
  5
258
330
241
100
AcDbEntity
  8
SLD-0
 62
     7
100
AcDbMText
 10
156.4601604398
 20
189.5615364823
 30
0.1
 40
3.5
 41
0.0
 71
     1
 72
     1
  1
10.6
  7
SLDTEXTSTYLE0
 11
6.123031769111886E-17
 21
1.0
 31
0.0
 73
     1
 44
1.0
  0
ENDBLK
  5
24D
330
241
100
AcDbEntity
  8
0
100
AcDbBlockEnd
  0
BLOCK
  5
261
330
25A
100
AcDbEntity
  8
0
100
AcDbBlockBegin
  2
*D16
 70
     1
 71
     0
 10
0.0
 20
0.0
 30
0.0
  3
*D16
  1

  0
LINE
  5
263
330
25A
100
AcDbEntity
  8
SLD-0
 62
     7
100
AcDbLine
 10
100.5712536507
 20
180.5633794807
 30
0.0
 11
91.5975986058
 21
166.8958824888
 31
0.0
  0
LINE
  5
264
330
25A
100
AcDbEntity
  8
SLD-0
 62
     7
100
AcDbLine
 10
91.5975986058
 20
166.8958824888
 30
0.0
 11
78.6897034309
 21
166.8958824888
 31
0.0
  0
LINE
  5
265
330
25A
100
AcDbEntity
  8
SLD-0
 62
     7
100
AcDbLine
 10
98.2527689138
 20
178.4967884412
 30
0.0
 11
100.5712536507
 21
180.5633794807
 31
0.0
  0
LINE
  5
266
330
25A
100
AcDbEntity
  8
SLD-0
 62
     7
100
AcDbLine
 10
100.5712536507
 20
180.5633794807
 30
0.0
 11
99.5966814311
 21
177.6144171228
 31
0.0
  0
LINE
  5
267
330
25A
100
AcDbEntity
  8
SLD-0
 62
     7
100
AcDbLine
 10
100.5712536507
 20
180.5633794807
 30
0.0
 11
98.9247251725
 21
178.055602782
 31
0.0
  0
MTEXT
  5
268
330
25A
100
AcDbEntity
  8
SLD-0
 62
     7
100
AcDbMText
 10
80.2772034309
 20
171.4225761847
 30
0.1
 40
3.5
 41
0.0
 71
     1
 72
     1
  1
2-M3
  7
SLDTEXTSTYLE0
 73
     1
 44
1.0
  0
ENDBLK
  5
262
330
25A
100
AcDbEntity
  8
0
100
AcDbBlockEnd
  0
ENDSEC
  0
SECTION
  2
ENTITIES
  0
LINE
  5
6A
330
1F
100
AcDbEntity
  8
SLD-0
  6
Continuous
 62
   179
100
AcDbLine
 10
20.2604743903
 20
285.0
 30
0.0
 11
196.7604743903
 21
285.0
 31
0.0
  0
LINE
  5
6B
330
1F
100
AcDbEntity
  8
SLD-0
  6
Continuous
 62
   179
100
AcDbLine
 10
20.2604743903
 20
285.0
 30
0.0
 11
20.2604743903
 21
10.0
 31
0.0
  0
LINE
  5
6C
330
1F
100
AcDbEntity
  8
SLD-0
  6
Continuous
 62
   179
100
AcDbLine
 10
20.2604743903
 20
10.0
 30
0.0
 11
196.7604743903
 21
10.0
 31
0.0
  0
LINE
  5
6D
330
1F
100
AcDbEntity
  8
SLD-0
  6
Continuous
 62
   179
100
AcDbLine
 10
196.7604743903
 20
285.0
 30
0.0
 11
196.7604743903
 21
10.0
 31
0.0
  0
LINE
  5
6E
330
1F
100
AcDbEntity
  8
SLD-0
  6
Continuous
 62
   179
100
AcDbLine
 10
65.7604743903
 20
285.0
 30
0.0
 11
196.7604743903
 21
285.0
 31
0.0
  0
LINE
  5
6F
330
1F
100
AcDbEntity
  8
SLD-0
  6
Continuous
 62
   179
100
AcDbLine
 10
196.7604743903
 20
285.0
 30
0.0
 11
196.7604743903
 21
264.25
 31
0.0
  0
LINE
  5
70
330
1F
100
AcDbEntity
  8
SLD-0
  6
Continuous
 62
   179
100
AcDbLine
 10
127.0104743903
 20
50.75
 30
0.0
 11
196.7604743903
 21
50.75
 31
0.0
  0
LINE
  5
71
330
1F
100
AcDbEntity
  8
SLD-0
  6
Continuous
 62
   179
100
AcDbLine
 10
116.7604743903
 20
60.75
 30
0.0
 11
196.7604743903
 21
60.75
 31
0.0
  0
LINE
  5
72
330
1F
100
AcDbEntity
  8
SLD-0
  6
Continuous
 62
   179
100
AcDbLine
 10
127.0104743903
 20
50.75
 30
0.0
 11
127.0104743903
 21
10.0
 31
0.0
  0
LINE
  5
73
330
1F
100
AcDbEntity
  8
SLD-0
  6
Continuous
 62
   179
100
AcDbLine
 10
127.0104743903
 20
22.75
 30
0.0
 11
196.7604743903
 21
22.75
 31
0.0
  0
LINE
  5
74
330
1F
100
AcDbEntity
  8
SLD-0
  6
Continuous
 62
   179
100
AcDbLine
 10
127.0104743903
 20
36.75
 30
0.0
 11
196.7604743903
 21
36.75
 31
0.0
  0
LINE
  5
75
330
1F
100
AcDbEntity
  8
SLD-0
  6
Continuous
 62
   179
100
AcDbLine
 10
116.7604743903
 20
70.75
 30
0.0
 11
196.7604743903
 21
70.75
 31
0.0
  0
LINE
  5
76
330
1F
100
AcDbEntity
  8
SLD-0
  6
Continuous
 62
   179
100
AcDbLine
 10
116.7604743903
 20
90.75
 30
0.0
 11
196.7604743903
 21
90.75
 31
0.0
  0
LINE
  5
77
330
1F
100
AcDbEntity
  8
SLD-0
  6
Continuous
 62
   179
100
AcDbLine
 10
156.7604743903
 20
90.75
 30
0.0
 11
156.7604743903
 21
60.75
 31
0.0
  0
LINE
  5
78
330
1F
100
AcDbEntity
  8
SLD-0
  6
Continuous
 62
   179
100
AcDbLine
 10
116.7604743903
 20
90.75
 30
0.0
 11
116.7604743903
 21
60.75
 31
0.0
  0
LINE
  5
79
330
1F
100
AcDbEntity
  8
SLD-0
  6
Continuous
 62
   179
100
AcDbLine
 10
116.7604743903
 20
80.75
 30
0.0
 11
196.7604743903
 21
80.75
 31
0.0
  0
LINE
  5
7A
330
1F
100
AcDbEntity
  8
SLD-0
  6
Continuous
 62
   179
100
AcDbLine
 10
135.8945178898
 20
187.11726783
 30
0.0
 11
86.8945178898
 21
187.11726783
 31
0.0
  0
LINE
  5
7B
330
1F
100
AcDbEntity
  8
SLD-0
  6
Continuous
 62
   179
100
AcDbLine
 10
86.8945178898
 20
176.51726783
 30
0.0
 11
135.8945178898
 21
176.51726783
 31
0.0
  0
LINE
  5
7C
330
1F
100
AcDbEntity
  8
SLD-0
  6
Continuous
 62
   179
100
AcDbLine
 10
135.8945178898
 20
186.61726783
 30
0.0
 11
135.8945178898
 21
184.6415318988
 31
0.0
  0
LINE
  5
7D
330
1F
100
AcDbEntity
  8
SLD-0
  6
Continuous
 62
   179
100
AcDbLine
 10
86.8945178898
 20
186.61726783
 30
0.0
 11
86.8945178898
 21
184.6415318988
 31
0.0
  0
LINE
  5
7E
330
1F
100
AcDbEntity
  8
SLD-0
  6
Continuous
 62
   179
100
AcDbLine
 10
135.8945178898
 20
187.11726783
 30
0.0
 11
135.8945178898
 21
186.61726783
 31
0.0
  0
LINE
  5
7F
330
1F
100
AcDbEntity
  8
SLD-0
  6
Continuous
 62
   179
100
AcDbLine
 10
86.8945178898
 20
187.11726783
 30
0.0
 11
86.8945178898
 21
186.61726783
 31
0.0
  0
LINE
  5
80
330
1F
100
AcDbEntity
  8
SLD-0
  6
Continuous
 62
   179
100
AcDbLine
 10
135.8945178898
 20
177.01726783
 30
0.0
 11
135.8945178898
 21
176.51726783
 31
0.0
  0
LINE
  5
81
330
1F
100
AcDbEntity
  8
SLD-0
  6
Continuous
 62
   179
100
AcDbLine
 10
86.8945178898
 20
177.01726783
 30
0.0
 11
86.8945178898
 21
176.51726783
 31
0.0
  0
LINE
  5
82
330
1F
100
AcDbEntity
  8
SLD-0
  6
Continuous
 62
   179
100
AcDbLine
 10
135.8945178898
 20
184.6415318988
 30
0.0
 11
135.8945178898
 21
184.4293998644
 31
0.0
  0
LINE
  5
83
330
1F
100
AcDbEntity
  8
SLD-0
  6
Continuous
 62
   179
100
AcDbLine
 10
86.8945178898
 20
184.6415318988
 30
0.0
 11
86.8945178898
 21
184.4293998644
 31
0.0
  0
LINE
  5
84
330
1F
100
AcDbEntity
  8
SLD-0
  6
Continuous
 62
   179
100
AcDbLine
 10
135.8945178898
 20
178.9930037613
 30
0.0
 11
135.8945178898
 21
177.01726783
 31
0.0
  0
LINE
  5
85
330
1F
100
AcDbEntity
  8
SLD-0
  6
Continuous
 62
   179
100
AcDbLine
 10
86.8945178898
 20
178.9930037613
 30
0.0
 11
86.8945178898
 21
177.01726783
 31
0.0
  0
LINE
  5
86
330
1F
100
AcDbEntity
  8
SLD-0
  6
Continuous
 62
   179
100
AcDbLine
 10
135.8945178898
 20
179.2051357957
 30
0.0
 11
135.8945178898
 21
178.9930037613
 31
0.0
  0
LINE
  5
87
330
1F
100
AcDbEntity
  8
SLD-0
  6
Continuous
 62
   179
100
AcDbLine
 10
86.8945178898
 20
179.2051357957
 30
0.0
 11
86.8945178898
 21
178.9930037613
 31
0.0
  0
LINE
  5
88
330
1F
100
AcDbEntity
  8
SLD-0
  6
Continuous
 62
   179
100
AcDbLine
 10
135.8945178898
 20
184.4293998644
 30
0.0
 11
135.8945178898
 21
183.9051357957
 31
0.0
  0
LINE
  5
89
330
1F
100
AcDbEntity
  8
SLD-0
  6
Continuous
 62
   179
100
AcDbLine
 10
86.8945178898
 20
184.4293998644
 30
0.0
 11
86.8945178898
 21
183.9051357957
 31
0.0
  0
LINE
  5
8A
330
1F
100
AcDbEntity
  8
SLD-0
  6
Continuous
 62
   179
100
AcDbLine
 10
135.8945178898
 20
179.7293998644
 30
0.0
 11
135.8945178898
 21
179.2051357957
 31
0.0
  0
LINE
  5
8B
330
1F
100
AcDbEntity
  8
SLD-0
  6
Continuous
 62
   179
100
AcDbLine
 10
86.8945178898
 20
179.7293998644
 30
0.0
 11
86.8945178898
 21
179.2051357957
 31
0.0
  0
LINE
  5
8C
330
1F
100
AcDbEntity
  8
SLD-0
  6
Continuous
 62
   179
100
AcDbLine
 10
135.8945178898
 20
183.9051357957
 30
0.0
 11
135.8945178898
 21
183.6930037613
 31
0.0
  0
LINE
  5
8D
330
1F
100
AcDbEntity
  8
SLD-0
  6
Continuous
 62
   179
100
AcDbLine
 10
86.8945178898
 20
183.9051357957
 30
0.0
 11
86.8945178898
 21
183.6930037613
 31
0.0
  0
LINE
  5
8E
330
1F
100
AcDbEntity
  8
SLD-0
  6
Continuous
 62
   179
100
AcDbLine
 10
135.8945178898
 20
179.9415318988
 30
0.0
 11
135.8945178898
 21
179.7293998644
 31
0.0
  0
LINE
  5
8F
330
1F
100
AcDbEntity
  8
SLD-0
  6
Continuous
 62
   179
100
AcDbLine
 10
86.8945178898
 20
179.9415318988
 30
0.0
 11
86.8945178898
 21
179.7293998644
 31
0.0
  0
LINE
  5
90
330
1F
100
AcDbEntity
  8
SLD-0
  6
Continuous
 62
   179
100
AcDbLine
 10
135.8945178898
 20
183.6930037613
 30
0.0
 11
135.8945178898
 21
179.9415318988
 31
0.0
  0
LINE
  5
91
330
1F
100
AcDbEntity
  8
SLD-0
  6
Continuous
 62
   179
100
AcDbLine
 10
86.8945178898
 20
183.6930037613
 30
0.0
 11
86.8945178898
 21
179.9415318988
 31
0.0
  0
LINE
  5
92
330
1F
100
AcDbEntity
  8
SLD-0
 62
   179
100
AcDbLine
 10
131.0885034712
 20
183.6930037658
 30
0.0
 11
131.38229104
 21
183.5563208857
 31
0.0
  0
LINE
  5
93
330
1F
100
AcDbEntity
  8
SLD-0
 62
   179
100
AcDbLine
 10
131.38229104
 20
183.5563208857
 30
0.0
 11
131.6501505883
 21
183.373990743
 31
0.0
  0
LINE
  5
94
330
1F
100
AcDbEntity
  8
SLD-0
 62
   179
100
AcDbLine
 10
131.6501505883
 20
183.373990743
 30
0.0
 11
131.8850524934
 21
183.1507990551
 31
0.0
  0
LINE
  5
95
330
1F
100
AcDbEntity
  8
SLD-0
 62
   179
100
AcDbLine
 10
131.8850524934
 20
183.1507990551
 30
0.0
 11
132.0808313997
 21
182.8926044232
 31
0.0
  0
LINE
  5
96
330
1F
100
AcDbEntity
  8
SLD-0
 62
   179
100
AcDbLine
 10
132.0808313997
 20
182.8926044232
 30
0.0
 11
132.2323464067
 21
182.6061839652
 31
0.0
  0
LINE
  5
97
330
1F
100
AcDbEntity
  8
SLD-0
 62
   179
100
AcDbLine
 10
132.2323464067
 20
182.6061839652
 30
0.0
 11
132.335620767
 21
182.2990557244
 31
0.0
  0
LINE
  5
98
330
1F
100
AcDbEntity
  8
SLD-0
 62
   179
100
AcDbLine
 10
132.335620767
 20
182.2990557244
 30
0.0
 11
132.3879443319
 21
181.9792813163
 31
0.0
  0
LINE
  5
99
330
1F
100
AcDbEntity
  8
SLD-0
 62
   179
100
AcDbLine
 10
132.3879443319
 20
181.9792813163
 30
0.0
 11
132.3879443319
 21
181.6552543438
 31
0.0
  0
LINE
  5
9A
330
1F
100
AcDbEntity
  8
SLD-0
 62
   179
100
AcDbLine
 10
132.3879443319
 20
181.6552543438
 30
0.0
 11
132.335620767
 21
181.3354799357
 31
0.0
  0
LINE
  5
9B
330
1F
100
AcDbEntity
  8
SLD-0
 62
   179
100
AcDbLine
 10
132.335620767
 20
181.3354799357
 30
0.0
 11
132.2323464067
 21
181.0283516948
 31
0.0
  0
LINE
  5
9C
330
1F
100
AcDbEntity
  8
SLD-0
 62
   179
100
AcDbLine
 10
132.2323464067
 20
181.0283516948
 30
0.0
 11
132.0808313997
 21
180.7419312368
 31
0.0
  0
LINE
  5
9D
330
1F
100
AcDbEntity
  8
SLD-0
 62
   179
100
AcDbLine
 10
132.0808313997
 20
180.7419312368
 30
0.0
 11
131.8850524934
 21
180.4837366049
 31
0.0
  0
LINE
  5
9E
330
1F
100
AcDbEntity
  8
SLD-0
 62
   179
100
AcDbLine
 10
131.8850524934
 20
180.4837366049
 30
0.0
 11
131.6501505883
 21
180.2605449171
 31
0.0
  0
LINE
  5
9F
330
1F
100
AcDbEntity
  8
SLD-0
 62
   179
100
AcDbLine
 10
131.6501505883
 20
180.2605449171
 30
0.0
 11
131.38229104
 21
180.0782147744
 31
0.0
  0
LINE
  5
A0
330
1F
100
AcDbEntity
  8
SLD-0
 62
   179
100
AcDbLine
 10
131.38229104
 20
180.0782147744
 30
0.0
 11
131.0885034712
 21
179.9415318943
 31
0.0
  0
LINE
  5
A1
330
1F
100
AcDbEntity
  8
SLD-0
 62
   179
100
AcDbLine
 10
129.7005329491
 20
179.9415318943
 30
0.0
 11
129.4067453803
 21
180.0782147744
 31
0.0
  0
LINE
  5
A2
330
1F
100
AcDbEntity
  8
SLD-0
 62
   179
100
AcDbLine
 10
129.4067453803
 20
180.0782147744
 30
0.0
 11
129.138885832
 21
180.2605449171
 31
0.0
  0
LINE
  5
A3
330
1F
100
AcDbEntity
  8
SLD-0
 62
   179
100
AcDbLine
 10
129.138885832
 20
180.2605449171
 30
0.0
 11
128.9039820643
 21
180.4837366049
 31
0.0
  0
LINE
  5
A4
330
1F
100
AcDbEntity
  8
SLD-0
 62
   179
100
AcDbLine
 10
128.9039820643
 20
180.4837366049
 30
0.0
 11
128.7082050206
 21
180.7419312368
 31
0.0
  0
LINE
  5
A5
330
1F
100
AcDbEntity
  8
SLD-0
 62
   179
100
AcDbLine
 10
128.7082050206
 20
180.7419312368
 30
0.0
 11
128.5566900136
 21
181.0283516948
 31
0.0
  0
LINE
  5
A6
330
1F
100
AcDbEntity
  8
SLD-0
 62
   179
100
AcDbLine
 10
128.5566900136
 20
181.0283516948
 30
0.0
 11
128.4534156533
 21
181.3354799357
 31
0.0
  0
LINE
  5
A7
330
1F
100
AcDbEntity
  8
SLD-0
 62
   179
100
AcDbLine
 10
128.4534156533
 20
181.3354799357
 30
0.0
 11
128.4010902257
 21
181.6552543438
 31
0.0
  0
LINE
  5
A8
330
1F
100
AcDbEntity
  8
SLD-0
 62
   179
100
AcDbLine
 10
128.4010902257
 20
181.6552543438
 30
0.0
 11
128.4010902257
 21
181.9792813163
 31
0.0
  0
LINE
  5
A9
330
1F
100
AcDbEntity
  8
SLD-0
 62
   179
100
AcDbLine
 10
128.4010902257
 20
181.9792813163
 30
0.0
 11
128.4534156533
 21
182.2990557244
 31
0.0
  0
LINE
  5
AA
330
1F
100
AcDbEntity
  8
SLD-0
 62
   179
100
AcDbLine
 10
128.4534156533
 20
182.2990557244
 30
0.0
 11
128.5566900136
 21
182.6061839652
 31
0.0
  0
LINE
  5
AB
330
1F
100
AcDbEntity
  8
SLD-0
 62
   179
100
AcDbLine
 10
128.5566900136
 20
182.6061839652
 30
0.0
 11
128.7082050206
 21
182.8926044232
 31
0.0
  0
LINE
  5
AC
330
1F
100
AcDbEntity
  8
SLD-0
 62
   179
100
AcDbLine
 10
128.7082050206
 20
182.8926044232
 30
0.0
 11
128.9039820643
 21
183.1507990551
 31
0.0
  0
LINE
  5
AD
330
1F
100
AcDbEntity
  8
SLD-0
 62
   179
100
AcDbLine
 10
128.9039820643
 20
183.1507990551
 30
0.0
 11
129.138885832
 21
183.373990743
 31
0.0
  0
LINE
  5
AE
330
1F
100
AcDbEntity
  8
SLD-0
 62
   179
100
AcDbLine
 10
129.138885832
 20
183.373990743
 30
0.0
 11
129.4067453803
 21
183.5563208857
 31
0.0
  0
LINE
  5
AF
330
1F
100
AcDbEntity
  8
SLD-0
 62
   179
100
AcDbLine
 10
129.4067453803
 20
183.5563208857
 30
0.0
 11
129.7005329491
 21
183.6930037658
 31
0.0
  0
LINE
  5
B0
330
1F
100
AcDbEntity
  8
SLD-0
  6
HIDDEN
 62
   179
100
AcDbLine
 10
129.7005329491
 20
183.6930037658
 30
0.0
 11
129.8692103686
 21
183.7470480656
 31
0.0
  0
LINE
  5
B1
330
1F
100
AcDbEntity
  8
SLD-0
  6
HIDDEN
 62
   179
100
AcDbLine
 10
129.8692103686
 20
183.7470480656
 30
0.0
 11
130.0420060964
 21
183.7859566272
 31
0.0
  0
LINE
  5
B2
330
1F
100
AcDbEntity
  8
SLD-0
  6
HIDDEN
 62
   179
100
AcDbLine
 10
130.0420060964
 20
183.7859566272
 30
0.0
 11
130.2175678523
 21
183.8094245591
 31
0.0
  0
LINE
  5
B3
330
1F
100
AcDbEntity
  8
SLD-0
  6
HIDDEN
 62
   179
100
AcDbLine
 10
130.2175678523
 20
183.8094245591
 30
0.0
 11
130.3945172788
 21
183.817267925
 31
0.0
  0
LINE
  5
B4
330
1F
100
AcDbEntity
  8
SLD-0
  6
HIDDEN
 62
   179
100
AcDbLine
 10
130.3945172788
 20
183.817267925
 30
0.0
 11
130.5714667054
 21
183.8094245591
 31
0.0
  0
LINE
  5
B5
330
1F
100
AcDbEntity
  8
SLD-0
  6
HIDDEN
 62
   179
100
AcDbLine
 10
130.5714667054
 20
183.8094245591
 30
0.0
 11
130.7470284613
 21
183.7859566272
 31
0.0
  0
LINE
  5
B6
330
1F
100
AcDbEntity
  8
SLD-0
  6
HIDDEN
 62
   179
100
AcDbLine
 10
130.7470284613
 20
183.7859566272
 30
0.0
 11
130.9198260518
 21
183.7470480656
 31
0.0
  0
LINE
  5
B7
330
1F
100
AcDbEntity
  8
SLD-0
  6
HIDDEN
 62
   179
100
AcDbLine
 10
130.9198260518
 20
183.7470480656
 30
0.0
 11
131.0885034712
 21
183.6930037658
 31
0.0
  0
LINE
  5
B8
330
1F
100
AcDbEntity
  8
SLD-0
  6
HIDDEN
 62
   179
100
AcDbLine
 10
131.0885034712
 20
179.9415318943
 30
0.0
 11
130.9198260518
 21
179.8874875945
 31
0.0
  0
LINE
  5
B9
330
1F
100
AcDbEntity
  8
SLD-0
  6
HIDDEN
 62
   179
100
AcDbLine
 10
130.9198260518
 20
179.8874875945
 30
0.0
 11
130.7470284613
 21
179.8485790328
 31
0.0
  0
LINE
  5
BA
330
1F
100
AcDbEntity
  8
SLD-0
  6
HIDDEN
 62
   179
100
AcDbLine
 10
130.7470284613
 20
179.8485790328
 30
0.0
 11
130.5714667054
 21
179.8251111009
 31
0.0
  0
LINE
  5
BB
330
1F
100
AcDbEntity
  8
SLD-0
  6
HIDDEN
 62
   179
100
AcDbLine
 10
130.5714667054
 20
179.8251111009
 30
0.0
 11
130.3945172788
 21
179.817267735
 31
0.0
  0
LINE
  5
BC
330
1F
100
AcDbEntity
  8
SLD-0
  6
HIDDEN
 62
   179
100
AcDbLine
 10
130.3945172788
 20
179.817267735
 30
0.0
 11
130.2175678523
 21
179.8251111009
 31
0.0
  0
LINE
  5
BD
330
1F
100
AcDbEntity
  8
SLD-0
  6
HIDDEN
 62
   179
100
AcDbLine
 10
130.2175678523
 20
179.8251111009
 30
0.0
 11
130.0420060964
 21
179.8485790328
 31
0.0
  0
LINE
  5
BE
330
1F
100
AcDbEntity
  8
SLD-0
  6
HIDDEN
 62
   179
100
AcDbLine
 10
130.0420060964
 20
179.8485790328
 30
0.0
 11
129.8692103686
 21
179.8874875945
 31
0.0
  0
LINE
  5
BF
330
1F
100
AcDbEntity
  8
SLD-0
  6
HIDDEN
 62
   179
100
AcDbLine
 10
129.8692103686
 20
179.8874875945
 30
0.0
 11
129.7005329491
 21
179.9415318943
 31
0.0
  0
LINE
  5
C0
330
1F
100
AcDbEntity
  8
SLD-0
  6
HIDDEN
 62
   179
100
AcDbLine
 10
128.8869202347
 20
183.1314773713
 30
0.0
 11
129.1152768047
 21
183.3545695241
 31
0.0
  0
LINE
  5
C1
330
1F
100
AcDbEntity
  8
SLD-0
  6
HIDDEN
 62
   179
100
AcDbLine
 10
129.1152768047
 20
183.3545695241
 30
0.0
 11
129.3033760251
 21
183.4863527161
 31
0.0
  0
LINE
  5
C2
330
1F
100
AcDbEntity
  8
SLD-0
  6
HIDDEN
 62
   179
100
AcDbLine
 10
129.6731148125
 20
183.679526364
 30
0.0
 11
129.7308381857
 21
183.6989965937
 31
0.0
  0
LINE
  5
C3
330
1F
100
AcDbEntity
  8
SLD-0
  6
HIDDEN
 62
   179
100
AcDbLine
 10
130.9494141699
 20
183.7384194783
 30
0.0
 11
131.1787635298
 21
183.6421005843
 31
0.0
  0
LINE
  5
C4
330
1F
100
AcDbEntity
  8
SLD-0
  6
HIDDEN
 62
   179
100
AcDbLine
 10
131.6479675682
 20
183.373563848
 30
0.0
 11
131.9021161856
 21
183.1314773713
 31
0.0
  0
LINE
  5
C5
330
1F
100
AcDbEntity
  8
SLD-0
  6
HIDDEN
 62
   179
100
AcDbLine
 10
131.9021161856
 20
180.5030582887
 30
0.0
 11
131.6737577529
 21
180.279966136
 31
0.0
  0
LINE
  5
C6
330
1F
100
AcDbEntity
  8
SLD-0
  6
HIDDEN
 62
   179
100
AcDbLine
 10
131.6737577529
 20
180.279966136
 30
0.0
 11
131.4856585325
 21
180.148182944
 31
0.0
  0
LINE
  5
C7
330
1F
100
AcDbEntity
  8
SLD-0
  6
HIDDEN
 62
   179
100
AcDbLine
 10
131.1159216078
 20
179.9550092961
 30
0.0
 11
131.058196372
 21
179.9355390664
 31
0.0
  0
LINE
  5
C8
330
1F
100
AcDbEntity
  8
SLD-0
  6
HIDDEN
 62
   179
100
AcDbLine
 10
129.8396222504
 20
179.8961161818
 30
0.0
 11
129.6102728905
 21
179.9924350758
 31
0.0
  0
LINE
  5
C9
330
1F
100
AcDbEntity
  8
SLD-0
  6
HIDDEN
 62
   179
100
AcDbLine
 10
129.1410688521
 20
180.2609718121
 30
0.0
 11
128.8869202347
 21
180.5030582887
 31
0.0
  0
LINE
  5
CA
330
1F
100
AcDbEntity
  8
SLD-0
 62
   179
100
AcDbLine
 10
93.0885028304
 20
183.6930037658
 30
0.0
 11
93.3822903992
 21
183.5563208857
 31
0.0
  0
LINE
  5
CB
330
1F
100
AcDbEntity
  8
SLD-0
 62
   179
100
AcDbLine
 10
93.3822903992
 20
183.5563208857
 30
0.0
 11
93.6501499476
 21
183.373990743
 31
0.0
  0
LINE
  5
CC
330
1F
100
AcDbEntity
  8
SLD-0
 62
   179
100
AcDbLine
 10
93.6501499476
 20
183.373990743
 30
0.0
 11
93.8850537153
 21
183.1507990551
 31
0.0
  0
LINE
  5
CD
330
1F
100
AcDbEntity
  8
SLD-0
 62
   179
100
AcDbLine
 10
93.8850537153
 20
183.1507990551
 30
0.0
 11
94.080830759
 21
182.8926044232
 31
0.0
  0
LINE
  5
CE
330
1F
100
AcDbEntity
  8
SLD-0
 62
   179
100
AcDbLine
 10
94.080830759
 20
182.8926044232
 30
0.0
 11
94.232345766
 21
182.6061839652
 31
0.0
  0
LINE
  5
CF
330
1F
100
AcDbEntity
  8
SLD-0
 62
   179
100
AcDbLine
 10
94.232345766
 20
182.6061839652
 30
0.0
 11
94.3356201263
 21
182.2990557244
 31
0.0
  0
LINE
  5
D0
330
1F
100
AcDbEntity
  8
SLD-0
 62
   179
100
AcDbLine
 10
94.3356201263
 20
182.2990557244
 30
0.0
 11
94.3879455538
 21
181.9792813163
 31
0.0
  0
LINE
  5
D1
330
1F
100
AcDbEntity
  8
SLD-0
 62
   179
100
AcDbLine
 10
94.3879455538
 20
181.9792813163
 30
0.0
 11
94.3879455538
 21
181.6552543438
 31
0.0
  0
LINE
  5
D2
330
1F
100
AcDbEntity
  8
SLD-0
 62
   179
100
AcDbLine
 10
94.3879455538
 20
181.6552543438
 30
0.0
 11
94.3356201263
 21
181.3354799357
 31
0.0
  0
LINE
  5
D3
330
1F
100
AcDbEntity
  8
SLD-0
 62
   179
100
AcDbLine
 10
94.3356201263
 20
181.3354799357
 30
0.0
 11
94.232345766
 21
181.0283516948
 31
0.0
  0
LINE
  5
D4
330
1F
100
AcDbEntity
  8
SLD-0
 62
   179
100
AcDbLine
 10
94.232345766
 20
181.0283516948
 30
0.0
 11
94.080830759
 21
180.7419312368
 31
0.0
  0
LINE
  5
D5
330
1F
100
AcDbEntity
  8
SLD-0
 62
   179
100
AcDbLine
 10
94.080830759
 20
180.7419312368
 30
0.0
 11
93.8850537153
 21
180.4837366049
 31
0.0
  0
LINE
  5
D6
330
1F
100
AcDbEntity
  8
SLD-0
 62
   179
100
AcDbLine
 10
93.8850537153
 20
180.4837366049
 30
0.0
 11
93.6501499476
 21
180.2605449171
 31
0.0
  0
LINE
  5
D7
330
1F
100
AcDbEntity
  8
SLD-0
 62
   179
100
AcDbLine
 10
93.6501499476
 20
180.2605449171
 30
0.0
 11
93.3822903992
 21
180.0782147744
 31
0.0
  0
LINE
  5
D8
330
1F
100
AcDbEntity
  8
SLD-0
 62
   179
100
AcDbLine
 10
93.3822903992
 20
180.0782147744
 30
0.0
 11
93.0885028304
 21
179.9415318943
 31
0.0
  0
LINE
  5
D9
330
1F
100
AcDbEntity
  8
SLD-0
 62
   179
100
AcDbLine
 10
91.7005323084
 20
179.9415318943
 30
0.0
 11
91.4067447396
 21
180.0782147744
 31
0.0
  0
LINE
  5
DA
330
1F
100
AcDbEntity
  8
SLD-0
 62
   179
100
AcDbLine
 10
91.4067447396
 20
180.0782147744
 30
0.0
 11
91.1388851912
 21
180.2605449171
 31
0.0
  0
LINE
  5
DB
330
1F
100
AcDbEntity
  8
SLD-0
 62
   179
100
AcDbLine
 10
91.1388851912
 20
180.2605449171
 30
0.0
 11
90.9039832862
 21
180.4837366049
 31
0.0
  0
LINE
  5
DC
330
1F
100
AcDbEntity
  8
SLD-0
 62
   179
100
AcDbLine
 10
90.9039832862
 20
180.4837366049
 30
0.0
 11
90.7082043798
 21
180.7419312368
 31
0.0
  0
LINE
  5
DD
330
1F
100
AcDbEntity
  8
SLD-0
 62
   179
100
AcDbLine
 10
90.7082043798
 20
180.7419312368
 30
0.0
 11
90.5566893728
 21
181.0283516948
 31
0.0
  0
LINE
  5
DE
330
1F
100
AcDbEntity
  8
SLD-0
 62
   179
100
AcDbLine
 10
90.5566893728
 20
181.0283516948
 30
0.0
 11
90.4534150125
 21
181.3354799357
 31
0.0
  0
LINE
  5
DF
330
1F
100
AcDbEntity
  8
SLD-0
 62
   179
100
AcDbLine
 10
90.4534150125
 20
181.3354799357
 30
0.0
 11
90.4010914476
 21
181.6552543438
 31
0.0
  0
LINE
  5
E0
330
1F
100
AcDbEntity
  8
SLD-0
 62
   179
100
AcDbLine
 10
90.4010914476
 20
181.6552543438
 30
0.0
 11
90.4010914476
 21
181.9792813163
 31
0.0
  0
LINE
  5
E1
330
1F
100
AcDbEntity
  8
SLD-0
 62
   179
100
AcDbLine
 10
90.4010914476
 20
181.9792813163
 30
0.0
 11
90.4534150125
 21
182.2990557244
 31
0.0
  0
LINE
  5
E2
330
1F
100
AcDbEntity
  8
SLD-0
 62
   179
100
AcDbLine
 10
90.4534150125
 20
182.2990557244
 30
0.0
 11
90.5566893728
 21
182.6061839652
 31
0.0
  0
LINE
  5
E3
330
1F
100
AcDbEntity
  8
SLD-0
 62
   179
100
AcDbLine
 10
90.5566893728
 20
182.6061839652
 30
0.0
 11
90.7082043798
 21
182.8926044232
 31
0.0
  0
LINE
  5
E4
330
1F
100
AcDbEntity
  8
SLD-0
 62
   179
100
AcDbLine
 10
90.7082043798
 20
182.8926044232
 30
0.0
 11
90.9039832862
 21
183.1507990551
 31
0.0
  0
LINE
  5
E5
330
1F
100
AcDbEntity
  8
SLD-0
 62
   179
100
AcDbLine
 10
90.9039832862
 20
183.1507990551
 30
0.0
 11
91.1388851912
 21
183.373990743
 31
0.0
  0
LINE
  5
E6
330
1F
100
AcDbEntity
  8
SLD-0
 62
   179
100
AcDbLine
 10
91.1388851912
 20
183.373990743
 30
0.0
 11
91.4067447396
 21
183.5563208857
 31
0.0
  0
LINE
  5
E7
330
1F
100
AcDbEntity
  8
SLD-0
 62
   179
100
AcDbLine
 10
91.4067447396
 20
183.5563208857
 30
0.0
 11
91.7005323084
 21
183.6930037658
 31
0.0
  0
LINE
  5
E8
330
1F
100
AcDbEntity
  8
SLD-0
  6
HIDDEN
 62
   179
100
AcDbLine
 10
93.9021155448
 20
180.5030582887
 30
0.0
 11
93.6737589748
 21
180.279966136
 31
0.0
  0
LINE
  5
E9
330
1F
100
AcDbEntity
  8
SLD-0
  6
HIDDEN
 62
   179
100
AcDbLine
 10
93.6737589748
 20
180.279966136
 30
0.0
 11
93.4856597544
 21
180.148182944
 31
0.0
  0
LINE
  5
EA
330
1F
100
AcDbEntity
  8
SLD-0
  6
HIDDEN
 62
   179
100
AcDbLine
 10
93.115920967
 20
179.9550092961
 30
0.0
 11
93.0581975938
 21
179.9355390664
 31
0.0
  0
LINE
  5
EB
330
1F
100
AcDbEntity
  8
SLD-0
  6
HIDDEN
 62
   179
100
AcDbLine
 10
91.8396216096
 20
179.8961161818
 30
0.0
 11
91.6102722497
 21
179.9924350758
 31
0.0
  0
LINE
  5
EC
330
1F
100
AcDbEntity
  8
SLD-0
  6
HIDDEN
 62
   179
100
AcDbLine
 10
91.1410682114
 20
180.2609718121
 30
0.0
 11
90.886919594
 21
180.5030582887
 31
0.0
  0
LINE
  5
ED
330
1F
100
AcDbEntity
  8
SLD-0
  6
HIDDEN
 62
   179
100
AcDbLine
 10
90.886919594
 20
183.1314773713
 30
0.0
 11
91.1152780266
 21
183.3545695241
 31
0.0
  0
LINE
  5
EE
330
1F
100
AcDbEntity
  8
SLD-0
  6
HIDDEN
 62
   179
100
AcDbLine
 10
91.1152780266
 20
183.3545695241
 30
0.0
 11
91.303377247
 21
183.4863527161
 31
0.0
  0
LINE
  5
EF
330
1F
100
AcDbEntity
  8
SLD-0
  6
HIDDEN
 62
   179
100
AcDbLine
 10
91.6731141718
 20
183.679526364
 30
0.0
 11
91.7308394076
 21
183.6989965937
 31
0.0
  0
LINE
  5
F0
330
1F
100
AcDbEntity
  8
SLD-0
  6
HIDDEN
 62
   179
100
AcDbLine
 10
92.9494135292
 20
183.7384194783
 30
0.0
 11
93.1787628891
 21
183.6421005843
 31
0.0
  0
LINE
  5
F1
330
1F
100
AcDbEntity
  8
SLD-0
  6
HIDDEN
 62
   179
100
AcDbLine
 10
93.6479669274
 20
183.373563848
 30
0.0
 11
93.9021155448
 21
183.1314773713
 31
0.0
  0
LINE
  5
F2
330
1F
100
AcDbEntity
  8
SLD-0
  6
HIDDEN
 62
   179
100
AcDbLine
 10
91.7005323084
 20
183.6930037658
 30
0.0
 11
91.8692097278
 21
183.7470480656
 31
0.0
  0
LINE
  5
F3
330
1F
100
AcDbEntity
  8
SLD-0
  6
HIDDEN
 62
   179
100
AcDbLine
 10
91.8692097278
 20
183.7470480656
 30
0.0
 11
92.0420073183
 21
183.7859566272
 31
0.0
  0
LINE
  5
F4
330
1F
100
AcDbEntity
  8
SLD-0
  6
HIDDEN
 62
   179
100
AcDbLine
 10
92.0420073183
 20
183.7859566272
 30
0.0
 11
92.2175690742
 21
183.8094245591
 31
0.0
  0
LINE
  5
F5
330
1F
100
AcDbEntity
  8
SLD-0
  6
HIDDEN
 62
   179
100
AcDbLine
 10
92.2175690742
 20
183.8094245591
 30
0.0
 11
92.3945185007
 21
183.817267925
 31
0.0
  0
LINE
  5
F6
330
1F
100
AcDbEntity
  8
SLD-0
  6
HIDDEN
 62
   179
100
AcDbLine
 10
92.3945185007
 20
183.817267925
 30
0.0
 11
92.5714679273
 21
183.8094245591
 31
0.0
  0
LINE
  5
F7
330
1F
100
AcDbEntity
  8
SLD-0
  6
HIDDEN
 62
   179
100
AcDbLine
 10
92.5714679273
 20
183.8094245591
 30
0.0
 11
92.7470296832
 21
183.7859566272
 31
0.0
  0
LINE
  5
F8
330
1F
100
AcDbEntity
  8
SLD-0
  6
HIDDEN
 62
   179
100
AcDbLine
 10
92.7470296832
 20
183.7859566272
 30
0.0
 11
92.919825411
 21
183.7470480656
 31
0.0
  0
LINE
  5
F9
330
1F
100
AcDbEntity
  8
SLD-0
  6
HIDDEN
 62
   179
100
AcDbLine
 10
92.919825411
 20
183.7470480656
 30
0.0
 11
93.0885028304
 21
183.6930037658
 31
0.0
  0
LINE
  5
FA
330
1F
100
AcDbEntity
  8
SLD-0
  6
HIDDEN
 62
   179
100
AcDbLine
 10
93.0885028304
 20
179.9415318943
 30
0.0
 11
92.919825411
 21
179.8874875945
 31
0.0
  0
LINE
  5
FB
330
1F
100
AcDbEntity
  8
SLD-0
  6
HIDDEN
 62
   179
100
AcDbLine
 10
92.919825411
 20
179.8874875945
 30
0.0
 11
92.7470296832
 21
179.8485790328
 31
0.0
  0
LINE
  5
FC
330
1F
100
AcDbEntity
  8
SLD-0
  6
HIDDEN
 62
   179
100
AcDbLine
 10
92.7470296832
 20
179.8485790328
 30
0.0
 11
92.5714679273
 21
179.8251111009
 31
0.0
  0
LINE
  5
FD
330
1F
100
AcDbEntity
  8
SLD-0
  6
HIDDEN
 62
   179
100
AcDbLine
 10
92.5714679273
 20
179.8251111009
 30
0.0
 11
92.3945185007
 21
179.817267735
 31
0.0
  0
LINE
  5
FE
330
1F
100
AcDbEntity
  8
SLD-0
  6
HIDDEN
 62
   179
100
AcDbLine
 10
92.3945185007
 20
179.817267735
 30
0.0
 11
92.2175690742
 21
179.8251111009
 31
0.0
  0
LINE
  5
FF
330
1F
100
AcDbEntity
  8
SLD-0
  6
HIDDEN
 62
   179
100
AcDbLine
 10
92.2175690742
 20
179.8251111009
 30
0.0
 11
92.0420073183
 21
179.8485790328
 31
0.0
  0
LINE
  5
100
330
1F
100
AcDbEntity
  8
SLD-0
  6
HIDDEN
 62
   179
100
AcDbLine
 10
92.0420073183
 20
179.8485790328
 30
0.0
 11
91.8692097278
 21
179.8874875945
 31
0.0
  0
LINE
  5
101
330
1F
100
AcDbEntity
  8
SLD-0
  6
HIDDEN
 62
   179
100
AcDbLine
 10
91.8692097278
 20
179.8874875945
 30
0.0
 11
91.7005323084
 21
179.9415318943
 31
0.0
  0
LINE
  5
102
330
1F
100
AcDbEntity
  8
SLD-0
  6
HIDDEN
 62
   179
100
AcDbLine
 10
122.1176039638
 20
183.1314773713
 30
0.0
 11
122.3416364031
 21
182.9804333807
 31
0.0
  0
LINE
  5
103
330
1F
100
AcDbEntity
  8
SLD-0
  6
HIDDEN
 62
   179
100
AcDbLine
 10
122.3416364031
 20
182.9804333807
 30
0.0
 11
122.4438900338
 21
182.8805874517
 31
0.0
  0
LINE
  5
104
330
1F
100
AcDbEntity
  8
SLD-0
  6
HIDDEN
 62
   179
100
AcDbLine
 10
122.8905458213
 20
181.881588736
 30
0.0
 11
122.8773946153
 21
181.7251677618
 31
0.0
  0
LINE
  5
105
330
1F
100
AcDbEntity
  8
SLD-0
  6
HIDDEN
 62
   179
100
AcDbLine
 10
122.4886605726
 20
180.7971022041
 30
0.0
 11
122.1176039638
 21
180.5030582887
 31
0.0
  0
LINE
  5
106
330
1F
100
AcDbEntity
  8
SLD-0
  6
HIDDEN
 62
   179
100
AcDbLine
 10
102.1176034795
 20
183.1314773713
 30
0.0
 11
102.3416368501
 21
182.9804333807
 31
0.0
  0
LINE
  5
107
330
1F
100
AcDbEntity
  8
SLD-0
  6
HIDDEN
 62
   179
100
AcDbLine
 10
102.3416368501
 20
182.9804333807
 30
0.0
 11
102.4438904809
 21
182.8805874517
 31
0.0
  0
LINE
  5
108
330
1F
100
AcDbEntity
  8
SLD-0
  6
HIDDEN
 62
   179
100
AcDbLine
 10
102.8905462684
 20
181.881588736
 30
0.0
 11
102.8081447096
 21
181.3526827442
 31
0.0
  0
LINE
  5
109
330
1F
100
AcDbEntity
  8
SLD-0
  6
HIDDEN
 62
   179
100
AcDbLine
 10
102.4886600883
 20
180.7971022041
 30
0.0
 11
102.1176034795
 21
180.5030582887
 31
0.0
  0
LINE
  5
10A
330
1F
100
AcDbEntity
  8
SLD-0
  6
Continuous
 62
   179
100
AcDbLine
 10
86.8945178898
 20
135.4309853239
 30
0.0
 11
90.7445185097
 21
135.4309852278
 31
0.0
  0
LINE
  5
10B
330
1F
100
AcDbEntity
  8
SLD-0
  6
Continuous
 62
   179
100
AcDbLine
 10
122.6445183368
 20
135.4309852278
 30
0.0
 11
128.7445172878
 21
135.4309852278
 31
0.0
  0
LINE
  5
10C
330
1F
100
AcDbEntity
  8
SLD-0
  6
Continuous
 62
   179
100
AcDbLine
 10
102.6445178525
 20
135.4309852278
 30
0.0
 11
120.144517927
 21
135.4309852278
 31
0.0
  0
LINE
  5
10D
330
1F
100
AcDbEntity
  8
SLD-0
  6
Continuous
 62
   179
100
AcDbLine
 10
94.0445184918
 20
135.4309852278
 30
0.0
 11
100.1445174427
 21
135.4309852278
 31
0.0
  0
LINE
  5
10E
330
1F
100
AcDbEntity
  8
SLD-0
  6
Continuous
 62
   179
100
AcDbLine
 10
132.0445172699
 20
135.4309852278
 30
0.0
 11
135.8945178898
 21
135.4309853239
 31
0.0
  0
LINE
  5
10F
330
1F
100
AcDbEntity
  8
SLD-0
  6
Continuous
 62
   179
100
AcDbLine
 10
135.8945178898
 20
141.8309853239
 30
0.0
 11
86.8945178898
 21
141.8309853239
 31
0.0
  0
LINE
  5
110
330
1F
100
AcDbEntity
  8
SLD-0
  6
Continuous
 62
   179
100
AcDbLine
 10
86.8945178898
 20
141.8309853239
 30
0.0
 11
86.8945178898
 21
141.1163663005
 31
0.0
  0
LINE
  5
111
330
1F
100
AcDbEntity
  8
SLD-0
  6
Continuous
 62
   179
100
AcDbLine
 10
135.8945178898
 20
141.8309853239
 30
0.0
 11
135.8945178898
 21
141.1163663005
 31
0.0
  0
LINE
  5
112
330
1F
100
AcDbEntity
  8
SLD-0
  6
Continuous
 62
   179
100
AcDbLine
 10
86.8945178898
 20
141.1163663005
 30
0.0
 11
86.8945178898
 21
135.9233867919
 31
0.0
  0
LINE
  5
113
330
1F
100
AcDbEntity
  8
SLD-0
  6
Continuous
 62
   179
100
AcDbLine
 10
135.8945178898
 20
141.1163663005
 30
0.0
 11
135.8945178898
 21
135.9233867919
 31
0.0
  0
LINE
  5
114
330
1F
100
AcDbEntity
  8
SLD-0
  6
Continuous
 62
   179
100
AcDbLine
 10
86.8945178898
 20
135.9233867919
 30
0.0
 11
86.8945178898
 21
135.4309853239
 31
0.0
  0
LINE
  5
115
330
1F
100
AcDbEntity
  8
SLD-0
  6
Continuous
 62
   179
100
AcDbLine
 10
135.8945178898
 20
135.9233867919
 30
0.0
 11
135.8945178898
 21
135.4309853239
 31
0.0
  0
LINE
  5
116
330
1F
100
AcDbEntity
  8
SLD-0
  6
HIDDEN
 62
     8
100
AcDbLine
 10
135.8945178898
 20
141.8309853239
 30
0.0
 11
86.8945178898
 21
141.8309853239
 31
0.0
  0
LINE
  5
117
330
1F
100
AcDbEntity
  8
SLD-0
  6
HIDDEN
 62
     8
100
AcDbLine
 10
86.8945178898
 20
141.7431173582
 30
0.0
 11
86.8945178898
 21
141.8309853239
 31
0.0
  0
LINE
  5
118
330
1F
100
AcDbEntity
  8
SLD-0
  6
HIDDEN
 62
     8
100
AcDbLine
 10
135.8945178898
 20
141.7431173582
 30
0.0
 11
135.8945178898
 21
141.8309853239
 31
0.0
  0
LINE
  5
119
330
1F
100
AcDbEntity
  8
SLD-0
  6
HIDDEN
 62
     8
100
AcDbLine
 10
86.8945178898
 20
141.2188532895
 30
0.0
 11
86.8945178898
 21
141.7431173582
 31
0.0
  0
LINE
  5
11A
330
1F
100
AcDbEntity
  8
SLD-0
  6
HIDDEN
 62
     8
100
AcDbLine
 10
135.8945178898
 20
141.2188532895
 30
0.0
 11
135.8945178898
 21
141.7431173582
 31
0.0
  0
LINE
  5
11B
330
1F
100
AcDbEntity
  8
SLD-0
  6
HIDDEN
 62
     8
100
AcDbLine
 10
135.8945178898
 20
141.1309853239
 30
0.0
 11
86.8945178898
 21
141.1309853239
 31
0.0
  0
LINE
  5
11C
330
1F
100
AcDbEntity
  8
SLD-0
  6
HIDDEN
 62
     8
100
AcDbLine
 10
86.8945178898
 20
141.1309853239
 30
0.0
 11
86.8945178898
 21
141.2188532895
 31
0.0
  0
LINE
  5
11D
330
1F
100
AcDbEntity
  8
SLD-0
  6
HIDDEN
 62
     8
100
AcDbLine
 10
135.8945178898
 20
141.1309853239
 30
0.0
 11
135.8945178898
 21
141.2188532895
 31
0.0
  0
LINE
  5
11E
330
1F
100
AcDbEntity
  8
SLD-0
  6
HIDDEN
 62
     8
100
AcDbLine
 10
90.7461799891
 20
141.1309853239
 30
0.0
 11
94.0428570123
 21
141.1309853239
 31
0.0
  0
LINE
  5
11F
330
1F
100
AcDbEntity
  8
SLD-0
  6
HIDDEN
 62
     8
100
AcDbLine
 10
128.7461787672
 20
141.1309853239
 30
0.0
 11
132.0428557904
 21
141.1309853239
 31
0.0
  0
LINE
  5
120
330
1F
100
AcDbEntity
  8
SLD-0
  6
HIDDEN
 62
     8
100
AcDbLine
 10
86.8945178898
 20
135.4309853239
 30
0.0
 11
86.8945178898
 21
135.9233867919
 31
0.0
  0
LINE
  5
121
330
1F
100
AcDbEntity
  8
SLD-0
  6
HIDDEN
 62
     8
100
AcDbLine
 10
135.8945178898
 20
135.4309853239
 30
0.0
 11
135.8945178898
 21
135.9233867919
 31
0.0
  0
LINE
  5
122
330
1F
100
AcDbEntity
  8
SLD-0
  6
HIDDEN
 62
     8
100
AcDbLine
 10
100.1461221115
 20
141.1309853239
 30
0.0
 11
102.6429131837
 21
141.1309853239
 31
0.0
  0
LINE
  5
123
330
1F
100
AcDbEntity
  8
SLD-0
  6
HIDDEN
 62
     8
100
AcDbLine
 10
120.1461225958
 20
141.1309853239
 30
0.0
 11
122.642913668
 21
141.1309853239
 31
0.0
  0
LINE
  5
124
330
1F
100
AcDbEntity
  8
SLD-0
  6
HIDDEN
 62
     8
100
AcDbLine
 10
86.8945178898
 20
135.9233867919
 30
0.0
 11
86.8945178898
 21
141.1163663005
 31
0.0
  0
LINE
  5
125
330
1F
100
AcDbEntity
  8
SLD-0
  6
HIDDEN
 62
     8
100
AcDbLine
 10
135.8945178898
 20
135.9233867919
 30
0.0
 11
135.8945178898
 21
141.1163663005
 31
0.0
  0
LINE
  5
126
330
1F
100
AcDbEntity
  8
SLD-0
  6
HIDDEN
 62
     8
100
AcDbLine
 10
135.8945178898
 20
141.1309853239
 30
0.0
 11
86.8945178898
 21
141.1309853239
 31
0.0
  0
LINE
  5
127
330
1F
100
AcDbEntity
  8
SLD-0
  6
HIDDEN
 62
     8
100
AcDbLine
 10
86.8945178898
 20
141.2188532895
 30
0.0
 11
86.8945178898
 21
141.1309853239
 31
0.0
  0
LINE
  5
128
330
1F
100
AcDbEntity
  8
SLD-0
  6
HIDDEN
 62
     8
100
AcDbLine
 10
135.8945178898
 20
141.2188532895
 30
0.0
 11
135.8945178898
 21
141.1309853239
 31
0.0
  0
LINE
  5
129
330
1F
100
AcDbEntity
  8
SLD-0
  6
HIDDEN
 62
     8
100
AcDbLine
 10
86.8945178898
 20
141.7431173582
 30
0.0
 11
86.8945178898
 21
141.2188532895
 31
0.0
  0
LINE
  5
12A
330
1F
100
AcDbEntity
  8
SLD-0
  6
HIDDEN
 62
     8
100
AcDbLine
 10
135.8945178898
 20
141.7431173582
 30
0.0
 11
135.8945178898
 21
141.2188532895
 31
0.0
  0
LINE
  5
12B
330
1F
100
AcDbEntity
  8
SLD-0
  6
HIDDEN
 62
     8
100
AcDbLine
 10
135.8945178898
 20
141.8309853239
 30
0.0
 11
86.8945178898
 21
141.8309853239
 31
0.0
  0
LINE
  5
12C
330
1F
100
AcDbEntity
  8
SLD-0
  6
HIDDEN
 62
     8
100
AcDbLine
 10
86.8945178898
 20
141.8309853239
 30
0.0
 11
86.8945178898
 21
141.7431173582
 31
0.0
  0
LINE
  5
12D
330
1F
100
AcDbEntity
  8
SLD-0
  6
HIDDEN
 62
     8
100
AcDbLine
 10
135.8945178898
 20
141.8309853239
 30
0.0
 11
135.8945178898
 21
141.7431173582
 31
0.0
  0
LINE
  5
12E
330
1F
100
AcDbEntity
  8
SLD-0
  6
HIDDEN
 62
     8
100
AcDbLine
 10
135.8945178898
 20
141.8309853239
 30
0.0
 11
86.8945178898
 21
141.8309853239
 31
0.0
  0
LINE
  5
12F
330
1F
100
AcDbEntity
  8
SLD-0
  6
HIDDEN
 62
     8
100
AcDbLine
 10
86.8945178898
 20
141.1163663005
 30
0.0
 11
86.8945178898
 21
141.8309853239
 31
0.0
  0
LINE
  5
130
330
1F
100
AcDbEntity
  8
SLD-0
  6
HIDDEN
 62
     8
100
AcDbLine
 10
135.8945178898
 20
141.1163663005
 30
0.0
 11
135.8945178898
 21
141.8309853239
 31
0.0
  0
LINE
  5
131
330
1F
100
AcDbEntity
  8
SLD-0
 62
   179
100
AcDbLine
 10
128.8869202347
 20
135.9233866488
 30
0.0
 11
128.7145883055
 21
135.7510547196
 31
0.0
  0
LINE
  5
132
330
1F
100
AcDbEntity
  8
SLD-0
 62
   179
100
AcDbLine
 10
128.7145883055
 20
135.7510547196
 30
0.0
 11
128.3945188136
 21
135.4309852278
 31
0.0
  0
LINE
  5
133
330
1F
100
AcDbEntity
  8
SLD-0
 62
   179
100
AcDbLine
 10
132.3945176067
 20
135.4309852278
 30
0.0
 11
132.3739912571
 21
135.451512043
 31
0.0
  0
LINE
  5
134
330
1F
100
AcDbEntity
  8
SLD-0
 62
   179
100
AcDbLine
 10
132.3739912571
 20
135.451512043
 30
0.0
 11
131.9021161856
 21
135.9233866488
 31
0.0
  0
LINE
  5
135
330
1F
100
AcDbEntity
  8
SLD-0
 62
   179
100
AcDbLine
 10
131.9021161856
 20
135.9233866488
 30
0.0
 11
131.6737577529
 21
136.1215995667
 31
0.0
  0
LINE
  5
136
330
1F
100
AcDbEntity
  8
SLD-0
 62
   179
100
AcDbLine
 10
131.6737577529
 20
136.1215995667
 30
0.0
 11
131.4018953802
 21
136.2967673732
 31
0.0
  0
LINE
  5
137
330
1F
100
AcDbEntity
  8
SLD-0
 62
   179
100
AcDbLine
 10
131.4018953802
 20
136.2967673732
 30
0.0
 11
131.1624989124
 21
136.408966132
 31
0.0
  0
LINE
  5
138
330
1F
100
AcDbEntity
  8
SLD-0
 62
   179
100
AcDbLine
 10
131.1624989124
 20
136.408966132
 30
0.0
 11
130.9002701403
 21
136.4940177692
 31
0.0
  0
LINE
  5
139
330
1F
100
AcDbEntity
  8
SLD-0
 62
   179
100
AcDbLine
 10
130.9002701403
 20
136.4940177692
 30
0.0
 11
130.6172207208
 21
136.5448661191
 31
0.0
  0
LINE
  5
13A
330
1F
100
AcDbEntity
  8
SLD-0
 62
   179
100
AcDbLine
 10
130.6172207208
 20
136.5448661191
 30
0.0
 11
130.3255714686
 21
136.5562017118
 31
0.0
  0
LINE
  5
13B
330
1F
100
AcDbEntity
  8
SLD-0
 62
   179
100
AcDbLine
 10
130.3255714686
 20
136.5562017118
 30
0.0
 11
129.8421219201
 21
136.4816321103
 31
0.0
  0
LINE
  5
13C
330
1F
100
AcDbEntity
  8
SLD-0
 62
   179
100
AcDbLine
 10
129.8421219201
 20
136.4816321103
 30
0.0
 11
129.4088185044
 21
136.3084284631
 31
0.0
  0
LINE
  5
13D
330
1F
100
AcDbEntity
  8
SLD-0
 62
   179
100
AcDbLine
 10
129.4088185044
 20
136.3084284631
 30
0.0
 11
129.1245117994
 21
136.1285090489
 31
0.0
  0
LINE
  5
13E
330
1F
100
AcDbEntity
  8
SLD-0
 62
   179
100
AcDbLine
 10
129.1245117994
 20
136.1285090489
 30
0.0
 11
128.8869202347
 21
135.9233866488
 31
0.0
  0
LINE
  5
13F
330
1F
100
AcDbEntity
  8
SLD-0
 62
   179
100
AcDbLine
 10
90.886919594
 20
135.9233866488
 30
0.0
 11
90.7145876648
 21
135.7510547196
 31
0.0
  0
LINE
  5
140
330
1F
100
AcDbEntity
  8
SLD-0
 62
   179
100
AcDbLine
 10
90.7145876648
 20
135.7510547196
 30
0.0
 11
90.3945181729
 21
135.4309852278
 31
0.0
  0
LINE
  5
141
330
1F
100
AcDbEntity
  8
SLD-0
 62
   179
100
AcDbLine
 10
93.9021155448
 20
135.9233866488
 30
0.0
 11
93.6737589748
 21
136.1215995667
 31
0.0
  0
LINE
  5
142
330
1F
100
AcDbEntity
  8
SLD-0
 62
   179
100
AcDbLine
 10
93.6737589748
 20
136.1215995667
 30
0.0
 11
93.4018966021
 21
136.2967673732
 31
0.0
  0
LINE
  5
143
330
1F
100
AcDbEntity
  8
SLD-0
 62
   179
100
AcDbLine
 10
93.4018966021
 20
136.2967673732
 30
0.0
 11
93.1624982716
 21
136.408966132
 31
0.0
  0
LINE
  5
144
330
1F
100
AcDbEntity
  8
SLD-0
 62
   179
100
AcDbLine
 10
93.1624982716
 20
136.408966132
 30
0.0
 11
92.9002713622
 21
136.4940177692
 31
0.0
  0
LINE
  5
145
330
1F
100
AcDbEntity
  8
SLD-0
 62
   179
100
AcDbLine
 10
92.9002713622
 20
136.4940177692
 30
0.0
 11
92.6172200801
 21
136.5448661191
 31
0.0
  0
LINE
  5
146
330
1F
100
AcDbEntity
  8
SLD-0
 62
   179
100
AcDbLine
 10
92.6172200801
 20
136.5448661191
 30
0.0
 11
92.3255708279
 21
136.5562017118
 31
0.0
  0
LINE
  5
147
330
1F
100
AcDbEntity
  8
SLD-0
 62
   179
100
AcDbLine
 10
92.3255708279
 20
136.5562017118
 30
0.0
 11
91.842123142
 21
136.4816321103
 31
0.0
  0
LINE
  5
148
330
1F
100
AcDbEntity
  8
SLD-0
 62
   179
100
AcDbLine
 10
91.842123142
 20
136.4816321103
 30
0.0
 11
91.4088197263
 21
136.3084284631
 31
0.0
  0
LINE
  5
149
330
1F
100
AcDbEntity
  8
SLD-0
 62
   179
100
AcDbLine
 10
91.4088197263
 20
136.3084284631
 30
0.0
 11
91.1245130213
 21
136.1285090489
 31
0.0
  0
LINE
  5
14A
330
1F
100
AcDbEntity
  8
SLD-0
 62
   179
100
AcDbLine
 10
91.1245130213
 20
136.1285090489
 30
0.0
 11
90.886919594
 21
135.9233866488
 31
0.0
  0
LINE
  5
14B
330
1F
100
AcDbEntity
  8
SLD-0
 62
   179
100
AcDbLine
 10
94.3945169659
 20
135.4309852278
 30
0.0
 11
94.3739906164
 21
135.451512043
 31
0.0
  0
LINE
  5
14C
330
1F
100
AcDbEntity
  8
SLD-0
 62
   179
100
AcDbLine
 10
94.3739906164
 20
135.451512043
 30
0.0
 11
93.9021155448
 21
135.9233866488
 31
0.0
  0
LINE
  5
14D
330
1F
100
AcDbEntity
  8
SLD-0
 62
   179
100
AcDbLine
 10
122.8852037551
 20
135.4379394134
 30
0.0
 11
122.8571728082
 21
135.4588392233
 31
0.0
  0
LINE
  5
14E
330
1F
100
AcDbEntity
  8
SLD-0
 62
   179
100
AcDbLine
 10
122.8571728082
 20
135.4588392233
 30
0.0
 11
122.7195224004
 21
135.5586509263
 31
0.0
  0
LINE
  5
14F
330
1F
100
AcDbEntity
  8
SLD-0
 62
   179
100
AcDbLine
 10
122.7195224004
 20
135.5586509263
 30
0.0
 11
122.470478362
 21
135.7257898008
 31
0.0
  0
LINE
  5
150
330
1F
100
AcDbEntity
  8
SLD-0
 62
   179
100
AcDbLine
 10
122.470478362
 20
135.7257898008
 30
0.0
 11
122.1176039638
 21
135.9233866488
 31
0.0
  0
LINE
  5
151
330
1F
100
AcDbEntity
  8
SLD-0
 62
   179
100
AcDbLine
 10
120.6714323001
 20
135.9233866488
 30
0.0
 11
120.4473989295
 21
135.8041601298
 31
0.0
  0
LINE
  5
152
330
1F
100
AcDbEntity
  8
SLD-0
 62
   179
100
AcDbLine
 10
120.4473989295
 20
135.8041601298
 30
0.0
 11
120.2542156191
 21
135.6844772627
 31
0.0
  0
LINE
  5
153
330
1F
100
AcDbEntity
  8
SLD-0
 62
   179
100
AcDbLine
 10
120.2542156191
 20
135.6844772627
 30
0.0
 11
120.0947359414
 21
135.5764750434
 31
0.0
  0
LINE
  5
154
330
1F
100
AcDbEntity
  8
SLD-0
 62
   179
100
AcDbLine
 10
120.0947359414
 20
135.5764750434
 30
0.0
 11
119.9767029123
 21
135.4918620592
 31
0.0
  0
LINE
  5
155
330
1F
100
AcDbEntity
  8
SLD-0
 62
   179
100
AcDbLine
 10
119.9767029123
 20
135.4918620592
 30
0.0
 11
119.8968569027
 21
135.4327393738
 31
0.0
  0
LINE
  5
156
330
1F
100
AcDbEntity
  8
SLD-0
 62
   179
100
AcDbLine
 10
119.8968569027
 20
135.4327393738
 30
0.0
 11
119.9038315775
 21
135.4379394134
 31
0.0
  0
LINE
  5
157
330
1F
100
AcDbEntity
  8
SLD-0
 62
   179
100
AcDbLine
 10
122.1176039638
 20
135.9233866488
 30
0.0
 11
121.7505399348
 21
136.0494858628
 31
0.0
  0
LINE
  5
158
330
1F
100
AcDbEntity
  8
SLD-0
 62
   179
100
AcDbLine
 10
121.7505399348
 20
136.0494858628
 30
0.0
 11
121.338705367
 21
136.0869636802
 31
0.0
  0
LINE
  5
159
330
1F
100
AcDbEntity
  8
SLD-0
 62
   179
100
AcDbLine
 10
121.338705367
 20
136.0869636802
 30
0.0
 11
120.9648035677
 21
136.0316528981
 31
0.0
  0
LINE
  5
15A
330
1F
100
AcDbEntity
  8
SLD-0
 62
   179
100
AcDbLine
 10
120.9648035677
 20
136.0316528981
 30
0.0
 11
120.6714323001
 21
135.9233866488
 31
0.0
  0
LINE
  5
15B
330
1F
100
AcDbEntity
  8
SLD-0
 62
   179
100
AcDbLine
 10
100.6714318158
 20
135.9233866488
 30
0.0
 11
100.4503200041
 21
135.8057131102
 31
0.0
  0
LINE
  5
15C
330
1F
100
AcDbEntity
  8
SLD-0
 62
   179
100
AcDbLine
 10
100.4503200041
 20
135.8057131102
 30
0.0
 11
100.2542151348
 21
135.6844772627
 31
0.0
  0
LINE
  5
15D
330
1F
100
AcDbEntity
  8
SLD-0
 62
   179
100
AcDbLine
 10
100.2542151348
 20
135.6844772627
 30
0.0
 11
100.0973152207
 21
135.5782212732
 31
0.0
  0
LINE
  5
15E
330
1F
100
AcDbEntity
  8
SLD-0
 62
   179
100
AcDbLine
 10
100.0973152207
 20
135.5782212732
 30
0.0
 11
99.9767033593
 21
135.4918620592
 31
0.0
  0
LINE
  5
15F
330
1F
100
AcDbEntity
  8
SLD-0
 62
   179
100
AcDbLine
 10
99.9767033593
 20
135.4918620592
 30
0.0
 11
99.8968573497
 21
135.4327393738
 31
0.0
  0
LINE
  5
160
330
1F
100
AcDbEntity
  8
SLD-0
 62
   179
100
AcDbLine
 10
99.8968573497
 20
135.4327393738
 30
0.0
 11
99.9038320245
 21
135.4379394134
 31
0.0
  0
LINE
  5
161
330
1F
100
AcDbEntity
  8
SLD-0
 62
   179
100
AcDbLine
 10
102.8852042021
 20
135.4379394134
 30
0.0
 11
102.8571732552
 21
135.4588392233
 31
0.0
  0
LINE
  5
162
330
1F
100
AcDbEntity
  8
SLD-0
 62
   179
100
AcDbLine
 10
102.8571732552
 20
135.4588392233
 30
0.0
 11
102.7195219161
 21
135.5586509263
 31
0.0
  0
LINE
  5
163
330
1F
100
AcDbEntity
  8
SLD-0
 62
   179
100
AcDbLine
 10
102.7195219161
 20
135.5586509263
 30
0.0
 11
102.470478809
 21
135.7257898008
 31
0.0
  0
LINE
  5
164
330
1F
100
AcDbEntity
  8
SLD-0
 62
   179
100
AcDbLine
 10
102.470478809
 20
135.7257898008
 30
0.0
 11
102.1176034795
 21
135.9233866488
 31
0.0
  0
LINE
  5
165
330
1F
100
AcDbEntity
  8
SLD-0
 62
   179
100
AcDbLine
 10
102.1176034795
 20
135.9233866488
 30
0.0
 11
101.7505403818
 21
136.0494858628
 31
0.0
  0
LINE
  5
166
330
1F
100
AcDbEntity
  8
SLD-0
 62
   179
100
AcDbLine
 10
101.7505403818
 20
136.0494858628
 30
0.0
 11
101.3387048827
 21
136.0869636802
 31
0.0
  0
LINE
  5
167
330
1F
100
AcDbEntity
  8
SLD-0
 62
   179
100
AcDbLine
 10
101.3387048827
 20
136.0869636802
 30
0.0
 11
100.9648030834
 21
136.0316528981
 31
0.0
  0
LINE
  5
168
330
1F
100
AcDbEntity
  8
SLD-0
 62
   179
100
AcDbLine
 10
100.9648030834
 20
136.0316528981
 30
0.0
 11
100.6714318158
 21
135.9233866488
 31
0.0
  0
LINE
  5
169
330
1F
100
AcDbEntity
  8
SLD-0
  6
CENTERX2
 62
   179
100
AcDbLine
 10
130.3945178898
 20
133.9233867919
 30
0.0
 11
130.3945178898
 21
143.1309853239
 31
0.0
  0
LINE
  5
16A
330
1F
100
AcDbEntity
  8
SLD-0
  6
CENTERX2
 62
   179
100
AcDbLine
 10
92.3945178898
 20
133.9233867919
 30
0.0
 11
92.3945178898
 21
143.1309853239
 31
0.0
  0
LINE
  5
16B
330
1F
100
AcDbEntity
  8
SLD-0
  6
CENTERX2
 62
   179
100
AcDbLine
 10
121.3945178898
 20
133.4309853239
 30
0.0
 11
121.3945178898
 21
143.1309853239
 31
0.0
  0
LINE
  5
16C
330
1F
100
AcDbEntity
  8
SLD-0
  6
CENTERX2
 62
   179
100
AcDbLine
 10
101.3945178898
 20
133.4309853239
 30
0.0
 11
101.3945178898
 21
143.1309853239
 31
0.0
  0
LINE
  5
16D
330
1F
100
AcDbEntity
  8
SLD-0
  6
Continuous
 62
   179
100
AcDbLine
 10
63.4051534329
 20
141.2188532895
 30
0.0
 11
63.9294175016
 21
141.7431173582
 31
0.0
  0
LINE
  5
16E
330
1F
100
AcDbEntity
  8
SLD-0
  6
Continuous
 62
   179
100
AcDbLine
 10
64.141549536
 20
141.8309853239
 30
0.0
 11
66.1172854673
 21
141.8309853239
 31
0.0
  0
LINE
  5
16F
330
1F
100
AcDbEntity
  8
SLD-0
  6
Continuous
 62
   179
100
AcDbLine
 10
58.705153433
 20
141.7431173583
 30
0.0
 11
59.2294175016
 21
141.2188532895
 31
0.0
  0
LINE
  5
170
330
1F
100
AcDbEntity
  8
SLD-0
  6
Continuous
 62
   179
100
AcDbLine
 10
59.441549536
 20
141.1309853239
 30
0.0
 11
63.1930213986
 21
141.1309853239
 31
0.0
  0
LINE
  5
171
330
1F
100
AcDbEntity
  8
SLD-0
  6
Continuous
 62
   179
100
AcDbLine
 10
56.5172854673
 20
141.8309853239
 30
0.0
 11
58.4930213986
 21
141.8309853239
 31
0.0
  0
LINE
  5
172
330
1F
100
AcDbEntity
  8
SLD-0
 62
   179
100
AcDbLine
 10
63.3172855623
 20
136.553505533
 30
0.0
 11
63.3172855623
 21
136.5573667964
 31
0.0
  0
LINE
  5
173
330
1F
100
AcDbEntity
  8
SLD-0
 62
   179
100
AcDbLine
 10
59.3172853723
 20
136.5573667964
 30
0.0
 11
59.3172853723
 21
136.553505533
 31
0.0
  0
LINE
  5
174
330
1F
100
AcDbEntity
  8
SLD-0
  6
CENTERX2
 62
   179
100
AcDbLine
 10
61.3172854673
 20
133.9233867919
 30
0.0
 11
61.3172854673
 21
143.1309853239
 31
0.0
  0
CIRCLE
  5
175
330
1F
100
AcDbEntity
  8
SLD-0
  6
Continuous
 62
   179
100
AcDbCircle
 10
130.3945178898
 20
181.81726783
 30
0.0
 40
1.650000000000006
  0
CIRCLE
  5
176
330
1F
100
AcDbEntity
  8
SLD-0
  6
Continuous
 62
   179
100
AcDbCircle
 10
92.3945178898
 20
181.81726783
 30
0.0
 40
1.649999999999992
  0
CIRCLE
  5
177
330
1F
100
AcDbEntity
  8
SLD-0
  6
Continuous
 62
   179
100
AcDbCircle
 10
101.3945178898
 20
181.81726783
 30
0.0
 40
1.25
  0
CIRCLE
  5
178
330
1F
100
AcDbEntity
  8
SLD-0
  6
Continuous
 62
   179
100
AcDbCircle
 10
121.3945178898
 20
181.81726783
 30
0.0
 40
1.25
  0
CIRCLE
  5
179
330
1F
100
AcDbEntity
  8
SLD-0
 62
   179
100
AcDbCircle
 10
121.3945178898
 20
181.81726783
 30
0.0
 40
1.500000022400002
  0
CIRCLE
  5
17A
330
1F
100
AcDbEntity
  8
SLD-0
 62
   179
100
AcDbCircle
 10
101.3945178898
 20
181.81726783
 30
0.0
 40
1.499999538099999
  0
ARC
  5
17B
330
1F
100
AcDbEntity
  8
SLD-0
  6
Continuous
 62
   179
100
AcDbCircle
 10
130.3945172788
 20
134.4212207385
 30
0.0
 40
1.803290124800025
100
AcDbArc
 50
56.4096045566
 51
123.5903954434
  0
ARC
  5
17C
330
1F
100
AcDbEntity
  8
SLD-0
  6
Continuous
 62
   179
100
AcDbCircle
 10
92.3945185007
 20
134.4212200575
 30
0.0
 40
1.803290691999995
100
AcDbArc
 50
56.4096165273
 51
123.5903834727
  0
ARC
  5
17D
330
1F
100
AcDbEntity
  8
SLD-0
  6
Continuous
 62
   179
100
AcDbCircle
 10
96.3757594342
 20
128.6490957194
 30
0.0
 40
8.81503826729695
100
AcDbArc
 50
124.3898300531
 51
129.7040396226
  0
ARC
  5
17E
330
1F
100
AcDbEntity
  8
SLD-0
  6
Continuous
 62
   179
100
AcDbCircle
 10
88.4457755624
 20
128.6921485927
 30
0.0
 40
8.761155265378672
100
AcDbArc
 50
50.2796067735
 51
55.626523551
  0
ARC
  5
17F
330
1F
100
AcDbEntity
  8
SLD-0
  6
Continuous
 62
   179
100
AcDbCircle
 10
134.3757582122
 20
128.6490957196
 30
0.0
 40
8.815038267143937
100
AcDbArc
 50
124.3898300533
 51
129.7040396226
  0
ARC
  5
180
330
1F
100
AcDbEntity
  8
SLD-0
  6
Continuous
 62
   179
100
AcDbCircle
 10
126.7537175318
 20
129.1001072725
 30
0.0
 40
8.250610738221493
100
AcDbArc
 50
50.1140426606
 51
55.7920876632
  0
ARC
  5
181
330
1F
100
AcDbEntity
  8
SLD-0
  6
Continuous
 62
   179
100
AcDbCircle
 10
121.3945181319
 20
133.8642759295
 30
0.0
 40
2.004265086666372
100
AcDbArc
 50
51.4153573126
 51
128.5846426874
  0
ARC
  5
182
330
1F
100
AcDbEntity
  8
SLD-0
  6
Continuous
 62
   179
100
AcDbCircle
 10
101.3945176476
 20
133.8692451959
 30
0.0
 40
2.000383073186001
100
AcDbArc
 50
51.3265892303
 51
128.6734107697
  0
ARC
  5
183
330
1F
100
AcDbEntity
  8
SLD-0
  6
HIDDEN
 62
     8
100
AcDbCircle
 10
88.4132775674
 20
128.6490957197
 30
0.0
 40
8.815038267002258
100
AcDbArc
 50
50.2959603767
 51
55.6101699472
  0
ARC
  5
184
330
1F
100
AcDbEntity
  8
SLD-0
  6
HIDDEN
 62
     8
100
AcDbCircle
 10
92.3945185007
 20
134.4212200575
 30
0.0
 40
1.803290691999995
100
AcDbArc
 50
56.4096165273
 51
123.5903834727
  0
ARC
  5
185
330
1F
100
AcDbEntity
  8
SLD-0
  6
HIDDEN
 62
     8
100
AcDbCircle
 10
96.3423883027
 20
128.6933053111
 30
0.0
 40
8.759707579553341
100
AcDbArc
 50
124.3730342956
 51
129.7208353803
  0
ARC
  5
186
330
1F
100
AcDbEntity
  8
SLD-0
  6
HIDDEN
 62
     8
100
AcDbCircle
 10
126.4132763457
 20
128.6490957199
 30
0.0
 40
8.815038266726948
100
AcDbArc
 50
50.2959603769
 51
55.6101699472
  0
ARC
  5
187
330
1F
100
AcDbEntity
  8
SLD-0
  6
HIDDEN
 62
     8
100
AcDbCircle
 10
130.3945172788
 20
134.4212207385
 30
0.0
 40
1.803290124800025
100
AcDbArc
 50
56.4096045566
 51
123.5903954434
  0
ARC
  5
188
330
1F
100
AcDbEntity
  8
SLD-0
  6
HIDDEN
 62
     8
100
AcDbCircle
 10
134.343260217
 20
128.692148593
 30
0.0
 40
8.761155265082392
100
AcDbArc
 50
124.3734764498
 51
129.7203932264
  0
ARC
  5
189
330
1F
100
AcDbEntity
  8
SLD-0
  6
HIDDEN
 62
     8
100
AcDbCircle
 10
121.3945181319
 20
133.8692277061
 30
0.0
 40
2.000396727860907
100
AcDbArc
 50
51.326902262
 51
128.673097738
  0
ARC
  5
18A
330
1F
100
AcDbEntity
  8
SLD-0
  6
HIDDEN
 62
     8
100
AcDbCircle
 10
101.3945176476
 20
133.8244148411
 30
0.0
 40
2.03557582017261
100
AcDbArc
 50
52.1151190977
 51
127.8848809023
  0
ARC
  5
18B
330
1F
100
AcDbEntity
  8
SLD-0
  6
Continuous
 62
   179
100
AcDbCircle
 10
64.141549536
 20
141.5309853239
 30
0.0
 40
0.3000000000000398
100
AcDbArc
 50
90.0
 51
135.0000000119
  0
ARC
  5
18C
330
1F
100
AcDbEntity
  8
SLD-0
  6
Continuous
 62
   179
100
AcDbCircle
 10
66.1172854673
 20
141.3309853239
 30
0.0
 40
0.5000000000000009
100
AcDbArc
 50
334.5807856114
 51
90.0
  0
ARC
  5
18D
330
1F
100
AcDbEntity
  8
SLD-0
  6
Continuous
 62
   179
100
AcDbCircle
 10
52.1178188167
 20
147.9841750476
 30
0.0
 40
16.00000000002607
100
AcDbArc
 50
311.0794373954
 51
334.5807856116
  0
ARC
  5
18E
330
1F
100
AcDbEntity
  8
SLD-0
  6
Continuous
 62
   179
100
AcDbCircle
 10
61.3172854673
 20
137.4309853239
 30
0.0
 40
2.000000000003255
100
AcDbArc
 50
228.9205626046
 51
311.0794373934
  0
ARC
  5
18F
330
1F
100
AcDbEntity
  8
SLD-0
  6
Continuous
 62
   179
100
AcDbCircle
 10
70.5167521178
 20
147.9841750476
 30
0.0
 40
16.00000000000001
100
AcDbArc
 50
205.4192143886
 51
228.9205626047
  0
ARC
  5
190
330
1F
100
AcDbEntity
  8
SLD-0
  6
Continuous
 62
   179
100
AcDbCircle
 10
56.5172854673
 20
141.3309853239
 30
0.0
 40
0.5000000000642506
100
AcDbArc
 50
90.0
 51
205.4192143908
  0
ARC
  5
191
330
1F
100
AcDbEntity
  8
SLD-0
  6
Continuous
 62
   179
100
AcDbCircle
 10
58.4930213986
 20
141.5309853239
 30
0.0
 40
0.3000000000000398
100
AcDbArc
 50
45.0
 51
90.0
  0
ARC
  5
192
330
1F
100
AcDbEntity
  8
SLD-0
  6
Continuous
 62
   179
100
AcDbCircle
 10
59.441549536
 20
141.4309853239
 30
0.0
 40
0.3000000000622655
100
AcDbArc
 50
225.0
 51
270.0
  0
ARC
  5
193
330
1F
100
AcDbEntity
  8
SLD-0
  6
Continuous
 62
   179
100
AcDbCircle
 10
63.1930213986
 20
141.4309853239
 30
0.0
 40
0.299999999999983
100
AcDbArc
 50
270.0
 51
314.9999999849
  0
DIMENSION
  5
194
330
1F
100
AcDbEntity
  8
SLD-0
 62
     7
100
AcDbDimension
  2
*D7
 10
135.8945178898
 20
202.1356402169
 30
0.0
 11
143.1885267791
 21
202.1356402169
 31
0.0
 70
   160
 71
     1
 42
5.5
  3
SLDDIMSTYLE0
100
AcDbAlignedDimension
 13
130.3945178898
 23
185.96726783
 33
0.0
 14
135.8945178898
 24
187.11726783
 34
0.0
100
AcDbRotatedDimension
1001
ACAD
1000
DSTYLE
1002
{
1070
    77
1070
     3
1070
   143
1040
0.0393700787
1070
    41
1040
3.0
1070
    44
1040
1.0
1070
    42
1040
1.0
1070
   147
1040
1.524
1070
    73
1070
     0
1070
    74
1070
     0
1070
   140
1040
3.5
1070
   284
1070
    12
1070
    78
1070
    12
1002
}
  0
DIMENSION
  5
1B5
330
1F
100
AcDbEntity
  8
SLD-0
 62
     7
100
AcDbDimension
  2
*D9
 10
130.3945178898
 20
202.1356402169
 30
0.0
 11
111.3945178898
 21
202.1356402169
 31
0.0
 70
   160
 71
     1
 42
38.0
  3
SLDDIMSTYLE1
100
AcDbAlignedDimension
 13
92.3945178898
 23
185.96726783
 33
0.0
 14
130.3945178898
 24
185.96726783
 34
0.0
100
AcDbRotatedDimension
1001
ACAD
1000
DSTYLE
1002
{
1070
    77
1070
     3
1070
   143
1040
0.0393700787
1070
    41
1040
3.0
1070
    44
1040
1.0
1070
    42
1040
1.0
1070
   147
1040
1.524
1070
    73
1070
     0
1070
    74
1070
     0
1070
   140
1040
3.5
1070
   284
1070
    12
1070
    78
1070
    12
1002
}
  0
DIMENSION
  5
1CD
330
1F
100
AcDbEntity
  8
SLD-0
 62
     7
100
AcDbDimension
  2
*D10
 10
86.8945178898
 20
209.966946081
 30
0.0
 11
111.3945178898
 21
209.966946081
 31
0.0
 70
   160
 71
     1
 42
49.0
  3
SLDDIMSTYLE1
100
AcDbAlignedDimension
 13
135.8945178898
 23
187.11726783
 33
0.0
 14
86.8945178898
 24
187.11726783
 34
0.0
100
AcDbRotatedDimension
1001
ACAD
1000
DSTYLE
1002
{
1070
    77
1070
     3
1070
   143
1040
0.0393700787
1070
    41
1040
3.0
1070
    44
1040
1.0
1070
    42
1040
1.0
1070
   147
1040
1.524
1070
    73
1070
     0
1070
    74
1070
     0
1070
   140
1040
3.5
1070
   284
1070
    12
1070
    78
1070
    12
1002
}
  0
DIMENSION
  5
1E4
330
1F
100
AcDbEntity
  8
SLD-0
 62
     7
100
AcDbDimension
  2
*D11
 10
1.812130255
 20
3.5659753354
 30
0.0
 11
78.6958973509
 21
-5.348963646
 31
0.0
 70
   163
  1
2-M<><>
 71
     1
 42
3.9999995192
  3
SLDDIMSTYLE2
100
AcDbDiametricDimension
 15
0.0
 25
0.0
 35
0.0
 40
0.0
1001
ACAD
1000
DSTYLE
1002
{
1070
    77
1070
     0
1070
   143
1040
0.0393700787
1070
    41
1040
3.0
1070
    44
1040
1.0
1070
    42
1040
1.0
1070
   147
1040
1.524
1070
    73
1070
     1
1070
    74
1070
     1
1070
   140
1040
3.5
1070
   284
1070
    12
1070
    78
1070
    12
1002
}
  0
DIMENSION
  5
1F5
330
1F
100
AcDbEntity
  8
SLD-0
 62
     7
100
AcDbDimension
  2
*D12
 10
135.8945178898
 20
164.1431945887
 30
0.0
 11
128.6445178898
 21
164.1431945887
 31
0.0
 70
   160
 71
     1
 42
14.5
  3
SLDDIMSTYLE0
100
AcDbAlignedDimension
 13
121.3945178898
 23
181.81726783
 33
0.0
 14
135.8945178898
 24
176.51726783
 34
0.0
100
AcDbRotatedDimension
1001
ACAD
1000
DSTYLE
1002
{
1070
    77
1070
     3
1070
   143
1040
0.0393700787
1070
    41
1040
3.0
1070
    44
1040
1.0
1070
    42
1040
1.0
1070
   147
1040
1.524
1070
    73
1070
     0
1070
    74
1070
     0
1070
   140
1040
3.5
1070
   284
1070
    12
1070
    78
1070
    12
1002
}
  0
DIMENSION
  5
20E
330
1F
100
AcDbEntity
  8
SLD-0
 62
     7
100
AcDbDimension
  2
*D13
 10
121.3945178898
 20
164.1431945887
 30
0.0
 11
111.3945178898
 21
164.1431945887
 31
0.0
 70
   160
 71
     1
 42
20.0
  3
SLDDIMSTYLE1
100
AcDbAlignedDimension
 13
101.3945178898
 23
181.81726783
 33
0.0
 14
121.3945178898
 24
181.81726783
 34
0.0
100
AcDbRotatedDimension
1001
ACAD
1000
DSTYLE
1002
{
1070
    77
1070
     3
1070
   143
1040
0.0393700787
1070
    41
1040
3.0
1070
    44
1040
1.0
1070
    42
1040
1.0
1070
   147
1040
1.524
1070
    73
1070
     0
1070
    74
1070
     0
1070
   140
1040
3.5
1070
   284
1070
    12
1070
    78
1070
    12
1002
}
  0
DIMENSION
  5
225
330
1F
100
AcDbEntity
  8
SLD-0
 62
     7
100
AcDbDimension
  2
*D14
 10
152.1307079581
 20
176.51726783
 30
0.0
 11
152.1307079581
 21
194.3973692956
 31
0.0
 70
   160
 71
     1
 42
5.3
  3
SLDDIMSTYLE0
100
AcDbAlignedDimension
 13
134.5445178898
 23
181.81726783
 33
0.0
 14
135.8945178898
 24
176.51726783
 34
0.0
 50
90.0
100
AcDbRotatedDimension
1001
ACAD
1000
DSTYLE
1002
{
1070
    77
1070
     3
1070
   143
1040
0.0393700787
1070
    41
1040
3.0
1070
    44
1040
1.0
1070
    42
1040
1.0
1070
   147
1040
1.524
1070
    73
1070
     0
1070
    74
1070
     0
1070
   140
1040
3.5
1070
   284
1070
    12
1070
    78
1070
    12
1002
}
  0
DIMENSION
  5
240
330
1F
100
AcDbEntity
  8
SLD-0
 62
     7
100
AcDbDimension
  2
*D15
 10
160.9868541357
 20
187.11726783
 30
0.0
 11
160.9868541357
 21
193.6342340698
 31
0.0
 70
   160
 71
     1
 42
10.6
  3
SLDDIMSTYLE0
100
AcDbAlignedDimension
 13
135.8945178898
 23
176.51726783
 33
0.0
 14
135.8945178898
 24
187.11726783
 34
0.0
 50
90.0
100
AcDbRotatedDimension
1001
ACAD
1000
DSTYLE
1002
{
1070
    77
1070
     3
1070
   143
1040
0.0393700787
1070
    41
1040
3.0
1070
    44
1040
1.0
1070
    42
1040
1.0
1070
   147
1040
1.524
1070
    73
1070
     0
1070
    74
1070
     0
1070
   140
1040
3.5
1070
   284
1070
    12
1070
    78
1070
    12
1002
}
  0
DIMENSION
  5
259
330
1F
100
AcDbEntity
  8
SLD-0
 62
     7
100
AcDbDimension
  2
*D16
 10
1.4611654919
 20
2.6201132282
 30
0.0
 11
84.3499010184
 21
-5.2402270609
 31
0.0
 70
   163
  1
2-M<><>
 71
     1
 42
2.9999996539
  3
SLDDIMSTYLE2
100
AcDbDiametricDimension
 15
0.0
 25
0.0
 35
0.0
 40
0.0
1001
ACAD
1000
DSTYLE
1002
{
1070
    77
1070
     0
1070
   143
1040
0.0393700787
1070
    41
1040
3.0
1070
    44
1040
1.0
1070
    42
1040
1.0
1070
   147
1040
1.524
1070
    73
1070
     1
1070
    74
1070
     1
1070
   140
1040
3.5
1070
   284
1070
    12
1070
    78
1070
    12
1002
}
  0
MTEXT
  5
269
330
1F
100
AcDbEntity
  8
SLD-0
 62
     7
100
AcDbMText
 10
158.9235595118
 20
18.4892188008
 30
0.0
 40
4.2333333333
 41
0.0
 71
     1
 72
     1
  1
131062
  7
SLDTEXTSTYLE1
 73
     1
 44
1.0
  0
MTEXT
  5
26A
330
1F
100
AcDbEntity
  8
SLD-0
 62
     7
100
AcDbMText
 10
147.3083984572
 20
29.7138882404
 30
0.0
 40
4.2333333333
 41
0.0
 71
     1
 72
     1
  1
N01914-201-0
  7
SLDTEXTSTYLE1
 73
     1
 44
1.0
  0
MTEXT
  5
26B
330
1F
100
AcDbEntity
  8
SLD-0
 62
     7
100
AcDbMText
 10
138.6855306684
 20
43.2377018572
 30
0.0
 40
4.2333333333
 41
0.0
 71
     1
 72
     1
  1
Nut M4-P38/M3-P20
  7
SLDTEXTSTYLE1
 73
     1
 44
1.0
  0
MTEXT
  5
26C
330
1F
100
AcDbEntity
  8
SLD-0
 62
     7
100
AcDbMText
 10
124.8166358068
 20
86.8552167143
 30
0.0
 40
3.5
 41
0.0
 71
     1
 72
     1
  1
ﾏｲｸﾛﾐﾆｼﾘﾝﾀﾞｰ
  7
SLDTEXTSTYLE1
 73
     1
 44
1.0
  0
MTEXT
  5
26D
330
1F
100
AcDbEntity
  8
SLD-0
 62
     7
100
AcDbMText
 10
159.5935623156
 20
84.7619846088
 30
0.0
 40
2.6458333333
 41
0.0
 71
     1
 72
     1
  1
(配管用継手BF-5付属)
  7
SLDTEXTSTYLE1
 73
     1
 44
1.0
  0
MTEXT
  5
26E
330
1F
100
AcDbEntity
  8
SLD-0
 62
     7
100
AcDbMText
 10
169.3764965092
 20
89.3309944887
 30
0.0
 40
3.5
 41
0.0
 71
     1
 72
     1
  1
MCDｼﾘｰｽﾞ
  7
SLDTEXTSTYLE1
 73
     1
 44
1.0
  0
MTEXT
  5
26F
330
1F
100
AcDbEntity
  8
SLD-0
 62
     7
100
AcDbMText
 10
129.3261153498
 20
77.0977396035
 30
0.0
 40
3.5
 41
0.0
 71
     1
 72
     1
  1
UMCD-10
  7
SLDTEXTSTYLE1
 73
     1
 44
1.0
  0
MTEXT
  5
270
330
1F
100
AcDbEntity
  8
SLD-0
 62
     7
100
AcDbMText
 10
170.9764002794
 20
76.5152036566
 30
0.0
 40
3.5
 41
0.0
 71
     1
 72
     1
  1
MCD-20
  7
SLDTEXTSTYLE1
 73
     1
 44
1.0
  0
MTEXT
  5
271
330
1F
100
AcDbEntity
  8
SLD-0
 62
     7
100
AcDbMText
 10
129.9076160219
 20
67.4858964794
 30
0.0
 40
3.5
 41
0.0
 71
     1
 72
     1
  1
200123
  7
SLDTEXTSTYLE1
 73
     1
 44
1.0
  0
MTEXT
  5
272
330
1F
100
AcDbEntity
  8
SLD-0
 62
     7
100
AcDbMText
 10
170.5394983192
 20
66.9033605325
 30
0.0
 40
3.5
 41
0.0
 71
     1
 72
     1
  1
121843
  7
SLDTEXTSTYLE1
 73
     1
 44
1.0
  0
INSERT
  5
273
330
1F
100
AcDbEntity
  8
0
  6
Continuous
 62
     7
370
     0
100
AcDbBlockReference
  2
SURFACEFINISH46
 10
175.5030779077
 20
251.398448566
 30
0.0
  0
INSERT
  5
274
330
1F
100
AcDbEntity
  8
0
  6
Continuous
 62
     7
370
     0
100
AcDbBlockReference
  2
注記
 10
22.1879884144
 20
66.4290584666
 30
0.0
  0
INSERT
  5
275
330
1F
100
AcDbEntity
  8
0
  6
Continuous
 62
     7
370
     0
100
AcDbBlockReference
  2
SW_CENTERMARK0
 10
0.0
 20
0.0
 30
0.0
  0
INSERT
  5
276
330
1F
100
AcDbEntity
  8
0
  6
Continuous
 62
     7
370
     0
100
AcDbBlockReference
  2
SW_CENTERMARK1
 10
0.0
 20
0.0
 30
0.0
  0
INSERT
  5
277
330
1F
100
AcDbEntity
  8
0
  6
Continuous
 62
     7
370
     0
100
AcDbBlockReference
  2
SW_CENTERMARK2
 10
0.0
 20
0.0
 30
0.0
  0
INSERT
  5
278
330
1F
100
AcDbEntity
  8
0
  6
Continuous
 62
     7
370
     0
100
AcDbBlockReference
  2
SW_CENTERMARK3
 10
0.0
 20
0.0
 30
0.0
  0
ENDSEC
  0
SECTION
  2
OBJECTS
  0
DICTIONARY
  5
C
330
0
100
AcDbDictionary
281
     1
  3
ACAD_GROUP
350
D
  3
ACAD_LAYOUT
350
1A
  3
ACAD_MLINESTYLE
350
17
  3
ACAD_PLOTSETTINGS
350
19
  3
ACAD_PLOTSTYLENAME
350
E
  0
DICTIONARY
  5
D
102
{ACAD_REACTORS
330
C
102
}
330
C
100
AcDbDictionary
281
     1
  0
DICTIONARY
  5
1A
102
{ACAD_REACTORS
330
C
102
}
330
C
100
AcDbDictionary
281
     1
  3
Layout1
350
1E
  3
Layout2
350
26
  3
Model
350
22
  0
DICTIONARY
  5
17
102
{ACAD_REACTORS
330
C
102
}
330
C
100
AcDbDictionary
281
     1
  3
Standard
350
18
  0
DICTIONARY
  5
19
102
{ACAD_REACTORS
330
C
102
}
330
C
100
AcDbDictionary
281
     1
  0
ACDBDICTIONARYWDFLT
  5
E
102
{ACAD_REACTORS
330
C
102
}
330
C
100
AcDbDictionary
281
     1
  3
Normal
350
F
100
AcDbDictionaryWithDefault
340
F
  0
LAYOUT
  5
1E
102
{ACAD_REACTORS
330
1A
102
}
330
1A
100
AcDbPlotSettings
  1

  2

  4

  6

 40
0.0
 41
0.0
 42
0.0
 43
0.0
 44
0.0
 45
0.0
 46
0.0
 47
0.0
 48
0.0
 49
0.0
140
0.0
141
0.0
142
1.0
143
1.0
 70
   688
 72
     0
 73
     0
 74
     5
  7

 75
    16
147
1.0
148
0.0
149
0.0
100
AcDbLayout
  1
Layout1
 70
     1
 71
     1
 10
0.0
 20
0.0
 11
0.0
 21
0.0
 12
0.0
 22
0.0
 32
0.0
 14
0.0
 24
0.0
 34
0.0
 15
0.0
 25
0.0
 35
0.0
146
0.0
 13
0.0
 23
0.0
 33
0.0
 16
1.0
 26
0.0
 36
0.0
 17
0.0
 27
1.0
 37
0.0
 76
     0
330
1B
  0
LAYOUT
  5
26
102
{ACAD_REACTORS
330
1A
102
}
330
1A
100
AcDbPlotSettings
  1

  2

  4

  6

 40
0.0
 41
0.0
 42
0.0
 43
0.0
 44
0.0
 45
0.0
 46
0.0
 47
0.0
 48
0.0
 49
0.0
140
0.0
141
0.0
142
1.0
143
1.0
 70
   688
 72
     0
 73
     0
 74
     5
  7

 75
    16
147
1.0
148
0.0
149
0.0
100
AcDbLayout
  1
Layout2
 70
     1
 71
     2
 10
0.0
 20
0.0
 11
0.0
 21
0.0
 12
0.0
 22
0.0
 32
0.0
 14
0.0
 24
0.0
 34
0.0
 15
0.0
 25
0.0
 35
0.0
146
0.0
 13
0.0
 23
0.0
 33
0.0
 16
1.0
 26
0.0
 36
0.0
 17
0.0
 27
1.0
 37
0.0
 76
     0
330
23
  0
LAYOUT
  5
22
102
{ACAD_REACTORS
330
1A
102
}
330
1A
100
AcDbPlotSettings
  1

  2

  4

  6

 40
0.0
 41
0.0
 42
0.0
 43
0.0
 44
0.0
 45
0.0
 46
0.0
 47
0.0
 48
0.0
 49
0.0
140
0.0
141
0.0
142
1.0
143
1.0
 70
  1712
 72
     0
 73
     0
 74
     0
  7

 75
     0
147
1.0
148
0.0
149
0.0
100
AcDbLayout
  1
Model
 70
     1
 71
     0
 10
0.0
 20
0.0
 11
0.0
 21
0.0
 12
0.0
 22
0.0
 32
0.0
 14
0.0
 24
0.0
 34
0.0
 15
210.0
 25
297.0
 35
0.0
146
0.0
 13
0.0
 23
0.0
 33
0.0
 16
1.0
 26
0.0
 36
0.0
 17
0.0
 27
1.0
 37
0.0
 76
     0
330
1F
  0
MLINESTYLE
  5
18
102
{ACAD_REACTORS
330
17
102
}
330
17
100
AcDbMlineStyle
  2
Standard
 70
     0
  3

 62
   256
 51
90.0
 52
90.0
 71
     2
 49
0.5
 62
   256
  6
BYLAYER
 49
-0.5
 62
   256
  6
BYLAYER
  0
ACDBPLACEHOLDER
  5
F
102
{ACAD_REACTORS
330
E
102
}
330
E
  0
ENDSEC
  0
EOF
