  0
SECTION
  2
HEADER
  9
$ACADVER
  1
AC1015
  9
$ACADMAINTVER
 70
     6
  9
$DWGCODEPAGE
  3
DOS932
  9
$INSBASE
 10
0.0
 20
0.0
 30
0.0
  9
$EXTMIN
 10
0.0
 20
0.0
 30
0.0
  9
$EXTMAX
 10
210.0
 20
297.0
 30
0.0
  9
$LIMMIN
 10
0.0
 20
0.0
  9
$LIMMAX
 10
0.0
 20
0.0
  9
$ORTHOMODE
 70
     0
  9
$REGENMODE
 70
     1
  9
$FILLMODE
 70
     1
  9
$QTEXTMODE
 70
     0
  9
$MIRRTEXT
 70
     1
  9
$LTSCALE
 40
1.0
  9
$ATTMODE
 70
     1
  9
$TEXTSIZE
 40
3.5
  9
$TRACEWID
 40
1.0
  9
$TEXTSTYLE
  7
Standard
  9
$CLAYER
  8
0
  9
$CELTYPE
  6
ByLayer
  9
$CECOLOR
 62
   256
  9
$CELTSCALE
 40
1.0
  9
$DISPSILH
 70
     0
  9
$DIMSCALE
 40
1.0
  9
$DIMASZ
 40
3.0
  9
$DIMEXO
 40
1.0
  9
$DIMDLI
 40
3.75
  9
$DIMRND
 40
0.0
  9
$DIMDLE
 40
0.0
  9
$DIMEXE
 40
1.0
  9
$DIMTP
 40
0.0
  9
$DIMTM
 40
0.0
  9
$DIMTXT
 40
3.5
  9
$DIMCEN
 40
2.5
  9
$DIMTSZ
 40
0.0
  9
$DIMTOL
 70
     0
  9
$DIMLIM
 70
     0
  9
$DIMTIH
 70
     1
  9
$DIMTOH
 70
     1
  9
$DIMSE1
 70
     0
  9
$DIMSE2
 70
     0
  9
$DIMTAD
 70
     1
  9
$DIMZIN
 70
     1
  9
$DIMBLK
  1

  9
$DIMASO
 70
     1
  9
$DIMSHO
 70
     1
  9
$DIMPOST
  1

  9
$DIMAPOST
  1

  9
$DIMALT
 70
     0
  9
$DIMALTD
 70
     3
  9
$DIMALTF
 40
0.0393700787
  9
$DIMLFAC
 40
1.0
  9
$DIMTOFL
 70
     1
  9
$DIMTVP
 40
0.0
  9
$DIMTIX
 70
     0
  9
$DIMSOXD
 70
     0
  9
$DIMSAH
 70
     0
  9
$DIMBLK1
  1

  9
$DIMBLK2
  1

  9
$DIMSTYLE
  2
ISO-25
  9
$DIMCLRD
 70
     0
  9
$DIMCLRE
 70
     0
  9
$DIMCLRT
 70
     0
  9
$DIMTFAC
 40
1.0
  9
$DIMGAP
 40
1.524
  9
$DIMJUST
 70
     0
  9
$DIMSD1
 70
     0
  9
$DIMSD2
 70
     0
  9
$DIMTOLJ
 70
     0
  9
$DIMTZIN
 70
     1
  9
$DIMALTZ
 70
     0
  9
$DIMALTTZ
 70
     0
  9
$DIMUPT
 70
     0
  9
$DIMDEC
 70
     2
  9
$DIMTDEC
 70
     2
  9
$DIMALTU
 70
     2
  9
$DIMALTTD
 70
     3
  9
$DIMTXSTY
  7
Standard
  9
$DIMAUNIT
 70
     0
  9
$DIMADEC
 70
     0
  9
$DIMALTRND
 40
0.0
  9
$DIMAZIN
 70
     0
  9
$DIMDSEP
 70
    44
  9
$DIMATFIT
 70
     3
  9
$DIMFRAC
 70
     0
  9
$DIMLDRBLK
  1

  9
$DIMLUNIT
 70
     2
  9
$DIMLWD
 70
    -2
  9
$DIMLWE
 70
    -2
  9
$DIMTMOVE
 70
     0
  9
$LUNITS
 70
     2
  9
$LUPREC
 70
     1
  9
$SKETCHINC
 40
1.0
  9
$FILLETRAD
 40
10.0
  9
$AUNITS
 70
     0
  9
$AUPREC
 70
     0
  9
$MENU
  1
.
  9
$ELEVATION
 40
0.0
  9
$PELEVATION
 40
0.0
  9
$THICKNESS
 40
0.0
  9
$LIMCHECK
 70
     0
  9
$CHAMFERA
 40
10.0
  9
$CHAMFERB
 40
10.0
  9
$CHAMFERC
 40
20.0
  9
$CHAMFERD
 40
0.0
  9
$SKPOLY
 70
     0
  9
$TDCREATE
 40
2454314.637464549
  9
$TDUCREATE
 40
2454314.262464549
  9
$TDUPDATE
 40
2454314.63746456
  9
$TDUUPDATE
 40
2454314.26246456
  9
$TDINDWG
 40
0.0000000116
  9
$TDUSRTIMER
 40
0.0000000116
  9
$USRTIMER
 70
     1
  9
$ANGBASE
 50
0.0
  9
$ANGDIR
 70
     0
  9
$PDMODE
 70
     0
  9
$PDSIZE
 40
-1.0
  9
$PLINEWID
 40
0.0
  9
$SPLFRAME
 70
     0
  9
$SPLINETYPE
 70
     6
  9
$SPLINESEGS
 70
     8
  9
$HANDSEED
  5
318
  9
$SURFTAB1
 70
     6
  9
$SURFTAB2
 70
     6
  9
$SURFTYPE
 70
     6
  9
$SURFU
 70
     6
  9
$SURFV
 70
     6
  9
$UCSBASE
  2

  9
$UCSNAME
  2

  9
$UCSORG
 10
0.0
 20
0.0
 30
0.0
  9
$UCSXDIR
 10
1.0
 20
0.0
 30
0.0
  9
$UCSYDIR
 10
0.0
 20
1.0
 30
0.0
  9
$UCSORTHOREF
  2

  9
$UCSORTHOVIEW
 70
     0
  9
$UCSORGTOP
 10
0.0
 20
0.0
 30
0.0
  9
$UCSORGBOTTOM
 10
0.0
 20
0.0
 30
0.0
  9
$UCSORGLEFT
 10
0.0
 20
0.0
 30
0.0
  9
$UCSORGRIGHT
 10
0.0
 20
0.0
 30
0.0
  9
$UCSORGFRONT
 10
0.0
 20
0.0
 30
0.0
  9
$UCSORGBACK
 10
0.0
 20
0.0
 30
0.0
  9
$PUCSBASE
  2

  9
$PUCSNAME
  2

  9
$PUCSORG
 10
0.0
 20
0.0
 30
0.0
  9
$PUCSXDIR
 10
1.0
 20
0.0
 30
0.0
  9
$PUCSYDIR
 10
0.0
 20
1.0
 30
0.0
  9
$PUCSORTHOREF
  2

  9
$PUCSORTHOVIEW
 70
     0
  9
$PUCSORGTOP
 10
0.0
 20
0.0
 30
0.0
  9
$PUCSORGBOTTOM
 10
0.0
 20
0.0
 30
0.0
  9
$PUCSORGLEFT
 10
0.0
 20
0.0
 30
0.0
  9
$PUCSORGRIGHT
 10
0.0
 20
0.0
 30
0.0
  9
$PUCSORGFRONT
 10
0.0
 20
0.0
 30
0.0
  9
$PUCSORGBACK
 10
0.0
 20
0.0
 30
0.0
  9
$USERI1
 70
     0
  9
$USERI2
 70
     0
  9
$USERI3
 70
     0
  9
$USERI4
 70
     0
  9
$USERI5
 70
     0
  9
$USERR1
 40
0.0
  9
$USERR2
 40
0.0
  9
$USERR3
 40
0.0
  9
$USERR4
 40
0.0
  9
$USERR5
 40
0.0
  9
$WORLDVIEW
 70
     1
  9
$SHADEDGE
 70
     3
  9
$SHADEDIF
 70
    70
  9
$TILEMODE
 70
     1
  9
$MAXACTVP
 70
    64
  9
$PINSBASE
 10
0.0
 20
0.0
 30
0.0
  9
$PLIMCHECK
 70
     0
  9
$PEXTMIN
 10
1.0000000000E+20
 20
1.0000000000E+20
 30
1.0000000000E+20
  9
$PEXTMAX
 10
-1.0000000000E+20
 20
-1.0000000000E+20
 30
-1.0000000000E+20
  9
$PLIMMIN
 10
0.0
 20
0.0
  9
$PLIMMAX
 10
420.0
 20
297.0
  9
$UNITMODE
 70
     0
  9
$VISRETAIN
 70
     1
  9
$PLINEGEN
 70
     0
  9
$PSLTSCALE
 70
     1
  9
$TREEDEPTH
 70
  3020
  9
$CMLSTYLE
  2
Standard
  9
$CMLJUST
 70
     0
  9
$CMLSCALE
 40
20.0
  9
$PROXYGRAPHICS
 70
     1
  9
$MEASUREMENT
 70
     1
  9
$CELWEIGHT
370
    -1
  9
$ENDCAPS
280
     0
  9
$JOINSTYLE
280
     0
  9
$LWDISPLAY
290
     1
  9
$INSUNITS
 70
     4
  9
$HYPERLINKBASE
  1

  9
$STYLESHEET
  1

  9
$XEDIT
290
     1
  9
$CEPSNTYPE
380
     0
  9
$PSTYLEMODE
290
     1
  9
$FINGERPRINTGUID
  2
{C9907735-D04A-4994-A6D3-6869F953757E}
  9
$VERSIONGUID
  2
{FAEB1C32-E019-11D5-929B-00C0DF256EC4}
  9
$EXTNAMES
290
     1
  9
$PSVPSCALE
 40
0.0
  9
$OLESTARTUP
290
     0
  0
ENDSEC
  0
SECTION
  2
CLASSES
  0
CLASS
  1
ACDBDICTIONARYWDFLT
  2
AcDbDictionaryWithDefault
  3
ObjectDBX Classes
 90
        0
280
     0
281
     0
  0
CLASS
  1
ACDBPLACEHOLDER
  2
AcDbPlaceHolder
  3
ObjectDBX Classes
 90
        0
280
     0
281
     0
  0
CLASS
  1
LAYOUT
  2
AcDbLayout
  3
ObjectDBX Classes
 90
        0
280
     0
281
     0
  0
ENDSEC
  0
SECTION
  2
TABLES
  0
TABLE
  2
VPORT
  5
8
330
0
100
AcDbSymbolTable
 70
     1
  0
VPORT
  5
29
330
8
100
AcDbSymbolTableRecord
100
AcDbViewportTableRecord
  2
*Active
 70
     0
 10
0.0
 20
0.0
 11
1.0
 21
1.0
 12
105.0
 22
148.5
 13
0.0
 23
0.0
 14
10.0
 24
10.0
 15
10.0
 25
10.0
 16
0.0
 26
0.0
 36
1.0
 17
0.0
 27
0.0
 37
0.0
 40
297.0
 41
1.9729729729
 42
50.0
 43
0.0
 44
0.0
 50
0.0
 51
0.0
 71
     0
 72
  2000
 73
     1
 74
     3
 75
     0
 76
     0
 77
     0
 78
     0
281
     0
 65
     1
110
0.0
120
0.0
130
0.0
111
1.0
121
0.0
131
0.0
112
0.0
122
1.0
132
0.0
 79
     0
146
0.0
  0
ENDTAB
  0
TABLE
  2
LTYPE
  5
5
330
0
100
AcDbSymbolTable
 70
     6
  0
LTYPE
  5
14
330
5
100
AcDbSymbolTableRecord
100
AcDbLinetypeTableRecord
  2
ByBlock
 70
     0
  3

 72
    65
 73
     0
 40
0.0
  0
LTYPE
  5
15
330
5
100
AcDbSymbolTableRecord
100
AcDbLinetypeTableRecord
  2
ByLayer
 70
     0
  3

 72
    65
 73
     0
 40
0.0
  0
LTYPE
  5
16
330
5
100
AcDbSymbolTableRecord
100
AcDbLinetypeTableRecord
  2
Continuous
 70
     0
  3
Solid line
 72
    65
 73
     0
 40
0.0
  0
LTYPE
  5
2A
330
5
100
AcDbSymbolTableRecord
100
AcDbLinetypeTableRecord
  2
HIDDEN
 70
     0
  3
Hidden __ __ __ __ __ __ __ __ __ __ __ __ __ __
 72
    65
 73
     2
 40
1.905
 49
1.27
 74
     0
 49
-0.635
 74
     0
  0
LTYPE
  5
2B
330
5
100
AcDbSymbolTableRecord
100
AcDbLinetypeTableRecord
  2
PHANTOM
 70
     0
  3
Phantom ______  __  __  ______  __  __  ______
 72
    65
 73
     6
 40
12.7
 49
6.35
 74
     0
 49
-1.27
 74
     0
 49
1.27
 74
     0
 49
-1.27
 74
     0
 49
1.27
 74
     0
 49
-1.27
 74
     0
  0
LTYPE
  5
2C
330
5
100
AcDbSymbolTableRecord
100
AcDbLinetypeTableRecord
  2
CENTER
 70
     0
  3
Center ____ _ ____ _ ____ _ ____ _ ____ _ ____
 72
    65
 73
     4
 40
10.16
 49
6.35
 74
     0
 49
-1.27
 74
     0
 49
1.27
 74
     0
 49
-1.27
 74
     0
  0
LTYPE
  5
2D
330
5
100
AcDbSymbolTableRecord
100
AcDbLinetypeTableRecord
  2
CENTERX2
 70
     0
  3
Center (2x) ________  __  ________  __  _____
 72
    65
 73
     4
 40
20.32
 49
12.7
 74
     0
 49
-2.54
 74
     0
 49
2.54
 74
     0
 49
-2.54
 74
     0
  0
LTYPE
  5
2E
330
5
100
AcDbSymbolTableRecord
100
AcDbLinetypeTableRecord
  2
DOT2
 70
     0
  3
Dot (.5x) ........................................
 72
    65
 73
     2
 40
0.635
 49
0.0
 74
     0
 49
-0.635
 74
     0
  0
ENDTAB
  0
TABLE
  2
LAYER
  5
2
330
0
100
AcDbSymbolTable
 70
     4
  0
LAYER
  5
10
330
2
100
AcDbSymbolTableRecord
100
AcDbLayerTableRecord
  2
0
 70
     0
 62
     7
  6
Continuous
370
    -3
390
F
  0
LAYER
  5
2F
330
2
100
AcDbSymbolTableRecord
100
AcDbLayerTableRecord
  2
SLD-0
 70
     0
 62
   179
  6
Continuous
370
     0
390
F
  0
LAYER
  5
30
330
2
100
AcDbSymbolTableRecord
100
AcDbLayerTableRecord
  2
SLD-DEFPOINTS
 70
     0
 62
   179
  6
Continuous
370
     0
390
F
  0
LAYER
  5
235
330
2
100
AcDbSymbolTableRecord
100
AcDbLayerTableRecord
  2
Defpoints
 70
     0
 62
     7
  6
Continuous
290
     0
370
    -3
390
F
  0
ENDTAB
  0
TABLE
  2
STYLE
  5
3
330
0
100
AcDbSymbolTable
 70
     3
  0
STYLE
  5
11
330
3
100
AcDbSymbolTableRecord
100
AcDbTextStyleTableRecord
  2
Standard
 70
     0
 40
0.0
 41
1.0
 50
0.0
 71
     0
 42
2.5
  3
txt
  4
bigfont
  0
STYLE
  5
34
330
3
100
AcDbSymbolTableRecord
100
AcDbTextStyleTableRecord
  2
SLDTEXTSTYLE0
 70
     0
 40
0.0
 41
0.7
 50
0.0
 71
     0
 42
0.2
  3
TXT
  4
bigfont
  0
STYLE
  5
3A
330
3
100
AcDbSymbolTableRecord
100
AcDbTextStyleTableRecord
  2
SLDTEXTSTYLE1
 70
     0
 40
0.0
 41
0.5526315789
 50
0.0
 71
     0
 42
0.2
  3
TXT
  4
bigfont
  0
ENDTAB
  0
TABLE
  2
VIEW
  5
6
330
0
100
AcDbSymbolTable
 70
     0
  0
ENDTAB
  0
TABLE
  2
UCS
  5
7
330
0
100
AcDbSymbolTable
 70
     0
  0
ENDTAB
  0
TABLE
  2
APPID
  5
9
330
0
100
AcDbSymbolTable
 70
     1
  0
APPID
  5
12
330
9
100
AcDbSymbolTableRecord
100
AcDbRegAppTableRecord
  2
ACAD
 70
     0
  0
ENDTAB
  0
TABLE
  2
DIMSTYLE
  5
A
330
0
100
AcDbSymbolTable
 70
     4
100
AcDbDimStyleTable
  0
DIMSTYLE
105
27
330
A
100
AcDbSymbolTableRecord
100
AcDbDimStyleTableRecord
  2
ISO-25
 70
     0
 41
2.5
 42
0.625
 43
3.75
 44
1.25
 73
     0
 74
     0
 77
     1
 78
     8
140
2.5
141
2.5
143
0.0393700787
147
0.625
171
     3
172
     1
271
     2
272
     2
274
     3
278
    44
283
     0
284
     8
340
11
  0
DIMSTYLE
105
242
102
{ACAD_REACTORS
330
234
330
292
330
2C5
330
2E0
102
}
330
A
100
AcDbSymbolTableRecord
100
AcDbDimStyleTableRecord
  2
SLDDIMSTYLE0
 70
     0
 41
3.0
 44
0.0
 73
     0
 74
     0
 77
     3
 78
    12
140
3.5
147
0.875
173
     1
271
     1
272
     3
284
    12
340
3A
341
243
343
243
344
243
  0
DIMSTYLE
105
25F
102
{ACAD_REACTORS
330
252
330
26A
330
2AE
102
}
330
A
100
AcDbSymbolTableRecord
100
AcDbDimStyleTableRecord
  2
SLDDIMSTYLE1
 70
     0
 41
3.0
 44
0.0
 73
     0
 74
     0
 77
     3
 78
    12
140
3.5
147
0.875
173
     1
271
     0
272
     3
284
    12
340
3A
341
243
343
243
344
243
  0
DIMSTYLE
105
28B
102
{ACAD_REACTORS
330
281
330
2F9
102
}
330
A
100
AcDbSymbolTableRecord
100
AcDbDimStyleTableRecord
  2
SLDDIMSTYLE2
 70
     0
 41
3.0
 44
0.0
 78
    12
140
3.5
147
0.875
172
     1
173
     1
271
     0
272
     3
284
    12
340
3A
341
243
343
243
344
243
  0
ENDTAB
  0
TABLE
  2
BLOCK_RECORD
  5
1
330
0
100
AcDbSymbolTable
 70
    19
  0
BLOCK_RECORD
  5
1F
330
1
100
AcDbSymbolTableRecord
100
AcDbBlockTableRecord
  2
*Model_Space
340
22
  0
BLOCK_RECORD
  5
1B
330
1
100
AcDbSymbolTableRecord
100
AcDbBlockTableRecord
  2
*Paper_Space
340
1E
  0
BLOCK_RECORD
  5
23
330
1
100
AcDbSymbolTableRecord
100
AcDbBlockTableRecord
  2
*Paper_Space0
340
26
  0
BLOCK_RECORD
  5
31
330
1
100
AcDbSymbolTableRecord
100
AcDbBlockTableRecord
  2
注記
340
0
102
{BLKREFS
331
313
102
}
  0
BLOCK_RECORD
  5
37
330
1
100
AcDbSymbolTableRecord
100
AcDbBlockTableRecord
  2
NOTE39
340
0
102
{BLKREFS
331
310
102
}
  0
BLOCK_RECORD
  5
3D
330
1
100
AcDbSymbolTableRecord
100
AcDbBlockTableRecord
  2
NOTE40
340
0
102
{BLKREFS
331
311
102
}
  0
BLOCK_RECORD
  5
42
330
1
100
AcDbSymbolTableRecord
100
AcDbBlockTableRecord
  2
SURFACEFINISH45
340
0
102
{BLKREFS
331
312
102
}
  0
BLOCK_RECORD
  5
48
330
1
100
AcDbSymbolTableRecord
100
AcDbBlockTableRecord
  2
SW_CENTERMARK0
340
0
102
{BLKREFS
331
314
102
}
  0
BLOCK_RECORD
  5
53
330
1
100
AcDbSymbolTableRecord
100
AcDbBlockTableRecord
  2
SW_CENTERMARK1
340
0
102
{BLKREFS
331
315
102
}
  0
BLOCK_RECORD
  5
5E
330
1
100
AcDbSymbolTableRecord
100
AcDbBlockTableRecord
  2
SW_CENTERMARK2
340
0
102
{BLKREFS
331
316
102
}
  0
BLOCK_RECORD
  5
69
330
1
100
AcDbSymbolTableRecord
100
AcDbBlockTableRecord
  2
SW_CENTERMARK3
340
0
102
{BLKREFS
331
317
102
}
  0
BLOCK_RECORD
  5
236
330
1
100
AcDbSymbolTableRecord
100
AcDbBlockTableRecord
  2
*D9
340
0
  0
BLOCK_RECORD
  5
243
330
1
100
AcDbSymbolTableRecord
100
AcDbBlockTableRecord
  2
_None
340
0
102
{BLKREFS
331
23B
331
23A
331
258
331
257
331
270
331
26F
331
286
331
299
331
298
331
2B4
331
2B3
331
2CC
331
2CB
331
2E7
331
2E6
331
2FE
102
}
  0
BLOCK_RECORD
  5
253
330
1
100
AcDbSymbolTableRecord
100
AcDbBlockTableRecord
  2
*D11
340
0
  0
BLOCK_RECORD
  5
26B
330
1
100
AcDbSymbolTableRecord
100
AcDbBlockTableRecord
  2
*D12
340
0
  0
BLOCK_RECORD
  5
282
330
1
100
AcDbSymbolTableRecord
100
AcDbBlockTableRecord
  2
*D13
340
0
  0
BLOCK_RECORD
  5
293
330
1
100
AcDbSymbolTableRecord
100
AcDbBlockTableRecord
  2
*D14
340
0
  0
BLOCK_RECORD
  5
2AF
330
1
100
AcDbSymbolTableRecord
100
AcDbBlockTableRecord
  2
*D15
340
0
  0
BLOCK_RECORD
  5
2C6
330
1
100
AcDbSymbolTableRecord
100
AcDbBlockTableRecord
  2
*D16
340
0
  0
BLOCK_RECORD
  5
2E1
330
1
100
AcDbSymbolTableRecord
100
AcDbBlockTableRecord
  2
*D17
340
0
  0
BLOCK_RECORD
  5
2FA
330
1
100
AcDbSymbolTableRecord
100
AcDbBlockTableRecord
  2
*D18
340
0
  0
ENDTAB
  0
ENDSEC
  0
SECTION
  2
BLOCKS
  0
BLOCK
  5
20
330
1F
100
AcDbEntity
  8
0
100
AcDbBlockBegin
  2
*Model_Space
 70
     0
 71
     0
 10
0.0
 20
0.0
 30
0.0
  3
*Model_Space
  1

  0
ENDBLK
  5
21
330
1F
100
AcDbEntity
  8
0
100
AcDbBlockEnd
  0
BLOCK
  5
1C
330
1B
100
AcDbEntity
 67
     1
  8
0
100
AcDbBlockBegin
  2
*Paper_Space
 70
     0
 71
     0
 10
0.0
 20
0.0
 30
0.0
  3
*Paper_Space
  1

  0
ENDBLK
  5
1D
330
1B
100
AcDbEntity
 67
     1
  8
0
100
AcDbBlockEnd
  0
BLOCK
  5
24
330
23
100
AcDbEntity
  8
0
100
AcDbBlockBegin
  2
*Paper_Space0
 70
     0
 71
     0
 10
0.0
 20
0.0
 30
0.0
  3
*Paper_Space0
  1

  0
ENDBLK
  5
25
330
23
100
AcDbEntity
  8
0
100
AcDbBlockEnd
  0
BLOCK
  5
32
330
31
100
AcDbEntity
  8
0
100
AcDbBlockBegin
  2
注記
 70
     0
 71
     0
 10
0.0
 20
0.0
 30
0.0
  3
注記
  1

  0
MTEXT
  5
35
330
31
100
AcDbEntity
  8
0
  6
Continuous
 62
     7
370
     0
100
AcDbMText
 10
0.2636785918
 20
9.0739778448
 30
0.0
 40
3.5
 41
0.0
 71
     1
 72
     1
  1
１．特記ナキ角部ハ、バリ　カエリノ無キコト。
  7
SLDTEXTSTYLE0
 73
     1
 44
1.0
  0
MTEXT
  5
36
330
31
100
AcDbEntity
  8
0
  6
Continuous
 62
     7
370
     0
100
AcDbMText
 10
0.2636785918
 20
3.5759549983
 30
0.0
 40
3.5
 41
0.0
 71
     1
 72
     1
  1
２．特記ナキ隅部ハ、Ｒ０．４ＭＡＸトスル。
  7
SLDTEXTSTYLE0
 73
     1
 44
1.0
  0
ENDBLK
  5
33
330
31
100
AcDbEntity
  8
0
100
AcDbBlockEnd
  0
BLOCK
  5
38
330
37
100
AcDbEntity
  8
0
100
AcDbBlockBegin
  2
NOTE39
 70
     0
 71
     0
 10
0.0
 20
0.0
 30
0.0
  3
NOTE39
  1

  0
MTEXT
  5
3B
330
37
100
AcDbEntity
  8
SLD-0
100
AcDbMText
 10
0.0
 20
3.9302932586
 30
0.0
 40
3.5
 41
0.0
 71
     1
 72
     1
  1
ｺﾝﾃﾅｼﾘﾝﾀﾞｰｶﾞｲﾄﾞ付
  7
SLDTEXTSTYLE1
 73
     1
 44
1.0
  0
MTEXT
  5
3C
330
37
100
AcDbEntity
  8
SLD-0
100
AcDbMText
 10
9.1656269506
 20
-0.5697065477
 30
0.0
 40
3.5
 41
0.0
 71
     1
 72
     1
  1
(複動型 )
  7
SLDTEXTSTYLE1
 73
     1
 44
1.0
  0
ENDBLK
  5
39
330
37
100
AcDbEntity
  8
0
100
AcDbBlockEnd
  0
BLOCK
  5
3E
330
3D
100
AcDbEntity
  8
0
100
AcDbBlockBegin
  2
NOTE40
 70
     0
 71
     0
 10
0.0
 20
0.0
 30
0.0
  3
NOTE40
  1

  0
MTEXT
  5
40
330
3D
100
AcDbEntity
  8
SLD-0
100
AcDbMText
 10
0.0
 20
3.9302932586
 30
0.0
 40
3.5
 41
0.0
 71
     1
 72
     1
  1
ﾐﾆｺﾝﾃﾅｼﾘﾝﾀﾞｰ
  7
SLDTEXTSTYLE1
 73
     1
 44
1.0
  0
MTEXT
  5
41
330
3D
100
AcDbEntity
  8
SLD-0
100
AcDbMText
 10
4.0736123919
 20
-0.5697065477
 30
0.0
 40
3.5
 41
0.0
 71
     1
 72
     1
  1
(複動型 )
  7
SLDTEXTSTYLE1
 73
     1
 44
1.0
  0
ENDBLK
  5
3F
330
3D
100
AcDbEntity
  8
0
100
AcDbBlockEnd
  0
BLOCK
  5
43
330
42
100
AcDbEntity
  8
0
100
AcDbBlockBegin
  2
SURFACEFINISH45
 70
     0
 71
     0
 10
0.0
 20
0.0
 30
0.0
  3
SURFACEFINISH45
  1

  0
LINE
  5
45
330
42
100
AcDbEntity
  8
SLD-0
  6
Continuous
 62
   179
100
AcDbLine
 10
0.665659194
 20
-6.0450994299
 30
0.0
 11
-2.9004628835
 21
0.0000001164
 31
0.0
  0
LINE
  5
46
330
42
100
AcDbEntity
  8
SLD-0
  6
Continuous
 62
   179
100
AcDbLine
 10
0.665659194
 20
-6.0450994299
 30
0.0
 11
7.797903349
 21
6.0450996628
 31
0.0
  0
MTEXT
  5
47
330
42
100
AcDbEntity
  8
SLD-0
100
AcDbMText
 10
0.0
 20
4.9341236929
 30
0.0
 40
3.175
 41
0.0
 71
     1
 72
     1
  1
25
  7
SLDTEXTSTYLE1
 73
     1
 44
1.0
  0
ENDBLK
  5
44
330
42
100
AcDbEntity
  8
0
100
AcDbBlockEnd
  0
BLOCK
  5
49
330
48
100
AcDbEntity
  8
0
100
AcDbBlockBegin
  2
SW_CENTERMARK0
 70
     0
 71
     0
 10
0.0
 20
0.0
 30
0.0
  3
SW_CENTERMARK0
  1

  0
LINE
  5
4B
330
48
100
AcDbEntity
  8
SLD-0
  6
Continuous
 62
   179
100
AcDbLine
 10
92.8144729949
 20
181.81726783
 30
0.0
 11
92.8144729949
 21
184.31726783
 31
0.0
  0
LINE
  5
4C
330
48
100
AcDbEntity
  8
SLD-0
  6
Continuous
 62
   179
100
AcDbLine
 10
92.8144729949
 20
181.81726783
 30
0.0
 11
90.3144729949
 21
181.81726783
 31
0.0
  0
LINE
  5
4D
330
48
100
AcDbEntity
  8
SLD-0
  6
Continuous
 62
   179
100
AcDbLine
 10
92.8144729949
 20
181.81726783
 30
0.0
 11
92.8144729949
 21
179.31726783
 31
0.0
  0
LINE
  5
4E
330
48
100
AcDbEntity
  8
SLD-0
  6
Continuous
 62
   179
100
AcDbLine
 10
92.8144729949
 20
181.81726783
 30
0.0
 11
95.3144729949
 21
181.81726783
 31
0.0
  0
LINE
  5
4F
330
48
100
AcDbEntity
  8
SLD-0
  6
Continuous
 62
   179
100
AcDbLine
 10
92.8144729949
 20
184.31726783
 30
0.0
 11
92.8144729949
 21
185.96726783
 31
0.0
  0
LINE
  5
50
330
48
100
AcDbEntity
  8
SLD-0
  6
Continuous
 62
   179
100
AcDbLine
 10
90.3144729949
 20
181.81726783
 30
0.0
 11
88.6644729949
 21
181.81726783
 31
0.0
  0
LINE
  5
51
330
48
100
AcDbEntity
  8
SLD-0
  6
Continuous
 62
   179
100
AcDbLine
 10
92.8144729949
 20
179.31726783
 30
0.0
 11
92.8144729949
 21
177.66726783
 31
0.0
  0
LINE
  5
52
330
48
100
AcDbEntity
  8
SLD-0
  6
Continuous
 62
   179
100
AcDbLine
 10
95.3144729949
 20
181.81726783
 30
0.0
 11
96.9644729949
 21
181.81726783
 31
0.0
  0
ENDBLK
  5
4A
330
48
100
AcDbEntity
  8
0
100
AcDbBlockEnd
  0
BLOCK
  5
54
330
53
100
AcDbEntity
  8
0
100
AcDbBlockBegin
  2
SW_CENTERMARK1
 70
     0
 71
     0
 10
0.0
 20
0.0
 30
0.0
  3
SW_CENTERMARK1
  1

  0
LINE
  5
56
330
53
100
AcDbEntity
  8
SLD-0
  6
Continuous
 62
   179
100
AcDbLine
 10
124.8144729949
 20
181.81726783
 30
0.0
 11
124.8144729949
 21
184.31726783
 31
0.0
  0
LINE
  5
57
330
53
100
AcDbEntity
  8
SLD-0
  6
Continuous
 62
   179
100
AcDbLine
 10
124.8144729949
 20
181.81726783
 30
0.0
 11
122.3144729949
 21
181.81726783
 31
0.0
  0
LINE
  5
58
330
53
100
AcDbEntity
  8
SLD-0
  6
Continuous
 62
   179
100
AcDbLine
 10
124.8144729949
 20
181.81726783
 30
0.0
 11
124.8144729949
 21
179.31726783
 31
0.0
  0
LINE
  5
59
330
53
100
AcDbEntity
  8
SLD-0
  6
Continuous
 62
   179
100
AcDbLine
 10
124.8144729949
 20
181.81726783
 30
0.0
 11
127.3144729949
 21
181.81726783
 31
0.0
  0
LINE
  5
5A
330
53
100
AcDbEntity
  8
SLD-0
  6
Continuous
 62
   179
100
AcDbLine
 10
124.8144729949
 20
184.31726783
 30
0.0
 11
124.8144729949
 21
185.96726783
 31
0.0
  0
LINE
  5
5B
330
53
100
AcDbEntity
  8
SLD-0
  6
Continuous
 62
   179
100
AcDbLine
 10
122.3144729949
 20
181.81726783
 30
0.0
 11
120.6644729949
 21
181.81726783
 31
0.0
  0
LINE
  5
5C
330
53
100
AcDbEntity
  8
SLD-0
  6
Continuous
 62
   179
100
AcDbLine
 10
124.8144729949
 20
179.31726783
 30
0.0
 11
124.8144729949
 21
177.66726783
 31
0.0
  0
LINE
  5
5D
330
53
100
AcDbEntity
  8
SLD-0
  6
Continuous
 62
   179
100
AcDbLine
 10
127.3144729949
 20
181.81726783
 30
0.0
 11
128.9644729949
 21
181.81726783
 31
0.0
  0
ENDBLK
  5
55
330
53
100
AcDbEntity
  8
0
100
AcDbBlockEnd
  0
BLOCK
  5
5F
330
5E
100
AcDbEntity
  8
0
100
AcDbBlockBegin
  2
SW_CENTERMARK2
 70
     0
 71
     0
 10
0.0
 20
0.0
 30
0.0
  3
SW_CENTERMARK2
  1

  0
LINE
  5
61
330
5E
100
AcDbEntity
  8
SLD-0
  6
Continuous
 62
   179
100
AcDbLine
 10
102.8144729166
 20
181.81726989
 30
0.0
 11
102.8144729949
 21
184.31726783
 31
0.0
  0
LINE
  5
62
330
5E
100
AcDbEntity
  8
SLD-0
  6
Continuous
 62
   179
100
AcDbLine
 10
102.8144729166
 20
181.81726989
 30
0.0
 11
100.3144729949
 21
181.81726783
 31
0.0
  0
LINE
  5
63
330
5E
100
AcDbEntity
  8
SLD-0
  6
Continuous
 62
   179
100
AcDbLine
 10
102.8144729166
 20
181.81726989
 30
0.0
 11
102.8144729949
 21
179.31726783
 31
0.0
  0
LINE
  5
64
330
5E
100
AcDbEntity
  8
SLD-0
  6
Continuous
 62
   179
100
AcDbLine
 10
102.8144729166
 20
181.81726989
 30
0.0
 11
105.3144729949
 21
181.81726783
 31
0.0
  0
LINE
  5
65
330
5E
100
AcDbEntity
  8
SLD-0
  6
Continuous
 62
   179
100
AcDbLine
 10
102.8144729949
 20
184.31726783
 30
0.0
 11
102.8144729949
 21
186.41726783
 31
0.0
  0
LINE
  5
66
330
5E
100
AcDbEntity
  8
SLD-0
  6
Continuous
 62
   179
100
AcDbLine
 10
100.3144729949
 20
181.81726783
 30
0.0
 11
98.2144729949
 21
181.81726783
 31
0.0
  0
LINE
  5
67
330
5E
100
AcDbEntity
  8
SLD-0
  6
Continuous
 62
   179
100
AcDbLine
 10
102.8144729949
 20
179.31726783
 30
0.0
 11
102.8144729949
 21
177.21726783
 31
0.0
  0
LINE
  5
68
330
5E
100
AcDbEntity
  8
SLD-0
  6
Continuous
 62
   179
100
AcDbLine
 10
105.3144729949
 20
181.81726783
 30
0.0
 11
107.4144729949
 21
181.81726783
 31
0.0
  0
ENDBLK
  5
60
330
5E
100
AcDbEntity
  8
0
100
AcDbBlockEnd
  0
BLOCK
  5
6A
330
69
100
AcDbEntity
  8
0
100
AcDbBlockBegin
  2
SW_CENTERMARK3
 70
     0
 71
     0
 10
0.0
 20
0.0
 30
0.0
  3
SW_CENTERMARK3
  1

  0
LINE
  5
6C
330
69
100
AcDbEntity
  8
SLD-0
  6
Continuous
 62
   179
100
AcDbLine
 10
130.8144733153
 20
181.817272254
 30
0.0
 11
130.8144729949
 21
184.31726783
 31
0.0
  0
LINE
  5
6D
330
69
100
AcDbEntity
  8
SLD-0
  6
Continuous
 62
   179
100
AcDbLine
 10
130.8144733153
 20
181.817272254
 30
0.0
 11
128.3144729949
 21
181.81726783
 31
0.0
  0
LINE
  5
6E
330
69
100
AcDbEntity
  8
SLD-0
  6
Continuous
 62
   179
100
AcDbLine
 10
130.8144733153
 20
181.817272254
 30
0.0
 11
130.8144729949
 21
179.31726783
 31
0.0
  0
LINE
  5
6F
330
69
100
AcDbEntity
  8
SLD-0
  6
Continuous
 62
   179
100
AcDbLine
 10
130.8144733153
 20
181.817272254
 30
0.0
 11
133.3144729949
 21
181.81726783
 31
0.0
  0
LINE
  5
70
330
69
100
AcDbEntity
  8
SLD-0
  6
Continuous
 62
   179
100
AcDbLine
 10
130.8144729949
 20
184.31726783
 30
0.0
 11
130.8144729949
 21
186.41726783
 31
0.0
  0
LINE
  5
71
330
69
100
AcDbEntity
  8
SLD-0
  6
Continuous
 62
   179
100
AcDbLine
 10
128.3144729949
 20
181.81726783
 30
0.0
 11
126.2144729949
 21
181.81726783
 31
0.0
  0
LINE
  5
72
330
69
100
AcDbEntity
  8
SLD-0
  6
Continuous
 62
   179
100
AcDbLine
 10
130.8144729949
 20
179.31726783
 30
0.0
 11
130.8144729949
 21
177.21726783
 31
0.0
  0
LINE
  5
73
330
69
100
AcDbEntity
  8
SLD-0
  6
Continuous
 62
   179
100
AcDbLine
 10
133.3144729949
 20
181.81726783
 30
0.0
 11
135.4144729949
 21
181.81726783
 31
0.0
  0
ENDBLK
  5
6B
330
69
100
AcDbEntity
  8
0
100
AcDbBlockEnd
  0
BLOCK
  5
240
330
236
100
AcDbEntity
  8
0
100
AcDbBlockBegin
  2
*D9
 70
     1
 71
     0
 10
0.0
 20
0.0
 30
0.0
  3
*D9
  1

  0
LINE
  5
246
330
236
100
AcDbEntity
  8
SLD-0
 62
     7
100
AcDbLine
 10
136.3144729949
 20
188.11726783
 30
0.0
 11
136.3144729949
 21
202.0242146029
 31
0.0
  0
LINE
  5
247
330
236
100
AcDbEntity
  8
SLD-0
 62
     7
100
AcDbLine
 10
124.8144729949
 20
186.96726783
 30
0.0
 11
124.8144729949
 21
202.0242146029
 31
0.0
  0
LINE
  5
248
330
236
100
AcDbEntity
  8
SLD-0
 62
     7
100
AcDbLine
 10
136.3144729949
 20
201.0242146029
 30
0.0
 11
141.3144729949
 21
201.0242146029
 31
0.0
  0
LINE
  5
249
330
236
100
AcDbEntity
  8
SLD-0
 62
     7
100
AcDbLine
 10
136.3144729949
 20
201.0242146029
 30
0.0
 11
124.8144729949
 21
201.0242146029
 31
0.0
  0
LINE
  5
24A
330
236
100
AcDbEntity
  8
SLD-0
 62
     7
100
AcDbLine
 10
124.8144729949
 20
201.0242146029
 30
0.0
 11
119.8144729949
 21
201.0242146029
 31
0.0
  0
LINE
  5
24B
330
236
100
AcDbEntity
  8
SLD-0
 62
     7
100
AcDbLine
 10
139.3144729949
 20
200.2203676029
 30
0.0
 11
136.3144729949
 21
201.0242146029
 31
0.0
  0
LINE
  5
24C
330
236
100
AcDbEntity
  8
SLD-0
 62
     7
100
AcDbLine
 10
136.3144729949
 20
201.0242146029
 30
0.0
 11
139.3144729949
 21
201.8280616029
 31
0.0
  0
LINE
  5
24D
330
236
100
AcDbEntity
  8
SLD-0
 62
     7
100
AcDbLine
 10
136.3144729949
 20
201.0242146029
 30
0.0
 11
139.3144729949
 21
201.0242146029
 31
0.0
  0
LINE
  5
24E
330
236
100
AcDbEntity
  8
SLD-0
 62
     7
100
AcDbLine
 10
121.8144729949
 20
201.8280616029
 30
0.0
 11
124.8144729949
 21
201.0242146029
 31
0.0
  0
LINE
  5
24F
330
236
100
AcDbEntity
  8
SLD-0
 62
     7
100
AcDbLine
 10
124.8144729949
 20
201.0242146029
 30
0.0
 11
121.8144729949
 21
200.2203676029
 31
0.0
  0
LINE
  5
250
330
236
100
AcDbEntity
  8
SLD-0
 62
     7
100
AcDbLine
 10
124.8144729949
 20
201.0242146029
 30
0.0
 11
121.8144729949
 21
201.0242146029
 31
0.0
  0
MTEXT
  5
251
330
236
100
AcDbEntity
  8
SLD-0
 62
     7
100
AcDbMText
 10
126.4919523089
 20
205.5509082988
 30
0.1
 40
3.5
 41
0.0
 71
     1
 72
     1
  1
11.5
  7
SLDTEXTSTYLE0
 73
     1
 44
1.0
  0
ENDBLK
  5
241
330
236
100
AcDbEntity
  8
0
100
AcDbBlockEnd
  0
BLOCK
  5
244
330
243
100
AcDbEntity
  8
0
100
AcDbBlockBegin
  2
_None
 70
     0
 71
     0
 10
0.0
 20
0.0
 30
0.0
  3
_None
  1

  0
ENDBLK
  5
245
330
243
100
AcDbEntity
  8
0
100
AcDbBlockEnd
  0
BLOCK
  5
25D
330
253
100
AcDbEntity
  8
0
100
AcDbBlockBegin
  2
*D11
 70
     1
 71
     0
 10
0.0
 20
0.0
 30
0.0
  3
*D11
  1

  0
LINE
  5
260
330
253
100
AcDbEntity
  8
SLD-0
 62
     7
100
AcDbLine
 10
124.8144729949
 20
186.96726783
 30
0.0
 11
124.8144729949
 21
202.0242146029
 31
0.0
  0
LINE
  5
261
330
253
100
AcDbEntity
  8
SLD-0
 62
     7
100
AcDbLine
 10
92.8144729949
 20
186.96726783
 30
0.0
 11
92.8144729949
 21
202.0242146029
 31
0.0
  0
LINE
  5
262
330
253
100
AcDbEntity
  8
SLD-0
 62
     7
100
AcDbLine
 10
124.8144729949
 20
201.0242146029
 30
0.0
 11
92.8144729949
 21
201.0242146029
 31
0.0
  0
LINE
  5
263
330
253
100
AcDbEntity
  8
SLD-0
 62
     7
100
AcDbLine
 10
121.8144729949
 20
201.8280616029
 30
0.0
 11
124.8144729949
 21
201.0242146029
 31
0.0
  0
LINE
  5
264
330
253
100
AcDbEntity
  8
SLD-0
 62
     7
100
AcDbLine
 10
124.8144729949
 20
201.0242146029
 30
0.0
 11
121.8144729949
 21
200.2203676029
 31
0.0
  0
LINE
  5
265
330
253
100
AcDbEntity
  8
SLD-0
 62
     7
100
AcDbLine
 10
124.8144729949
 20
201.0242146029
 30
0.0
 11
121.8144729949
 21
201.0242146029
 31
0.0
  0
LINE
  5
266
330
253
100
AcDbEntity
  8
SLD-0
 62
     7
100
AcDbLine
 10
95.8144729949
 20
200.2203676029
 30
0.0
 11
92.8144729949
 21
201.0242146029
 31
0.0
  0
LINE
  5
267
330
253
100
AcDbEntity
  8
SLD-0
 62
     7
100
AcDbLine
 10
92.8144729949
 20
201.0242146029
 30
0.0
 11
95.8144729949
 21
201.8280616029
 31
0.0
  0
LINE
  5
268
330
253
100
AcDbEntity
  8
SLD-0
 62
     7
100
AcDbLine
 10
92.8144729949
 20
201.0242146029
 30
0.0
 11
95.8144729949
 21
201.0242146029
 31
0.0
  0
MTEXT
  5
269
330
253
100
AcDbEntity
  8
SLD-0
 62
     7
100
AcDbMText
 10
106.7789710356
 20
205.5509082988
 30
0.1
 40
3.5
 41
0.0
 71
     1
 72
     1
  1
32
  7
SLDTEXTSTYLE0
 73
     1
 44
1.0
  0
ENDBLK
  5
25E
330
253
100
AcDbEntity
  8
0
100
AcDbBlockEnd
  0
BLOCK
  5
275
330
26B
100
AcDbEntity
  8
0
100
AcDbBlockBegin
  2
*D12
 70
     1
 71
     0
 10
0.0
 20
0.0
 30
0.0
  3
*D12
  1

  0
LINE
  5
277
330
26B
100
AcDbEntity
  8
SLD-0
 62
     7
100
AcDbLine
 10
87.3144729949
 20
188.11726783
 30
0.0
 11
87.3144729949
 21
210.966946081
 31
0.0
  0
LINE
  5
278
330
26B
100
AcDbEntity
  8
SLD-0
 62
     7
100
AcDbLine
 10
136.3144729949
 20
188.11726783
 30
0.0
 11
136.3144729949
 21
210.966946081
 31
0.0
  0
LINE
  5
279
330
26B
100
AcDbEntity
  8
SLD-0
 62
     7
100
AcDbLine
 10
87.3144729949
 20
209.966946081
 30
0.0
 11
136.3144729949
 21
209.966946081
 31
0.0
  0
LINE
  5
27A
330
26B
100
AcDbEntity
  8
SLD-0
 62
     7
100
AcDbLine
 10
90.3144729949
 20
209.163099081
 30
0.0
 11
87.3144729949
 21
209.966946081
 31
0.0
  0
LINE
  5
27B
330
26B
100
AcDbEntity
  8
SLD-0
 62
     7
100
AcDbLine
 10
87.3144729949
 20
209.966946081
 30
0.0
 11
90.3144729949
 21
210.770793081
 31
0.0
  0
LINE
  5
27C
330
26B
100
AcDbEntity
  8
SLD-0
 62
     7
100
AcDbLine
 10
87.3144729949
 20
209.966946081
 30
0.0
 11
90.3144729949
 21
209.966946081
 31
0.0
  0
LINE
  5
27D
330
26B
100
AcDbEntity
  8
SLD-0
 62
     7
100
AcDbLine
 10
133.3144729949
 20
210.770793081
 30
0.0
 11
136.3144729949
 21
209.966946081
 31
0.0
  0
LINE
  5
27E
330
26B
100
AcDbEntity
  8
SLD-0
 62
     7
100
AcDbLine
 10
136.3144729949
 20
209.966946081
 30
0.0
 11
133.3144729949
 21
209.163099081
 31
0.0
  0
LINE
  5
27F
330
26B
100
AcDbEntity
  8
SLD-0
 62
     7
100
AcDbLine
 10
136.3144729949
 20
209.966946081
 30
0.0
 11
133.3144729949
 21
209.966946081
 31
0.0
  0
MTEXT
  5
280
330
26B
100
AcDbEntity
  8
SLD-0
 62
     7
100
AcDbMText
 10
109.7789710356
 20
214.493639777
 30
0.1
 40
3.5
 41
0.0
 71
     1
 72
     1
  1
49
  7
SLDTEXTSTYLE0
 73
     1
 44
1.0
  0
ENDBLK
  5
276
330
26B
100
AcDbEntity
  8
0
100
AcDbBlockEnd
  0
BLOCK
  5
289
330
282
100
AcDbEntity
  8
0
100
AcDbBlockBegin
  2
*D13
 70
     1
 71
     0
 10
0.0
 20
0.0
 30
0.0
  3
*D13
  1

  0
LINE
  5
28C
330
282
100
AcDbEntity
  8
SLD-0
 62
     7
100
AcDbLine
 10
92.0408318084
 20
183.6615778134
 30
0.0
 11
85.9928919897
 21
198.0794707352
 31
0.0
  0
LINE
  5
28D
330
282
100
AcDbEntity
  8
SLD-0
 62
     7
100
AcDbLine
 10
85.9928919897
 20
198.0794707352
 30
0.0
 11
73.0853506176
 21
198.0794707352
 31
0.0
  0
LINE
  5
28E
330
282
100
AcDbEntity
  8
SLD-0
 62
     7
100
AcDbLine
 10
91.6216415523
 20
186.7389873618
 30
0.0
 11
92.0408318084
 21
183.6615778134
 31
0.0
  0
LINE
  5
28F
330
282
100
AcDbEntity
  8
SLD-0
 62
     7
100
AcDbLine
 10
92.0408318084
 20
183.6615778134
 30
0.0
 11
90.1390985051
 21
186.117098215
 31
0.0
  0
LINE
  5
290
330
282
100
AcDbEntity
  8
SLD-0
 62
     7
100
AcDbLine
 10
92.0408318084
 20
183.6615778134
 30
0.0
 11
90.8803700287
 21
186.4280427884
 31
0.0
  0
MTEXT
  5
291
330
282
100
AcDbEntity
  8
SLD-0
 62
     7
100
AcDbMText
 10
74.6728506176
 20
202.6061644311
 30
0.1
 40
3.5
 41
0.0
 71
     1
 72
     1
  1
2-M4
  7
SLDTEXTSTYLE0
 73
     1
 44
1.0
  0
ENDBLK
  5
28A
330
282
100
AcDbEntity
  8
0
100
AcDbBlockEnd
  0
BLOCK
  5
2A0
330
293
100
AcDbEntity
  8
0
100
AcDbBlockBegin
  2
*D14
 70
     1
 71
     0
 10
0.0
 20
0.0
 30
0.0
  3
*D14
  1

  0
LINE
  5
2A2
330
293
100
AcDbEntity
  8
SLD-0
 62
     7
100
AcDbLine
 10
136.3144729949
 20
175.51726783
 30
0.0
 11
136.3144729949
 21
163.1431945887
 31
0.0
  0
LINE
  5
2A3
330
293
100
AcDbEntity
  8
SLD-0
 62
     7
100
AcDbLine
 10
130.8144729949
 20
180.81726783
 30
0.0
 11
130.8144729949
 21
163.1431945887
 31
0.0
  0
LINE
  5
2A4
330
293
100
AcDbEntity
  8
SLD-0
 62
     7
100
AcDbLine
 10
136.3144729949
 20
164.1431945887
 30
0.0
 11
149.3680605267
 21
164.1431945887
 31
0.0
  0
LINE
  5
2A5
330
293
100
AcDbEntity
  8
SLD-0
 62
     7
100
AcDbLine
 10
136.3144729949
 20
164.1431945887
 30
0.0
 11
130.8144729949
 21
164.1431945887
 31
0.0
  0
LINE
  5
2A6
330
293
100
AcDbEntity
  8
SLD-0
 62
     7
100
AcDbLine
 10
130.8144729949
 20
164.1431945887
 30
0.0
 11
125.8144729949
 21
164.1431945887
 31
0.0
  0
LINE
  5
2A7
330
293
100
AcDbEntity
  8
SLD-0
 62
     7
100
AcDbLine
 10
139.3144729949
 20
163.3393475887
 30
0.0
 11
136.3144729949
 21
164.1431945887
 31
0.0
  0
LINE
  5
2A8
330
293
100
AcDbEntity
  8
SLD-0
 62
     7
100
AcDbLine
 10
136.3144729949
 20
164.1431945887
 30
0.0
 11
139.3144729949
 21
164.9470415887
 31
0.0
  0
LINE
  5
2A9
330
293
100
AcDbEntity
  8
SLD-0
 62
     7
100
AcDbLine
 10
136.3144729949
 20
164.1431945887
 30
0.0
 11
139.3144729949
 21
164.1431945887
 31
0.0
  0
LINE
  5
2AA
330
293
100
AcDbEntity
  8
SLD-0
 62
     7
100
AcDbLine
 10
127.8144729949
 20
164.9470415887
 30
0.0
 11
130.8144729949
 21
164.1431945887
 31
0.0
  0
LINE
  5
2AB
330
293
100
AcDbEntity
  8
SLD-0
 62
     7
100
AcDbLine
 10
130.8144729949
 20
164.1431945887
 30
0.0
 11
127.8144729949
 21
163.3393475887
 31
0.0
  0
LINE
  5
2AC
330
293
100
AcDbEntity
  8
SLD-0
 62
     7
100
AcDbLine
 10
130.8144729949
 20
164.1431945887
 30
0.0
 11
127.8144729949
 21
164.1431945887
 31
0.0
  0
MTEXT
  5
2AD
330
293
100
AcDbEntity
  8
SLD-0
 62
     7
100
AcDbMText
 10
141.671021114
 20
168.6698882847
 30
0.1
 40
3.5
 41
0.0
 71
     1
 72
     1
  1
5.5
  7
SLDTEXTSTYLE0
 73
     1
 44
1.0
  0
ENDBLK
  5
2A1
330
293
100
AcDbEntity
  8
0
100
AcDbBlockEnd
  0
BLOCK
  5
2B9
330
2AF
100
AcDbEntity
  8
0
100
AcDbBlockBegin
  2
*D15
 70
     1
 71
     0
 10
0.0
 20
0.0
 30
0.0
  3
*D15
  1

  0
LINE
  5
2BB
330
2AF
100
AcDbEntity
  8
SLD-0
 62
     7
100
AcDbLine
 10
130.8144729949
 20
180.81726783
 30
0.0
 11
130.8144729949
 21
163.1431945887
 31
0.0
  0
LINE
  5
2BC
330
2AF
100
AcDbEntity
  8
SLD-0
 62
     7
100
AcDbLine
 10
102.8144729949
 20
180.81726783
 30
0.0
 11
102.8144729949
 21
163.1431945887
 31
0.0
  0
LINE
  5
2BD
330
2AF
100
AcDbEntity
  8
SLD-0
 62
     7
100
AcDbLine
 10
130.8144729949
 20
164.1431945887
 30
0.0
 11
102.8144729949
 21
164.1431945887
 31
0.0
  0
LINE
  5
2BE
330
2AF
100
AcDbEntity
  8
SLD-0
 62
     7
100
AcDbLine
 10
127.8144729949
 20
164.9470415887
 30
0.0
 11
130.8144729949
 21
164.1431945887
 31
0.0
  0
LINE
  5
2BF
330
2AF
100
AcDbEntity
  8
SLD-0
 62
     7
100
AcDbLine
 10
130.8144729949
 20
164.1431945887
 30
0.0
 11
127.8144729949
 21
163.3393475887
 31
0.0
  0
LINE
  5
2C0
330
2AF
100
AcDbEntity
  8
SLD-0
 62
     7
100
AcDbLine
 10
130.8144729949
 20
164.1431945887
 30
0.0
 11
127.8144729949
 21
164.1431945887
 31
0.0
  0
LINE
  5
2C1
330
2AF
100
AcDbEntity
  8
SLD-0
 62
     7
100
AcDbLine
 10
105.8144729949
 20
163.3393475887
 30
0.0
 11
102.8144729949
 21
164.1431945887
 31
0.0
  0
LINE
  5
2C2
330
2AF
100
AcDbEntity
  8
SLD-0
 62
     7
100
AcDbLine
 10
102.8144729949
 20
164.1431945887
 30
0.0
 11
105.8144729949
 21
164.9470415887
 31
0.0
  0
LINE
  5
2C3
330
2AF
100
AcDbEntity
  8
SLD-0
 62
     7
100
AcDbLine
 10
102.8144729949
 20
164.1431945887
 30
0.0
 11
105.8144729949
 21
164.1431945887
 31
0.0
  0
MTEXT
  5
2C4
330
2AF
100
AcDbEntity
  8
SLD-0
 62
     7
100
AcDbMText
 10
114.7789710356
 20
168.6698882847
 30
0.1
 40
3.5
 41
0.0
 71
     1
 72
     1
  1
28
  7
SLDTEXTSTYLE0
 73
     1
 44
1.0
  0
ENDBLK
  5
2BA
330
2AF
100
AcDbEntity
  8
0
100
AcDbBlockEnd
  0
BLOCK
  5
2D2
330
2C6
100
AcDbEntity
  8
0
100
AcDbBlockBegin
  2
*D16
 70
     1
 71
     0
 10
0.0
 20
0.0
 30
0.0
  3
*D16
  1

  0
LINE
  5
2D4
330
2C6
100
AcDbEntity
  8
SLD-0
 62
     7
100
AcDbLine
 10
137.3144729949
 20
176.51726783
 30
0.0
 11
153.5506630632
 21
176.51726783
 31
0.0
  0
LINE
  5
2D5
330
2C6
100
AcDbEntity
  8
SLD-0
 62
     7
100
AcDbLine
 10
129.9644729949
 20
181.81726783
 30
0.0
 11
153.5506630632
 21
181.81726783
 31
0.0
  0
LINE
  5
2D6
330
2C6
100
AcDbEntity
  8
SLD-0
 62
     7
100
AcDbLine
 10
152.5506630632
 20
176.51726783
 30
0.0
 11
152.5506630632
 21
171.51726783
 31
0.0
  0
LINE
  5
2D7
330
2C6
100
AcDbEntity
  8
SLD-0
 62
     7
100
AcDbLine
 10
152.5506630632
 20
176.51726783
 30
0.0
 11
152.5506630632
 21
181.81726783
 31
0.0
  0
LINE
  5
2D8
330
2C6
100
AcDbEntity
  8
SLD-0
 62
     7
100
AcDbLine
 10
152.5506630632
 20
181.81726783
 30
0.0
 11
152.5506630632
 21
199.039639002
 31
0.0
  0
LINE
  5
2D9
330
2C6
100
AcDbEntity
  8
SLD-0
 62
     7
100
AcDbLine
 10
151.7468160632
 20
173.51726783
 30
0.0
 11
152.5506630632
 21
176.51726783
 31
0.0
  0
LINE
  5
2DA
330
2C6
100
AcDbEntity
  8
SLD-0
 62
     7
100
AcDbLine
 10
152.5506630632
 20
176.51726783
 30
0.0
 11
153.3545100632
 21
173.51726783
 31
0.0
  0
LINE
  5
2DB
330
2C6
100
AcDbEntity
  8
SLD-0
 62
     7
100
AcDbLine
 10
152.5506630632
 20
176.51726783
 30
0.0
 11
152.5506630632
 21
173.51726783
 31
0.0
  0
LINE
  5
2DC
330
2C6
100
AcDbEntity
  8
SLD-0
 62
     7
100
AcDbLine
 10
153.3545100632
 20
184.81726783
 30
0.0
 11
152.5506630632
 21
181.81726783
 31
0.0
  0
LINE
  5
2DD
330
2C6
100
AcDbEntity
  8
SLD-0
 62
     7
100
AcDbLine
 10
152.5506630632
 20
181.81726783
 30
0.0
 11
151.7468160632
 21
184.81726783
 31
0.0
  0
LINE
  5
2DE
330
2C6
100
AcDbEntity
  8
SLD-0
 62
     7
100
AcDbLine
 10
152.5506630632
 20
181.81726783
 30
0.0
 11
152.5506630632
 21
184.81726783
 31
0.0
  0
MTEXT
  5
2DF
330
2C6
100
AcDbEntity
  8
SLD-0
 62
     7
100
AcDbMText
 10
148.0239693672
 20
191.3425995892
 30
0.1
 40
3.5
 41
0.0
 71
     1
 72
     1
  1
5.3
  7
SLDTEXTSTYLE0
 11
6.123031769111886E-17
 21
1.0
 31
0.0
 73
     1
 44
1.0
  0
ENDBLK
  5
2D3
330
2C6
100
AcDbEntity
  8
0
100
AcDbBlockEnd
  0
BLOCK
  5
2EC
330
2E1
100
AcDbEntity
  8
0
100
AcDbBlockBegin
  2
*D17
 70
     1
 71
     0
 10
0.0
 20
0.0
 30
0.0
  3
*D17
  1

  0
LINE
  5
2EE
330
2E1
100
AcDbEntity
  8
SLD-0
 62
     7
100
AcDbLine
 10
137.3144729949
 20
187.11726783
 30
0.0
 11
162.4068092408
 21
187.11726783
 31
0.0
  0
LINE
  5
2EF
330
2E1
100
AcDbEntity
  8
SLD-0
 62
     7
100
AcDbLine
 10
137.3144729949
 20
176.51726783
 30
0.0
 11
162.4068092408
 21
176.51726783
 31
0.0
  0
LINE
  5
2F0
330
2E1
100
AcDbEntity
  8
SLD-0
 62
     7
100
AcDbLine
 10
161.4068092408
 20
187.11726783
 30
0.0
 11
161.4068092408
 21
199.2942547558
 31
0.0
  0
LINE
  5
2F1
330
2E1
100
AcDbEntity
  8
SLD-0
 62
     7
100
AcDbLine
 10
161.4068092408
 20
187.11726783
 30
0.0
 11
161.4068092408
 21
176.51726783
 31
0.0
  0
LINE
  5
2F2
330
2E1
100
AcDbEntity
  8
SLD-0
 62
     7
100
AcDbLine
 10
160.6029622408
 20
184.11726783
 30
0.0
 11
161.4068092408
 21
187.11726783
 31
0.0
  0
LINE
  5
2F3
330
2E1
100
AcDbEntity
  8
SLD-0
 62
     7
100
AcDbLine
 10
161.4068092408
 20
187.11726783
 30
0.0
 11
162.2106562408
 21
184.11726783
 31
0.0
  0
LINE
  5
2F4
330
2E1
100
AcDbEntity
  8
SLD-0
 62
     7
100
AcDbLine
 10
161.4068092408
 20
187.11726783
 30
0.0
 11
161.4068092408
 21
184.11726783
 31
0.0
  0
LINE
  5
2F5
330
2E1
100
AcDbEntity
  8
SLD-0
 62
     7
100
AcDbLine
 10
162.2106562408
 20
179.51726783
 30
0.0
 11
161.4068092408
 21
176.51726783
 31
0.0
  0
LINE
  5
2F6
330
2E1
100
AcDbEntity
  8
SLD-0
 62
     7
100
AcDbLine
 10
161.4068092408
 20
176.51726783
 30
0.0
 11
160.6029622408
 21
179.51726783
 31
0.0
  0
LINE
  5
2F7
330
2E1
100
AcDbEntity
  8
SLD-0
 62
     7
100
AcDbLine
 10
161.4068092408
 20
176.51726783
 30
0.0
 11
161.4068092408
 21
179.51726783
 31
0.0
  0
MTEXT
  5
2F8
330
2E1
100
AcDbEntity
  8
SLD-0
 62
     7
100
AcDbMText
 10
156.8801155449
 20
189.5617133838
 30
0.1
 40
3.5
 41
0.0
 71
     1
 72
     1
  1
10.6
  7
SLDTEXTSTYLE0
 11
6.123031769111886E-17
 21
1.0
 31
0.0
 73
     1
 44
1.0
  0
ENDBLK
  5
2ED
330
2E1
100
AcDbEntity
  8
0
100
AcDbBlockEnd
  0
BLOCK
  5
301
330
2FA
100
AcDbEntity
  8
0
100
AcDbBlockBegin
  2
*D18
 70
     1
 71
     0
 10
0.0
 20
0.0
 30
0.0
  3
*D18
  1

  0
LINE
  5
303
330
2FA
100
AcDbEntity
  8
SLD-0
 62
     7
100
AcDbLine
 10
101.8015303609
 20
179.5316722358
 30
0.0
 11
95.4734415731
 21
165.2530237049
 31
0.0
  0
LINE
  5
304
330
2FA
100
AcDbEntity
  8
SLD-0
 62
     7
100
AcDbLine
 10
95.4734415731
 20
165.2530237049
 30
0.0
 11
82.565900201
 21
165.2530237049
 31
0.0
  0
LINE
  5
305
330
2FA
100
AcDbEntity
  8
SLD-0
 62
     7
100
AcDbLine
 10
99.8510915354
 20
177.1146578818
 30
0.0
 11
101.8015303609
 21
179.5316722358
 31
0.0
  0
LINE
  5
306
330
2FA
100
AcDbEntity
  8
SLD-0
 62
     7
100
AcDbLine
 10
101.8015303609
 20
179.5316722358
 30
0.0
 11
101.3209068647
 21
176.4632571638
 31
0.0
  0
LINE
  5
307
330
2FA
100
AcDbEntity
  8
SLD-0
 62
     7
100
AcDbLine
 10
101.8015303609
 20
179.5316722358
 30
0.0
 11
100.5859992001
 21
176.7889575228
 31
0.0
  0
MTEXT
  5
308
330
2FA
100
AcDbEntity
  8
SLD-0
 62
     7
100
AcDbMText
 10
84.153400201
 20
169.7797174009
 30
0.1
 40
3.5
 41
0.0
 71
     1
 72
     1
  1
2-M5
  7
SLDTEXTSTYLE0
 73
     1
 44
1.0
  0
ENDBLK
  5
302
330
2FA
100
AcDbEntity
  8
0
100
AcDbBlockEnd
  0
ENDSEC
  0
SECTION
  2
ENTITIES
  0
LINE
  5
74
330
1F
100
AcDbEntity
  8
SLD-0
  6
Continuous
 62
   179
100
AcDbLine
 10
20.2604743903
 20
285.0
 30
0.0
 11
196.7604743903
 21
285.0
 31
0.0
  0
LINE
  5
75
330
1F
100
AcDbEntity
  8
SLD-0
  6
Continuous
 62
   179
100
AcDbLine
 10
20.2604743903
 20
285.0
 30
0.0
 11
20.2604743903
 21
10.0
 31
0.0
  0
LINE
  5
76
330
1F
100
AcDbEntity
  8
SLD-0
  6
Continuous
 62
   179
100
AcDbLine
 10
20.2604743903
 20
10.0
 30
0.0
 11
196.7604743903
 21
10.0
 31
0.0
  0
LINE
  5
77
330
1F
100
AcDbEntity
  8
SLD-0
  6
Continuous
 62
   179
100
AcDbLine
 10
196.7604743903
 20
285.0
 30
0.0
 11
196.7604743903
 21
10.0
 31
0.0
  0
LINE
  5
78
330
1F
100
AcDbEntity
  8
SLD-0
  6
Continuous
 62
   179
100
AcDbLine
 10
65.7604743903
 20
285.0
 30
0.0
 11
196.7604743903
 21
285.0
 31
0.0
  0
LINE
  5
79
330
1F
100
AcDbEntity
  8
SLD-0
  6
Continuous
 62
   179
100
AcDbLine
 10
196.7604743903
 20
285.0
 30
0.0
 11
196.7604743903
 21
264.25
 31
0.0
  0
LINE
  5
7A
330
1F
100
AcDbEntity
  8
SLD-0
  6
Continuous
 62
   179
100
AcDbLine
 10
127.0104743903
 20
50.75
 30
0.0
 11
196.7604743903
 21
50.75
 31
0.0
  0
LINE
  5
7B
330
1F
100
AcDbEntity
  8
SLD-0
  6
Continuous
 62
   179
100
AcDbLine
 10
116.7604743903
 20
60.75
 30
0.0
 11
196.7604743903
 21
60.75
 31
0.0
  0
LINE
  5
7C
330
1F
100
AcDbEntity
  8
SLD-0
  6
Continuous
 62
   179
100
AcDbLine
 10
127.0104743903
 20
50.75
 30
0.0
 11
127.0104743903
 21
10.0
 31
0.0
  0
LINE
  5
7D
330
1F
100
AcDbEntity
  8
SLD-0
  6
Continuous
 62
   179
100
AcDbLine
 10
127.0104743903
 20
22.75
 30
0.0
 11
196.7604743903
 21
22.75
 31
0.0
  0
LINE
  5
7E
330
1F
100
AcDbEntity
  8
SLD-0
  6
Continuous
 62
   179
100
AcDbLine
 10
127.0104743903
 20
36.75
 30
0.0
 11
196.7604743903
 21
36.75
 31
0.0
  0
LINE
  5
7F
330
1F
100
AcDbEntity
  8
SLD-0
  6
Continuous
 62
   179
100
AcDbLine
 10
116.7604743903
 20
60.75
 30
0.0
 11
116.7604743903
 21
90.75
 31
0.0
  0
LINE
  5
80
330
1F
100
AcDbEntity
  8
SLD-0
  6
Continuous
 62
   179
100
AcDbLine
 10
116.7604743903
 20
90.75
 30
0.0
 11
196.7604743903
 21
90.75
 31
0.0
  0
LINE
  5
81
330
1F
100
AcDbEntity
  8
SLD-0
  6
Continuous
 62
   179
100
AcDbLine
 10
156.7604743903
 20
90.75
 30
0.0
 11
156.7604743903
 21
60.75
 31
0.0
  0
LINE
  5
82
330
1F
100
AcDbEntity
  8
SLD-0
  6
Continuous
 62
   179
100
AcDbLine
 10
116.7604743903
 20
70.75
 30
0.0
 11
196.7604743903
 21
70.75
 31
0.0
  0
LINE
  5
83
330
1F
100
AcDbEntity
  8
SLD-0
  6
Continuous
 62
   179
100
AcDbLine
 10
116.7604743903
 20
80.75
 30
0.0
 11
196.7604743903
 21
80.75
 31
0.0
  0
LINE
  5
84
330
1F
100
AcDbEntity
  8
SLD-0
  6
Continuous
 62
   179
100
AcDbLine
 10
136.3144729949
 20
187.11726783
 30
0.0
 11
87.3144729949
 21
187.11726783
 31
0.0
  0
LINE
  5
85
330
1F
100
AcDbEntity
  8
SLD-0
  6
Continuous
 62
   179
100
AcDbLine
 10
87.3144729949
 20
176.51726783
 30
0.0
 11
136.3144729949
 21
176.51726783
 31
0.0
  0
LINE
  5
86
330
1F
100
AcDbEntity
  8
SLD-0
  6
Continuous
 62
   179
100
AcDbLine
 10
136.3144729949
 20
187.11726783
 30
0.0
 11
136.3144729949
 21
186.61726783
 31
0.0
  0
LINE
  5
87
330
1F
100
AcDbEntity
  8
SLD-0
  6
Continuous
 62
   179
100
AcDbLine
 10
87.3144729949
 20
187.11726783
 30
0.0
 11
87.3144729949
 21
186.61726783
 31
0.0
  0
LINE
  5
88
330
1F
100
AcDbEntity
  8
SLD-0
  6
Continuous
 62
   179
100
AcDbLine
 10
136.3144729949
 20
186.61726783
 30
0.0
 11
136.3144729949
 21
184.6415318988
 31
0.0
  0
LINE
  5
89
330
1F
100
AcDbEntity
  8
SLD-0
  6
Continuous
 62
   179
100
AcDbLine
 10
87.3144729949
 20
186.61726783
 30
0.0
 11
87.3144729949
 21
184.6415318988
 31
0.0
  0
LINE
  5
8A
330
1F
100
AcDbEntity
  8
SLD-0
  6
Continuous
 62
   179
100
AcDbLine
 10
87.3144729949
 20
177.01726783
 30
0.0
 11
87.3144729949
 21
176.51726783
 31
0.0
  0
LINE
  5
8B
330
1F
100
AcDbEntity
  8
SLD-0
  6
Continuous
 62
   179
100
AcDbLine
 10
136.3144729949
 20
177.01726783
 30
0.0
 11
136.3144729949
 21
176.51726783
 31
0.0
  0
LINE
  5
8C
330
1F
100
AcDbEntity
  8
SLD-0
  6
Continuous
 62
   179
100
AcDbLine
 10
87.3144729949
 20
184.6415318988
 30
0.0
 11
87.3144729949
 21
184.4293998644
 31
0.0
  0
LINE
  5
8D
330
1F
100
AcDbEntity
  8
SLD-0
  6
Continuous
 62
   179
100
AcDbLine
 10
136.3144729949
 20
184.6415318988
 30
0.0
 11
136.3144729949
 21
184.4293998644
 31
0.0
  0
LINE
  5
8E
330
1F
100
AcDbEntity
  8
SLD-0
  6
Continuous
 62
   179
100
AcDbLine
 10
87.3144729949
 20
178.9930037613
 30
0.0
 11
87.3144729949
 21
177.01726783
 31
0.0
  0
LINE
  5
8F
330
1F
100
AcDbEntity
  8
SLD-0
  6
Continuous
 62
   179
100
AcDbLine
 10
136.3144729949
 20
178.9930037613
 30
0.0
 11
136.3144729949
 21
177.01726783
 31
0.0
  0
LINE
  5
90
330
1F
100
AcDbEntity
  8
SLD-0
  6
Continuous
 62
   179
100
AcDbLine
 10
87.3144729949
 20
179.2051357957
 30
0.0
 11
87.3144729949
 21
178.9930037613
 31
0.0
  0
LINE
  5
91
330
1F
100
AcDbEntity
  8
SLD-0
  6
Continuous
 62
   179
100
AcDbLine
 10
136.3144729949
 20
179.2051357957
 30
0.0
 11
136.3144729949
 21
178.9930037613
 31
0.0
  0
LINE
  5
92
330
1F
100
AcDbEntity
  8
SLD-0
  6
Continuous
 62
   179
100
AcDbLine
 10
87.3144729949
 20
184.4293998644
 30
0.0
 11
87.3144729949
 21
183.9051357957
 31
0.0
  0
LINE
  5
93
330
1F
100
AcDbEntity
  8
SLD-0
  6
Continuous
 62
   179
100
AcDbLine
 10
136.3144729949
 20
184.4293998644
 30
0.0
 11
136.3144729949
 21
183.9051357957
 31
0.0
  0
LINE
  5
94
330
1F
100
AcDbEntity
  8
SLD-0
  6
Continuous
 62
   179
100
AcDbLine
 10
87.3144729949
 20
179.7293998644
 30
0.0
 11
87.3144729949
 21
179.2051357957
 31
0.0
  0
LINE
  5
95
330
1F
100
AcDbEntity
  8
SLD-0
  6
Continuous
 62
   179
100
AcDbLine
 10
136.3144729949
 20
179.7293998644
 30
0.0
 11
136.3144729949
 21
179.2051357957
 31
0.0
  0
LINE
  5
96
330
1F
100
AcDbEntity
  8
SLD-0
  6
Continuous
 62
   179
100
AcDbLine
 10
136.3144729949
 20
183.9051357957
 30
0.0
 11
136.3144729949
 21
183.6930037613
 31
0.0
  0
LINE
  5
97
330
1F
100
AcDbEntity
  8
SLD-0
  6
Continuous
 62
   179
100
AcDbLine
 10
87.3144729949
 20
179.9415318988
 30
0.0
 11
87.3144729949
 21
179.7293998644
 31
0.0
  0
LINE
  5
98
330
1F
100
AcDbEntity
  8
SLD-0
  6
Continuous
 62
   179
100
AcDbLine
 10
87.3144729949
 20
183.9051357957
 30
0.0
 11
87.3144729949
 21
183.6930037613
 31
0.0
  0
LINE
  5
99
330
1F
100
AcDbEntity
  8
SLD-0
  6
Continuous
 62
   179
100
AcDbLine
 10
136.3144729949
 20
179.9415318988
 30
0.0
 11
136.3144729949
 21
179.7293998644
 31
0.0
  0
LINE
  5
9A
330
1F
100
AcDbEntity
  8
SLD-0
  6
Continuous
 62
   179
100
AcDbLine
 10
87.3144729949
 20
183.6930037613
 30
0.0
 11
87.3144729949
 21
179.9415318988
 31
0.0
  0
LINE
  5
9B
330
1F
100
AcDbEntity
  8
SLD-0
  6
Continuous
 62
   179
100
AcDbLine
 10
136.3144729949
 20
183.6930037613
 30
0.0
 11
136.3144729949
 21
179.9415318988
 31
0.0
  0
LINE
  5
9C
330
1F
100
AcDbEntity
  8
SLD-0
 62
   179
100
AcDbLine
 10
125.5084575928
 20
183.6930037658
 30
0.0
 11
125.8022451616
 21
183.5563208857
 31
0.0
  0
LINE
  5
9D
330
1F
100
AcDbEntity
  8
SLD-0
 62
   179
100
AcDbLine
 10
125.8022451616
 20
183.5563208857
 30
0.0
 11
126.0701056413
 21
183.373990743
 31
0.0
  0
LINE
  5
9E
330
1F
100
AcDbEntity
  8
SLD-0
 62
   179
100
AcDbLine
 10
126.0701056413
 20
183.373990743
 30
0.0
 11
126.3050075463
 21
183.1507990551
 31
0.0
  0
LINE
  5
9F
330
1F
100
AcDbEntity
  8
SLD-0
 62
   179
100
AcDbLine
 10
126.3050075463
 20
183.1507990551
 30
0.0
 11
126.5007855213
 21
182.8926044232
 31
0.0
  0
LINE
  5
A0
330
1F
100
AcDbEntity
  8
SLD-0
 62
   179
100
AcDbLine
 10
126.5007855213
 20
182.8926044232
 30
0.0
 11
126.6523005284
 21
182.6061839652
 31
0.0
  0
LINE
  5
A1
330
1F
100
AcDbEntity
  8
SLD-0
 62
   179
100
AcDbLine
 10
126.6523005284
 20
182.6061839652
 30
0.0
 11
126.75557582
 21
182.2990557244
 31
0.0
  0
LINE
  5
A2
330
1F
100
AcDbEntity
  8
SLD-0
 62
   179
100
AcDbLine
 10
126.75557582
 20
182.2990557244
 30
0.0
 11
126.8079003162
 21
181.9792813163
 31
0.0
  0
LINE
  5
A3
330
1F
100
AcDbEntity
  8
SLD-0
 62
   179
100
AcDbLine
 10
126.8079003162
 20
181.9792813163
 30
0.0
 11
126.8079003162
 21
181.6552543438
 31
0.0
  0
LINE
  5
A4
330
1F
100
AcDbEntity
  8
SLD-0
 62
   179
100
AcDbLine
 10
126.8079003162
 20
181.6552543438
 30
0.0
 11
126.75557582
 21
181.3354799357
 31
0.0
  0
LINE
  5
A5
330
1F
100
AcDbEntity
  8
SLD-0
 62
   179
100
AcDbLine
 10
126.75557582
 20
181.3354799357
 30
0.0
 11
126.6523005284
 21
181.0283516948
 31
0.0
  0
LINE
  5
A6
330
1F
100
AcDbEntity
  8
SLD-0
 62
   179
100
AcDbLine
 10
126.6523005284
 20
181.0283516948
 30
0.0
 11
126.5007855213
 21
180.7419312368
 31
0.0
  0
LINE
  5
A7
330
1F
100
AcDbEntity
  8
SLD-0
 62
   179
100
AcDbLine
 10
126.5007855213
 20
180.7419312368
 30
0.0
 11
126.3050075463
 21
180.4837366049
 31
0.0
  0
LINE
  5
A8
330
1F
100
AcDbEntity
  8
SLD-0
 62
   179
100
AcDbLine
 10
126.3050075463
 20
180.4837366049
 30
0.0
 11
126.0701056413
 21
180.2605449171
 31
0.0
  0
LINE
  5
A9
330
1F
100
AcDbEntity
  8
SLD-0
 62
   179
100
AcDbLine
 10
126.0701056413
 20
180.2605449171
 30
0.0
 11
125.8022451616
 21
180.0782147744
 31
0.0
  0
LINE
  5
AA
330
1F
100
AcDbEntity
  8
SLD-0
 62
   179
100
AcDbLine
 10
125.8022451616
 20
180.0782147744
 30
0.0
 11
125.5084575928
 21
179.9415318943
 31
0.0
  0
LINE
  5
AB
330
1F
100
AcDbEntity
  8
SLD-0
 62
   179
100
AcDbLine
 10
124.1204880021
 20
179.9415318943
 30
0.0
 11
123.8267004333
 21
180.0782147744
 31
0.0
  0
LINE
  5
AC
330
1F
100
AcDbEntity
  8
SLD-0
 62
   179
100
AcDbLine
 10
123.8267004333
 20
180.0782147744
 30
0.0
 11
123.5588399536
 21
180.2605449171
 31
0.0
  0
LINE
  5
AD
330
1F
100
AcDbEntity
  8
SLD-0
 62
   179
100
AcDbLine
 10
123.5588399536
 20
180.2605449171
 30
0.0
 11
123.3239380486
 21
180.4837366049
 31
0.0
  0
LINE
  5
AE
330
1F
100
AcDbEntity
  8
SLD-0
 62
   179
100
AcDbLine
 10
123.3239380486
 20
180.4837366049
 30
0.0
 11
123.1281600735
 21
180.7419312368
 31
0.0
  0
LINE
  5
AF
330
1F
100
AcDbEntity
  8
SLD-0
 62
   179
100
AcDbLine
 10
123.1281600735
 20
180.7419312368
 30
0.0
 11
122.9766450665
 21
181.0283516948
 31
0.0
  0
LINE
  5
B0
330
1F
100
AcDbEntity
  8
SLD-0
 62
   179
100
AcDbLine
 10
122.9766450665
 20
181.0283516948
 30
0.0
 11
122.8733697749
 21
181.3354799357
 31
0.0
  0
LINE
  5
B1
330
1F
100
AcDbEntity
  8
SLD-0
 62
   179
100
AcDbLine
 10
122.8733697749
 20
181.3354799357
 30
0.0
 11
122.82104621
 21
181.6552543438
 31
0.0
  0
LINE
  5
B2
330
1F
100
AcDbEntity
  8
SLD-0
 62
   179
100
AcDbLine
 10
122.82104621
 20
181.6552543438
 30
0.0
 11
122.82104621
 21
181.9792813163
 31
0.0
  0
LINE
  5
B3
330
1F
100
AcDbEntity
  8
SLD-0
 62
   179
100
AcDbLine
 10
122.82104621
 20
181.9792813163
 30
0.0
 11
122.8733697749
 21
182.2990557244
 31
0.0
  0
LINE
  5
B4
330
1F
100
AcDbEntity
  8
SLD-0
 62
   179
100
AcDbLine
 10
122.8733697749
 20
182.2990557244
 30
0.0
 11
122.9766450665
 21
182.6061839652
 31
0.0
  0
LINE
  5
B5
330
1F
100
AcDbEntity
  8
SLD-0
 62
   179
100
AcDbLine
 10
122.9766450665
 20
182.6061839652
 30
0.0
 11
123.1281600735
 21
182.8926044232
 31
0.0
  0
LINE
  5
B6
330
1F
100
AcDbEntity
  8
SLD-0
 62
   179
100
AcDbLine
 10
123.1281600735
 20
182.8926044232
 30
0.0
 11
123.3239380486
 21
183.1507990551
 31
0.0
  0
LINE
  5
B7
330
1F
100
AcDbEntity
  8
SLD-0
 62
   179
100
AcDbLine
 10
123.3239380486
 20
183.1507990551
 30
0.0
 11
123.5588399536
 21
183.373990743
 31
0.0
  0
LINE
  5
B8
330
1F
100
AcDbEntity
  8
SLD-0
 62
   179
100
AcDbLine
 10
123.5588399536
 20
183.373990743
 30
0.0
 11
123.8267004333
 21
183.5563208857
 31
0.0
  0
LINE
  5
B9
330
1F
100
AcDbEntity
  8
SLD-0
 62
   179
100
AcDbLine
 10
123.8267004333
 20
183.5563208857
 30
0.0
 11
124.1204880021
 21
183.6930037658
 31
0.0
  0
LINE
  5
BA
330
1F
100
AcDbEntity
  8
SLD-0
  6
HIDDEN
 62
   179
100
AcDbLine
 10
123.3068743563
 20
183.1314773713
 30
0.0
 11
123.535232789
 21
183.3545695241
 31
0.0
  0
LINE
  5
BB
330
1F
100
AcDbEntity
  8
SLD-0
  6
HIDDEN
 62
   179
100
AcDbLine
 10
123.535232789
 20
183.3545695241
 30
0.0
 11
123.7233310781
 21
183.4863527161
 31
0.0
  0
LINE
  5
BC
330
1F
100
AcDbEntity
  8
SLD-0
  6
HIDDEN
 62
   179
100
AcDbLine
 10
124.0930698655
 20
183.679526364
 30
0.0
 11
124.1507932387
 21
183.6989965937
 31
0.0
  0
LINE
  5
BD
330
1F
100
AcDbEntity
  8
SLD-0
  6
HIDDEN
 62
   179
100
AcDbLine
 10
125.3693682916
 20
183.7384194783
 30
0.0
 11
125.5987185828
 21
183.6421005843
 31
0.0
  0
LINE
  5
BE
330
1F
100
AcDbEntity
  8
SLD-0
  6
HIDDEN
 62
   179
100
AcDbLine
 10
126.0679226211
 20
183.373563848
 30
0.0
 11
126.3220712385
 21
183.1314773713
 31
0.0
  0
LINE
  5
BF
330
1F
100
AcDbEntity
  8
SLD-0
  6
HIDDEN
 62
   179
100
AcDbLine
 10
126.3220712385
 20
180.5030582887
 30
0.0
 11
126.0937137372
 21
180.279966136
 31
0.0
  0
LINE
  5
C0
330
1F
100
AcDbEntity
  8
SLD-0
  6
HIDDEN
 62
   179
100
AcDbLine
 10
126.0937137372
 20
180.279966136
 30
0.0
 11
125.9056145168
 21
180.148182944
 31
0.0
  0
LINE
  5
C1
330
1F
100
AcDbEntity
  8
SLD-0
  6
HIDDEN
 62
   179
100
AcDbLine
 10
125.5358757294
 20
179.9550092961
 30
0.0
 11
125.4781523562
 21
179.9355390664
 31
0.0
  0
LINE
  5
C2
330
1F
100
AcDbEntity
  8
SLD-0
  6
HIDDEN
 62
   179
100
AcDbLine
 10
124.2595773033
 20
179.8961161818
 30
0.0
 11
124.0302279434
 21
179.9924350758
 31
0.0
  0
LINE
  5
C3
330
1F
100
AcDbEntity
  8
SLD-0
  6
HIDDEN
 62
   179
100
AcDbLine
 10
123.5610229737
 20
180.2609718121
 30
0.0
 11
123.3068743563
 21
180.5030582887
 31
0.0
  0
LINE
  5
C4
330
1F
100
AcDbEntity
  8
SLD-0
  6
HIDDEN
 62
   179
100
AcDbLine
 10
124.1204880021
 20
183.6930037658
 30
0.0
 11
124.2891654215
 21
183.7470480656
 31
0.0
  0
LINE
  5
C5
330
1F
100
AcDbEntity
  8
SLD-0
  6
HIDDEN
 62
   179
100
AcDbLine
 10
124.2891654215
 20
183.7470480656
 30
0.0
 11
124.4619620807
 21
183.7859566272
 31
0.0
  0
LINE
  5
C6
330
1F
100
AcDbEntity
  8
SLD-0
  6
HIDDEN
 62
   179
100
AcDbLine
 10
124.4619620807
 20
183.7859566272
 30
0.0
 11
124.6375238366
 21
183.8094245591
 31
0.0
  0
LINE
  5
C7
330
1F
100
AcDbEntity
  8
SLD-0
  6
HIDDEN
 62
   179
100
AcDbLine
 10
124.6375238366
 20
183.8094245591
 30
0.0
 11
124.8144732631
 21
183.817267925
 31
0.0
  0
LINE
  5
C8
330
1F
100
AcDbEntity
  8
SLD-0
  6
HIDDEN
 62
   179
100
AcDbLine
 10
124.8144732631
 20
183.817267925
 30
0.0
 11
124.9914226896
 21
183.8094245591
 31
0.0
  0
LINE
  5
C9
330
1F
100
AcDbEntity
  8
SLD-0
  6
HIDDEN
 62
   179
100
AcDbLine
 10
124.9914226896
 20
183.8094245591
 30
0.0
 11
125.1669844455
 21
183.7859566272
 31
0.0
  0
LINE
  5
CA
330
1F
100
AcDbEntity
  8
SLD-0
  6
HIDDEN
 62
   179
100
AcDbLine
 10
125.1669844455
 20
183.7859566272
 30
0.0
 11
125.3397811047
 21
183.7470480656
 31
0.0
  0
LINE
  5
CB
330
1F
100
AcDbEntity
  8
SLD-0
  6
HIDDEN
 62
   179
100
AcDbLine
 10
125.3397811047
 20
183.7470480656
 30
0.0
 11
125.5084575928
 21
183.6930037658
 31
0.0
  0
LINE
  5
CC
330
1F
100
AcDbEntity
  8
SLD-0
  6
HIDDEN
 62
   179
100
AcDbLine
 10
125.5084575928
 20
179.9415318943
 30
0.0
 11
125.3397811047
 21
179.8874875945
 31
0.0
  0
LINE
  5
CD
330
1F
100
AcDbEntity
  8
SLD-0
  6
HIDDEN
 62
   179
100
AcDbLine
 10
125.3397811047
 20
179.8874875945
 30
0.0
 11
125.1669844455
 21
179.8485790328
 31
0.0
  0
LINE
  5
CE
330
1F
100
AcDbEntity
  8
SLD-0
  6
HIDDEN
 62
   179
100
AcDbLine
 10
125.1669844455
 20
179.8485790328
 30
0.0
 11
124.9914226896
 21
179.8251111009
 31
0.0
  0
LINE
  5
CF
330
1F
100
AcDbEntity
  8
SLD-0
  6
HIDDEN
 62
   179
100
AcDbLine
 10
124.9914226896
 20
179.8251111009
 30
0.0
 11
124.8144732631
 21
179.817267735
 31
0.0
  0
LINE
  5
D0
330
1F
100
AcDbEntity
  8
SLD-0
  6
HIDDEN
 62
   179
100
AcDbLine
 10
124.8144732631
 20
179.817267735
 30
0.0
 11
124.6375238366
 21
179.8251111009
 31
0.0
  0
LINE
  5
D1
330
1F
100
AcDbEntity
  8
SLD-0
  6
HIDDEN
 62
   179
100
AcDbLine
 10
124.6375238366
 20
179.8251111009
 30
0.0
 11
124.4619620807
 21
179.8485790328
 31
0.0
  0
LINE
  5
D2
330
1F
100
AcDbEntity
  8
SLD-0
  6
HIDDEN
 62
   179
100
AcDbLine
 10
124.4619620807
 20
179.8485790328
 30
0.0
 11
124.2891654215
 21
179.8874875945
 31
0.0
  0
LINE
  5
D3
330
1F
100
AcDbEntity
  8
SLD-0
  6
HIDDEN
 62
   179
100
AcDbLine
 10
124.2891654215
 20
179.8874875945
 30
0.0
 11
124.1204880021
 21
179.9415318943
 31
0.0
  0
LINE
  5
D4
330
1F
100
AcDbEntity
  8
SLD-0
 62
   179
100
AcDbLine
 10
93.5084579355
 20
183.6930037658
 30
0.0
 11
93.8022455043
 21
183.5563208857
 31
0.0
  0
LINE
  5
D5
330
1F
100
AcDbEntity
  8
SLD-0
 62
   179
100
AcDbLine
 10
93.8022455043
 20
183.5563208857
 30
0.0
 11
94.0701050527
 21
183.373990743
 31
0.0
  0
LINE
  5
D6
330
1F
100
AcDbEntity
  8
SLD-0
 62
   179
100
AcDbLine
 10
94.0701050527
 20
183.373990743
 30
0.0
 11
94.3050088204
 21
183.1507990551
 31
0.0
  0
LINE
  5
D7
330
1F
100
AcDbEntity
  8
SLD-0
 62
   179
100
AcDbLine
 10
94.3050088204
 20
183.1507990551
 30
0.0
 11
94.5007858641
 21
182.8926044232
 31
0.0
  0
LINE
  5
D8
330
1F
100
AcDbEntity
  8
SLD-0
 62
   179
100
AcDbLine
 10
94.5007858641
 20
182.8926044232
 30
0.0
 11
94.6523008711
 21
182.6061839652
 31
0.0
  0
LINE
  5
D9
330
1F
100
AcDbEntity
  8
SLD-0
 62
   179
100
AcDbLine
 10
94.6523008711
 20
182.6061839652
 30
0.0
 11
94.7555752314
 21
182.2990557244
 31
0.0
  0
LINE
  5
DA
330
1F
100
AcDbEntity
  8
SLD-0
 62
   179
100
AcDbLine
 10
94.7555752314
 20
182.2990557244
 30
0.0
 11
94.8079006589
 21
181.9792813163
 31
0.0
  0
LINE
  5
DB
330
1F
100
AcDbEntity
  8
SLD-0
 62
   179
100
AcDbLine
 10
94.8079006589
 20
181.9792813163
 30
0.0
 11
94.8079006589
 21
181.6552543438
 31
0.0
  0
LINE
  5
DC
330
1F
100
AcDbEntity
  8
SLD-0
 62
   179
100
AcDbLine
 10
94.8079006589
 20
181.6552543438
 30
0.0
 11
94.7555752314
 21
181.3354799357
 31
0.0
  0
LINE
  5
DD
330
1F
100
AcDbEntity
  8
SLD-0
 62
   179
100
AcDbLine
 10
94.7555752314
 20
181.3354799357
 30
0.0
 11
94.6523008711
 21
181.0283516948
 31
0.0
  0
LINE
  5
DE
330
1F
100
AcDbEntity
  8
SLD-0
 62
   179
100
AcDbLine
 10
94.6523008711
 20
181.0283516948
 30
0.0
 11
94.5007858641
 21
180.7419312368
 31
0.0
  0
LINE
  5
DF
330
1F
100
AcDbEntity
  8
SLD-0
 62
   179
100
AcDbLine
 10
94.5007858641
 20
180.7419312368
 30
0.0
 11
94.3050088204
 21
180.4837366049
 31
0.0
  0
LINE
  5
E0
330
1F
100
AcDbEntity
  8
SLD-0
 62
   179
100
AcDbLine
 10
94.3050088204
 20
180.4837366049
 30
0.0
 11
94.0701050527
 21
180.2605449171
 31
0.0
  0
LINE
  5
E1
330
1F
100
AcDbEntity
  8
SLD-0
 62
   179
100
AcDbLine
 10
94.0701050527
 20
180.2605449171
 30
0.0
 11
93.8022455043
 21
180.0782147744
 31
0.0
  0
LINE
  5
E2
330
1F
100
AcDbEntity
  8
SLD-0
 62
   179
100
AcDbLine
 10
93.8022455043
 20
180.0782147744
 30
0.0
 11
93.5084579355
 21
179.9415318943
 31
0.0
  0
LINE
  5
E3
330
1F
100
AcDbEntity
  8
SLD-0
 62
   179
100
AcDbLine
 10
92.1204874135
 20
179.9415318943
 30
0.0
 11
91.8266998447
 21
180.0782147744
 31
0.0
  0
LINE
  5
E4
330
1F
100
AcDbEntity
  8
SLD-0
 62
   179
100
AcDbLine
 10
91.8266998447
 20
180.0782147744
 30
0.0
 11
91.5588402963
 21
180.2605449171
 31
0.0
  0
LINE
  5
E5
330
1F
100
AcDbEntity
  8
SLD-0
 62
   179
100
AcDbLine
 10
91.5588402963
 20
180.2605449171
 30
0.0
 11
91.3239383913
 21
180.4837366049
 31
0.0
  0
LINE
  5
E6
330
1F
100
AcDbEntity
  8
SLD-0
 62
   179
100
AcDbLine
 10
91.3239383913
 20
180.4837366049
 30
0.0
 11
91.1281594849
 21
180.7419312368
 31
0.0
  0
LINE
  5
E7
330
1F
100
AcDbEntity
  8
SLD-0
 62
   179
100
AcDbLine
 10
91.1281594849
 20
180.7419312368
 30
0.0
 11
90.9766444779
 21
181.0283516948
 31
0.0
  0
LINE
  5
E8
330
1F
100
AcDbEntity
  8
SLD-0
 62
   179
100
AcDbLine
 10
90.9766444779
 20
181.0283516948
 30
0.0
 11
90.8733701176
 21
181.3354799357
 31
0.0
  0
LINE
  5
E9
330
1F
100
AcDbEntity
  8
SLD-0
 62
   179
100
AcDbLine
 10
90.8733701176
 20
181.3354799357
 30
0.0
 11
90.8210465527
 21
181.6552543438
 31
0.0
  0
LINE
  5
EA
330
1F
100
AcDbEntity
  8
SLD-0
 62
   179
100
AcDbLine
 10
90.8210465527
 20
181.6552543438
 30
0.0
 11
90.8210465527
 21
181.9792813163
 31
0.0
  0
LINE
  5
EB
330
1F
100
AcDbEntity
  8
SLD-0
 62
   179
100
AcDbLine
 10
90.8210465527
 20
181.9792813163
 30
0.0
 11
90.8733701176
 21
182.2990557244
 31
0.0
  0
LINE
  5
EC
330
1F
100
AcDbEntity
  8
SLD-0
 62
   179
100
AcDbLine
 10
90.8733701176
 20
182.2990557244
 30
0.0
 11
90.9766444779
 21
182.6061839652
 31
0.0
  0
LINE
  5
ED
330
1F
100
AcDbEntity
  8
SLD-0
 62
   179
100
AcDbLine
 10
90.9766444779
 20
182.6061839652
 30
0.0
 11
91.1281594849
 21
182.8926044232
 31
0.0
  0
LINE
  5
EE
330
1F
100
AcDbEntity
  8
SLD-0
 62
   179
100
AcDbLine
 10
91.1281594849
 20
182.8926044232
 30
0.0
 11
91.3239383913
 21
183.1507990551
 31
0.0
  0
LINE
  5
EF
330
1F
100
AcDbEntity
  8
SLD-0
 62
   179
100
AcDbLine
 10
91.3239383913
 20
183.1507990551
 30
0.0
 11
91.5588402963
 21
183.373990743
 31
0.0
  0
LINE
  5
F0
330
1F
100
AcDbEntity
  8
SLD-0
 62
   179
100
AcDbLine
 10
91.5588402963
 20
183.373990743
 30
0.0
 11
91.8266998447
 21
183.5563208857
 31
0.0
  0
LINE
  5
F1
330
1F
100
AcDbEntity
  8
SLD-0
 62
   179
100
AcDbLine
 10
91.8266998447
 20
183.5563208857
 30
0.0
 11
92.1204874135
 21
183.6930037658
 31
0.0
  0
LINE
  5
F2
330
1F
100
AcDbEntity
  8
SLD-0
  6
HIDDEN
 62
   179
100
AcDbLine
 10
92.1204874135
 20
183.6930037658
 30
0.0
 11
92.2891648329
 21
183.7470480656
 31
0.0
  0
LINE
  5
F3
330
1F
100
AcDbEntity
  8
SLD-0
  6
HIDDEN
 62
   179
100
AcDbLine
 10
92.2891648329
 20
183.7470480656
 30
0.0
 11
92.4619624234
 21
183.7859566272
 31
0.0
  0
LINE
  5
F4
330
1F
100
AcDbEntity
  8
SLD-0
  6
HIDDEN
 62
   179
100
AcDbLine
 10
92.4619624234
 20
183.7859566272
 30
0.0
 11
92.6375241793
 21
183.8094245591
 31
0.0
  0
LINE
  5
F5
330
1F
100
AcDbEntity
  8
SLD-0
  6
HIDDEN
 62
   179
100
AcDbLine
 10
92.6375241793
 20
183.8094245591
 30
0.0
 11
92.8144736058
 21
183.817267925
 31
0.0
  0
LINE
  5
F6
330
1F
100
AcDbEntity
  8
SLD-0
  6
HIDDEN
 62
   179
100
AcDbLine
 10
92.8144736058
 20
183.817267925
 30
0.0
 11
92.9914230324
 21
183.8094245591
 31
0.0
  0
LINE
  5
F7
330
1F
100
AcDbEntity
  8
SLD-0
  6
HIDDEN
 62
   179
100
AcDbLine
 10
92.9914230324
 20
183.8094245591
 30
0.0
 11
93.1669847882
 21
183.7859566272
 31
0.0
  0
LINE
  5
F8
330
1F
100
AcDbEntity
  8
SLD-0
  6
HIDDEN
 62
   179
100
AcDbLine
 10
93.1669847882
 20
183.7859566272
 30
0.0
 11
93.3397805161
 21
183.7470480656
 31
0.0
  0
LINE
  5
F9
330
1F
100
AcDbEntity
  8
SLD-0
  6
HIDDEN
 62
   179
100
AcDbLine
 10
93.3397805161
 20
183.7470480656
 30
0.0
 11
93.5084579355
 21
183.6930037658
 31
0.0
  0
LINE
  5
FA
330
1F
100
AcDbEntity
  8
SLD-0
  6
HIDDEN
 62
   179
100
AcDbLine
 10
93.5084579355
 20
179.9415318943
 30
0.0
 11
93.3397805161
 21
179.8874875945
 31
0.0
  0
LINE
  5
FB
330
1F
100
AcDbEntity
  8
SLD-0
  6
HIDDEN
 62
   179
100
AcDbLine
 10
93.3397805161
 20
179.8874875945
 30
0.0
 11
93.1669847882
 21
179.8485790328
 31
0.0
  0
LINE
  5
FC
330
1F
100
AcDbEntity
  8
SLD-0
  6
HIDDEN
 62
   179
100
AcDbLine
 10
93.1669847882
 20
179.8485790328
 30
0.0
 11
92.9914230324
 21
179.8251111009
 31
0.0
  0
LINE
  5
FD
330
1F
100
AcDbEntity
  8
SLD-0
  6
HIDDEN
 62
   179
100
AcDbLine
 10
92.9914230324
 20
179.8251111009
 30
0.0
 11
92.8144736058
 21
179.817267735
 31
0.0
  0
LINE
  5
FE
330
1F
100
AcDbEntity
  8
SLD-0
  6
HIDDEN
 62
   179
100
AcDbLine
 10
92.8144736058
 20
179.817267735
 30
0.0
 11
92.6375241793
 21
179.8251111009
 31
0.0
  0
LINE
  5
FF
330
1F
100
AcDbEntity
  8
SLD-0
  6
HIDDEN
 62
   179
100
AcDbLine
 10
92.6375241793
 20
179.8251111009
 30
0.0
 11
92.4619624234
 21
179.8485790328
 31
0.0
  0
LINE
  5
100
330
1F
100
AcDbEntity
  8
SLD-0
  6
HIDDEN
 62
   179
100
AcDbLine
 10
92.4619624234
 20
179.8485790328
 30
0.0
 11
92.2891648329
 21
179.8874875945
 31
0.0
  0
LINE
  5
101
330
1F
100
AcDbEntity
  8
SLD-0
  6
HIDDEN
 62
   179
100
AcDbLine
 10
92.2891648329
 20
179.8874875945
 30
0.0
 11
92.1204874135
 21
179.9415318943
 31
0.0
  0
LINE
  5
102
330
1F
100
AcDbEntity
  8
SLD-0
  6
HIDDEN
 62
   179
100
AcDbLine
 10
91.3068746991
 20
183.1314773713
 30
0.0
 11
91.5352331317
 21
183.3545695241
 31
0.0
  0
LINE
  5
103
330
1F
100
AcDbEntity
  8
SLD-0
  6
HIDDEN
 62
   179
100
AcDbLine
 10
91.5352331317
 20
183.3545695241
 30
0.0
 11
91.7233323521
 21
183.4863527161
 31
0.0
  0
LINE
  5
104
330
1F
100
AcDbEntity
  8
SLD-0
  6
HIDDEN
 62
   179
100
AcDbLine
 10
92.0930692769
 20
183.679526364
 30
0.0
 11
92.1507945127
 21
183.6989965937
 31
0.0
  0
LINE
  5
105
330
1F
100
AcDbEntity
  8
SLD-0
  6
HIDDEN
 62
   179
100
AcDbLine
 10
93.3693686343
 20
183.7384194783
 30
0.0
 11
93.5987179942
 21
183.6421005843
 31
0.0
  0
LINE
  5
106
330
1F
100
AcDbEntity
  8
SLD-0
  6
HIDDEN
 62
   179
100
AcDbLine
 10
94.0679220325
 20
183.373563848
 30
0.0
 11
94.3220706499
 21
183.1314773713
 31
0.0
  0
LINE
  5
107
330
1F
100
AcDbEntity
  8
SLD-0
  6
HIDDEN
 62
   179
100
AcDbLine
 10
94.3220706499
 20
180.5030582887
 30
0.0
 11
94.0937140799
 21
180.279966136
 31
0.0
  0
LINE
  5
108
330
1F
100
AcDbEntity
  8
SLD-0
  6
HIDDEN
 62
   179
100
AcDbLine
 10
94.0937140799
 20
180.279966136
 30
0.0
 11
93.9056148595
 21
180.148182944
 31
0.0
  0
LINE
  5
109
330
1F
100
AcDbEntity
  8
SLD-0
  6
HIDDEN
 62
   179
100
AcDbLine
 10
93.5358760721
 20
179.9550092961
 30
0.0
 11
93.4781526989
 21
179.9355390664
 31
0.0
  0
LINE
  5
10A
330
1F
100
AcDbEntity
  8
SLD-0
  6
HIDDEN
 62
   179
100
AcDbLine
 10
92.2595767147
 20
179.8961161818
 30
0.0
 11
92.0302273548
 21
179.9924350758
 31
0.0
  0
LINE
  5
10B
330
1F
100
AcDbEntity
  8
SLD-0
  6
HIDDEN
 62
   179
100
AcDbLine
 10
91.5610233165
 20
180.2609718121
 30
0.0
 11
91.3068746991
 21
180.5030582887
 31
0.0
  0
LINE
  5
10C
330
1F
100
AcDbEntity
  8
SLD-0
 62
   179
100
AcDbLine
 10
132.4672328151
 20
183.6930037658
 30
0.0
 11
132.1895385004
 21
183.9051358816
 31
0.0
  0
LINE
  5
10D
330
1F
100
AcDbEntity
  8
SLD-0
 62
   179
100
AcDbLine
 10
132.1895385004
 20
183.9051358816
 30
0.0
 11
132.1709381259
 21
183.9172677552
 31
0.0
  0
LINE
  5
10E
330
1F
100
AcDbEntity
  8
SLD-0
 62
   179
100
AcDbLine
 10
132.4672328151
 20
179.9415318943
 30
0.0
 11
132.7358336962
 21
180.2177770711
 31
0.0
  0
LINE
  5
10F
330
1F
100
AcDbEntity
  8
SLD-0
 62
   179
100
AcDbLine
 10
132.7358336962
 20
180.2177770711
 30
0.0
 11
132.9587979085
 21
180.5320154359
 31
0.0
  0
LINE
  5
110
330
1F
100
AcDbEntity
  8
SLD-0
 62
   179
100
AcDbLine
 10
132.9587979085
 20
180.5320154359
 30
0.0
 11
133.1308243639
 21
180.8767827875
 31
0.0
  0
LINE
  5
111
330
1F
100
AcDbEntity
  8
SLD-0
 62
   179
100
AcDbLine
 10
133.1308243639
 20
180.8767827875
 30
0.0
 11
133.2478320069
 21
181.243889832
 31
0.0
  0
LINE
  5
112
330
1F
100
AcDbEntity
  8
SLD-0
 62
   179
100
AcDbLine
 10
133.2478320069
 20
181.243889832
 30
0.0
 11
133.3070399082
 21
181.624616465
 31
0.0
  0
LINE
  5
113
330
1F
100
AcDbEntity
  8
SLD-0
 62
   179
100
AcDbLine
 10
133.3070399082
 20
181.624616465
 30
0.0
 11
133.3070399082
 21
182.0099191951
 31
0.0
  0
LINE
  5
114
330
1F
100
AcDbEntity
  8
SLD-0
 62
   179
100
AcDbLine
 10
133.3070399082
 20
182.0099191951
 30
0.0
 11
133.2478320069
 21
182.3906458281
 31
0.0
  0
LINE
  5
115
330
1F
100
AcDbEntity
  8
SLD-0
 62
   179
100
AcDbLine
 10
133.2478320069
 20
182.3906458281
 30
0.0
 11
133.1308243639
 21
182.7577528726
 31
0.0
  0
LINE
  5
116
330
1F
100
AcDbEntity
  8
SLD-0
 62
   179
100
AcDbLine
 10
133.1308243639
 20
182.7577528726
 30
0.0
 11
132.9587979085
 21
183.1025202242
 31
0.0
  0
LINE
  5
117
330
1F
100
AcDbEntity
  8
SLD-0
 62
   179
100
AcDbLine
 10
132.9587979085
 20
183.1025202242
 30
0.0
 11
132.7358336962
 21
183.416758589
 31
0.0
  0
LINE
  5
118
330
1F
100
AcDbEntity
  8
SLD-0
 62
   179
100
AcDbLine
 10
132.7358336962
 20
183.416758589
 30
0.0
 11
132.4672328151
 21
183.6930037658
 31
0.0
  0
LINE
  5
119
330
1F
100
AcDbEntity
  8
SLD-0
 62
   179
100
AcDbLine
 10
132.1895385004
 20
179.7293997784
 30
0.0
 11
132.4672328151
 21
179.9415318943
 31
0.0
  0
LINE
  5
11A
330
1F
100
AcDbEntity
  8
SLD-0
 62
   179
100
AcDbLine
 10
132.1709381259
 20
179.7172679049
 30
0.0
 11
132.1895385004
 21
179.7293997784
 31
0.0
  0
LINE
  5
11B
330
1F
100
AcDbEntity
  8
SLD-0
 62
   179
100
AcDbLine
 10
129.4580066419
 20
183.9172677552
 30
0.0
 11
129.4394062675
 21
183.9051358816
 31
0.0
  0
LINE
  5
11C
330
1F
100
AcDbEntity
  8
SLD-0
 62
   179
100
AcDbLine
 10
129.4394062675
 20
183.9051358816
 30
0.0
 11
129.1617138154
 21
183.6930037658
 31
0.0
  0
LINE
  5
11D
330
1F
100
AcDbEntity
  8
SLD-0
 62
   179
100
AcDbLine
 10
129.1617138154
 20
183.6930037658
 30
0.0
 11
128.8931110717
 21
183.416758589
 31
0.0
  0
LINE
  5
11E
330
1F
100
AcDbEntity
  8
SLD-0
 62
   179
100
AcDbLine
 10
128.8931110717
 20
183.416758589
 30
0.0
 11
128.670148722
 21
183.1025202242
 31
0.0
  0
LINE
  5
11F
330
1F
100
AcDbEntity
  8
SLD-0
 62
   179
100
AcDbLine
 10
128.670148722
 20
183.1025202242
 30
0.0
 11
128.498120404
 21
182.7577528726
 31
0.0
  0
LINE
  5
120
330
1F
100
AcDbEntity
  8
SLD-0
 62
   179
100
AcDbLine
 10
128.498120404
 20
182.7577528726
 30
0.0
 11
128.381112761
 21
182.3906458281
 31
0.0
  0
LINE
  5
121
330
1F
100
AcDbEntity
  8
SLD-0
 62
   179
100
AcDbLine
 10
128.381112761
 20
182.3906458281
 30
0.0
 11
128.3219067223
 21
182.0099191951
 31
0.0
  0
LINE
  5
122
330
1F
100
AcDbEntity
  8
SLD-0
 62
   179
100
AcDbLine
 10
128.3219067223
 20
182.0099191951
 30
0.0
 11
128.3219067223
 21
181.624616465
 31
0.0
  0
LINE
  5
123
330
1F
100
AcDbEntity
  8
SLD-0
 62
   179
100
AcDbLine
 10
128.3219067223
 20
181.624616465
 30
0.0
 11
128.381112761
 21
181.243889832
 31
0.0
  0
LINE
  5
124
330
1F
100
AcDbEntity
  8
SLD-0
 62
   179
100
AcDbLine
 10
128.381112761
 20
181.243889832
 30
0.0
 11
128.498120404
 21
180.8767827875
 31
0.0
  0
LINE
  5
125
330
1F
100
AcDbEntity
  8
SLD-0
 62
   179
100
AcDbLine
 10
128.498120404
 20
180.8767827875
 30
0.0
 11
128.670148722
 21
180.5320154359
 31
0.0
  0
LINE
  5
126
330
1F
100
AcDbEntity
  8
SLD-0
 62
   179
100
AcDbLine
 10
128.670148722
 20
180.5320154359
 30
0.0
 11
128.8931110717
 21
180.2177770711
 31
0.0
  0
LINE
  5
127
330
1F
100
AcDbEntity
  8
SLD-0
 62
   179
100
AcDbLine
 10
128.8931110717
 20
180.2177770711
 30
0.0
 11
129.1617138154
 21
179.9415318943
 31
0.0
  0
LINE
  5
128
330
1F
100
AcDbEntity
  8
SLD-0
 62
   179
100
AcDbLine
 10
129.1617138154
 20
179.9415318943
 30
0.0
 11
129.4394062675
 21
179.7293997784
 31
0.0
  0
LINE
  5
129
330
1F
100
AcDbEntity
  8
SLD-0
 62
   179
100
AcDbLine
 10
129.4394062675
 20
179.7293997784
 30
0.0
 11
129.4580066419
 21
179.7172679049
 31
0.0
  0
LINE
  5
12A
330
1F
100
AcDbEntity
  8
SLD-0
  6
HIDDEN
 62
   179
100
AcDbLine
 10
129.4580066419
 20
183.9172677552
 30
0.0
 11
129.7719890095
 21
184.0895417095
 31
0.0
  0
LINE
  5
12B
330
1F
100
AcDbEntity
  8
SLD-0
  6
HIDDEN
 62
   179
100
AcDbLine
 10
129.7719890095
 20
184.0895417095
 30
0.0
 11
130.1073657191
 21
184.2151836441
 31
0.0
  0
LINE
  5
12C
330
1F
100
AcDbEntity
  8
SLD-0
  6
HIDDEN
 62
   179
100
AcDbLine
 10
130.1073657191
 20
184.2151836441
 30
0.0
 11
130.4572542972
 21
184.2916151923
 31
0.0
  0
LINE
  5
12D
330
1F
100
AcDbEntity
  8
SLD-0
  6
HIDDEN
 62
   179
100
AcDbLine
 10
130.4572542972
 20
184.2916151923
 30
0.0
 11
130.8144723839
 21
184.3172677742
 31
0.0
  0
LINE
  5
12E
330
1F
100
AcDbEntity
  8
SLD-0
  6
HIDDEN
 62
   179
100
AcDbLine
 10
130.8144723839
 20
184.3172677742
 30
0.0
 11
131.1716923333
 21
184.2916151923
 31
0.0
  0
LINE
  5
12F
330
1F
100
AcDbEntity
  8
SLD-0
  6
HIDDEN
 62
   179
100
AcDbLine
 10
131.1716923333
 20
184.2916151923
 30
0.0
 11
131.5215790487
 21
184.2151836441
 31
0.0
  0
LINE
  5
130
330
1F
100
AcDbEntity
  8
SLD-0
  6
HIDDEN
 62
   179
100
AcDbLine
 10
131.5215790487
 20
184.2151836441
 30
0.0
 11
131.8569557584
 21
184.0895417095
 31
0.0
  0
LINE
  5
131
330
1F
100
AcDbEntity
  8
SLD-0
  6
HIDDEN
 62
   179
100
AcDbLine
 10
131.8569557584
 20
184.0895417095
 30
0.0
 11
132.1709381259
 21
183.9172677552
 31
0.0
  0
LINE
  5
132
330
1F
100
AcDbEntity
  8
SLD-0
  6
HIDDEN
 62
   179
100
AcDbLine
 10
132.1709381259
 20
179.7172679049
 30
0.0
 11
131.8569557584
 21
179.5449939505
 31
0.0
  0
LINE
  5
133
330
1F
100
AcDbEntity
  8
SLD-0
  6
HIDDEN
 62
   179
100
AcDbLine
 10
131.8569557584
 20
179.5449939505
 30
0.0
 11
131.5215790487
 21
179.419352016
 31
0.0
  0
LINE
  5
134
330
1F
100
AcDbEntity
  8
SLD-0
  6
HIDDEN
 62
   179
100
AcDbLine
 10
131.5215790487
 20
179.419352016
 30
0.0
 11
131.1716923333
 21
179.3429204677
 31
0.0
  0
LINE
  5
135
330
1F
100
AcDbEntity
  8
SLD-0
  6
HIDDEN
 62
   179
100
AcDbLine
 10
131.1716923333
 20
179.3429204677
 30
0.0
 11
130.8144723839
 21
179.3172678859
 31
0.0
  0
LINE
  5
136
330
1F
100
AcDbEntity
  8
SLD-0
  6
HIDDEN
 62
   179
100
AcDbLine
 10
130.8144723839
 20
179.3172678859
 30
0.0
 11
130.4572542972
 21
179.3429204677
 31
0.0
  0
LINE
  5
137
330
1F
100
AcDbEntity
  8
SLD-0
  6
HIDDEN
 62
   179
100
AcDbLine
 10
130.4572542972
 20
179.3429204677
 30
0.0
 11
130.1073657191
 21
179.419352016
 31
0.0
  0
LINE
  5
138
330
1F
100
AcDbEntity
  8
SLD-0
  6
HIDDEN
 62
   179
100
AcDbLine
 10
130.1073657191
 20
179.419352016
 30
0.0
 11
129.7719890095
 21
179.5449939505
 31
0.0
  0
LINE
  5
139
330
1F
100
AcDbEntity
  8
SLD-0
  6
HIDDEN
 62
   179
100
AcDbLine
 10
129.7719890095
 20
179.5449939505
 30
0.0
 11
129.4580066419
 21
179.7172679049
 31
0.0
  0
LINE
  5
13A
330
1F
100
AcDbEntity
  8
SLD-0
  6
HIDDEN
 62
   179
100
AcDbLine
 10
129.1054731078
 20
183.627066826
 30
0.0
 11
129.4194647885
 21
183.891864535
 31
0.0
  0
LINE
  5
13B
330
1F
100
AcDbEntity
  8
SLD-0
  6
HIDDEN
 62
   179
100
AcDbLine
 10
129.4194647885
 20
183.891864535
 30
0.0
 11
129.483506254
 21
183.9289996256
 31
0.0
  0
LINE
  5
13C
330
1F
100
AcDbEntity
  8
SLD-0
  6
HIDDEN
 62
   179
100
AcDbLine
 10
132.1382542915
 20
183.9354092204
 30
0.0
 11
132.3819795466
 21
183.7612706418
 31
0.0
  0
LINE
  5
13D
330
1F
100
AcDbEntity
  8
SLD-0
  6
HIDDEN
 62
   179
100
AcDbLine
 10
132.4317158974
 20
183.7214441453
 30
0.0
 11
132.5038393802
 21
183.6505441875
 31
0.0
  0
LINE
  5
13E
330
1F
100
AcDbEntity
  8
SLD-0
  6
HIDDEN
 62
   179
100
AcDbLine
 10
132.9206956393
 20
183.1593908551
 30
0.0
 11
132.9411735601
 21
183.1314773713
 31
0.0
  0
LINE
  5
13F
330
1F
100
AcDbEntity
  8
SLD-0
  6
HIDDEN
 62
   179
100
AcDbLine
 10
132.5234735227
 20
180.0074688341
 30
0.0
 11
132.209481842
 21
179.7426711251
 31
0.0
  0
LINE
  5
140
330
1F
100
AcDbEntity
  8
SLD-0
  6
HIDDEN
 62
   179
100
AcDbLine
 10
132.209481842
 20
179.7426711251
 30
0.0
 11
132.1454403765
 21
179.7055360344
 31
0.0
  0
LINE
  5
141
330
1F
100
AcDbEntity
  8
SLD-0
  6
HIDDEN
 62
   179
100
AcDbLine
 10
129.4906904764
 20
179.6991264397
 30
0.0
 11
129.2469670839
 21
179.8732650182
 31
0.0
  0
LINE
  5
142
330
1F
100
AcDbEntity
  8
SLD-0
  6
HIDDEN
 62
   179
100
AcDbLine
 10
129.1972307331
 20
179.9130915147
 30
0.0
 11
129.1251053876
 21
179.9839914725
 31
0.0
  0
LINE
  5
143
330
1F
100
AcDbEntity
  8
SLD-0
  6
HIDDEN
 62
   179
100
AcDbLine
 10
128.7082509912
 20
180.4751448049
 30
0.0
 11
128.6877730704
 21
180.5030582887
 31
0.0
  0
LINE
  5
144
330
1F
100
AcDbEntity
  8
SLD-0
 62
   179
100
AcDbLine
 10
101.1617129511
 20
183.6930037658
 30
0.0
 11
100.89311207
 21
183.416758589
 31
0.0
  0
LINE
  5
145
330
1F
100
AcDbEntity
  8
SLD-0
 62
   179
100
AcDbLine
 10
100.89311207
 20
183.416758589
 30
0.0
 11
100.6701487891
 21
183.1025202242
 31
0.0
  0
LINE
  5
146
330
1F
100
AcDbEntity
  8
SLD-0
 62
   179
100
AcDbLine
 10
100.6701487891
 20
183.1025202242
 30
0.0
 11
100.498120471
 21
182.7577528726
 31
0.0
  0
LINE
  5
147
330
1F
100
AcDbEntity
  8
SLD-0
 62
   179
100
AcDbLine
 10
100.498120471
 20
182.7577528726
 30
0.0
 11
100.3811137593
 21
182.3906458281
 31
0.0
  0
LINE
  5
148
330
1F
100
AcDbEntity
  8
SLD-0
 62
   179
100
AcDbLine
 10
100.3811137593
 20
182.3906458281
 30
0.0
 11
100.3219067893
 21
182.0099191951
 31
0.0
  0
LINE
  5
149
330
1F
100
AcDbEntity
  8
SLD-0
 62
   179
100
AcDbLine
 10
100.3219067893
 20
182.0099191951
 30
0.0
 11
100.3219067893
 21
181.624616465
 31
0.0
  0
LINE
  5
14A
330
1F
100
AcDbEntity
  8
SLD-0
 62
   179
100
AcDbLine
 10
100.3219067893
 20
181.624616465
 30
0.0
 11
100.3811137593
 21
181.243889832
 31
0.0
  0
LINE
  5
14B
330
1F
100
AcDbEntity
  8
SLD-0
 62
   179
100
AcDbLine
 10
100.3811137593
 20
181.243889832
 30
0.0
 11
100.498120471
 21
180.8767827875
 31
0.0
  0
LINE
  5
14C
330
1F
100
AcDbEntity
  8
SLD-0
 62
   179
100
AcDbLine
 10
100.498120471
 20
180.8767827875
 30
0.0
 11
100.6701487891
 21
180.5320154359
 31
0.0
  0
LINE
  5
14D
330
1F
100
AcDbEntity
  8
SLD-0
 62
   179
100
AcDbLine
 10
100.6701487891
 20
180.5320154359
 30
0.0
 11
100.89311207
 21
180.2177770711
 31
0.0
  0
LINE
  5
14E
330
1F
100
AcDbEntity
  8
SLD-0
 62
   179
100
AcDbLine
 10
100.89311207
 20
180.2177770711
 30
0.0
 11
101.1617129511
 21
179.9415318943
 31
0.0
  0
LINE
  5
14F
330
1F
100
AcDbEntity
  8
SLD-0
 62
   179
100
AcDbLine
 10
101.1617129511
 20
179.9415318943
 30
0.0
 11
101.4394063345
 21
179.7293997784
 31
0.0
  0
LINE
  5
150
330
1F
100
AcDbEntity
  8
SLD-0
 62
   179
100
AcDbLine
 10
101.4394063345
 20
183.9051358816
 30
0.0
 11
101.1617129511
 21
183.6930037658
 31
0.0
  0
LINE
  5
151
330
1F
100
AcDbEntity
  8
SLD-0
 62
   179
100
AcDbLine
 10
101.458006709
 20
183.9172677552
 30
0.0
 11
101.4394063345
 21
183.9051358816
 31
0.0
  0
LINE
  5
152
330
1F
100
AcDbEntity
  8
SLD-0
 62
   179
100
AcDbLine
 10
101.4394063345
 20
179.7293997784
 30
0.0
 11
101.458006709
 21
179.7172679049
 31
0.0
  0
LINE
  5
153
330
1F
100
AcDbEntity
  8
SLD-0
 62
   179
100
AcDbLine
 10
104.1895394988
 20
183.9051358816
 30
0.0
 11
104.1709391243
 21
183.9172677552
 31
0.0
  0
LINE
  5
154
330
1F
100
AcDbEntity
  8
SLD-0
 62
   179
100
AcDbLine
 10
104.4672328822
 20
183.6930037658
 30
0.0
 11
104.1895394988
 21
183.9051358816
 31
0.0
  0
LINE
  5
155
330
1F
100
AcDbEntity
  8
SLD-0
 62
   179
100
AcDbLine
 10
104.4672328822
 20
179.9415318943
 30
0.0
 11
104.7358342289
 21
180.2177770711
 31
0.0
  0
LINE
  5
156
330
1F
100
AcDbEntity
  8
SLD-0
 62
   179
100
AcDbLine
 10
104.7358342289
 20
180.2177770711
 30
0.0
 11
104.9587970442
 21
180.5320154359
 31
0.0
  0
LINE
  5
157
330
1F
100
AcDbEntity
  8
SLD-0
 62
   179
100
AcDbLine
 10
104.9587970442
 20
180.5320154359
 30
0.0
 11
105.1308253623
 21
180.8767827875
 31
0.0
  0
LINE
  5
158
330
1F
100
AcDbEntity
  8
SLD-0
 62
   179
100
AcDbLine
 10
105.1308253623
 20
180.8767827875
 30
0.0
 11
105.2478325396
 21
181.243889832
 31
0.0
  0
LINE
  5
159
330
1F
100
AcDbEntity
  8
SLD-0
 62
   179
100
AcDbLine
 10
105.2478325396
 20
181.243889832
 30
0.0
 11
105.307039044
 21
181.624616465
 31
0.0
  0
LINE
  5
15A
330
1F
100
AcDbEntity
  8
SLD-0
 62
   179
100
AcDbLine
 10
105.307039044
 20
181.624616465
 30
0.0
 11
105.307039044
 21
182.0099191951
 31
0.0
  0
LINE
  5
15B
330
1F
100
AcDbEntity
  8
SLD-0
 62
   179
100
AcDbLine
 10
105.307039044
 20
182.0099191951
 30
0.0
 11
105.2478325396
 21
182.3906458281
 31
0.0
  0
LINE
  5
15C
330
1F
100
AcDbEntity
  8
SLD-0
 62
   179
100
AcDbLine
 10
105.2478325396
 20
182.3906458281
 30
0.0
 11
105.1308253623
 21
182.7577528726
 31
0.0
  0
LINE
  5
15D
330
1F
100
AcDbEntity
  8
SLD-0
 62
   179
100
AcDbLine
 10
105.1308253623
 20
182.7577528726
 30
0.0
 11
104.9587970442
 21
183.1025202242
 31
0.0
  0
LINE
  5
15E
330
1F
100
AcDbEntity
  8
SLD-0
 62
   179
100
AcDbLine
 10
104.9587970442
 20
183.1025202242
 30
0.0
 11
104.7358342289
 21
183.416758589
 31
0.0
  0
LINE
  5
15F
330
1F
100
AcDbEntity
  8
SLD-0
 62
   179
100
AcDbLine
 10
104.7358342289
 20
183.416758589
 30
0.0
 11
104.4672328822
 21
183.6930037658
 31
0.0
  0
LINE
  5
160
330
1F
100
AcDbEntity
  8
SLD-0
 62
   179
100
AcDbLine
 10
104.1895394988
 20
179.7293997784
 30
0.0
 11
104.4672328822
 21
179.9415318943
 31
0.0
  0
LINE
  5
161
330
1F
100
AcDbEntity
  8
SLD-0
 62
   179
100
AcDbLine
 10
104.1709391243
 20
179.7172679049
 30
0.0
 11
104.1895394988
 21
179.7293997784
 31
0.0
  0
LINE
  5
162
330
1F
100
AcDbEntity
  8
SLD-0
  6
HIDDEN
 62
   179
100
AcDbLine
 10
101.458006709
 20
183.9172677552
 30
0.0
 11
101.7719900078
 21
184.0895417095
 31
0.0
  0
LINE
  5
163
330
1F
100
AcDbEntity
  8
SLD-0
  6
HIDDEN
 62
   179
100
AcDbLine
 10
101.7719900078
 20
184.0895417095
 30
0.0
 11
102.1073657862
 21
184.2151836441
 31
0.0
  0
LINE
  5
164
330
1F
100
AcDbEntity
  8
SLD-0
  6
HIDDEN
 62
   179
100
AcDbLine
 10
102.1073657862
 20
184.2151836441
 30
0.0
 11
102.4572543643
 21
184.2916151923
 31
0.0
  0
LINE
  5
165
330
1F
100
AcDbEntity
  8
SLD-0
  6
HIDDEN
 62
   179
100
AcDbLine
 10
102.4572543643
 20
184.2916151923
 30
0.0
 11
102.8144733823
 21
184.3172677742
 31
0.0
  0
LINE
  5
166
330
1F
100
AcDbEntity
  8
SLD-0
  6
HIDDEN
 62
   179
100
AcDbLine
 10
102.8144733823
 20
184.3172677742
 30
0.0
 11
103.171691469
 21
184.2916151923
 31
0.0
  0
LINE
  5
167
330
1F
100
AcDbEntity
  8
SLD-0
  6
HIDDEN
 62
   179
100
AcDbLine
 10
103.171691469
 20
184.2916151923
 30
0.0
 11
103.5215800471
 21
184.2151836441
 31
0.0
  0
LINE
  5
168
330
1F
100
AcDbEntity
  8
SLD-0
  6
HIDDEN
 62
   179
100
AcDbLine
 10
103.5215800471
 20
184.2151836441
 30
0.0
 11
103.8569567568
 21
184.0895417095
 31
0.0
  0
LINE
  5
169
330
1F
100
AcDbEntity
  8
SLD-0
  6
HIDDEN
 62
   179
100
AcDbLine
 10
103.8569567568
 20
184.0895417095
 30
0.0
 11
104.1709391243
 21
183.9172677552
 31
0.0
  0
LINE
  5
16A
330
1F
100
AcDbEntity
  8
SLD-0
  6
HIDDEN
 62
   179
100
AcDbLine
 10
104.1709391243
 20
179.7172679049
 30
0.0
 11
103.8569567568
 21
179.5449939505
 31
0.0
  0
LINE
  5
16B
330
1F
100
AcDbEntity
  8
SLD-0
  6
HIDDEN
 62
   179
100
AcDbLine
 10
103.8569567568
 20
179.5449939505
 30
0.0
 11
103.5215800471
 21
179.419352016
 31
0.0
  0
LINE
  5
16C
330
1F
100
AcDbEntity
  8
SLD-0
  6
HIDDEN
 62
   179
100
AcDbLine
 10
103.5215800471
 20
179.419352016
 30
0.0
 11
103.171691469
 21
179.3429204677
 31
0.0
  0
LINE
  5
16D
330
1F
100
AcDbEntity
  8
SLD-0
  6
HIDDEN
 62
   179
100
AcDbLine
 10
103.171691469
 20
179.3429204677
 30
0.0
 11
102.8144733823
 21
179.3172678859
 31
0.0
  0
LINE
  5
16E
330
1F
100
AcDbEntity
  8
SLD-0
  6
HIDDEN
 62
   179
100
AcDbLine
 10
102.8144733823
 20
179.3172678859
 30
0.0
 11
102.4572543643
 21
179.3429204677
 31
0.0
  0
LINE
  5
16F
330
1F
100
AcDbEntity
  8
SLD-0
  6
HIDDEN
 62
   179
100
AcDbLine
 10
102.4572543643
 20
179.3429204677
 30
0.0
 11
102.1073657862
 21
179.419352016
 31
0.0
  0
LINE
  5
170
330
1F
100
AcDbEntity
  8
SLD-0
  6
HIDDEN
 62
   179
100
AcDbLine
 10
102.1073657862
 20
179.419352016
 30
0.0
 11
101.7719900078
 21
179.5449939505
 31
0.0
  0
LINE
  5
171
330
1F
100
AcDbEntity
  8
SLD-0
  6
HIDDEN
 62
   179
100
AcDbLine
 10
101.7719900078
 20
179.5449939505
 30
0.0
 11
101.458006709
 21
179.7172679049
 31
0.0
  0
LINE
  5
172
330
1F
100
AcDbEntity
  8
SLD-0
  6
HIDDEN
 62
   179
100
AcDbLine
 10
101.1054722435
 20
183.627066826
 30
0.0
 11
101.4194648556
 21
183.891864535
 31
0.0
  0
LINE
  5
173
330
1F
100
AcDbEntity
  8
SLD-0
  6
HIDDEN
 62
   179
100
AcDbLine
 10
101.4194648556
 20
183.891864535
 30
0.0
 11
101.4835063211
 21
183.9289996256
 31
0.0
  0
LINE
  5
174
330
1F
100
AcDbEntity
  8
SLD-0
  6
HIDDEN
 62
   179
100
AcDbLine
 10
104.1382548242
 20
183.9354092204
 30
0.0
 11
104.3819796137
 21
183.7612706418
 31
0.0
  0
LINE
  5
175
330
1F
100
AcDbEntity
  8
SLD-0
  6
HIDDEN
 62
   179
100
AcDbLine
 10
104.4317159644
 20
183.7214441453
 30
0.0
 11
104.5038399129
 21
183.6505441875
 31
0.0
  0
LINE
  5
176
330
1F
100
AcDbEntity
  8
SLD-0
  6
HIDDEN
 62
   179
100
AcDbLine
 10
104.9206952407
 20
183.1593908551
 30
0.0
 11
104.9411731615
 21
183.1314773713
 31
0.0
  0
LINE
  5
177
330
1F
100
AcDbEntity
  8
SLD-0
  6
HIDDEN
 62
   179
100
AcDbLine
 10
104.5234735898
 20
180.0074688341
 30
0.0
 11
104.2094814434
 21
179.7426711251
 31
0.0
  0
LINE
  5
178
330
1F
100
AcDbEntity
  8
SLD-0
  6
HIDDEN
 62
   179
100
AcDbLine
 10
104.2094814434
 20
179.7426711251
 30
0.0
 11
104.1454395122
 21
179.7055360344
 31
0.0
  0
LINE
  5
179
330
1F
100
AcDbEntity
  8
SLD-0
  6
HIDDEN
 62
   179
100
AcDbLine
 10
101.4906905434
 20
179.6991264397
 30
0.0
 11
101.2469662196
 21
179.8732650182
 31
0.0
  0
LINE
  5
17A
330
1F
100
AcDbEntity
  8
SLD-0
  6
HIDDEN
 62
   179
100
AcDbLine
 10
101.1972298688
 20
179.9130915147
 30
0.0
 11
101.125106386
 21
179.9839914725
 31
0.0
  0
LINE
  5
17B
330
1F
100
AcDbEntity
  8
SLD-0
  6
HIDDEN
 62
   179
100
AcDbLine
 10
100.7082510582
 20
180.4751448049
 30
0.0
 11
100.6877731375
 21
180.5030582887
 31
0.0
  0
LINE
  5
17C
330
1F
100
AcDbEntity
  8
SLD-0
  6
Continuous
 62
   179
100
AcDbLine
 10
87.3144729949
 20
136.7702359498
 30
0.0
 11
91.1644736148
 21
136.7702358537
 31
0.0
  0
LINE
  5
17D
330
1F
100
AcDbEntity
  8
SLD-0
  6
Continuous
 62
   179
100
AcDbLine
 10
104.9144730746
 20
136.7702358537
 30
0.0
 11
123.164473272
 21
136.7702358537
 31
0.0
  0
LINE
  5
17E
330
1F
100
AcDbEntity
  8
SLD-0
  6
Continuous
 62
   179
100
AcDbLine
 10
126.4644732542
 20
136.7702358537
 30
0.0
 11
128.714472226
 21
136.7702358537
 31
0.0
  0
LINE
  5
17F
330
1F
100
AcDbEntity
  8
SLD-0
  6
Continuous
 62
   179
100
AcDbLine
 10
94.4644735969
 20
136.7702358537
 30
0.0
 11
100.7144732244
 21
136.7702358537
 31
0.0
  0
LINE
  5
180
330
1F
100
AcDbEntity
  8
SLD-0
  6
Continuous
 62
   179
100
AcDbLine
 10
132.9144725419
 20
136.7702358537
 30
0.0
 11
136.3144729949
 21
136.7702359498
 31
0.0
  0
LINE
  5
181
330
1F
100
AcDbEntity
  8
SLD-0
  6
Continuous
 62
   179
100
AcDbLine
 10
136.3144729949
 20
143.1702359498
 30
0.0
 11
87.3144729949
 21
143.1702359498
 31
0.0
  0
LINE
  5
182
330
1F
100
AcDbEntity
  8
SLD-0
  6
Continuous
 62
   179
100
AcDbLine
 10
136.3144729949
 20
143.1702359498
 30
0.0
 11
136.3144729949
 21
142.4556169264
 31
0.0
  0
LINE
  5
183
330
1F
100
AcDbEntity
  8
SLD-0
  6
Continuous
 62
   179
100
AcDbLine
 10
87.3144729949
 20
143.1702359498
 30
0.0
 11
87.3144729949
 21
142.4556169264
 31
0.0
  0
LINE
  5
184
330
1F
100
AcDbEntity
  8
SLD-0
  6
Continuous
 62
   179
100
AcDbLine
 10
87.3144729949
 20
142.4556169264
 30
0.0
 11
87.3144729949
 21
137.2626374178
 31
0.0
  0
LINE
  5
185
330
1F
100
AcDbEntity
  8
SLD-0
  6
Continuous
 62
   179
100
AcDbLine
 10
136.3144729949
 20
142.4556169264
 30
0.0
 11
136.3144729949
 21
137.2626374178
 31
0.0
  0
LINE
  5
186
330
1F
100
AcDbEntity
  8
SLD-0
  6
Continuous
 62
   179
100
AcDbLine
 10
87.3144729949
 20
137.2626374178
 30
0.0
 11
87.3144729949
 21
136.7702359498
 31
0.0
  0
LINE
  5
187
330
1F
100
AcDbEntity
  8
SLD-0
  6
Continuous
 62
   179
100
AcDbLine
 10
136.3144729949
 20
137.2626374178
 30
0.0
 11
136.3144729949
 21
136.7702359498
 31
0.0
  0
LINE
  5
188
330
1F
100
AcDbEntity
  8
SLD-0
  6
HIDDEN
 62
     8
100
AcDbLine
 10
136.3144729949
 20
143.1702359498
 30
0.0
 11
87.3144729949
 21
143.1702359498
 31
0.0
  0
LINE
  5
189
330
1F
100
AcDbEntity
  8
SLD-0
  6
HIDDEN
 62
     8
100
AcDbLine
 10
87.3144729949
 20
143.0823679841
 30
0.0
 11
87.3144729949
 21
143.1702359498
 31
0.0
  0
LINE
  5
18A
330
1F
100
AcDbEntity
  8
SLD-0
  6
HIDDEN
 62
     8
100
AcDbLine
 10
136.3144729949
 20
143.0823679841
 30
0.0
 11
136.3144729949
 21
143.1702359498
 31
0.0
  0
LINE
  5
18B
330
1F
100
AcDbEntity
  8
SLD-0
  6
HIDDEN
 62
     8
100
AcDbLine
 10
87.3144729949
 20
142.5581039154
 30
0.0
 11
87.3144729949
 21
143.0823679841
 31
0.0
  0
LINE
  5
18C
330
1F
100
AcDbEntity
  8
SLD-0
  6
HIDDEN
 62
     8
100
AcDbLine
 10
136.3144729949
 20
142.5581039154
 30
0.0
 11
136.3144729949
 21
143.0823679841
 31
0.0
  0
LINE
  5
18D
330
1F
100
AcDbEntity
  8
SLD-0
  6
HIDDEN
 62
     8
100
AcDbLine
 10
101.8702194717
 20
142.4702359498
 30
0.0
 11
87.3144729949
 21
142.4702359498
 31
0.0
  0
LINE
  5
18E
330
1F
100
AcDbEntity
  8
SLD-0
  6
HIDDEN
 62
     8
100
AcDbLine
 10
87.3144729949
 20
142.4702359498
 30
0.0
 11
87.3144729949
 21
142.5581039154
 31
0.0
  0
LINE
  5
18F
330
1F
100
AcDbEntity
  8
SLD-0
  6
HIDDEN
 62
     8
100
AcDbLine
 10
103.7587265181
 20
142.4702359498
 30
0.0
 11
104.9144730746
 21
142.4702359498
 31
0.0
  0
LINE
  5
190
330
1F
100
AcDbEntity
  8
SLD-0
  6
HIDDEN
 62
     8
100
AcDbLine
 10
101.8702194717
 20
142.4702359498
 30
0.0
 11
100.7144732244
 21
142.4702359498
 31
0.0
  0
LINE
  5
191
330
1F
100
AcDbEntity
  8
SLD-0
  6
HIDDEN
 62
     8
100
AcDbLine
 10
129.8702193266
 20
142.4702359498
 30
0.0
 11
103.7587265181
 21
142.4702359498
 31
0.0
  0
LINE
  5
192
330
1F
100
AcDbEntity
  8
SLD-0
  6
HIDDEN
 62
     8
100
AcDbLine
 10
136.3144729949
 20
142.4702359498
 30
0.0
 11
131.7587273039
 21
142.4702359498
 31
0.0
  0
LINE
  5
193
330
1F
100
AcDbEntity
  8
SLD-0
  6
HIDDEN
 62
     8
100
AcDbLine
 10
136.3144729949
 20
142.4702359498
 30
0.0
 11
136.3144729949
 21
142.5581039154
 31
0.0
  0
LINE
  5
194
330
1F
100
AcDbEntity
  8
SLD-0
  6
HIDDEN
 62
     8
100
AcDbLine
 10
129.8702193266
 20
142.4702359498
 30
0.0
 11
128.714472226
 21
142.4702359498
 31
0.0
  0
LINE
  5
195
330
1F
100
AcDbEntity
  8
SLD-0
  6
HIDDEN
 62
     8
100
AcDbLine
 10
131.7587273039
 20
142.4702359498
 30
0.0
 11
132.9144725419
 21
142.4702359498
 31
0.0
  0
LINE
  5
196
330
1F
100
AcDbEntity
  8
SLD-0
  6
HIDDEN
 62
     8
100
AcDbLine
 10
123.1661347515
 20
142.4702359498
 30
0.0
 11
126.4628117747
 21
142.4702359498
 31
0.0
  0
LINE
  5
197
330
1F
100
AcDbEntity
  8
SLD-0
  6
HIDDEN
 62
     8
100
AcDbLine
 10
91.1661350942
 20
142.4702359498
 30
0.0
 11
94.4628121174
 21
142.4702359498
 31
0.0
  0
LINE
  5
198
330
1F
100
AcDbEntity
  8
SLD-0
  6
HIDDEN
 62
     8
100
AcDbLine
 10
87.3144729949
 20
136.7702359498
 30
0.0
 11
87.3144729949
 21
137.2626374178
 31
0.0
  0
LINE
  5
199
330
1F
100
AcDbEntity
  8
SLD-0
  6
HIDDEN
 62
     8
100
AcDbLine
 10
136.3144729949
 20
136.7702359498
 30
0.0
 11
136.3144729949
 21
137.2626374178
 31
0.0
  0
LINE
  5
19A
330
1F
100
AcDbEntity
  8
SLD-0
  6
HIDDEN
 62
     8
100
AcDbLine
 10
87.3144729949
 20
137.2626374178
 30
0.0
 11
87.3144729949
 21
142.4556169264
 31
0.0
  0
LINE
  5
19B
330
1F
100
AcDbEntity
  8
SLD-0
  6
HIDDEN
 62
     8
100
AcDbLine
 10
136.3144729949
 20
137.2626374178
 30
0.0
 11
136.3144729949
 21
142.4556169264
 31
0.0
  0
LINE
  5
19C
330
1F
100
AcDbEntity
  8
SLD-0
  6
HIDDEN
 62
     8
100
AcDbLine
 10
136.3144729949
 20
142.4702359498
 30
0.0
 11
131.7587273039
 21
142.4702359498
 31
0.0
  0
LINE
  5
19D
330
1F
100
AcDbEntity
  8
SLD-0
  6
HIDDEN
 62
     8
100
AcDbLine
 10
136.3144729949
 20
142.5581039154
 30
0.0
 11
136.3144729949
 21
142.4702359498
 31
0.0
  0
LINE
  5
19E
330
1F
100
AcDbEntity
  8
SLD-0
  6
HIDDEN
 62
     8
100
AcDbLine
 10
129.8702193266
 20
142.4702359498
 30
0.0
 11
103.7587265181
 21
142.4702359498
 31
0.0
  0
LINE
  5
19F
330
1F
100
AcDbEntity
  8
SLD-0
  6
HIDDEN
 62
     8
100
AcDbLine
 10
101.8702194717
 20
142.4702359498
 30
0.0
 11
87.3144729949
 21
142.4702359498
 31
0.0
  0
LINE
  5
1A0
330
1F
100
AcDbEntity
  8
SLD-0
  6
HIDDEN
 62
     8
100
AcDbLine
 10
87.3144729949
 20
142.5581039154
 30
0.0
 11
87.3144729949
 21
142.4702359498
 31
0.0
  0
LINE
  5
1A1
330
1F
100
AcDbEntity
  8
SLD-0
  6
HIDDEN
 62
     8
100
AcDbLine
 10
87.3144729949
 20
143.0823679841
 30
0.0
 11
87.3144729949
 21
142.5581039154
 31
0.0
  0
LINE
  5
1A2
330
1F
100
AcDbEntity
  8
SLD-0
  6
HIDDEN
 62
     8
100
AcDbLine
 10
136.3144729949
 20
143.0823679841
 30
0.0
 11
136.3144729949
 21
142.5581039154
 31
0.0
  0
LINE
  5
1A3
330
1F
100
AcDbEntity
  8
SLD-0
  6
HIDDEN
 62
     8
100
AcDbLine
 10
136.3144729949
 20
143.1702359498
 30
0.0
 11
87.3144729949
 21
143.1702359498
 31
0.0
  0
LINE
  5
1A4
330
1F
100
AcDbEntity
  8
SLD-0
  6
HIDDEN
 62
     8
100
AcDbLine
 10
87.3144729949
 20
143.1702359498
 30
0.0
 11
87.3144729949
 21
143.0823679841
 31
0.0
  0
LINE
  5
1A5
330
1F
100
AcDbEntity
  8
SLD-0
  6
HIDDEN
 62
     8
100
AcDbLine
 10
136.3144729949
 20
143.1702359498
 30
0.0
 11
136.3144729949
 21
143.0823679841
 31
0.0
  0
LINE
  5
1A6
330
1F
100
AcDbEntity
  8
SLD-0
  6
HIDDEN
 62
     8
100
AcDbLine
 10
136.3144729949
 20
143.1702359498
 30
0.0
 11
87.3144729949
 21
143.1702359498
 31
0.0
  0
LINE
  5
1A7
330
1F
100
AcDbEntity
  8
SLD-0
  6
HIDDEN
 62
     8
100
AcDbLine
 10
87.3144729949
 20
142.4556169264
 30
0.0
 11
87.3144729949
 21
143.1702359498
 31
0.0
  0
LINE
  5
1A8
330
1F
100
AcDbEntity
  8
SLD-0
  6
HIDDEN
 62
     8
100
AcDbLine
 10
136.3144729949
 20
142.4556169264
 30
0.0
 11
136.3144729949
 21
143.1702359498
 31
0.0
  0
LINE
  5
1A9
330
1F
100
AcDbEntity
  8
SLD-0
 62
   179
100
AcDbLine
 10
123.3068743563
 20
137.2626372747
 30
0.0
 11
123.1345424271
 21
137.0903053455
 31
0.0
  0
LINE
  5
1AA
330
1F
100
AcDbEntity
  8
SLD-0
 62
   179
100
AcDbLine
 10
123.1345424271
 20
137.0903053455
 30
0.0
 11
122.8144729353
 21
136.7702358537
 31
0.0
  0
LINE
  5
1AB
330
1F
100
AcDbEntity
  8
SLD-0
 62
   179
100
AcDbLine
 10
126.8144726596
 20
136.7702358537
 30
0.0
 11
126.7939463101
 21
136.7907626689
 31
0.0
  0
LINE
  5
1AC
330
1F
100
AcDbEntity
  8
SLD-0
 62
   179
100
AcDbLine
 10
126.7939463101
 20
136.7907626689
 30
0.0
 11
126.3220712385
 21
137.2626372747
 31
0.0
  0
LINE
  5
1AD
330
1F
100
AcDbEntity
  8
SLD-0
 62
   179
100
AcDbLine
 10
126.3220712385
 20
137.2626372747
 30
0.0
 11
126.0937137372
 21
137.4608501926
 31
0.0
  0
LINE
  5
1AE
330
1F
100
AcDbEntity
  8
SLD-0
 62
   179
100
AcDbLine
 10
126.0937137372
 20
137.4608501926
 30
0.0
 11
125.8218504331
 21
137.6360179991
 31
0.0
  0
LINE
  5
1AF
330
1F
100
AcDbEntity
  8
SLD-0
 62
   179
100
AcDbLine
 10
125.8218504331
 20
137.6360179991
 30
0.0
 11
125.5824539653
 21
137.748216758
 31
0.0
  0
LINE
  5
1B0
330
1F
100
AcDbEntity
  8
SLD-0
 62
   179
100
AcDbLine
 10
125.5824539653
 20
137.748216758
 30
0.0
 11
125.3202261246
 21
137.8332683951
 31
0.0
  0
LINE
  5
1B1
330
1F
100
AcDbEntity
  8
SLD-0
 62
   179
100
AcDbLine
 10
125.3202261246
 20
137.8332683951
 30
0.0
 11
125.0371748424
 21
137.884116745
 31
0.0
  0
LINE
  5
1B2
330
1F
100
AcDbEntity
  8
SLD-0
 62
   179
100
AcDbLine
 10
125.0371748424
 20
137.884116745
 30
0.0
 11
124.7455255903
 21
137.8954523377
 31
0.0
  0
LINE
  5
1B3
330
1F
100
AcDbEntity
  8
SLD-0
 62
   179
100
AcDbLine
 10
124.7455255903
 20
137.8954523377
 30
0.0
 11
124.2620779044
 21
137.8208827362
 31
0.0
  0
LINE
  5
1B4
330
1F
100
AcDbEntity
  8
SLD-0
 62
   179
100
AcDbLine
 10
124.2620779044
 20
137.8208827362
 30
0.0
 11
123.8287744886
 21
137.647679089
 31
0.0
  0
LINE
  5
1B5
330
1F
100
AcDbEntity
  8
SLD-0
 62
   179
100
AcDbLine
 10
123.8287744886
 20
137.647679089
 30
0.0
 11
123.5444677836
 21
137.4677596748
 31
0.0
  0
LINE
  5
1B6
330
1F
100
AcDbEntity
  8
SLD-0
 62
   179
100
AcDbLine
 10
123.5444677836
 20
137.4677596748
 30
0.0
 11
123.3068743563
 21
137.2626372747
 31
0.0
  0
LINE
  5
1B7
330
1F
100
AcDbEntity
  8
SLD-0
 62
   179
100
AcDbLine
 10
91.3068746991
 20
137.2626372747
 30
0.0
 11
91.1345427699
 21
137.0903053455
 31
0.0
  0
LINE
  5
1B8
330
1F
100
AcDbEntity
  8
SLD-0
 62
   179
100
AcDbLine
 10
91.1345427699
 20
137.0903053455
 30
0.0
 11
90.814473278
 21
136.7702358537
 31
0.0
  0
LINE
  5
1B9
330
1F
100
AcDbEntity
  8
SLD-0
 62
   179
100
AcDbLine
 10
94.3220706499
 20
137.2626372747
 30
0.0
 11
94.0937140799
 21
137.4608501926
 31
0.0
  0
LINE
  5
1BA
330
1F
100
AcDbEntity
  8
SLD-0
 62
   179
100
AcDbLine
 10
94.0937140799
 20
137.4608501926
 30
0.0
 11
93.8218517072
 21
137.6360179991
 31
0.0
  0
LINE
  5
1BB
330
1F
100
AcDbEntity
  8
SLD-0
 62
   179
100
AcDbLine
 10
93.8218517072
 20
137.6360179991
 30
0.0
 11
93.5824533767
 21
137.748216758
 31
0.0
  0
LINE
  5
1BC
330
1F
100
AcDbEntity
  8
SLD-0
 62
   179
100
AcDbLine
 10
93.5824533767
 20
137.748216758
 30
0.0
 11
93.3202264673
 21
137.8332683951
 31
0.0
  0
LINE
  5
1BD
330
1F
100
AcDbEntity
  8
SLD-0
 62
   179
100
AcDbLine
 10
93.3202264673
 20
137.8332683951
 30
0.0
 11
93.0371751852
 21
137.884116745
 31
0.0
  0
LINE
  5
1BE
330
1F
100
AcDbEntity
  8
SLD-0
 62
   179
100
AcDbLine
 10
93.0371751852
 20
137.884116745
 30
0.0
 11
92.745525933
 21
137.8954523377
 31
0.0
  0
LINE
  5
1BF
330
1F
100
AcDbEntity
  8
SLD-0
 62
   179
100
AcDbLine
 10
92.745525933
 20
137.8954523377
 30
0.0
 11
92.2620782471
 21
137.8208827362
 31
0.0
  0
LINE
  5
1C0
330
1F
100
AcDbEntity
  8
SLD-0
 62
   179
100
AcDbLine
 10
92.2620782471
 20
137.8208827362
 30
0.0
 11
91.8287748314
 21
137.647679089
 31
0.0
  0
LINE
  5
1C1
330
1F
100
AcDbEntity
  8
SLD-0
 62
   179
100
AcDbLine
 10
91.8287748314
 20
137.647679089
 30
0.0
 11
91.5444681264
 21
137.4677596748
 31
0.0
  0
LINE
  5
1C2
330
1F
100
AcDbEntity
  8
SLD-0
 62
   179
100
AcDbLine
 10
91.5444681264
 20
137.4677596748
 30
0.0
 11
91.3068746991
 21
137.2626372747
 31
0.0
  0
LINE
  5
1C3
330
1F
100
AcDbEntity
  8
SLD-0
 62
   179
100
AcDbLine
 10
94.814472071
 20
136.7702358537
 30
0.0
 11
94.7939457215
 21
136.7907626689
 31
0.0
  0
LINE
  5
1C4
330
1F
100
AcDbEntity
  8
SLD-0
 62
   179
100
AcDbLine
 10
94.7939457215
 20
136.7907626689
 30
0.0
 11
94.3220706499
 21
137.2626372747
 31
0.0
  0
LINE
  5
1C5
330
1F
100
AcDbEntity
  8
SLD-0
 62
   179
100
AcDbLine
 10
128.6877730704
 20
137.2626372747
 30
0.0
 11
128.5580454237
 21
137.0845711924
 31
0.0
  0
LINE
  5
1C6
330
1F
100
AcDbEntity
  8
SLD-0
 62
   179
100
AcDbLine
 10
128.5580454237
 20
137.0845711924
 30
0.0
 11
128.318175844
 21
136.7748677865
 31
0.0
  0
LINE
  5
1C7
330
1F
100
AcDbEntity
  8
SLD-0
 62
   179
100
AcDbLine
 10
133.3107689238
 20
136.7748677865
 30
0.0
 11
133.3122068859
 21
136.7730689369
 31
0.0
  0
LINE
  5
1C8
330
1F
100
AcDbEntity
  8
SLD-0
 62
   179
100
AcDbLine
 10
133.3122068859
 20
136.7730689369
 30
0.0
 11
132.9411735601
 21
137.2626372747
 31
0.0
  0
LINE
  5
1C9
330
1F
100
AcDbEntity
  8
SLD-0
 62
   179
100
AcDbLine
 10
132.9411735601
 20
137.2626372747
 30
0.0
 11
132.6235441334
 21
137.6340482518
 31
0.0
  0
LINE
  5
1CA
330
1F
100
AcDbEntity
  8
SLD-0
 62
   179
100
AcDbLine
 10
132.6235441334
 20
137.6340482518
 30
0.0
 11
132.209481842
 21
137.9702105321
 31
0.0
  0
LINE
  5
1CB
330
1F
100
AcDbEntity
  8
SLD-0
 62
   179
100
AcDbLine
 10
132.209481842
 20
137.9702105321
 30
0.0
 11
131.9232845522
 21
138.1374742039
 31
0.0
  0
LINE
  5
1CC
330
1F
100
AcDbEntity
  8
SLD-0
 62
   179
100
AcDbLine
 10
131.9232845522
 20
138.1374742039
 30
0.0
 11
131.6048038966
 21
138.2732638292
 31
0.0
  0
LINE
  5
1CD
330
1F
100
AcDbEntity
  8
SLD-0
 62
   179
100
AcDbLine
 10
131.6048038966
 20
138.2732638292
 30
0.0
 11
131.316831506
 21
138.3544970438
 31
0.0
  0
LINE
  5
1CE
330
1F
100
AcDbEntity
  8
SLD-0
 62
   179
100
AcDbLine
 10
131.316831506
 20
138.3544970438
 30
0.0
 11
131.0146229184
 21
138.4005053103
 31
0.0
  0
LINE
  5
1CF
330
1F
100
AcDbEntity
  8
SLD-0
 62
   179
100
AcDbLine
 10
131.0146229184
 20
138.4005053103
 30
0.0
 11
130.7046955294
 21
138.4062324785
 31
0.0
  0
LINE
  5
1D0
330
1F
100
AcDbEntity
  8
SLD-0
 62
   179
100
AcDbLine
 10
130.7046955294
 20
138.4062324785
 30
0.0
 11
130.398202858
 21
138.3718103305
 31
0.0
  0
LINE
  5
1D1
330
1F
100
AcDbEntity
  8
SLD-0
 62
   179
100
AcDbLine
 10
130.398202858
 20
138.3718103305
 30
0.0
 11
129.863357342
 21
138.2110021212
 31
0.0
  0
LINE
  5
1D2
330
1F
100
AcDbEntity
  8
SLD-0
 62
   179
100
AcDbLine
 10
129.863357342
 20
138.2110021212
 30
0.0
 11
129.5161230332
 21
138.0318817817
 31
0.0
  0
LINE
  5
1D3
330
1F
100
AcDbEntity
  8
SLD-0
 62
   179
100
AcDbLine
 10
129.5161230332
 20
138.0318817817
 30
0.0
 11
129.2132085032
 21
137.8186410427
 31
0.0
  0
LINE
  5
1D4
330
1F
100
AcDbEntity
  8
SLD-0
 62
   179
100
AcDbLine
 10
129.2132085032
 20
137.8186410427
 30
0.0
 11
128.9223508752
 21
137.5490911439
 31
0.0
  0
LINE
  5
1D5
330
1F
100
AcDbEntity
  8
SLD-0
 62
   179
100
AcDbLine
 10
128.9223508752
 20
137.5490911439
 30
0.0
 11
128.6877730704
 21
137.2626372747
 31
0.0
  0
LINE
  5
1D6
330
1F
100
AcDbEntity
  8
SLD-0
 62
   179
100
AcDbLine
 10
100.6877731375
 20
137.2626372747
 30
0.0
 11
100.5580454908
 21
137.0845711924
 31
0.0
  0
LINE
  5
1D7
330
1F
100
AcDbEntity
  8
SLD-0
 62
   179
100
AcDbLine
 10
100.5580454908
 20
137.0845711924
 30
0.0
 11
100.3181759111
 21
136.7748677865
 31
0.0
  0
LINE
  5
1D8
330
1F
100
AcDbEntity
  8
SLD-0
 62
   179
100
AcDbLine
 10
105.3107694565
 20
136.7748677865
 30
0.0
 11
105.3122074186
 21
136.7730689369
 31
0.0
  0
LINE
  5
1D9
330
1F
100
AcDbEntity
  8
SLD-0
 62
   179
100
AcDbLine
 10
105.3122074186
 20
136.7730689369
 30
0.0
 11
104.9411731615
 21
137.2626372747
 31
0.0
  0
LINE
  5
1DA
330
1F
100
AcDbEntity
  8
SLD-0
 62
   179
100
AcDbLine
 10
104.9411731615
 20
137.2626372747
 30
0.0
 11
104.6235437348
 21
137.6340482518
 31
0.0
  0
LINE
  5
1DB
330
1F
100
AcDbEntity
  8
SLD-0
 62
   179
100
AcDbLine
 10
104.6235437348
 20
137.6340482518
 30
0.0
 11
104.2094814434
 21
137.9702105321
 31
0.0
  0
LINE
  5
1DC
330
1F
100
AcDbEntity
  8
SLD-0
 62
   179
100
AcDbLine
 10
104.2094814434
 20
137.9702105321
 30
0.0
 11
103.9232846192
 21
138.1374742039
 31
0.0
  0
LINE
  5
1DD
330
1F
100
AcDbEntity
  8
SLD-0
 62
   179
100
AcDbLine
 10
103.9232846192
 20
138.1374742039
 30
0.0
 11
103.6048039637
 21
138.2732638292
 31
0.0
  0
LINE
  5
1DE
330
1F
100
AcDbEntity
  8
SLD-0
 62
   179
100
AcDbLine
 10
103.6048039637
 20
138.2732638292
 30
0.0
 11
103.316831573
 21
138.3544970438
 31
0.0
  0
LINE
  5
1DF
330
1F
100
AcDbEntity
  8
SLD-0
 62
   179
100
AcDbLine
 10
103.316831573
 20
138.3544970438
 30
0.0
 11
103.0146229855
 21
138.4005053103
 31
0.0
  0
LINE
  5
1E0
330
1F
100
AcDbEntity
  8
SLD-0
 62
   179
100
AcDbLine
 10
103.0146229855
 20
138.4005053103
 30
0.0
 11
102.7046946651
 21
138.4062324785
 31
0.0
  0
LINE
  5
1E1
330
1F
100
AcDbEntity
  8
SLD-0
 62
   179
100
AcDbLine
 10
102.7046946651
 20
138.4062324785
 30
0.0
 11
102.3982038564
 21
138.3718103305
 31
0.0
  0
LINE
  5
1E2
330
1F
100
AcDbEntity
  8
SLD-0
 62
   179
100
AcDbLine
 10
102.3982038564
 20
138.3718103305
 30
0.0
 11
101.863357409
 21
138.2110021212
 31
0.0
  0
LINE
  5
1E3
330
1F
100
AcDbEntity
  8
SLD-0
 62
   179
100
AcDbLine
 10
101.863357409
 20
138.2110021212
 30
0.0
 11
101.5161231003
 21
138.0318817817
 31
0.0
  0
LINE
  5
1E4
330
1F
100
AcDbEntity
  8
SLD-0
 62
   179
100
AcDbLine
 10
101.5161231003
 20
138.0318817817
 30
0.0
 11
101.2132076389
 21
137.8186410427
 31
0.0
  0
LINE
  5
1E5
330
1F
100
AcDbEntity
  8
SLD-0
 62
   179
100
AcDbLine
 10
101.2132076389
 20
137.8186410427
 30
0.0
 11
100.9223509423
 21
137.5490911439
 31
0.0
  0
LINE
  5
1E6
330
1F
100
AcDbEntity
  8
SLD-0
 62
   179
100
AcDbLine
 10
100.9223509423
 20
137.5490911439
 30
0.0
 11
100.6877731375
 21
137.2626372747
 31
0.0
  0
LINE
  5
1E7
330
1F
100
AcDbEntity
  8
SLD-0
  6
CENTERX2
 62
   179
100
AcDbLine
 10
124.8144729949
 20
135.2626374178
 30
0.0
 11
124.8144729949
 21
144.4702359498
 31
0.0
  0
LINE
  5
1E8
330
1F
100
AcDbEntity
  8
SLD-0
  6
CENTERX2
 62
   179
100
AcDbLine
 10
92.8144729949
 20
135.2626374178
 30
0.0
 11
92.8144729949
 21
144.4702359498
 31
0.0
  0
LINE
  5
1E9
330
1F
100
AcDbEntity
  8
SLD-0
  6
CENTERX2
 62
   179
100
AcDbLine
 10
130.8144729949
 20
135.2626374178
 30
0.0
 11
130.8144729949
 21
144.5581039154
 31
0.0
  0
LINE
  5
1EA
330
1F
100
AcDbEntity
  8
SLD-0
  6
CENTERX2
 62
   179
100
AcDbLine
 10
102.8144729949
 20
135.2626374178
 30
0.0
 11
102.8144729949
 21
144.5581039154
 31
0.0
  0
LINE
  5
1EB
330
1F
100
AcDbEntity
  8
SLD-0
  6
Continuous
 62
   179
100
AcDbLine
 10
63.2054172666
 20
142.5581039154
 30
0.0
 11
63.7296813354
 21
143.0823679841
 31
0.0
  0
LINE
  5
1EC
330
1F
100
AcDbEntity
  8
SLD-0
  6
Continuous
 62
   179
100
AcDbLine
 10
63.9418133697
 20
143.1702359498
 30
0.0
 11
65.917549301
 21
143.1702359498
 31
0.0
  0
LINE
  5
1ED
330
1F
100
AcDbEntity
  8
SLD-0
  6
Continuous
 62
   179
100
AcDbLine
 10
58.5054172667
 20
143.0823679842
 30
0.0
 11
59.0296813354
 21
142.5581039154
 31
0.0
  0
LINE
  5
1EE
330
1F
100
AcDbEntity
  8
SLD-0
  6
Continuous
 62
   179
100
AcDbLine
 10
59.2418133697
 20
142.4702359498
 30
0.0
 11
62.9932852323
 21
142.4702359498
 31
0.0
  0
LINE
  5
1EF
330
1F
100
AcDbEntity
  8
SLD-0
  6
Continuous
 62
   179
100
AcDbLine
 10
56.317549301
 20
143.1702359498
 30
0.0
 11
58.2932852323
 21
143.1702359498
 31
0.0
  0
LINE
  5
1F0
330
1F
100
AcDbEntity
  8
SLD-0
 62
   179
100
AcDbLine
 10
63.117549396
 20
137.8927785106
 30
0.0
 11
63.117549396
 21
137.8966174223
 31
0.0
  0
LINE
  5
1F1
330
1F
100
AcDbEntity
  8
SLD-0
 62
   179
100
AcDbLine
 10
59.117549206
 20
137.8966174223
 30
0.0
 11
59.117549206
 21
137.8927785106
 31
0.0
  0
LINE
  5
1F2
330
1F
100
AcDbEntity
  8
SLD-0
 62
   179
100
AcDbLine
 10
63.6175492451
 20
138.4042054549
 30
0.0
 11
63.6175492451
 21
138.409100952
 31
0.0
  0
LINE
  5
1F3
330
1F
100
AcDbEntity
  8
SLD-0
 62
   179
100
AcDbLine
 10
58.6175493569
 20
138.409100952
 30
0.0
 11
58.6175493569
 21
138.4042054549
 31
0.0
  0
LINE
  5
1F4
330
1F
100
AcDbEntity
  8
SLD-0
  6
CENTERX2
 62
   179
100
AcDbLine
 10
61.117549301
 20
135.2626374178
 30
0.0
 11
61.117549301
 21
144.4702359498
 31
0.0
  0
ARC
  5
1F5
330
1F
100
AcDbEntity
  8
SLD-0
  6
Continuous
 62
   179
100
AcDbCircle
 10
130.8144733153
 20
181.817250405
 30
0.0
 40
2.100017445500007
100
AcDbArc
 50
83.8382918371
 51
96.161708163
  0
ARC
  5
1F6
330
1F
100
AcDbEntity
  8
SLD-0
  6
Continuous
 62
   179
100
AcDbCircle
 10
102.8144729166
 20
181.81726989
 30
0.0
 40
2.099998023099965
100
AcDbArc
 50
83.8382474068
 51
96.1617525931
  0
ARC
  5
1F7
330
1F
100
AcDbEntity
  8
SLD-0
  6
Continuous
 62
   179
100
AcDbCircle
 10
130.8144733153
 20
181.817272254
 30
0.0
 40
2.100004519600002
100
AcDbArc
 50
263.8382537635
 51
276.1617462363
  0
ARC
  5
1F8
330
1F
100
AcDbEntity
  8
SLD-0
  6
Continuous
 62
   179
100
AcDbCircle
 10
102.8144729166
 20
181.81726989
 30
0.0
 40
2.100002119254242
100
AcDbArc
 50
263.8382594722
 51
276.1617405279
  0
ARC
  5
1F9
330
1F
100
AcDbEntity
  8
SLD-0
  6
Continuous
 62
   179
100
AcDbCircle
 10
130.8144571081
 20
181.8172119979
 30
0.0
 40
2.100057370400009
100
AcDbArc
 50
63.2793987197
 51
83.8379646833
  0
ARC
  5
1FA
330
1F
100
AcDbEntity
  8
SLD-0
  6
Continuous
 62
   179
100
AcDbCircle
 10
102.8144729166
 20
181.81726989
 30
0.0
 40
2.100002119254242
100
AcDbArc
 50
276.1617405279
 51
296.7208508505
  0
ARC
  5
1FB
330
1F
100
AcDbEntity
  8
SLD-0
  6
Continuous
 62
   179
100
AcDbCircle
 10
130.8144733153
 20
181.817250405
 30
0.0
 40
2.09998464914151
100
AcDbArc
 50
243.2788949765
 51
263.8381952341
  0
ARC
  5
1FC
330
1F
100
AcDbEntity
  8
SLD-0
  6
Continuous
 62
   179
100
AcDbCircle
 10
102.8144729166
 20
181.81726989
 30
0.0
 40
2.099998163849888
100
AcDbArc
 50
63.2790948257
 51
83.8382478214
  0
ARC
  5
1FD
330
1F
100
AcDbEntity
  8
SLD-0
  6
Continuous
 62
   179
100
AcDbCircle
 10
130.8144733153
 20
181.817250405
 30
0.0
 40
2.100017445500002
100
AcDbArc
 50
96.161708163
 51
116.7206545722
  0
ARC
  5
1FE
330
1F
100
AcDbEntity
  8
SLD-0
  6
Continuous
 62
   179
100
AcDbCircle
 10
102.8144797057
 20
181.8172901692
 30
0.0
 40
2.100023010014724
100
AcDbArc
 50
243.2792287033
 51
263.8381346997
  0
ARC
  5
1FF
330
1F
100
AcDbEntity
  8
SLD-0
  6
Continuous
 62
   179
100
AcDbCircle
 10
102.8144729166
 20
181.81726989
 30
0.0
 40
2.099998163810408
100
AcDbArc
 50
96.1617521786
 51
116.7209051726
  0
ARC
  5
200
330
1F
100
AcDbEntity
  8
SLD-0
  6
Continuous
 62
   179
100
AcDbCircle
 10
130.8144681201
 20
181.8172863459
 30
0.0
 40
2.100019087799998
100
AcDbArc
 50
276.1618458923
 51
296.7207907049
  0
CIRCLE
  5
201
330
1F
100
AcDbEntity
  8
SLD-0
  6
Continuous
 62
   179
100
AcDbCircle
 10
92.8144729949
 20
181.81726783
 30
0.0
 40
1.650000000000006
  0
ARC
  5
202
330
1F
100
AcDbEntity
  8
SLD-0
  6
Continuous
 62
   179
100
AcDbCircle
 10
102.8144729166
 20
181.81726989
 30
0.0
 40
2.10000184377944
100
AcDbArc
 50
116.7208546292
 51
243.2791453701
  0
CIRCLE
  5
203
330
1F
100
AcDbEntity
  8
SLD-0
  6
Continuous
 62
   179
100
AcDbCircle
 10
124.8144729949
 20
181.81726783
 30
0.0
 40
1.65000000000002
  0
ARC
  5
204
330
1F
100
AcDbEntity
  8
SLD-0
  6
Continuous
 62
   179
100
AcDbCircle
 10
102.8144729166
 20
181.81726989
 30
0.0
 40
2.100001843892082
100
AcDbArc
 50
296.7208546326
 51
63.2791453701
  0
ARC
  5
205
330
1F
100
AcDbEntity
  8
SLD-0
  6
Continuous
 62
   179
100
AcDbCircle
 10
130.8144733153
 20
181.817272254
 30
0.0
 40
2.100004164818434
100
AcDbArc
 50
116.7208369768
 51
243.2791630209
  0
ARC
  5
206
330
1F
100
AcDbEntity
  8
SLD-0
  6
Continuous
 62
   179
100
AcDbCircle
 10
130.8144733153
 20
181.817272254
 30
0.0
 40
2.100004164812766
100
AcDbArc
 50
296.7208369761
 51
63.2791630242
  0
ARC
  5
207
330
1F
100
AcDbEntity
  8
SLD-0
  6
Continuous
 62
   179
100
AcDbCircle
 10
92.8144736058
 20
135.7604706834
 30
0.0
 40
1.803290691999997
100
AcDbArc
 50
56.4096165272
 51
123.5903834728
  0
ARC
  5
208
330
1F
100
AcDbEntity
  8
SLD-0
  6
Continuous
 62
   179
100
AcDbCircle
 10
130.8144733152
 20
135.7976946601
 30
0.0
 40
2.197478413099999
100
AcDbArc
 50
41.8088109297
 51
138.1911890703
  0
ARC
  5
209
330
1F
100
AcDbEntity
  8
SLD-0
  6
Continuous
 62
   179
100
AcDbCircle
 10
124.8144727974
 20
135.7604692938
 30
0.0
 40
1.803292107200021
100
AcDbArc
 50
56.4096286296
 51
123.5903713704
  0
ARC
  5
20A
330
1F
100
AcDbEntity
  8
SLD-0
  6
Continuous
 62
   179
100
AcDbCircle
 10
102.8144729166
 20
135.7976955962
 30
0.0
 40
2.197477441999987
100
AcDbArc
 50
41.8088008317
 51
138.1911991683
  0
ARC
  5
20B
330
1F
100
AcDbEntity
  8
SLD-0
  6
Continuous
 62
   179
100
AcDbCircle
 10
71.0161931333
 20
165.1014016278
 30
0.0
 40
41.04440028175534
100
AcDbArc
 50
316.3495802423
 51
317.2921976219
  0
ARC
  5
20C
330
1F
100
AcDbEntity
  8
SLD-0
  6
Continuous
 62
   179
100
AcDbCircle
 10
135.1122753022
 20
165.5701705362
 30
0.0
 40
41.72940806069659
100
AcDbArc
 50
222.7155678953
 51
223.6427118665
  0
ARC
  5
20D
330
1F
100
AcDbEntity
  8
SLD-0
  6
Continuous
 62
   179
100
AcDbCircle
 10
99.0245438547
 20
165.0936215981
 30
0.0
 40
41.03298705577019
100
AcDbArc
 50
316.349391075
 51
317.2922715372
  0
ARC
  5
20E
330
1F
100
AcDbEntity
  8
SLD-0
  6
Continuous
 62
   179
100
AcDbCircle
 10
163.8714301049
 20
166.2824557628
 30
0.0
 40
42.77036761039204
100
AcDbArc
 50
222.7267649043
 51
223.6313419794
  0
ARC
  5
20F
330
1F
100
AcDbEntity
  8
SLD-0
  6
Continuous
 62
   179
100
AcDbCircle
 10
128.6714583013
 20
130.1529679378
 30
0.0
 40
8.609013810172096
100
AcDbArc
 50
124.3262367489
 51
129.7677115964
  0
ARC
  5
210
330
1F
100
AcDbEntity
  8
SLD-0
  6
Continuous
 62
   179
100
AcDbCircle
 10
121.1733876128
 20
130.4389791379
 30
0.0
 40
8.251084708448468
100
AcDbArc
 50
50.114205877
 51
55.791924447
  0
ARC
  5
211
330
1F
100
AcDbEntity
  8
SLD-0
  6
Continuous
 62
   179
100
AcDbCircle
 10
96.6713548004
 20
130.1530963263
 30
0.0
 40
8.608848698716644
100
AcDbArc
 50
124.3261427172
 51
129.767726959
  0
ARC
  5
212
330
1F
100
AcDbEntity
  8
SLD-0
  6
Continuous
 62
   179
100
AcDbCircle
 10
89.1736738587
 20
130.4393578983
 30
0.0
 40
8.250610738357947
100
AcDbArc
 50
50.1140426605
 51
55.7920876633
  0
ARC
  5
213
330
1F
100
AcDbEntity
  8
SLD-0
  6
HIDDEN
 62
     8
100
AcDbCircle
 10
101.743106829
 20
146.4945341134
 30
0.0
 40
4.026305171430544
100
AcDbArc
 50
271.8091595177
 51
282.1287165818
  0
ARC
  5
214
330
1F
100
AcDbEntity
  8
SLD-0
  6
HIDDEN
 62
     8
100
AcDbCircle
 10
134.6011477139
 20
165.0905398542
 30
0.0
 40
41.02850557628307
100
AcDbArc
 50
222.7076483762
 51
223.6506313854
  0
ARC
  5
215
330
1F
100
AcDbEntity
  8
SLD-0
  6
HIDDEN
 62
     8
100
AcDbCircle
 10
102.8144729166
 20
135.7976955962
 30
0.0
 40
2.197477441999987
100
AcDbArc
 50
41.8088008317
 51
138.1911991683
  0
ARC
  5
216
330
1F
100
AcDbEntity
  8
SLD-0
  6
HIDDEN
 62
     8
100
AcDbCircle
 10
70.5034718815
 20
165.582527283
 30
0.0
 40
41.74748782319263
100
AcDbArc
 50
316.3575179307
 51
317.2842599333
  0
ARC
  5
217
330
1F
100
AcDbEntity
  8
SLD-0
  6
HIDDEN
 62
     8
100
AcDbCircle
 10
105.1412640783
 20
156.7651804637
 30
0.0
 40
14.36164506520001
100
AcDbArc
 50
261.5863133217
 51
264.4758119949
  0
ARC
  5
218
330
1F
100
AcDbEntity
  8
SLD-0
  6
HIDDEN
 62
     8
100
AcDbCircle
 10
100.487681755
 20
156.7651804638
 30
0.0
 40
14.36164507277757
100
AcDbArc
 50
275.5241886295
 51
278.4136866737
  0
ARC
  5
219
330
1F
100
AcDbEntity
  8
SLD-0
  6
HIDDEN
 62
     8
100
AcDbCircle
 10
102.8144729166
 20
140.4702421703
 30
0.0
 40
2.099993799508921
100
AcDbArc
 50
83.8382349643
 51
96.1617650336
  0
ARC
  5
21A
330
1F
100
AcDbEntity
  8
SLD-0
  6
HIDDEN
 62
     8
100
AcDbCircle
 10
103.8858419879
 20
146.4945585225
 30
0.0
 40
4.026329660119472
100
AcDbArc
 50
257.8713148816
 51
268.190811239
  0
ARC
  5
21B
330
1F
100
AcDbEntity
  8
SLD-0
  6
HIDDEN
 62
     8
100
AcDbCircle
 10
102.8144729166
 20
140.4702421703
 30
0.0
 40
2.099993799508921
100
AcDbArc
 50
83.8382349643
 51
96.1617650336
  0
ARC
  5
21C
330
1F
100
AcDbEntity
  8
SLD-0
  6
HIDDEN
 62
     8
100
AcDbCircle
 10
129.7431037783
 20
146.4945585224
 30
0.0
 40
4.026329660000011
100
AcDbArc
 50
271.8091898793
 51
282.1286851189
  0
ARC
  5
21D
330
1F
100
AcDbEntity
  8
SLD-0
  6
HIDDEN
 62
     8
100
AcDbCircle
 10
133.1412121949
 20
156.7647489344
 30
0.0
 40
14.36121046220001
100
AcDbArc
 50
261.586269591
 51
264.4758554108
  0
ARC
  5
21E
330
1F
100
AcDbEntity
  8
SLD-0
  6
HIDDEN
 62
     8
100
AcDbCircle
 10
163.3991462228
 20
165.8392764849
 30
0.0
 40
42.12273083095062
100
AcDbArc
 50
222.7198108225
 51
223.6382960614
  0
ARC
  5
21F
330
1F
100
AcDbEntity
  8
SLD-0
  6
HIDDEN
 62
     8
100
AcDbCircle
 10
130.8144733152
 20
135.7976946601
 30
0.0
 40
2.197478413099999
100
AcDbArc
 50
41.8088109297
 51
138.1911890703
  0
ARC
  5
220
330
1F
100
AcDbEntity
  8
SLD-0
  6
HIDDEN
 62
     8
100
AcDbCircle
 10
97.1302661236
 20
166.8711711889
 30
0.0
 40
43.63058999340683
100
AcDbArc
 50
316.3774594497
 51
317.2642031626
  0
ARC
  5
221
330
1F
100
AcDbEntity
  8
SLD-0
  6
HIDDEN
 62
     8
100
AcDbCircle
 10
128.4877344356
 20
156.7647489342
 30
0.0
 40
14.36121046204864
100
AcDbArc
 50
275.5241445892
 51
278.413730409
  0
ARC
  5
222
330
1F
100
AcDbEntity
  8
SLD-0
  6
HIDDEN
 62
     8
100
AcDbCircle
 10
130.8144733153
 20
140.4702226852
 30
0.0
 40
2.100013222000496
100
AcDbArc
 50
83.8382793973
 51
96.1617206059
  0
ARC
  5
223
330
1F
100
AcDbEntity
  8
SLD-0
  6
HIDDEN
 62
     8
100
AcDbCircle
 10
131.885836885
 20
146.494509705
 30
0.0
 40
4.026280678498919
100
AcDbArc
 50
257.8712519405
 51
268.190873062
  0
ARC
  5
224
330
1F
100
AcDbEntity
  8
SLD-0
  6
HIDDEN
 62
     8
100
AcDbCircle
 10
130.8144733153
 20
140.4702356864
 30
0.0
 40
2.100000295910219
100
AcDbArc
 50
83.8382413233
 51
96.1617586799
  0
ARC
  5
225
330
1F
100
AcDbEntity
  8
SLD-0
  6
HIDDEN
 62
     8
100
AcDbCircle
 10
121.0960218536
 20
130.3364861006
 30
0.0
 40
8.379344027196803
100
AcDbArc
 50
50.1576939574
 51
55.7484363669
  0
ARC
  5
226
330
1F
100
AcDbEntity
  8
SLD-0
  6
HIDDEN
 62
     8
100
AcDbCircle
 10
124.8144727974
 20
135.7604692938
 30
0.0
 40
1.803292107200021
100
AcDbArc
 50
56.4096286296
 51
123.5903713704
  0
ARC
  5
227
330
1F
100
AcDbEntity
  8
SLD-0
  6
HIDDEN
 62
     8
100
AcDbCircle
 10
128.6166825456
 20
130.2255339619
 30
0.0
 40
8.518198683739467
100
AcDbArc
 50
124.2972079604
 51
129.7967403841
  0
ARC
  5
228
330
1F
100
AcDbEntity
  8
SLD-0
  6
HIDDEN
 62
     8
100
AcDbCircle
 10
88.8332326722
 20
129.9883463452
 30
0.0
 40
8.815038267501677
100
AcDbArc
 50
50.2959603768
 51
55.610169947
  0
ARC
  5
229
330
1F
100
AcDbEntity
  8
SLD-0
  6
HIDDEN
 62
     8
100
AcDbCircle
 10
92.8144736058
 20
135.7604706834
 30
0.0
 40
1.803290691999997
100
AcDbArc
 50
56.4096165272
 51
123.5903834728
  0
ARC
  5
22A
330
1F
100
AcDbEntity
  8
SLD-0
  6
HIDDEN
 62
     8
100
AcDbCircle
 10
96.616235288
 20
130.226117858
 30
0.0
 40
8.517463570982704
100
AcDbArc
 50
124.2969286182
 51
129.796941058
  0
ARC
  5
22B
330
1F
100
AcDbEntity
  8
SLD-0
  6
Continuous
 62
   179
100
AcDbCircle
 10
63.9418133697
 20
142.8702359498
 30
0.0
 40
0.3000000000000114
100
AcDbArc
 50
90.0
 51
134.9999999849
  0
ARC
  5
22C
330
1F
100
AcDbEntity
  8
SLD-0
  6
Continuous
 62
   179
100
AcDbCircle
 10
65.917549301
 20
142.6702359498
 30
0.0
 40
0.5
100
AcDbArc
 50
334.5807856114
 51
90.0
  0
ARC
  5
22D
330
1F
100
AcDbEntity
  8
SLD-0
  6
Continuous
 62
   179
100
AcDbCircle
 10
51.9180826504
 20
149.3234256735
 30
0.0
 40
16.00000000002607
100
AcDbArc
 50
311.0794373954
 51
334.5807856116
  0
ARC
  5
22E
330
1F
100
AcDbEntity
  8
SLD-0
  6
Continuous
 62
   179
100
AcDbCircle
 10
61.117549301
 20
138.7702359498
 30
0.0
 40
2.000000000003259
100
AcDbArc
 50
228.9205626046
 51
311.0794373934
  0
ARC
  5
22F
330
1F
100
AcDbEntity
  8
SLD-0
  6
Continuous
 62
   179
100
AcDbCircle
 10
58.2932852323
 20
142.8702359498
 30
0.0
 40
0.3000000000000245
100
AcDbArc
 50
45.0
 51
90.0
  0
ARC
  5
230
330
1F
100
AcDbEntity
  8
SLD-0
  6
Continuous
 62
   179
100
AcDbCircle
 10
59.2418133697
 20
142.7702359498
 30
0.0
 40
0.3000000000000398
100
AcDbArc
 50
225.0000000151
 51
270.0
  0
ARC
  5
231
330
1F
100
AcDbEntity
  8
SLD-0
  6
Continuous
 62
   179
100
AcDbCircle
 10
62.9932852323
 20
142.7702359498
 30
0.0
 40
0.3000000000000114
100
AcDbArc
 50
270.0
 51
314.9999999849
  0
ARC
  5
232
330
1F
100
AcDbEntity
  8
SLD-0
  6
Continuous
 62
   179
100
AcDbCircle
 10
70.3170159515
 20
149.3234256735
 30
0.0
 40
16.0
100
AcDbArc
 50
205.4192143886
 51
228.9205626047
  0
ARC
  5
233
330
1F
100
AcDbEntity
  8
SLD-0
  6
Continuous
 62
   179
100
AcDbCircle
 10
56.317549301
 20
142.6702359498
 30
0.0
 40
0.5000000000642326
100
AcDbArc
 50
90.0
 51
205.4192143908
  0
DIMENSION
  5
234
330
1F
100
AcDbEntity
  8
SLD-0
 62
     7
100
AcDbDimension
  2
*D9
 10
136.3144729949
 20
201.0242146029
 30
0.0
 11
130.5644729949
 21
201.0242146029
 31
0.0
 70
   160
 71
     1
 42
11.5
  3
SLDDIMSTYLE0
100
AcDbAlignedDimension
 13
124.8144729949
 23
185.96726783
 33
0.0
 14
136.3144729949
 24
187.11726783
 34
0.0
100
AcDbRotatedDimension
1001
ACAD
1000
DSTYLE
1002
{
1070
    77
1070
     3
1070
   143
1040
0.0393700787
1070
    41
1040
3.0
1070
    44
1040
1.0
1070
    42
1040
1.0
1070
   147
1040
1.524
1070
    73
1070
     0
1070
    74
1070
     0
1070
   140
1040
3.5
1070
   284
1070
    12
1070
    78
1070
    12
1002
}
  0
DIMENSION
  5
252
330
1F
100
AcDbEntity
  8
SLD-0
 62
     7
100
AcDbDimension
  2
*D11
 10
124.8144729949
 20
201.0242146029
 30
0.0
 11
108.8144729949
 21
201.0242146029
 31
0.0
 70
   160
 71
     1
 42
32.0
  3
SLDDIMSTYLE1
100
AcDbAlignedDimension
 13
92.8144729949
 23
185.96726783
 33
0.0
 14
124.8144729949
 24
185.96726783
 34
0.0
100
AcDbRotatedDimension
1001
ACAD
1000
DSTYLE
1002
{
1070
    77
1070
     3
1070
   143
1040
0.0393700787
1070
    41
1040
3.0
1070
    44
1040
1.0
1070
    42
1040
1.0
1070
   147
1040
1.524
1070
    73
1070
     0
1070
    74
1070
     0
1070
   140
1040
3.5
1070
   284
1070
    12
1070
    78
1070
    12
1002
}
  0
DIMENSION
  5
26A
330
1F
100
AcDbEntity
  8
SLD-0
 62
     7
100
AcDbDimension
  2
*D12
 10
87.3144729949
 20
209.966946081
 30
0.0
 11
111.8144729949
 21
209.966946081
 31
0.0
 70
   160
 71
     1
 42
49.0
  3
SLDDIMSTYLE1
100
AcDbAlignedDimension
 13
136.3144729949
 23
187.11726783
 33
0.0
 14
87.3144729949
 24
187.11726783
 34
0.0
100
AcDbRotatedDimension
1001
ACAD
1000
DSTYLE
1002
{
1070
    77
1070
     3
1070
   143
1040
0.0393700787
1070
    41
1040
3.0
1070
    44
1040
1.0
1070
    42
1040
1.0
1070
   147
1040
1.524
1070
    73
1070
     0
1070
    74
1070
     0
1070
   140
1040
3.5
1070
   284
1070
    12
1070
    78
1070
    12
1002
}
  0
DIMENSION
  5
281
330
1F
100
AcDbEntity
  8
SLD-0
 62
     7
100
AcDbDimension
  2
*D13
 10
1.8186671994
 20
3.5626458958
 30
0.0
 11
78.7453713036
 21
-5.3439694848
 31
0.0
 70
   163
  1
2-M<><>
 71
     1
 42
3.9999995201
  3
SLDDIMSTYLE2
100
AcDbDiametricDimension
 15
0.0
 25
0.0
 35
0.0
 40
0.0
1001
ACAD
1000
DSTYLE
1002
{
1070
    77
1070
     0
1070
   143
1040
0.0393700787
1070
    41
1040
3.0
1070
    44
1040
1.0
1070
    42
1040
1.0
1070
   147
1040
1.524
1070
    73
1070
     1
1070
    74
1070
     1
1070
   140
1040
3.5
1070
   284
1070
    12
1070
    78
1070
    12
1002
}
  0
DIMENSION
  5
292
330
1F
100
AcDbEntity
  8
SLD-0
 62
     7
100
AcDbDimension
  2
*D14
 10
136.3144729949
 20
164.1431945887
 30
0.0
 11
144.7257908203
 21
164.1431945887
 31
0.0
 70
   160
 71
     1
 42
5.5
  3
SLDDIMSTYLE0
100
AcDbAlignedDimension
 13
130.8144729949
 23
181.81726783
 33
0.0
 14
136.3144729949
 24
176.51726783
 34
0.0
100
AcDbRotatedDimension
1001
ACAD
1000
DSTYLE
1002
{
1070
    77
1070
     3
1070
   143
1040
0.0393700787
1070
    41
1040
3.0
1070
    44
1040
1.0
1070
    42
1040
1.0
1070
   147
1040
1.524
1070
    73
1070
     0
1070
    74
1070
     0
1070
   140
1040
3.5
1070
   284
1070
    12
1070
    78
1070
    12
1002
}
  0
DIMENSION
  5
2AE
330
1F
100
AcDbEntity
  8
SLD-0
 62
     7
100
AcDbDimension
  2
*D15
 10
130.8144729949
 20
164.1431945887
 30
0.0
 11
116.8144729949
 21
164.1431945887
 31
0.0
 70
   160
 71
     1
 42
28.0
  3
SLDDIMSTYLE1
100
AcDbAlignedDimension
 13
102.8144729949
 23
181.81726783
 33
0.0
 14
130.8144729949
 24
181.81726783
 34
0.0
100
AcDbRotatedDimension
1001
ACAD
1000
DSTYLE
1002
{
1070
    77
1070
     3
1070
   143
1040
0.0393700787
1070
    41
1040
3.0
1070
    44
1040
1.0
1070
    42
1040
1.0
1070
   147
1040
1.524
1070
    73
1070
     0
1070
    74
1070
     0
1070
   140
1040
3.5
1070
   284
1070
    12
1070
    78
1070
    12
1002
}
  0
DIMENSION
  5
2C5
330
1F
100
AcDbEntity
  8
SLD-0
 62
     7
100
AcDbDimension
  2
*D16
 10
152.5506630632
 20
176.51726783
 30
0.0
 11
152.5506630632
 21
194.3973692956
 31
0.0
 70
   160
 71
     1
 42
5.3
  3
SLDDIMSTYLE0
100
AcDbAlignedDimension
 13
128.9644729949
 23
181.81726783
 33
0.0
 14
136.3144729949
 24
176.51726783
 34
0.0
 50
90.0
100
AcDbRotatedDimension
1001
ACAD
1000
DSTYLE
1002
{
1070
    77
1070
     3
1070
   143
1040
0.0393700787
1070
    41
1040
3.0
1070
    44
1040
1.0
1070
    42
1040
1.0
1070
   147
1040
1.524
1070
    73
1070
     0
1070
    74
1070
     0
1070
   140
1040
3.5
1070
   284
1070
    12
1070
    78
1070
    12
1002
}
  0
DIMENSION
  5
2E0
330
1F
100
AcDbEntity
  8
SLD-0
 62
     7
100
AcDbDimension
  2
*D17
 10
161.4068092408
 20
187.11726783
 30
0.0
 11
161.4068092408
 21
193.6342340698
 31
0.0
 70
   160
 71
     1
 42
10.6
  3
SLDDIMSTYLE0
100
AcDbAlignedDimension
 13
136.3144729949
 23
176.51726783
 33
0.0
 14
136.3144729949
 24
187.11726783
 34
0.0
 50
90.0
100
AcDbRotatedDimension
1001
ACAD
1000
DSTYLE
1002
{
1070
    77
1070
     3
1070
   143
1040
0.0393700787
1070
    41
1040
3.0
1070
    44
1040
1.0
1070
    42
1040
1.0
1070
   147
1040
1.524
1070
    73
1070
     0
1070
    74
1070
     0
1070
   140
1040
3.5
1070
   284
1070
    12
1070
    78
1070
    12
1002
}
  0
DIMENSION
  5
2F9
330
1F
100
AcDbEntity
  8
SLD-0
 62
     7
100
AcDbDimension
  2
*D18
 10
2.4611602376
 20
4.3523194454
 30
0.0
 11
88.225920887
 21
-5.222783933
 31
0.0
 70
   163
  1
2-M<><>
 71
     1
 42
4.999999427
  3
SLDDIMSTYLE2
100
AcDbDiametricDimension
 15
0.0
 25
0.0
 35
0.0
 40
0.0
1001
ACAD
1000
DSTYLE
1002
{
1070
    77
1070
     0
1070
   143
1040
0.0393700787
1070
    41
1040
3.0
1070
    44
1040
1.0
1070
    42
1040
1.0
1070
   147
1040
1.524
1070
    73
1070
     1
1070
    74
1070
     1
1070
   140
1040
3.5
1070
   284
1070
    12
1070
    78
1070
    12
1002
}
  0
MTEXT
  5
309
330
1F
100
AcDbEntity
  8
SLD-0
 62
     7
100
AcDbMText
 10
153.4957552958
 20
18.7882293932
 30
0.0
 40
4.2333333333
 41
0.0
 71
     1
 72
     1
  1
131063
  7
SLDTEXTSTYLE1
 73
     1
 44
1.0
  0
MTEXT
  5
30A
330
1F
100
AcDbEntity
  8
SLD-0
 62
     7
100
AcDbMText
 10
147.2407844383
 20
29.7138882404
 30
0.0
 40
4.2333333333
 41
0.0
 71
     1
 72
     1
  1
N01914-202-0
  7
SLDTEXTSTYLE1
 73
     1
 44
1.0
  0
MTEXT
  5
30B
330
1F
100
AcDbEntity
  8
SLD-0
 62
     7
100
AcDbMText
 10
138.6972895473
 20
43.2377018572
 30
0.0
 40
4.2333333333
 41
0.0
 71
     1
 72
     1
  1
Nut M4-P32/M3-P28
  7
SLDTEXTSTYLE1
 73
     1
 44
1.0
  0
MTEXT
  5
30C
330
1F
100
AcDbEntity
  8
SLD-0
 62
     7
100
AcDbMText
 10
127.5168737802
 20
77.0050638431
 30
0.0
 40
3.5
 41
0.0
 71
     1
 72
     1
  1
GCYL-20x20
  7
SLDTEXTSTYLE1
 73
     1
 44
1.0
  0
MTEXT
  5
30D
330
1F
100
AcDbEntity
  8
SLD-0
 62
     7
100
AcDbMText
 10
167.0427385362
 20
77.1888703426
 30
0.0
 40
3.5
 41
0.0
 71
     1
 72
     1
  1
NCON-M10W
  7
SLDTEXTSTYLE1
 73
     1
 44
1.0
  0
MTEXT
  5
30E
330
1F
100
AcDbEntity
  8
SLD-0
 62
     7
100
AcDbMText
 10
131.6823889562
 20
67.2633193663
 30
0.0
 40
3.5
 41
0.0
 71
     1
 72
     1
  1
060496
  7
SLDTEXTSTYLE1
 73
     1
 44
1.0
  0
MTEXT
  5
30F
330
1F
100
AcDbEntity
  8
SLD-0
 62
     7
100
AcDbMText
 10
170.281753864
 20
66.987609617
 30
0.0
 40
3.5
 41
0.0
 71
     1
 72
     1
  1
130709
  7
SLDTEXTSTYLE1
 73
     1
 44
1.0
  0
INSERT
  5
310
330
1F
100
AcDbEntity
  8
0
  6
Continuous
 62
     7
370
     0
100
AcDbBlockReference
  2
NOTE39
 10
118.9176010291
 20
85.2979028053
 30
0.0
  0
INSERT
  5
311
330
1F
100
AcDbEntity
  8
0
  6
Continuous
 62
     7
370
     0
100
AcDbBlockReference
  2
NOTE40
 10
164.7227552404
 20
85.5736125546
 30
0.0
  0
INSERT
  5
312
330
1F
100
AcDbEntity
  8
0
  6
Continuous
 62
     7
370
     0
100
AcDbBlockReference
  2
SURFACEFINISH45
 10
175.8924786289
 20
248.9935477162
 30
0.0
  0
INSERT
  5
313
330
1F
100
AcDbEntity
  8
0
  6
Continuous
 62
     7
370
     0
100
AcDbBlockReference
  2
注記
 10
22.1879884144
 20
66.4290584666
 30
0.0
  0
INSERT
  5
314
330
1F
100
AcDbEntity
  8
0
  6
Continuous
 62
     7
370
     0
100
AcDbBlockReference
  2
SW_CENTERMARK0
 10
0.0
 20
0.0
 30
0.0
  0
INSERT
  5
315
330
1F
100
AcDbEntity
  8
0
  6
Continuous
 62
     7
370
     0
100
AcDbBlockReference
  2
SW_CENTERMARK1
 10
0.0
 20
0.0
 30
0.0
  0
INSERT
  5
316
330
1F
100
AcDbEntity
  8
0
  6
Continuous
 62
     7
370
     0
100
AcDbBlockReference
  2
SW_CENTERMARK2
 10
0.0
 20
0.0
 30
0.0
  0
INSERT
  5
317
330
1F
100
AcDbEntity
  8
0
  6
Continuous
 62
     7
370
     0
100
AcDbBlockReference
  2
SW_CENTERMARK3
 10
0.0
 20
0.0
 30
0.0
  0
ENDSEC
  0
SECTION
  2
OBJECTS
  0
DICTIONARY
  5
C
330
0
100
AcDbDictionary
281
     1
  3
ACAD_GROUP
350
D
  3
ACAD_LAYOUT
350
1A
  3
ACAD_MLINESTYLE
350
17
  3
ACAD_PLOTSETTINGS
350
19
  3
ACAD_PLOTSTYLENAME
350
E
  0
DICTIONARY
  5
D
102
{ACAD_REACTORS
330
C
102
}
330
C
100
AcDbDictionary
281
     1
  0
DICTIONARY
  5
1A
102
{ACAD_REACTORS
330
C
102
}
330
C
100
AcDbDictionary
281
     1
  3
Layout1
350
1E
  3
Layout2
350
26
  3
Model
350
22
  0
DICTIONARY
  5
17
102
{ACAD_REACTORS
330
C
102
}
330
C
100
AcDbDictionary
281
     1
  3
Standard
350
18
  0
DICTIONARY
  5
19
102
{ACAD_REACTORS
330
C
102
}
330
C
100
AcDbDictionary
281
     1
  0
ACDBDICTIONARYWDFLT
  5
E
102
{ACAD_REACTORS
330
C
102
}
330
C
100
AcDbDictionary
281
     1
  3
Normal
350
F
100
AcDbDictionaryWithDefault
340
F
  0
LAYOUT
  5
1E
102
{ACAD_REACTORS
330
1A
102
}
330
1A
100
AcDbPlotSettings
  1

  2

  4

  6

 40
0.0
 41
0.0
 42
0.0
 43
0.0
 44
0.0
 45
0.0
 46
0.0
 47
0.0
 48
0.0
 49
0.0
140
0.0
141
0.0
142
1.0
143
1.0
 70
   688
 72
     0
 73
     0
 74
     5
  7

 75
    16
147
1.0
148
0.0
149
0.0
100
AcDbLayout
  1
Layout1
 70
     1
 71
     1
 10
0.0
 20
0.0
 11
0.0
 21
0.0
 12
0.0
 22
0.0
 32
0.0
 14
0.0
 24
0.0
 34
0.0
 15
0.0
 25
0.0
 35
0.0
146
0.0
 13
0.0
 23
0.0
 33
0.0
 16
1.0
 26
0.0
 36
0.0
 17
0.0
 27
1.0
 37
0.0
 76
     0
330
1B
  0
LAYOUT
  5
26
102
{ACAD_REACTORS
330
1A
102
}
330
1A
100
AcDbPlotSettings
  1

  2

  4

  6

 40
0.0
 41
0.0
 42
0.0
 43
0.0
 44
0.0
 45
0.0
 46
0.0
 47
0.0
 48
0.0
 49
0.0
140
0.0
141
0.0
142
1.0
143
1.0
 70
   688
 72
     0
 73
     0
 74
     5
  7

 75
    16
147
1.0
148
0.0
149
0.0
100
AcDbLayout
  1
Layout2
 70
     1
 71
     2
 10
0.0
 20
0.0
 11
0.0
 21
0.0
 12
0.0
 22
0.0
 32
0.0
 14
0.0
 24
0.0
 34
0.0
 15
0.0
 25
0.0
 35
0.0
146
0.0
 13
0.0
 23
0.0
 33
0.0
 16
1.0
 26
0.0
 36
0.0
 17
0.0
 27
1.0
 37
0.0
 76
     0
330
23
  0
LAYOUT
  5
22
102
{ACAD_REACTORS
330
1A
102
}
330
1A
100
AcDbPlotSettings
  1

  2

  4

  6

 40
0.0
 41
0.0
 42
0.0
 43
0.0
 44
0.0
 45
0.0
 46
0.0
 47
0.0
 48
0.0
 49
0.0
140
0.0
141
0.0
142
1.0
143
1.0
 70
  1712
 72
     0
 73
     0
 74
     0
  7

 75
     0
147
1.0
148
0.0
149
0.0
100
AcDbLayout
  1
Model
 70
     1
 71
     0
 10
0.0
 20
0.0
 11
0.0
 21
0.0
 12
0.0
 22
0.0
 32
0.0
 14
0.0
 24
0.0
 34
0.0
 15
210.0
 25
297.0
 35
0.0
146
0.0
 13
0.0
 23
0.0
 33
0.0
 16
1.0
 26
0.0
 36
0.0
 17
0.0
 27
1.0
 37
0.0
 76
     0
330
1F
  0
MLINESTYLE
  5
18
102
{ACAD_REACTORS
330
17
102
}
330
17
100
AcDbMlineStyle
  2
Standard
 70
     0
  3

 62
   256
 51
90.0
 52
90.0
 71
     2
 49
0.5
 62
   256
  6
BYLAYER
 49
-0.5
 62
   256
  6
BYLAYER
  0
ACDBPLACEHOLDER
  5
F
102
{ACAD_REACTORS
330
E
102
}
330
E
  0
ENDSEC
  0
EOF
