  0
SECTION
  2
HEADER
  9
$ACADVER
  1
AC1015
  9
$ACADMAINTVER
 70
     6
  9
$DWGCODEPAGE
  3
DOS932
  9
$INSBASE
 10
0.0
 20
0.0
 30
0.0
  9
$EXTMIN
 10
0.0
 20
0.0
 30
0.0
  9
$EXTMAX
 10
210.0
 20
297.0
 30
0.0
  9
$LIMMIN
 10
0.0
 20
0.0
  9
$LIMMAX
 10
0.0
 20
0.0
  9
$ORTHOMODE
 70
     0
  9
$REGENMODE
 70
     1
  9
$FILLMODE
 70
     1
  9
$QTEXTMODE
 70
     0
  9
$MIRRTEXT
 70
     1
  9
$LTSCALE
 40
1.0
  9
$ATTMODE
 70
     1
  9
$TEXTSIZE
 40
3.5
  9
$TRACEWID
 40
1.0
  9
$TEXTSTYLE
  7
Standard
  9
$CLAYER
  8
0
  9
$CELTYPE
  6
ByLayer
  9
$CECOLOR
 62
   256
  9
$CELTSCALE
 40
1.0
  9
$DISPSILH
 70
     0
  9
$DIMSCALE
 40
1.0
  9
$DIMASZ
 40
3.0
  9
$DIMEXO
 40
1.0
  9
$DIMDLI
 40
3.75
  9
$DIMRND
 40
0.0
  9
$DIMDLE
 40
0.0
  9
$DIMEXE
 40
1.0
  9
$DIMTP
 40
0.0
  9
$DIMTM
 40
0.0
  9
$DIMTXT
 40
3.5
  9
$DIMCEN
 40
2.5
  9
$DIMTSZ
 40
0.0
  9
$DIMTOL
 70
     0
  9
$DIMLIM
 70
     0
  9
$DIMTIH
 70
     1
  9
$DIMTOH
 70
     1
  9
$DIMSE1
 70
     0
  9
$DIMSE2
 70
     0
  9
$DIMTAD
 70
     1
  9
$DIMZIN
 70
     1
  9
$DIMBLK
  1

  9
$DIMASO
 70
     1
  9
$DIMSHO
 70
     1
  9
$DIMPOST
  1

  9
$DIMAPOST
  1

  9
$DIMALT
 70
     0
  9
$DIMALTD
 70
     3
  9
$DIMALTF
 40
0.0393700787
  9
$DIMLFAC
 40
1.0
  9
$DIMTOFL
 70
     1
  9
$DIMTVP
 40
0.0
  9
$DIMTIX
 70
     0
  9
$DIMSOXD
 70
     0
  9
$DIMSAH
 70
     0
  9
$DIMBLK1
  1

  9
$DIMBLK2
  1

  9
$DIMSTYLE
  2
ISO-25
  9
$DIMCLRD
 70
     0
  9
$DIMCLRE
 70
     0
  9
$DIMCLRT
 70
     0
  9
$DIMTFAC
 40
1.0
  9
$DIMGAP
 40
1.524
  9
$DIMJUST
 70
     0
  9
$DIMSD1
 70
     0
  9
$DIMSD2
 70
     0
  9
$DIMTOLJ
 70
     0
  9
$DIMTZIN
 70
     1
  9
$DIMALTZ
 70
     0
  9
$DIMALTTZ
 70
     0
  9
$DIMUPT
 70
     0
  9
$DIMDEC
 70
     2
  9
$DIMTDEC
 70
     2
  9
$DIMALTU
 70
     2
  9
$DIMALTTD
 70
     3
  9
$DIMTXSTY
  7
Standard
  9
$DIMAUNIT
 70
     0
  9
$DIMADEC
 70
     0
  9
$DIMALTRND
 40
0.0
  9
$DIMAZIN
 70
     0
  9
$DIMDSEP
 70
    44
  9
$DIMATFIT
 70
     3
  9
$DIMFRAC
 70
     0
  9
$DIMLDRBLK
  1

  9
$DIMLUNIT
 70
     2
  9
$DIMLWD
 70
    -2
  9
$DIMLWE
 70
    -2
  9
$DIMTMOVE
 70
     0
  9
$LUNITS
 70
     2
  9
$LUPREC
 70
     1
  9
$SKETCHINC
 40
1.0
  9
$FILLETRAD
 40
10.0
  9
$AUNITS
 70
     0
  9
$AUPREC
 70
     0
  9
$MENU
  1
.
  9
$ELEVATION
 40
0.0
  9
$PELEVATION
 40
0.0
  9
$THICKNESS
 40
0.0
  9
$LIMCHECK
 70
     0
  9
$CHAMFERA
 40
10.0
  9
$CHAMFERB
 40
10.0
  9
$CHAMFERC
 40
20.0
  9
$CHAMFERD
 40
0.0
  9
$SKPOLY
 70
     0
  9
$TDCREATE
 40
2454314.638474931
  9
$TDUCREATE
 40
2454314.263474931
  9
$TDUPDATE
 40
2454314.638474942
  9
$TDUUPDATE
 40
2454314.263474942
  9
$TDINDWG
 40
0.0000000116
  9
$TDUSRTIMER
 40
0.0000000116
  9
$USRTIMER
 70
     1
  9
$ANGBASE
 50
0.0
  9
$ANGDIR
 70
     0
  9
$PDMODE
 70
     0
  9
$PDSIZE
 40
-1.0
  9
$PLINEWID
 40
0.0
  9
$SPLFRAME
 70
     0
  9
$SPLINETYPE
 70
     6
  9
$SPLINESEGS
 70
     8
  9
$HANDSEED
  5
1B7
  9
$SURFTAB1
 70
     6
  9
$SURFTAB2
 70
     6
  9
$SURFTYPE
 70
     6
  9
$SURFU
 70
     6
  9
$SURFV
 70
     6
  9
$UCSBASE
  2

  9
$UCSNAME
  2

  9
$UCSORG
 10
0.0
 20
0.0
 30
0.0
  9
$UCSXDIR
 10
1.0
 20
0.0
 30
0.0
  9
$UCSYDIR
 10
0.0
 20
1.0
 30
0.0
  9
$UCSORTHOREF
  2

  9
$UCSORTHOVIEW
 70
     0
  9
$UCSORGTOP
 10
0.0
 20
0.0
 30
0.0
  9
$UCSORGBOTTOM
 10
0.0
 20
0.0
 30
0.0
  9
$UCSORGLEFT
 10
0.0
 20
0.0
 30
0.0
  9
$UCSORGRIGHT
 10
0.0
 20
0.0
 30
0.0
  9
$UCSORGFRONT
 10
0.0
 20
0.0
 30
0.0
  9
$UCSORGBACK
 10
0.0
 20
0.0
 30
0.0
  9
$PUCSBASE
  2

  9
$PUCSNAME
  2

  9
$PUCSORG
 10
0.0
 20
0.0
 30
0.0
  9
$PUCSXDIR
 10
1.0
 20
0.0
 30
0.0
  9
$PUCSYDIR
 10
0.0
 20
1.0
 30
0.0
  9
$PUCSORTHOREF
  2

  9
$PUCSORTHOVIEW
 70
     0
  9
$PUCSORGTOP
 10
0.0
 20
0.0
 30
0.0
  9
$PUCSORGBOTTOM
 10
0.0
 20
0.0
 30
0.0
  9
$PUCSORGLEFT
 10
0.0
 20
0.0
 30
0.0
  9
$PUCSORGRIGHT
 10
0.0
 20
0.0
 30
0.0
  9
$PUCSORGFRONT
 10
0.0
 20
0.0
 30
0.0
  9
$PUCSORGBACK
 10
0.0
 20
0.0
 30
0.0
  9
$USERI1
 70
     0
  9
$USERI2
 70
     0
  9
$USERI3
 70
     0
  9
$USERI4
 70
     0
  9
$USERI5
 70
     0
  9
$USERR1
 40
0.0
  9
$USERR2
 40
0.0
  9
$USERR3
 40
0.0
  9
$USERR4
 40
0.0
  9
$USERR5
 40
0.0
  9
$WORLDVIEW
 70
     1
  9
$SHADEDGE
 70
     3
  9
$SHADEDIF
 70
    70
  9
$TILEMODE
 70
     1
  9
$MAXACTVP
 70
    64
  9
$PINSBASE
 10
0.0
 20
0.0
 30
0.0
  9
$PLIMCHECK
 70
     0
  9
$PEXTMIN
 10
1.0000000000E+20
 20
1.0000000000E+20
 30
1.0000000000E+20
  9
$PEXTMAX
 10
-1.0000000000E+20
 20
-1.0000000000E+20
 30
-1.0000000000E+20
  9
$PLIMMIN
 10
0.0
 20
0.0
  9
$PLIMMAX
 10
420.0
 20
297.0
  9
$UNITMODE
 70
     0
  9
$VISRETAIN
 70
     1
  9
$PLINEGEN
 70
     0
  9
$PSLTSCALE
 70
     1
  9
$TREEDEPTH
 70
  3020
  9
$CMLSTYLE
  2
Standard
  9
$CMLJUST
 70
     0
  9
$CMLSCALE
 40
20.0
  9
$PROXYGRAPHICS
 70
     1
  9
$MEASUREMENT
 70
     1
  9
$CELWEIGHT
370
    -1
  9
$ENDCAPS
280
     0
  9
$JOINSTYLE
280
     0
  9
$LWDISPLAY
290
     1
  9
$INSUNITS
 70
     4
  9
$HYPERLINKBASE
  1

  9
$STYLESHEET
  1

  9
$XEDIT
290
     1
  9
$CEPSNTYPE
380
     0
  9
$PSTYLEMODE
290
     1
  9
$FINGERPRINTGUID
  2
{8D63EFA7-5F2E-426C-816A-FCBE9938C176}
  9
$VERSIONGUID
  2
{FAEB1C32-E019-11D5-929B-00C0DF256EC4}
  9
$EXTNAMES
290
     1
  9
$PSVPSCALE
 40
0.0
  9
$OLESTARTUP
290
     0
  0
ENDSEC
  0
SECTION
  2
CLASSES
  0
CLASS
  1
ACDBDICTIONARYWDFLT
  2
AcDbDictionaryWithDefault
  3
ObjectDBX Classes
 90
        0
280
     0
281
     0
  0
CLASS
  1
ACDBPLACEHOLDER
  2
AcDbPlaceHolder
  3
ObjectDBX Classes
 90
        0
280
     0
281
     0
  0
CLASS
  1
LAYOUT
  2
AcDbLayout
  3
ObjectDBX Classes
 90
        0
280
     0
281
     0
  0
ENDSEC
  0
SECTION
  2
TABLES
  0
TABLE
  2
VPORT
  5
8
330
0
100
AcDbSymbolTable
 70
     1
  0
VPORT
  5
29
330
8
100
AcDbSymbolTableRecord
100
AcDbViewportTableRecord
  2
*Active
 70
     0
 10
0.0
 20
0.0
 11
1.0
 21
1.0
 12
105.0
 22
148.5
 13
0.0
 23
0.0
 14
10.0
 24
10.0
 15
10.0
 25
10.0
 16
0.0
 26
0.0
 36
1.0
 17
0.0
 27
0.0
 37
0.0
 40
297.0
 41
1.9729729729
 42
50.0
 43
0.0
 44
0.0
 50
0.0
 51
0.0
 71
     0
 72
  2000
 73
     1
 74
     3
 75
     0
 76
     0
 77
     0
 78
     0
281
     0
 65
     1
110
0.0
120
0.0
130
0.0
111
1.0
121
0.0
131
0.0
112
0.0
122
1.0
132
0.0
 79
     0
146
0.0
  0
ENDTAB
  0
TABLE
  2
LTYPE
  5
5
330
0
100
AcDbSymbolTable
 70
     6
  0
LTYPE
  5
14
330
5
100
AcDbSymbolTableRecord
100
AcDbLinetypeTableRecord
  2
ByBlock
 70
     0
  3

 72
    65
 73
     0
 40
0.0
  0
LTYPE
  5
15
330
5
100
AcDbSymbolTableRecord
100
AcDbLinetypeTableRecord
  2
ByLayer
 70
     0
  3

 72
    65
 73
     0
 40
0.0
  0
LTYPE
  5
16
330
5
100
AcDbSymbolTableRecord
100
AcDbLinetypeTableRecord
  2
Continuous
 70
     0
  3
Solid line
 72
    65
 73
     0
 40
0.0
  0
LTYPE
  5
2A
330
5
100
AcDbSymbolTableRecord
100
AcDbLinetypeTableRecord
  2
HIDDEN
 70
     0
  3
Hidden __ __ __ __ __ __ __ __ __ __ __ __ __ __
 72
    65
 73
     2
 40
1.905
 49
1.27
 74
     0
 49
-0.635
 74
     0
  0
LTYPE
  5
2B
330
5
100
AcDbSymbolTableRecord
100
AcDbLinetypeTableRecord
  2
PHANTOM
 70
     0
  3
Phantom ______  __  __  ______  __  __  ______
 72
    65
 73
     6
 40
12.7
 49
6.35
 74
     0
 49
-1.27
 74
     0
 49
1.27
 74
     0
 49
-1.27
 74
     0
 49
1.27
 74
     0
 49
-1.27
 74
     0
  0
LTYPE
  5
2C
330
5
100
AcDbSymbolTableRecord
100
AcDbLinetypeTableRecord
  2
CENTER
 70
     0
  3
Center ____ _ ____ _ ____ _ ____ _ ____ _ ____
 72
    65
 73
     4
 40
10.16
 49
6.35
 74
     0
 49
-1.27
 74
     0
 49
1.27
 74
     0
 49
-1.27
 74
     0
  0
LTYPE
  5
2D
330
5
100
AcDbSymbolTableRecord
100
AcDbLinetypeTableRecord
  2
CENTERX2
 70
     0
  3
Center (2x) ________  __  ________  __  _____
 72
    65
 73
     4
 40
20.32
 49
12.7
 74
     0
 49
-2.54
 74
     0
 49
2.54
 74
     0
 49
-2.54
 74
     0
  0
LTYPE
  5
2E
330
5
100
AcDbSymbolTableRecord
100
AcDbLinetypeTableRecord
  2
DOT2
 70
     0
  3
Dot (.5x) ........................................
 72
    65
 73
     2
 40
0.635
 49
0.0
 74
     0
 49
-0.635
 74
     0
  0
ENDTAB
  0
TABLE
  2
LAYER
  5
2
330
0
100
AcDbSymbolTable
 70
     4
  0
LAYER
  5
10
330
2
100
AcDbSymbolTableRecord
100
AcDbLayerTableRecord
  2
0
 70
     0
 62
     7
  6
Continuous
370
    -3
390
F
  0
LAYER
  5
2F
330
2
100
AcDbSymbolTableRecord
100
AcDbLayerTableRecord
  2
SLD-0
 70
     0
 62
   179
  6
Continuous
370
     0
390
F
  0
LAYER
  5
30
330
2
100
AcDbSymbolTableRecord
100
AcDbLayerTableRecord
  2
SLD-DEFPOINTS
 70
     0
 62
   179
  6
Continuous
370
     0
390
F
  0
LAYER
  5
A1
330
2
100
AcDbSymbolTableRecord
100
AcDbLayerTableRecord
  2
Defpoints
 70
     0
 62
     7
  6
Continuous
290
     0
370
    -3
390
F
  0
ENDTAB
  0
TABLE
  2
STYLE
  5
3
330
0
100
AcDbSymbolTable
 70
     4
  0
STYLE
  5
11
330
3
100
AcDbSymbolTableRecord
100
AcDbTextStyleTableRecord
  2
Standard
 70
     0
 40
0.0
 41
1.0
 50
0.0
 71
     0
 42
2.5
  3
txt
  4
bigfont
  0
STYLE
  5
34
330
3
100
AcDbSymbolTableRecord
100
AcDbTextStyleTableRecord
  2
SLDTEXTSTYLE0
 70
     0
 40
0.0
 41
0.7
 50
0.0
 71
     0
 42
0.2
  3
TXT
  4
bigfont
  0
STYLE
  5
3C
330
3
100
AcDbSymbolTableRecord
100
AcDbTextStyleTableRecord
  2
SLDTEXTSTYLE1
 70
     0
 40
0.0
 41
0.5526315789
 50
0.0
 71
     0
 42
0.2
  3
TXT
  4
bigfont
  0
STYLE
  5
1AC
330
3
100
AcDbSymbolTableRecord
100
AcDbTextStyleTableRecord
  2
SLDTEXTSTYLE2
 70
     0
 40
0.0
 41
0.4886865954
 50
0.0
 71
     0
 42
0.2
  3
TXT
  4
bigfont
  0
ENDTAB
  0
TABLE
  2
VIEW
  5
6
330
0
100
AcDbSymbolTable
 70
     0
  0
ENDTAB
  0
TABLE
  2
UCS
  5
7
330
0
100
AcDbSymbolTable
 70
     0
  0
ENDTAB
  0
TABLE
  2
APPID
  5
9
330
0
100
AcDbSymbolTable
 70
     1
  0
APPID
  5
12
330
9
100
AcDbSymbolTableRecord
100
AcDbRegAppTableRecord
  2
ACAD
 70
     0
  0
ENDTAB
  0
TABLE
  2
DIMSTYLE
  5
A
330
0
100
AcDbSymbolTable
 70
     4
100
AcDbDimStyleTable
  0
DIMSTYLE
105
27
330
A
100
AcDbSymbolTableRecord
100
AcDbDimStyleTableRecord
  2
ISO-25
 70
     0
 41
2.5
 42
0.625
 43
3.75
 44
1.25
 73
     0
 74
     0
 77
     1
 78
     8
140
2.5
141
2.5
143
0.0393700787
147
0.625
171
     3
172
     1
271
     2
272
     2
274
     3
278
    44
283
     0
284
     8
340
11
  0
DIMSTYLE
105
B1
102
{ACAD_REACTORS
330
A0
330
DC
330
F6
330
10E
330
149
330
161
330
17B
330
192
102
}
330
A
100
AcDbSymbolTableRecord
100
AcDbDimStyleTableRecord
  2
SLDDIMSTYLE0
 70
     0
 41
3.0
 44
0.0
 73
     0
 74
     0
 77
     3
 78
    12
140
3.5
147
0.875
173
     1
271
     0
272
     3
284
    12
340
3C
341
B2
343
B2
344
B2
  0
DIMSTYLE
105
CE
102
{ACAD_REACTORS
330
C1
102
}
330
A
100
AcDbSymbolTableRecord
100
AcDbDimStyleTableRecord
  2
SLDDIMSTYLE1
 70
     0
 41
3.0
 44
0.0
 47
0.1
 71
     1
 73
     0
 74
     0
 77
     3
 78
    12
140
3.5
147
0.875
173
     1
271
     0
272
     1
340
3C
341
B2
343
B2
344
B2
  0
DIMSTYLE
105
138
102
{ACAD_REACTORS
330
129
102
}
330
A
100
AcDbSymbolTableRecord
100
AcDbDimStyleTableRecord
  2
SLDDIMSTYLE2
 70
     0
 41
3.0
 44
0.0
 48
0.05
 71
     1
 73
     0
 74
     0
 77
     3
 78
    12
140
3.5
147
0.875
173
     1
271
     0
272
     2
340
3C
341
B2
343
B2
344
B2
  0
ENDTAB
  0
TABLE
  2
BLOCK_RECORD
  5
1
330
0
100
AcDbSymbolTable
 70
    20
  0
BLOCK_RECORD
  5
1F
330
1
100
AcDbSymbolTableRecord
100
AcDbBlockTableRecord
  2
*Model_Space
340
22
  0
BLOCK_RECORD
  5
1B
330
1
100
AcDbSymbolTableRecord
100
AcDbBlockTableRecord
  2
*Paper_Space
340
1E
  0
BLOCK_RECORD
  5
23
330
1
100
AcDbSymbolTableRecord
100
AcDbBlockTableRecord
  2
*Paper_Space0
340
26
  0
BLOCK_RECORD
  5
31
330
1
100
AcDbSymbolTableRecord
100
AcDbBlockTableRecord
  2
注記
340
0
102
{BLKREFS
331
1B1
102
}
  0
BLOCK_RECORD
  5
37
330
1
100
AcDbSymbolTableRecord
100
AcDbBlockTableRecord
  2
SURFACEFINISH40
340
0
102
{BLKREFS
331
1AF
102
}
  0
BLOCK_RECORD
  5
3E
330
1
100
AcDbSymbolTableRecord
100
AcDbBlockTableRecord
  2
SURFACEFINISH41
340
0
102
{BLKREFS
331
1B0
102
}
  0
BLOCK_RECORD
  5
45
330
1
100
AcDbSymbolTableRecord
100
AcDbBlockTableRecord
  2
NOTE42
340
0
102
{BLKREFS
331
1B2
102
}
  0
BLOCK_RECORD
  5
4C
330
1
100
AcDbSymbolTableRecord
100
AcDbBlockTableRecord
  2
SURFACEFINISH43
340
0
102
{BLKREFS
331
1B3
102
}
  0
BLOCK_RECORD
  5
54
330
1
100
AcDbSymbolTableRecord
100
AcDbBlockTableRecord
  2
SURFACEFINISH44
340
0
102
{BLKREFS
331
1B4
102
}
  0
BLOCK_RECORD
  5
5C
330
1
100
AcDbSymbolTableRecord
100
AcDbBlockTableRecord
  2
SURFACEFINISH45
340
0
102
{BLKREFS
331
1B5
102
}
  0
BLOCK_RECORD
  5
64
330
1
100
AcDbSymbolTableRecord
100
AcDbBlockTableRecord
  2
SW_CENTERMARK0
340
0
102
{BLKREFS
331
1B6
102
}
  0
BLOCK_RECORD
  5
A2
330
1
100
AcDbSymbolTableRecord
100
AcDbBlockTableRecord
  2
*D9
340
0
  0
BLOCK_RECORD
  5
B2
330
1
100
AcDbSymbolTableRecord
100
AcDbBlockTableRecord
  2
_None
340
0
102
{BLKREFS
331
A8
331
A7
331
C7
331
C6
331
E2
331
E1
331
FC
331
FB
331
115
331
114
331
130
331
12F
331
14F
331
14E
331
167
331
166
331
181
331
180
331
198
331
197
102
}
  0
BLOCK_RECORD
  5
C2
330
1
100
AcDbSymbolTableRecord
100
AcDbBlockTableRecord
  2
*D11
340
0
  0
BLOCK_RECORD
  5
DD
330
1
100
AcDbSymbolTableRecord
100
AcDbBlockTableRecord
  2
*D12
340
0
  0
BLOCK_RECORD
  5
F7
330
1
100
AcDbSymbolTableRecord
100
AcDbBlockTableRecord
  2
*D13
340
0
  0
BLOCK_RECORD
  5
10F
330
1
100
AcDbSymbolTableRecord
100
AcDbBlockTableRecord
  2
*D14
340
0
  0
BLOCK_RECORD
  5
12A
330
1
100
AcDbSymbolTableRecord
100
AcDbBlockTableRecord
  2
*D15
340
0
  0
BLOCK_RECORD
  5
14A
330
1
100
AcDbSymbolTableRecord
100
AcDbBlockTableRecord
  2
*D16
340
0
  0
BLOCK_RECORD
  5
162
330
1
100
AcDbSymbolTableRecord
100
AcDbBlockTableRecord
  2
*D17
340
0
  0
BLOCK_RECORD
  5
17C
330
1
100
AcDbSymbolTableRecord
100
AcDbBlockTableRecord
  2
*D18
340
0
  0
BLOCK_RECORD
  5
193
330
1
100
AcDbSymbolTableRecord
100
AcDbBlockTableRecord
  2
*D19
340
0
  0
ENDTAB
  0
ENDSEC
  0
SECTION
  2
BLOCKS
  0
BLOCK
  5
20
330
1F
100
AcDbEntity
  8
0
100
AcDbBlockBegin
  2
*Model_Space
 70
     0
 71
     0
 10
0.0
 20
0.0
 30
0.0
  3
*Model_Space
  1

  0
ENDBLK
  5
21
330
1F
100
AcDbEntity
  8
0
100
AcDbBlockEnd
  0
BLOCK
  5
1C
330
1B
100
AcDbEntity
 67
     1
  8
0
100
AcDbBlockBegin
  2
*Paper_Space
 70
     0
 71
     0
 10
0.0
 20
0.0
 30
0.0
  3
*Paper_Space
  1

  0
ENDBLK
  5
1D
330
1B
100
AcDbEntity
 67
     1
  8
0
100
AcDbBlockEnd
  0
BLOCK
  5
24
330
23
100
AcDbEntity
  8
0
100
AcDbBlockBegin
  2
*Paper_Space0
 70
     0
 71
     0
 10
0.0
 20
0.0
 30
0.0
  3
*Paper_Space0
  1

  0
ENDBLK
  5
25
330
23
100
AcDbEntity
  8
0
100
AcDbBlockEnd
  0
BLOCK
  5
32
330
31
100
AcDbEntity
  8
0
100
AcDbBlockBegin
  2
注記
 70
     0
 71
     0
 10
0.0
 20
0.0
 30
0.0
  3
注記
  1

  0
MTEXT
  5
35
330
31
100
AcDbEntity
  8
0
  6
Continuous
 62
     7
370
     0
100
AcDbMText
 10
0.2636785918
 20
9.0739778448
 30
0.0
 40
3.5
 41
0.0
 71
     1
 72
     1
  1
１．特記ナキ角部ハ、バリ　カエリノ無キコト。
  7
SLDTEXTSTYLE0
 73
     1
 44
1.0
  0
MTEXT
  5
36
330
31
100
AcDbEntity
  8
0
  6
Continuous
 62
     7
370
     0
100
AcDbMText
 10
0.2636785918
 20
3.5759549983
 30
0.0
 40
3.5
 41
0.0
 71
     1
 72
     1
  1
２．特記ナキ隅部ハ、Ｒ０．４ＭＡＸトスル。
  7
SLDTEXTSTYLE0
 73
     1
 44
1.0
  0
ENDBLK
  5
33
330
31
100
AcDbEntity
  8
0
100
AcDbBlockEnd
  0
BLOCK
  5
38
330
37
100
AcDbEntity
  8
0
100
AcDbBlockBegin
  2
SURFACEFINISH40
 70
     0
 71
     0
 10
0.0
 20
0.0
 30
0.0
  3
SURFACEFINISH40
  1

  0
LINE
  5
3A
330
37
100
AcDbEntity
  8
SLD-0
  6
Continuous
 62
   179
100
AcDbLine
 10
0.6656399396
 20
-6.0449245738
 30
0.0
 11
-2.9003789868
 21
0.0000001164
 31
0.0
  0
LINE
  5
3B
330
37
100
AcDbEntity
  8
SLD-0
  6
Continuous
 62
   179
100
AcDbLine
 10
0.6656399396
 20
-6.0449245738
 30
0.0
 11
7.7976777926
 21
6.0449248066
 31
0.0
  0
MTEXT
  5
3D
330
37
100
AcDbEntity
  8
SLD-0
100
AcDbMText
 10
0.0
 20
4.9341236929
 30
0.0
 40
3.175
 41
0.0
 71
     1
 72
     1
  1
25
  7
SLDTEXTSTYLE1
 73
     1
 44
1.0
  0
ENDBLK
  5
39
330
37
100
AcDbEntity
  8
0
100
AcDbBlockEnd
  0
BLOCK
  5
3F
330
3E
100
AcDbEntity
  8
0
100
AcDbBlockBegin
  2
SURFACEFINISH41
 70
     0
 71
     0
 10
0.0
 20
0.0
 30
0.0
  3
SURFACEFINISH41
  1

  0
LINE
  5
41
330
3E
100
AcDbEntity
  8
SLD-0
  6
Continuous
 62
   179
100
AcDbLine
 10
2.7814693727
 20
-6.0449245738
 30
0.0
 11
-0.7845495538
 21
0.0000001164
 31
0.0
  0
LINE
  5
42
330
3E
100
AcDbEntity
  8
SLD-0
  6
Continuous
 62
   179
100
AcDbLine
 10
6.3474882992
 20
0.0000001164
 30
0.0
 11
-0.7845495538
 21
0.0000001164
 31
0.0
  0
LINE
  5
43
330
3E
100
AcDbEntity
  8
SLD-0
  6
Continuous
 62
   179
100
AcDbLine
 10
2.7814693727
 20
-6.0449245738
 30
0.0
 11
9.9135072256
 21
6.0449248066
 31
0.0
  0
MTEXT
  5
44
330
3E
100
AcDbEntity
  8
SLD-0
100
AcDbMText
 10
0.0
 20
4.9341236929
 30
0.0
 40
3.175
 41
0.0
 71
     1
 72
     1
  1
6.3
  7
SLDTEXTSTYLE1
 73
     1
 44
1.0
  0
ENDBLK
  5
40
330
3E
100
AcDbEntity
  8
0
100
AcDbBlockEnd
  0
BLOCK
  5
46
330
45
100
AcDbEntity
  8
0
100
AcDbBlockBegin
  2
NOTE42
 70
     0
 71
     0
 10
0.0
 20
0.0
 30
0.0
  3
NOTE42
  1

  0
MTEXT
  5
48
330
45
100
AcDbEntity
  8
SLD-0
100
AcDbMText
 10
-38.2886643014
 20
3.933593734
 30
0.0
 40
3.5
 41
0.0
 71
     1
 72
     1
  1
O
  7
SLDTEXTSTYLE1
 73
     1
 44
1.0
  0
MTEXT
  5
49
330
45
100
AcDbEntity
  8
SLD-0
100
AcDbMText
 10
-34.4187337863
 20
3.933593734
 30
0.0
 40
3.5
 41
0.0
 71
     1
 72
     1
  1
4.5,
  7
SLDTEXTSTYLE1
 73
     1
 44
1.0
  0
MTEXT
  5
4A
330
45
100
AcDbEntity
  8
SLD-0
100
AcDbMText
 10
-26.2715120292
 20
3.933593734
 30
0.0
 40
3.5
 41
0.0
 71
     1
 72
     1
  1
O
  7
SLDTEXTSTYLE1
 73
     1
 44
1.0
  0
MTEXT
  5
4B
330
45
100
AcDbEntity
  8
SLD-0
100
AcDbMText
 10
-22.4015808156
 20
3.933593734
 30
0.0
 40
3.5
 41
0.0
 71
     1
 72
     1
  1
8ｻﾞｸﾞﾘ深4.5
  7
SLDTEXTSTYLE1
 73
     1
 44
1.0
  0
ENDBLK
  5
47
330
45
100
AcDbEntity
  8
0
100
AcDbBlockEnd
  0
BLOCK
  5
4D
330
4C
100
AcDbEntity
  8
0
100
AcDbBlockBegin
  2
SURFACEFINISH43
 70
     0
 71
     0
 10
0.0
 20
0.0
 30
0.0
  3
SURFACEFINISH43
  1

  0
LINE
  5
4F
330
4C
100
AcDbEntity
  8
SLD-0
  6
Continuous
 62
   179
100
AcDbLine
 10
-6.8510557915
 20
-5.3147648728
 30
0.0
 11
-6.8510557915
 21
3.377345951
 31
0.0
  0
LINE
  5
50
330
4C
100
AcDbEntity
  8
SLD-0
  6
Continuous
 62
   179
100
AcDbLine
 10
-6.8510557915
 20
2.377345951
 30
0.0
 11
-2.821105998
 21
4.754691902
 31
0.0
  0
LINE
  5
51
330
4C
100
AcDbEntity
  8
SLD-0
  6
Continuous
 62
   179
100
AcDbLine
 10
-2.821105998
 20
0.0
 30
0.0
 11
-2.821105998
 21
4.754691902
 31
0.0
  0
LINE
  5
52
330
4C
100
AcDbEntity
  8
SLD-0
  6
Continuous
 62
   179
100
AcDbLine
 10
-6.8510557915
 20
2.377345951
 30
0.0
 11
1.2088437954
 21
-2.377345951
 31
0.0
  0
MTEXT
  5
53
330
4C
100
AcDbEntity
  8
SLD-0
100
AcDbMText
 10
-2.9130973836
 20
0.0
 30
0.0
 40
2.1166666667
 41
0.0
 71
     1
 72
     1
  1
6.3
  7
SLDTEXTSTYLE1
 11
6.123031769111886E-17
 21
1.0
 31
0.0
 73
     1
 44
1.0
  0
ENDBLK
  5
4E
330
4C
100
AcDbEntity
  8
0
100
AcDbBlockEnd
  0
BLOCK
  5
55
330
54
100
AcDbEntity
  8
0
100
AcDbBlockBegin
  2
SURFACEFINISH44
 70
     0
 71
     0
 10
0.0
 20
0.0
 30
0.0
  3
SURFACEFINISH44
  1

  0
LINE
  5
57
330
54
100
AcDbEntity
  8
SLD-0
  6
Continuous
 62
   179
100
AcDbLine
 10
4.0299497062
 20
-5.2114092887
 30
0.0
 11
4.0299497062
 21
2.8543129151
 31
0.0
  0
LINE
  5
58
330
54
100
AcDbEntity
  8
SLD-0
  6
Continuous
 62
   179
100
AcDbLine
 10
4.0299497062
 20
1.8543129151
 30
0.0
 11
-0.0000000873
 21
-0.5230330359
 31
0.0
  0
LINE
  5
59
330
54
100
AcDbEntity
  8
SLD-0
  6
Continuous
 62
   179
100
AcDbLine
 10
-0.0000000873
 20
4.2316588661
 30
0.0
 11
-0.0000000873
 21
-0.5230330359
 31
0.0
  0
LINE
  5
5A
330
54
100
AcDbEntity
  8
SLD-0
  6
Continuous
 62
   179
100
AcDbLine
 10
4.0299497062
 20
1.8543129151
 30
0.0
 11
-4.0299498808
 21
6.6090048171
 31
0.0
  0
MTEXT
  5
5B
330
54
100
AcDbEntity
  8
SLD-0
100
AcDbMText
 10
-2.9130973836
 20
0.0
 30
0.0
 40
2.1166666667
 41
0.0
 71
     1
 72
     1
  1
6.3
  7
SLDTEXTSTYLE1
 11
6.123031769111886E-17
 21
1.0
 31
0.0
 73
     1
 44
1.0
  0
ENDBLK
  5
56
330
54
100
AcDbEntity
  8
0
100
AcDbBlockEnd
  0
BLOCK
  5
5D
330
5C
100
AcDbEntity
  8
0
100
AcDbBlockBegin
  2
SURFACEFINISH45
 70
     0
 71
     0
 10
0.0
 20
0.0
 30
0.0
  3
SURFACEFINISH45
  1

  0
LINE
  5
5F
330
5C
100
AcDbEntity
  8
SLD-0
  6
Continuous
 62
   179
100
AcDbLine
 10
4.0299497062
 20
10.3939942061
 30
0.0
 11
4.0299497062
 21
0.8543129151
 31
0.0
  0
LINE
  5
60
330
5C
100
AcDbEntity
  8
SLD-0
  6
Continuous
 62
   179
100
AcDbLine
 10
4.0299497062
 20
1.8543129151
 30
0.0
 11
-0.0000000873
 21
-0.5230330359
 31
0.0
  0
LINE
  5
61
330
5C
100
AcDbEntity
  8
SLD-0
  6
Continuous
 62
   179
100
AcDbLine
 10
-0.0000000873
 20
4.2316588661
 30
0.0
 11
-0.0000000873
 21
-0.5230330359
 31
0.0
  0
LINE
  5
62
330
5C
100
AcDbEntity
  8
SLD-0
  6
Continuous
 62
   179
100
AcDbLine
 10
4.0299497062
 20
1.8543129151
 30
0.0
 11
-4.0299498808
 21
6.6090048171
 31
0.0
  0
MTEXT
  5
63
330
5C
100
AcDbEntity
  8
SLD-0
100
AcDbMText
 10
-2.9130973836
 20
0.0
 30
0.0
 40
2.1166666667
 41
0.0
 71
     1
 72
     1
  1
6.3
  7
SLDTEXTSTYLE1
 11
6.123031769111886E-17
 21
1.0
 31
0.0
 73
     1
 44
1.0
  0
ENDBLK
  5
5E
330
5C
100
AcDbEntity
  8
0
100
AcDbBlockEnd
  0
BLOCK
  5
65
330
64
100
AcDbEntity
  8
0
100
AcDbBlockBegin
  2
SW_CENTERMARK0
 70
     0
 71
     0
 10
0.0
 20
0.0
 30
0.0
  3
SW_CENTERMARK0
  1

  0
LINE
  5
67
330
64
100
AcDbEntity
  8
SLD-0
  6
Continuous
 62
   179
100
AcDbLine
 10
102.920017054
 20
194.7653567219
 30
0.0
 11
102.920017054
 21
197.2653567219
 31
0.0
  0
LINE
  5
68
330
64
100
AcDbEntity
  8
SLD-0
  6
Continuous
 62
   179
100
AcDbLine
 10
102.920017054
 20
194.7653567219
 30
0.0
 11
100.420017054
 21
194.7653567219
 31
0.0
  0
LINE
  5
69
330
64
100
AcDbEntity
  8
SLD-0
  6
Continuous
 62
   179
100
AcDbLine
 10
102.920017054
 20
194.7653567219
 30
0.0
 11
102.920017054
 21
192.2653567219
 31
0.0
  0
LINE
  5
6A
330
64
100
AcDbEntity
  8
SLD-0
  6
Continuous
 62
   179
100
AcDbLine
 10
102.920017054
 20
194.7653567219
 30
0.0
 11
105.420017054
 21
194.7653567219
 31
0.0
  0
LINE
  5
6B
330
64
100
AcDbEntity
  8
SLD-0
  6
Continuous
 62
   179
100
AcDbLine
 10
102.920017054
 20
199.7653567219
 30
0.0
 11
102.920017054
 21
203.2653567219
 31
0.0
  0
LINE
  5
6C
330
64
100
AcDbEntity
  8
SLD-0
  6
Continuous
 62
   179
100
AcDbLine
 10
97.920017054
 20
194.7653567219
 30
0.0
 11
94.420017054
 21
194.7653567219
 31
0.0
  0
LINE
  5
6D
330
64
100
AcDbEntity
  8
SLD-0
  6
Continuous
 62
   179
100
AcDbLine
 10
102.920017054
 20
189.7653567219
 30
0.0
 11
102.920017054
 21
186.2653567219
 31
0.0
  0
LINE
  5
6E
330
64
100
AcDbEntity
  8
SLD-0
  6
Continuous
 62
   179
100
AcDbLine
 10
107.920017054
 20
194.7653567219
 30
0.0
 11
111.420017054
 21
194.7653567219
 31
0.0
  0
ENDBLK
  5
66
330
64
100
AcDbEntity
  8
0
100
AcDbBlockEnd
  0
BLOCK
  5
AF
330
A2
100
AcDbEntity
  8
0
100
AcDbBlockBegin
  2
*D9
 70
     1
 71
     0
 10
0.0
 20
0.0
 30
0.0
  3
*D9
  1

  0
LINE
  5
B5
330
A2
100
AcDbEntity
  8
SLD-0
 62
     7
100
AcDbLine
 10
89.920017054
 20
151.3585114141
 30
0.0
 11
89.920017054
 21
167.5778160682
 31
0.0
  0
LINE
  5
B6
330
A2
100
AcDbEntity
  8
SLD-0
 62
     7
100
AcDbLine
 10
92.920017054
 20
151.3585114141
 30
0.0
 11
92.920017054
 21
167.5778160682
 31
0.0
  0
LINE
  5
B7
330
A2
100
AcDbEntity
  8
SLD-0
 62
     7
100
AcDbLine
 10
89.920017054
 20
166.5778160682
 30
0.0
 11
80.7620882875
 21
166.5778160682
 31
0.0
  0
LINE
  5
B8
330
A2
100
AcDbEntity
  8
SLD-0
 62
     7
100
AcDbLine
 10
89.920017054
 20
166.5778160682
 30
0.0
 11
92.920017054
 21
166.5778160682
 31
0.0
  0
LINE
  5
B9
330
A2
100
AcDbEntity
  8
SLD-0
 62
     7
100
AcDbLine
 10
92.920017054
 20
166.5778160682
 30
0.0
 11
97.920017054
 21
166.5778160682
 31
0.0
  0
LINE
  5
BA
330
A2
100
AcDbEntity
  8
SLD-0
 62
     7
100
AcDbLine
 10
86.920017054
 20
167.3816630682
 30
0.0
 11
89.920017054
 21
166.5778160682
 31
0.0
  0
LINE
  5
BB
330
A2
100
AcDbEntity
  8
SLD-0
 62
     7
100
AcDbLine
 10
89.920017054
 20
166.5778160682
 30
0.0
 11
86.920017054
 21
165.7739690682
 31
0.0
  0
LINE
  5
BC
330
A2
100
AcDbEntity
  8
SLD-0
 62
     7
100
AcDbLine
 10
89.920017054
 20
166.5778160682
 30
0.0
 11
86.920017054
 21
166.5778160682
 31
0.0
  0
LINE
  5
BD
330
A2
100
AcDbEntity
  8
SLD-0
 62
     7
100
AcDbLine
 10
95.920017054
 20
165.7739690682
 30
0.0
 11
92.920017054
 21
166.5778160682
 31
0.0
  0
LINE
  5
BE
330
A2
100
AcDbEntity
  8
SLD-0
 62
     7
100
AcDbLine
 10
92.920017054
 20
166.5778160682
 30
0.0
 11
95.920017054
 21
167.3816630682
 31
0.0
  0
LINE
  5
BF
330
A2
100
AcDbEntity
  8
SLD-0
 62
     7
100
AcDbLine
 10
92.920017054
 20
166.5778160682
 30
0.0
 11
95.920017054
 21
166.5778160682
 31
0.0
  0
MTEXT
  5
C0
330
A2
100
AcDbEntity
  8
SLD-0
 62
     7
100
AcDbMText
 10
82.3495882875
 20
171.1045097641
 30
0.1
 40
3.5
 41
0.0
 71
     1
 72
     1
  1
3
  7
SLDTEXTSTYLE0
 73
     1
 44
1.0
  0
ENDBLK
  5
B0
330
A2
100
AcDbEntity
  8
0
100
AcDbBlockEnd
  0
BLOCK
  5
B3
330
B2
100
AcDbEntity
  8
0
100
AcDbBlockBegin
  2
_None
 70
     0
 71
     0
 10
0.0
 20
0.0
 30
0.0
  3
_None
  1

  0
ENDBLK
  5
B4
330
B2
100
AcDbEntity
  8
0
100
AcDbBlockEnd
  0
BLOCK
  5
CC
330
C2
100
AcDbEntity
  8
0
100
AcDbBlockBegin
  2
*D11
 70
     1
 71
     0
 10
0.0
 20
0.0
 30
0.0
  3
*D11
  1

  0
LINE
  5
CF
330
C2
100
AcDbEntity
  8
SLD-0
 62
     7
100
AcDbLine
 10
112.920017054
 20
151.3585114141
 30
0.0
 11
112.920017054
 21
167.5778160682
 31
0.0
  0
LINE
  5
D0
330
C2
100
AcDbEntity
  8
SLD-0
 62
     7
100
AcDbLine
 10
92.920017054
 20
151.3585114141
 30
0.0
 11
92.920017054
 21
167.5778160682
 31
0.0
  0
LINE
  5
D1
330
C2
100
AcDbEntity
  8
SLD-0
 62
     7
100
AcDbLine
 10
112.920017054
 20
166.5778160682
 30
0.0
 11
92.920017054
 21
166.5778160682
 31
0.0
  0
LINE
  5
D2
330
C2
100
AcDbEntity
  8
SLD-0
 62
     7
100
AcDbLine
 10
109.920017054
 20
167.3816630682
 30
0.0
 11
112.920017054
 21
166.5778160682
 31
0.0
  0
LINE
  5
D3
330
C2
100
AcDbEntity
  8
SLD-0
 62
     7
100
AcDbLine
 10
112.920017054
 20
166.5778160682
 30
0.0
 11
109.920017054
 21
165.7739690682
 31
0.0
  0
LINE
  5
D4
330
C2
100
AcDbEntity
  8
SLD-0
 62
     7
100
AcDbLine
 10
112.920017054
 20
166.5778160682
 30
0.0
 11
109.920017054
 21
166.5778160682
 31
0.0
  0
LINE
  5
D5
330
C2
100
AcDbEntity
  8
SLD-0
 62
     7
100
AcDbLine
 10
95.920017054
 20
165.7739690682
 30
0.0
 11
92.920017054
 21
166.5778160682
 31
0.0
  0
LINE
  5
D6
330
C2
100
AcDbEntity
  8
SLD-0
 62
     7
100
AcDbLine
 10
92.920017054
 20
166.5778160682
 30
0.0
 11
95.920017054
 21
167.3816630682
 31
0.0
  0
LINE
  5
D7
330
C2
100
AcDbEntity
  8
SLD-0
 62
     7
100
AcDbLine
 10
92.920017054
 20
166.5778160682
 30
0.0
 11
95.920017054
 21
166.5778160682
 31
0.0
  0
MTEXT
  5
D8
330
C2
100
AcDbEntity
  8
SLD-0
 62
     7
100
AcDbMText
 10
97.8314289961
 20
171.1045097641
 30
0.1
 40
3.5
 41
0.0
 71
     1
 72
     1
  1
20
  7
SLDTEXTSTYLE0
 73
     1
 44
1.0
  0
MTEXT
  5
D9
330
C2
100
AcDbEntity
  8
SLD-0
 62
     7
100
AcDbMText
 10
104.3433599973
 20
169.9080359384
 30
0.1
 40
2.1
 41
0.0
 71
     1
 72
     1
  1
0
  7
SLDTEXTSTYLE0
 73
     1
 44
1.0
  0
MTEXT
  5
DA
330
C2
100
AcDbEntity
  8
SLD-0
 62
     7
100
AcDbMText
 10
103.1228297198
 20
172.3490964933
 30
0.1
 40
2.1
 41
0.0
 71
     1
 72
     1
  1
+
  7
SLDTEXTSTYLE0
 73
     1
 44
1.0
  0
MTEXT
  5
DB
330
C2
100
AcDbEntity
  8
SLD-0
 62
     7
100
AcDbMText
 10
104.3433599973
 20
172.3490964933
 30
0.1
 40
2.1
 41
0.0
 71
     1
 72
     1
  1
0.1
  7
SLDTEXTSTYLE0
 73
     1
 44
1.0
  0
ENDBLK
  5
CD
330
C2
100
AcDbEntity
  8
0
100
AcDbBlockEnd
  0
BLOCK
  5
E8
330
DD
100
AcDbEntity
  8
0
100
AcDbBlockBegin
  2
*D12
 70
     1
 71
     0
 10
0.0
 20
0.0
 30
0.0
  3
*D12
  1

  0
LINE
  5
EA
330
DD
100
AcDbEntity
  8
SLD-0
 62
     7
100
AcDbLine
 10
116.920017054
 20
150.3585114141
 30
0.0
 11
135.6951822426
 21
150.3585114141
 31
0.0
  0
LINE
  5
EB
330
DD
100
AcDbEntity
  8
SLD-0
 62
     7
100
AcDbLine
 10
116.920017054
 20
142.3585114141
 30
0.0
 11
135.6951822426
 21
142.3585114141
 31
0.0
  0
LINE
  5
EC
330
DD
100
AcDbEntity
  8
SLD-0
 62
     7
100
AcDbLine
 10
134.6951822426
 20
150.3585114141
 30
0.0
 11
134.6951822426
 21
155.3585114141
 31
0.0
  0
LINE
  5
ED
330
DD
100
AcDbEntity
  8
SLD-0
 62
     7
100
AcDbLine
 10
134.6951822426
 20
150.3585114141
 30
0.0
 11
134.6951822426
 21
142.3585114141
 31
0.0
  0
LINE
  5
EE
330
DD
100
AcDbEntity
  8
SLD-0
 62
     7
100
AcDbLine
 10
134.6951822426
 20
142.3585114141
 30
0.0
 11
134.6951822426
 21
137.3585114141
 31
0.0
  0
LINE
  5
EF
330
DD
100
AcDbEntity
  8
SLD-0
 62
     7
100
AcDbLine
 10
135.4990292426
 20
153.3585114141
 30
0.0
 11
134.6951822426
 21
150.3585114141
 31
0.0
  0
LINE
  5
F0
330
DD
100
AcDbEntity
  8
SLD-0
 62
     7
100
AcDbLine
 10
134.6951822426
 20
150.3585114141
 30
0.0
 11
133.8913352426
 21
153.3585114141
 31
0.0
  0
LINE
  5
F1
330
DD
100
AcDbEntity
  8
SLD-0
 62
     7
100
AcDbLine
 10
134.6951822426
 20
150.3585114141
 30
0.0
 11
134.6951822426
 21
153.3585114141
 31
0.0
  0
LINE
  5
F2
330
DD
100
AcDbEntity
  8
SLD-0
 62
     7
100
AcDbLine
 10
133.8913352426
 20
139.3585114141
 30
0.0
 11
134.6951822426
 21
142.3585114141
 31
0.0
  0
LINE
  5
F3
330
DD
100
AcDbEntity
  8
SLD-0
 62
     7
100
AcDbLine
 10
134.6951822426
 20
142.3585114141
 30
0.0
 11
135.4990292426
 21
139.3585114141
 31
0.0
  0
LINE
  5
F4
330
DD
100
AcDbEntity
  8
SLD-0
 62
     7
100
AcDbLine
 10
134.6951822426
 20
142.3585114141
 30
0.0
 11
134.6951822426
 21
139.3585114141
 31
0.0
  0
MTEXT
  5
F5
330
DD
100
AcDbEntity
  8
SLD-0
 62
     7
100
AcDbMText
 10
130.1684885467
 20
145.3407938025
 30
0.1
 40
3.5
 41
0.0
 71
     1
 72
     1
  1
8
  7
SLDTEXTSTYLE0
 11
6.123031769111886E-17
 21
1.0
 31
0.0
 73
     1
 44
1.0
  0
ENDBLK
  5
E9
330
DD
100
AcDbEntity
  8
0
100
AcDbBlockEnd
  0
BLOCK
  5
102
330
F7
100
AcDbEntity
  8
0
100
AcDbBlockBegin
  2
*D13
 70
     1
 71
     0
 10
0.0
 20
0.0
 30
0.0
  3
*D13
  1

  0
LINE
  5
104
330
F7
100
AcDbEntity
  8
SLD-0
 62
     7
100
AcDbLine
 10
109.920017054
 20
142.3585114141
 30
0.0
 11
135.6951822426
 21
142.3585114141
 31
0.0
  0
LINE
  5
105
330
F7
100
AcDbEntity
  8
SLD-0
 62
     7
100
AcDbLine
 10
109.920017054
 20
128.3585114141
 30
0.0
 11
135.6951822426
 21
128.3585114141
 31
0.0
  0
LINE
  5
106
330
F7
100
AcDbEntity
  8
SLD-0
 62
     7
100
AcDbLine
 10
134.6951822426
 20
142.3585114141
 30
0.0
 11
134.6951822426
 21
128.3585114141
 31
0.0
  0
LINE
  5
107
330
F7
100
AcDbEntity
  8
SLD-0
 62
     7
100
AcDbLine
 10
133.8913352426
 20
139.3585114141
 30
0.0
 11
134.6951822426
 21
142.3585114141
 31
0.0
  0
LINE
  5
108
330
F7
100
AcDbEntity
  8
SLD-0
 62
     7
100
AcDbLine
 10
134.6951822426
 20
142.3585114141
 30
0.0
 11
135.4990292426
 21
139.3585114141
 31
0.0
  0
LINE
  5
109
330
F7
100
AcDbEntity
  8
SLD-0
 62
     7
100
AcDbLine
 10
134.6951822426
 20
142.3585114141
 30
0.0
 11
134.6951822426
 21
139.3585114141
 31
0.0
  0
LINE
  5
10A
330
F7
100
AcDbEntity
  8
SLD-0
 62
     7
100
AcDbLine
 10
135.4990292426
 20
131.3585114141
 30
0.0
 11
134.6951822426
 21
128.3585114141
 31
0.0
  0
LINE
  5
10B
330
F7
100
AcDbEntity
  8
SLD-0
 62
     7
100
AcDbLine
 10
134.6951822426
 20
128.3585114141
 30
0.0
 11
133.8913352426
 21
131.3585114141
 31
0.0
  0
LINE
  5
10C
330
F7
100
AcDbEntity
  8
SLD-0
 62
     7
100
AcDbLine
 10
134.6951822426
 20
128.3585114141
 30
0.0
 11
134.6951822426
 21
131.3585114141
 31
0.0
  0
MTEXT
  5
10D
330
F7
100
AcDbEntity
  8
SLD-0
 62
     7
100
AcDbMText
 10
130.1684885467
 20
133.3230761909
 30
0.1
 40
3.5
 41
0.0
 71
     1
 72
     1
  1
14
  7
SLDTEXTSTYLE0
 11
6.123031769111886E-17
 21
1.0
 31
0.0
 73
     1
 44
1.0
  0
ENDBLK
  5
103
330
F7
100
AcDbEntity
  8
0
100
AcDbBlockEnd
  0
BLOCK
  5
11B
330
10F
100
AcDbEntity
  8
0
100
AcDbBlockBegin
  2
*D14
 70
     1
 71
     0
 10
0.0
 20
0.0
 30
0.0
  3
*D14
  1

  0
LINE
  5
11D
330
10F
100
AcDbEntity
  8
SLD-0
 62
     7
100
AcDbLine
 10
116.920017054
 20
150.3585114141
 30
0.0
 11
126.4849557759
 21
150.3585114141
 31
0.0
  0
LINE
  5
11E
330
10F
100
AcDbEntity
  8
SLD-0
 62
     7
100
AcDbLine
 10
113.920017054
 20
147.3585114141
 30
0.0
 11
126.4849557759
 21
147.3585114141
 31
0.0
  0
LINE
  5
11F
330
10F
100
AcDbEntity
  8
SLD-0
 62
     7
100
AcDbLine
 10
125.4849557759
 20
150.3585114141
 30
0.0
 11
125.4849557759
 21
160.7048584189
 31
0.0
  0
LINE
  5
120
330
10F
100
AcDbEntity
  8
SLD-0
 62
     7
100
AcDbLine
 10
125.4849557759
 20
150.3585114141
 30
0.0
 11
125.4849557759
 21
147.3585114141
 31
0.0
  0
LINE
  5
121
330
10F
100
AcDbEntity
  8
SLD-0
 62
     7
100
AcDbLine
 10
125.4849557759
 20
147.3585114141
 30
0.0
 11
125.4849557759
 21
142.3585114141
 31
0.0
  0
LINE
  5
122
330
10F
100
AcDbEntity
  8
SLD-0
 62
     7
100
AcDbLine
 10
126.2888027759
 20
153.3585114141
 30
0.0
 11
125.4849557759
 21
150.3585114141
 31
0.0
  0
LINE
  5
123
330
10F
100
AcDbEntity
  8
SLD-0
 62
     7
100
AcDbLine
 10
125.4849557759
 20
150.3585114141
 30
0.0
 11
124.6811087759
 21
153.3585114141
 31
0.0
  0
LINE
  5
124
330
10F
100
AcDbEntity
  8
SLD-0
 62
     7
100
AcDbLine
 10
125.4849557759
 20
150.3585114141
 30
0.0
 11
125.4849557759
 21
153.3585114141
 31
0.0
  0
LINE
  5
125
330
10F
100
AcDbEntity
  8
SLD-0
 62
     7
100
AcDbLine
 10
124.6811087759
 20
144.3585114141
 30
0.0
 11
125.4849557759
 21
147.3585114141
 31
0.0
  0
LINE
  5
126
330
10F
100
AcDbEntity
  8
SLD-0
 62
     7
100
AcDbLine
 10
125.4849557759
 20
147.3585114141
 30
0.0
 11
126.2888027759
 21
144.3585114141
 31
0.0
  0
LINE
  5
127
330
10F
100
AcDbEntity
  8
SLD-0
 62
     7
100
AcDbLine
 10
125.4849557759
 20
147.3585114141
 30
0.0
 11
125.4849557759
 21
144.3585114141
 31
0.0
  0
MTEXT
  5
128
330
10F
100
AcDbEntity
  8
SLD-0
 62
     7
100
AcDbMText
 10
120.95826208
 20
157.0819231958
 30
0.1
 40
3.5
 41
0.0
 71
     1
 72
     1
  1
3
  7
SLDTEXTSTYLE0
 11
6.123031769111886E-17
 21
1.0
 31
0.0
 73
     1
 44
1.0
  0
ENDBLK
  5
11C
330
10F
100
AcDbEntity
  8
0
100
AcDbBlockEnd
  0
BLOCK
  5
136
330
12A
100
AcDbEntity
  8
0
100
AcDbBlockBegin
  2
*D15
 70
     1
 71
     0
 10
0.0
 20
0.0
 30
0.0
  3
*D15
  1

  0
LINE
  5
139
330
12A
100
AcDbEntity
  8
SLD-0
 62
     7
100
AcDbLine
 10
96.920017054
 20
127.8585114141
 30
0.0
 11
96.920017054
 21
107.8260820151
 31
0.0
  0
LINE
  5
13A
330
12A
100
AcDbEntity
  8
SLD-0
 62
     7
100
AcDbLine
 10
108.920017054
 20
127.8585114141
 30
0.0
 11
108.920017054
 21
107.8260820151
 31
0.0
  0
LINE
  5
13B
330
12A
100
AcDbEntity
  8
SLD-0
 62
     7
100
AcDbLine
 10
96.920017054
 20
108.8260820151
 30
0.0
 11
76.7438440029
 21
108.8260820151
 31
0.0
  0
LINE
  5
13C
330
12A
100
AcDbEntity
  8
SLD-0
 62
     7
100
AcDbLine
 10
96.920017054
 20
108.8260820151
 30
0.0
 11
108.920017054
 21
108.8260820151
 31
0.0
  0
LINE
  5
13D
330
12A
100
AcDbEntity
  8
SLD-0
 62
     7
100
AcDbLine
 10
108.920017054
 20
108.8260820151
 30
0.0
 11
113.920017054
 21
108.8260820151
 31
0.0
  0
LINE
  5
13E
330
12A
100
AcDbEntity
  8
SLD-0
 62
     7
100
AcDbLine
 10
93.920017054
 20
109.6299290151
 30
0.0
 11
96.920017054
 21
108.8260820151
 31
0.0
  0
LINE
  5
13F
330
12A
100
AcDbEntity
  8
SLD-0
 62
     7
100
AcDbLine
 10
96.920017054
 20
108.8260820151
 30
0.0
 11
93.920017054
 21
108.0222350151
 31
0.0
  0
LINE
  5
140
330
12A
100
AcDbEntity
  8
SLD-0
 62
     7
100
AcDbLine
 10
96.920017054
 20
108.8260820151
 30
0.0
 11
93.920017054
 21
108.8260820151
 31
0.0
  0
LINE
  5
141
330
12A
100
AcDbEntity
  8
SLD-0
 62
     7
100
AcDbLine
 10
111.920017054
 20
108.0222350151
 30
0.0
 11
108.920017054
 21
108.8260820151
 31
0.0
  0
LINE
  5
142
330
12A
100
AcDbEntity
  8
SLD-0
 62
     7
100
AcDbLine
 10
108.920017054
 20
108.8260820151
 30
0.0
 11
111.920017054
 21
109.6299290151
 31
0.0
  0
LINE
  5
143
330
12A
100
AcDbEntity
  8
SLD-0
 62
     7
100
AcDbLine
 10
108.920017054
 20
108.8260820151
 30
0.0
 11
111.920017054
 21
108.8260820151
 31
0.0
  0
MTEXT
  5
144
330
12A
100
AcDbEntity
  8
SLD-0
 62
     7
100
AcDbMText
 10
76.5813440029
 20
113.3527754782
 30
0.1
 40
3.5
 41
0.0
 71
     1
 72
     1
  1
%%c
  7
SLDTEXTSTYLE0
 73
     1
 44
1.0
  0
MTEXT
  5
145
330
12A
100
AcDbEntity
  8
SLD-0
 62
     7
100
AcDbMText
 10
82.2012289245
 20
113.352775711
 30
0.1
 40
3.5
 41
0.0
 71
     1
 72
     1
  1
12
  7
SLDTEXTSTYLE0
 73
     1
 44
1.0
  0
MTEXT
  5
146
330
12A
100
AcDbEntity
  8
SLD-0
 62
     7
100
AcDbMText
 10
87.4926296483
 20
112.1563018852
 30
0.1
 40
2.1
 41
0.0
 71
     1
 72
     1
  1
-
  7
SLDTEXTSTYLE0
 73
     1
 44
1.0
  0
MTEXT
  5
147
330
12A
100
AcDbEntity
  8
SLD-0
 62
     7
100
AcDbMText
 10
88.7131599257
 20
112.1563018852
 30
0.1
 40
2.1
 41
0.0
 71
     1
 72
     1
  1
0.05
  7
SLDTEXTSTYLE0
 73
     1
 44
1.0
  0
MTEXT
  5
148
330
12A
100
AcDbEntity
  8
SLD-0
 62
     7
100
AcDbMText
 10
88.7131599257
 20
114.5973624401
 30
0.1
 40
2.1
 41
0.0
 71
     1
 72
     1
  1
0
  7
SLDTEXTSTYLE0
 73
     1
 44
1.0
  0
ENDBLK
  5
137
330
12A
100
AcDbEntity
  8
0
100
AcDbBlockEnd
  0
BLOCK
  5
155
330
14A
100
AcDbEntity
  8
0
100
AcDbBlockBegin
  2
*D16
 70
     1
 71
     0
 10
0.0
 20
0.0
 30
0.0
  3
*D16
  1

  0
LINE
  5
157
330
14A
100
AcDbEntity
  8
SLD-0
 62
     7
100
AcDbLine
 10
116.920017054
 20
201.7653567219
 30
0.0
 11
137.6992066003
 21
201.7653567219
 31
0.0
  0
LINE
  5
158
330
14A
100
AcDbEntity
  8
SLD-0
 62
     7
100
AcDbLine
 10
116.920017054
 20
187.7653567219
 30
0.0
 11
137.6992066003
 21
187.7653567219
 31
0.0
  0
LINE
  5
159
330
14A
100
AcDbEntity
  8
SLD-0
 62
     7
100
AcDbLine
 10
136.6992066003
 20
201.7653567219
 30
0.0
 11
136.6992066003
 21
187.7653567219
 31
0.0
  0
LINE
  5
15A
330
14A
100
AcDbEntity
  8
SLD-0
 62
     7
100
AcDbLine
 10
135.8953596003
 20
198.7653567219
 30
0.0
 11
136.6992066003
 21
201.7653567219
 31
0.0
  0
LINE
  5
15B
330
14A
100
AcDbEntity
  8
SLD-0
 62
     7
100
AcDbLine
 10
136.6992066003
 20
201.7653567219
 30
0.0
 11
137.5030536003
 21
198.7653567219
 31
0.0
  0
LINE
  5
15C
330
14A
100
AcDbEntity
  8
SLD-0
 62
     7
100
AcDbLine
 10
136.6992066003
 20
201.7653567219
 30
0.0
 11
136.6992066003
 21
198.7653567219
 31
0.0
  0
LINE
  5
15D
330
14A
100
AcDbEntity
  8
SLD-0
 62
     7
100
AcDbLine
 10
137.5030536003
 20
190.7653567219
 30
0.0
 11
136.6992066003
 21
187.7653567219
 31
0.0
  0
LINE
  5
15E
330
14A
100
AcDbEntity
  8
SLD-0
 62
     7
100
AcDbLine
 10
136.6992066003
 20
187.7653567219
 30
0.0
 11
135.8953596003
 21
190.7653567219
 31
0.0
  0
LINE
  5
15F
330
14A
100
AcDbEntity
  8
SLD-0
 62
     7
100
AcDbLine
 10
136.6992066003
 20
187.7653567219
 30
0.0
 11
136.6992066003
 21
190.7653567219
 31
0.0
  0
MTEXT
  5
160
330
14A
100
AcDbEntity
  8
SLD-0
 62
     7
100
AcDbMText
 10
132.1725129043
 20
192.7299214987
 30
0.1
 40
3.5
 41
0.0
 71
     1
 72
     1
  1
14
  7
SLDTEXTSTYLE0
 11
6.123031769111886E-17
 21
1.0
 31
0.0
 73
     1
 44
1.0
  0
ENDBLK
  5
156
330
14A
100
AcDbEntity
  8
0
100
AcDbBlockEnd
  0
BLOCK
  5
16D
330
162
100
AcDbEntity
  8
0
100
AcDbBlockBegin
  2
*D17
 70
     1
 71
     0
 10
0.0
 20
0.0
 30
0.0
  3
*D17
  1

  0
LINE
  5
16F
330
162
100
AcDbEntity
  8
SLD-0
 62
     7
100
AcDbLine
 10
116.920017054
 20
187.7653567219
 30
0.0
 11
126.7680245299
 21
187.7653567219
 31
0.0
  0
LINE
  5
170
330
162
100
AcDbEntity
  8
SLD-0
 62
     7
100
AcDbLine
 10
112.420017054
 20
194.7653567219
 30
0.0
 11
126.7680245299
 21
194.7653567219
 31
0.0
  0
LINE
  5
171
330
162
100
AcDbEntity
  8
SLD-0
 62
     7
100
AcDbLine
 10
125.7680245299
 20
187.7653567219
 30
0.0
 11
125.7680245299
 21
182.7653567219
 31
0.0
  0
LINE
  5
172
330
162
100
AcDbEntity
  8
SLD-0
 62
     7
100
AcDbLine
 10
125.7680245299
 20
187.7653567219
 30
0.0
 11
125.7680245299
 21
194.7653567219
 31
0.0
  0
LINE
  5
173
330
162
100
AcDbEntity
  8
SLD-0
 62
     7
100
AcDbLine
 10
125.7680245299
 20
194.7653567219
 30
0.0
 11
125.7680245299
 21
199.7653567219
 31
0.0
  0
LINE
  5
174
330
162
100
AcDbEntity
  8
SLD-0
 62
     7
100
AcDbLine
 10
124.9641775299
 20
184.7653567219
 30
0.0
 11
125.7680245299
 21
187.7653567219
 31
0.0
  0
LINE
  5
175
330
162
100
AcDbEntity
  8
SLD-0
 62
     7
100
AcDbLine
 10
125.7680245299
 20
187.7653567219
 30
0.0
 11
126.5718715299
 21
184.7653567219
 31
0.0
  0
LINE
  5
176
330
162
100
AcDbEntity
  8
SLD-0
 62
     7
100
AcDbLine
 10
125.7680245299
 20
187.7653567219
 30
0.0
 11
125.7680245299
 21
184.7653567219
 31
0.0
  0
LINE
  5
177
330
162
100
AcDbEntity
  8
SLD-0
 62
     7
100
AcDbLine
 10
126.5718715299
 20
197.7653567219
 30
0.0
 11
125.7680245299
 21
194.7653567219
 31
0.0
  0
LINE
  5
178
330
162
100
AcDbEntity
  8
SLD-0
 62
     7
100
AcDbLine
 10
125.7680245299
 20
194.7653567219
 30
0.0
 11
124.9641775299
 21
197.7653567219
 31
0.0
  0
LINE
  5
179
330
162
100
AcDbEntity
  8
SLD-0
 62
     7
100
AcDbLine
 10
125.7680245299
 20
194.7653567219
 30
0.0
 11
125.7680245299
 21
197.7653567219
 31
0.0
  0
MTEXT
  5
17A
330
162
100
AcDbEntity
  8
SLD-0
 62
     7
100
AcDbMText
 10
121.241330834
 20
190.2476391103
 30
0.1
 40
3.5
 41
0.0
 71
     1
 72
     1
  1
7
  7
SLDTEXTSTYLE0
 11
6.123031769111886E-17
 21
1.0
 31
0.0
 73
     1
 44
1.0
  0
ENDBLK
  5
16E
330
162
100
AcDbEntity
  8
0
100
AcDbBlockEnd
  0
BLOCK
  5
186
330
17C
100
AcDbEntity
  8
0
100
AcDbBlockBegin
  2
*D18
 70
     1
 71
     0
 10
0.0
 20
0.0
 30
0.0
  3
*D18
  1

  0
LINE
  5
188
330
17C
100
AcDbEntity
  8
SLD-0
 62
     7
100
AcDbLine
 10
115.920017054
 20
202.7653567219
 30
0.0
 11
115.920017054
 21
217.6899162778
 31
0.0
  0
LINE
  5
189
330
17C
100
AcDbEntity
  8
SLD-0
 62
     7
100
AcDbLine
 10
89.920017054
 20
202.7653567219
 30
0.0
 11
89.920017054
 21
217.6899162778
 31
0.0
  0
LINE
  5
18A
330
17C
100
AcDbEntity
  8
SLD-0
 62
     7
100
AcDbLine
 10
115.920017054
 20
216.6899162778
 30
0.0
 11
89.920017054
 21
216.6899162778
 31
0.0
  0
LINE
  5
18B
330
17C
100
AcDbEntity
  8
SLD-0
 62
     7
100
AcDbLine
 10
112.920017054
 20
217.4937632778
 30
0.0
 11
115.920017054
 21
216.6899162778
 31
0.0
  0
LINE
  5
18C
330
17C
100
AcDbEntity
  8
SLD-0
 62
     7
100
AcDbLine
 10
115.920017054
 20
216.6899162778
 30
0.0
 11
112.920017054
 21
215.8860692778
 31
0.0
  0
LINE
  5
18D
330
17C
100
AcDbEntity
  8
SLD-0
 62
     7
100
AcDbLine
 10
115.920017054
 20
216.6899162778
 30
0.0
 11
112.920017054
 21
216.6899162778
 31
0.0
  0
LINE
  5
18E
330
17C
100
AcDbEntity
  8
SLD-0
 62
     7
100
AcDbLine
 10
92.920017054
 20
215.8860692778
 30
0.0
 11
89.920017054
 21
216.6899162778
 31
0.0
  0
LINE
  5
18F
330
17C
100
AcDbEntity
  8
SLD-0
 62
     7
100
AcDbLine
 10
89.920017054
 20
216.6899162778
 30
0.0
 11
92.920017054
 21
217.4937632778
 31
0.0
  0
LINE
  5
190
330
17C
100
AcDbEntity
  8
SLD-0
 62
     7
100
AcDbLine
 10
89.920017054
 20
216.6899162778
 30
0.0
 11
92.920017054
 21
216.6899162778
 31
0.0
  0
MTEXT
  5
191
330
17C
100
AcDbEntity
  8
SLD-0
 62
     7
100
AcDbMText
 10
100.8845818308
 20
221.2166099737
 30
0.1
 40
3.5
 41
0.0
 71
     1
 72
     1
  1
26
  7
SLDTEXTSTYLE0
 73
     1
 44
1.0
  0
ENDBLK
  5
187
330
17C
100
AcDbEntity
  8
0
100
AcDbBlockEnd
  0
BLOCK
  5
19D
330
193
100
AcDbEntity
  8
0
100
AcDbBlockBegin
  2
*D19
 70
     1
 71
     0
 10
0.0
 20
0.0
 30
0.0
  3
*D19
  1

  0
LINE
  5
19F
330
193
100
AcDbEntity
  8
SLD-0
 62
     7
100
AcDbLine
 10
102.920017054
 20
204.2653567219
 30
0.0
 11
102.920017054
 21
210.9003155921
 31
0.0
  0
LINE
  5
1A0
330
193
100
AcDbEntity
  8
SLD-0
 62
     7
100
AcDbLine
 10
89.920017054
 20
202.7653567219
 30
0.0
 11
89.920017054
 21
210.9003155921
 31
0.0
  0
LINE
  5
1A1
330
193
100
AcDbEntity
  8
SLD-0
 62
     7
100
AcDbLine
 10
102.920017054
 20
209.9003155921
 30
0.0
 11
89.920017054
 21
209.9003155921
 31
0.0
  0
LINE
  5
1A2
330
193
100
AcDbEntity
  8
SLD-0
 62
     7
100
AcDbLine
 10
99.920017054
 20
210.7041625921
 30
0.0
 11
102.920017054
 21
209.9003155921
 31
0.0
  0
LINE
  5
1A3
330
193
100
AcDbEntity
  8
SLD-0
 62
     7
100
AcDbLine
 10
102.920017054
 20
209.9003155921
 30
0.0
 11
99.920017054
 21
209.0964685921
 31
0.0
  0
LINE
  5
1A4
330
193
100
AcDbEntity
  8
SLD-0
 62
     7
100
AcDbLine
 10
102.920017054
 20
209.9003155921
 30
0.0
 11
99.920017054
 21
209.9003155921
 31
0.0
  0
LINE
  5
1A5
330
193
100
AcDbEntity
  8
SLD-0
 62
     7
100
AcDbLine
 10
92.920017054
 20
209.0964685921
 30
0.0
 11
89.920017054
 21
209.9003155921
 31
0.0
  0
LINE
  5
1A6
330
193
100
AcDbEntity
  8
SLD-0
 62
     7
100
AcDbLine
 10
89.920017054
 20
209.9003155921
 30
0.0
 11
92.920017054
 21
210.7041625921
 31
0.0
  0
LINE
  5
1A7
330
193
100
AcDbEntity
  8
SLD-0
 62
     7
100
AcDbLine
 10
89.920017054
 20
209.9003155921
 30
0.0
 11
92.920017054
 21
209.9003155921
 31
0.0
  0
MTEXT
  5
1A8
330
193
100
AcDbEntity
  8
SLD-0
 62
     7
100
AcDbMText
 10
94.3845818308
 20
214.427009288
 30
0.1
 40
3.5
 41
0.0
 71
     1
 72
     1
  1
13
  7
SLDTEXTSTYLE0
 73
     1
 44
1.0
  0
ENDBLK
  5
19E
330
193
100
AcDbEntity
  8
0
100
AcDbBlockEnd
  0
ENDSEC
  0
SECTION
  2
ENTITIES
  0
LINE
  5
6F
330
1F
100
AcDbEntity
  8
SLD-0
  6
Continuous
 62
   179
100
AcDbLine
 10
20.2604743903
 20
285.0
 30
0.0
 11
196.7604743903
 21
285.0
 31
0.0
  0
LINE
  5
70
330
1F
100
AcDbEntity
  8
SLD-0
  6
Continuous
 62
   179
100
AcDbLine
 10
20.2604743903
 20
285.0
 30
0.0
 11
20.2604743903
 21
10.0
 31
0.0
  0
LINE
  5
71
330
1F
100
AcDbEntity
  8
SLD-0
  6
Continuous
 62
   179
100
AcDbLine
 10
20.2604743903
 20
10.0
 30
0.0
 11
196.7604743903
 21
10.0
 31
0.0
  0
LINE
  5
72
330
1F
100
AcDbEntity
  8
SLD-0
  6
Continuous
 62
   179
100
AcDbLine
 10
196.7604743903
 20
285.0
 30
0.0
 11
196.7604743903
 21
10.0
 31
0.0
  0
LINE
  5
73
330
1F
100
AcDbEntity
  8
SLD-0
  6
Continuous
 62
   179
100
AcDbLine
 10
65.7604743903
 20
285.0
 30
0.0
 11
196.7604743903
 21
285.0
 31
0.0
  0
LINE
  5
74
330
1F
100
AcDbEntity
  8
SLD-0
  6
Continuous
 62
   179
100
AcDbLine
 10
196.7604743903
 20
285.0
 30
0.0
 11
196.7604743903
 21
264.25
 31
0.0
  0
LINE
  5
75
330
1F
100
AcDbEntity
  8
SLD-0
  6
Continuous
 62
   179
100
AcDbLine
 10
127.0104743903
 20
50.75
 30
0.0
 11
196.7604743903
 21
50.75
 31
0.0
  0
LINE
  5
76
330
1F
100
AcDbEntity
  8
SLD-0
  6
Continuous
 62
   179
100
AcDbLine
 10
127.0104743903
 20
50.75
 30
0.0
 11
127.0104743903
 21
10.0
 31
0.0
  0
LINE
  5
77
330
1F
100
AcDbEntity
  8
SLD-0
  6
Continuous
 62
   179
100
AcDbLine
 10
127.0104743903
 20
22.75
 30
0.0
 11
196.7604743903
 21
22.75
 31
0.0
  0
LINE
  5
78
330
1F
100
AcDbEntity
  8
SLD-0
  6
Continuous
 62
   179
100
AcDbLine
 10
127.0104743903
 20
36.75
 30
0.0
 11
196.7604743903
 21
36.75
 31
0.0
  0
LINE
  5
79
330
1F
100
AcDbEntity
  8
SLD-0
100
AcDbLine
 10
104.1889799283
 20
125.6331207127
 30
0.0
 11
102.8390741818
 21
128.3585114141
 31
0.0
  0
LINE
  5
7A
330
1F
100
AcDbEntity
  8
SLD-0
100
AcDbLine
 10
102.8390741818
 20
128.3585114141
 30
0.0
 11
104.9999225479
 21
126.2182463981
 31
0.0
  0
LINE
  5
7B
330
1F
100
AcDbEntity
  8
SLD-0
100
AcDbLine
 10
104.9999225479
 20
126.2182463981
 30
0.0
 11
104.1889799283
 21
125.6331207127
 31
0.0
  0
LINE
  5
7C
330
1F
100
AcDbEntity
  8
SLD-0
  6
Continuous
 62
   179
100
AcDbLine
 10
96.9200170018
 20
142.3585114141
 30
0.0
 11
96.920017054
 21
128.8585114141
 31
0.0
  0
LINE
  5
7D
330
1F
100
AcDbEntity
  8
SLD-0
  6
Continuous
 62
   179
100
AcDbLine
 10
108.920017054
 20
128.8585114141
 30
0.0
 11
108.9200171061
 21
142.3585114141
 31
0.0
  0
LINE
  5
7E
330
1F
100
AcDbEntity
  8
SLD-0
  6
Continuous
 62
   179
100
AcDbLine
 10
96.920017054
 20
128.8585114141
 30
0.0
 11
97.420017054
 21
128.3585114141
 31
0.0
  0
LINE
  5
7F
330
1F
100
AcDbEntity
  8
SLD-0
  6
Continuous
 62
   179
100
AcDbLine
 10
108.420017054
 20
128.3585114141
 30
0.0
 11
108.920017054
 21
128.8585114141
 31
0.0
  0
LINE
  5
80
330
1F
100
AcDbEntity
  8
SLD-0
  6
Continuous
 62
   179
100
AcDbLine
 10
92.9200172775
 20
150.3585117941
 30
0.0
 11
89.9200167857
 21
150.3585117941
 31
0.0
  0
LINE
  5
81
330
1F
100
AcDbEntity
  8
SLD-0
  6
Continuous
 62
   179
100
AcDbLine
 10
92.9200172775
 20
147.3585113023
 30
0.0
 11
92.9200172775
 21
150.3585117941
 31
0.0
  0
LINE
  5
82
330
1F
100
AcDbEntity
  8
SLD-0
  6
Continuous
 62
   179
100
AcDbLine
 10
112.9200168304
 20
147.3585113023
 30
0.0
 11
92.9200172775
 21
147.3585113023
 31
0.0
  0
LINE
  5
83
330
1F
100
AcDbEntity
  8
SLD-0
  6
Continuous
 62
   179
100
AcDbLine
 10
112.9200168304
 20
150.3585117941
 30
0.0
 11
112.9200168304
 21
147.3585113023
 31
0.0
  0
LINE
  5
84
330
1F
100
AcDbEntity
  8
SLD-0
  6
Continuous
 62
   179
100
AcDbLine
 10
115.9200173222
 20
150.3585117941
 30
0.0
 11
112.9200168304
 21
150.3585117941
 31
0.0
  0
LINE
  5
85
330
1F
100
AcDbEntity
  8
SLD-0
  6
Continuous
 62
   179
100
AcDbLine
 10
115.9200173222
 20
142.3585114141
 30
0.0
 11
115.9200173222
 21
150.3585117941
 31
0.0
  0
LINE
  5
86
330
1F
100
AcDbEntity
  8
SLD-0
  6
Continuous
 62
   179
100
AcDbLine
 10
89.9200167857
 20
150.3585117941
 30
0.0
 11
89.9200167857
 21
142.3585114141
 31
0.0
  0
LINE
  5
87
330
1F
100
AcDbEntity
  8
SLD-0
  6
Continuous
 62
   179
100
AcDbLine
 10
89.9200167857
 20
142.3585114141
 30
0.0
 11
115.9200173222
 21
142.3585114141
 31
0.0
  0
LINE
  5
88
330
1F
100
AcDbEntity
  8
SLD-0
  6
Continuous
 62
   179
100
AcDbLine
 10
96.920017054
 20
128.8585114141
 30
0.0
 11
108.920017054
 21
128.8585114141
 31
0.0
  0
LINE
  5
89
330
1F
100
AcDbEntity
  8
SLD-0
  6
Continuous
 62
   179
100
AcDbLine
 10
108.420017054
 20
128.3585114141
 30
0.0
 11
97.420017054
 21
128.3585114141
 31
0.0
  0
LINE
  5
8A
330
1F
100
AcDbEntity
  8
SLD-0
  6
HIDDEN
 62
     8
100
AcDbLine
 10
106.920017054
 20
133.3585114141
 30
0.0
 11
98.920017054
 21
133.3585114141
 31
0.0
  0
LINE
  5
8B
330
1F
100
AcDbEntity
  8
SLD-0
  6
HIDDEN
 62
     8
100
AcDbLine
 10
106.9200172439
 20
128.358510982
 30
0.0
 11
106.920017054
 21
133.3585114141
 31
0.0
  0
LINE
  5
8C
330
1F
100
AcDbEntity
  8
SLD-0
  6
HIDDEN
 62
     8
100
AcDbLine
 10
98.920017054
 20
133.3585114141
 30
0.0
 11
98.920016864
 21
128.358510982
 31
0.0
  0
LINE
  5
8D
330
1F
100
AcDbEntity
  8
SLD-0
  6
HIDDEN
 62
     8
100
AcDbLine
 10
105.1700169571
 20
133.3585118015
 30
0.0
 11
105.1700169571
 21
147.3585113023
 31
0.0
  0
LINE
  5
8E
330
1F
100
AcDbEntity
  8
SLD-0
  6
HIDDEN
 62
     8
100
AcDbLine
 10
100.6700171508
 20
147.3585113023
 30
0.0
 11
100.6700171508
 21
133.3585118015
 31
0.0
  0
LINE
  5
8F
330
1F
100
AcDbEntity
  8
SLD-0
100
AcDbLine
 10
104.5944512381
 20
125.9256835554
 30
0.0
 11
112.4663353438
 21
115.0158115802
 31
0.0
  0
LINE
  5
90
330
1F
100
AcDbEntity
  8
SLD-0
100
AcDbLine
 10
112.4663353438
 20
115.0158115802
 30
0.0
 11
151.2559049457
 21
115.0158115802
 31
0.0
  0
LINE
  5
91
330
1F
100
AcDbEntity
  8
SLD-0
  6
CENTERX2
 62
   179
100
AcDbLine
 10
102.920017054
 20
126.3585114141
 30
0.0
 11
102.920017054
 21
149.3585114141
 31
0.0
  0
LINE
  5
92
330
1F
100
AcDbEntity
  8
SLD-0
  6
Continuous
 62
   179
100
AcDbLine
 10
115.9200173222
 20
187.7653565058
 30
0.0
 11
112.9200168304
 21
187.7653565058
 31
0.0
  0
LINE
  5
93
330
1F
100
AcDbEntity
  8
SLD-0
  6
Continuous
 62
   179
100
AcDbLine
 10
115.9200173222
 20
201.7653569379
 30
0.0
 11
112.9200168304
 21
201.7653569379
 31
0.0
  0
LINE
  5
94
330
1F
100
AcDbEntity
  8
SLD-0
  6
Continuous
 62
   179
100
AcDbLine
 10
115.9200173222
 20
187.7653565058
 30
0.0
 11
115.9200173222
 21
201.7653569379
 31
0.0
  0
LINE
  5
95
330
1F
100
AcDbEntity
  8
SLD-0
  6
Continuous
 62
   179
100
AcDbLine
 10
112.9200168304
 20
187.7653565058
 30
0.0
 11
112.9200168304
 21
201.7653569379
 31
0.0
  0
LINE
  5
96
330
1F
100
AcDbEntity
  8
SLD-0
  6
Continuous
 62
   179
100
AcDbLine
 10
92.9200172775
 20
187.7653565058
 30
0.0
 11
89.9200167857
 21
187.7653565058
 31
0.0
  0
LINE
  5
97
330
1F
100
AcDbEntity
  8
SLD-0
  6
Continuous
 62
   179
100
AcDbLine
 10
92.9200172775
 20
201.7653569379
 30
0.0
 11
89.9200167857
 21
201.7653569379
 31
0.0
  0
LINE
  5
98
330
1F
100
AcDbEntity
  8
SLD-0
  6
Continuous
 62
   179
100
AcDbLine
 10
92.9200172775
 20
187.7653565058
 30
0.0
 11
92.9200172775
 21
201.7653569379
 31
0.0
  0
LINE
  5
99
330
1F
100
AcDbEntity
  8
SLD-0
  6
Continuous
 62
   179
100
AcDbLine
 10
89.9200167857
 20
187.7653565058
 30
0.0
 11
89.9200167857
 21
201.7653569379
 31
0.0
  0
LINE
  5
9A
330
1F
100
AcDbEntity
  8
SLD-0
  6
Continuous
 62
   179
100
AcDbLine
 10
112.9200168304
 20
187.7653565058
 30
0.0
 11
92.9200172775
 21
187.7653565058
 31
0.0
  0
LINE
  5
9B
330
1F
100
AcDbEntity
  8
SLD-0
  6
Continuous
 62
   179
100
AcDbLine
 10
112.9200168304
 20
201.7653569379
 30
0.0
 11
92.9200172775
 21
201.7653569379
 31
0.0
  0
CIRCLE
  5
9C
330
1F
100
AcDbEntity
  8
SLD-0
  6
Continuous
 62
   179
100
AcDbCircle
 10
102.920017054
 20
194.7653567219
 30
0.0
 40
2.25
  0
CIRCLE
  5
9D
330
1F
100
AcDbEntity
  8
SLD-0
  6
HIDDEN
 62
     8
100
AcDbCircle
 10
102.920017054
 20
194.7653567219
 30
0.0
 40
6.000000000000014
  0
CIRCLE
  5
9E
330
1F
100
AcDbEntity
  8
SLD-0
  6
HIDDEN
 62
     8
100
AcDbCircle
 10
102.920017054
 20
194.7653567219
 30
0.0
 40
4.0
  0
CIRCLE
  5
9F
330
1F
100
AcDbEntity
  8
SLD-0
  6
HIDDEN
 62
     8
100
AcDbCircle
 10
102.920017054
 20
194.7653567219
 30
0.0
 40
5.500000000000014
  0
DIMENSION
  5
A0
330
1F
100
AcDbEntity
  8
SLD-0
 62
     7
100
AcDbDimension
  2
*D9
 10
89.920017054
 20
166.5778160682
 30
0.0
 11
83.3673058991
 21
166.5778160682
 31
0.0
 70
   160
 71
     1
 42
3.0
  3
SLDDIMSTYLE0
100
AcDbAlignedDimension
 13
92.920017054
 23
150.3585114141
 33
0.0
 14
89.920017054
 24
150.3585114141
 34
0.0
100
AcDbRotatedDimension
1001
ACAD
1000
DSTYLE
1002
{
1070
    77
1070
     3
1070
   143
1040
0.0393700787
1070
    41
1040
3.0
1070
    44
1040
1.0
1070
    42
1040
1.0
1070
   147
1040
1.524
1070
    73
1070
     0
1070
    74
1070
     0
1070
   140
1040
3.5
1070
   284
1070
    12
1070
    78
1070
    12
1002
}
  0
DIMENSION
  5
C1
330
1F
100
AcDbEntity
  8
SLD-0
 62
     7
100
AcDbDimension
  2
*D11
 10
112.920017054
 20
166.5778160682
 30
0.0
 11
102.920017054
 21
166.5778160682
 31
0.0
 70
   160
 71
     1
 42
20.0
  3
SLDDIMSTYLE1
100
AcDbAlignedDimension
 13
92.920017054
 23
150.3585114141
 33
0.0
 14
112.920017054
 24
150.3585114141
 34
0.0
100
AcDbRotatedDimension
1001
ACAD
1000
DSTYLE
1002
{
1070
    77
1070
     3
1070
   143
1040
0.0393700787
1070
    41
1040
3.0
1070
    44
1040
1.0
1070
    42
1040
1.0
1070
   147
1040
1.524
1070
    73
1070
     0
1070
    74
1070
     0
1070
   140
1040
3.5
1070
   284
1070
     0
1070
    78
1070
    12
1002
}
  0
DIMENSION
  5
DC
330
1F
100
AcDbEntity
  8
SLD-0
 62
     7
100
AcDbDimension
  2
*D12
 10
134.6951822426
 20
150.3585114141
 30
0.0
 11
134.6951822426
 21
146.3585114141
 31
0.0
 70
   160
 71
     1
 42
8.0
  3
SLDDIMSTYLE0
100
AcDbAlignedDimension
 13
115.920017054
 23
142.3585114141
 33
0.0
 14
115.920017054
 24
150.3585114141
 34
0.0
 50
90.0
100
AcDbRotatedDimension
1001
ACAD
1000
DSTYLE
1002
{
1070
    77
1070
     3
1070
   143
1040
0.0393700787
1070
    41
1040
3.0
1070
    44
1040
1.0
1070
    42
1040
1.0
1070
   147
1040
1.524
1070
    73
1070
     0
1070
    74
1070
     0
1070
   140
1040
3.5
1070
   284
1070
    12
1070
    78
1070
    12
1002
}
  0
DIMENSION
  5
F6
330
1F
100
AcDbEntity
  8
SLD-0
 62
     7
100
AcDbDimension
  2
*D13
 10
134.6951822426
 20
142.3585114141
 30
0.0
 11
134.6951822426
 21
135.3585114141
 31
0.0
 70
   160
 71
     1
 42
14.0
  3
SLDDIMSTYLE0
100
AcDbAlignedDimension
 13
108.920017054
 23
128.3585114141
 33
0.0
 14
108.920017054
 24
142.3585114141
 34
0.0
 50
90.0
100
AcDbRotatedDimension
1001
ACAD
1000
DSTYLE
1002
{
1070
    77
1070
     3
1070
   143
1040
0.0393700787
1070
    41
1040
3.0
1070
    44
1040
1.0
1070
    42
1040
1.0
1070
   147
1040
1.524
1070
    73
1070
     0
1070
    74
1070
     0
1070
   140
1040
3.5
1070
   284
1070
    12
1070
    78
1070
    12
1002
}
  0
DIMENSION
  5
10E
330
1F
100
AcDbEntity
  8
SLD-0
 62
     7
100
AcDbDimension
  2
*D14
 10
125.4849557759
 20
150.3585114141
 30
0.0
 11
125.4849557759
 21
158.0996408073
 31
0.0
 70
   160
 71
     1
 42
3.0
  3
SLDDIMSTYLE0
100
AcDbAlignedDimension
 13
112.920017054
 23
147.3585114141
 33
0.0
 14
115.920017054
 24
150.3585114141
 34
0.0
 50
90.0
100
AcDbRotatedDimension
1001
ACAD
1000
DSTYLE
1002
{
1070
    77
1070
     3
1070
   143
1040
0.0393700787
1070
    41
1040
3.0
1070
    44
1040
1.0
1070
    42
1040
1.0
1070
   147
1040
1.524
1070
    73
1070
     0
1070
    74
1070
     0
1070
   140
1040
3.5
1070
   284
1070
    12
1070
    78
1070
    12
1002
}
  0
DIMENSION
  5
129
330
1F
100
AcDbEntity
  8
SLD-0
 62
     7
100
AcDbDimension
  2
*D15
 10
96.920017054
 20
108.8260820151
 30
0.0
 11
85.9651396603
 21
108.8260820151
 31
0.0
 70
   160
  1
%%c<>
 71
     1
 42
12.0
  3
SLDDIMSTYLE2
100
AcDbAlignedDimension
 13
108.920017054
 23
128.8585114141
 33
0.0
 14
96.920017054
 24
128.8585114141
 34
0.0
100
AcDbRotatedDimension
1001
ACAD
1000
DSTYLE
1002
{
1070
    77
1070
     3
1070
   143
1040
0.0393700787
1070
    41
1040
3.0
1070
    44
1040
1.0
1070
    42
1040
1.0
1070
   147
1040
1.524
1070
    73
1070
     0
1070
    74
1070
     0
1070
   140
1040
3.5
1070
   284
1070
     0
1070
    78
1070
    12
1002
}
  0
DIMENSION
  5
149
330
1F
100
AcDbEntity
  8
SLD-0
 62
     7
100
AcDbDimension
  2
*D16
 10
136.6992066003
 20
201.7653567219
 30
0.0
 11
136.6992066003
 21
194.7653567219
 31
0.0
 70
   160
 71
     1
 42
14.0
  3
SLDDIMSTYLE0
100
AcDbAlignedDimension
 13
115.920017054
 23
187.7653567219
 33
0.0
 14
115.920017054
 24
201.7653567219
 34
0.0
 50
90.0
100
AcDbRotatedDimension
1001
ACAD
1000
DSTYLE
1002
{
1070
    77
1070
     3
1070
   143
1040
0.0393700787
1070
    41
1040
3.0
1070
    44
1040
1.0
1070
    42
1040
1.0
1070
   147
1040
1.524
1070
    73
1070
     0
1070
    74
1070
     0
1070
   140
1040
3.5
1070
   284
1070
    12
1070
    78
1070
    12
1002
}
  0
DIMENSION
  5
161
330
1F
100
AcDbEntity
  8
SLD-0
 62
     7
100
AcDbDimension
  2
*D17
 10
125.7680245299
 20
187.7653567219
 30
0.0
 11
125.7680245299
 21
191.2653567219
 31
0.0
 70
   160
 71
     1
 42
7.0
  3
SLDDIMSTYLE0
100
AcDbAlignedDimension
 13
111.420017054
 23
194.7653567219
 33
0.0
 14
115.920017054
 24
187.7653567219
 34
0.0
 50
90.0
100
AcDbRotatedDimension
1001
ACAD
1000
DSTYLE
1002
{
1070
    77
1070
     3
1070
   143
1040
0.0393700787
1070
    41
1040
3.0
1070
    44
1040
1.0
1070
    42
1040
1.0
1070
   147
1040
1.524
1070
    73
1070
     0
1070
    74
1070
     0
1070
   140
1040
3.5
1070
   284
1070
    12
1070
    78
1070
    12
1002
}
  0
DIMENSION
  5
17B
330
1F
100
AcDbEntity
  8
SLD-0
 62
     7
100
AcDbDimension
  2
*D18
 10
115.920017054
 20
216.6899162778
 30
0.0
 11
102.920017054
 21
216.6899162778
 31
0.0
 70
   160
 71
     1
 42
26.0
  3
SLDDIMSTYLE0
100
AcDbAlignedDimension
 13
89.920017054
 23
201.7653567219
 33
0.0
 14
115.920017054
 24
201.7653567219
 34
0.0
100
AcDbRotatedDimension
1001
ACAD
1000
DSTYLE
1002
{
1070
    77
1070
     3
1070
   143
1040
0.0393700787
1070
    41
1040
3.0
1070
    44
1040
1.0
1070
    42
1040
1.0
1070
   147
1040
1.524
1070
    73
1070
     0
1070
    74
1070
     0
1070
   140
1040
3.5
1070
   284
1070
    12
1070
    78
1070
    12
1002
}
  0
DIMENSION
  5
192
330
1F
100
AcDbEntity
  8
SLD-0
 62
     7
100
AcDbDimension
  2
*D19
 10
102.920017054
 20
209.9003155921
 30
0.0
 11
96.420017054
 21
209.9003155921
 31
0.0
 70
   160
 71
     1
 42
13.0
  3
SLDDIMSTYLE0
100
AcDbAlignedDimension
 13
89.920017054
 23
201.7653567219
 33
0.0
 14
102.920017054
 24
203.2653567219
 34
0.0
100
AcDbRotatedDimension
1001
ACAD
1000
DSTYLE
1002
{
1070
    77
1070
     3
1070
   143
1040
0.0393700787
1070
    41
1040
3.0
1070
    44
1040
1.0
1070
    42
1040
1.0
1070
   147
1040
1.524
1070
    73
1070
     0
1070
    74
1070
     0
1070
   140
1040
3.5
1070
   284
1070
    12
1070
    78
1070
    12
1002
}
  0
MTEXT
  5
1A9
330
1F
100
AcDbEntity
  8
SLD-0
 62
     7
100
AcDbMText
 10
169.1923262367
 20
249.8878123479
 30
0.0
 40
4.2333333333
 41
0.0
 71
     1
 72
     1
  1
(　　　)
  7
SLDTEXTSTYLE1
 73
     1
 44
1.0
  0
MTEXT
  5
1AA
330
1F
100
AcDbEntity
  8
SLD-0
 62
     7
100
AcDbMText
 10
149.4737724019
 20
18.6383786102
 30
0.0
 40
4.2333333333
 41
0.0
 71
     1
 72
     1
  1
131064
  7
SLDTEXTSTYLE1
 73
     1
 44
1.0
  0
MTEXT
  5
1AB
330
1F
100
AcDbEntity
  8
SLD-0
 62
     7
100
AcDbMText
 10
147.388752969
 20
29.7138882404
 30
0.0
 40
4.2333333333
 41
0.0
 71
     1
 72
     1
  1
N01915-101-0
  7
SLDTEXTSTYLE1
 73
     1
 44
1.0
  0
MTEXT
  5
1AD
330
1F
100
AcDbEntity
  8
SLD-0
 62
     7
100
AcDbMText
 10
144.3221370339
 20
43.2377018572
 30
0.0
 40
4.2333333333
 41
0.0
 71
     1
 72
     1
  1
20 Rotation BKT
  7
SLDTEXTSTYLE2
 73
     1
 44
1.0
  0
HATCH
  5
1AE
330
1F
100
AcDbEntity
  8
0
  6
Continuous
 62
   179
100
AcDbHatch
 10
0.0
 20
0.0
 30
0.0
210
0.0
220
0.0
230
1.0
  2
ANSI31
 70
     0
 71
     0
 91
        1
 92
        0
 93
        3
 72
     1
 10
104.9999225479172
 20
126.2182463981151
 11
104.1889799283482
 21
125.6331207126709
 72
     1
 10
104.1889799283482
 20
125.6331207126709
 11
102.8390741818
 21
128.3585114141
 72
     1
 10
102.8390741818
 20
128.3585114141
 11
104.9999225479172
 21
126.2182463981151
 97
        0
 75
     0
 76
     1
 52
0.0
 41
1.0
 77
     0
 78
     1
 53
45.00000209717174
 43
0.0
 44
0.0
 45
-2.245064112442359
 46
2.245063948092215
 79
     0
 98
        1
 10
0.0
 20
0.0
  0
INSERT
  5
1AF
330
1F
100
AcDbEntity
  8
0
  6
Continuous
 62
     7
370
     0
100
AcDbBlockReference
  2
SURFACEFINISH40
 10
159.4443600604
 20
250.5749245738
 30
0.0
  0
INSERT
  5
1B0
330
1F
100
AcDbEntity
  8
0
  6
Continuous
 62
     7
370
     0
100
AcDbBlockReference
  2
SURFACEFINISH41
 10
175.4785306273
 20
250.9049245738
 30
0.0
  0
INSERT
  5
1B1
330
1F
100
AcDbEntity
  8
0
  6
Continuous
 62
     7
370
     0
100
AcDbBlockReference
  2
注記
 10
100.1950599675
 20
61.6409006219
 30
0.0
  0
INSERT
  5
1B2
330
1F
100
AcDbEntity
  8
0
  6
Continuous
 62
     7
370
     0
100
AcDbBlockReference
  2
NOTE42
 10
151.2559049457
 20
115.0158115802
 30
0.0
  0
INSERT
  5
1B3
330
1F
100
AcDbEntity
  8
0
  6
Continuous
 62
     7
370
     0
100
AcDbBlockReference
  2
SURFACEFINISH43
 10
99.7710728455
 20
156.6732762869
 30
0.0
  0
INSERT
  5
1B4
330
1F
100
AcDbEntity
  8
0
  6
Continuous
 62
     7
370
     0
100
AcDbBlockReference
  2
SURFACEFINISH44
 10
108.8900673478
 20
156.5699207028
 30
0.0
  0
INSERT
  5
1B5
330
1F
100
AcDbEntity
  8
0
  6
Continuous
 62
     7
370
     0
100
AcDbBlockReference
  2
SURFACEFINISH45
 10
92.8900673478
 20
117.464517208
 30
0.0
  0
INSERT
  5
1B6
330
1F
100
AcDbEntity
  8
0
  6
Continuous
 62
     7
370
     0
100
AcDbBlockReference
  2
SW_CENTERMARK0
 10
0.0
 20
0.0
 30
0.0
  0
ENDSEC
  0
SECTION
  2
OBJECTS
  0
DICTIONARY
  5
C
330
0
100
AcDbDictionary
281
     1
  3
ACAD_GROUP
350
D
  3
ACAD_LAYOUT
350
1A
  3
ACAD_MLINESTYLE
350
17
  3
ACAD_PLOTSETTINGS
350
19
  3
ACAD_PLOTSTYLENAME
350
E
  0
DICTIONARY
  5
D
102
{ACAD_REACTORS
330
C
102
}
330
C
100
AcDbDictionary
281
     1
  0
DICTIONARY
  5
1A
102
{ACAD_REACTORS
330
C
102
}
330
C
100
AcDbDictionary
281
     1
  3
Layout1
350
1E
  3
Layout2
350
26
  3
Model
350
22
  0
DICTIONARY
  5
17
102
{ACAD_REACTORS
330
C
102
}
330
C
100
AcDbDictionary
281
     1
  3
Standard
350
18
  0
DICTIONARY
  5
19
102
{ACAD_REACTORS
330
C
102
}
330
C
100
AcDbDictionary
281
     1
  0
ACDBDICTIONARYWDFLT
  5
E
102
{ACAD_REACTORS
330
C
102
}
330
C
100
AcDbDictionary
281
     1
  3
Normal
350
F
100
AcDbDictionaryWithDefault
340
F
  0
LAYOUT
  5
1E
102
{ACAD_REACTORS
330
1A
102
}
330
1A
100
AcDbPlotSettings
  1

  2

  4

  6

 40
0.0
 41
0.0
 42
0.0
 43
0.0
 44
0.0
 45
0.0
 46
0.0
 47
0.0
 48
0.0
 49
0.0
140
0.0
141
0.0
142
1.0
143
1.0
 70
   688
 72
     0
 73
     0
 74
     5
  7

 75
    16
147
1.0
148
0.0
149
0.0
100
AcDbLayout
  1
Layout1
 70
     1
 71
     1
 10
0.0
 20
0.0
 11
0.0
 21
0.0
 12
0.0
 22
0.0
 32
0.0
 14
0.0
 24
0.0
 34
0.0
 15
0.0
 25
0.0
 35
0.0
146
0.0
 13
0.0
 23
0.0
 33
0.0
 16
1.0
 26
0.0
 36
0.0
 17
0.0
 27
1.0
 37
0.0
 76
     0
330
1B
  0
LAYOUT
  5
26
102
{ACAD_REACTORS
330
1A
102
}
330
1A
100
AcDbPlotSettings
  1

  2

  4

  6

 40
0.0
 41
0.0
 42
0.0
 43
0.0
 44
0.0
 45
0.0
 46
0.0
 47
0.0
 48
0.0
 49
0.0
140
0.0
141
0.0
142
1.0
143
1.0
 70
   688
 72
     0
 73
     0
 74
     5
  7

 75
    16
147
1.0
148
0.0
149
0.0
100
AcDbLayout
  1
Layout2
 70
     1
 71
     2
 10
0.0
 20
0.0
 11
0.0
 21
0.0
 12
0.0
 22
0.0
 32
0.0
 14
0.0
 24
0.0
 34
0.0
 15
0.0
 25
0.0
 35
0.0
146
0.0
 13
0.0
 23
0.0
 33
0.0
 16
1.0
 26
0.0
 36
0.0
 17
0.0
 27
1.0
 37
0.0
 76
     0
330
23
  0
LAYOUT
  5
22
102
{ACAD_REACTORS
330
1A
102
}
330
1A
100
AcDbPlotSettings
  1

  2

  4

  6

 40
0.0
 41
0.0
 42
0.0
 43
0.0
 44
0.0
 45
0.0
 46
0.0
 47
0.0
 48
0.0
 49
0.0
140
0.0
141
0.0
142
1.0
143
1.0
 70
  1712
 72
     0
 73
     0
 74
     0
  7

 75
     0
147
1.0
148
0.0
149
0.0
100
AcDbLayout
  1
Model
 70
     1
 71
     0
 10
0.0
 20
0.0
 11
0.0
 21
0.0
 12
0.0
 22
0.0
 32
0.0
 14
0.0
 24
0.0
 34
0.0
 15
210.0
 25
297.0
 35
0.0
146
0.0
 13
0.0
 23
0.0
 33
0.0
 16
1.0
 26
0.0
 36
0.0
 17
0.0
 27
1.0
 37
0.0
 76
     0
330
1F
  0
MLINESTYLE
  5
18
102
{ACAD_REACTORS
330
17
102
}
330
17
100
AcDbMlineStyle
  2
Standard
 70
     0
  3

 62
   256
 51
90.0
 52
90.0
 71
     2
 49
0.5
 62
   256
  6
BYLAYER
 49
-0.5
 62
   256
  6
BYLAYER
  0
ACDBPLACEHOLDER
  5
F
102
{ACAD_REACTORS
330
E
102
}
330
E
  0
ENDSEC
  0
EOF
