  0
SECTION
  2
HEADER
  9
$ACADVER
  1
AC1015
  9
$ACADMAINTVER
 70
     6
  9
$DWGCODEPAGE
  3
DOS932
  9
$INSBASE
 10
0.0
 20
0.0
 30
0.0
  9
$EXTMIN
 10
0.0
 20
0.0
 30
0.0
  9
$EXTMAX
 10
210.0
 20
297.0
 30
0.0
  9
$LIMMIN
 10
0.0
 20
0.0
  9
$LIMMAX
 10
0.0
 20
0.0
  9
$ORTHOMODE
 70
     0
  9
$REGENMODE
 70
     1
  9
$FILLMODE
 70
     1
  9
$QTEXTMODE
 70
     0
  9
$MIRRTEXT
 70
     1
  9
$LTSCALE
 40
1.0
  9
$ATTMODE
 70
     1
  9
$TEXTSIZE
 40
3.5
  9
$TRACEWID
 40
1.0
  9
$TEXTSTYLE
  7
Standard
  9
$CLAYER
  8
0
  9
$CELTYPE
  6
ByLayer
  9
$CECOLOR
 62
   256
  9
$CELTSCALE
 40
1.0
  9
$DISPSILH
 70
     0
  9
$DIMSCALE
 40
1.0
  9
$DIMASZ
 40
3.0
  9
$DIMEXO
 40
1.0
  9
$DIMDLI
 40
3.75
  9
$DIMRND
 40
0.0
  9
$DIMDLE
 40
0.0
  9
$DIMEXE
 40
1.0
  9
$DIMTP
 40
0.0
  9
$DIMTM
 40
0.0
  9
$DIMTXT
 40
3.5
  9
$DIMCEN
 40
2.5
  9
$DIMTSZ
 40
0.0
  9
$DIMTOL
 70
     0
  9
$DIMLIM
 70
     0
  9
$DIMTIH
 70
     1
  9
$DIMTOH
 70
     1
  9
$DIMSE1
 70
     0
  9
$DIMSE2
 70
     0
  9
$DIMTAD
 70
     1
  9
$DIMZIN
 70
     1
  9
$DIMBLK
  1

  9
$DIMASO
 70
     1
  9
$DIMSHO
 70
     1
  9
$DIMPOST
  1

  9
$DIMAPOST
  1

  9
$DIMALT
 70
     0
  9
$DIMALTD
 70
     3
  9
$DIMALTF
 40
0.0393700787
  9
$DIMLFAC
 40
1.0
  9
$DIMTOFL
 70
     1
  9
$DIMTVP
 40
0.0
  9
$DIMTIX
 70
     0
  9
$DIMSOXD
 70
     0
  9
$DIMSAH
 70
     0
  9
$DIMBLK1
  1

  9
$DIMBLK2
  1

  9
$DIMSTYLE
  2
ISO-25
  9
$DIMCLRD
 70
     0
  9
$DIMCLRE
 70
     0
  9
$DIMCLRT
 70
     0
  9
$DIMTFAC
 40
1.0
  9
$DIMGAP
 40
1.524
  9
$DIMJUST
 70
     0
  9
$DIMSD1
 70
     0
  9
$DIMSD2
 70
     0
  9
$DIMTOLJ
 70
     0
  9
$DIMTZIN
 70
     1
  9
$DIMALTZ
 70
     0
  9
$DIMALTTZ
 70
     0
  9
$DIMUPT
 70
     0
  9
$DIMDEC
 70
     2
  9
$DIMTDEC
 70
     2
  9
$DIMALTU
 70
     2
  9
$DIMALTTD
 70
     3
  9
$DIMTXSTY
  7
Standard
  9
$DIMAUNIT
 70
     0
  9
$DIMADEC
 70
     0
  9
$DIMALTRND
 40
0.0
  9
$DIMAZIN
 70
     0
  9
$DIMDSEP
 70
    44
  9
$DIMATFIT
 70
     3
  9
$DIMFRAC
 70
     0
  9
$DIMLDRBLK
  1

  9
$DIMLUNIT
 70
     2
  9
$DIMLWD
 70
    -2
  9
$DIMLWE
 70
    -2
  9
$DIMTMOVE
 70
     0
  9
$LUNITS
 70
     2
  9
$LUPREC
 70
     1
  9
$SKETCHINC
 40
1.0
  9
$FILLETRAD
 40
10.0
  9
$AUNITS
 70
     0
  9
$AUPREC
 70
     0
  9
$MENU
  1
.
  9
$ELEVATION
 40
0.0
  9
$PELEVATION
 40
0.0
  9
$THICKNESS
 40
0.0
  9
$LIMCHECK
 70
     0
  9
$CHAMFERA
 40
10.0
  9
$CHAMFERB
 40
10.0
  9
$CHAMFERC
 40
20.0
  9
$CHAMFERD
 40
0.0
  9
$SKPOLY
 70
     0
  9
$TDCREATE
 40
2454314.639567234
  9
$TDUCREATE
 40
2454314.264567234
  9
$TDUPDATE
 40
2454314.639567245
  9
$TDUUPDATE
 40
2454314.264567245
  9
$TDINDWG
 40
0.0000000116
  9
$TDUSRTIMER
 40
0.0000000116
  9
$USRTIMER
 70
     1
  9
$ANGBASE
 50
0.0
  9
$ANGDIR
 70
     0
  9
$PDMODE
 70
     0
  9
$PDSIZE
 40
-1.0
  9
$PLINEWID
 40
0.0
  9
$SPLFRAME
 70
     0
  9
$SPLINETYPE
 70
     6
  9
$SPLINESEGS
 70
     8
  9
$HANDSEED
  5
29F
  9
$SURFTAB1
 70
     6
  9
$SURFTAB2
 70
     6
  9
$SURFTYPE
 70
     6
  9
$SURFU
 70
     6
  9
$SURFV
 70
     6
  9
$UCSBASE
  2

  9
$UCSNAME
  2

  9
$UCSORG
 10
0.0
 20
0.0
 30
0.0
  9
$UCSXDIR
 10
1.0
 20
0.0
 30
0.0
  9
$UCSYDIR
 10
0.0
 20
1.0
 30
0.0
  9
$UCSORTHOREF
  2

  9
$UCSORTHOVIEW
 70
     0
  9
$UCSORGTOP
 10
0.0
 20
0.0
 30
0.0
  9
$UCSORGBOTTOM
 10
0.0
 20
0.0
 30
0.0
  9
$UCSORGLEFT
 10
0.0
 20
0.0
 30
0.0
  9
$UCSORGRIGHT
 10
0.0
 20
0.0
 30
0.0
  9
$UCSORGFRONT
 10
0.0
 20
0.0
 30
0.0
  9
$UCSORGBACK
 10
0.0
 20
0.0
 30
0.0
  9
$PUCSBASE
  2

  9
$PUCSNAME
  2

  9
$PUCSORG
 10
0.0
 20
0.0
 30
0.0
  9
$PUCSXDIR
 10
1.0
 20
0.0
 30
0.0
  9
$PUCSYDIR
 10
0.0
 20
1.0
 30
0.0
  9
$PUCSORTHOREF
  2

  9
$PUCSORTHOVIEW
 70
     0
  9
$PUCSORGTOP
 10
0.0
 20
0.0
 30
0.0
  9
$PUCSORGBOTTOM
 10
0.0
 20
0.0
 30
0.0
  9
$PUCSORGLEFT
 10
0.0
 20
0.0
 30
0.0
  9
$PUCSORGRIGHT
 10
0.0
 20
0.0
 30
0.0
  9
$PUCSORGFRONT
 10
0.0
 20
0.0
 30
0.0
  9
$PUCSORGBACK
 10
0.0
 20
0.0
 30
0.0
  9
$USERI1
 70
     0
  9
$USERI2
 70
     0
  9
$USERI3
 70
     0
  9
$USERI4
 70
     0
  9
$USERI5
 70
     0
  9
$USERR1
 40
0.0
  9
$USERR2
 40
0.0
  9
$USERR3
 40
0.0
  9
$USERR4
 40
0.0
  9
$USERR5
 40
0.0
  9
$WORLDVIEW
 70
     1
  9
$SHADEDGE
 70
     3
  9
$SHADEDIF
 70
    70
  9
$TILEMODE
 70
     1
  9
$MAXACTVP
 70
    64
  9
$PINSBASE
 10
0.0
 20
0.0
 30
0.0
  9
$PLIMCHECK
 70
     0
  9
$PEXTMIN
 10
1.0000000000E+20
 20
1.0000000000E+20
 30
1.0000000000E+20
  9
$PEXTMAX
 10
-1.0000000000E+20
 20
-1.0000000000E+20
 30
-1.0000000000E+20
  9
$PLIMMIN
 10
0.0
 20
0.0
  9
$PLIMMAX
 10
420.0
 20
297.0
  9
$UNITMODE
 70
     0
  9
$VISRETAIN
 70
     1
  9
$PLINEGEN
 70
     0
  9
$PSLTSCALE
 70
     1
  9
$TREEDEPTH
 70
  3020
  9
$CMLSTYLE
  2
Standard
  9
$CMLJUST
 70
     0
  9
$CMLSCALE
 40
20.0
  9
$PROXYGRAPHICS
 70
     1
  9
$MEASUREMENT
 70
     1
  9
$CELWEIGHT
370
    -1
  9
$ENDCAPS
280
     0
  9
$JOINSTYLE
280
     0
  9
$LWDISPLAY
290
     1
  9
$INSUNITS
 70
     4
  9
$HYPERLINKBASE
  1

  9
$STYLESHEET
  1

  9
$XEDIT
290
     1
  9
$CEPSNTYPE
380
     0
  9
$PSTYLEMODE
290
     1
  9
$FINGERPRINTGUID
  2
{F923403D-99E8-4AC5-B0E6-C8DDB4176C5F}
  9
$VERSIONGUID
  2
{FAEB1C32-E019-11D5-929B-00C0DF256EC4}
  9
$EXTNAMES
290
     1
  9
$PSVPSCALE
 40
0.0
  9
$OLESTARTUP
290
     0
  0
ENDSEC
  0
SECTION
  2
CLASSES
  0
CLASS
  1
ACDBDICTIONARYWDFLT
  2
AcDbDictionaryWithDefault
  3
ObjectDBX Classes
 90
        0
280
     0
281
     0
  0
CLASS
  1
ACDBPLACEHOLDER
  2
AcDbPlaceHolder
  3
ObjectDBX Classes
 90
        0
280
     0
281
     0
  0
CLASS
  1
LAYOUT
  2
AcDbLayout
  3
ObjectDBX Classes
 90
        0
280
     0
281
     0
  0
ENDSEC
  0
SECTION
  2
TABLES
  0
TABLE
  2
VPORT
  5
8
330
0
100
AcDbSymbolTable
 70
     1
  0
VPORT
  5
29
330
8
100
AcDbSymbolTableRecord
100
AcDbViewportTableRecord
  2
*Active
 70
     0
 10
0.0
 20
0.0
 11
1.0
 21
1.0
 12
105.0
 22
148.5
 13
0.0
 23
0.0
 14
10.0
 24
10.0
 15
10.0
 25
10.0
 16
0.0
 26
0.0
 36
1.0
 17
0.0
 27
0.0
 37
0.0
 40
297.0
 41
1.9729729729
 42
50.0
 43
0.0
 44
0.0
 50
0.0
 51
0.0
 71
     0
 72
  2000
 73
     1
 74
     3
 75
     0
 76
     0
 77
     0
 78
     0
281
     0
 65
     1
110
0.0
120
0.0
130
0.0
111
1.0
121
0.0
131
0.0
112
0.0
122
1.0
132
0.0
 79
     0
146
0.0
  0
ENDTAB
  0
TABLE
  2
LTYPE
  5
5
330
0
100
AcDbSymbolTable
 70
     6
  0
LTYPE
  5
14
330
5
100
AcDbSymbolTableRecord
100
AcDbLinetypeTableRecord
  2
ByBlock
 70
     0
  3

 72
    65
 73
     0
 40
0.0
  0
LTYPE
  5
15
330
5
100
AcDbSymbolTableRecord
100
AcDbLinetypeTableRecord
  2
ByLayer
 70
     0
  3

 72
    65
 73
     0
 40
0.0
  0
LTYPE
  5
16
330
5
100
AcDbSymbolTableRecord
100
AcDbLinetypeTableRecord
  2
Continuous
 70
     0
  3
Solid line
 72
    65
 73
     0
 40
0.0
  0
LTYPE
  5
2A
330
5
100
AcDbSymbolTableRecord
100
AcDbLinetypeTableRecord
  2
HIDDEN
 70
     0
  3
Hidden __ __ __ __ __ __ __ __ __ __ __ __ __ __
 72
    65
 73
     2
 40
1.905
 49
1.27
 74
     0
 49
-0.635
 74
     0
  0
LTYPE
  5
2B
330
5
100
AcDbSymbolTableRecord
100
AcDbLinetypeTableRecord
  2
PHANTOM
 70
     0
  3
Phantom ______  __  __  ______  __  __  ______
 72
    65
 73
     6
 40
12.7
 49
6.35
 74
     0
 49
-1.27
 74
     0
 49
1.27
 74
     0
 49
-1.27
 74
     0
 49
1.27
 74
     0
 49
-1.27
 74
     0
  0
LTYPE
  5
2C
330
5
100
AcDbSymbolTableRecord
100
AcDbLinetypeTableRecord
  2
CENTER
 70
     0
  3
Center ____ _ ____ _ ____ _ ____ _ ____ _ ____
 72
    65
 73
     4
 40
10.16
 49
6.35
 74
     0
 49
-1.27
 74
     0
 49
1.27
 74
     0
 49
-1.27
 74
     0
  0
LTYPE
  5
2D
330
5
100
AcDbSymbolTableRecord
100
AcDbLinetypeTableRecord
  2
CENTERX2
 70
     0
  3
Center (2x) ________  __  ________  __  _____
 72
    65
 73
     4
 40
20.32
 49
12.7
 74
     0
 49
-2.54
 74
     0
 49
2.54
 74
     0
 49
-2.54
 74
     0
  0
LTYPE
  5
2E
330
5
100
AcDbSymbolTableRecord
100
AcDbLinetypeTableRecord
  2
DOT2
 70
     0
  3
Dot (.5x) ........................................
 72
    65
 73
     2
 40
0.635
 49
0.0
 74
     0
 49
-0.635
 74
     0
  0
ENDTAB
  0
TABLE
  2
LAYER
  5
2
330
0
100
AcDbSymbolTable
 70
     4
  0
LAYER
  5
10
330
2
100
AcDbSymbolTableRecord
100
AcDbLayerTableRecord
  2
0
 70
     0
 62
     7
  6
Continuous
370
    -3
390
F
  0
LAYER
  5
2F
330
2
100
AcDbSymbolTableRecord
100
AcDbLayerTableRecord
  2
SLD-0
 70
     0
 62
   179
  6
Continuous
370
     0
390
F
  0
LAYER
  5
30
330
2
100
AcDbSymbolTableRecord
100
AcDbLayerTableRecord
  2
SLD-DEFPOINTS
 70
     0
 62
   179
  6
Continuous
370
     0
390
F
  0
LAYER
  5
EE
330
2
100
AcDbSymbolTableRecord
100
AcDbLayerTableRecord
  2
Defpoints
 70
     0
 62
     7
  6
Continuous
290
     0
370
    -3
390
F
  0
ENDTAB
  0
TABLE
  2
STYLE
  5
3
330
0
100
AcDbSymbolTable
 70
     3
  0
STYLE
  5
11
330
3
100
AcDbSymbolTableRecord
100
AcDbTextStyleTableRecord
  2
Standard
 70
     0
 40
0.0
 41
1.0
 50
0.0
 71
     0
 42
2.5
  3
txt
  4
bigfont
  0
STYLE
  5
34
330
3
100
AcDbSymbolTableRecord
100
AcDbTextStyleTableRecord
  2
SLDTEXTSTYLE0
 70
     0
 40
0.0
 41
0.7
 50
0.0
 71
     0
 42
0.2
  3
TXT
  4
bigfont
  0
STYLE
  5
3C
330
3
100
AcDbSymbolTableRecord
100
AcDbTextStyleTableRecord
  2
SLDTEXTSTYLE1
 70
     0
 40
0.0
 41
0.5526315789
 50
0.0
 71
     0
 42
0.2
  3
TXT
  4
bigfont
  0
ENDTAB
  0
TABLE
  2
VIEW
  5
6
330
0
100
AcDbSymbolTable
 70
     0
  0
ENDTAB
  0
TABLE
  2
UCS
  5
7
330
0
100
AcDbSymbolTable
 70
     0
  0
ENDTAB
  0
TABLE
  2
APPID
  5
9
330
0
100
AcDbSymbolTable
 70
     1
  0
APPID
  5
12
330
9
100
AcDbSymbolTableRecord
100
AcDbRegAppTableRecord
  2
ACAD
 70
     0
  0
ENDTAB
  0
TABLE
  2
DIMSTYLE
  5
A
330
0
100
AcDbSymbolTable
 70
     6
100
AcDbDimStyleTable
  0
DIMSTYLE
105
27
330
A
100
AcDbSymbolTableRecord
100
AcDbDimStyleTableRecord
  2
ISO-25
 70
     0
 41
2.5
 42
0.625
 43
3.75
 44
1.25
 73
     0
 74
     0
 77
     1
 78
     8
140
2.5
141
2.5
143
0.0393700787
147
0.625
171
     3
172
     1
271
     2
272
     2
274
     3
278
    44
283
     0
284
     8
340
11
  0
DIMSTYLE
105
FB
102
{ACAD_REACTORS
330
ED
330
135
330
150
330
167
330
181
330
199
330
1B3
330
1CA
330
1FC
330
23C
330
274
102
}
330
A
100
AcDbSymbolTableRecord
100
AcDbDimStyleTableRecord
  2
SLDDIMSTYLE0
 70
     0
 41
3.0
 44
0.0
 73
     0
 74
     0
 77
     3
 78
    12
140
3.5
147
0.875
173
     1
271
     0
272
     3
284
    12
340
3C
341
FC
343
FC
344
FC
  0
DIMSTYLE
105
117
102
{ACAD_REACTORS
330
109
330
1E4
330
225
102
}
330
A
100
AcDbSymbolTableRecord
100
AcDbDimStyleTableRecord
  2
SLDDIMSTYLE1
 70
     0
 41
3.0
 44
0.0
 73
     0
 74
     0
 77
     3
 78
    12
140
3.5
147
0.875
173
     1
271
     1
272
     3
284
    12
340
3C
341
FC
343
FC
344
FC
  0
DIMSTYLE
105
12E
102
{ACAD_REACTORS
330
124
102
}
330
A
100
AcDbSymbolTableRecord
100
AcDbDimStyleTableRecord
  2
SLDDIMSTYLE2
 70
     0
 41
3.0
 44
0.0
 78
    12
140
3.5
147
0.875
173
     1
271
     0
272
     3
284
    12
340
3C
341
FC
343
FC
344
FC
  0
DIMSTYLE
105
21E
102
{ACAD_REACTORS
330
214
102
}
330
A
100
AcDbSymbolTableRecord
100
AcDbDimStyleTableRecord
  2
SLDDIMSTYLE3
 70
     0
 41
3.0
 44
0.0
 78
    12
140
3.5
147
0.875
172
     1
173
     1
271
     0
272
     3
284
    12
340
3C
341
FC
343
FC
344
FC
  0
DIMSTYLE
105
266
102
{ACAD_REACTORS
330
258
102
}
330
A
100
AcDbSymbolTableRecord
100
AcDbDimStyleTableRecord
  2
SLDDIMSTYLE4
 70
     0
 41
3.0
 44
0.0
 47
0.1
 71
     1
 73
     0
 74
     0
 77
     3
 78
    12
140
3.5
147
0.875
173
     1
271
     0
272
     1
340
3C
341
FC
343
FC
344
FC
  0
ENDTAB
  0
TABLE
  2
BLOCK_RECORD
  5
1
330
0
100
AcDbSymbolTable
 70
    32
  0
BLOCK_RECORD
  5
1F
330
1
100
AcDbSymbolTableRecord
100
AcDbBlockTableRecord
  2
*Model_Space
340
22
  0
BLOCK_RECORD
  5
1B
330
1
100
AcDbSymbolTableRecord
100
AcDbBlockTableRecord
  2
*Paper_Space
340
1E
  0
BLOCK_RECORD
  5
23
330
1
100
AcDbSymbolTableRecord
100
AcDbBlockTableRecord
  2
*Paper_Space0
340
26
  0
BLOCK_RECORD
  5
31
330
1
100
AcDbSymbolTableRecord
100
AcDbBlockTableRecord
  2
注記
340
0
102
{BLKREFS
331
294
102
}
  0
BLOCK_RECORD
  5
37
330
1
100
AcDbSymbolTableRecord
100
AcDbBlockTableRecord
  2
SURFACEFINISH40
340
0
102
{BLKREFS
331
292
102
}
  0
BLOCK_RECORD
  5
3E
330
1
100
AcDbSymbolTableRecord
100
AcDbBlockTableRecord
  2
SURFACEFINISH41
340
0
102
{BLKREFS
331
293
102
}
  0
BLOCK_RECORD
  5
45
330
1
100
AcDbSymbolTableRecord
100
AcDbBlockTableRecord
  2
SW_CENTERMARK0
340
0
102
{BLKREFS
331
295
102
}
  0
BLOCK_RECORD
  5
50
330
1
100
AcDbSymbolTableRecord
100
AcDbBlockTableRecord
  2
SW_CENTERMARK1
340
0
102
{BLKREFS
331
296
102
}
  0
BLOCK_RECORD
  5
5B
330
1
100
AcDbSymbolTableRecord
100
AcDbBlockTableRecord
  2
SW_CENTERMARK2
340
0
102
{BLKREFS
331
297
102
}
  0
BLOCK_RECORD
  5
66
330
1
100
AcDbSymbolTableRecord
100
AcDbBlockTableRecord
  2
SW_CENTERMARK3
340
0
102
{BLKREFS
331
298
102
}
  0
BLOCK_RECORD
  5
71
330
1
100
AcDbSymbolTableRecord
100
AcDbBlockTableRecord
  2
SW_CENTERMARK4
340
0
102
{BLKREFS
331
299
102
}
  0
BLOCK_RECORD
  5
7C
330
1
100
AcDbSymbolTableRecord
100
AcDbBlockTableRecord
  2
SW_CENTERMARK5
340
0
102
{BLKREFS
331
29A
102
}
  0
BLOCK_RECORD
  5
87
330
1
100
AcDbSymbolTableRecord
100
AcDbBlockTableRecord
  2
SW_CENTERMARK6
340
0
102
{BLKREFS
331
29B
102
}
  0
BLOCK_RECORD
  5
92
330
1
100
AcDbSymbolTableRecord
100
AcDbBlockTableRecord
  2
SW_CENTERMARK7
340
0
102
{BLKREFS
331
29C
102
}
  0
BLOCK_RECORD
  5
9D
330
1
100
AcDbSymbolTableRecord
100
AcDbBlockTableRecord
  2
SURFACEFINISH42
340
0
102
{BLKREFS
331
29D
102
}
  0
BLOCK_RECORD
  5
A5
330
1
100
AcDbSymbolTableRecord
100
AcDbBlockTableRecord
  2
SURFACEFINISH43
340
0
102
{BLKREFS
331
29E
102
}
  0
BLOCK_RECORD
  5
EF
330
1
100
AcDbSymbolTableRecord
100
AcDbBlockTableRecord
  2
*D14
340
0
  0
BLOCK_RECORD
  5
FC
330
1
100
AcDbSymbolTableRecord
100
AcDbBlockTableRecord
  2
_None
340
0
102
{BLKREFS
331
F4
331
F3
331
10F
331
10E
331
129
331
13C
331
13B
331
156
331
155
331
16D
331
16C
331
187
331
186
331
19F
331
19E
331
1B9
331
1B8
331
1D0
331
1CF
331
1EA
331
1E9
331
202
331
201
331
219
331
22B
331
22A
331
243
331
242
331
25E
331
25D
331
27A
331
279
102
}
  0
BLOCK_RECORD
  5
10A
330
1
100
AcDbSymbolTableRecord
100
AcDbBlockTableRecord
  2
*D16
340
0
  0
BLOCK_RECORD
  5
125
330
1
100
AcDbSymbolTableRecord
100
AcDbBlockTableRecord
  2
*D17
340
0
  0
BLOCK_RECORD
  5
136
330
1
100
AcDbSymbolTableRecord
100
AcDbBlockTableRecord
  2
*D18
340
0
  0
BLOCK_RECORD
  5
151
330
1
100
AcDbSymbolTableRecord
100
AcDbBlockTableRecord
  2
*D19
340
0
  0
BLOCK_RECORD
  5
168
330
1
100
AcDbSymbolTableRecord
100
AcDbBlockTableRecord
  2
*D20
340
0
  0
BLOCK_RECORD
  5
182
330
1
100
AcDbSymbolTableRecord
100
AcDbBlockTableRecord
  2
*D21
340
0
  0
BLOCK_RECORD
  5
19A
330
1
100
AcDbSymbolTableRecord
100
AcDbBlockTableRecord
  2
*D22
340
0
  0
BLOCK_RECORD
  5
1B4
330
1
100
AcDbSymbolTableRecord
100
AcDbBlockTableRecord
  2
*D23
340
0
  0
BLOCK_RECORD
  5
1CB
330
1
100
AcDbSymbolTableRecord
100
AcDbBlockTableRecord
  2
*D24
340
0
  0
BLOCK_RECORD
  5
1E5
330
1
100
AcDbSymbolTableRecord
100
AcDbBlockTableRecord
  2
*D25
340
0
  0
BLOCK_RECORD
  5
1FD
330
1
100
AcDbSymbolTableRecord
100
AcDbBlockTableRecord
  2
*D26
340
0
  0
BLOCK_RECORD
  5
215
330
1
100
AcDbSymbolTableRecord
100
AcDbBlockTableRecord
  2
*D27
340
0
  0
BLOCK_RECORD
  5
226
330
1
100
AcDbSymbolTableRecord
100
AcDbBlockTableRecord
  2
*D28
340
0
  0
BLOCK_RECORD
  5
23D
330
1
100
AcDbSymbolTableRecord
100
AcDbBlockTableRecord
  2
*D29
340
0
  0
BLOCK_RECORD
  5
259
330
1
100
AcDbSymbolTableRecord
100
AcDbBlockTableRecord
  2
*D30
340
0
  0
BLOCK_RECORD
  5
275
330
1
100
AcDbSymbolTableRecord
100
AcDbBlockTableRecord
  2
*D31
340
0
  0
ENDTAB
  0
ENDSEC
  0
SECTION
  2
BLOCKS
  0
BLOCK
  5
20
330
1F
100
AcDbEntity
  8
0
100
AcDbBlockBegin
  2
*Model_Space
 70
     0
 71
     0
 10
0.0
 20
0.0
 30
0.0
  3
*Model_Space
  1

  0
ENDBLK
  5
21
330
1F
100
AcDbEntity
  8
0
100
AcDbBlockEnd
  0
BLOCK
  5
1C
330
1B
100
AcDbEntity
 67
     1
  8
0
100
AcDbBlockBegin
  2
*Paper_Space
 70
     0
 71
     0
 10
0.0
 20
0.0
 30
0.0
  3
*Paper_Space
  1

  0
ENDBLK
  5
1D
330
1B
100
AcDbEntity
 67
     1
  8
0
100
AcDbBlockEnd
  0
BLOCK
  5
24
330
23
100
AcDbEntity
  8
0
100
AcDbBlockBegin
  2
*Paper_Space0
 70
     0
 71
     0
 10
0.0
 20
0.0
 30
0.0
  3
*Paper_Space0
  1

  0
ENDBLK
  5
25
330
23
100
AcDbEntity
  8
0
100
AcDbBlockEnd
  0
BLOCK
  5
32
330
31
100
AcDbEntity
  8
0
100
AcDbBlockBegin
  2
注記
 70
     0
 71
     0
 10
0.0
 20
0.0
 30
0.0
  3
注記
  1

  0
MTEXT
  5
35
330
31
100
AcDbEntity
  8
0
  6
Continuous
 62
     7
370
     0
100
AcDbMText
 10
0.2636785918
 20
9.0739778448
 30
0.0
 40
3.5
 41
0.0
 71
     1
 72
     1
  1
１．特記ナキ角部ハ、バリ　カエリノ無キコト。
  7
SLDTEXTSTYLE0
 73
     1
 44
1.0
  0
MTEXT
  5
36
330
31
100
AcDbEntity
  8
0
  6
Continuous
 62
     7
370
     0
100
AcDbMText
 10
0.2636785918
 20
3.5759549983
 30
0.0
 40
3.5
 41
0.0
 71
     1
 72
     1
  1
２．特記ナキ隅部ハ、Ｒ０．４ＭＡＸトスル。
  7
SLDTEXTSTYLE0
 73
     1
 44
1.0
  0
ENDBLK
  5
33
330
31
100
AcDbEntity
  8
0
100
AcDbBlockEnd
  0
BLOCK
  5
38
330
37
100
AcDbEntity
  8
0
100
AcDbBlockBegin
  2
SURFACEFINISH40
 70
     0
 71
     0
 10
0.0
 20
0.0
 30
0.0
  3
SURFACEFINISH40
  1

  0
LINE
  5
3A
330
37
100
AcDbEntity
  8
SLD-0
  6
Continuous
 62
   179
100
AcDbLine
 10
0.6656399396
 20
-6.0449245738
 30
0.0
 11
-2.9003789868
 21
0.0000001164
 31
0.0
  0
LINE
  5
3B
330
37
100
AcDbEntity
  8
SLD-0
  6
Continuous
 62
   179
100
AcDbLine
 10
0.6656399396
 20
-6.0449245738
 30
0.0
 11
7.7976777926
 21
6.0449248066
 31
0.0
  0
MTEXT
  5
3D
330
37
100
AcDbEntity
  8
SLD-0
100
AcDbMText
 10
0.0
 20
4.9341236929
 30
0.0
 40
3.175
 41
0.0
 71
     1
 72
     1
  1
25
  7
SLDTEXTSTYLE1
 73
     1
 44
1.0
  0
ENDBLK
  5
39
330
37
100
AcDbEntity
  8
0
100
AcDbBlockEnd
  0
BLOCK
  5
3F
330
3E
100
AcDbEntity
  8
0
100
AcDbBlockBegin
  2
SURFACEFINISH41
 70
     0
 71
     0
 10
0.0
 20
0.0
 30
0.0
  3
SURFACEFINISH41
  1

  0
LINE
  5
41
330
3E
100
AcDbEntity
  8
SLD-0
  6
Continuous
 62
   179
100
AcDbLine
 10
2.7814693727
 20
-6.0449245738
 30
0.0
 11
-0.7845495538
 21
0.0000001164
 31
0.0
  0
LINE
  5
42
330
3E
100
AcDbEntity
  8
SLD-0
  6
Continuous
 62
   179
100
AcDbLine
 10
6.3474882992
 20
0.0000001164
 30
0.0
 11
-0.7845495538
 21
0.0000001164
 31
0.0
  0
LINE
  5
43
330
3E
100
AcDbEntity
  8
SLD-0
  6
Continuous
 62
   179
100
AcDbLine
 10
2.7814693727
 20
-6.0449245738
 30
0.0
 11
9.9135072256
 21
6.0449248066
 31
0.0
  0
MTEXT
  5
44
330
3E
100
AcDbEntity
  8
SLD-0
100
AcDbMText
 10
0.0
 20
4.9341236929
 30
0.0
 40
3.175
 41
0.0
 71
     1
 72
     1
  1
6.3
  7
SLDTEXTSTYLE1
 73
     1
 44
1.0
  0
ENDBLK
  5
40
330
3E
100
AcDbEntity
  8
0
100
AcDbBlockEnd
  0
BLOCK
  5
46
330
45
100
AcDbEntity
  8
0
100
AcDbBlockBegin
  2
SW_CENTERMARK0
 70
     0
 71
     0
 10
0.0
 20
0.0
 30
0.0
  3
SW_CENTERMARK0
  1

  0
LINE
  5
48
330
45
100
AcDbEntity
  8
SLD-0
  6
Continuous
 62
   179
100
AcDbLine
 10
76.7602702703
 20
188.7813513514
 30
0.0
 11
76.7602702703
 21
191.2813513514
 31
0.0
  0
LINE
  5
49
330
45
100
AcDbEntity
  8
SLD-0
  6
Continuous
 62
   179
100
AcDbLine
 10
76.7602702703
 20
188.7813513514
 30
0.0
 11
74.2602702703
 21
188.7813513514
 31
0.0
  0
LINE
  5
4A
330
45
100
AcDbEntity
  8
SLD-0
  6
Continuous
 62
   179
100
AcDbLine
 10
76.7602702703
 20
188.7813513514
 30
0.0
 11
76.7602702703
 21
186.2813513514
 31
0.0
  0
LINE
  5
4B
330
45
100
AcDbEntity
  8
SLD-0
  6
Continuous
 62
   179
100
AcDbLine
 10
76.7602702703
 20
188.7813513514
 30
0.0
 11
79.2602702703
 21
188.7813513514
 31
0.0
  0
LINE
  5
4C
330
45
100
AcDbEntity
  8
SLD-0
  6
Continuous
 62
   179
100
AcDbLine
 10
76.7602702703
 20
191.2813513514
 30
0.0
 11
76.7602702703
 21
192.9313513514
 31
0.0
  0
LINE
  5
4D
330
45
100
AcDbEntity
  8
SLD-0
  6
Continuous
 62
   179
100
AcDbLine
 10
74.2602702703
 20
188.7813513514
 30
0.0
 11
72.6102702703
 21
188.7813513514
 31
0.0
  0
LINE
  5
4E
330
45
100
AcDbEntity
  8
SLD-0
  6
Continuous
 62
   179
100
AcDbLine
 10
76.7602702703
 20
186.2813513514
 30
0.0
 11
76.7602702703
 21
184.6313513514
 31
0.0
  0
LINE
  5
4F
330
45
100
AcDbEntity
  8
SLD-0
  6
Continuous
 62
   179
100
AcDbLine
 10
79.2602702703
 20
188.7813513514
 30
0.0
 11
80.9102702703
 21
188.7813513514
 31
0.0
  0
ENDBLK
  5
47
330
45
100
AcDbEntity
  8
0
100
AcDbBlockEnd
  0
BLOCK
  5
51
330
50
100
AcDbEntity
  8
0
100
AcDbBlockBegin
  2
SW_CENTERMARK1
 70
     0
 71
     0
 10
0.0
 20
0.0
 30
0.0
  3
SW_CENTERMARK1
  1

  0
LINE
  5
53
330
50
100
AcDbEntity
  8
SLD-0
  6
Continuous
 62
   179
100
AcDbLine
 10
97.7602702703
 20
188.7813513514
 30
0.0
 11
97.7602702703
 21
191.2813513514
 31
0.0
  0
LINE
  5
54
330
50
100
AcDbEntity
  8
SLD-0
  6
Continuous
 62
   179
100
AcDbLine
 10
97.7602702703
 20
188.7813513514
 30
0.0
 11
95.2602702703
 21
188.7813513514
 31
0.0
  0
LINE
  5
55
330
50
100
AcDbEntity
  8
SLD-0
  6
Continuous
 62
   179
100
AcDbLine
 10
97.7602702703
 20
188.7813513514
 30
0.0
 11
97.7602702703
 21
186.2813513514
 31
0.0
  0
LINE
  5
56
330
50
100
AcDbEntity
  8
SLD-0
  6
Continuous
 62
   179
100
AcDbLine
 10
97.7602702703
 20
188.7813513514
 30
0.0
 11
100.2602702703
 21
188.7813513514
 31
0.0
  0
LINE
  5
57
330
50
100
AcDbEntity
  8
SLD-0
  6
Continuous
 62
   179
100
AcDbLine
 10
97.7602702703
 20
191.2813513514
 30
0.0
 11
97.7602702703
 21
192.9313513514
 31
0.0
  0
LINE
  5
58
330
50
100
AcDbEntity
  8
SLD-0
  6
Continuous
 62
   179
100
AcDbLine
 10
95.2602702703
 20
188.7813513514
 30
0.0
 11
93.6102702703
 21
188.7813513514
 31
0.0
  0
LINE
  5
59
330
50
100
AcDbEntity
  8
SLD-0
  6
Continuous
 62
   179
100
AcDbLine
 10
97.7602702703
 20
186.2813513514
 30
0.0
 11
97.7602702703
 21
184.6313513514
 31
0.0
  0
LINE
  5
5A
330
50
100
AcDbEntity
  8
SLD-0
  6
Continuous
 62
   179
100
AcDbLine
 10
100.2602702703
 20
188.7813513514
 30
0.0
 11
101.9102702703
 21
188.7813513514
 31
0.0
  0
ENDBLK
  5
52
330
50
100
AcDbEntity
  8
0
100
AcDbBlockEnd
  0
BLOCK
  5
5C
330
5B
100
AcDbEntity
  8
0
100
AcDbBlockBegin
  2
SW_CENTERMARK2
 70
     0
 71
     0
 10
0.0
 20
0.0
 30
0.0
  3
SW_CENTERMARK2
  1

  0
LINE
  5
5E
330
5B
100
AcDbEntity
  8
SLD-0
  6
Continuous
 62
   179
100
AcDbLine
 10
97.7602702703
 20
132.7813513514
 30
0.0
 11
97.7602702703
 21
135.2813513514
 31
0.0
  0
LINE
  5
5F
330
5B
100
AcDbEntity
  8
SLD-0
  6
Continuous
 62
   179
100
AcDbLine
 10
97.7602702703
 20
132.7813513514
 30
0.0
 11
95.2602702703
 21
132.7813513514
 31
0.0
  0
LINE
  5
60
330
5B
100
AcDbEntity
  8
SLD-0
  6
Continuous
 62
   179
100
AcDbLine
 10
97.7602702703
 20
132.7813513514
 30
0.0
 11
97.7602702703
 21
130.2813513514
 31
0.0
  0
LINE
  5
61
330
5B
100
AcDbEntity
  8
SLD-0
  6
Continuous
 62
   179
100
AcDbLine
 10
97.7602702703
 20
132.7813513514
 30
0.0
 11
100.2602702703
 21
132.7813513514
 31
0.0
  0
LINE
  5
62
330
5B
100
AcDbEntity
  8
SLD-0
  6
Continuous
 62
   179
100
AcDbLine
 10
97.7602702703
 20
135.2813513514
 30
0.0
 11
97.7602702703
 21
136.9313513514
 31
0.0
  0
LINE
  5
63
330
5B
100
AcDbEntity
  8
SLD-0
  6
Continuous
 62
   179
100
AcDbLine
 10
95.2602702703
 20
132.7813513514
 30
0.0
 11
93.6102702703
 21
132.7813513514
 31
0.0
  0
LINE
  5
64
330
5B
100
AcDbEntity
  8
SLD-0
  6
Continuous
 62
   179
100
AcDbLine
 10
97.7602702703
 20
130.2813513514
 30
0.0
 11
97.7602702703
 21
128.6313513514
 31
0.0
  0
LINE
  5
65
330
5B
100
AcDbEntity
  8
SLD-0
  6
Continuous
 62
   179
100
AcDbLine
 10
100.2602702703
 20
132.7813513514
 30
0.0
 11
101.9102702703
 21
132.7813513514
 31
0.0
  0
ENDBLK
  5
5D
330
5B
100
AcDbEntity
  8
0
100
AcDbBlockEnd
  0
BLOCK
  5
67
330
66
100
AcDbEntity
  8
0
100
AcDbBlockBegin
  2
SW_CENTERMARK3
 70
     0
 71
     0
 10
0.0
 20
0.0
 30
0.0
  3
SW_CENTERMARK3
  1

  0
LINE
  5
69
330
66
100
AcDbEntity
  8
SLD-0
  6
Continuous
 62
   179
100
AcDbLine
 10
76.7602702703
 20
132.7813513514
 30
0.0
 11
76.7602702703
 21
135.2813513514
 31
0.0
  0
LINE
  5
6A
330
66
100
AcDbEntity
  8
SLD-0
  6
Continuous
 62
   179
100
AcDbLine
 10
76.7602702703
 20
132.7813513514
 30
0.0
 11
74.2602702703
 21
132.7813513514
 31
0.0
  0
LINE
  5
6B
330
66
100
AcDbEntity
  8
SLD-0
  6
Continuous
 62
   179
100
AcDbLine
 10
76.7602702703
 20
132.7813513514
 30
0.0
 11
76.7602702703
 21
130.2813513514
 31
0.0
  0
LINE
  5
6C
330
66
100
AcDbEntity
  8
SLD-0
  6
Continuous
 62
   179
100
AcDbLine
 10
76.7602702703
 20
132.7813513514
 30
0.0
 11
79.2602702703
 21
132.7813513514
 31
0.0
  0
LINE
  5
6D
330
66
100
AcDbEntity
  8
SLD-0
  6
Continuous
 62
   179
100
AcDbLine
 10
76.7602702703
 20
135.2813513514
 30
0.0
 11
76.7602702703
 21
136.9313513514
 31
0.0
  0
LINE
  5
6E
330
66
100
AcDbEntity
  8
SLD-0
  6
Continuous
 62
   179
100
AcDbLine
 10
74.2602702703
 20
132.7813513514
 30
0.0
 11
72.6102702703
 21
132.7813513514
 31
0.0
  0
LINE
  5
6F
330
66
100
AcDbEntity
  8
SLD-0
  6
Continuous
 62
   179
100
AcDbLine
 10
76.7602702703
 20
130.2813513514
 30
0.0
 11
76.7602702703
 21
128.6313513514
 31
0.0
  0
LINE
  5
70
330
66
100
AcDbEntity
  8
SLD-0
  6
Continuous
 62
   179
100
AcDbLine
 10
79.2602702703
 20
132.7813513514
 30
0.0
 11
80.9102702703
 21
132.7813513514
 31
0.0
  0
ENDBLK
  5
68
330
66
100
AcDbEntity
  8
0
100
AcDbBlockEnd
  0
BLOCK
  5
72
330
71
100
AcDbEntity
  8
0
100
AcDbBlockBegin
  2
SW_CENTERMARK4
 70
     0
 71
     0
 10
0.0
 20
0.0
 30
0.0
  3
SW_CENTERMARK4
  1

  0
LINE
  5
74
330
71
100
AcDbEntity
  8
SLD-0
  6
Continuous
 62
   179
100
AcDbLine
 10
80.2602702703
 20
156.2813513514
 30
0.0
 11
80.2602702703
 21
158.7813513514
 31
0.0
  0
LINE
  5
75
330
71
100
AcDbEntity
  8
SLD-0
  6
Continuous
 62
   179
100
AcDbLine
 10
80.2602702703
 20
156.2813513514
 30
0.0
 11
77.7602702703
 21
156.2813513514
 31
0.0
  0
LINE
  5
76
330
71
100
AcDbEntity
  8
SLD-0
  6
Continuous
 62
   179
100
AcDbLine
 10
80.2602702703
 20
156.2813513514
 30
0.0
 11
80.2602702703
 21
153.7813513514
 31
0.0
  0
LINE
  5
77
330
71
100
AcDbEntity
  8
SLD-0
  6
Continuous
 62
   179
100
AcDbLine
 10
80.2602702703
 20
156.2813513514
 30
0.0
 11
82.7602702703
 21
156.2813513514
 31
0.0
  0
LINE
  5
78
330
71
100
AcDbEntity
  8
SLD-0
  6
Continuous
 62
   179
100
AcDbLine
 10
80.2602702703
 20
161.2813513514
 30
0.0
 11
80.2602702703
 21
162.7813513514
 31
0.0
  0
LINE
  5
79
330
71
100
AcDbEntity
  8
SLD-0
  6
Continuous
 62
   179
100
AcDbLine
 10
75.2602702703
 20
156.2813513514
 30
0.0
 11
73.7602702703
 21
156.2813513514
 31
0.0
  0
LINE
  5
7A
330
71
100
AcDbEntity
  8
SLD-0
  6
Continuous
 62
   179
100
AcDbLine
 10
80.2602702703
 20
151.2813513514
 30
0.0
 11
80.2602702703
 21
149.7813513514
 31
0.0
  0
LINE
  5
7B
330
71
100
AcDbEntity
  8
SLD-0
  6
Continuous
 62
   179
100
AcDbLine
 10
85.2602702703
 20
156.2813513514
 30
0.0
 11
86.7602702703
 21
156.2813513514
 31
0.0
  0
ENDBLK
  5
73
330
71
100
AcDbEntity
  8
0
100
AcDbBlockEnd
  0
BLOCK
  5
7D
330
7C
100
AcDbEntity
  8
0
100
AcDbBlockBegin
  2
SW_CENTERMARK5
 70
     0
 71
     0
 10
0.0
 20
0.0
 30
0.0
  3
SW_CENTERMARK5
  1

  0
LINE
  5
7F
330
7C
100
AcDbEntity
  8
SLD-0
  6
Continuous
 62
   179
100
AcDbLine
 10
94.2602702703
 20
156.2813513514
 30
0.0
 11
94.2602702703
 21
158.7813513514
 31
0.0
  0
LINE
  5
80
330
7C
100
AcDbEntity
  8
SLD-0
  6
Continuous
 62
   179
100
AcDbLine
 10
94.2602702703
 20
156.2813513514
 30
0.0
 11
91.7602702703
 21
156.2813513514
 31
0.0
  0
LINE
  5
81
330
7C
100
AcDbEntity
  8
SLD-0
  6
Continuous
 62
   179
100
AcDbLine
 10
94.2602702703
 20
156.2813513514
 30
0.0
 11
94.2602702703
 21
153.7813513514
 31
0.0
  0
LINE
  5
82
330
7C
100
AcDbEntity
  8
SLD-0
  6
Continuous
 62
   179
100
AcDbLine
 10
94.2602702703
 20
156.2813513514
 30
0.0
 11
96.7602702703
 21
156.2813513514
 31
0.0
  0
LINE
  5
83
330
7C
100
AcDbEntity
  8
SLD-0
  6
Continuous
 62
   179
100
AcDbLine
 10
94.2602702703
 20
161.2813513514
 30
0.0
 11
94.2602702703
 21
162.7813513514
 31
0.0
  0
LINE
  5
84
330
7C
100
AcDbEntity
  8
SLD-0
  6
Continuous
 62
   179
100
AcDbLine
 10
89.2602702703
 20
156.2813513514
 30
0.0
 11
87.7602702703
 21
156.2813513514
 31
0.0
  0
LINE
  5
85
330
7C
100
AcDbEntity
  8
SLD-0
  6
Continuous
 62
   179
100
AcDbLine
 10
94.2602702703
 20
151.2813513514
 30
0.0
 11
94.2602702703
 21
149.7813513514
 31
0.0
  0
LINE
  5
86
330
7C
100
AcDbEntity
  8
SLD-0
  6
Continuous
 62
   179
100
AcDbLine
 10
99.2602702703
 20
156.2813513514
 30
0.0
 11
100.7602702703
 21
156.2813513514
 31
0.0
  0
ENDBLK
  5
7E
330
7C
100
AcDbEntity
  8
0
100
AcDbBlockEnd
  0
BLOCK
  5
88
330
87
100
AcDbEntity
  8
0
100
AcDbBlockBegin
  2
SW_CENTERMARK6
 70
     0
 71
     0
 10
0.0
 20
0.0
 30
0.0
  3
SW_CENTERMARK6
  1

  0
LINE
  5
8A
330
87
100
AcDbEntity
  8
SLD-0
  6
Continuous
 62
   179
100
AcDbLine
 10
94.2602702703
 20
165.2813513514
 30
0.0
 11
94.2602702703
 21
167.7813513514
 31
0.0
  0
LINE
  5
8B
330
87
100
AcDbEntity
  8
SLD-0
  6
Continuous
 62
   179
100
AcDbLine
 10
94.2602702703
 20
165.2813513514
 30
0.0
 11
91.7602702703
 21
165.2813513514
 31
0.0
  0
LINE
  5
8C
330
87
100
AcDbEntity
  8
SLD-0
  6
Continuous
 62
   179
100
AcDbLine
 10
94.2602702703
 20
165.2813513514
 30
0.0
 11
94.2602702703
 21
162.7813513514
 31
0.0
  0
LINE
  5
8D
330
87
100
AcDbEntity
  8
SLD-0
  6
Continuous
 62
   179
100
AcDbLine
 10
94.2602702703
 20
165.2813513514
 30
0.0
 11
96.7602702703
 21
165.2813513514
 31
0.0
  0
LINE
  5
8E
330
87
100
AcDbEntity
  8
SLD-0
  6
Continuous
 62
   179
100
AcDbLine
 10
94.2602702703
 20
170.2813513514
 30
0.0
 11
94.2602702703
 21
171.7813513514
 31
0.0
  0
LINE
  5
8F
330
87
100
AcDbEntity
  8
SLD-0
  6
Continuous
 62
   179
100
AcDbLine
 10
89.2602702703
 20
165.2813513514
 30
0.0
 11
87.7602702703
 21
165.2813513514
 31
0.0
  0
LINE
  5
90
330
87
100
AcDbEntity
  8
SLD-0
  6
Continuous
 62
   179
100
AcDbLine
 10
94.2602702703
 20
160.2813513514
 30
0.0
 11
94.2602702703
 21
158.7813513514
 31
0.0
  0
LINE
  5
91
330
87
100
AcDbEntity
  8
SLD-0
  6
Continuous
 62
   179
100
AcDbLine
 10
99.2602702703
 20
165.2813513514
 30
0.0
 11
100.7602702703
 21
165.2813513514
 31
0.0
  0
ENDBLK
  5
89
330
87
100
AcDbEntity
  8
0
100
AcDbBlockEnd
  0
BLOCK
  5
93
330
92
100
AcDbEntity
  8
0
100
AcDbBlockBegin
  2
SW_CENTERMARK7
 70
     0
 71
     0
 10
0.0
 20
0.0
 30
0.0
  3
SW_CENTERMARK7
  1

  0
LINE
  5
95
330
92
100
AcDbEntity
  8
SLD-0
  6
Continuous
 62
   179
100
AcDbLine
 10
80.2602702703
 20
165.2813513514
 30
0.0
 11
80.2602702703
 21
167.7813513514
 31
0.0
  0
LINE
  5
96
330
92
100
AcDbEntity
  8
SLD-0
  6
Continuous
 62
   179
100
AcDbLine
 10
80.2602702703
 20
165.2813513514
 30
0.0
 11
77.7602702703
 21
165.2813513514
 31
0.0
  0
LINE
  5
97
330
92
100
AcDbEntity
  8
SLD-0
  6
Continuous
 62
   179
100
AcDbLine
 10
80.2602702703
 20
165.2813513514
 30
0.0
 11
80.2602702703
 21
162.7813513514
 31
0.0
  0
LINE
  5
98
330
92
100
AcDbEntity
  8
SLD-0
  6
Continuous
 62
   179
100
AcDbLine
 10
80.2602702703
 20
165.2813513514
 30
0.0
 11
82.7602702703
 21
165.2813513514
 31
0.0
  0
LINE
  5
99
330
92
100
AcDbEntity
  8
SLD-0
  6
Continuous
 62
   179
100
AcDbLine
 10
80.2602702703
 20
170.2813513514
 30
0.0
 11
80.2602702703
 21
171.7813513514
 31
0.0
  0
LINE
  5
9A
330
92
100
AcDbEntity
  8
SLD-0
  6
Continuous
 62
   179
100
AcDbLine
 10
75.2602702703
 20
165.2813513514
 30
0.0
 11
73.7602702703
 21
165.2813513514
 31
0.0
  0
LINE
  5
9B
330
92
100
AcDbEntity
  8
SLD-0
  6
Continuous
 62
   179
100
AcDbLine
 10
80.2602702703
 20
160.2813513514
 30
0.0
 11
80.2602702703
 21
158.7813513514
 31
0.0
  0
LINE
  5
9C
330
92
100
AcDbEntity
  8
SLD-0
  6
Continuous
 62
   179
100
AcDbLine
 10
85.2602702703
 20
165.2813513514
 30
0.0
 11
86.7602702703
 21
165.2813513514
 31
0.0
  0
ENDBLK
  5
94
330
92
100
AcDbEntity
  8
0
100
AcDbBlockEnd
  0
BLOCK
  5
9E
330
9D
100
AcDbEntity
  8
0
100
AcDbBlockBegin
  2
SURFACEFINISH42
 70
     0
 71
     0
 10
0.0
 20
0.0
 30
0.0
  3
SURFACEFINISH42
  1

  0
LINE
  5
A0
330
9D
100
AcDbEntity
  8
SLD-0
  6
Continuous
 62
   179
100
AcDbLine
 10
-3.995074038
 20
-4.0299497062
 30
0.0
 11
2.8543129151
 21
-4.0299497062
 31
0.0
  0
LINE
  5
A1
330
9D
100
AcDbEntity
  8
SLD-0
  6
Continuous
 62
   179
100
AcDbLine
 10
1.8543129151
 20
-4.0299497062
 30
0.0
 11
-0.5230330359
 21
0.0000000873
 31
0.0
  0
LINE
  5
A2
330
9D
100
AcDbEntity
  8
SLD-0
  6
Continuous
 62
   179
100
AcDbLine
 10
4.2316588661
 20
0.0000000873
 30
0.0
 11
-0.5230330359
 21
0.0000000873
 31
0.0
  0
LINE
  5
A3
330
9D
100
AcDbEntity
  8
SLD-0
  6
Continuous
 62
   179
100
AcDbLine
 10
1.8543129151
 20
-4.0299497062
 30
0.0
 11
6.6090048171
 21
4.0299498808
 31
0.0
  0
MTEXT
  5
A4
330
9D
100
AcDbEntity
  8
SLD-0
100
AcDbMText
 10
0.0
 20
2.9130973836
 30
0.0
 40
2.1166666667
 41
0.0
 71
     1
 72
     1
  1
6.3
  7
SLDTEXTSTYLE1
 73
     1
 44
1.0
  0
ENDBLK
  5
9F
330
9D
100
AcDbEntity
  8
0
100
AcDbBlockEnd
  0
BLOCK
  5
A6
330
A5
100
AcDbEntity
  8
0
100
AcDbBlockBegin
  2
SURFACEFINISH43
 70
     0
 71
     0
 10
0.0
 20
0.0
 30
0.0
  3
SURFACEFINISH43
  1

  0
LINE
  5
A8
330
A5
100
AcDbEntity
  8
SLD-0
  6
Continuous
 62
   179
100
AcDbLine
 10
-4.302004597
 20
7.1331663826
 30
0.0
 11
3.8005118376
 21
7.1331663826
 31
0.0
  0
LINE
  5
A9
330
A5
100
AcDbEntity
  8
SLD-0
  6
Continuous
 62
   179
100
AcDbLine
 10
2.8005118376
 20
7.1331663826
 30
0.0
 11
5.1778577886
 21
3.1032165891
 31
0.0
  0
LINE
  5
AA
330
A5
100
AcDbEntity
  8
SLD-0
  6
Continuous
 62
   179
100
AcDbLine
 10
0.4231658866
 20
3.1032165891
 30
0.0
 11
5.1778577886
 21
3.1032165891
 31
0.0
  0
LINE
  5
AB
330
A5
100
AcDbEntity
  8
SLD-0
  6
Continuous
 62
   179
100
AcDbLine
 10
2.8005118376
 20
7.1331663826
 30
0.0
 11
-1.9541800644
 21
-0.9267332044
 31
0.0
  0
MTEXT
  5
AC
330
A5
100
AcDbEntity
  8
SLD-0
100
AcDbMText
 10
0.0
 20
2.9130973836
 30
0.0
 40
2.1166666667
 41
0.0
 71
     1
 72
     1
  1
6.3
  7
SLDTEXTSTYLE1
 73
     1
 44
1.0
  0
ENDBLK
  5
A7
330
A5
100
AcDbEntity
  8
0
100
AcDbBlockEnd
  0
BLOCK
  5
F9
330
EF
100
AcDbEntity
  8
0
100
AcDbBlockBegin
  2
*D14
 70
     1
 71
     0
 10
0.0
 20
0.0
 30
0.0
  3
*D14
  1

  0
LINE
  5
FF
330
EF
100
AcDbEntity
  8
SLD-0
 62
     7
100
AcDbLine
 10
71.7602702703
 20
126.7813513514
 30
0.0
 11
71.7602702703
 21
107.1884891503
 31
0.0
  0
LINE
  5
100
330
EF
100
AcDbEntity
  8
SLD-0
 62
     7
100
AcDbLine
 10
102.7602702703
 20
126.7813513514
 30
0.0
 11
102.7602702703
 21
107.1884891503
 31
0.0
  0
LINE
  5
101
330
EF
100
AcDbEntity
  8
SLD-0
 62
     7
100
AcDbLine
 10
71.7602702703
 20
108.1884891503
 30
0.0
 11
102.7602702703
 21
108.1884891503
 31
0.0
  0
LINE
  5
102
330
EF
100
AcDbEntity
  8
SLD-0
 62
     7
100
AcDbLine
 10
74.7602702703
 20
107.3846421503
 30
0.0
 11
71.7602702703
 21
108.1884891503
 31
0.0
  0
LINE
  5
103
330
EF
100
AcDbEntity
  8
SLD-0
 62
     7
100
AcDbLine
 10
71.7602702703
 20
108.1884891503
 30
0.0
 11
74.7602702703
 21
108.9923361503
 31
0.0
  0
LINE
  5
104
330
EF
100
AcDbEntity
  8
SLD-0
 62
     7
100
AcDbLine
 10
71.7602702703
 20
108.1884891503
 30
0.0
 11
74.7602702703
 21
108.1884891503
 31
0.0
  0
LINE
  5
105
330
EF
100
AcDbEntity
  8
SLD-0
 62
     7
100
AcDbLine
 10
99.7602702703
 20
108.9923361503
 30
0.0
 11
102.7602702703
 21
108.1884891503
 31
0.0
  0
LINE
  5
106
330
EF
100
AcDbEntity
  8
SLD-0
 62
     7
100
AcDbLine
 10
102.7602702703
 20
108.1884891503
 30
0.0
 11
99.7602702703
 21
107.3846421503
 31
0.0
  0
LINE
  5
107
330
EF
100
AcDbEntity
  8
SLD-0
 62
     7
100
AcDbLine
 10
102.7602702703
 20
108.1884891503
 30
0.0
 11
99.7602702703
 21
108.1884891503
 31
0.0
  0
MTEXT
  5
108
330
EF
100
AcDbEntity
  8
SLD-0
 62
     7
100
AcDbMText
 10
85.2248350471
 20
112.7151828462
 30
0.1
 40
3.5
 41
0.0
 71
     1
 72
     1
  1
31
  7
SLDTEXTSTYLE0
 73
     1
 44
1.0
  0
ENDBLK
  5
FA
330
EF
100
AcDbEntity
  8
0
100
AcDbBlockEnd
  0
BLOCK
  5
FD
330
FC
100
AcDbEntity
  8
0
100
AcDbBlockBegin
  2
_None
 70
     0
 71
     0
 10
0.0
 20
0.0
 30
0.0
  3
_None
  1

  0
ENDBLK
  5
FE
330
FC
100
AcDbEntity
  8
0
100
AcDbBlockEnd
  0
BLOCK
  5
115
330
10A
100
AcDbEntity
  8
0
100
AcDbBlockBegin
  2
*D16
 70
     1
 71
     0
 10
0.0
 20
0.0
 30
0.0
  3
*D16
  1

  0
LINE
  5
118
330
10A
100
AcDbEntity
  8
SLD-0
 62
     7
100
AcDbLine
 10
80.2602702703
 20
148.7813513514
 30
0.0
 11
80.2602702703
 21
115.2508406021
 31
0.0
  0
LINE
  5
119
330
10A
100
AcDbEntity
  8
SLD-0
 62
     7
100
AcDbLine
 10
71.7602702703
 20
126.7813513514
 30
0.0
 11
71.7602702703
 21
115.2508406021
 31
0.0
  0
LINE
  5
11A
330
10A
100
AcDbEntity
  8
SLD-0
 62
     7
100
AcDbLine
 10
80.2602702703
 20
116.2508406021
 30
0.0
 11
85.2602702703
 21
116.2508406021
 31
0.0
  0
LINE
  5
11B
330
10A
100
AcDbEntity
  8
SLD-0
 62
     7
100
AcDbLine
 10
80.2602702703
 20
116.2508406021
 30
0.0
 11
71.7602702703
 21
116.2508406021
 31
0.0
  0
LINE
  5
11C
330
10A
100
AcDbEntity
  8
SLD-0
 62
     7
100
AcDbLine
 10
71.7602702703
 20
116.2508406021
 30
0.0
 11
66.7602702703
 21
116.2508406021
 31
0.0
  0
LINE
  5
11D
330
10A
100
AcDbEntity
  8
SLD-0
 62
     7
100
AcDbLine
 10
83.2602702703
 20
115.4469936021
 30
0.0
 11
80.2602702703
 21
116.2508406021
 31
0.0
  0
LINE
  5
11E
330
10A
100
AcDbEntity
  8
SLD-0
 62
     7
100
AcDbLine
 10
80.2602702703
 20
116.2508406021
 30
0.0
 11
83.2602702703
 21
117.0546876021
 31
0.0
  0
LINE
  5
11F
330
10A
100
AcDbEntity
  8
SLD-0
 62
     7
100
AcDbLine
 10
80.2602702703
 20
116.2508406021
 30
0.0
 11
83.2602702703
 21
116.2508406021
 31
0.0
  0
LINE
  5
120
330
10A
100
AcDbEntity
  8
SLD-0
 62
     7
100
AcDbLine
 10
68.7602702703
 20
117.0546876021
 30
0.0
 11
71.7602702703
 21
116.2508406021
 31
0.0
  0
LINE
  5
121
330
10A
100
AcDbEntity
  8
SLD-0
 62
     7
100
AcDbLine
 10
71.7602702703
 20
116.2508406021
 30
0.0
 11
68.7602702703
 21
115.4469936021
 31
0.0
  0
LINE
  5
122
330
10A
100
AcDbEntity
  8
SLD-0
 62
     7
100
AcDbLine
 10
71.7602702703
 20
116.2508406021
 30
0.0
 11
68.7602702703
 21
116.2508406021
 31
0.0
  0
MTEXT
  5
123
330
10A
100
AcDbEntity
  8
SLD-0
 62
     7
100
AcDbMText
 10
72.9552902944
 20
120.7775342981
 30
0.1
 40
3.5
 41
0.0
 71
     1
 72
     1
  1
8.5
  7
SLDTEXTSTYLE0
 73
     1
 44
1.0
  0
ENDBLK
  5
116
330
10A
100
AcDbEntity
  8
0
100
AcDbBlockEnd
  0
BLOCK
  5
12C
330
125
100
AcDbEntity
  8
0
100
AcDbBlockBegin
  2
*D17
 70
     1
 71
     0
 10
0.0
 20
0.0
 30
0.0
  3
*D17
  1

  0
LINE
  5
12F
330
125
100
AcDbEntity
  8
SLD-0
 62
     7
100
AcDbLine
 10
78.588222273
 20
168.9151173723
 30
0.0
 11
64.4361269441
 21
199.6710545302
 31
0.0
  0
LINE
  5
130
330
125
100
AcDbEntity
  8
SLD-0
 62
     7
100
AcDbLine
 10
64.4361269441
 20
199.6710545302
 30
0.0
 11
49.4927965461
 21
199.6710545302
 31
0.0
  0
LINE
  5
131
330
125
100
AcDbEntity
  8
SLD-0
 62
     7
100
AcDbLine
 10
78.0644342537
 20
171.9764595796
 30
0.0
 11
78.588222273
 21
168.9151173723
 31
0.0
  0
LINE
  5
132
330
125
100
AcDbEntity
  8
SLD-0
 62
     7
100
AcDbLine
 10
78.588222273
 20
168.9151173723
 30
0.0
 11
76.6039382964
 21
171.3044241964
 31
0.0
  0
LINE
  5
133
330
125
100
AcDbEntity
  8
SLD-0
 62
     7
100
AcDbLine
 10
78.588222273
 20
168.9151173723
 30
0.0
 11
77.334186275
 21
171.640441888
 31
0.0
  0
MTEXT
  5
134
330
125
100
AcDbEntity
  8
SLD-0
 62
     7
100
AcDbMText
 10
51.0802965461
 20
204.1977482261
 30
0.1
 40
3.5
 41
0.0
 71
     1
 72
     1
  1
2x2-R
  7
SLDTEXTSTYLE0
 73
     1
 44
1.0
  0
ENDBLK
  5
12D
330
125
100
AcDbEntity
  8
0
100
AcDbBlockEnd
  0
BLOCK
  5
143
330
136
100
AcDbEntity
  8
0
100
AcDbBlockBegin
  2
*D18
 70
     1
 71
     0
 10
0.0
 20
0.0
 30
0.0
  3
*D18
  1

  0
LINE
  5
145
330
136
100
AcDbEntity
  8
SLD-0
 62
     7
100
AcDbLine
 10
76.2602702703
 20
155.2813513514
 30
0.0
 11
76.2602702703
 21
145.5811089778
 31
0.0
  0
LINE
  5
146
330
136
100
AcDbEntity
  8
SLD-0
 62
     7
100
AcDbLine
 10
84.2602702703
 20
155.2813513514
 30
0.0
 11
84.2602702703
 21
145.5811089778
 31
0.0
  0
LINE
  5
147
330
136
100
AcDbEntity
  8
SLD-0
 62
     7
100
AcDbLine
 10
76.2602702703
 20
146.5811089778
 30
0.0
 11
63.298631511
 21
146.5811089778
 31
0.0
  0
LINE
  5
148
330
136
100
AcDbEntity
  8
SLD-0
 62
     7
100
AcDbLine
 10
76.2602702703
 20
146.5811089778
 30
0.0
 11
84.2602702703
 21
146.5811089778
 31
0.0
  0
LINE
  5
149
330
136
100
AcDbEntity
  8
SLD-0
 62
     7
100
AcDbLine
 10
79.2602702703
 20
145.7772619778
 30
0.0
 11
76.2602702703
 21
146.5811089778
 31
0.0
  0
LINE
  5
14A
330
136
100
AcDbEntity
  8
SLD-0
 62
     7
100
AcDbLine
 10
76.2602702703
 20
146.5811089778
 30
0.0
 11
79.2602702703
 21
147.3849559778
 31
0.0
  0
LINE
  5
14B
330
136
100
AcDbEntity
  8
SLD-0
 62
     7
100
AcDbLine
 10
76.2602702703
 20
146.5811089778
 30
0.0
 11
79.2602702703
 21
146.5811089778
 31
0.0
  0
LINE
  5
14C
330
136
100
AcDbEntity
  8
SLD-0
 62
     7
100
AcDbLine
 10
81.2602702703
 20
147.3849559778
 30
0.0
 11
84.2602702703
 21
146.5811089778
 31
0.0
  0
LINE
  5
14D
330
136
100
AcDbEntity
  8
SLD-0
 62
     7
100
AcDbLine
 10
84.2602702703
 20
146.5811089778
 30
0.0
 11
81.2602702703
 21
145.7772619778
 31
0.0
  0
LINE
  5
14E
330
136
100
AcDbEntity
  8
SLD-0
 62
     7
100
AcDbLine
 10
84.2602702703
 20
146.5811089778
 30
0.0
 11
81.2602702703
 21
146.5811089778
 31
0.0
  0
MTEXT
  5
14F
330
136
100
AcDbEntity
  8
SLD-0
 62
     7
100
AcDbMText
 10
64.886131511
 20
151.1078026738
 30
0.1
 40
3.5
 41
0.0
 71
     1
 72
     1
  1
8
  7
SLDTEXTSTYLE0
 73
     1
 44
1.0
  0
ENDBLK
  5
144
330
136
100
AcDbEntity
  8
0
100
AcDbBlockEnd
  0
BLOCK
  5
15B
330
151
100
AcDbEntity
  8
0
100
AcDbBlockBegin
  2
*D19
 70
     1
 71
     0
 10
0.0
 20
0.0
 30
0.0
  3
*D19
  1

  0
LINE
  5
15D
330
151
100
AcDbEntity
  8
SLD-0
 62
     7
100
AcDbLine
 10
94.2602702703
 20
148.7813513514
 30
0.0
 11
94.2602702703
 21
115.2508406021
 31
0.0
  0
LINE
  5
15E
330
151
100
AcDbEntity
  8
SLD-0
 62
     7
100
AcDbLine
 10
80.2602702703
 20
148.7813513514
 30
0.0
 11
80.2602702703
 21
115.2508406021
 31
0.0
  0
LINE
  5
15F
330
151
100
AcDbEntity
  8
SLD-0
 62
     7
100
AcDbLine
 10
94.2602702703
 20
116.2508406021
 30
0.0
 11
80.2602702703
 21
116.2508406021
 31
0.0
  0
LINE
  5
160
330
151
100
AcDbEntity
  8
SLD-0
 62
     7
100
AcDbLine
 10
91.2602702703
 20
117.0546876021
 30
0.0
 11
94.2602702703
 21
116.2508406021
 31
0.0
  0
LINE
  5
161
330
151
100
AcDbEntity
  8
SLD-0
 62
     7
100
AcDbLine
 10
94.2602702703
 20
116.2508406021
 30
0.0
 11
91.2602702703
 21
115.4469936021
 31
0.0
  0
LINE
  5
162
330
151
100
AcDbEntity
  8
SLD-0
 62
     7
100
AcDbLine
 10
94.2602702703
 20
116.2508406021
 30
0.0
 11
91.2602702703
 21
116.2508406021
 31
0.0
  0
LINE
  5
163
330
151
100
AcDbEntity
  8
SLD-0
 62
     7
100
AcDbLine
 10
83.2602702703
 20
115.4469936021
 30
0.0
 11
80.2602702703
 21
116.2508406021
 31
0.0
  0
LINE
  5
164
330
151
100
AcDbEntity
  8
SLD-0
 62
     7
100
AcDbLine
 10
80.2602702703
 20
116.2508406021
 30
0.0
 11
83.2602702703
 21
117.0546876021
 31
0.0
  0
LINE
  5
165
330
151
100
AcDbEntity
  8
SLD-0
 62
     7
100
AcDbLine
 10
80.2602702703
 20
116.2508406021
 30
0.0
 11
83.2602702703
 21
116.2508406021
 31
0.0
  0
MTEXT
  5
166
330
151
100
AcDbEntity
  8
SLD-0
 62
     7
100
AcDbMText
 10
85.2248350471
 20
120.7775342981
 30
0.1
 40
3.5
 41
0.0
 71
     1
 72
     1
  1
14
  7
SLDTEXTSTYLE0
 73
     1
 44
1.0
  0
ENDBLK
  5
15C
330
151
100
AcDbEntity
  8
0
100
AcDbBlockEnd
  0
BLOCK
  5
173
330
168
100
AcDbEntity
  8
0
100
AcDbBlockBegin
  2
*D20
 70
     1
 71
     0
 10
0.0
 20
0.0
 30
0.0
  3
*D20
  1

  0
LINE
  5
175
330
168
100
AcDbEntity
  8
SLD-0
 62
     7
100
AcDbLine
 10
102.9102702703
 20
188.7813513514
 30
0.0
 11
111.7931549745
 21
188.7813513514
 31
0.0
  0
LINE
  5
176
330
168
100
AcDbEntity
  8
SLD-0
 62
     7
100
AcDbLine
 10
103.7602702703
 20
193.7813513514
 30
0.0
 11
111.7931549745
 21
193.7813513514
 31
0.0
  0
LINE
  5
177
330
168
100
AcDbEntity
  8
SLD-0
 62
     7
100
AcDbLine
 10
110.7931549745
 20
188.7813513514
 30
0.0
 11
110.7931549745
 21
183.7813513514
 31
0.0
  0
LINE
  5
178
330
168
100
AcDbEntity
  8
SLD-0
 62
     7
100
AcDbLine
 10
110.7931549745
 20
188.7813513514
 30
0.0
 11
110.7931549745
 21
193.7813513514
 31
0.0
  0
LINE
  5
179
330
168
100
AcDbEntity
  8
SLD-0
 62
     7
100
AcDbLine
 10
110.7931549745
 20
193.7813513514
 30
0.0
 11
110.7931549745
 21
198.7813513514
 31
0.0
  0
LINE
  5
17A
330
168
100
AcDbEntity
  8
SLD-0
 62
     7
100
AcDbLine
 10
109.9893079745
 20
185.7813513514
 30
0.0
 11
110.7931549745
 21
188.7813513514
 31
0.0
  0
LINE
  5
17B
330
168
100
AcDbEntity
  8
SLD-0
 62
     7
100
AcDbLine
 10
110.7931549745
 20
188.7813513514
 30
0.0
 11
111.5970019745
 21
185.7813513514
 31
0.0
  0
LINE
  5
17C
330
168
100
AcDbEntity
  8
SLD-0
 62
     7
100
AcDbLine
 10
110.7931549745
 20
188.7813513514
 30
0.0
 11
110.7931549745
 21
185.7813513514
 31
0.0
  0
LINE
  5
17D
330
168
100
AcDbEntity
  8
SLD-0
 62
     7
100
AcDbLine
 10
111.5970019745
 20
196.7813513514
 30
0.0
 11
110.7931549745
 21
193.7813513514
 31
0.0
  0
LINE
  5
17E
330
168
100
AcDbEntity
  8
SLD-0
 62
     7
100
AcDbLine
 10
110.7931549745
 20
193.7813513514
 30
0.0
 11
109.9893079745
 21
196.7813513514
 31
0.0
  0
LINE
  5
17F
330
168
100
AcDbEntity
  8
SLD-0
 62
     7
100
AcDbLine
 10
110.7931549745
 20
193.7813513514
 30
0.0
 11
110.7931549745
 21
196.7813513514
 31
0.0
  0
MTEXT
  5
180
330
168
100
AcDbEntity
  8
SLD-0
 62
     7
100
AcDbMText
 10
106.2664612786
 20
190.2636337398
 30
0.1
 40
3.5
 41
0.0
 71
     1
 72
     1
  1
5
  7
SLDTEXTSTYLE0
 11
6.123031769111886E-17
 21
1.0
 31
0.0
 73
     1
 44
1.0
  0
ENDBLK
  5
174
330
168
100
AcDbEntity
  8
0
100
AcDbBlockEnd
  0
BLOCK
  5
18D
330
182
100
AcDbEntity
  8
0
100
AcDbBlockBegin
  2
*D21
 70
     1
 71
     0
 10
0.0
 20
0.0
 30
0.0
  3
*D21
  1

  0
LINE
  5
18F
330
182
100
AcDbEntity
  8
SLD-0
 62
     7
100
AcDbLine
 10
102.9102702703
 20
132.7813513514
 30
0.0
 11
111.7931549745
 21
132.7813513514
 31
0.0
  0
LINE
  5
190
330
182
100
AcDbEntity
  8
SLD-0
 62
     7
100
AcDbLine
 10
102.9102702703
 20
188.7813513514
 30
0.0
 11
111.7931549745
 21
188.7813513514
 31
0.0
  0
LINE
  5
191
330
182
100
AcDbEntity
  8
SLD-0
 62
     7
100
AcDbLine
 10
110.7931549745
 20
132.7813513514
 30
0.0
 11
110.7931549745
 21
188.7813513514
 31
0.0
  0
LINE
  5
192
330
182
100
AcDbEntity
  8
SLD-0
 62
     7
100
AcDbLine
 10
111.5970019745
 20
135.7813513514
 30
0.0
 11
110.7931549745
 21
132.7813513514
 31
0.0
  0
LINE
  5
193
330
182
100
AcDbEntity
  8
SLD-0
 62
     7
100
AcDbLine
 10
110.7931549745
 20
132.7813513514
 30
0.0
 11
109.9893079745
 21
135.7813513514
 31
0.0
  0
LINE
  5
194
330
182
100
AcDbEntity
  8
SLD-0
 62
     7
100
AcDbLine
 10
110.7931549745
 20
132.7813513514
 30
0.0
 11
110.7931549745
 21
135.7813513514
 31
0.0
  0
LINE
  5
195
330
182
100
AcDbEntity
  8
SLD-0
 62
     7
100
AcDbLine
 10
109.9893079745
 20
185.7813513514
 30
0.0
 11
110.7931549745
 21
188.7813513514
 31
0.0
  0
LINE
  5
196
330
182
100
AcDbEntity
  8
SLD-0
 62
     7
100
AcDbLine
 10
110.7931549745
 20
188.7813513514
 30
0.0
 11
111.5970019745
 21
185.7813513514
 31
0.0
  0
LINE
  5
197
330
182
100
AcDbEntity
  8
SLD-0
 62
     7
100
AcDbLine
 10
110.7931549745
 20
188.7813513514
 30
0.0
 11
110.7931549745
 21
185.7813513514
 31
0.0
  0
MTEXT
  5
198
330
182
100
AcDbEntity
  8
SLD-0
 62
     7
100
AcDbMText
 10
106.2664612786
 20
158.7459161282
 30
0.1
 40
3.5
 41
0.0
 71
     1
 72
     1
  1
56
  7
SLDTEXTSTYLE0
 11
6.123031769111886E-17
 21
1.0
 31
0.0
 73
     1
 44
1.0
  0
ENDBLK
  5
18E
330
182
100
AcDbEntity
  8
0
100
AcDbBlockEnd
  0
BLOCK
  5
1A5
330
19A
100
AcDbEntity
  8
0
100
AcDbBlockBegin
  2
*D22
 70
     1
 71
     0
 10
0.0
 20
0.0
 30
0.0
  3
*D22
  1

  0
LINE
  5
1A7
330
19A
100
AcDbEntity
  8
SLD-0
 62
     7
100
AcDbLine
 10
76.7602702703
 20
193.9313513514
 30
0.0
 11
76.7602702703
 21
212.8930848329
 31
0.0
  0
LINE
  5
1A8
330
19A
100
AcDbEntity
  8
SLD-0
 62
     7
100
AcDbLine
 10
71.7602702703
 20
194.7813513514
 30
0.0
 11
71.7602702703
 21
212.8930848329
 31
0.0
  0
LINE
  5
1A9
330
19A
100
AcDbEntity
  8
SLD-0
 62
     7
100
AcDbLine
 10
76.7602702703
 20
211.8930848329
 30
0.0
 11
81.7602702703
 21
211.8930848329
 31
0.0
  0
LINE
  5
1AA
330
19A
100
AcDbEntity
  8
SLD-0
 62
     7
100
AcDbLine
 10
76.7602702703
 20
211.8930848329
 30
0.0
 11
71.7602702703
 21
211.8930848329
 31
0.0
  0
LINE
  5
1AB
330
19A
100
AcDbEntity
  8
SLD-0
 62
     7
100
AcDbLine
 10
71.7602702703
 20
211.8930848329
 30
0.0
 11
66.7602702703
 21
211.8930848329
 31
0.0
  0
LINE
  5
1AC
330
19A
100
AcDbEntity
  8
SLD-0
 62
     7
100
AcDbLine
 10
79.7602702703
 20
211.0892378329
 30
0.0
 11
76.7602702703
 21
211.8930848329
 31
0.0
  0
LINE
  5
1AD
330
19A
100
AcDbEntity
  8
SLD-0
 62
     7
100
AcDbLine
 10
76.7602702703
 20
211.8930848329
 30
0.0
 11
79.7602702703
 21
212.6969318329
 31
0.0
  0
LINE
  5
1AE
330
19A
100
AcDbEntity
  8
SLD-0
 62
     7
100
AcDbLine
 10
76.7602702703
 20
211.8930848329
 30
0.0
 11
79.7602702703
 21
211.8930848329
 31
0.0
  0
LINE
  5
1AF
330
19A
100
AcDbEntity
  8
SLD-0
 62
     7
100
AcDbLine
 10
68.7602702703
 20
212.6969318329
 30
0.0
 11
71.7602702703
 21
211.8930848329
 31
0.0
  0
LINE
  5
1B0
330
19A
100
AcDbEntity
  8
SLD-0
 62
     7
100
AcDbLine
 10
71.7602702703
 20
211.8930848329
 30
0.0
 11
68.7602702703
 21
211.0892378329
 31
0.0
  0
LINE
  5
1B1
330
19A
100
AcDbEntity
  8
SLD-0
 62
     7
100
AcDbLine
 10
71.7602702703
 20
211.8930848329
 30
0.0
 11
68.7602702703
 21
211.8930848329
 31
0.0
  0
MTEXT
  5
1B2
330
19A
100
AcDbEntity
  8
SLD-0
 62
     7
100
AcDbMText
 10
73.2425526587
 20
216.4197785288
 30
0.1
 40
3.5
 41
0.0
 71
     1
 72
     1
  1
5
  7
SLDTEXTSTYLE0
 73
     1
 44
1.0
  0
ENDBLK
  5
1A6
330
19A
100
AcDbEntity
  8
0
100
AcDbBlockEnd
  0
BLOCK
  5
1BE
330
1B4
100
AcDbEntity
  8
0
100
AcDbBlockBegin
  2
*D23
 70
     1
 71
     0
 10
0.0
 20
0.0
 30
0.0
  3
*D23
  1

  0
LINE
  5
1C0
330
1B4
100
AcDbEntity
  8
SLD-0
 62
     7
100
AcDbLine
 10
97.7602702703
 20
193.9313513514
 30
0.0
 11
97.7602702703
 21
212.8930848329
 31
0.0
  0
LINE
  5
1C1
330
1B4
100
AcDbEntity
  8
SLD-0
 62
     7
100
AcDbLine
 10
76.7602702703
 20
193.9313513514
 30
0.0
 11
76.7602702703
 21
212.8930848329
 31
0.0
  0
LINE
  5
1C2
330
1B4
100
AcDbEntity
  8
SLD-0
 62
     7
100
AcDbLine
 10
97.7602702703
 20
211.8930848329
 30
0.0
 11
76.7602702703
 21
211.8930848329
 31
0.0
  0
LINE
  5
1C3
330
1B4
100
AcDbEntity
  8
SLD-0
 62
     7
100
AcDbLine
 10
94.7602702703
 20
212.6969318329
 30
0.0
 11
97.7602702703
 21
211.8930848329
 31
0.0
  0
LINE
  5
1C4
330
1B4
100
AcDbEntity
  8
SLD-0
 62
     7
100
AcDbLine
 10
97.7602702703
 20
211.8930848329
 30
0.0
 11
94.7602702703
 21
211.0892378329
 31
0.0
  0
LINE
  5
1C5
330
1B4
100
AcDbEntity
  8
SLD-0
 62
     7
100
AcDbLine
 10
97.7602702703
 20
211.8930848329
 30
0.0
 11
94.7602702703
 21
211.8930848329
 31
0.0
  0
LINE
  5
1C6
330
1B4
100
AcDbEntity
  8
SLD-0
 62
     7
100
AcDbLine
 10
79.7602702703
 20
211.0892378329
 30
0.0
 11
76.7602702703
 21
211.8930848329
 31
0.0
  0
LINE
  5
1C7
330
1B4
100
AcDbEntity
  8
SLD-0
 62
     7
100
AcDbLine
 10
76.7602702703
 20
211.8930848329
 30
0.0
 11
79.7602702703
 21
212.6969318329
 31
0.0
  0
LINE
  5
1C8
330
1B4
100
AcDbEntity
  8
SLD-0
 62
     7
100
AcDbLine
 10
76.7602702703
 20
211.8930848329
 30
0.0
 11
79.7602702703
 21
211.8930848329
 31
0.0
  0
MTEXT
  5
1C9
330
1B4
100
AcDbEntity
  8
SLD-0
 62
     7
100
AcDbMText
 10
85.2248350471
 20
216.4197785288
 30
0.1
 40
3.5
 41
0.0
 71
     1
 72
     1
  1
21
  7
SLDTEXTSTYLE0
 73
     1
 44
1.0
  0
ENDBLK
  5
1BF
330
1B4
100
AcDbEntity
  8
0
100
AcDbBlockEnd
  0
BLOCK
  5
1D6
330
1CB
100
AcDbEntity
  8
0
100
AcDbBlockBegin
  2
*D24
 70
     1
 71
     0
 10
0.0
 20
0.0
 30
0.0
  3
*D24
  1

  0
LINE
  5
1D8
330
1CB
100
AcDbEntity
  8
SLD-0
 62
     7
100
AcDbLine
 10
87.7602702703
 20
165.2813513514
 30
0.0
 11
53.1448430192
 21
165.2813513514
 31
0.0
  0
LINE
  5
1D9
330
1CB
100
AcDbEntity
  8
SLD-0
 62
     7
100
AcDbLine
 10
87.7602702703
 20
156.2813513514
 30
0.0
 11
53.1448430192
 21
156.2813513514
 31
0.0
  0
LINE
  5
1DA
330
1CB
100
AcDbEntity
  8
SLD-0
 62
     7
100
AcDbLine
 10
54.1448430192
 20
165.2813513514
 30
0.0
 11
54.1448430192
 21
170.2813513514
 31
0.0
  0
LINE
  5
1DB
330
1CB
100
AcDbEntity
  8
SLD-0
 62
     7
100
AcDbLine
 10
54.1448430192
 20
165.2813513514
 30
0.0
 11
54.1448430192
 21
156.2813513514
 31
0.0
  0
LINE
  5
1DC
330
1CB
100
AcDbEntity
  8
SLD-0
 62
     7
100
AcDbLine
 10
54.1448430192
 20
156.2813513514
 30
0.0
 11
54.1448430192
 21
151.2813513514
 31
0.0
  0
LINE
  5
1DD
330
1CB
100
AcDbEntity
  8
SLD-0
 62
     7
100
AcDbLine
 10
54.9486900192
 20
168.2813513514
 30
0.0
 11
54.1448430192
 21
165.2813513514
 31
0.0
  0
LINE
  5
1DE
330
1CB
100
AcDbEntity
  8
SLD-0
 62
     7
100
AcDbLine
 10
54.1448430192
 20
165.2813513514
 30
0.0
 11
53.3409960192
 21
168.2813513514
 31
0.0
  0
LINE
  5
1DF
330
1CB
100
AcDbEntity
  8
SLD-0
 62
     7
100
AcDbLine
 10
54.1448430192
 20
165.2813513514
 30
0.0
 11
54.1448430192
 21
168.2813513514
 31
0.0
  0
LINE
  5
1E0
330
1CB
100
AcDbEntity
  8
SLD-0
 62
     7
100
AcDbLine
 10
53.3409960192
 20
153.2813513514
 30
0.0
 11
54.1448430192
 21
156.2813513514
 31
0.0
  0
LINE
  5
1E1
330
1CB
100
AcDbEntity
  8
SLD-0
 62
     7
100
AcDbLine
 10
54.1448430192
 20
156.2813513514
 30
0.0
 11
54.9486900192
 21
153.2813513514
 31
0.0
  0
LINE
  5
1E2
330
1CB
100
AcDbEntity
  8
SLD-0
 62
     7
100
AcDbLine
 10
54.1448430192
 20
156.2813513514
 30
0.0
 11
54.1448430192
 21
153.2813513514
 31
0.0
  0
MTEXT
  5
1E3
330
1CB
100
AcDbEntity
  8
SLD-0
 62
     7
100
AcDbMText
 10
49.6181493233
 20
159.7636337398
 30
0.1
 40
3.5
 41
0.0
 71
     1
 72
     1
  1
9
  7
SLDTEXTSTYLE0
 11
6.123031769111886E-17
 21
1.0
 31
0.0
 73
     1
 44
1.0
  0
ENDBLK
  5
1D7
330
1CB
100
AcDbEntity
  8
0
100
AcDbBlockEnd
  0
BLOCK
  5
1F0
330
1E5
100
AcDbEntity
  8
0
100
AcDbBlockBegin
  2
*D25
 70
     1
 71
     0
 10
0.0
 20
0.0
 30
0.0
  3
*D25
  1

  0
LINE
  5
1F2
330
1E5
100
AcDbEntity
  8
SLD-0
 62
     7
100
AcDbLine
 10
87.7602702703
 20
165.2813513514
 30
0.0
 11
53.1448430192
 21
165.2813513514
 31
0.0
  0
LINE
  5
1F3
330
1E5
100
AcDbEntity
  8
SLD-0
 62
     7
100
AcDbLine
 10
70.7602702703
 20
193.7813513514
 30
0.0
 11
53.1448430192
 21
193.7813513514
 31
0.0
  0
LINE
  5
1F4
330
1E5
100
AcDbEntity
  8
SLD-0
 62
     7
100
AcDbLine
 10
54.1448430192
 20
165.2813513514
 30
0.0
 11
54.1448430192
 21
193.7813513514
 31
0.0
  0
LINE
  5
1F5
330
1E5
100
AcDbEntity
  8
SLD-0
 62
     7
100
AcDbLine
 10
54.9486900192
 20
168.2813513514
 30
0.0
 11
54.1448430192
 21
165.2813513514
 31
0.0
  0
LINE
  5
1F6
330
1E5
100
AcDbEntity
  8
SLD-0
 62
     7
100
AcDbLine
 10
54.1448430192
 20
165.2813513514
 30
0.0
 11
53.3409960192
 21
168.2813513514
 31
0.0
  0
LINE
  5
1F7
330
1E5
100
AcDbEntity
  8
SLD-0
 62
     7
100
AcDbLine
 10
54.1448430192
 20
165.2813513514
 30
0.0
 11
54.1448430192
 21
168.2813513514
 31
0.0
  0
LINE
  5
1F8
330
1E5
100
AcDbEntity
  8
SLD-0
 62
     7
100
AcDbLine
 10
53.3409960192
 20
190.7813513514
 30
0.0
 11
54.1448430192
 21
193.7813513514
 31
0.0
  0
LINE
  5
1F9
330
1E5
100
AcDbEntity
  8
SLD-0
 62
     7
100
AcDbLine
 10
54.1448430192
 20
193.7813513514
 30
0.0
 11
54.9486900192
 21
190.7813513514
 31
0.0
  0
LINE
  5
1FA
330
1E5
100
AcDbEntity
  8
SLD-0
 62
     7
100
AcDbLine
 10
54.1448430192
 20
193.7813513514
 30
0.0
 11
54.1448430192
 21
190.7813513514
 31
0.0
  0
MTEXT
  5
1FB
330
1E5
100
AcDbEntity
  8
SLD-0
 62
     7
100
AcDbMText
 10
49.6181493233
 20
175.4586537639
 30
0.1
 40
3.5
 41
0.0
 71
     1
 72
     1
  1
28.5
  7
SLDTEXTSTYLE0
 11
6.123031769111886E-17
 21
1.0
 31
0.0
 73
     1
 44
1.0
  0
ENDBLK
  5
1F1
330
1E5
100
AcDbEntity
  8
0
100
AcDbBlockEnd
  0
BLOCK
  5
208
330
1FD
100
AcDbEntity
  8
0
100
AcDbBlockBegin
  2
*D26
 70
     1
 71
     0
 10
0.0
 20
0.0
 30
0.0
  3
*D26
  1

  0
LINE
  5
20A
330
1FD
100
AcDbEntity
  8
SLD-0
 62
     7
100
AcDbLine
 10
70.7602702703
 20
193.7813513514
 30
0.0
 11
43.5974622471
 21
193.7813513514
 31
0.0
  0
LINE
  5
20B
330
1FD
100
AcDbEntity
  8
SLD-0
 62
     7
100
AcDbLine
 10
70.7602702703
 20
127.7813513514
 30
0.0
 11
43.5974622471
 21
127.7813513514
 31
0.0
  0
LINE
  5
20C
330
1FD
100
AcDbEntity
  8
SLD-0
 62
     7
100
AcDbLine
 10
44.5974622471
 20
193.7813513514
 30
0.0
 11
44.5974622471
 21
127.7813513514
 31
0.0
  0
LINE
  5
20D
330
1FD
100
AcDbEntity
  8
SLD-0
 62
     7
100
AcDbLine
 10
43.7936152471
 20
190.7813513514
 30
0.0
 11
44.5974622471
 21
193.7813513514
 31
0.0
  0
LINE
  5
20E
330
1FD
100
AcDbEntity
  8
SLD-0
 62
     7
100
AcDbLine
 10
44.5974622471
 20
193.7813513514
 30
0.0
 11
45.4013092471
 21
190.7813513514
 31
0.0
  0
LINE
  5
20F
330
1FD
100
AcDbEntity
  8
SLD-0
 62
     7
100
AcDbLine
 10
44.5974622471
 20
193.7813513514
 30
0.0
 11
44.5974622471
 21
190.7813513514
 31
0.0
  0
LINE
  5
210
330
1FD
100
AcDbEntity
  8
SLD-0
 62
     7
100
AcDbLine
 10
45.4013092471
 20
130.7813513514
 30
0.0
 11
44.5974622471
 21
127.7813513514
 31
0.0
  0
LINE
  5
211
330
1FD
100
AcDbEntity
  8
SLD-0
 62
     7
100
AcDbLine
 10
44.5974622471
 20
127.7813513514
 30
0.0
 11
43.7936152471
 21
130.7813513514
 31
0.0
  0
LINE
  5
212
330
1FD
100
AcDbEntity
  8
SLD-0
 62
     7
100
AcDbLine
 10
44.5974622471
 20
127.7813513514
 30
0.0
 11
44.5974622471
 21
130.7813513514
 31
0.0
  0
MTEXT
  5
213
330
1FD
100
AcDbEntity
  8
SLD-0
 62
     7
100
AcDbMText
 10
40.0707685512
 20
158.7459161282
 30
0.1
 40
3.5
 41
0.0
 71
     1
 72
     1
  1
66
  7
SLDTEXTSTYLE0
 11
6.123031769111886E-17
 21
1.0
 31
0.0
 73
     1
 44
1.0
  0
ENDBLK
  5
209
330
1FD
100
AcDbEntity
  8
0
100
AcDbBlockEnd
  0
BLOCK
  5
21C
330
215
100
AcDbEntity
  8
0
100
AcDbBlockBegin
  2
*D27
 70
     1
 71
     0
 10
0.0
 20
0.0
 30
0.0
  3
*D27
  1

  0
LINE
  5
21F
330
215
100
AcDbEntity
  8
SLD-0
 62
     7
100
AcDbLine
 10
98.5974569913
 20
190.5976988936
 30
0.0
 11
105.5713261129
 21
205.728098982
 31
0.0
  0
LINE
  5
220
330
215
100
AcDbEntity
  8
SLD-0
 62
     7
100
AcDbLine
 10
105.5713261129
 20
205.728098982
 30
0.0
 11
118.4792212878
 21
205.728098982
 31
0.0
  0
LINE
  5
221
330
215
100
AcDbEntity
  8
SLD-0
 62
     7
100
AcDbLine
 10
100.5832698343
 20
192.9857351898
 30
0.0
 11
98.5974569913
 21
190.5976988936
 31
0.0
  0
LINE
  5
222
330
215
100
AcDbEntity
  8
SLD-0
 62
     7
100
AcDbLine
 10
98.5974569913
 20
190.5976988936
 30
0.0
 11
99.1232043115
 21
193.658705224
 31
0.0
  0
LINE
  5
223
330
215
100
AcDbEntity
  8
SLD-0
 62
     7
100
AcDbLine
 10
98.5974569913
 20
190.5976988936
 30
0.0
 11
99.8532370729
 21
193.3222202069
 31
0.0
  0
MTEXT
  5
224
330
215
100
AcDbEntity
  8
SLD-0
 62
     7
100
AcDbMText
 10
108.7463261129
 20
210.2547926779
 30
0.1
 40
3.5
 41
0.0
 71
     1
 72
     1
  1
4-M4
  7
SLDTEXTSTYLE0
 73
     1
 44
1.0
  0
ENDBLK
  5
21D
330
215
100
AcDbEntity
  8
0
100
AcDbBlockEnd
  0
BLOCK
  5
230
330
226
100
AcDbEntity
  8
0
100
AcDbBlockBegin
  2
*D28
 70
     1
 71
     0
 10
0.0
 20
0.0
 30
0.0
  3
*D28
  1

  0
LINE
  5
232
330
226
100
AcDbEntity
  8
SLD-0
 62
     7
100
AcDbLine
 10
154.0524324324
 20
194.7813513514
 30
0.0
 11
154.0524324324
 21
210.9461696658
 31
0.0
  0
LINE
  5
233
330
226
100
AcDbEntity
  8
SLD-0
 62
     7
100
AcDbLine
 10
140.5524324324
 20
194.7813513514
 30
0.0
 11
140.5524324324
 21
210.9461696658
 31
0.0
  0
LINE
  5
234
330
226
100
AcDbEntity
  8
SLD-0
 62
     7
100
AcDbLine
 10
154.0524324324
 20
209.9461696658
 30
0.0
 11
140.5524324324
 21
209.9461696658
 31
0.0
  0
LINE
  5
235
330
226
100
AcDbEntity
  8
SLD-0
 62
     7
100
AcDbLine
 10
151.0524324324
 20
210.7500166658
 30
0.0
 11
154.0524324324
 21
209.9461696658
 31
0.0
  0
LINE
  5
236
330
226
100
AcDbEntity
  8
SLD-0
 62
     7
100
AcDbLine
 10
154.0524324324
 20
209.9461696658
 30
0.0
 11
151.0524324324
 21
209.1423226658
 31
0.0
  0
LINE
  5
237
330
226
100
AcDbEntity
  8
SLD-0
 62
     7
100
AcDbLine
 10
154.0524324324
 20
209.9461696658
 30
0.0
 11
151.0524324324
 21
209.9461696658
 31
0.0
  0
LINE
  5
238
330
226
100
AcDbEntity
  8
SLD-0
 62
     7
100
AcDbLine
 10
143.5524324324
 20
209.1423226658
 30
0.0
 11
140.5524324324
 21
209.9461696658
 31
0.0
  0
LINE
  5
239
330
226
100
AcDbEntity
  8
SLD-0
 62
     7
100
AcDbLine
 10
140.5524324324
 20
209.9461696658
 30
0.0
 11
143.5524324324
 21
210.7500166658
 31
0.0
  0
LINE
  5
23A
330
226
100
AcDbEntity
  8
SLD-0
 62
     7
100
AcDbLine
 10
140.5524324324
 20
209.9461696658
 30
0.0
 11
143.5524324324
 21
209.9461696658
 31
0.0
  0
MTEXT
  5
23B
330
226
100
AcDbEntity
  8
SLD-0
 62
     7
100
AcDbMText
 10
143.229734845
 20
214.4728633618
 30
0.1
 40
3.5
 41
0.0
 71
     1
 72
     1
  1
13.5
  7
SLDTEXTSTYLE0
 73
     1
 44
1.0
  0
ENDBLK
  5
231
330
226
100
AcDbEntity
  8
0
100
AcDbBlockEnd
  0
BLOCK
  5
24A
330
23D
100
AcDbEntity
  8
0
100
AcDbBlockBegin
  2
*D29
 70
     1
 71
     0
 10
0.0
 20
0.0
 30
0.0
  3
*D29
  1

  0
LINE
  5
24C
330
23D
100
AcDbEntity
  8
SLD-0
 62
     7
100
AcDbLine
 10
143.5524324324
 20
184.7813513514
 30
0.0
 11
143.5524324324
 21
203.1585089974
 31
0.0
  0
LINE
  5
24D
330
23D
100
AcDbEntity
  8
SLD-0
 62
     7
100
AcDbLine
 10
140.5524324324
 20
194.7813513514
 30
0.0
 11
140.5524324324
 21
203.1585089974
 31
0.0
  0
LINE
  5
24E
330
23D
100
AcDbEntity
  8
SLD-0
 62
     7
100
AcDbLine
 10
143.5524324324
 20
202.1585089974
 30
0.0
 11
148.5524324324
 21
202.1585089974
 31
0.0
  0
LINE
  5
24F
330
23D
100
AcDbEntity
  8
SLD-0
 62
     7
100
AcDbLine
 10
143.5524324324
 20
202.1585089974
 30
0.0
 11
140.5524324324
 21
202.1585089974
 31
0.0
  0
LINE
  5
250
330
23D
100
AcDbEntity
  8
SLD-0
 62
     7
100
AcDbLine
 10
140.5524324324
 20
202.1585089974
 30
0.0
 11
131.0144353447
 21
202.1585089974
 31
0.0
  0
LINE
  5
251
330
23D
100
AcDbEntity
  8
SLD-0
 62
     7
100
AcDbLine
 10
146.5524324324
 20
201.3546619974
 30
0.0
 11
143.5524324324
 21
202.1585089974
 31
0.0
  0
LINE
  5
252
330
23D
100
AcDbEntity
  8
SLD-0
 62
     7
100
AcDbLine
 10
143.5524324324
 20
202.1585089974
 30
0.0
 11
146.5524324324
 21
202.9623559974
 31
0.0
  0
LINE
  5
253
330
23D
100
AcDbEntity
  8
SLD-0
 62
     7
100
AcDbLine
 10
143.5524324324
 20
202.1585089974
 30
0.0
 11
146.5524324324
 21
202.1585089974
 31
0.0
  0
LINE
  5
254
330
23D
100
AcDbEntity
  8
SLD-0
 62
     7
100
AcDbLine
 10
137.5524324324
 20
202.9623559974
 30
0.0
 11
140.5524324324
 21
202.1585089974
 31
0.0
  0
LINE
  5
255
330
23D
100
AcDbEntity
  8
SLD-0
 62
     7
100
AcDbLine
 10
140.5524324324
 20
202.1585089974
 30
0.0
 11
137.5524324324
 21
201.3546619974
 31
0.0
  0
LINE
  5
256
330
23D
100
AcDbEntity
  8
SLD-0
 62
     7
100
AcDbLine
 10
140.5524324324
 20
202.1585089974
 30
0.0
 11
137.5524324324
 21
202.1585089974
 31
0.0
  0
MTEXT
  5
257
330
23D
100
AcDbEntity
  8
SLD-0
 62
     7
100
AcDbMText
 10
132.6019353447
 20
206.6852026934
 30
0.1
 40
3.5
 41
0.0
 71
     1
 72
     1
  1
3
  7
SLDTEXTSTYLE0
 73
     1
 44
1.0
  0
ENDBLK
  5
24B
330
23D
100
AcDbEntity
  8
0
100
AcDbBlockEnd
  0
BLOCK
  5
264
330
259
100
AcDbEntity
  8
0
100
AcDbBlockBegin
  2
*D30
 70
     1
 71
     0
 10
0.0
 20
0.0
 30
0.0
  3
*D30
  1

  0
LINE
  5
267
330
259
100
AcDbEntity
  8
SLD-0
 62
     7
100
AcDbLine
 10
155.0524324324
 20
183.7813513514
 30
0.0
 11
172.2783574494
 21
183.7813513514
 31
0.0
  0
LINE
  5
268
330
259
100
AcDbEntity
  8
SLD-0
 62
     7
100
AcDbLine
 10
155.0524324324
 20
137.7813513514
 30
0.0
 11
172.2783574494
 21
137.7813513514
 31
0.0
  0
LINE
  5
269
330
259
100
AcDbEntity
  8
SLD-0
 62
     7
100
AcDbLine
 10
171.2783574494
 20
183.7813513514
 30
0.0
 11
171.2783574494
 21
137.7813513514
 31
0.0
  0
LINE
  5
26A
330
259
100
AcDbEntity
  8
SLD-0
 62
     7
100
AcDbLine
 10
170.4745104494
 20
180.7813513514
 30
0.0
 11
171.2783574494
 21
183.7813513514
 31
0.0
  0
LINE
  5
26B
330
259
100
AcDbEntity
  8
SLD-0
 62
     7
100
AcDbLine
 10
171.2783574494
 20
183.7813513514
 30
0.0
 11
172.0822044494
 21
180.7813513514
 31
0.0
  0
LINE
  5
26C
330
259
100
AcDbEntity
  8
SLD-0
 62
     7
100
AcDbLine
 10
171.2783574494
 20
183.7813513514
 30
0.0
 11
171.2783574494
 21
180.7813513514
 31
0.0
  0
LINE
  5
26D
330
259
100
AcDbEntity
  8
SLD-0
 62
     7
100
AcDbLine
 10
172.0822044494
 20
140.7813513514
 30
0.0
 11
171.2783574494
 21
137.7813513514
 31
0.0
  0
LINE
  5
26E
330
259
100
AcDbEntity
  8
SLD-0
 62
     7
100
AcDbLine
 10
171.2783574494
 20
137.7813513514
 30
0.0
 11
170.4745104494
 21
140.7813513514
 31
0.0
  0
LINE
  5
26F
330
259
100
AcDbEntity
  8
SLD-0
 62
     7
100
AcDbLine
 10
171.2783574494
 20
137.7813513514
 30
0.0
 11
171.2783574494
 21
140.7813513514
 31
0.0
  0
MTEXT
  5
270
330
259
100
AcDbEntity
  8
SLD-0
 62
     7
100
AcDbMText
 10
166.7516637534
 20
155.6927632935
 30
0.1
 40
3.5
 41
0.0
 71
     1
 72
     1
  1
46
  7
SLDTEXTSTYLE0
 11
6.123031769111886E-17
 21
1.0
 31
0.0
 73
     1
 44
1.0
  0
MTEXT
  5
271
330
259
100
AcDbEntity
  8
SLD-0
 62
     7
100
AcDbMText
 10
167.9481375792
 20
162.2046942947
 30
0.1
 40
2.1
 41
0.0
 71
     1
 72
     1
  1
0
  7
SLDTEXTSTYLE0
 11
6.123031769111886E-17
 21
1.0
 31
0.0
 73
     1
 44
1.0
  0
MTEXT
  5
272
330
259
100
AcDbEntity
  8
SLD-0
 62
     7
100
AcDbMText
 10
165.5070770243
 20
160.9841640172
 30
0.1
 40
2.1
 41
0.0
 71
     1
 72
     1
  1
+
  7
SLDTEXTSTYLE0
 11
6.123031769111886E-17
 21
1.0
 31
0.0
 73
     1
 44
1.0
  0
MTEXT
  5
273
330
259
100
AcDbEntity
  8
SLD-0
 62
     7
100
AcDbMText
 10
165.5070770243
 20
162.2046942947
 30
0.1
 40
2.1
 41
0.0
 71
     1
 72
     1
  1
0.1
  7
SLDTEXTSTYLE0
 11
6.123031769111886E-17
 21
1.0
 31
0.0
 73
     1
 44
1.0
  0
ENDBLK
  5
265
330
259
100
AcDbEntity
  8
0
100
AcDbBlockEnd
  0
BLOCK
  5
280
330
275
100
AcDbEntity
  8
0
100
AcDbBlockBegin
  2
*D31
 70
     1
 71
     0
 10
0.0
 20
0.0
 30
0.0
  3
*D31
  1

  0
LINE
  5
282
330
275
100
AcDbEntity
  8
SLD-0
 62
     7
100
AcDbLine
 10
155.0524324324
 20
193.7813513514
 30
0.0
 11
172.2783574494
 21
193.7813513514
 31
0.0
  0
LINE
  5
283
330
275
100
AcDbEntity
  8
SLD-0
 62
     7
100
AcDbLine
 10
155.0524324324
 20
183.7813513514
 30
0.0
 11
172.2783574494
 21
183.7813513514
 31
0.0
  0
LINE
  5
284
330
275
100
AcDbEntity
  8
SLD-0
 62
     7
100
AcDbLine
 10
171.2783574494
 20
193.7813513514
 30
0.0
 11
171.2783574494
 21
198.7813513514
 31
0.0
  0
LINE
  5
285
330
275
100
AcDbEntity
  8
SLD-0
 62
     7
100
AcDbLine
 10
171.2783574494
 20
193.7813513514
 30
0.0
 11
171.2783574494
 21
183.7813513514
 31
0.0
  0
LINE
  5
286
330
275
100
AcDbEntity
  8
SLD-0
 62
     7
100
AcDbLine
 10
171.2783574494
 20
183.7813513514
 30
0.0
 11
171.2783574494
 21
178.7813513514
 31
0.0
  0
LINE
  5
287
330
275
100
AcDbEntity
  8
SLD-0
 62
     7
100
AcDbLine
 10
172.0822044494
 20
196.7813513514
 30
0.0
 11
171.2783574494
 21
193.7813513514
 31
0.0
  0
LINE
  5
288
330
275
100
AcDbEntity
  8
SLD-0
 62
     7
100
AcDbLine
 10
171.2783574494
 20
193.7813513514
 30
0.0
 11
170.4745104494
 21
196.7813513514
 31
0.0
  0
LINE
  5
289
330
275
100
AcDbEntity
  8
SLD-0
 62
     7
100
AcDbLine
 10
171.2783574494
 20
193.7813513514
 30
0.0
 11
171.2783574494
 21
196.7813513514
 31
0.0
  0
LINE
  5
28A
330
275
100
AcDbEntity
  8
SLD-0
 62
     7
100
AcDbLine
 10
170.4745104494
 20
180.7813513514
 30
0.0
 11
171.2783574494
 21
183.7813513514
 31
0.0
  0
LINE
  5
28B
330
275
100
AcDbEntity
  8
SLD-0
 62
     7
100
AcDbLine
 10
171.2783574494
 20
183.7813513514
 30
0.0
 11
172.0822044494
 21
180.7813513514
 31
0.0
  0
LINE
  5
28C
330
275
100
AcDbEntity
  8
SLD-0
 62
     7
100
AcDbLine
 10
171.2783574494
 20
183.7813513514
 30
0.0
 11
171.2783574494
 21
180.7813513514
 31
0.0
  0
MTEXT
  5
28D
330
275
100
AcDbEntity
  8
SLD-0
 62
     7
100
AcDbMText
 10
166.7516637534
 20
186.7459161282
 30
0.1
 40
3.5
 41
0.0
 71
     1
 72
     1
  1
10
  7
SLDTEXTSTYLE0
 11
6.123031769111886E-17
 21
1.0
 31
0.0
 73
     1
 44
1.0
  0
ENDBLK
  5
281
330
275
100
AcDbEntity
  8
0
100
AcDbBlockEnd
  0
ENDSEC
  0
SECTION
  2
ENTITIES
  0
LINE
  5
AD
330
1F
100
AcDbEntity
  8
SLD-0
  6
Continuous
 62
   179
100
AcDbLine
 10
20.2604743903
 20
285.0
 30
0.0
 11
196.7604743903
 21
285.0
 31
0.0
  0
LINE
  5
AE
330
1F
100
AcDbEntity
  8
SLD-0
  6
Continuous
 62
   179
100
AcDbLine
 10
20.2604743903
 20
285.0
 30
0.0
 11
20.2604743903
 21
10.0
 31
0.0
  0
LINE
  5
AF
330
1F
100
AcDbEntity
  8
SLD-0
  6
Continuous
 62
   179
100
AcDbLine
 10
20.2604743903
 20
10.0
 30
0.0
 11
196.7604743903
 21
10.0
 31
0.0
  0
LINE
  5
B0
330
1F
100
AcDbEntity
  8
SLD-0
  6
Continuous
 62
   179
100
AcDbLine
 10
196.7604743903
 20
285.0
 30
0.0
 11
196.7604743903
 21
10.0
 31
0.0
  0
LINE
  5
B1
330
1F
100
AcDbEntity
  8
SLD-0
  6
Continuous
 62
   179
100
AcDbLine
 10
65.7604743903
 20
285.0
 30
0.0
 11
196.7604743903
 21
285.0
 31
0.0
  0
LINE
  5
B2
330
1F
100
AcDbEntity
  8
SLD-0
  6
Continuous
 62
   179
100
AcDbLine
 10
196.7604743903
 20
285.0
 30
0.0
 11
196.7604743903
 21
264.25
 31
0.0
  0
LINE
  5
B3
330
1F
100
AcDbEntity
  8
SLD-0
  6
Continuous
 62
   179
100
AcDbLine
 10
127.0104743903
 20
50.75
 30
0.0
 11
196.7604744345
 21
50.75
 31
0.0
  0
LINE
  5
B4
330
1F
100
AcDbEntity
  8
SLD-0
  6
Continuous
 62
   179
100
AcDbLine
 10
127.0104743903
 20
50.75
 30
0.0
 11
127.0104743903
 21
10.0
 31
0.0
  0
LINE
  5
B5
330
1F
100
AcDbEntity
  8
SLD-0
  6
Continuous
 62
   179
100
AcDbLine
 10
127.0104743903
 20
22.75
 30
0.0
 11
196.7604743903
 21
22.75
 31
0.0
  0
LINE
  5
B6
330
1F
100
AcDbEntity
  8
SLD-0
  6
Continuous
 62
   179
100
AcDbLine
 10
127.0104743903
 20
36.75
 30
0.0
 11
196.7604743903
 21
36.75
 31
0.0
  0
LINE
  5
B7
330
1F
100
AcDbEntity
  8
SLD-0
  6
Continuous
 62
   179
100
AcDbLine
 10
102.760270017
 20
193.7813511725
 30
0.0
 11
71.7602705236
 21
193.7813511725
 31
0.0
  0
LINE
  5
B8
330
1F
100
AcDbEntity
  8
SLD-0
  6
Continuous
 62
   179
100
AcDbLine
 10
102.760270017
 20
193.7813511725
 30
0.0
 11
102.760270017
 21
127.7813515302
 31
0.0
  0
LINE
  5
B9
330
1F
100
AcDbEntity
  8
SLD-0
  6
Continuous
 62
   179
100
AcDbLine
 10
102.760270017
 20
127.7813515302
 30
0.0
 11
71.7602705236
 21
127.7813515302
 31
0.0
  0
LINE
  5
BA
330
1F
100
AcDbEntity
  8
SLD-0
  6
Continuous
 62
   179
100
AcDbLine
 10
71.7602705236
 20
193.7813511725
 30
0.0
 11
71.7602705236
 21
127.7813515302
 31
0.0
  0
LINE
  5
BB
330
1F
100
AcDbEntity
  8
SLD-0
  6
Continuous
 62
   179
100
AcDbLine
 10
84.2602702703
 20
156.2813513514
 30
0.0
 11
84.2602702703
 21
165.2813513514
 31
0.0
  0
LINE
  5
BC
330
1F
100
AcDbEntity
  8
SLD-0
  6
Continuous
 62
   179
100
AcDbLine
 10
76.2602702703
 20
165.2813513514
 30
0.0
 11
76.2602702703
 21
156.2813513514
 31
0.0
  0
LINE
  5
BD
330
1F
100
AcDbEntity
  8
SLD-0
  6
Continuous
 62
   179
100
AcDbLine
 10
90.2602702703
 20
165.2813513514
 30
0.0
 11
90.2602702703
 21
156.2813513514
 31
0.0
  0
LINE
  5
BE
330
1F
100
AcDbEntity
  8
SLD-0
  6
Continuous
 62
   179
100
AcDbLine
 10
98.2602702703
 20
156.2813513514
 30
0.0
 11
98.2602702703
 21
165.2813513514
 31
0.0
  0
LINE
  5
BF
330
1F
100
AcDbEntity
  8
SLD-0
  6
HIDDEN
 62
     8
100
AcDbLine
 10
102.760270017
 20
137.7813513066
 30
0.0
 11
71.7602705236
 21
137.7813513066
 31
0.0
  0
LINE
  5
C0
330
1F
100
AcDbEntity
  8
SLD-0
  6
HIDDEN
 62
     8
100
AcDbLine
 10
102.760270017
 20
183.7813513961
 30
0.0
 11
71.7602705236
 21
183.7813513961
 31
0.0
  0
LINE
  5
C1
330
1F
100
AcDbEntity
  8
SLD-0
  6
Continuous
 62
   179
100
AcDbLine
 10
143.5524324585
 20
137.7813513066
 30
0.0
 11
143.5524324585
 21
183.7813513961
 31
0.0
  0
LINE
  5
C2
330
1F
100
AcDbEntity
  8
SLD-0
  6
Continuous
 62
   179
100
AcDbLine
 10
140.5524324324
 20
193.7813511725
 30
0.0
 11
140.5524324324
 21
127.7813515302
 31
0.0
  0
LINE
  5
C3
330
1F
100
AcDbEntity
  8
SLD-0
  6
Continuous
 62
   179
100
AcDbLine
 10
154.0524327826
 20
193.7813511725
 30
0.0
 11
140.5524324324
 21
193.7813511725
 31
0.0
  0
LINE
  5
C4
330
1F
100
AcDbEntity
  8
SLD-0
  6
Continuous
 62
   179
100
AcDbLine
 10
154.0524327826
 20
183.7813513961
 30
0.0
 11
154.0524327826
 21
193.7813511725
 31
0.0
  0
LINE
  5
C5
330
1F
100
AcDbEntity
  8
SLD-0
  6
Continuous
 62
   179
100
AcDbLine
 10
154.0524327826
 20
137.7813513066
 30
0.0
 11
143.5524324585
 21
137.7813513066
 31
0.0
  0
LINE
  5
C6
330
1F
100
AcDbEntity
  8
SLD-0
  6
Continuous
 62
   179
100
AcDbLine
 10
154.0524327826
 20
127.7813515302
 30
0.0
 11
154.0524327826
 21
137.7813513066
 31
0.0
  0
LINE
  5
C7
330
1F
100
AcDbEntity
  8
SLD-0
  6
Continuous
 62
   179
100
AcDbLine
 10
140.5524324324
 20
127.7813515302
 30
0.0
 11
154.0524327826
 21
127.7813515302
 31
0.0
  0
LINE
  5
C8
330
1F
100
AcDbEntity
  8
SLD-0
  6
Continuous
 62
   179
100
AcDbLine
 10
143.5524324585
 20
183.7813513961
 30
0.0
 11
154.0524327826
 21
183.7813513961
 31
0.0
  0
LINE
  5
C9
330
1F
100
AcDbEntity
  8
SLD-0
  6
HIDDEN
 62
     8
100
AcDbLine
 10
140.5524324324
 20
165.2813513514
 30
0.0
 11
140.5524324324
 21
169.2720264803
 31
0.0
  0
LINE
  5
CA
330
1F
100
AcDbEntity
  8
SLD-0
  6
HIDDEN
 62
     8
100
AcDbLine
 10
143.5524324324
 20
165.2813513514
 30
0.0
 11
143.5524324585
 21
169.2720264803
 31
0.0
  0
LINE
  5
CB
330
1F
100
AcDbEntity
  8
SLD-0
  6
HIDDEN
 62
     8
100
AcDbLine
 10
140.5524324324
 20
156.2813513514
 30
0.0
 11
140.5524324324
 21
165.2813513514
 31
0.0
  0
LINE
  5
CC
330
1F
100
AcDbEntity
  8
SLD-0
  6
HIDDEN
 62
     8
100
AcDbLine
 10
143.5524324324
 20
156.2813513514
 30
0.0
 11
143.5524324324
 21
165.2813513514
 31
0.0
  0
LINE
  5
CD
330
1F
100
AcDbEntity
  8
SLD-0
  6
HIDDEN
 62
     8
100
AcDbLine
 10
140.5524324324
 20
156.2813513514
 30
0.0
 11
140.5524324324
 21
152.2906762224
 31
0.0
  0
LINE
  5
CE
330
1F
100
AcDbEntity
  8
SLD-0
  6
HIDDEN
 62
     8
100
AcDbLine
 10
143.5524324324
 20
156.2813513514
 30
0.0
 11
143.5524324585
 21
152.2906762224
 31
0.0
  0
LINE
  5
CF
330
1F
100
AcDbEntity
  8
SLD-0
  6
HIDDEN
 62
     8
100
AcDbLine
 10
140.5524324324
 20
165.2813513514
 30
0.0
 11
140.5524324324
 21
156.2813513514
 31
0.0
  0
LINE
  5
D0
330
1F
100
AcDbEntity
  8
SLD-0
  6
HIDDEN
 62
     8
100
AcDbLine
 10
143.5524324324
 20
165.2813513514
 30
0.0
 11
143.5524324324
 21
156.2813513514
 31
0.0
  0
LINE
  5
D1
330
1F
100
AcDbEntity
  8
SLD-0
  6
HIDDEN
 62
     8
100
AcDbLine
 10
140.5524324324
 20
156.2813513514
 30
0.0
 11
140.5524324324
 21
152.2906762224
 31
0.0
  0
LINE
  5
D2
330
1F
100
AcDbEntity
  8
SLD-0
  6
HIDDEN
 62
     8
100
AcDbLine
 10
143.5524324324
 20
156.2813513514
 30
0.0
 11
143.5524324585
 21
152.2906762224
 31
0.0
  0
LINE
  5
D3
330
1F
100
AcDbEntity
  8
SLD-0
  6
HIDDEN
 62
     8
100
AcDbLine
 10
140.5524324324
 20
156.2813513514
 30
0.0
 11
140.5524324324
 21
165.2813513514
 31
0.0
  0
LINE
  5
D4
330
1F
100
AcDbEntity
  8
SLD-0
  6
HIDDEN
 62
     8
100
AcDbLine
 10
143.5524324324
 20
156.2813513514
 30
0.0
 11
143.5524324324
 21
165.2813513514
 31
0.0
  0
LINE
  5
D5
330
1F
100
AcDbEntity
  8
SLD-0
  6
HIDDEN
 62
     8
100
AcDbLine
 10
140.5524324324
 20
165.2813513514
 30
0.0
 11
140.5524324324
 21
169.2720264803
 31
0.0
  0
LINE
  5
D6
330
1F
100
AcDbEntity
  8
SLD-0
  6
HIDDEN
 62
     8
100
AcDbLine
 10
143.5524324324
 20
165.2813513514
 30
0.0
 11
143.5524324585
 21
169.2720264803
 31
0.0
  0
LINE
  5
D7
330
1F
100
AcDbEntity
  8
SLD-0
  6
HIDDEN
 62
     8
100
AcDbLine
 10
140.5524324324
 20
165.2813513514
 30
0.0
 11
140.5524324324
 21
156.2813513514
 31
0.0
  0
LINE
  5
D8
330
1F
100
AcDbEntity
  8
SLD-0
  6
HIDDEN
 62
     8
100
AcDbLine
 10
143.5524324324
 20
165.2813513514
 30
0.0
 11
143.5524324324
 21
156.2813513514
 31
0.0
  0
LINE
  5
D9
330
1F
100
AcDbEntity
  8
SLD-0
  6
HIDDEN
 62
     8
100
AcDbLine
 10
143.5524324585
 20
169.2813518133
 30
0.0
 11
140.5524324324
 21
169.2813518133
 31
0.0
  0
LINE
  5
DA
330
1F
100
AcDbEntity
  8
SLD-0
  6
HIDDEN
 62
     8
100
AcDbLine
 10
140.5524324324
 20
152.2813508894
 30
0.0
 11
143.5524324585
 21
152.2813508894
 31
0.0
  0
LINE
  5
DB
330
1F
100
AcDbEntity
  8
SLD-0
  6
HIDDEN
 62
     8
100
AcDbLine
 10
140.5524324324
 20
152.2813508894
 30
0.0
 11
143.5524324585
 21
152.2813508894
 31
0.0
  0
LINE
  5
DC
330
1F
100
AcDbEntity
  8
SLD-0
  6
HIDDEN
 62
     8
100
AcDbLine
 10
143.5524324585
 20
169.2813518133
 30
0.0
 11
140.5524324324
 21
169.2813518133
 31
0.0
  0
LINE
  5
DD
330
1F
100
AcDbEntity
  8
SLD-0
  6
CENTERX2
 62
   179
100
AcDbLine
 10
145.5524324324
 20
165.2813513514
 30
0.0
 11
138.5524324324
 21
165.2813513514
 31
0.0
  0
LINE
  5
DE
330
1F
100
AcDbEntity
  8
SLD-0
  6
CENTERX2
 62
   179
100
AcDbLine
 10
145.5524324324
 20
156.2813513514
 30
0.0
 11
138.5524324324
 21
156.2813513514
 31
0.0
  0
LINE
  5
DF
330
1F
100
AcDbEntity
  8
SLD-0
  6
CENTERX2
 62
   179
100
AcDbLine
 10
156.0524324324
 20
132.7813513514
 30
0.0
 11
138.5524324324
 21
132.7813513514
 31
0.0
  0
LINE
  5
E0
330
1F
100
AcDbEntity
  8
SLD-0
  6
CENTERX2
 62
   179
100
AcDbLine
 10
156.0524324324
 20
188.7813513514
 30
0.0
 11
138.5524324324
 21
188.7813513514
 31
0.0
  0
ARC
  5
E1
330
1F
100
AcDbEntity
  8
SLD-0
  6
Continuous
 62
   179
100
AcDbCircle
 10
80.2602702703
 20
156.2813513514
 30
0.0
 40
4.0
100
AcDbArc
 50
180.0
 51
0.0
  0
ARC
  5
E2
330
1F
100
AcDbEntity
  8
SLD-0
  6
Continuous
 62
   179
100
AcDbCircle
 10
80.2602702703
 20
165.2813513514
 30
0.0
 40
4.0
100
AcDbArc
 50
0.0
 51
180.0
  0
ARC
  5
E3
330
1F
100
AcDbEntity
  8
SLD-0
  6
Continuous
 62
   179
100
AcDbCircle
 10
94.2602702703
 20
165.2813513514
 30
0.0
 40
4.0
100
AcDbArc
 50
0.0
 51
180.0
  0
ARC
  5
E4
330
1F
100
AcDbEntity
  8
SLD-0
  6
Continuous
 62
   179
100
AcDbCircle
 10
94.2602702703
 20
156.2813513514
 30
0.0
 40
4.0
100
AcDbArc
 50
180.0
 51
0.0
  0
CIRCLE
  5
E5
330
1F
100
AcDbEntity
  8
SLD-0
  6
Continuous
 62
   179
100
AcDbCircle
 10
76.7602702703
 20
132.7813513514
 30
0.0
 40
1.649999999999992
  0
CIRCLE
  5
E6
330
1F
100
AcDbEntity
  8
SLD-0
  6
Continuous
 62
   179
100
AcDbCircle
 10
97.7602702703
 20
132.7813513514
 30
0.0
 40
1.650000000000006
  0
CIRCLE
  5
E7
330
1F
100
AcDbEntity
  8
SLD-0
  6
Continuous
 62
   179
100
AcDbCircle
 10
76.7602702703
 20
188.7813513514
 30
0.0
 40
1.649999999999992
  0
CIRCLE
  5
E8
330
1F
100
AcDbEntity
  8
SLD-0
  6
Continuous
 62
   179
100
AcDbCircle
 10
97.7602702703
 20
188.7813513514
 30
0.0
 40
1.650000000000006
  0
CIRCLE
  5
E9
330
1F
100
AcDbEntity
  8
SLD-0
 62
   179
100
AcDbCircle
 10
76.7602702703
 20
132.7813513514
 30
0.0
 40
1.999999538099999
  0
CIRCLE
  5
EA
330
1F
100
AcDbEntity
  8
SLD-0
 62
   179
100
AcDbCircle
 10
97.7602702703
 20
132.7813513514
 30
0.0
 40
2.000000186300014
  0
CIRCLE
  5
EB
330
1F
100
AcDbEntity
  8
SLD-0
 62
   179
100
AcDbCircle
 10
76.7602702703
 20
188.7813513514
 30
0.0
 40
1.999999538099999
  0
CIRCLE
  5
EC
330
1F
100
AcDbEntity
  8
SLD-0
 62
   179
100
AcDbCircle
 10
97.7602702703
 20
188.7813513514
 30
0.0
 40
2.000000186300014
  0
DIMENSION
  5
ED
330
1F
100
AcDbEntity
  8
SLD-0
 62
     7
100
AcDbDimension
  2
*D14
 10
71.7602702703
 20
108.1884891503
 30
0.0
 11
87.2602702703
 21
108.1884891503
 31
0.0
 70
   160
 71
     1
 42
31.0
  3
SLDDIMSTYLE0
100
AcDbAlignedDimension
 13
102.7602702703
 23
127.7813513514
 33
0.0
 14
71.7602702703
 24
127.7813513514
 34
0.0
100
AcDbRotatedDimension
1001
ACAD
1000
DSTYLE
1002
{
1070
    77
1070
     3
1070
   143
1040
0.0393700787
1070
    41
1040
3.0
1070
    44
1040
1.0
1070
    42
1040
1.0
1070
   147
1040
1.524
1070
    73
1070
     0
1070
    74
1070
     0
1070
   140
1040
3.5
1070
   284
1070
    12
1070
    78
1070
    12
1002
}
  0
DIMENSION
  5
109
330
1F
100
AcDbEntity
  8
SLD-0
 62
     7
100
AcDbDimension
  2
*D16
 10
80.2602702703
 20
116.2508406021
 30
0.0
 11
76.0102702703
 21
116.2508406021
 31
0.0
 70
   160
 71
     1
 42
8.5
  3
SLDDIMSTYLE1
100
AcDbAlignedDimension
 13
71.7602702703
 23
127.7813513514
 33
0.0
 14
80.2602702703
 24
156.2813513514
 34
0.0
100
AcDbRotatedDimension
1001
ACAD
1000
DSTYLE
1002
{
1070
    77
1070
     3
1070
   143
1040
0.0393700787
1070
    41
1040
3.0
1070
    44
1040
1.0
1070
    42
1040
1.0
1070
   147
1040
1.524
1070
    73
1070
     0
1070
    74
1070
     0
1070
   140
1040
3.5
1070
   284
1070
    12
1070
    78
1070
    12
1002
}
  0
DIMENSION
  5
124
330
1F
100
AcDbEntity
  8
SLD-0
 62
     7
100
AcDbDimension
  2
*D17
 10
80.2602702703
 20
165.2813513514
 30
0.0
 11
56.1707117451
 21
201.7064897533
 31
0.0
 70
   164
  1
<>x2-R
 71
     1
 42
183.7379549478
  3
SLDDIMSTYLE2
100
AcDbRadialDimension
 15
0.0
 25
0.0
 35
0.0
 40
0.0
1001
ACAD
1000
DSTYLE
1002
{
1070
    77
1070
     0
1070
   143
1040
0.0393700787
1070
    41
1040
3.0
1070
    44
1040
1.0
1070
    42
1040
1.0
1070
   147
1040
1.524
1070
    73
1070
     1
1070
    74
1070
     1
1070
   140
1040
3.5
1070
   284
1070
    12
1070
    78
1070
    12
1002
}
  0
DIMENSION
  5
135
330
1F
100
AcDbEntity
  8
SLD-0
 62
     7
100
AcDbDimension
  2
*D18
 10
76.2602702703
 20
146.5811089778
 30
0.0
 11
65.9038491226
 21
146.5811089778
 31
0.0
 70
   160
 71
     1
 42
8.0
  3
SLDDIMSTYLE0
100
AcDbAlignedDimension
 13
84.2602702703
 23
156.2813513514
 33
0.0
 14
76.2602702703
 24
156.2813513514
 34
0.0
100
AcDbRotatedDimension
1001
ACAD
1000
DSTYLE
1002
{
1070
    77
1070
     3
1070
   143
1040
0.0393700787
1070
    41
1040
3.0
1070
    44
1040
1.0
1070
    42
1040
1.0
1070
   147
1040
1.524
1070
    73
1070
     0
1070
    74
1070
     0
1070
   140
1040
3.5
1070
   284
1070
    12
1070
    78
1070
    12
1002
}
  0
DIMENSION
  5
150
330
1F
100
AcDbEntity
  8
SLD-0
 62
     7
100
AcDbDimension
  2
*D19
 10
94.2602702703
 20
116.2508406021
 30
0.0
 11
87.2602702703
 21
116.2508406021
 31
0.0
 70
   160
 71
     1
 42
14.0
  3
SLDDIMSTYLE0
100
AcDbAlignedDimension
 13
80.2602702703
 23
156.2813513514
 33
0.0
 14
94.2602702703
 24
156.2813513514
 34
0.0
100
AcDbRotatedDimension
1001
ACAD
1000
DSTYLE
1002
{
1070
    77
1070
     3
1070
   143
1040
0.0393700787
1070
    41
1040
3.0
1070
    44
1040
1.0
1070
    42
1040
1.0
1070
   147
1040
1.524
1070
    73
1070
     0
1070
    74
1070
     0
1070
   140
1040
3.5
1070
   284
1070
    12
1070
    78
1070
    12
1002
}
  0
DIMENSION
  5
167
330
1F
100
AcDbEntity
  8
SLD-0
 62
     7
100
AcDbDimension
  2
*D20
 10
110.7931549745
 20
188.7813513514
 30
0.0
 11
110.7931549745
 21
191.2813513514
 31
0.0
 70
   160
 71
     1
 42
5.0
  3
SLDDIMSTYLE0
100
AcDbAlignedDimension
 13
102.7602702703
 23
193.7813513514
 33
0.0
 14
97.7602702703
 24
188.7813513514
 34
0.0
 50
90.0
100
AcDbRotatedDimension
1001
ACAD
1000
DSTYLE
1002
{
1070
    77
1070
     3
1070
   143
1040
0.0393700787
1070
    41
1040
3.0
1070
    44
1040
1.0
1070
    42
1040
1.0
1070
   147
1040
1.524
1070
    73
1070
     0
1070
    74
1070
     0
1070
   140
1040
3.5
1070
   284
1070
    12
1070
    78
1070
    12
1002
}
  0
DIMENSION
  5
181
330
1F
100
AcDbEntity
  8
SLD-0
 62
     7
100
AcDbDimension
  2
*D21
 10
110.7931549745
 20
132.7813513514
 30
0.0
 11
110.7931549745
 21
160.7813513514
 31
0.0
 70
   160
 71
     1
 42
56.0
  3
SLDDIMSTYLE0
100
AcDbAlignedDimension
 13
97.7602702703
 23
188.7813513514
 33
0.0
 14
97.7602702703
 24
132.7813513514
 34
0.0
 50
90.0
100
AcDbRotatedDimension
1001
ACAD
1000
DSTYLE
1002
{
1070
    77
1070
     3
1070
   143
1040
0.0393700787
1070
    41
1040
3.0
1070
    44
1040
1.0
1070
    42
1040
1.0
1070
   147
1040
1.524
1070
    73
1070
     0
1070
    74
1070
     0
1070
   140
1040
3.5
1070
   284
1070
    12
1070
    78
1070
    12
1002
}
  0
DIMENSION
  5
199
330
1F
100
AcDbEntity
  8
SLD-0
 62
     7
100
AcDbDimension
  2
*D22
 10
76.7602702703
 20
211.8930848329
 30
0.0
 11
74.2602702703
 21
211.8930848329
 31
0.0
 70
   160
 71
     1
 42
5.0
  3
SLDDIMSTYLE0
100
AcDbAlignedDimension
 13
71.7602702703
 23
193.7813513514
 33
0.0
 14
76.7602702703
 24
188.7813513514
 34
0.0
100
AcDbRotatedDimension
1001
ACAD
1000
DSTYLE
1002
{
1070
    77
1070
     3
1070
   143
1040
0.0393700787
1070
    41
1040
3.0
1070
    44
1040
1.0
1070
    42
1040
1.0
1070
   147
1040
1.524
1070
    73
1070
     0
1070
    74
1070
     0
1070
   140
1040
3.5
1070
   284
1070
    12
1070
    78
1070
    12
1002
}
  0
DIMENSION
  5
1B3
330
1F
100
AcDbEntity
  8
SLD-0
 62
     7
100
AcDbDimension
  2
*D23
 10
97.7602702703
 20
211.8930848329
 30
0.0
 11
87.2602702703
 21
211.8930848329
 31
0.0
 70
   160
 71
     1
 42
21.0
  3
SLDDIMSTYLE0
100
AcDbAlignedDimension
 13
76.7602702703
 23
188.7813513514
 33
0.0
 14
97.7602702703
 24
188.7813513514
 34
0.0
100
AcDbRotatedDimension
1001
ACAD
1000
DSTYLE
1002
{
1070
    77
1070
     3
1070
   143
1040
0.0393700787
1070
    41
1040
3.0
1070
    44
1040
1.0
1070
    42
1040
1.0
1070
   147
1040
1.524
1070
    73
1070
     0
1070
    74
1070
     0
1070
   140
1040
3.5
1070
   284
1070
    12
1070
    78
1070
    12
1002
}
  0
DIMENSION
  5
1CA
330
1F
100
AcDbEntity
  8
SLD-0
 62
     7
100
AcDbDimension
  2
*D24
 10
54.1448430192
 20
165.2813513514
 30
0.0
 11
54.1448430192
 21
160.7813513514
 31
0.0
 70
   160
 71
     1
 42
9.0
  3
SLDDIMSTYLE0
100
AcDbAlignedDimension
 13
80.2602702703
 23
156.2813513514
 33
0.0
 14
80.2602702703
 24
165.2813513514
 34
0.0
 50
90.0
100
AcDbRotatedDimension
1001
ACAD
1000
DSTYLE
1002
{
1070
    77
1070
     3
1070
   143
1040
0.0393700787
1070
    41
1040
3.0
1070
    44
1040
1.0
1070
    42
1040
1.0
1070
   147
1040
1.524
1070
    73
1070
     0
1070
    74
1070
     0
1070
   140
1040
3.5
1070
   284
1070
    12
1070
    78
1070
    12
1002
}
  0
DIMENSION
  5
1E4
330
1F
100
AcDbEntity
  8
SLD-0
 62
     7
100
AcDbDimension
  2
*D25
 10
54.1448430192
 20
165.2813513514
 30
0.0
 11
54.1448430192
 21
179.5313513514
 31
0.0
 70
   160
 71
     1
 42
28.5
  3
SLDDIMSTYLE1
100
AcDbAlignedDimension
 13
71.7602702703
 23
193.7813513514
 33
0.0
 14
80.2602702703
 24
165.2813513514
 34
0.0
 50
90.0
100
AcDbRotatedDimension
1001
ACAD
1000
DSTYLE
1002
{
1070
    77
1070
     3
1070
   143
1040
0.0393700787
1070
    41
1040
3.0
1070
    44
1040
1.0
1070
    42
1040
1.0
1070
   147
1040
1.524
1070
    73
1070
     0
1070
    74
1070
     0
1070
   140
1040
3.5
1070
   284
1070
    12
1070
    78
1070
    12
1002
}
  0
DIMENSION
  5
1FC
330
1F
100
AcDbEntity
  8
SLD-0
 62
     7
100
AcDbDimension
  2
*D26
 10
44.5974622471
 20
193.7813513514
 30
0.0
 11
44.5974622471
 21
160.7813513514
 31
0.0
 70
   160
 71
     1
 42
66.0
  3
SLDDIMSTYLE0
100
AcDbAlignedDimension
 13
71.7602702703
 23
127.7813513514
 33
0.0
 14
71.7602702703
 24
193.7813513514
 34
0.0
 50
90.0
100
AcDbRotatedDimension
1001
ACAD
1000
DSTYLE
1002
{
1070
    77
1070
     3
1070
   143
1040
0.0393700787
1070
    41
1040
3.0
1070
    44
1040
1.0
1070
    42
1040
1.0
1070
   147
1040
1.524
1070
    73
1070
     0
1070
    74
1070
     0
1070
   140
1040
3.5
1070
   284
1070
    12
1070
    78
1070
    12
1002
}
  0
DIMENSION
  5
214
330
1F
100
AcDbEntity
  8
SLD-0
 62
     7
100
AcDbDimension
  2
*D27
 10
1.839394518
 20
3.5519887763
 30
0.0
 11
112.8190237004
 21
-5.3279837539
 31
0.0
 70
   163
  1
<>-M4<>
 71
     1
 42
3.9999995575
  3
SLDDIMSTYLE3
100
AcDbDiametricDimension
 15
0.0
 25
0.0
 35
0.0
 40
0.0
1001
ACAD
1000
DSTYLE
1002
{
1070
    77
1070
     0
1070
   143
1040
0.0393700787
1070
    41
1040
3.0
1070
    44
1040
1.0
1070
    42
1040
1.0
1070
   147
1040
1.524
1070
    73
1070
     1
1070
    74
1070
     1
1070
   140
1040
3.5
1070
   284
1070
    12
1070
    78
1070
    12
1002
}
  0
DIMENSION
  5
225
330
1F
100
AcDbEntity
  8
SLD-0
 62
     7
100
AcDbDimension
  2
*D28
 10
154.0524324324
 20
209.9461696658
 30
0.0
 11
147.3024324324
 21
209.9461696658
 31
0.0
 70
   160
 71
     1
 42
13.5
  3
SLDDIMSTYLE1
100
AcDbAlignedDimension
 13
140.5524324324
 23
193.7813513514
 33
0.0
 14
154.0524324324
 24
193.7813513514
 34
0.0
100
AcDbRotatedDimension
1001
ACAD
1000
DSTYLE
1002
{
1070
    77
1070
     3
1070
   143
1040
0.0393700787
1070
    41
1040
3.0
1070
    44
1040
1.0
1070
    42
1040
1.0
1070
   147
1040
1.524
1070
    73
1070
     0
1070
    74
1070
     0
1070
   140
1040
3.5
1070
   284
1070
    12
1070
    78
1070
    12
1002
}
  0
DIMENSION
  5
23C
330
1F
100
AcDbEntity
  8
SLD-0
 62
     7
100
AcDbDimension
  2
*D29
 10
143.5524324324
 20
202.1585089974
 30
0.0
 11
133.6196529563
 21
202.1585089974
 31
0.0
 70
   160
 71
     1
 42
3.0
  3
SLDDIMSTYLE0
100
AcDbAlignedDimension
 13
140.5524324324
 23
193.7813513514
 33
0.0
 14
143.5524324324
 24
183.7813513514
 34
0.0
100
AcDbRotatedDimension
1001
ACAD
1000
DSTYLE
1002
{
1070
    77
1070
     3
1070
   143
1040
0.0393700787
1070
    41
1040
3.0
1070
    44
1040
1.0
1070
    42
1040
1.0
1070
   147
1040
1.524
1070
    73
1070
     0
1070
    74
1070
     0
1070
   140
1040
3.5
1070
   284
1070
    12
1070
    78
1070
    12
1002
}
  0
DIMENSION
  5
258
330
1F
100
AcDbEntity
  8
SLD-0
 62
     7
100
AcDbDimension
  2
*D30
 10
171.2783574494
 20
183.7813513514
 30
0.0
 11
171.2783574494
 21
160.7813513514
 31
0.0
 70
   160
 71
     1
 42
46.0
  3
SLDDIMSTYLE4
100
AcDbAlignedDimension
 13
154.0524324324
 23
137.7813513514
 33
0.0
 14
154.0524324324
 24
183.7813513514
 34
0.0
 50
90.0
100
AcDbRotatedDimension
1001
ACAD
1000
DSTYLE
1002
{
1070
    77
1070
     3
1070
   143
1040
0.0393700787
1070
    41
1040
3.0
1070
    44
1040
1.0
1070
    42
1040
1.0
1070
   147
1040
1.524
1070
    73
1070
     0
1070
    74
1070
     0
1070
   140
1040
3.5
1070
   284
1070
     0
1070
    78
1070
    12
1002
}
  0
DIMENSION
  5
274
330
1F
100
AcDbEntity
  8
SLD-0
 62
     7
100
AcDbDimension
  2
*D31
 10
171.2783574494
 20
193.7813513514
 30
0.0
 11
171.2783574494
 21
188.7813513514
 31
0.0
 70
   160
 71
     1
 42
10.0
  3
SLDDIMSTYLE0
100
AcDbAlignedDimension
 13
154.0524324324
 23
183.7813513514
 33
0.0
 14
154.0524324324
 24
193.7813513514
 34
0.0
 50
90.0
100
AcDbRotatedDimension
1001
ACAD
1000
DSTYLE
1002
{
1070
    77
1070
     3
1070
   143
1040
0.0393700787
1070
    41
1040
3.0
1070
    44
1040
1.0
1070
    42
1040
1.0
1070
   147
1040
1.524
1070
    73
1070
     0
1070
    74
1070
     0
1070
   140
1040
3.5
1070
   284
1070
    12
1070
    78
1070
    12
1002
}
  0
MTEXT
  5
28E
330
1F
100
AcDbEntity
  8
SLD-0
 62
     7
100
AcDbMText
 10
169.1923262367
 20
249.8878123479
 30
0.0
 40
4.2333333333
 41
0.0
 71
     1
 72
     1
  1
(　　　)
  7
SLDTEXTSTYLE1
 73
     1
 44
1.0
  0
MTEXT
  5
28F
330
1F
100
AcDbEntity
  8
SLD-0
 62
     7
100
AcDbMText
 10
150.4155547853
 20
19.2662335325
 30
0.0
 40
4.2333333333
 41
0.0
 71
     1
 72
     1
  1
131065
  7
SLDTEXTSTYLE1
 73
     1
 44
1.0
  0
MTEXT
  5
290
330
1F
100
AcDbEntity
  8
SLD-0
 62
     7
100
AcDbMText
 10
147.3211389501
 20
29.7138882404
 30
0.0
 40
4.2333333333
 41
0.0
 71
     1
 72
     1
  1
N01915-102-0
  7
SLDTEXTSTYLE1
 73
     1
 44
1.0
  0
MTEXT
  5
291
330
1F
100
AcDbEntity
  8
SLD-0
 62
     7
100
AcDbMText
 10
151.0082563966
 20
43.2377018572
 30
0.0
 40
4.2333333333
 41
0.0
 71
     1
 72
     1
  1
Swing BKT
  7
SLDTEXTSTYLE1
 73
     1
 44
1.0
  0
INSERT
  5
292
330
1F
100
AcDbEntity
  8
0
  6
Continuous
 62
     7
370
     0
100
AcDbBlockReference
  2
SURFACEFINISH40
 10
159.4443600604
 20
250.5749245738
 30
0.0
  0
INSERT
  5
293
330
1F
100
AcDbEntity
  8
0
  6
Continuous
 62
     7
370
     0
100
AcDbBlockReference
  2
SURFACEFINISH41
 10
175.4785306273
 20
250.9049245738
 30
0.0
  0
INSERT
  5
294
330
1F
100
AcDbEntity
  8
0
  6
Continuous
 62
     7
370
     0
100
AcDbBlockReference
  2
注記
 10
100.3945665444
 20
59.581477893
 30
0.0
  0
INSERT
  5
295
330
1F
100
AcDbEntity
  8
0
  6
Continuous
 62
     7
370
     0
100
AcDbBlockReference
  2
SW_CENTERMARK0
 10
0.0
 20
0.0
 30
0.0
  0
INSERT
  5
296
330
1F
100
AcDbEntity
  8
0
  6
Continuous
 62
     7
370
     0
100
AcDbBlockReference
  2
SW_CENTERMARK1
 10
0.0
 20
0.0
 30
0.0
  0
INSERT
  5
297
330
1F
100
AcDbEntity
  8
0
  6
Continuous
 62
     7
370
     0
100
AcDbBlockReference
  2
SW_CENTERMARK2
 10
0.0
 20
0.0
 30
0.0
  0
INSERT
  5
298
330
1F
100
AcDbEntity
  8
0
  6
Continuous
 62
     7
370
     0
100
AcDbBlockReference
  2
SW_CENTERMARK3
 10
0.0
 20
0.0
 30
0.0
  0
INSERT
  5
299
330
1F
100
AcDbEntity
  8
0
  6
Continuous
 62
     7
370
     0
100
AcDbBlockReference
  2
SW_CENTERMARK4
 10
0.0
 20
0.0
 30
0.0
  0
INSERT
  5
29A
330
1F
100
AcDbEntity
  8
0
  6
Continuous
 62
     7
370
     0
100
AcDbBlockReference
  2
SW_CENTERMARK5
 10
0.0
 20
0.0
 30
0.0
  0
INSERT
  5
29B
330
1F
100
AcDbEntity
  8
0
  6
Continuous
 62
     7
370
     0
100
AcDbBlockReference
  2
SW_CENTERMARK6
 10
0.0
 20
0.0
 30
0.0
  0
INSERT
  5
29C
330
1F
100
AcDbEntity
  8
0
  6
Continuous
 62
     7
370
     0
100
AcDbBlockReference
  2
SW_CENTERMARK7
 10
0.0
 20
0.0
 30
0.0
  0
INSERT
  5
29D
330
1F
100
AcDbEntity
  8
0
  6
Continuous
 62
     7
370
     0
100
AcDbBlockReference
  2
SURFACEFINISH42
 10
159.0475064705
 20
141.8113010575
 30
0.0
  0
INSERT
  5
29E
330
1F
100
AcDbEntity
  8
0
  6
Continuous
 62
     7
370
     0
100
AcDbBlockReference
  2
SURFACEFINISH43
 10
159.3544370295
 20
176.6481849687
 30
0.0
  0
ENDSEC
  0
SECTION
  2
OBJECTS
  0
DICTIONARY
  5
C
330
0
100
AcDbDictionary
281
     1
  3
ACAD_GROUP
350
D
  3
ACAD_LAYOUT
350
1A
  3
ACAD_MLINESTYLE
350
17
  3
ACAD_PLOTSETTINGS
350
19
  3
ACAD_PLOTSTYLENAME
350
E
  0
DICTIONARY
  5
D
102
{ACAD_REACTORS
330
C
102
}
330
C
100
AcDbDictionary
281
     1
  0
DICTIONARY
  5
1A
102
{ACAD_REACTORS
330
C
102
}
330
C
100
AcDbDictionary
281
     1
  3
Layout1
350
1E
  3
Layout2
350
26
  3
Model
350
22
  0
DICTIONARY
  5
17
102
{ACAD_REACTORS
330
C
102
}
330
C
100
AcDbDictionary
281
     1
  3
Standard
350
18
  0
DICTIONARY
  5
19
102
{ACAD_REACTORS
330
C
102
}
330
C
100
AcDbDictionary
281
     1
  0
ACDBDICTIONARYWDFLT
  5
E
102
{ACAD_REACTORS
330
C
102
}
330
C
100
AcDbDictionary
281
     1
  3
Normal
350
F
100
AcDbDictionaryWithDefault
340
F
  0
LAYOUT
  5
1E
102
{ACAD_REACTORS
330
1A
102
}
330
1A
100
AcDbPlotSettings
  1

  2

  4

  6

 40
0.0
 41
0.0
 42
0.0
 43
0.0
 44
0.0
 45
0.0
 46
0.0
 47
0.0
 48
0.0
 49
0.0
140
0.0
141
0.0
142
1.0
143
1.0
 70
   688
 72
     0
 73
     0
 74
     5
  7

 75
    16
147
1.0
148
0.0
149
0.0
100
AcDbLayout
  1
Layout1
 70
     1
 71
     1
 10
0.0
 20
0.0
 11
0.0
 21
0.0
 12
0.0
 22
0.0
 32
0.0
 14
0.0
 24
0.0
 34
0.0
 15
0.0
 25
0.0
 35
0.0
146
0.0
 13
0.0
 23
0.0
 33
0.0
 16
1.0
 26
0.0
 36
0.0
 17
0.0
 27
1.0
 37
0.0
 76
     0
330
1B
  0
LAYOUT
  5
26
102
{ACAD_REACTORS
330
1A
102
}
330
1A
100
AcDbPlotSettings
  1

  2

  4

  6

 40
0.0
 41
0.0
 42
0.0
 43
0.0
 44
0.0
 45
0.0
 46
0.0
 47
0.0
 48
0.0
 49
0.0
140
0.0
141
0.0
142
1.0
143
1.0
 70
   688
 72
     0
 73
     0
 74
     5
  7

 75
    16
147
1.0
148
0.0
149
0.0
100
AcDbLayout
  1
Layout2
 70
     1
 71
     2
 10
0.0
 20
0.0
 11
0.0
 21
0.0
 12
0.0
 22
0.0
 32
0.0
 14
0.0
 24
0.0
 34
0.0
 15
0.0
 25
0.0
 35
0.0
146
0.0
 13
0.0
 23
0.0
 33
0.0
 16
1.0
 26
0.0
 36
0.0
 17
0.0
 27
1.0
 37
0.0
 76
     0
330
23
  0
LAYOUT
  5
22
102
{ACAD_REACTORS
330
1A
102
}
330
1A
100
AcDbPlotSettings
  1

  2

  4

  6

 40
0.0
 41
0.0
 42
0.0
 43
0.0
 44
0.0
 45
0.0
 46
0.0
 47
0.0
 48
0.0
 49
0.0
140
0.0
141
0.0
142
1.0
143
1.0
 70
  1712
 72
     0
 73
     0
 74
     0
  7

 75
     0
147
1.0
148
0.0
149
0.0
100
AcDbLayout
  1
Model
 70
     1
 71
     0
 10
0.0
 20
0.0
 11
0.0
 21
0.0
 12
0.0
 22
0.0
 32
0.0
 14
0.0
 24
0.0
 34
0.0
 15
210.0
 25
297.0
 35
0.0
146
0.0
 13
0.0
 23
0.0
 33
0.0
 16
1.0
 26
0.0
 36
0.0
 17
0.0
 27
1.0
 37
0.0
 76
     0
330
1F
  0
MLINESTYLE
  5
18
102
{ACAD_REACTORS
330
17
102
}
330
17
100
AcDbMlineStyle
  2
Standard
 70
     0
  3

 62
   256
 51
90.0
 52
90.0
 71
     2
 49
0.5
 62
   256
  6
BYLAYER
 49
-0.5
 62
   256
  6
BYLAYER
  0
ACDBPLACEHOLDER
  5
F
102
{ACAD_REACTORS
330
E
102
}
330
E
  0
ENDSEC
  0
EOF
