  0
SECTION
  2
HEADER
  9
$ACADVER
  1
AC1015
  9
$ACADMAINTVER
 70
     6
  9
$DWGCODEPAGE
  3
DOS932
  9
$INSBASE
 10
0.0
 20
0.0
 30
0.0
  9
$EXTMIN
 10
0.0
 20
0.0
 30
0.0
  9
$EXTMAX
 10
210.0
 20
297.0
 30
0.0
  9
$LIMMIN
 10
0.0
 20
0.0
  9
$LIMMAX
 10
0.0
 20
0.0
  9
$ORTHOMODE
 70
     0
  9
$REGENMODE
 70
     1
  9
$FILLMODE
 70
     1
  9
$QTEXTMODE
 70
     0
  9
$MIRRTEXT
 70
     1
  9
$LTSCALE
 40
1.0
  9
$ATTMODE
 70
     1
  9
$TEXTSIZE
 40
3.5
  9
$TRACEWID
 40
1.0
  9
$TEXTSTYLE
  7
Standard
  9
$CLAYER
  8
0
  9
$CELTYPE
  6
ByLayer
  9
$CECOLOR
 62
   256
  9
$CELTSCALE
 40
1.0
  9
$DISPSILH
 70
     0
  9
$DIMSCALE
 40
1.0
  9
$DIMASZ
 40
3.0
  9
$DIMEXO
 40
1.0
  9
$DIMDLI
 40
3.75
  9
$DIMRND
 40
0.0
  9
$DIMDLE
 40
0.0
  9
$DIMEXE
 40
1.0
  9
$DIMTP
 40
0.0
  9
$DIMTM
 40
0.0
  9
$DIMTXT
 40
3.5
  9
$DIMCEN
 40
2.5
  9
$DIMTSZ
 40
0.0
  9
$DIMTOL
 70
     0
  9
$DIMLIM
 70
     0
  9
$DIMTIH
 70
     1
  9
$DIMTOH
 70
     1
  9
$DIMSE1
 70
     0
  9
$DIMSE2
 70
     0
  9
$DIMTAD
 70
     1
  9
$DIMZIN
 70
     1
  9
$DIMBLK
  1

  9
$DIMASO
 70
     1
  9
$DIMSHO
 70
     1
  9
$DIMPOST
  1

  9
$DIMAPOST
  1

  9
$DIMALT
 70
     0
  9
$DIMALTD
 70
     3
  9
$DIMALTF
 40
0.0393700787
  9
$DIMLFAC
 40
1.0
  9
$DIMTOFL
 70
     1
  9
$DIMTVP
 40
0.0
  9
$DIMTIX
 70
     0
  9
$DIMSOXD
 70
     0
  9
$DIMSAH
 70
     0
  9
$DIMBLK1
  1

  9
$DIMBLK2
  1

  9
$DIMSTYLE
  2
ISO-25
  9
$DIMCLRD
 70
     0
  9
$DIMCLRE
 70
     0
  9
$DIMCLRT
 70
     0
  9
$DIMTFAC
 40
1.0
  9
$DIMGAP
 40
1.524
  9
$DIMJUST
 70
     0
  9
$DIMSD1
 70
     0
  9
$DIMSD2
 70
     0
  9
$DIMTOLJ
 70
     0
  9
$DIMTZIN
 70
     1
  9
$DIMALTZ
 70
     0
  9
$DIMALTTZ
 70
     0
  9
$DIMUPT
 70
     0
  9
$DIMDEC
 70
     2
  9
$DIMTDEC
 70
     2
  9
$DIMALTU
 70
     2
  9
$DIMALTTD
 70
     3
  9
$DIMTXSTY
  7
Standard
  9
$DIMAUNIT
 70
     0
  9
$DIMADEC
 70
     0
  9
$DIMALTRND
 40
0.0
  9
$DIMAZIN
 70
     0
  9
$DIMDSEP
 70
    44
  9
$DIMATFIT
 70
     3
  9
$DIMFRAC
 70
     0
  9
$DIMLDRBLK
  1

  9
$DIMLUNIT
 70
     2
  9
$DIMLWD
 70
    -2
  9
$DIMLWE
 70
    -2
  9
$DIMTMOVE
 70
     0
  9
$LUNITS
 70
     2
  9
$LUPREC
 70
     1
  9
$SKETCHINC
 40
1.0
  9
$FILLETRAD
 40
10.0
  9
$AUNITS
 70
     0
  9
$AUPREC
 70
     0
  9
$MENU
  1
.
  9
$ELEVATION
 40
0.0
  9
$PELEVATION
 40
0.0
  9
$THICKNESS
 40
0.0
  9
$LIMCHECK
 70
     0
  9
$CHAMFERA
 40
10.0
  9
$CHAMFERB
 40
10.0
  9
$CHAMFERC
 40
20.0
  9
$CHAMFERD
 40
0.0
  9
$SKPOLY
 70
     0
  9
$TDCREATE
 40
2454314.642747928
  9
$TDUCREATE
 40
2454314.267747928
  9
$TDUPDATE
 40
2454314.64274794
  9
$TDUUPDATE
 40
2454314.26774794
  9
$TDINDWG
 40
0.0000000116
  9
$TDUSRTIMER
 40
0.0000000116
  9
$USRTIMER
 70
     1
  9
$ANGBASE
 50
0.0
  9
$ANGDIR
 70
     0
  9
$PDMODE
 70
     0
  9
$PDSIZE
 40
-1.0
  9
$PLINEWID
 40
0.0
  9
$SPLFRAME
 70
     0
  9
$SPLINETYPE
 70
     6
  9
$SPLINESEGS
 70
     8
  9
$HANDSEED
  5
1A4
  9
$SURFTAB1
 70
     6
  9
$SURFTAB2
 70
     6
  9
$SURFTYPE
 70
     6
  9
$SURFU
 70
     6
  9
$SURFV
 70
     6
  9
$UCSBASE
  2

  9
$UCSNAME
  2

  9
$UCSORG
 10
0.0
 20
0.0
 30
0.0
  9
$UCSXDIR
 10
1.0
 20
0.0
 30
0.0
  9
$UCSYDIR
 10
0.0
 20
1.0
 30
0.0
  9
$UCSORTHOREF
  2

  9
$UCSORTHOVIEW
 70
     0
  9
$UCSORGTOP
 10
0.0
 20
0.0
 30
0.0
  9
$UCSORGBOTTOM
 10
0.0
 20
0.0
 30
0.0
  9
$UCSORGLEFT
 10
0.0
 20
0.0
 30
0.0
  9
$UCSORGRIGHT
 10
0.0
 20
0.0
 30
0.0
  9
$UCSORGFRONT
 10
0.0
 20
0.0
 30
0.0
  9
$UCSORGBACK
 10
0.0
 20
0.0
 30
0.0
  9
$PUCSBASE
  2

  9
$PUCSNAME
  2

  9
$PUCSORG
 10
0.0
 20
0.0
 30
0.0
  9
$PUCSXDIR
 10
1.0
 20
0.0
 30
0.0
  9
$PUCSYDIR
 10
0.0
 20
1.0
 30
0.0
  9
$PUCSORTHOREF
  2

  9
$PUCSORTHOVIEW
 70
     0
  9
$PUCSORGTOP
 10
0.0
 20
0.0
 30
0.0
  9
$PUCSORGBOTTOM
 10
0.0
 20
0.0
 30
0.0
  9
$PUCSORGLEFT
 10
0.0
 20
0.0
 30
0.0
  9
$PUCSORGRIGHT
 10
0.0
 20
0.0
 30
0.0
  9
$PUCSORGFRONT
 10
0.0
 20
0.0
 30
0.0
  9
$PUCSORGBACK
 10
0.0
 20
0.0
 30
0.0
  9
$USERI1
 70
     0
  9
$USERI2
 70
     0
  9
$USERI3
 70
     0
  9
$USERI4
 70
     0
  9
$USERI5
 70
     0
  9
$USERR1
 40
0.0
  9
$USERR2
 40
0.0
  9
$USERR3
 40
0.0
  9
$USERR4
 40
0.0
  9
$USERR5
 40
0.0
  9
$WORLDVIEW
 70
     1
  9
$SHADEDGE
 70
     3
  9
$SHADEDIF
 70
    70
  9
$TILEMODE
 70
     1
  9
$MAXACTVP
 70
    64
  9
$PINSBASE
 10
0.0
 20
0.0
 30
0.0
  9
$PLIMCHECK
 70
     0
  9
$PEXTMIN
 10
1.0000000000E+20
 20
1.0000000000E+20
 30
1.0000000000E+20
  9
$PEXTMAX
 10
-1.0000000000E+20
 20
-1.0000000000E+20
 30
-1.0000000000E+20
  9
$PLIMMIN
 10
0.0
 20
0.0
  9
$PLIMMAX
 10
420.0
 20
297.0
  9
$UNITMODE
 70
     0
  9
$VISRETAIN
 70
     1
  9
$PLINEGEN
 70
     0
  9
$PSLTSCALE
 70
     1
  9
$TREEDEPTH
 70
  3020
  9
$CMLSTYLE
  2
Standard
  9
$CMLJUST
 70
     0
  9
$CMLSCALE
 40
20.0
  9
$PROXYGRAPHICS
 70
     1
  9
$MEASUREMENT
 70
     1
  9
$CELWEIGHT
370
    -1
  9
$ENDCAPS
280
     0
  9
$JOINSTYLE
280
     0
  9
$LWDISPLAY
290
     1
  9
$INSUNITS
 70
     4
  9
$HYPERLINKBASE
  1

  9
$STYLESHEET
  1

  9
$XEDIT
290
     1
  9
$CEPSNTYPE
380
     0
  9
$PSTYLEMODE
290
     1
  9
$FINGERPRINTGUID
  2
{F1DB50D0-BFEE-461A-9430-C04BF015009F}
  9
$VERSIONGUID
  2
{FAEB1C32-E019-11D5-929B-00C0DF256EC4}
  9
$EXTNAMES
290
     1
  9
$PSVPSCALE
 40
0.0
  9
$OLESTARTUP
290
     0
  0
ENDSEC
  0
SECTION
  2
CLASSES
  0
CLASS
  1
ACDBDICTIONARYWDFLT
  2
AcDbDictionaryWithDefault
  3
ObjectDBX Classes
 90
        0
280
     0
281
     0
  0
CLASS
  1
ACDBPLACEHOLDER
  2
AcDbPlaceHolder
  3
ObjectDBX Classes
 90
        0
280
     0
281
     0
  0
CLASS
  1
LAYOUT
  2
AcDbLayout
  3
ObjectDBX Classes
 90
        0
280
     0
281
     0
  0
ENDSEC
  0
SECTION
  2
TABLES
  0
TABLE
  2
VPORT
  5
8
330
0
100
AcDbSymbolTable
 70
     1
  0
VPORT
  5
29
330
8
100
AcDbSymbolTableRecord
100
AcDbViewportTableRecord
  2
*Active
 70
     0
 10
0.0
 20
0.0
 11
1.0
 21
1.0
 12
105.0
 22
148.5
 13
0.0
 23
0.0
 14
10.0
 24
10.0
 15
10.0
 25
10.0
 16
0.0
 26
0.0
 36
1.0
 17
0.0
 27
0.0
 37
0.0
 40
297.0
 41
1.9729729729
 42
50.0
 43
0.0
 44
0.0
 50
0.0
 51
0.0
 71
     0
 72
  2000
 73
     1
 74
     3
 75
     0
 76
     0
 77
     0
 78
     0
281
     0
 65
     1
110
0.0
120
0.0
130
0.0
111
1.0
121
0.0
131
0.0
112
0.0
122
1.0
132
0.0
 79
     0
146
0.0
  0
ENDTAB
  0
TABLE
  2
LTYPE
  5
5
330
0
100
AcDbSymbolTable
 70
     6
  0
LTYPE
  5
14
330
5
100
AcDbSymbolTableRecord
100
AcDbLinetypeTableRecord
  2
ByBlock
 70
     0
  3

 72
    65
 73
     0
 40
0.0
  0
LTYPE
  5
15
330
5
100
AcDbSymbolTableRecord
100
AcDbLinetypeTableRecord
  2
ByLayer
 70
     0
  3

 72
    65
 73
     0
 40
0.0
  0
LTYPE
  5
16
330
5
100
AcDbSymbolTableRecord
100
AcDbLinetypeTableRecord
  2
Continuous
 70
     0
  3
Solid line
 72
    65
 73
     0
 40
0.0
  0
LTYPE
  5
2A
330
5
100
AcDbSymbolTableRecord
100
AcDbLinetypeTableRecord
  2
HIDDEN
 70
     0
  3
Hidden __ __ __ __ __ __ __ __ __ __ __ __ __ __
 72
    65
 73
     2
 40
1.905
 49
1.27
 74
     0
 49
-0.635
 74
     0
  0
LTYPE
  5
2B
330
5
100
AcDbSymbolTableRecord
100
AcDbLinetypeTableRecord
  2
PHANTOM
 70
     0
  3
Phantom ______  __  __  ______  __  __  ______
 72
    65
 73
     6
 40
12.7
 49
6.35
 74
     0
 49
-1.27
 74
     0
 49
1.27
 74
     0
 49
-1.27
 74
     0
 49
1.27
 74
     0
 49
-1.27
 74
     0
  0
LTYPE
  5
2C
330
5
100
AcDbSymbolTableRecord
100
AcDbLinetypeTableRecord
  2
CENTER
 70
     0
  3
Center ____ _ ____ _ ____ _ ____ _ ____ _ ____
 72
    65
 73
     4
 40
10.16
 49
6.35
 74
     0
 49
-1.27
 74
     0
 49
1.27
 74
     0
 49
-1.27
 74
     0
  0
LTYPE
  5
2D
330
5
100
AcDbSymbolTableRecord
100
AcDbLinetypeTableRecord
  2
CENTERX2
 70
     0
  3
Center (2x) ________  __  ________  __  _____
 72
    65
 73
     4
 40
20.32
 49
12.7
 74
     0
 49
-2.54
 74
     0
 49
2.54
 74
     0
 49
-2.54
 74
     0
  0
LTYPE
  5
2E
330
5
100
AcDbSymbolTableRecord
100
AcDbLinetypeTableRecord
  2
DOT2
 70
     0
  3
Dot (.5x) ........................................
 72
    65
 73
     2
 40
0.635
 49
0.0
 74
     0
 49
-0.635
 74
     0
  0
ENDTAB
  0
TABLE
  2
LAYER
  5
2
330
0
100
AcDbSymbolTable
 70
     4
  0
LAYER
  5
10
330
2
100
AcDbSymbolTableRecord
100
AcDbLayerTableRecord
  2
0
 70
     0
 62
     7
  6
Continuous
370
    -3
390
F
  0
LAYER
  5
2F
330
2
100
AcDbSymbolTableRecord
100
AcDbLayerTableRecord
  2
SLD-0
 70
     0
 62
   179
  6
Continuous
370
     0
390
F
  0
LAYER
  5
30
330
2
100
AcDbSymbolTableRecord
100
AcDbLayerTableRecord
  2
SLD-DEFPOINTS
 70
     0
 62
   179
  6
Continuous
370
     0
390
F
  0
LAYER
  5
96
330
2
100
AcDbSymbolTableRecord
100
AcDbLayerTableRecord
  2
Defpoints
 70
     0
 62
     7
  6
Continuous
290
     0
370
    -3
390
F
  0
ENDTAB
  0
TABLE
  2
STYLE
  5
3
330
0
100
AcDbSymbolTable
 70
     4
  0
STYLE
  5
11
330
3
100
AcDbSymbolTableRecord
100
AcDbTextStyleTableRecord
  2
Standard
 70
     0
 40
0.0
 41
1.0
 50
0.0
 71
     0
 42
2.5
  3
txt
  4
bigfont
  0
STYLE
  5
34
330
3
100
AcDbSymbolTableRecord
100
AcDbTextStyleTableRecord
  2
SLDTEXTSTYLE0
 70
     0
 40
0.0
 41
0.7
 50
0.0
 71
     0
 42
0.2
  3
TXT
  4
bigfont
  0
STYLE
  5
3A
330
3
100
AcDbSymbolTableRecord
100
AcDbTextStyleTableRecord
  2
SLDTEXTSTYLE1
 70
     0
 40
0.0
 41
0.5526315789
 50
0.0
 71
     0
 42
0.2
  3
TXT
  4
bigfont
  0
STYLE
  5
19B
330
3
100
AcDbSymbolTableRecord
100
AcDbTextStyleTableRecord
  2
SLDTEXTSTYLE2
 70
     0
 40
0.0
 41
0.4733562431
 50
0.0
 71
     0
 42
0.2
  3
TXT
  4
bigfont
  0
ENDTAB
  0
TABLE
  2
VIEW
  5
6
330
0
100
AcDbSymbolTable
 70
     0
  0
ENDTAB
  0
TABLE
  2
UCS
  5
7
330
0
100
AcDbSymbolTable
 70
     0
  0
ENDTAB
  0
TABLE
  2
APPID
  5
9
330
0
100
AcDbSymbolTable
 70
     1
  0
APPID
  5
12
330
9
100
AcDbSymbolTableRecord
100
AcDbRegAppTableRecord
  2
ACAD
 70
     0
  0
ENDTAB
  0
TABLE
  2
DIMSTYLE
  5
A
330
0
100
AcDbSymbolTable
 70
     3
100
AcDbDimStyleTable
  0
DIMSTYLE
105
27
330
A
100
AcDbSymbolTableRecord
100
AcDbDimStyleTableRecord
  2
ISO-25
 70
     0
 41
2.5
 42
0.625
 43
3.75
 44
1.25
 73
     0
 74
     0
 77
     1
 78
     8
140
2.5
141
2.5
143
0.0393700787
147
0.625
171
     3
172
     1
271
     2
272
     2
274
     3
278
    44
283
     0
284
     8
340
11
  0
DIMSTYLE
105
A5
102
{ACAD_REACTORS
330
95
330
ED
102
}
330
A
100
AcDbSymbolTableRecord
100
AcDbDimStyleTableRecord
  2
SLDDIMSTYLE0
 70
     0
 41
3.0
 44
0.0
 73
     0
 74
     0
 77
     3
 78
    12
140
3.5
147
0.875
173
     1
271
     1
272
     2
284
    12
340
3A
341
A6
343
A6
344
A6
  0
DIMSTYLE
105
C3
102
{ACAD_REACTORS
330
B5
330
D0
330
107
330
11E
330
136
330
14D
330
167
330
181
102
}
330
A
100
AcDbSymbolTableRecord
100
AcDbDimStyleTableRecord
  2
SLDDIMSTYLE1
 70
     0
 41
3.0
 44
0.0
 73
     0
 74
     0
 77
     3
 78
    12
140
3.5
147
0.875
173
     1
271
     0
272
     2
284
    12
340
3A
341
A6
343
A6
344
A6
  0
ENDTAB
  0
TABLE
  2
BLOCK_RECORD
  5
1
330
0
100
AcDbSymbolTable
 70
    19
  0
BLOCK_RECORD
  5
1F
330
1
100
AcDbSymbolTableRecord
100
AcDbBlockTableRecord
  2
*Model_Space
340
22
  0
BLOCK_RECORD
  5
1B
330
1
100
AcDbSymbolTableRecord
100
AcDbBlockTableRecord
  2
*Paper_Space
340
1E
  0
BLOCK_RECORD
  5
23
330
1
100
AcDbSymbolTableRecord
100
AcDbBlockTableRecord
  2
*Paper_Space0
340
26
  0
BLOCK_RECORD
  5
31
330
1
100
AcDbSymbolTableRecord
100
AcDbBlockTableRecord
  2
注記
340
0
102
{BLKREFS
331
1A0
102
}
  0
BLOCK_RECORD
  5
37
330
1
100
AcDbSymbolTableRecord
100
AcDbBlockTableRecord
  2
NOTE1
340
0
102
{BLKREFS
331
19D
102
}
  0
BLOCK_RECORD
  5
3E
330
1
100
AcDbSymbolTableRecord
100
AcDbBlockTableRecord
  2
SURFACEFINISH41
340
0
102
{BLKREFS
331
19E
102
}
  0
BLOCK_RECORD
  5
44
330
1
100
AcDbSymbolTableRecord
100
AcDbBlockTableRecord
  2
SURFACEFINISH42
340
0
102
{BLKREFS
331
19F
102
}
  0
BLOCK_RECORD
  5
4B
330
1
100
AcDbSymbolTableRecord
100
AcDbBlockTableRecord
  2
SW_CENTERMARK0
340
0
102
{BLKREFS
331
1A1
102
}
  0
BLOCK_RECORD
  5
56
330
1
100
AcDbSymbolTableRecord
100
AcDbBlockTableRecord
  2
SW_CENTERMARK1
340
0
102
{BLKREFS
331
1A2
102
}
  0
BLOCK_RECORD
  5
61
330
1
100
AcDbSymbolTableRecord
100
AcDbBlockTableRecord
  2
SW_CENTERMARK2
340
0
102
{BLKREFS
331
1A3
102
}
  0
BLOCK_RECORD
  5
97
330
1
100
AcDbSymbolTableRecord
100
AcDbBlockTableRecord
  2
*D8
340
0
  0
BLOCK_RECORD
  5
A6
330
1
100
AcDbSymbolTableRecord
100
AcDbBlockTableRecord
  2
_None
340
0
102
{BLKREFS
331
9D
331
9C
331
BB
331
BA
331
D8
331
D7
331
F3
331
F2
331
10D
331
10C
331
124
331
123
331
13C
331
13B
331
153
331
152
331
16D
331
16C
331
187
331
186
102
}
  0
BLOCK_RECORD
  5
B6
330
1
100
AcDbSymbolTableRecord
100
AcDbBlockTableRecord
  2
*D10
340
0
  0
BLOCK_RECORD
  5
D1
330
1
100
AcDbSymbolTableRecord
100
AcDbBlockTableRecord
  2
*D11
340
0
  0
BLOCK_RECORD
  5
EE
330
1
100
AcDbSymbolTableRecord
100
AcDbBlockTableRecord
  2
*D12
340
0
  0
BLOCK_RECORD
  5
108
330
1
100
AcDbSymbolTableRecord
100
AcDbBlockTableRecord
  2
*D13
340
0
  0
BLOCK_RECORD
  5
11F
330
1
100
AcDbSymbolTableRecord
100
AcDbBlockTableRecord
  2
*D14
340
0
  0
BLOCK_RECORD
  5
137
330
1
100
AcDbSymbolTableRecord
100
AcDbBlockTableRecord
  2
*D15
340
0
  0
BLOCK_RECORD
  5
14E
330
1
100
AcDbSymbolTableRecord
100
AcDbBlockTableRecord
  2
*D16
340
0
  0
BLOCK_RECORD
  5
168
330
1
100
AcDbSymbolTableRecord
100
AcDbBlockTableRecord
  2
*D17
340
0
  0
BLOCK_RECORD
  5
182
330
1
100
AcDbSymbolTableRecord
100
AcDbBlockTableRecord
  2
*D18
340
0
  0
ENDTAB
  0
ENDSEC
  0
SECTION
  2
BLOCKS
  0
BLOCK
  5
20
330
1F
100
AcDbEntity
  8
0
100
AcDbBlockBegin
  2
*Model_Space
 70
     0
 71
     0
 10
0.0
 20
0.0
 30
0.0
  3
*Model_Space
  1

  0
ENDBLK
  5
21
330
1F
100
AcDbEntity
  8
0
100
AcDbBlockEnd
  0
BLOCK
  5
1C
330
1B
100
AcDbEntity
 67
     1
  8
0
100
AcDbBlockBegin
  2
*Paper_Space
 70
     0
 71
     0
 10
0.0
 20
0.0
 30
0.0
  3
*Paper_Space
  1

  0
ENDBLK
  5
1D
330
1B
100
AcDbEntity
 67
     1
  8
0
100
AcDbBlockEnd
  0
BLOCK
  5
24
330
23
100
AcDbEntity
  8
0
100
AcDbBlockBegin
  2
*Paper_Space0
 70
     0
 71
     0
 10
0.0
 20
0.0
 30
0.0
  3
*Paper_Space0
  1

  0
ENDBLK
  5
25
330
23
100
AcDbEntity
  8
0
100
AcDbBlockEnd
  0
BLOCK
  5
32
330
31
100
AcDbEntity
  8
0
100
AcDbBlockBegin
  2
注記
 70
     0
 71
     0
 10
0.0
 20
0.0
 30
0.0
  3
注記
  1

  0
MTEXT
  5
35
330
31
100
AcDbEntity
  8
0
  6
Continuous
 62
     7
370
     0
100
AcDbMText
 10
0.2636785918
 20
9.0739778448
 30
0.0
 40
3.5
 41
0.0
 71
     1
 72
     1
  1
１．特記ナキ角部ハ、バリ　カエリノ無キコト。
  7
SLDTEXTSTYLE0
 73
     1
 44
1.0
  0
MTEXT
  5
36
330
31
100
AcDbEntity
  8
0
  6
Continuous
 62
     7
370
     0
100
AcDbMText
 10
0.2636785918
 20
3.5759549983
 30
0.0
 40
3.5
 41
0.0
 71
     1
 72
     1
  1
２．特記ナキ隅部ハ、Ｒ０．４ＭＡＸトスル。
  7
SLDTEXTSTYLE0
 73
     1
 44
1.0
  0
ENDBLK
  5
33
330
31
100
AcDbEntity
  8
0
100
AcDbBlockEnd
  0
BLOCK
  5
38
330
37
100
AcDbEntity
  8
0
100
AcDbBlockBegin
  2
NOTE1
 70
     0
 71
     0
 10
0.0
 20
0.0
 30
0.0
  3
NOTE1
  1

  0
MTEXT
  5
3B
330
37
100
AcDbEntity
  8
SLD-0
100
AcDbMText
 10
0.0
 20
3.9302932586
 30
0.0
 40
3.5
 41
0.0
 71
     1
 72
     1
  1
本図ハ、
  7
SLDTEXTSTYLE1
 73
     1
 44
1.0
  0
MTEXT
  5
3C
330
37
100
AcDbEntity
  8
SLD-0
100
AcDbMText
 10
16.2944439799
 20
3.9302932586
 30
0.0
 40
3.5
 41
0.0
 71
     1
 72
     1
  1
O
  7
SLDTEXTSTYLE1
 73
     1
 44
1.0
  0
MTEXT
  5
3D
330
37
100
AcDbEntity
  8
SLD-0
100
AcDbMText
 10
20.1643742621
 20
3.9302932586
 30
0.0
 40
3.5
 41
0.0
 71
     1
 72
     1
  1
12穴部加工ノ後ニ分割シテ、組部品トスル事ヲ示ス
  7
SLDTEXTSTYLE1
 73
     1
 44
1.0
  0
ENDBLK
  5
39
330
37
100
AcDbEntity
  8
0
100
AcDbBlockEnd
  0
BLOCK
  5
3F
330
3E
100
AcDbEntity
  8
0
100
AcDbBlockBegin
  2
SURFACEFINISH41
 70
     0
 71
     0
 10
0.0
 20
0.0
 30
0.0
  3
SURFACEFINISH41
  1

  0
LINE
  5
41
330
3E
100
AcDbEntity
  8
SLD-0
  6
Continuous
 62
   179
100
AcDbLine
 10
0.6656399396
 20
-6.0449245738
 30
0.0
 11
-2.9003789868
 21
0.0000001164
 31
0.0
  0
LINE
  5
42
330
3E
100
AcDbEntity
  8
SLD-0
  6
Continuous
 62
   179
100
AcDbLine
 10
0.6656399396
 20
-6.0449245738
 30
0.0
 11
7.7976777926
 21
6.0449248066
 31
0.0
  0
MTEXT
  5
43
330
3E
100
AcDbEntity
  8
SLD-0
100
AcDbMText
 10
0.0
 20
4.9341236929
 30
0.0
 40
3.175
 41
0.0
 71
     1
 72
     1
  1
25
  7
SLDTEXTSTYLE1
 73
     1
 44
1.0
  0
ENDBLK
  5
40
330
3E
100
AcDbEntity
  8
0
100
AcDbBlockEnd
  0
BLOCK
  5
45
330
44
100
AcDbEntity
  8
0
100
AcDbBlockBegin
  2
SURFACEFINISH42
 70
     0
 71
     0
 10
0.0
 20
0.0
 30
0.0
  3
SURFACEFINISH42
  1

  0
LINE
  5
47
330
44
100
AcDbEntity
  8
SLD-0
  6
Continuous
 62
   179
100
AcDbLine
 10
2.7814693727
 20
-6.0449245738
 30
0.0
 11
-0.7845495538
 21
0.0000001164
 31
0.0
  0
LINE
  5
48
330
44
100
AcDbEntity
  8
SLD-0
  6
Continuous
 62
   179
100
AcDbLine
 10
6.3474882992
 20
0.0000001164
 30
0.0
 11
-0.7845495538
 21
0.0000001164
 31
0.0
  0
LINE
  5
49
330
44
100
AcDbEntity
  8
SLD-0
  6
Continuous
 62
   179
100
AcDbLine
 10
2.7814693727
 20
-6.0449245738
 30
0.0
 11
9.9135072256
 21
6.0449248066
 31
0.0
  0
MTEXT
  5
4A
330
44
100
AcDbEntity
  8
SLD-0
100
AcDbMText
 10
0.0
 20
4.9341236929
 30
0.0
 40
3.175
 41
0.0
 71
     1
 72
     1
  1
6.3
  7
SLDTEXTSTYLE1
 73
     1
 44
1.0
  0
ENDBLK
  5
46
330
44
100
AcDbEntity
  8
0
100
AcDbBlockEnd
  0
BLOCK
  5
4C
330
4B
100
AcDbEntity
  8
0
100
AcDbBlockBegin
  2
SW_CENTERMARK0
 70
     0
 71
     0
 10
0.0
 20
0.0
 30
0.0
  3
SW_CENTERMARK0
  1

  0
LINE
  5
4E
330
4B
100
AcDbEntity
  8
SLD-0
  6
Continuous
 62
   179
100
AcDbLine
 10
113.9477466637
 20
148.576322697
 30
0.0
 11
113.9477466637
 21
151.076322697
 31
0.0
  0
LINE
  5
4F
330
4B
100
AcDbEntity
  8
SLD-0
  6
Continuous
 62
   179
100
AcDbLine
 10
113.9477466637
 20
148.576322697
 30
0.0
 11
111.4477466637
 21
148.576322697
 31
0.0
  0
LINE
  5
50
330
4B
100
AcDbEntity
  8
SLD-0
  6
Continuous
 62
   179
100
AcDbLine
 10
113.9477466637
 20
148.576322697
 30
0.0
 11
113.9477466637
 21
146.076322697
 31
0.0
  0
LINE
  5
51
330
4B
100
AcDbEntity
  8
SLD-0
  6
Continuous
 62
   179
100
AcDbLine
 10
113.9477466637
 20
148.576322697
 30
0.0
 11
116.4477466637
 21
148.576322697
 31
0.0
  0
LINE
  5
52
330
4B
100
AcDbEntity
  8
SLD-0
  6
Continuous
 62
   179
100
AcDbLine
 10
113.9477466637
 20
153.576322697
 30
0.0
 11
113.9477466637
 21
157.076322697
 31
0.0
  0
LINE
  5
53
330
4B
100
AcDbEntity
  8
SLD-0
  6
Continuous
 62
   179
100
AcDbLine
 10
108.9477466637
 20
148.576322697
 30
0.0
 11
105.4477466637
 21
148.576322697
 31
0.0
  0
LINE
  5
54
330
4B
100
AcDbEntity
  8
SLD-0
  6
Continuous
 62
   179
100
AcDbLine
 10
113.9477466637
 20
143.576322697
 30
0.0
 11
113.9477466637
 21
140.076322697
 31
0.0
  0
LINE
  5
55
330
4B
100
AcDbEntity
  8
SLD-0
  6
Continuous
 62
   179
100
AcDbLine
 10
118.9477466637
 20
148.576322697
 30
0.0
 11
122.4477466637
 21
148.576322697
 31
0.0
  0
ENDBLK
  5
4D
330
4B
100
AcDbEntity
  8
0
100
AcDbBlockEnd
  0
BLOCK
  5
57
330
56
100
AcDbEntity
  8
0
100
AcDbBlockBegin
  2
SW_CENTERMARK1
 70
     0
 71
     0
 10
0.0
 20
0.0
 30
0.0
  3
SW_CENTERMARK1
  1

  0
LINE
  5
59
330
56
100
AcDbEntity
  8
SLD-0
  6
Continuous
 62
   179
100
AcDbLine
 10
128.9477466637
 20
191.2469822302
 30
0.0
 11
128.9477466637
 21
193.7469822302
 31
0.0
  0
LINE
  5
5A
330
56
100
AcDbEntity
  8
SLD-0
  6
Continuous
 62
   179
100
AcDbLine
 10
128.9477466637
 20
191.2469822302
 30
0.0
 11
126.4477466637
 21
191.2469822302
 31
0.0
  0
LINE
  5
5B
330
56
100
AcDbEntity
  8
SLD-0
  6
Continuous
 62
   179
100
AcDbLine
 10
128.9477466637
 20
191.2469822302
 30
0.0
 11
128.9477466637
 21
188.7469822302
 31
0.0
  0
LINE
  5
5C
330
56
100
AcDbEntity
  8
SLD-0
  6
Continuous
 62
   179
100
AcDbLine
 10
128.9477466637
 20
191.2469822302
 30
0.0
 11
131.4477466637
 21
191.2469822302
 31
0.0
  0
LINE
  5
5D
330
56
100
AcDbEntity
  8
SLD-0
  6
Continuous
 62
   179
100
AcDbLine
 10
128.9477466637
 20
196.2469822302
 30
0.0
 11
128.9477466637
 21
196.9969822302
 31
0.0
  0
LINE
  5
5E
330
56
100
AcDbEntity
  8
SLD-0
  6
Continuous
 62
   179
100
AcDbLine
 10
123.9477466637
 20
191.2469822302
 30
0.0
 11
123.1977466637
 21
191.2469822302
 31
0.0
  0
LINE
  5
5F
330
56
100
AcDbEntity
  8
SLD-0
  6
Continuous
 62
   179
100
AcDbLine
 10
128.9477466637
 20
186.2469822302
 30
0.0
 11
128.9477466637
 21
185.4969822302
 31
0.0
  0
LINE
  5
60
330
56
100
AcDbEntity
  8
SLD-0
  6
Continuous
 62
   179
100
AcDbLine
 10
133.9477466637
 20
191.2469822302
 30
0.0
 11
134.6977466637
 21
191.2469822302
 31
0.0
  0
ENDBLK
  5
58
330
56
100
AcDbEntity
  8
0
100
AcDbBlockEnd
  0
BLOCK
  5
62
330
61
100
AcDbEntity
  8
0
100
AcDbBlockBegin
  2
SW_CENTERMARK2
 70
     0
 71
     0
 10
0.0
 20
0.0
 30
0.0
  3
SW_CENTERMARK2
  1

  0
LINE
  5
64
330
61
100
AcDbEntity
  8
SLD-0
  6
Continuous
 62
   179
100
AcDbLine
 10
98.9477466637
 20
191.2469822302
 30
0.0
 11
98.9477466637
 21
193.7469822302
 31
0.0
  0
LINE
  5
65
330
61
100
AcDbEntity
  8
SLD-0
  6
Continuous
 62
   179
100
AcDbLine
 10
98.9477466637
 20
191.2469822302
 30
0.0
 11
96.4477466637
 21
191.2469822302
 31
0.0
  0
LINE
  5
66
330
61
100
AcDbEntity
  8
SLD-0
  6
Continuous
 62
   179
100
AcDbLine
 10
98.9477466637
 20
191.2469822302
 30
0.0
 11
98.9477466637
 21
188.7469822302
 31
0.0
  0
LINE
  5
67
330
61
100
AcDbEntity
  8
SLD-0
  6
Continuous
 62
   179
100
AcDbLine
 10
98.9477466637
 20
191.2469822302
 30
0.0
 11
101.4477466637
 21
191.2469822302
 31
0.0
  0
LINE
  5
68
330
61
100
AcDbEntity
  8
SLD-0
  6
Continuous
 62
   179
100
AcDbLine
 10
98.9477466637
 20
196.2469822302
 30
0.0
 11
98.9477466637
 21
196.9969822302
 31
0.0
  0
LINE
  5
69
330
61
100
AcDbEntity
  8
SLD-0
  6
Continuous
 62
   179
100
AcDbLine
 10
93.9477466637
 20
191.2469822302
 30
0.0
 11
93.1977466637
 21
191.2469822302
 31
0.0
  0
LINE
  5
6A
330
61
100
AcDbEntity
  8
SLD-0
  6
Continuous
 62
   179
100
AcDbLine
 10
98.9477466637
 20
186.2469822302
 30
0.0
 11
98.9477466637
 21
185.4969822302
 31
0.0
  0
LINE
  5
6B
330
61
100
AcDbEntity
  8
SLD-0
  6
Continuous
 62
   179
100
AcDbLine
 10
103.9477466637
 20
191.2469822302
 30
0.0
 11
104.6977466637
 21
191.2469822302
 31
0.0
  0
ENDBLK
  5
63
330
61
100
AcDbEntity
  8
0
100
AcDbBlockEnd
  0
BLOCK
  5
A3
330
97
100
AcDbEntity
  8
0
100
AcDbBlockBegin
  2
*D8
 70
     1
 71
     0
 10
0.0
 20
0.0
 30
0.0
  3
*D8
  1

  0
ARC
  5
A9
330
97
100
AcDbEntity
  8
SLD-0
 62
     7
100
AcDbCircle
 10
84.866652553
 20
149.076322697
 30
0.0
 40
0.75
100
AcDbArc
 50
270.0
 51
90.0
  0
ARC
  5
AA
330
97
100
AcDbEntity
  8
SLD-0
 62
     7
100
AcDbCircle
 10
84.866652553
 20
149.076322697
 30
0.0
 40
0.75
100
AcDbArc
 50
90.0
 51
270.0
  0
LINE
  5
AB
330
97
100
AcDbEntity
  8
SLD-0
 62
     7
100
AcDbLine
 10
92.9477466637
 20
156.576322697
 30
0.0
 11
83.866652553
 21
156.576322697
 31
0.0
  0
LINE
  5
AC
330
97
100
AcDbEntity
  8
SLD-0
 62
     7
100
AcDbLine
 10
92.9477466637
 20
149.076322697
 30
0.0
 11
83.866652553
 21
149.076322697
 31
0.0
  0
LINE
  5
AD
330
97
100
AcDbEntity
  8
SLD-0
 62
     7
100
AcDbLine
 10
84.866652553
 20
156.576322697
 30
0.0
 11
84.866652553
 21
168.1960155573
 31
0.0
  0
LINE
  5
AE
330
97
100
AcDbEntity
  8
SLD-0
 62
     7
100
AcDbLine
 10
84.866652553
 20
156.576322697
 30
0.0
 11
84.866652553
 21
149.076322697
 31
0.0
  0
LINE
  5
AF
330
97
100
AcDbEntity
  8
SLD-0
 62
     7
100
AcDbLine
 10
84.866652553
 20
149.076322697
 30
0.0
 11
84.866652553
 21
144.076322697
 31
0.0
  0
LINE
  5
B0
330
97
100
AcDbEntity
  8
SLD-0
 62
     7
100
AcDbLine
 10
85.670499553
 20
159.576322697
 30
0.0
 11
84.866652553
 21
156.576322697
 31
0.0
  0
LINE
  5
B1
330
97
100
AcDbEntity
  8
SLD-0
 62
     7
100
AcDbLine
 10
84.866652553
 20
156.576322697
 30
0.0
 11
84.062805553
 21
159.576322697
 31
0.0
  0
LINE
  5
B2
330
97
100
AcDbEntity
  8
SLD-0
 62
     7
100
AcDbLine
 10
84.866652553
 20
156.576322697
 30
0.0
 11
84.866652553
 21
159.576322697
 31
0.0
  0
LINE
  5
B3
330
97
100
AcDbEntity
  8
SLD-0
 62
     7
100
AcDbLine
 10
84.866652553
 20
147.576322697
 30
0.0
 11
84.866652553
 21
146.076322697
 31
0.0
  0
MTEXT
  5
B4
330
97
100
AcDbEntity
  8
SLD-0
 62
     7
100
AcDbMText
 10
80.3399588571
 20
160.4985556055
 30
0.1
 40
3.5
 41
0.0
 71
     1
 72
     1
  1
7.5
  7
SLDTEXTSTYLE0
 11
6.123031769111886E-17
 21
1.0
 31
0.0
 73
     1
 44
1.0
  0
ENDBLK
  5
A4
330
97
100
AcDbEntity
  8
0
100
AcDbBlockEnd
  0
BLOCK
  5
A7
330
A6
100
AcDbEntity
  8
0
100
AcDbBlockBegin
  2
_None
 70
     0
 71
     0
 10
0.0
 20
0.0
 30
0.0
  3
_None
  1

  0
ENDBLK
  5
A8
330
A6
100
AcDbEntity
  8
0
100
AcDbBlockEnd
  0
BLOCK
  5
C1
330
B6
100
AcDbEntity
  8
0
100
AcDbBlockBegin
  2
*D10
 70
     1
 71
     0
 10
0.0
 20
0.0
 30
0.0
  3
*D10
  1

  0
ARC
  5
C4
330
B6
100
AcDbEntity
  8
SLD-0
100
AcDbCircle
 10
71.8531639483
 20
149.0242579202
 30
0.0
 40
4.551371522799997
100
AcDbArc
 50
243.4349488229
 51
296.5650511771
  0
ARC
  5
C5
330
B6
100
AcDbEntity
  8
SLD-0
100
AcDbCircle
 10
71.8531639483
 20
148.1283874739
 30
0.0
 40
4.551371522799997
100
AcDbArc
 50
63.4349488229
 51
116.5650511771
  0
LINE
  5
C6
330
B6
100
AcDbEntity
  8
SLD-0
100
AcDbLine
 10
97.9477466637
 20
156.576322697
 30
0.0
 11
72.8885991715
 21
156.576322697
 31
0.0
  0
LINE
  5
C7
330
B6
100
AcDbEntity
  8
SLD-0
100
AcDbLine
 10
120.4477466637
 20
140.576322697
 30
0.0
 11
72.8885991715
 21
140.576322697
 31
0.0
  0
LINE
  5
C8
330
B6
100
AcDbEntity
  8
SLD-0
100
AcDbLine
 10
73.8885991715
 20
156.576322697
 30
0.0
 11
73.8885991715
 21
140.576322697
 31
0.0
  0
LINE
  5
C9
330
B6
100
AcDbEntity
  8
SLD-0
100
AcDbLine
 10
73.0847521715
 20
153.576322697
 30
0.0
 11
73.8885991715
 21
156.576322697
 31
0.0
  0
LINE
  5
CA
330
B6
100
AcDbEntity
  8
SLD-0
100
AcDbLine
 10
73.8885991715
 20
156.576322697
 30
0.0
 11
74.6924461715
 21
153.576322697
 31
0.0
  0
LINE
  5
CB
330
B6
100
AcDbEntity
  8
SLD-0
100
AcDbLine
 10
73.8885991715
 20
156.576322697
 30
0.0
 11
73.8885991715
 21
153.576322697
 31
0.0
  0
LINE
  5
CC
330
B6
100
AcDbEntity
  8
SLD-0
100
AcDbLine
 10
74.6924461715
 20
143.576322697
 30
0.0
 11
73.8885991715
 21
140.576322697
 31
0.0
  0
LINE
  5
CD
330
B6
100
AcDbEntity
  8
SLD-0
100
AcDbLine
 10
73.8885991715
 20
140.576322697
 30
0.0
 11
73.0847521715
 21
143.576322697
 31
0.0
  0
LINE
  5
CE
330
B6
100
AcDbEntity
  8
SLD-0
100
AcDbLine
 10
73.8885991715
 20
140.576322697
 30
0.0
 11
73.8885991715
 21
143.576322697
 31
0.0
  0
MTEXT
  5
CF
330
B6
100
AcDbEntity
  8
SLD-0
100
AcDbMText
 10
69.3619054755
 20
146.5408874739
 30
0.1
 40
3.5
 41
0.0
 71
     1
 72
     1
  1
16
  7
SLDTEXTSTYLE0
 11
6.123031769111886E-17
 21
1.0
 31
0.0
 73
     1
 44
1.0
  0
ENDBLK
  5
C2
330
B6
100
AcDbEntity
  8
0
100
AcDbBlockEnd
  0
BLOCK
  5
DC
330
D1
100
AcDbEntity
  8
0
100
AcDbBlockBegin
  2
*D11
 70
     1
 71
     0
 10
0.0
 20
0.0
 30
0.0
  3
*D11
  1

  0
ARC
  5
DF
330
D1
100
AcDbEntity
  8
SLD-0
100
AcDbCircle
 10
84.866652553
 20
148.076322697
 30
0.0
 40
0.75
100
AcDbArc
 50
270.0
 51
90.0
  0
ARC
  5
E0
330
D1
100
AcDbEntity
  8
SLD-0
100
AcDbCircle
 10
84.866652553
 20
148.076322697
 30
0.0
 40
0.75
100
AcDbArc
 50
90.0
 51
270.0
  0
ARC
  5
E1
330
D1
100
AcDbEntity
  8
SLD-0
100
AcDbCircle
 10
84.866652553
 20
149.076322697
 30
0.0
 40
0.75
100
AcDbArc
 50
90.0
 51
270.0
  0
ARC
  5
E2
330
D1
100
AcDbEntity
  8
SLD-0
100
AcDbCircle
 10
84.866652553
 20
149.076322697
 30
0.0
 40
0.75
100
AcDbArc
 50
270.0
 51
90.0
  0
LINE
  5
E3
330
D1
100
AcDbEntity
  8
SLD-0
100
AcDbLine
 10
92.9477466637
 20
148.076322697
 30
0.0
 11
83.866652553
 21
148.076322697
 31
0.0
  0
LINE
  5
E4
330
D1
100
AcDbEntity
  8
SLD-0
100
AcDbLine
 10
92.9477466637
 20
149.076322697
 30
0.0
 11
83.866652553
 21
149.076322697
 31
0.0
  0
LINE
  5
E5
330
D1
100
AcDbEntity
  8
SLD-0
100
AcDbLine
 10
84.866652553
 20
148.076322697
 30
0.0
 11
84.866652553
 21
143.076322697
 31
0.0
  0
LINE
  5
E6
330
D1
100
AcDbEntity
  8
SLD-0
100
AcDbLine
 10
84.866652553
 20
148.076322697
 30
0.0
 11
84.866652553
 21
149.076322697
 31
0.0
  0
LINE
  5
E7
330
D1
100
AcDbEntity
  8
SLD-0
100
AcDbLine
 10
84.866652553
 20
149.076322697
 30
0.0
 11
84.866652553
 21
154.076322697
 31
0.0
  0
LINE
  5
E8
330
D1
100
AcDbEntity
  8
SLD-0
100
AcDbLine
 10
84.866652553
 20
148.576322697
 30
0.0
 11
82.0205532321
 21
151.7491393076
 31
0.0
  0
LINE
  5
E9
330
D1
100
AcDbEntity
  8
SLD-0
100
AcDbLine
 10
82.0205532321
 20
151.7491393076
 30
0.0
 11
76.810118009
 21
151.7491393076
 31
0.0
  0
LINE
  5
EA
330
D1
100
AcDbEntity
  8
SLD-0
100
AcDbLine
 10
84.866652553
 20
146.576322697
 30
0.0
 11
84.866652553
 21
145.076322697
 31
0.0
  0
LINE
  5
EB
330
D1
100
AcDbEntity
  8
SLD-0
100
AcDbLine
 10
84.866652553
 20
150.576322697
 30
0.0
 11
84.866652553
 21
152.076322697
 31
0.0
  0
MTEXT
  5
EC
330
D1
100
AcDbEntity
  8
SLD-0
100
AcDbMText
 10
78.397618009
 20
156.2758330036
 30
0.1
 40
3.5
 41
0.0
 71
     1
 72
     1
  1
1
  7
SLDTEXTSTYLE0
 73
     1
 44
1.0
  0
ENDBLK
  5
DD
330
D1
100
AcDbEntity
  8
0
100
AcDbBlockEnd
  0
BLOCK
  5
F9
330
EE
100
AcDbEntity
  8
0
100
AcDbBlockBegin
  2
*D12
 70
     1
 71
     0
 10
0.0
 20
0.0
 30
0.0
  3
*D12
  1

  0
ARC
  5
FB
330
EE
100
AcDbEntity
  8
SLD-0
100
AcDbCircle
 10
84.866652553
 20
148.076322697
 30
0.0
 40
0.75
100
AcDbArc
 50
90.0
 51
270.0
  0
ARC
  5
FC
330
EE
100
AcDbEntity
  8
SLD-0
100
AcDbCircle
 10
84.866652553
 20
148.076322697
 30
0.0
 40
0.75
100
AcDbArc
 50
270.0
 51
90.0
  0
LINE
  5
FD
330
EE
100
AcDbEntity
  8
SLD-0
100
AcDbLine
 10
92.9477466637
 20
140.576322697
 30
0.0
 11
83.866652553
 21
140.576322697
 31
0.0
  0
LINE
  5
FE
330
EE
100
AcDbEntity
  8
SLD-0
100
AcDbLine
 10
92.9477466637
 20
148.076322697
 30
0.0
 11
83.866652553
 21
148.076322697
 31
0.0
  0
LINE
  5
FF
330
EE
100
AcDbEntity
  8
SLD-0
100
AcDbLine
 10
84.866652553
 20
140.576322697
 30
0.0
 11
84.866652553
 21
135.576322697
 31
0.0
  0
LINE
  5
100
330
EE
100
AcDbEntity
  8
SLD-0
100
AcDbLine
 10
84.866652553
 20
140.576322697
 30
0.0
 11
84.866652553
 21
148.076322697
 31
0.0
  0
LINE
  5
101
330
EE
100
AcDbEntity
  8
SLD-0
100
AcDbLine
 10
84.866652553
 20
148.076322697
 30
0.0
 11
84.866652553
 21
153.076322697
 31
0.0
  0
LINE
  5
102
330
EE
100
AcDbEntity
  8
SLD-0
100
AcDbLine
 10
84.062805553
 20
137.576322697
 30
0.0
 11
84.866652553
 21
140.576322697
 31
0.0
  0
LINE
  5
103
330
EE
100
AcDbEntity
  8
SLD-0
100
AcDbLine
 10
84.866652553
 20
140.576322697
 30
0.0
 11
85.670499553
 21
137.576322697
 31
0.0
  0
LINE
  5
104
330
EE
100
AcDbEntity
  8
SLD-0
100
AcDbLine
 10
84.866652553
 20
140.576322697
 30
0.0
 11
84.866652553
 21
137.576322697
 31
0.0
  0
LINE
  5
105
330
EE
100
AcDbEntity
  8
SLD-0
100
AcDbLine
 10
84.866652553
 20
149.576322697
 30
0.0
 11
84.866652553
 21
151.076322697
 31
0.0
  0
MTEXT
  5
106
330
EE
100
AcDbEntity
  8
SLD-0
100
AcDbMText
 10
80.3399588571
 20
141.2713427212
 30
0.1
 40
3.5
 41
0.0
 71
     1
 72
     1
  1
7.5
  7
SLDTEXTSTYLE0
 11
6.123031769111886E-17
 21
1.0
 31
0.0
 73
     1
 44
1.0
  0
ENDBLK
  5
FA
330
EE
100
AcDbEntity
  8
0
100
AcDbBlockEnd
  0
BLOCK
  5
112
330
108
100
AcDbEntity
  8
0
100
AcDbBlockBegin
  2
*D13
 70
     1
 71
     0
 10
0.0
 20
0.0
 30
0.0
  3
*D13
  1

  0
LINE
  5
114
330
108
100
AcDbEntity
  8
SLD-0
100
AcDbLine
 10
93.9477466637
 20
157.576322697
 30
0.0
 11
93.9477466637
 21
166.5867874152
 31
0.0
  0
LINE
  5
115
330
108
100
AcDbEntity
  8
SLD-0
100
AcDbLine
 10
113.9477466637
 20
158.076322697
 30
0.0
 11
113.9477466637
 21
166.5867874152
 31
0.0
  0
LINE
  5
116
330
108
100
AcDbEntity
  8
SLD-0
100
AcDbLine
 10
93.9477466637
 20
165.5867874152
 30
0.0
 11
113.9477466637
 21
165.5867874152
 31
0.0
  0
LINE
  5
117
330
108
100
AcDbEntity
  8
SLD-0
100
AcDbLine
 10
96.9477466637
 20
164.7829404152
 30
0.0
 11
93.9477466637
 21
165.5867874152
 31
0.0
  0
LINE
  5
118
330
108
100
AcDbEntity
  8
SLD-0
100
AcDbLine
 10
93.9477466637
 20
165.5867874152
 30
0.0
 11
96.9477466637
 21
166.3906344152
 31
0.0
  0
LINE
  5
119
330
108
100
AcDbEntity
  8
SLD-0
100
AcDbLine
 10
93.9477466637
 20
165.5867874152
 30
0.0
 11
96.9477466637
 21
165.5867874152
 31
0.0
  0
LINE
  5
11A
330
108
100
AcDbEntity
  8
SLD-0
100
AcDbLine
 10
110.9477466637
 20
166.3906344152
 30
0.0
 11
113.9477466637
 21
165.5867874152
 31
0.0
  0
LINE
  5
11B
330
108
100
AcDbEntity
  8
SLD-0
100
AcDbLine
 10
113.9477466637
 20
165.5867874152
 30
0.0
 11
110.9477466637
 21
164.7829404152
 31
0.0
  0
LINE
  5
11C
330
108
100
AcDbEntity
  8
SLD-0
100
AcDbLine
 10
113.9477466637
 20
165.5867874152
 30
0.0
 11
110.9477466637
 21
165.5867874152
 31
0.0
  0
MTEXT
  5
11D
330
108
100
AcDbEntity
  8
SLD-0
100
AcDbMText
 10
101.9123114406
 20
170.1134811111
 30
0.1
 40
3.5
 41
0.0
 71
     1
 72
     1
  1
20
  7
SLDTEXTSTYLE0
 73
     1
 44
1.0
  0
ENDBLK
  5
113
330
108
100
AcDbEntity
  8
0
100
AcDbBlockEnd
  0
BLOCK
  5
12A
330
11F
100
AcDbEntity
  8
0
100
AcDbBlockBegin
  2
*D14
 70
     1
 71
     0
 10
0.0
 20
0.0
 30
0.0
  3
*D14
  1

  0
LINE
  5
12C
330
11F
100
AcDbEntity
  8
SLD-0
 62
     7
100
AcDbLine
 10
132.9477466637
 20
199.2469822302
 30
0.0
 11
74.3116745628
 21
199.2469822302
 31
0.0
  0
LINE
  5
12D
330
11F
100
AcDbEntity
  8
SLD-0
 62
     7
100
AcDbLine
 10
132.9477466637
 20
183.2469822302
 30
0.0
 11
74.3116745628
 21
183.2469822302
 31
0.0
  0
LINE
  5
12E
330
11F
100
AcDbEntity
  8
SLD-0
 62
     7
100
AcDbLine
 10
75.3116745628
 20
199.2469822302
 30
0.0
 11
75.3116745628
 21
183.2469822302
 31
0.0
  0
LINE
  5
12F
330
11F
100
AcDbEntity
  8
SLD-0
 62
     7
100
AcDbLine
 10
74.5078275628
 20
196.2469822302
 30
0.0
 11
75.3116745628
 21
199.2469822302
 31
0.0
  0
LINE
  5
130
330
11F
100
AcDbEntity
  8
SLD-0
 62
     7
100
AcDbLine
 10
75.3116745628
 20
199.2469822302
 30
0.0
 11
76.1155215628
 21
196.2469822302
 31
0.0
  0
LINE
  5
131
330
11F
100
AcDbEntity
  8
SLD-0
 62
     7
100
AcDbLine
 10
75.3116745628
 20
199.2469822302
 30
0.0
 11
75.3116745628
 21
196.2469822302
 31
0.0
  0
LINE
  5
132
330
11F
100
AcDbEntity
  8
SLD-0
 62
     7
100
AcDbLine
 10
76.1155215628
 20
186.2469822302
 30
0.0
 11
75.3116745628
 21
183.2469822302
 31
0.0
  0
LINE
  5
133
330
11F
100
AcDbEntity
  8
SLD-0
 62
     7
100
AcDbLine
 10
75.3116745628
 20
183.2469822302
 30
0.0
 11
74.5078275628
 21
186.2469822302
 31
0.0
  0
LINE
  5
134
330
11F
100
AcDbEntity
  8
SLD-0
 62
     7
100
AcDbLine
 10
75.3116745628
 20
183.2469822302
 30
0.0
 11
75.3116745628
 21
186.2469822302
 31
0.0
  0
MTEXT
  5
135
330
11F
100
AcDbEntity
  8
SLD-0
 62
     7
100
AcDbMText
 10
70.7849808669
 20
189.2115470071
 30
0.1
 40
3.5
 41
0.0
 71
     1
 72
     1
  1
16
  7
SLDTEXTSTYLE0
 11
6.123031769111886E-17
 21
1.0
 31
0.0
 73
     1
 44
1.0
  0
ENDBLK
  5
12B
330
11F
100
AcDbEntity
  8
0
100
AcDbBlockEnd
  0
BLOCK
  5
141
330
137
100
AcDbEntity
  8
0
100
AcDbBlockBegin
  2
*D15
 70
     1
 71
     0
 10
0.0
 20
0.0
 30
0.0
  3
*D15
  1

  0
LINE
  5
143
330
137
100
AcDbEntity
  8
SLD-0
 62
     7
100
AcDbLine
 10
133.9477466637
 20
192.2469822302
 30
0.0
 11
133.9477466637
 21
217.9166050791
 31
0.0
  0
LINE
  5
144
330
137
100
AcDbEntity
  8
SLD-0
 62
     7
100
AcDbLine
 10
93.9477466637
 20
192.2469822302
 30
0.0
 11
93.9477466637
 21
217.9166050791
 31
0.0
  0
LINE
  5
145
330
137
100
AcDbEntity
  8
SLD-0
 62
     7
100
AcDbLine
 10
133.9477466637
 20
216.9166050791
 30
0.0
 11
93.9477466637
 21
216.9166050791
 31
0.0
  0
LINE
  5
146
330
137
100
AcDbEntity
  8
SLD-0
 62
     7
100
AcDbLine
 10
130.9477466637
 20
217.7204520791
 30
0.0
 11
133.9477466637
 21
216.9166050791
 31
0.0
  0
LINE
  5
147
330
137
100
AcDbEntity
  8
SLD-0
 62
     7
100
AcDbLine
 10
133.9477466637
 20
216.9166050791
 30
0.0
 11
130.9477466637
 21
216.1127580791
 31
0.0
  0
LINE
  5
148
330
137
100
AcDbEntity
  8
SLD-0
 62
     7
100
AcDbLine
 10
133.9477466637
 20
216.9166050791
 30
0.0
 11
130.9477466637
 21
216.9166050791
 31
0.0
  0
LINE
  5
149
330
137
100
AcDbEntity
  8
SLD-0
 62
     7
100
AcDbLine
 10
96.9477466637
 20
216.1127580791
 30
0.0
 11
93.9477466637
 21
216.9166050791
 31
0.0
  0
LINE
  5
14A
330
137
100
AcDbEntity
  8
SLD-0
 62
     7
100
AcDbLine
 10
93.9477466637
 20
216.9166050791
 30
0.0
 11
96.9477466637
 21
217.7204520791
 31
0.0
  0
LINE
  5
14B
330
137
100
AcDbEntity
  8
SLD-0
 62
     7
100
AcDbLine
 10
93.9477466637
 20
216.9166050791
 30
0.0
 11
96.9477466637
 21
216.9166050791
 31
0.0
  0
MTEXT
  5
14C
330
137
100
AcDbEntity
  8
SLD-0
 62
     7
100
AcDbMText
 10
111.9123114406
 20
221.443298775
 30
0.1
 40
3.5
 41
0.0
 71
     1
 72
     1
  1
40
  7
SLDTEXTSTYLE0
 73
     1
 44
1.0
  0
ENDBLK
  5
142
330
137
100
AcDbEntity
  8
0
100
AcDbBlockEnd
  0
BLOCK
  5
159
330
14E
100
AcDbEntity
  8
0
100
AcDbBlockBegin
  2
*D16
 70
     1
 71
     0
 10
0.0
 20
0.0
 30
0.0
  3
*D16
  1

  0
LINE
  5
15B
330
14E
100
AcDbEntity
  8
SLD-0
100
AcDbLine
 10
92.9477466637
 20
183.2469822302
 30
0.0
 11
83.3798847256
 21
183.2469822302
 31
0.0
  0
LINE
  5
15C
330
14E
100
AcDbEntity
  8
SLD-0
100
AcDbLine
 10
92.1977466637
 20
191.2469822302
 30
0.0
 11
83.3798847256
 21
191.2469822302
 31
0.0
  0
LINE
  5
15D
330
14E
100
AcDbEntity
  8
SLD-0
100
AcDbLine
 10
84.3798847256
 20
183.2469822302
 30
0.0
 11
84.3798847256
 21
178.2469822302
 31
0.0
  0
LINE
  5
15E
330
14E
100
AcDbEntity
  8
SLD-0
100
AcDbLine
 10
84.3798847256
 20
183.2469822302
 30
0.0
 11
84.3798847256
 21
191.2469822302
 31
0.0
  0
LINE
  5
15F
330
14E
100
AcDbEntity
  8
SLD-0
100
AcDbLine
 10
84.3798847256
 20
191.2469822302
 30
0.0
 11
84.3798847256
 21
196.2469822302
 31
0.0
  0
LINE
  5
160
330
14E
100
AcDbEntity
  8
SLD-0
100
AcDbLine
 10
83.5760377256
 20
180.2469822302
 30
0.0
 11
84.3798847256
 21
183.2469822302
 31
0.0
  0
LINE
  5
161
330
14E
100
AcDbEntity
  8
SLD-0
100
AcDbLine
 10
84.3798847256
 20
183.2469822302
 30
0.0
 11
85.1837317256
 21
180.2469822302
 31
0.0
  0
LINE
  5
162
330
14E
100
AcDbEntity
  8
SLD-0
100
AcDbLine
 10
84.3798847256
 20
183.2469822302
 30
0.0
 11
84.3798847256
 21
180.2469822302
 31
0.0
  0
LINE
  5
163
330
14E
100
AcDbEntity
  8
SLD-0
100
AcDbLine
 10
85.1837317256
 20
194.2469822302
 30
0.0
 11
84.3798847256
 21
191.2469822302
 31
0.0
  0
LINE
  5
164
330
14E
100
AcDbEntity
  8
SLD-0
100
AcDbLine
 10
84.3798847256
 20
191.2469822302
 30
0.0
 11
83.5760377256
 21
194.2469822302
 31
0.0
  0
LINE
  5
165
330
14E
100
AcDbEntity
  8
SLD-0
100
AcDbLine
 10
84.3798847256
 20
191.2469822302
 30
0.0
 11
84.3798847256
 21
194.2469822302
 31
0.0
  0
MTEXT
  5
166
330
14E
100
AcDbEntity
  8
SLD-0
100
AcDbMText
 10
79.8531910297
 20
186.2292646186
 30
0.1
 40
3.5
 41
0.0
 71
     1
 72
     1
  1
8
  7
SLDTEXTSTYLE0
 11
6.123031769111886E-17
 21
1.0
 31
0.0
 73
     1
 44
1.0
  0
ENDBLK
  5
15A
330
14E
100
AcDbEntity
  8
0
100
AcDbBlockEnd
  0
BLOCK
  5
173
330
168
100
AcDbEntity
  8
0
100
AcDbBlockBegin
  2
*D17
 70
     1
 71
     0
 10
0.0
 20
0.0
 30
0.0
  3
*D17
  1

  0
LINE
  5
175
330
168
100
AcDbEntity
  8
SLD-0
100
AcDbLine
 10
93.9477466637
 20
200.2469822302
 30
0.0
 11
93.9477466637
 21
209.520016507
 31
0.0
  0
LINE
  5
176
330
168
100
AcDbEntity
  8
SLD-0
100
AcDbLine
 10
98.9477466637
 20
197.9969822302
 30
0.0
 11
98.9477466637
 21
209.520016507
 31
0.0
  0
LINE
  5
177
330
168
100
AcDbEntity
  8
SLD-0
100
AcDbLine
 10
93.9477466637
 20
208.520016507
 30
0.0
 11
88.9477466637
 21
208.520016507
 31
0.0
  0
LINE
  5
178
330
168
100
AcDbEntity
  8
SLD-0
100
AcDbLine
 10
93.9477466637
 20
208.520016507
 30
0.0
 11
98.9477466637
 21
208.520016507
 31
0.0
  0
LINE
  5
179
330
168
100
AcDbEntity
  8
SLD-0
100
AcDbLine
 10
98.9477466637
 20
208.520016507
 30
0.0
 11
103.9477466637
 21
208.520016507
 31
0.0
  0
LINE
  5
17A
330
168
100
AcDbEntity
  8
SLD-0
100
AcDbLine
 10
90.9477466637
 20
209.323863507
 30
0.0
 11
93.9477466637
 21
208.520016507
 31
0.0
  0
LINE
  5
17B
330
168
100
AcDbEntity
  8
SLD-0
100
AcDbLine
 10
93.9477466637
 20
208.520016507
 30
0.0
 11
90.9477466637
 21
207.716169507
 31
0.0
  0
LINE
  5
17C
330
168
100
AcDbEntity
  8
SLD-0
100
AcDbLine
 10
93.9477466637
 20
208.520016507
 30
0.0
 11
90.9477466637
 21
208.520016507
 31
0.0
  0
LINE
  5
17D
330
168
100
AcDbEntity
  8
SLD-0
100
AcDbLine
 10
101.9477466637
 20
207.716169507
 30
0.0
 11
98.9477466637
 21
208.520016507
 31
0.0
  0
LINE
  5
17E
330
168
100
AcDbEntity
  8
SLD-0
100
AcDbLine
 10
98.9477466637
 20
208.520016507
 30
0.0
 11
101.9477466637
 21
209.323863507
 31
0.0
  0
LINE
  5
17F
330
168
100
AcDbEntity
  8
SLD-0
100
AcDbLine
 10
98.9477466637
 20
208.520016507
 30
0.0
 11
101.9477466637
 21
208.520016507
 31
0.0
  0
MTEXT
  5
180
330
168
100
AcDbEntity
  8
SLD-0
100
AcDbMText
 10
95.4300290521
 20
213.0467102029
 30
0.1
 40
3.5
 41
0.0
 71
     1
 72
     1
  1
5
  7
SLDTEXTSTYLE0
 73
     1
 44
1.0
  0
ENDBLK
  5
174
330
168
100
AcDbEntity
  8
0
100
AcDbBlockEnd
  0
BLOCK
  5
18C
330
182
100
AcDbEntity
  8
0
100
AcDbBlockBegin
  2
*D18
 70
     1
 71
     0
 10
0.0
 20
0.0
 30
0.0
  3
*D18
  1

  0
LINE
  5
18E
330
182
100
AcDbEntity
  8
SLD-0
100
AcDbLine
 10
98.9477466637
 20
197.9969822302
 30
0.0
 11
98.9477466637
 21
209.520016507
 31
0.0
  0
LINE
  5
18F
330
182
100
AcDbEntity
  8
SLD-0
100
AcDbLine
 10
128.9477466637
 20
197.9969822302
 30
0.0
 11
128.9477466637
 21
209.520016507
 31
0.0
  0
LINE
  5
190
330
182
100
AcDbEntity
  8
SLD-0
100
AcDbLine
 10
98.9477466637
 20
208.520016507
 30
0.0
 11
128.9477466637
 21
208.520016507
 31
0.0
  0
LINE
  5
191
330
182
100
AcDbEntity
  8
SLD-0
100
AcDbLine
 10
101.9477466637
 20
207.716169507
 30
0.0
 11
98.9477466637
 21
208.520016507
 31
0.0
  0
LINE
  5
192
330
182
100
AcDbEntity
  8
SLD-0
100
AcDbLine
 10
98.9477466637
 20
208.520016507
 30
0.0
 11
101.9477466637
 21
209.323863507
 31
0.0
  0
LINE
  5
193
330
182
100
AcDbEntity
  8
SLD-0
100
AcDbLine
 10
98.9477466637
 20
208.520016507
 30
0.0
 11
101.9477466637
 21
208.520016507
 31
0.0
  0
LINE
  5
194
330
182
100
AcDbEntity
  8
SLD-0
100
AcDbLine
 10
125.9477466637
 20
209.323863507
 30
0.0
 11
128.9477466637
 21
208.520016507
 31
0.0
  0
LINE
  5
195
330
182
100
AcDbEntity
  8
SLD-0
100
AcDbLine
 10
128.9477466637
 20
208.520016507
 30
0.0
 11
125.9477466637
 21
207.716169507
 31
0.0
  0
LINE
  5
196
330
182
100
AcDbEntity
  8
SLD-0
100
AcDbLine
 10
128.9477466637
 20
208.520016507
 30
0.0
 11
125.9477466637
 21
208.520016507
 31
0.0
  0
MTEXT
  5
197
330
182
100
AcDbEntity
  8
SLD-0
100
AcDbMText
 10
111.9123114406
 20
213.0467102029
 30
0.1
 40
3.5
 41
0.0
 71
     1
 72
     1
  1
30
  7
SLDTEXTSTYLE0
 73
     1
 44
1.0
  0
ENDBLK
  5
18D
330
182
100
AcDbEntity
  8
0
100
AcDbBlockEnd
  0
ENDSEC
  0
SECTION
  2
ENTITIES
  0
LINE
  5
6C
330
1F
100
AcDbEntity
  8
SLD-0
  6
Continuous
 62
   179
100
AcDbLine
 10
20.2604743903
 20
285.0
 30
0.0
 11
196.7604743903
 21
285.0
 31
0.0
  0
LINE
  5
6D
330
1F
100
AcDbEntity
  8
SLD-0
  6
Continuous
 62
   179
100
AcDbLine
 10
20.2604743903
 20
285.0
 30
0.0
 11
20.2604743903
 21
10.0
 31
0.0
  0
LINE
  5
6E
330
1F
100
AcDbEntity
  8
SLD-0
  6
Continuous
 62
   179
100
AcDbLine
 10
20.2604743903
 20
10.0
 30
0.0
 11
196.7604743903
 21
10.0
 31
0.0
  0
LINE
  5
6F
330
1F
100
AcDbEntity
  8
SLD-0
  6
Continuous
 62
   179
100
AcDbLine
 10
196.7604743903
 20
285.0
 30
0.0
 11
196.7604743903
 21
10.0
 31
0.0
  0
LINE
  5
70
330
1F
100
AcDbEntity
  8
SLD-0
  6
Continuous
 62
   179
100
AcDbLine
 10
65.7604743903
 20
285.0
 30
0.0
 11
196.7604743903
 21
285.0
 31
0.0
  0
LINE
  5
71
330
1F
100
AcDbEntity
  8
SLD-0
  6
Continuous
 62
   179
100
AcDbLine
 10
196.7604743903
 20
285.0
 30
0.0
 11
196.7604743903
 21
264.25
 31
0.0
  0
LINE
  5
72
330
1F
100
AcDbEntity
  8
SLD-0
  6
Continuous
 62
   179
100
AcDbLine
 10
127.0104743903
 20
50.75
 30
0.0
 11
196.7604743903
 21
50.75
 31
0.0
  0
LINE
  5
73
330
1F
100
AcDbEntity
  8
SLD-0
  6
Continuous
 62
   179
100
AcDbLine
 10
127.0104743903
 20
50.75
 30
0.0
 11
127.0104743903
 21
10.0
 31
0.0
  0
LINE
  5
74
330
1F
100
AcDbEntity
  8
SLD-0
  6
Continuous
 62
   179
100
AcDbLine
 10
127.0104743903
 20
22.75
 30
0.0
 11
196.7604743903
 21
22.75
 31
0.0
  0
LINE
  5
75
330
1F
100
AcDbEntity
  8
SLD-0
  6
Continuous
 62
   179
100
AcDbLine
 10
127.0104743903
 20
36.75
 30
0.0
 11
196.7604743903
 21
36.75
 31
0.0
  0
LINE
  5
76
330
1F
100
AcDbEntity
  8
SLD-0
  6
Continuous
 62
   179
100
AcDbLine
 10
133.9477466637
 20
148.076322697
 30
0.0
 11
119.9268770353
 21
148.076322697
 31
0.0
  0
LINE
  5
77
330
1F
100
AcDbEntity
  8
SLD-0
  6
Continuous
 62
   179
100
AcDbLine
 10
133.9477466637
 20
140.576322697
 30
0.0
 11
133.9477466637
 21
148.076322697
 31
0.0
  0
LINE
  5
78
330
1F
100
AcDbEntity
  8
SLD-0
  6
Continuous
 62
   179
100
AcDbLine
 10
93.9477466637
 20
140.576322697
 30
0.0
 11
133.9477466637
 21
140.576322697
 31
0.0
  0
LINE
  5
79
330
1F
100
AcDbEntity
  8
SLD-0
  6
Continuous
 62
   179
100
AcDbLine
 10
93.9477466637
 20
148.076322697
 30
0.0
 11
93.9477466637
 21
140.576322697
 31
0.0
  0
LINE
  5
7A
330
1F
100
AcDbEntity
  8
SLD-0
  6
Continuous
 62
   179
100
AcDbLine
 10
107.9686162922
 20
148.076322697
 30
0.0
 11
93.9477466637
 21
148.076322697
 31
0.0
  0
LINE
  5
7B
330
1F
100
AcDbEntity
  8
SLD-0
  6
Continuous
 62
   179
100
AcDbLine
 10
133.9477466637
 20
156.576322697
 30
0.0
 11
93.9477466637
 21
156.576322697
 31
0.0
  0
LINE
  5
7C
330
1F
100
AcDbEntity
  8
SLD-0
  6
Continuous
 62
   179
100
AcDbLine
 10
93.9477466637
 20
149.076322697
 30
0.0
 11
107.9686162922
 21
149.076322697
 31
0.0
  0
LINE
  5
7D
330
1F
100
AcDbEntity
  8
SLD-0
  6
Continuous
 62
   179
100
AcDbLine
 10
93.9477466637
 20
156.576322697
 30
0.0
 11
93.9477466637
 21
149.076322697
 31
0.0
  0
LINE
  5
7E
330
1F
100
AcDbEntity
  8
SLD-0
  6
Continuous
 62
   179
100
AcDbLine
 10
133.9477466637
 20
149.076322697
 30
0.0
 11
133.9477466637
 21
156.576322697
 31
0.0
  0
LINE
  5
7F
330
1F
100
AcDbEntity
  8
SLD-0
  6
Continuous
 62
   179
100
AcDbLine
 10
119.9268770353
 20
149.076322697
 30
0.0
 11
133.9477466637
 21
149.076322697
 31
0.0
  0
LINE
  5
80
330
1F
100
AcDbEntity
  8
SLD-0
  6
HIDDEN
 62
     8
100
AcDbLine
 10
95.6977466637
 20
148.076322697
 30
0.0
 11
95.6977466637
 21
140.576322697
 31
0.0
  0
LINE
  5
81
330
1F
100
AcDbEntity
  8
SLD-0
  6
HIDDEN
 62
     8
100
AcDbLine
 10
102.1977466637
 20
140.576322697
 30
0.0
 11
102.1977466637
 21
148.076322697
 31
0.0
  0
LINE
  5
82
330
1F
100
AcDbEntity
  8
SLD-0
  6
HIDDEN
 62
     8
100
AcDbLine
 10
125.6977466637
 20
148.076322697
 30
0.0
 11
125.6977466637
 21
140.576322697
 31
0.0
  0
LINE
  5
83
330
1F
100
AcDbEntity
  8
SLD-0
  6
HIDDEN
 62
     8
100
AcDbLine
 10
132.1977466637
 20
140.576322697
 30
0.0
 11
132.1977466637
 21
148.076322697
 31
0.0
  0
LINE
  5
84
330
1F
100
AcDbEntity
  8
SLD-0
  6
HIDDEN
 62
     8
100
AcDbLine
 10
95.6977466637
 20
156.576322697
 30
0.0
 11
95.6977466637
 21
149.076322697
 31
0.0
  0
LINE
  5
85
330
1F
100
AcDbEntity
  8
SLD-0
  6
HIDDEN
 62
     8
100
AcDbLine
 10
102.1977466637
 20
149.076322697
 30
0.0
 11
102.1977466637
 21
156.576322697
 31
0.0
  0
LINE
  5
86
330
1F
100
AcDbEntity
  8
SLD-0
  6
HIDDEN
 62
     8
100
AcDbLine
 10
125.6977466637
 20
156.576322697
 30
0.0
 11
125.6977466637
 21
149.076322697
 31
0.0
  0
LINE
  5
87
330
1F
100
AcDbEntity
  8
SLD-0
  6
HIDDEN
 62
     8
100
AcDbLine
 10
132.1977466637
 20
149.076322697
 30
0.0
 11
132.1977466637
 21
156.576322697
 31
0.0
  0
LINE
  5
88
330
1F
100
AcDbEntity
  8
SLD-0
  6
CENTERX2
 62
   179
100
AcDbLine
 10
98.9477466637
 20
139.0492822469
 30
0.0
 11
98.9477466637
 21
158.576322697
 31
0.0
  0
LINE
  5
89
330
1F
100
AcDbEntity
  8
SLD-0
  6
CENTERX2
 62
   179
100
AcDbLine
 10
128.9477466637
 20
138.6778952927
 30
0.0
 11
128.9477466637
 21
158.576322697
 31
0.0
  0
LINE
  5
8A
330
1F
100
AcDbEntity
  8
SLD-0
  6
Continuous
 62
   179
100
AcDbLine
 10
133.9477466637
 20
183.2469822302
 30
0.0
 11
133.9477466637
 21
199.2469822302
 31
0.0
  0
LINE
  5
8B
330
1F
100
AcDbEntity
  8
SLD-0
  6
Continuous
 62
   179
100
AcDbLine
 10
133.9477466637
 20
183.2469822302
 30
0.0
 11
93.9477466637
 21
183.2469822302
 31
0.0
  0
LINE
  5
8C
330
1F
100
AcDbEntity
  8
SLD-0
  6
Continuous
 62
   179
100
AcDbLine
 10
93.9477466637
 20
183.2469822302
 30
0.0
 11
93.9477466637
 21
199.2469822302
 31
0.0
  0
LINE
  5
8D
330
1F
100
AcDbEntity
  8
SLD-0
  6
Continuous
 62
   179
100
AcDbLine
 10
133.9477466637
 20
199.2469822302
 30
0.0
 11
93.9477466637
 21
199.2469822302
 31
0.0
  0
LINE
  5
8E
330
1F
100
AcDbEntity
  8
SLD-0
  6
HIDDEN
 62
     8
100
AcDbLine
 10
107.9686162922
 20
183.2469822302
 30
0.0
 11
107.9686162922
 21
199.2469822302
 31
0.0
  0
LINE
  5
8F
330
1F
100
AcDbEntity
  8
SLD-0
  6
HIDDEN
 62
     8
100
AcDbLine
 10
119.9268770353
 20
183.2469822302
 30
0.0
 11
119.9268770353
 21
199.2469822302
 31
0.0
  0
LINE
  5
90
330
1F
100
AcDbEntity
  8
SLD-0
  6
CENTERX2
 62
   179
100
AcDbLine
 10
113.9477466637
 20
181.2469822302
 30
0.0
 11
113.9477466637
 21
201.2469822302
 31
0.0
  0
ARC
  5
91
330
1F
100
AcDbEntity
  8
SLD-0
  6
Continuous
 62
   179
100
AcDbCircle
 10
113.9477466637
 20
148.576322697
 30
0.0
 40
6.000000000049123
100
AcDbArc
 50
184.7801918586
 51
355.2198081528
  0
ARC
  5
92
330
1F
100
AcDbEntity
  8
SLD-0
  6
Continuous
 62
   179
100
AcDbCircle
 10
113.9477466637
 20
148.576322697
 30
0.0
 40
6.000000000049123
100
AcDbArc
 50
4.7801918472
 51
175.2198081414
  0
CIRCLE
  5
93
330
1F
100
AcDbEntity
  8
SLD-0
  6
Continuous
 62
   179
100
AcDbCircle
 10
128.9477466637
 20
191.2469822302
 30
0.0
 40
3.250000000000028
  0
CIRCLE
  5
94
330
1F
100
AcDbEntity
  8
SLD-0
  6
Continuous
 62
   179
100
AcDbCircle
 10
98.9477466637
 20
191.2469822302
 30
0.0
 40
3.25
  0
DIMENSION
  5
95
330
1F
100
AcDbEntity
  8
SLD-0
 62
     7
100
AcDbDimension
  2
*D8
 10
84.866652553
 20
156.576322697
 30
0.0
 11
84.866652553
 21
163.5535355814
 31
0.0
 70
   160
 71
     1
 42
7.5
  3
SLDDIMSTYLE0
100
AcDbAlignedDimension
 13
93.9477466637
 23
149.076322697
 33
0.0
 14
93.9477466637
 24
156.576322697
 34
0.0
 50
90.0
100
AcDbRotatedDimension
1001
ACAD
1000
DSTYLE
1002
{
1070
    77
1070
     3
1070
   143
1040
0.0393700787
1070
    41
1040
3.0
1070
    44
1040
1.0
1070
    42
1040
1.0
1070
   147
1040
1.524
1070
    73
1070
     0
1070
    74
1070
     0
1070
   140
1040
3.5
1070
   284
1070
    12
1070
    78
1070
    12
1002
}
  0
DIMENSION
  5
B5
330
1F
100
AcDbEntity
  8
SLD-0
100
AcDbDimension
  2
*D10
 10
73.8885991715
 20
156.576322697
 30
0.0
 11
73.8885991715
 21
148.576322697
 31
0.0
 70
   160
  1
(<>)
 71
     1
 42
16.0
  3
SLDDIMSTYLE1
100
AcDbAlignedDimension
 13
121.4477466637
 23
140.576322697
 33
0.0
 14
98.9477466637
 24
156.576322697
 34
0.0
 50
90.0
100
AcDbRotatedDimension
1001
ACAD
1000
DSTYLE
1002
{
1070
    77
1070
     3
1070
   143
1040
0.0393700787
1070
    41
1040
3.0
1070
    44
1040
1.0
1070
    42
1040
1.0
1070
   147
1040
1.524
1070
    73
1070
     0
1070
    74
1070
     0
1070
   140
1040
3.5
1070
   284
1070
    12
1070
    78
1070
    12
1002
}
  0
DIMENSION
  5
D0
330
1F
100
AcDbEntity
  8
SLD-0
100
AcDbDimension
  2
*D11
 10
84.866652553
 20
148.076322697
 30
0.0
 11
84.866652553
 21
148.576322697
 31
0.0
 70
   160
 71
     1
 42
1.0
  3
SLDDIMSTYLE1
100
AcDbAlignedDimension
 13
93.9477466637
 23
149.076322697
 33
0.0
 14
93.9477466637
 24
148.076322697
 34
0.0
 50
90.0
100
AcDbRotatedDimension
1001
ACAD
1000
DSTYLE
1002
{
1070
    77
1070
     3
1070
   143
1040
0.0393700787
1070
    41
1040
3.0
1070
    44
1040
1.0
1070
    42
1040
1.0
1070
   147
1040
1.524
1070
    73
1070
     0
1070
    74
1070
     0
1070
   140
1040
3.5
1070
   284
1070
    12
1070
    78
1070
    12
1002
}
  0
DIMENSION
  5
ED
330
1F
100
AcDbEntity
  8
SLD-0
100
AcDbDimension
  2
*D12
 10
84.866652553
 20
140.576322697
 30
0.0
 11
84.866652553
 21
144.326322697
 31
0.0
 70
   160
 71
     1
 42
7.5
  3
SLDDIMSTYLE0
100
AcDbAlignedDimension
 13
93.9477466637
 23
148.076322697
 33
0.0
 14
93.9477466637
 24
140.576322697
 34
0.0
 50
90.0
100
AcDbRotatedDimension
1001
ACAD
1000
DSTYLE
1002
{
1070
    77
1070
     3
1070
   143
1040
0.0393700787
1070
    41
1040
3.0
1070
    44
1040
1.0
1070
    42
1040
1.0
1070
   147
1040
1.524
1070
    73
1070
     0
1070
    74
1070
     0
1070
   140
1040
3.5
1070
   284
1070
    12
1070
    78
1070
    12
1002
}
  0
DIMENSION
  5
107
330
1F
100
AcDbEntity
  8
SLD-0
100
AcDbDimension
  2
*D13
 10
93.9477466637
 20
165.5867874152
 30
0.0
 11
103.9477466637
 21
165.5867874152
 31
0.0
 70
   160
 71
     1
 42
20.0
  3
SLDDIMSTYLE1
100
AcDbAlignedDimension
 13
113.9477466637
 23
157.076322697
 33
0.0
 14
93.9477466637
 24
156.576322697
 34
0.0
100
AcDbRotatedDimension
1001
ACAD
1000
DSTYLE
1002
{
1070
    77
1070
     3
1070
   143
1040
0.0393700787
1070
    41
1040
3.0
1070
    44
1040
1.0
1070
    42
1040
1.0
1070
   147
1040
1.524
1070
    73
1070
     0
1070
    74
1070
     0
1070
   140
1040
3.5
1070
   284
1070
    12
1070
    78
1070
    12
1002
}
  0
DIMENSION
  5
11E
330
1F
100
AcDbEntity
  8
SLD-0
 62
     7
100
AcDbDimension
  2
*D14
 10
75.3116745628
 20
199.2469822302
 30
0.0
 11
75.3116745628
 21
191.2469822302
 31
0.0
 70
   160
 71
     1
 42
16.0
  3
SLDDIMSTYLE1
100
AcDbAlignedDimension
 13
133.9477466637
 23
183.2469822302
 33
0.0
 14
133.9477466637
 24
199.2469822302
 34
0.0
 50
90.0
100
AcDbRotatedDimension
1001
ACAD
1000
DSTYLE
1002
{
1070
    77
1070
     3
1070
   143
1040
0.0393700787
1070
    41
1040
3.0
1070
    44
1040
1.0
1070
    42
1040
1.0
1070
   147
1040
1.524
1070
    73
1070
     0
1070
    74
1070
     0
1070
   140
1040
3.5
1070
   284
1070
    12
1070
    78
1070
    12
1002
}
  0
DIMENSION
  5
136
330
1F
100
AcDbEntity
  8
SLD-0
 62
     7
100
AcDbDimension
  2
*D15
 10
133.9477466637
 20
216.9166050791
 30
0.0
 11
113.9477466637
 21
216.9166050791
 31
0.0
 70
   160
 71
     1
 42
40.0
  3
SLDDIMSTYLE1
100
AcDbAlignedDimension
 13
93.9477466637
 23
191.2469822302
 33
0.0
 14
133.9477466637
 24
191.2469822302
 34
0.0
100
AcDbRotatedDimension
1001
ACAD
1000
DSTYLE
1002
{
1070
    77
1070
     3
1070
   143
1040
0.0393700787
1070
    41
1040
3.0
1070
    44
1040
1.0
1070
    42
1040
1.0
1070
   147
1040
1.524
1070
    73
1070
     0
1070
    74
1070
     0
1070
   140
1040
3.5
1070
   284
1070
    12
1070
    78
1070
    12
1002
}
  0
DIMENSION
  5
14D
330
1F
100
AcDbEntity
  8
SLD-0
100
AcDbDimension
  2
*D16
 10
84.3798847256
 20
183.2469822302
 30
0.0
 11
84.3798847256
 21
187.2469822302
 31
0.0
 70
   160
 71
     1
 42
8.0
  3
SLDDIMSTYLE1
100
AcDbAlignedDimension
 13
93.1977466637
 23
191.2469822302
 33
0.0
 14
93.9477466637
 24
183.2469822302
 34
0.0
 50
90.0
100
AcDbRotatedDimension
1001
ACAD
1000
DSTYLE
1002
{
1070
    77
1070
     3
1070
   143
1040
0.0393700787
1070
    41
1040
3.0
1070
    44
1040
1.0
1070
    42
1040
1.0
1070
   147
1040
1.524
1070
    73
1070
     0
1070
    74
1070
     0
1070
   140
1040
3.5
1070
   284
1070
    12
1070
    78
1070
    12
1002
}
  0
DIMENSION
  5
167
330
1F
100
AcDbEntity
  8
SLD-0
100
AcDbDimension
  2
*D17
 10
93.9477466637
 20
208.520016507
 30
0.0
 11
96.4477466637
 21
208.520016507
 31
0.0
 70
   160
 71
     1
 42
5.0
  3
SLDDIMSTYLE1
100
AcDbAlignedDimension
 13
98.9477466637
 23
196.9969822302
 33
0.0
 14
93.9477466637
 24
199.2469822302
 34
0.0
100
AcDbRotatedDimension
1001
ACAD
1000
DSTYLE
1002
{
1070
    77
1070
     3
1070
   143
1040
0.0393700787
1070
    41
1040
3.0
1070
    44
1040
1.0
1070
    42
1040
1.0
1070
   147
1040
1.524
1070
    73
1070
     0
1070
    74
1070
     0
1070
   140
1040
3.5
1070
   284
1070
    12
1070
    78
1070
    12
1002
}
  0
DIMENSION
  5
181
330
1F
100
AcDbEntity
  8
SLD-0
100
AcDbDimension
  2
*D18
 10
98.9477466637
 20
208.520016507
 30
0.0
 11
113.9477466637
 21
208.520016507
 31
0.0
 70
   160
 71
     1
 42
30.0
  3
SLDDIMSTYLE1
100
AcDbAlignedDimension
 13
128.9477466637
 23
196.9969822302
 33
0.0
 14
98.9477466637
 24
196.9969822302
 34
0.0
100
AcDbRotatedDimension
1001
ACAD
1000
DSTYLE
1002
{
1070
    77
1070
     3
1070
   143
1040
0.0393700787
1070
    41
1040
3.0
1070
    44
1040
1.0
1070
    42
1040
1.0
1070
   147
1040
1.524
1070
    73
1070
     0
1070
    74
1070
     0
1070
   140
1040
3.5
1070
   284
1070
    12
1070
    78
1070
    12
1002
}
  0
MTEXT
  5
198
330
1F
100
AcDbEntity
  8
SLD-0
 62
     7
100
AcDbMText
 10
169.1923262367
 20
249.8878123479
 30
0.0
 40
4.2333333333
 41
0.0
 71
     1
 72
     1
  1
(　　　)
  7
SLDTEXTSTYLE1
 73
     1
 44
1.0
  0
MTEXT
  5
199
330
1F
100
AcDbEntity
  8
SLD-0
 62
     7
100
AcDbMText
 10
156.3463216247
 20
18.3244511491
 30
0.0
 40
4.2333333333
 41
0.0
 71
     1
 72
     1
  1
131067
  7
SLDTEXTSTYLE1
 73
     1
 44
1.0
  0
MTEXT
  5
19A
330
1F
100
AcDbEntity
  8
SLD-0
 62
     7
100
AcDbMText
 10
147.3211389501
 20
29.7138882404
 30
0.0
 40
4.2333333333
 41
0.0
 71
     1
 72
     1
  1
N01915-105-0
  7
SLDTEXTSTYLE1
 73
     1
 44
1.0
  0
MTEXT
  5
19C
330
1F
100
AcDbEntity
  8
SLD-0
 62
     7
100
AcDbMText
 10
146.9199533224
 20
43.2377018572
 30
0.0
 40
4.2333333333
 41
0.0
 71
     1
 72
     1
  1
12 Chuck BKT
  7
SLDTEXTSTYLE2
 73
     1
 44
1.0
  0
INSERT
  5
19D
330
1F
100
AcDbEntity
  8
0
  6
Continuous
 62
     7
370
     0
100
AcDbBlockReference
  2
NOTE1
 10
50.6259977191
 20
97.6055688711
 30
0.0
  0
INSERT
  5
19E
330
1F
100
AcDbEntity
  8
0
  6
Continuous
 62
     7
370
     0
100
AcDbBlockReference
  2
SURFACEFINISH41
 10
159.4443600604
 20
250.5749245738
 30
0.0
  0
INSERT
  5
19F
330
1F
100
AcDbEntity
  8
0
  6
Continuous
 62
     7
370
     0
100
AcDbBlockReference
  2
SURFACEFINISH42
 10
175.4785306273
 20
250.9049245738
 30
0.0
  0
INSERT
  5
1A0
330
1F
100
AcDbEntity
  8
0
  6
Continuous
 62
     7
370
     0
100
AcDbBlockReference
  2
注記
 10
96.5887967046
 20
59.5226543215
 30
0.0
  0
INSERT
  5
1A1
330
1F
100
AcDbEntity
  8
0
  6
Continuous
 62
     7
370
     0
100
AcDbBlockReference
  2
SW_CENTERMARK0
 10
0.0
 20
0.0
 30
0.0
  0
INSERT
  5
1A2
330
1F
100
AcDbEntity
  8
0
  6
Continuous
 62
     7
370
     0
100
AcDbBlockReference
  2
SW_CENTERMARK1
 10
0.0
 20
0.0
 30
0.0
  0
INSERT
  5
1A3
330
1F
100
AcDbEntity
  8
0
  6
Continuous
 62
     7
370
     0
100
AcDbBlockReference
  2
SW_CENTERMARK2
 10
0.0
 20
0.0
 30
0.0
  0
ENDSEC
  0
SECTION
  2
OBJECTS
  0
DICTIONARY
  5
C
330
0
100
AcDbDictionary
281
     1
  3
ACAD_GROUP
350
D
  3
ACAD_LAYOUT
350
1A
  3
ACAD_MLINESTYLE
350
17
  3
ACAD_PLOTSETTINGS
350
19
  3
ACAD_PLOTSTYLENAME
350
E
  0
DICTIONARY
  5
D
102
{ACAD_REACTORS
330
C
102
}
330
C
100
AcDbDictionary
281
     1
  0
DICTIONARY
  5
1A
102
{ACAD_REACTORS
330
C
102
}
330
C
100
AcDbDictionary
281
     1
  3
Layout1
350
1E
  3
Layout2
350
26
  3
Model
350
22
  0
DICTIONARY
  5
17
102
{ACAD_REACTORS
330
C
102
}
330
C
100
AcDbDictionary
281
     1
  3
Standard
350
18
  0
DICTIONARY
  5
19
102
{ACAD_REACTORS
330
C
102
}
330
C
100
AcDbDictionary
281
     1
  0
ACDBDICTIONARYWDFLT
  5
E
102
{ACAD_REACTORS
330
C
102
}
330
C
100
AcDbDictionary
281
     1
  3
Normal
350
F
100
AcDbDictionaryWithDefault
340
F
  0
LAYOUT
  5
1E
102
{ACAD_REACTORS
330
1A
102
}
330
1A
100
AcDbPlotSettings
  1

  2

  4

  6

 40
0.0
 41
0.0
 42
0.0
 43
0.0
 44
0.0
 45
0.0
 46
0.0
 47
0.0
 48
0.0
 49
0.0
140
0.0
141
0.0
142
1.0
143
1.0
 70
   688
 72
     0
 73
     0
 74
     5
  7

 75
    16
147
1.0
148
0.0
149
0.0
100
AcDbLayout
  1
Layout1
 70
     1
 71
     1
 10
0.0
 20
0.0
 11
0.0
 21
0.0
 12
0.0
 22
0.0
 32
0.0
 14
0.0
 24
0.0
 34
0.0
 15
0.0
 25
0.0
 35
0.0
146
0.0
 13
0.0
 23
0.0
 33
0.0
 16
1.0
 26
0.0
 36
0.0
 17
0.0
 27
1.0
 37
0.0
 76
     0
330
1B
  0
LAYOUT
  5
26
102
{ACAD_REACTORS
330
1A
102
}
330
1A
100
AcDbPlotSettings
  1

  2

  4

  6

 40
0.0
 41
0.0
 42
0.0
 43
0.0
 44
0.0
 45
0.0
 46
0.0
 47
0.0
 48
0.0
 49
0.0
140
0.0
141
0.0
142
1.0
143
1.0
 70
   688
 72
     0
 73
     0
 74
     5
  7

 75
    16
147
1.0
148
0.0
149
0.0
100
AcDbLayout
  1
Layout2
 70
     1
 71
     2
 10
0.0
 20
0.0
 11
0.0
 21
0.0
 12
0.0
 22
0.0
 32
0.0
 14
0.0
 24
0.0
 34
0.0
 15
0.0
 25
0.0
 35
0.0
146
0.0
 13
0.0
 23
0.0
 33
0.0
 16
1.0
 26
0.0
 36
0.0
 17
0.0
 27
1.0
 37
0.0
 76
     0
330
23
  0
LAYOUT
  5
22
102
{ACAD_REACTORS
330
1A
102
}
330
1A
100
AcDbPlotSettings
  1

  2

  4

  6

 40
0.0
 41
0.0
 42
0.0
 43
0.0
 44
0.0
 45
0.0
 46
0.0
 47
0.0
 48
0.0
 49
0.0
140
0.0
141
0.0
142
1.0
143
1.0
 70
  1712
 72
     0
 73
     0
 74
     0
  7

 75
     0
147
1.0
148
0.0
149
0.0
100
AcDbLayout
  1
Model
 70
     1
 71
     0
 10
0.0
 20
0.0
 11
0.0
 21
0.0
 12
0.0
 22
0.0
 32
0.0
 14
0.0
 24
0.0
 34
0.0
 15
210.0
 25
297.0
 35
0.0
146
0.0
 13
0.0
 23
0.0
 33
0.0
 16
1.0
 26
0.0
 36
0.0
 17
0.0
 27
1.0
 37
0.0
 76
     0
330
1F
  0
MLINESTYLE
  5
18
102
{ACAD_REACTORS
330
17
102
}
330
17
100
AcDbMlineStyle
  2
Standard
 70
     0
  3

 62
   256
 51
90.0
 52
90.0
 71
     2
 49
0.5
 62
   256
  6
BYLAYER
 49
-0.5
 62
   256
  6
BYLAYER
  0
ACDBPLACEHOLDER
  5
F
102
{ACAD_REACTORS
330
E
102
}
330
E
  0
ENDSEC
  0
EOF
