  0
SECTION
  2
HEADER
  9
$ACADVER
  1
AC1015
  9
$ACADMAINTVER
 70
     6
  9
$DWGCODEPAGE
  3
DOS932
  9
$INSBASE
 10
0.0
 20
0.0
 30
0.0
  9
$EXTMIN
 10
0.0
 20
0.0
 30
0.0
  9
$EXTMAX
 10
210.0
 20
297.0
 30
0.0
  9
$LIMMIN
 10
0.0
 20
0.0
  9
$LIMMAX
 10
0.0
 20
0.0
  9
$ORTHOMODE
 70
     0
  9
$REGENMODE
 70
     1
  9
$FILLMODE
 70
     1
  9
$QTEXTMODE
 70
     0
  9
$MIRRTEXT
 70
     1
  9
$LTSCALE
 40
1.0
  9
$ATTMODE
 70
     1
  9
$TEXTSIZE
 40
3.5
  9
$TRACEWID
 40
1.0
  9
$TEXTSTYLE
  7
Standard
  9
$CLAYER
  8
0
  9
$CELTYPE
  6
ByLayer
  9
$CECOLOR
 62
   256
  9
$CELTSCALE
 40
1.0
  9
$DISPSILH
 70
     0
  9
$DIMSCALE
 40
1.0
  9
$DIMASZ
 40
3.0
  9
$DIMEXO
 40
1.0
  9
$DIMDLI
 40
3.75
  9
$DIMRND
 40
0.0
  9
$DIMDLE
 40
0.0
  9
$DIMEXE
 40
1.0
  9
$DIMTP
 40
0.0
  9
$DIMTM
 40
0.0
  9
$DIMTXT
 40
3.5
  9
$DIMCEN
 40
2.5
  9
$DIMTSZ
 40
0.0
  9
$DIMTOL
 70
     0
  9
$DIMLIM
 70
     0
  9
$DIMTIH
 70
     1
  9
$DIMTOH
 70
     1
  9
$DIMSE1
 70
     0
  9
$DIMSE2
 70
     0
  9
$DIMTAD
 70
     1
  9
$DIMZIN
 70
     1
  9
$DIMBLK
  1

  9
$DIMASO
 70
     1
  9
$DIMSHO
 70
     1
  9
$DIMPOST
  1

  9
$DIMAPOST
  1

  9
$DIMALT
 70
     0
  9
$DIMALTD
 70
     3
  9
$DIMALTF
 40
0.0393700787
  9
$DIMLFAC
 40
1.0
  9
$DIMTOFL
 70
     1
  9
$DIMTVP
 40
0.0
  9
$DIMTIX
 70
     0
  9
$DIMSOXD
 70
     0
  9
$DIMSAH
 70
     0
  9
$DIMBLK1
  1

  9
$DIMBLK2
  1

  9
$DIMSTYLE
  2
ISO-25
  9
$DIMCLRD
 70
     0
  9
$DIMCLRE
 70
     0
  9
$DIMCLRT
 70
     0
  9
$DIMTFAC
 40
1.0
  9
$DIMGAP
 40
1.524
  9
$DIMJUST
 70
     0
  9
$DIMSD1
 70
     0
  9
$DIMSD2
 70
     0
  9
$DIMTOLJ
 70
     0
  9
$DIMTZIN
 70
     1
  9
$DIMALTZ
 70
     0
  9
$DIMALTTZ
 70
     0
  9
$DIMUPT
 70
     0
  9
$DIMDEC
 70
     2
  9
$DIMTDEC
 70
     2
  9
$DIMALTU
 70
     2
  9
$DIMALTTD
 70
     3
  9
$DIMTXSTY
  7
Standard
  9
$DIMAUNIT
 70
     0
  9
$DIMADEC
 70
     0
  9
$DIMALTRND
 40
0.0
  9
$DIMAZIN
 70
     0
  9
$DIMDSEP
 70
    44
  9
$DIMATFIT
 70
     3
  9
$DIMFRAC
 70
     0
  9
$DIMLDRBLK
  1

  9
$DIMLUNIT
 70
     2
  9
$DIMLWD
 70
    -2
  9
$DIMLWE
 70
    -2
  9
$DIMTMOVE
 70
     0
  9
$LUNITS
 70
     2
  9
$LUPREC
 70
     1
  9
$SKETCHINC
 40
1.0
  9
$FILLETRAD
 40
10.0
  9
$AUNITS
 70
     0
  9
$AUPREC
 70
     0
  9
$MENU
  1
.
  9
$ELEVATION
 40
0.0
  9
$PELEVATION
 40
0.0
  9
$THICKNESS
 40
0.0
  9
$LIMCHECK
 70
     0
  9
$CHAMFERA
 40
10.0
  9
$CHAMFERB
 40
10.0
  9
$CHAMFERC
 40
20.0
  9
$CHAMFERD
 40
0.0
  9
$SKPOLY
 70
     0
  9
$TDCREATE
 40
2454314.645194039
  9
$TDUCREATE
 40
2454314.270194039
  9
$TDUPDATE
 40
2454314.645194051
  9
$TDUUPDATE
 40
2454314.270194051
  9
$TDINDWG
 40
0.0000000116
  9
$TDUSRTIMER
 40
0.0000000116
  9
$USRTIMER
 70
     1
  9
$ANGBASE
 50
0.0
  9
$ANGDIR
 70
     0
  9
$PDMODE
 70
     0
  9
$PDSIZE
 40
-1.0
  9
$PLINEWID
 40
0.0
  9
$SPLFRAME
 70
     0
  9
$SPLINETYPE
 70
     6
  9
$SPLINESEGS
 70
     8
  9
$HANDSEED
  5
18D
  9
$SURFTAB1
 70
     6
  9
$SURFTAB2
 70
     6
  9
$SURFTYPE
 70
     6
  9
$SURFU
 70
     6
  9
$SURFV
 70
     6
  9
$UCSBASE
  2

  9
$UCSNAME
  2

  9
$UCSORG
 10
0.0
 20
0.0
 30
0.0
  9
$UCSXDIR
 10
1.0
 20
0.0
 30
0.0
  9
$UCSYDIR
 10
0.0
 20
1.0
 30
0.0
  9
$UCSORTHOREF
  2

  9
$UCSORTHOVIEW
 70
     0
  9
$UCSORGTOP
 10
0.0
 20
0.0
 30
0.0
  9
$UCSORGBOTTOM
 10
0.0
 20
0.0
 30
0.0
  9
$UCSORGLEFT
 10
0.0
 20
0.0
 30
0.0
  9
$UCSORGRIGHT
 10
0.0
 20
0.0
 30
0.0
  9
$UCSORGFRONT
 10
0.0
 20
0.0
 30
0.0
  9
$UCSORGBACK
 10
0.0
 20
0.0
 30
0.0
  9
$PUCSBASE
  2

  9
$PUCSNAME
  2

  9
$PUCSORG
 10
0.0
 20
0.0
 30
0.0
  9
$PUCSXDIR
 10
1.0
 20
0.0
 30
0.0
  9
$PUCSYDIR
 10
0.0
 20
1.0
 30
0.0
  9
$PUCSORTHOREF
  2

  9
$PUCSORTHOVIEW
 70
     0
  9
$PUCSORGTOP
 10
0.0
 20
0.0
 30
0.0
  9
$PUCSORGBOTTOM
 10
0.0
 20
0.0
 30
0.0
  9
$PUCSORGLEFT
 10
0.0
 20
0.0
 30
0.0
  9
$PUCSORGRIGHT
 10
0.0
 20
0.0
 30
0.0
  9
$PUCSORGFRONT
 10
0.0
 20
0.0
 30
0.0
  9
$PUCSORGBACK
 10
0.0
 20
0.0
 30
0.0
  9
$USERI1
 70
     0
  9
$USERI2
 70
     0
  9
$USERI3
 70
     0
  9
$USERI4
 70
     0
  9
$USERI5
 70
     0
  9
$USERR1
 40
0.0
  9
$USERR2
 40
0.0
  9
$USERR3
 40
0.0
  9
$USERR4
 40
0.0
  9
$USERR5
 40
0.0
  9
$WORLDVIEW
 70
     1
  9
$SHADEDGE
 70
     3
  9
$SHADEDIF
 70
    70
  9
$TILEMODE
 70
     1
  9
$MAXACTVP
 70
    64
  9
$PINSBASE
 10
0.0
 20
0.0
 30
0.0
  9
$PLIMCHECK
 70
     0
  9
$PEXTMIN
 10
1.0000000000E+20
 20
1.0000000000E+20
 30
1.0000000000E+20
  9
$PEXTMAX
 10
-1.0000000000E+20
 20
-1.0000000000E+20
 30
-1.0000000000E+20
  9
$PLIMMIN
 10
0.0
 20
0.0
  9
$PLIMMAX
 10
420.0
 20
297.0
  9
$UNITMODE
 70
     0
  9
$VISRETAIN
 70
     1
  9
$PLINEGEN
 70
     0
  9
$PSLTSCALE
 70
     1
  9
$TREEDEPTH
 70
  3020
  9
$CMLSTYLE
  2
Standard
  9
$CMLJUST
 70
     0
  9
$CMLSCALE
 40
20.0
  9
$PROXYGRAPHICS
 70
     1
  9
$MEASUREMENT
 70
     1
  9
$CELWEIGHT
370
    -1
  9
$ENDCAPS
280
     0
  9
$JOINSTYLE
280
     0
  9
$LWDISPLAY
290
     1
  9
$INSUNITS
 70
     4
  9
$HYPERLINKBASE
  1

  9
$STYLESHEET
  1

  9
$XEDIT
290
     1
  9
$CEPSNTYPE
380
     0
  9
$PSTYLEMODE
290
     1
  9
$FINGERPRINTGUID
  2
{AB5F98CF-1CBC-4E2D-867C-14AC0270F6B7}
  9
$VERSIONGUID
  2
{FAEB1C32-E019-11D5-929B-00C0DF256EC4}
  9
$EXTNAMES
290
     1
  9
$PSVPSCALE
 40
0.0
  9
$OLESTARTUP
290
     0
  0
ENDSEC
  0
SECTION
  2
CLASSES
  0
CLASS
  1
ACDBDICTIONARYWDFLT
  2
AcDbDictionaryWithDefault
  3
ObjectDBX Classes
 90
        0
280
     0
281
     0
  0
CLASS
  1
ACDBPLACEHOLDER
  2
AcDbPlaceHolder
  3
ObjectDBX Classes
 90
        0
280
     0
281
     0
  0
CLASS
  1
LAYOUT
  2
AcDbLayout
  3
ObjectDBX Classes
 90
        0
280
     0
281
     0
  0
ENDSEC
  0
SECTION
  2
TABLES
  0
TABLE
  2
VPORT
  5
8
330
0
100
AcDbSymbolTable
 70
     1
  0
VPORT
  5
29
330
8
100
AcDbSymbolTableRecord
100
AcDbViewportTableRecord
  2
*Active
 70
     0
 10
0.0
 20
0.0
 11
1.0
 21
1.0
 12
105.0
 22
148.5
 13
0.0
 23
0.0
 14
10.0
 24
10.0
 15
10.0
 25
10.0
 16
0.0
 26
0.0
 36
1.0
 17
0.0
 27
0.0
 37
0.0
 40
297.0
 41
1.9729729729
 42
50.0
 43
0.0
 44
0.0
 50
0.0
 51
0.0
 71
     0
 72
  2000
 73
     1
 74
     3
 75
     0
 76
     0
 77
     0
 78
     0
281
     0
 65
     1
110
0.0
120
0.0
130
0.0
111
1.0
121
0.0
131
0.0
112
0.0
122
1.0
132
0.0
 79
     0
146
0.0
  0
ENDTAB
  0
TABLE
  2
LTYPE
  5
5
330
0
100
AcDbSymbolTable
 70
     6
  0
LTYPE
  5
14
330
5
100
AcDbSymbolTableRecord
100
AcDbLinetypeTableRecord
  2
ByBlock
 70
     0
  3

 72
    65
 73
     0
 40
0.0
  0
LTYPE
  5
15
330
5
100
AcDbSymbolTableRecord
100
AcDbLinetypeTableRecord
  2
ByLayer
 70
     0
  3

 72
    65
 73
     0
 40
0.0
  0
LTYPE
  5
16
330
5
100
AcDbSymbolTableRecord
100
AcDbLinetypeTableRecord
  2
Continuous
 70
     0
  3
Solid line
 72
    65
 73
     0
 40
0.0
  0
LTYPE
  5
2A
330
5
100
AcDbSymbolTableRecord
100
AcDbLinetypeTableRecord
  2
HIDDEN
 70
     0
  3
Hidden __ __ __ __ __ __ __ __ __ __ __ __ __ __
 72
    65
 73
     2
 40
1.905
 49
1.27
 74
     0
 49
-0.635
 74
     0
  0
LTYPE
  5
2B
330
5
100
AcDbSymbolTableRecord
100
AcDbLinetypeTableRecord
  2
PHANTOM
 70
     0
  3
Phantom ______  __  __  ______  __  __  ______
 72
    65
 73
     6
 40
12.7
 49
6.35
 74
     0
 49
-1.27
 74
     0
 49
1.27
 74
     0
 49
-1.27
 74
     0
 49
1.27
 74
     0
 49
-1.27
 74
     0
  0
LTYPE
  5
2C
330
5
100
AcDbSymbolTableRecord
100
AcDbLinetypeTableRecord
  2
CENTER
 70
     0
  3
Center ____ _ ____ _ ____ _ ____ _ ____ _ ____
 72
    65
 73
     4
 40
10.16
 49
6.35
 74
     0
 49
-1.27
 74
     0
 49
1.27
 74
     0
 49
-1.27
 74
     0
  0
LTYPE
  5
2D
330
5
100
AcDbSymbolTableRecord
100
AcDbLinetypeTableRecord
  2
CENTERX2
 70
     0
  3
Center (2x) ________  __  ________  __  _____
 72
    65
 73
     4
 40
20.32
 49
12.7
 74
     0
 49
-2.54
 74
     0
 49
2.54
 74
     0
 49
-2.54
 74
     0
  0
LTYPE
  5
2E
330
5
100
AcDbSymbolTableRecord
100
AcDbLinetypeTableRecord
  2
DOT2
 70
     0
  3
Dot (.5x) ........................................
 72
    65
 73
     2
 40
0.635
 49
0.0
 74
     0
 49
-0.635
 74
     0
  0
ENDTAB
  0
TABLE
  2
LAYER
  5
2
330
0
100
AcDbSymbolTable
 70
     4
  0
LAYER
  5
10
330
2
100
AcDbSymbolTableRecord
100
AcDbLayerTableRecord
  2
0
 70
     0
 62
     7
  6
Continuous
370
    -3
390
F
  0
LAYER
  5
2F
330
2
100
AcDbSymbolTableRecord
100
AcDbLayerTableRecord
  2
SLD-0
 70
     0
 62
   179
  6
Continuous
370
     0
390
F
  0
LAYER
  5
30
330
2
100
AcDbSymbolTableRecord
100
AcDbLayerTableRecord
  2
SLD-DEFPOINTS
 70
     0
 62
   179
  6
Continuous
370
     0
390
F
  0
LAYER
  5
82
330
2
100
AcDbSymbolTableRecord
100
AcDbLayerTableRecord
  2
Defpoints
 70
     0
 62
     7
  6
Continuous
290
     0
370
    -3
390
F
  0
ENDTAB
  0
TABLE
  2
STYLE
  5
3
330
0
100
AcDbSymbolTable
 70
     4
  0
STYLE
  5
11
330
3
100
AcDbSymbolTableRecord
100
AcDbTextStyleTableRecord
  2
Standard
 70
     0
 40
0.0
 41
1.0
 50
0.0
 71
     0
 42
2.5
  3
txt
  4
bigfont
  0
STYLE
  5
34
330
3
100
AcDbSymbolTableRecord
100
AcDbTextStyleTableRecord
  2
SLDTEXTSTYLE0
 70
     0
 40
0.0
 41
0.7
 50
0.0
 71
     0
 42
0.2
  3
TXT
  4
bigfont
  0
STYLE
  5
91
330
3
100
AcDbSymbolTableRecord
100
AcDbTextStyleTableRecord
  2
SLDTEXTSTYLE1
 70
     0
 40
0.0
 41
0.5526315789
 50
0.0
 71
     0
 42
0.2
  3
TXT
  4
bigfont
  0
STYLE
  5
187
330
3
100
AcDbSymbolTableRecord
100
AcDbTextStyleTableRecord
  2
SLDTEXTSTYLE2
 70
     0
 40
0.0
 41
0.434
 50
0.0
 71
     0
 42
0.2
  3
TXT
  4
bigfont
  0
ENDTAB
  0
TABLE
  2
VIEW
  5
6
330
0
100
AcDbSymbolTable
 70
     0
  0
ENDTAB
  0
TABLE
  2
UCS
  5
7
330
0
100
AcDbSymbolTable
 70
     0
  0
ENDTAB
  0
TABLE
  2
APPID
  5
9
330
0
100
AcDbSymbolTable
 70
     1
  0
APPID
  5
12
330
9
100
AcDbSymbolTableRecord
100
AcDbRegAppTableRecord
  2
ACAD
 70
     0
  0
ENDTAB
  0
TABLE
  2
DIMSTYLE
  5
A
330
0
100
AcDbSymbolTable
 70
     3
100
AcDbDimStyleTable
  0
DIMSTYLE
105
27
330
A
100
AcDbSymbolTableRecord
100
AcDbDimStyleTableRecord
  2
ISO-25
 70
     0
 41
2.5
 42
0.625
 43
3.75
 44
1.25
 73
     0
 74
     0
 77
     1
 78
     8
140
2.5
141
2.5
143
0.0393700787
147
0.625
171
     3
172
     1
271
     2
272
     2
274
     3
278
    44
283
     0
284
     8
340
11
  0
DIMSTYLE
105
92
102
{ACAD_REACTORS
330
81
330
C0
102
}
330
A
100
AcDbSymbolTableRecord
100
AcDbDimStyleTableRecord
  2
SLDDIMSTYLE0
 70
     0
 41
3.0
 44
0.0
 73
     0
 74
     0
 77
     3
 78
    12
140
3.5
147
0.875
173
     1
271
     1
272
     2
284
    12
340
91
341
93
343
93
344
93
  0
DIMSTYLE
105
B0
102
{ACAD_REACTORS
330
A2
330
DA
330
F1
330
10B
330
123
330
13A
330
154
330
16E
102
}
330
A
100
AcDbSymbolTableRecord
100
AcDbDimStyleTableRecord
  2
SLDDIMSTYLE1
 70
     0
 41
3.0
 44
0.0
 73
     0
 74
     0
 77
     3
 78
    12
140
3.5
147
0.875
173
     1
271
     0
272
     2
284
    12
340
91
341
93
343
93
344
93
  0
ENDTAB
  0
TABLE
  2
BLOCK_RECORD
  5
1
330
0
100
AcDbSymbolTable
 70
    16
  0
BLOCK_RECORD
  5
1F
330
1
100
AcDbSymbolTableRecord
100
AcDbBlockTableRecord
  2
*Model_Space
340
22
  0
BLOCK_RECORD
  5
1B
330
1
100
AcDbSymbolTableRecord
100
AcDbBlockTableRecord
  2
*Paper_Space
340
1E
  0
BLOCK_RECORD
  5
23
330
1
100
AcDbSymbolTableRecord
100
AcDbBlockTableRecord
  2
*Paper_Space0
340
26
  0
BLOCK_RECORD
  5
31
330
1
100
AcDbSymbolTableRecord
100
AcDbBlockTableRecord
  2
注記
340
0
102
{BLKREFS
331
189
102
}
  0
BLOCK_RECORD
  5
37
330
1
100
AcDbSymbolTableRecord
100
AcDbBlockTableRecord
  2
SW_CENTERMARK0
340
0
102
{BLKREFS
331
18A
102
}
  0
BLOCK_RECORD
  5
42
330
1
100
AcDbSymbolTableRecord
100
AcDbBlockTableRecord
  2
SW_CENTERMARK1
340
0
102
{BLKREFS
331
18B
102
}
  0
BLOCK_RECORD
  5
4D
330
1
100
AcDbSymbolTableRecord
100
AcDbBlockTableRecord
  2
SW_CENTERMARK2
340
0
102
{BLKREFS
331
18C
102
}
  0
BLOCK_RECORD
  5
83
330
1
100
AcDbSymbolTableRecord
100
AcDbBlockTableRecord
  2
*D5
340
0
  0
BLOCK_RECORD
  5
93
330
1
100
AcDbSymbolTableRecord
100
AcDbBlockTableRecord
  2
_None
340
0
102
{BLKREFS
331
89
331
88
331
AA
331
A9
331
C6
331
C5
331
E0
331
DF
331
F7
331
F6
331
111
331
110
331
129
331
128
331
140
331
13F
331
15A
331
159
331
174
331
173
102
}
  0
BLOCK_RECORD
  5
A3
330
1
100
AcDbSymbolTableRecord
100
AcDbBlockTableRecord
  2
*D7
340
0
  0
BLOCK_RECORD
  5
C1
330
1
100
AcDbSymbolTableRecord
100
AcDbBlockTableRecord
  2
*D8
340
0
  0
BLOCK_RECORD
  5
DB
330
1
100
AcDbSymbolTableRecord
100
AcDbBlockTableRecord
  2
*D9
340
0
  0
BLOCK_RECORD
  5
F2
330
1
100
AcDbSymbolTableRecord
100
AcDbBlockTableRecord
  2
*D10
340
0
  0
BLOCK_RECORD
  5
10C
330
1
100
AcDbSymbolTableRecord
100
AcDbBlockTableRecord
  2
*D11
340
0
  0
BLOCK_RECORD
  5
124
330
1
100
AcDbSymbolTableRecord
100
AcDbBlockTableRecord
  2
*D12
340
0
  0
BLOCK_RECORD
  5
13B
330
1
100
AcDbSymbolTableRecord
100
AcDbBlockTableRecord
  2
*D13
340
0
  0
BLOCK_RECORD
  5
155
330
1
100
AcDbSymbolTableRecord
100
AcDbBlockTableRecord
  2
*D14
340
0
  0
BLOCK_RECORD
  5
16F
330
1
100
AcDbSymbolTableRecord
100
AcDbBlockTableRecord
  2
*D15
340
0
  0
ENDTAB
  0
ENDSEC
  0
SECTION
  2
BLOCKS
  0
BLOCK
  5
20
330
1F
100
AcDbEntity
  8
0
100
AcDbBlockBegin
  2
*Model_Space
 70
     0
 71
     0
 10
0.0
 20
0.0
 30
0.0
  3
*Model_Space
  1

  0
ENDBLK
  5
21
330
1F
100
AcDbEntity
  8
0
100
AcDbBlockEnd
  0
BLOCK
  5
1C
330
1B
100
AcDbEntity
 67
     1
  8
0
100
AcDbBlockBegin
  2
*Paper_Space
 70
     0
 71
     0
 10
0.0
 20
0.0
 30
0.0
  3
*Paper_Space
  1

  0
ENDBLK
  5
1D
330
1B
100
AcDbEntity
 67
     1
  8
0
100
AcDbBlockEnd
  0
BLOCK
  5
24
330
23
100
AcDbEntity
  8
0
100
AcDbBlockBegin
  2
*Paper_Space0
 70
     0
 71
     0
 10
0.0
 20
0.0
 30
0.0
  3
*Paper_Space0
  1

  0
ENDBLK
  5
25
330
23
100
AcDbEntity
  8
0
100
AcDbBlockEnd
  0
BLOCK
  5
32
330
31
100
AcDbEntity
  8
0
100
AcDbBlockBegin
  2
注記
 70
     0
 71
     0
 10
0.0
 20
0.0
 30
0.0
  3
注記
  1

  0
MTEXT
  5
35
330
31
100
AcDbEntity
  8
0
  6
Continuous
 62
     7
370
     0
100
AcDbMText
 10
0.2636785918
 20
9.0739778448
 30
0.0
 40
3.5
 41
0.0
 71
     1
 72
     1
  1
１．特記ナキ角部ハ、バリ　カエリノ無キコト。
  7
SLDTEXTSTYLE0
 73
     1
 44
1.0
  0
MTEXT
  5
36
330
31
100
AcDbEntity
  8
0
  6
Continuous
 62
     7
370
     0
100
AcDbMText
 10
0.2636785918
 20
3.5759549983
 30
0.0
 40
3.5
 41
0.0
 71
     1
 72
     1
  1
２．特記ナキ隅部ハ、Ｒ０．４ＭＡＸトスル。
  7
SLDTEXTSTYLE0
 73
     1
 44
1.0
  0
ENDBLK
  5
33
330
31
100
AcDbEntity
  8
0
100
AcDbBlockEnd
  0
BLOCK
  5
38
330
37
100
AcDbEntity
  8
0
100
AcDbBlockBegin
  2
SW_CENTERMARK0
 70
     0
 71
     0
 10
0.0
 20
0.0
 30
0.0
  3
SW_CENTERMARK0
  1

  0
LINE
  5
3A
330
37
100
AcDbEntity
  8
SLD-0
  6
Continuous
 62
   179
100
AcDbLine
 10
113.9477466637
 20
148.576322697
 30
0.0
 11
113.9477466637
 21
151.076322697
 31
0.0
  0
LINE
  5
3B
330
37
100
AcDbEntity
  8
SLD-0
  6
Continuous
 62
   179
100
AcDbLine
 10
113.9477466637
 20
148.576322697
 30
0.0
 11
111.4477466637
 21
148.576322697
 31
0.0
  0
LINE
  5
3C
330
37
100
AcDbEntity
  8
SLD-0
  6
Continuous
 62
   179
100
AcDbLine
 10
113.9477466637
 20
148.576322697
 30
0.0
 11
113.9477466637
 21
146.076322697
 31
0.0
  0
LINE
  5
3D
330
37
100
AcDbEntity
  8
SLD-0
  6
Continuous
 62
   179
100
AcDbLine
 10
113.9477466637
 20
148.576322697
 30
0.0
 11
116.4477466637
 21
148.576322697
 31
0.0
  0
LINE
  5
3E
330
37
100
AcDbEntity
  8
SLD-0
  6
Continuous
 62
   179
100
AcDbLine
 10
113.9477466637
 20
153.576322697
 30
0.0
 11
113.9477466637
 21
157.076322697
 31
0.0
  0
LINE
  5
3F
330
37
100
AcDbEntity
  8
SLD-0
  6
Continuous
 62
   179
100
AcDbLine
 10
108.9477466637
 20
148.576322697
 30
0.0
 11
105.4477466637
 21
148.576322697
 31
0.0
  0
LINE
  5
40
330
37
100
AcDbEntity
  8
SLD-0
  6
Continuous
 62
   179
100
AcDbLine
 10
113.9477466637
 20
143.576322697
 30
0.0
 11
113.9477466637
 21
140.076322697
 31
0.0
  0
LINE
  5
41
330
37
100
AcDbEntity
  8
SLD-0
  6
Continuous
 62
   179
100
AcDbLine
 10
118.9477466637
 20
148.576322697
 30
0.0
 11
122.4477466637
 21
148.576322697
 31
0.0
  0
ENDBLK
  5
39
330
37
100
AcDbEntity
  8
0
100
AcDbBlockEnd
  0
BLOCK
  5
43
330
42
100
AcDbEntity
  8
0
100
AcDbBlockBegin
  2
SW_CENTERMARK1
 70
     0
 71
     0
 10
0.0
 20
0.0
 30
0.0
  3
SW_CENTERMARK1
  1

  0
LINE
  5
45
330
42
100
AcDbEntity
  8
SLD-0
  6
Continuous
 62
   179
100
AcDbLine
 10
123.9477466637
 20
191.2469822302
 30
0.0
 11
123.9477466637
 21
193.7469822302
 31
0.0
  0
LINE
  5
46
330
42
100
AcDbEntity
  8
SLD-0
  6
Continuous
 62
   179
100
AcDbLine
 10
123.9477466637
 20
191.2469822302
 30
0.0
 11
121.4477466637
 21
191.2469822302
 31
0.0
  0
LINE
  5
47
330
42
100
AcDbEntity
  8
SLD-0
  6
Continuous
 62
   179
100
AcDbLine
 10
123.9477466637
 20
191.2469822302
 30
0.0
 11
123.9477466637
 21
188.7469822302
 31
0.0
  0
LINE
  5
48
330
42
100
AcDbEntity
  8
SLD-0
  6
Continuous
 62
   179
100
AcDbLine
 10
123.9477466637
 20
191.2469822302
 30
0.0
 11
126.4477466637
 21
191.2469822302
 31
0.0
  0
LINE
  5
49
330
42
100
AcDbEntity
  8
SLD-0
  6
Continuous
 62
   179
100
AcDbLine
 10
123.9477466637
 20
193.7469822302
 30
0.0
 11
123.9477466637
 21
196.2469822302
 31
0.0
  0
LINE
  5
4A
330
42
100
AcDbEntity
  8
SLD-0
  6
Continuous
 62
   179
100
AcDbLine
 10
121.4477466637
 20
191.2469822302
 30
0.0
 11
118.9477466637
 21
191.2469822302
 31
0.0
  0
LINE
  5
4B
330
42
100
AcDbEntity
  8
SLD-0
  6
Continuous
 62
   179
100
AcDbLine
 10
123.9477466637
 20
188.7469822302
 30
0.0
 11
123.9477466637
 21
186.2469822302
 31
0.0
  0
LINE
  5
4C
330
42
100
AcDbEntity
  8
SLD-0
  6
Continuous
 62
   179
100
AcDbLine
 10
126.4477466637
 20
191.2469822302
 30
0.0
 11
128.9477466637
 21
191.2469822302
 31
0.0
  0
ENDBLK
  5
44
330
42
100
AcDbEntity
  8
0
100
AcDbBlockEnd
  0
BLOCK
  5
4E
330
4D
100
AcDbEntity
  8
0
100
AcDbBlockBegin
  2
SW_CENTERMARK2
 70
     0
 71
     0
 10
0.0
 20
0.0
 30
0.0
  3
SW_CENTERMARK2
  1

  0
LINE
  5
50
330
4D
100
AcDbEntity
  8
SLD-0
  6
Continuous
 62
   179
100
AcDbLine
 10
103.9477466637
 20
191.2469822302
 30
0.0
 11
103.9477466637
 21
193.7469822302
 31
0.0
  0
LINE
  5
51
330
4D
100
AcDbEntity
  8
SLD-0
  6
Continuous
 62
   179
100
AcDbLine
 10
103.9477466637
 20
191.2469822302
 30
0.0
 11
101.4477466637
 21
191.2469822302
 31
0.0
  0
LINE
  5
52
330
4D
100
AcDbEntity
  8
SLD-0
  6
Continuous
 62
   179
100
AcDbLine
 10
103.9477466637
 20
191.2469822302
 30
0.0
 11
103.9477466637
 21
188.7469822302
 31
0.0
  0
LINE
  5
53
330
4D
100
AcDbEntity
  8
SLD-0
  6
Continuous
 62
   179
100
AcDbLine
 10
103.9477466637
 20
191.2469822302
 30
0.0
 11
106.4477466637
 21
191.2469822302
 31
0.0
  0
LINE
  5
54
330
4D
100
AcDbEntity
  8
SLD-0
  6
Continuous
 62
   179
100
AcDbLine
 10
103.9477466637
 20
193.7469822302
 30
0.0
 11
103.9477466637
 21
196.2469822302
 31
0.0
  0
LINE
  5
55
330
4D
100
AcDbEntity
  8
SLD-0
  6
Continuous
 62
   179
100
AcDbLine
 10
101.4477466637
 20
191.2469822302
 30
0.0
 11
98.9477466637
 21
191.2469822302
 31
0.0
  0
LINE
  5
56
330
4D
100
AcDbEntity
  8
SLD-0
  6
Continuous
 62
   179
100
AcDbLine
 10
103.9477466637
 20
188.7469822302
 30
0.0
 11
103.9477466637
 21
186.2469822302
 31
0.0
  0
LINE
  5
57
330
4D
100
AcDbEntity
  8
SLD-0
  6
Continuous
 62
   179
100
AcDbLine
 10
106.4477466637
 20
191.2469822302
 30
0.0
 11
108.9477466637
 21
191.2469822302
 31
0.0
  0
ENDBLK
  5
4F
330
4D
100
AcDbEntity
  8
0
100
AcDbBlockEnd
  0
BLOCK
  5
8F
330
83
100
AcDbEntity
  8
0
100
AcDbBlockBegin
  2
*D5
 70
     1
 71
     0
 10
0.0
 20
0.0
 30
0.0
  3
*D5
  1

  0
ARC
  5
96
330
83
100
AcDbEntity
  8
SLD-0
 62
     7
100
AcDbCircle
 10
90.6805917349
 20
149.076322697
 30
0.0
 40
0.75
100
AcDbArc
 50
270.0
 51
90.0
  0
ARC
  5
97
330
83
100
AcDbEntity
  8
SLD-0
 62
     7
100
AcDbCircle
 10
90.6805917349
 20
149.076322697
 30
0.0
 40
0.75
100
AcDbArc
 50
90.0
 51
270.0
  0
LINE
  5
98
330
83
100
AcDbEntity
  8
SLD-0
 62
     7
100
AcDbLine
 10
97.9477466637
 20
156.576322697
 30
0.0
 11
89.6805917349
 21
156.576322697
 31
0.0
  0
LINE
  5
99
330
83
100
AcDbEntity
  8
SLD-0
 62
     7
100
AcDbLine
 10
97.9477466637
 20
149.076322697
 30
0.0
 11
89.6805917349
 21
149.076322697
 31
0.0
  0
LINE
  5
9A
330
83
100
AcDbEntity
  8
SLD-0
 62
     7
100
AcDbLine
 10
90.6805917349
 20
156.576322697
 30
0.0
 11
90.6805917349
 21
167.133131801
 31
0.0
  0
LINE
  5
9B
330
83
100
AcDbEntity
  8
SLD-0
 62
     7
100
AcDbLine
 10
90.6805917349
 20
156.576322697
 30
0.0
 11
90.6805917349
 21
149.076322697
 31
0.0
  0
LINE
  5
9C
330
83
100
AcDbEntity
  8
SLD-0
 62
     7
100
AcDbLine
 10
90.6805917349
 20
149.076322697
 30
0.0
 11
90.6805917349
 21
144.076322697
 31
0.0
  0
LINE
  5
9D
330
83
100
AcDbEntity
  8
SLD-0
 62
     7
100
AcDbLine
 10
91.4844387349
 20
159.576322697
 30
0.0
 11
90.6805917349
 21
156.576322697
 31
0.0
  0
LINE
  5
9E
330
83
100
AcDbEntity
  8
SLD-0
 62
     7
100
AcDbLine
 10
90.6805917349
 20
156.576322697
 30
0.0
 11
89.8767447349
 21
159.576322697
 31
0.0
  0
LINE
  5
9F
330
83
100
AcDbEntity
  8
SLD-0
 62
     7
100
AcDbLine
 10
90.6805917349
 20
156.576322697
 30
0.0
 11
90.6805917349
 21
159.576322697
 31
0.0
  0
LINE
  5
A0
330
83
100
AcDbEntity
  8
SLD-0
 62
     7
100
AcDbLine
 10
90.6805917349
 20
147.576322697
 30
0.0
 11
90.6805917349
 21
146.076322697
 31
0.0
  0
MTEXT
  5
A1
330
83
100
AcDbEntity
  8
SLD-0
 62
     7
100
AcDbMText
 10
86.153898039
 20
159.4372710648
 30
0.1
 40
3.5
 41
0.0
 71
     1
 72
     1
  1
7.5
  7
SLDTEXTSTYLE0
 11
6.123031769111886E-17
 21
1.0
 31
0.0
 73
     1
 44
1.0
  0
ENDBLK
  5
90
330
83
100
AcDbEntity
  8
0
100
AcDbBlockEnd
  0
BLOCK
  5
94
330
93
100
AcDbEntity
  8
0
100
AcDbBlockBegin
  2
_None
 70
     0
 71
     0
 10
0.0
 20
0.0
 30
0.0
  3
_None
  1

  0
ENDBLK
  5
95
330
93
100
AcDbEntity
  8
0
100
AcDbBlockEnd
  0
BLOCK
  5
AE
330
A3
100
AcDbEntity
  8
0
100
AcDbBlockBegin
  2
*D7
 70
     1
 71
     0
 10
0.0
 20
0.0
 30
0.0
  3
*D7
  1

  0
ARC
  5
B2
330
A3
100
AcDbEntity
  8
SLD-0
100
AcDbCircle
 10
90.6805917349
 20
148.076322697
 30
0.0
 40
0.75
100
AcDbArc
 50
270.0
 51
90.0
  0
ARC
  5
B3
330
A3
100
AcDbEntity
  8
SLD-0
100
AcDbCircle
 10
90.6805917349
 20
148.076322697
 30
0.0
 40
0.75
100
AcDbArc
 50
90.0
 51
270.0
  0
ARC
  5
B4
330
A3
100
AcDbEntity
  8
SLD-0
100
AcDbCircle
 10
90.6805917349
 20
149.076322697
 30
0.0
 40
0.75
100
AcDbArc
 50
90.0
 51
270.0
  0
ARC
  5
B5
330
A3
100
AcDbEntity
  8
SLD-0
100
AcDbCircle
 10
90.6805917349
 20
149.076322697
 30
0.0
 40
0.75
100
AcDbArc
 50
270.0
 51
90.0
  0
LINE
  5
B6
330
A3
100
AcDbEntity
  8
SLD-0
100
AcDbLine
 10
97.9477466637
 20
148.076322697
 30
0.0
 11
89.6805917349
 21
148.076322697
 31
0.0
  0
LINE
  5
B7
330
A3
100
AcDbEntity
  8
SLD-0
100
AcDbLine
 10
97.9477466637
 20
149.076322697
 30
0.0
 11
89.6805917349
 21
149.076322697
 31
0.0
  0
LINE
  5
B8
330
A3
100
AcDbEntity
  8
SLD-0
100
AcDbLine
 10
90.6805917349
 20
148.076322697
 30
0.0
 11
90.6805917349
 21
143.076322697
 31
0.0
  0
LINE
  5
B9
330
A3
100
AcDbEntity
  8
SLD-0
100
AcDbLine
 10
90.6805917349
 20
148.076322697
 30
0.0
 11
90.6805917349
 21
149.076322697
 31
0.0
  0
LINE
  5
BA
330
A3
100
AcDbEntity
  8
SLD-0
100
AcDbLine
 10
90.6805917349
 20
149.076322697
 30
0.0
 11
90.6805917349
 21
154.076322697
 31
0.0
  0
LINE
  5
BB
330
A3
100
AcDbEntity
  8
SLD-0
100
AcDbLine
 10
90.6805917349
 20
148.576322697
 30
0.0
 11
84.325668223
 21
159.0125504648
 31
0.0
  0
LINE
  5
BC
330
A3
100
AcDbEntity
  8
SLD-0
100
AcDbLine
 10
84.325668223
 20
159.0125504648
 30
0.0
 11
79.1155804929
 21
159.0125504648
 31
0.0
  0
LINE
  5
BD
330
A3
100
AcDbEntity
  8
SLD-0
100
AcDbLine
 10
90.6805917349
 20
146.576322697
 30
0.0
 11
90.6805917349
 21
145.076322697
 31
0.0
  0
LINE
  5
BE
330
A3
100
AcDbEntity
  8
SLD-0
100
AcDbLine
 10
90.6805917349
 20
150.576322697
 30
0.0
 11
90.6805917349
 21
152.076322697
 31
0.0
  0
MTEXT
  5
BF
330
A3
100
AcDbEntity
  8
SLD-0
100
AcDbMText
 10
80.7030804929
 20
163.5392441607
 30
0.1
 40
3.5
 41
0.0
 71
     1
 72
     1
  1
1
  7
SLDTEXTSTYLE0
 73
     1
 44
1.0
  0
ENDBLK
  5
AF
330
A3
100
AcDbEntity
  8
0
100
AcDbBlockEnd
  0
BLOCK
  5
CC
330
C1
100
AcDbEntity
  8
0
100
AcDbBlockBegin
  2
*D8
 70
     1
 71
     0
 10
0.0
 20
0.0
 30
0.0
  3
*D8
  1

  0
ARC
  5
CE
330
C1
100
AcDbEntity
  8
SLD-0
100
AcDbCircle
 10
90.6805917349
 20
148.076322697
 30
0.0
 40
0.75
100
AcDbArc
 50
90.0
 51
270.0
  0
ARC
  5
CF
330
C1
100
AcDbEntity
  8
SLD-0
100
AcDbCircle
 10
90.6805917349
 20
148.076322697
 30
0.0
 40
0.75
100
AcDbArc
 50
270.0
 51
90.0
  0
LINE
  5
D0
330
C1
100
AcDbEntity
  8
SLD-0
100
AcDbLine
 10
97.9477466637
 20
140.576322697
 30
0.0
 11
89.6805917349
 21
140.576322697
 31
0.0
  0
LINE
  5
D1
330
C1
100
AcDbEntity
  8
SLD-0
100
AcDbLine
 10
97.9477466637
 20
148.076322697
 30
0.0
 11
89.6805917349
 21
148.076322697
 31
0.0
  0
LINE
  5
D2
330
C1
100
AcDbEntity
  8
SLD-0
100
AcDbLine
 10
90.6805917349
 20
140.576322697
 30
0.0
 11
90.6805917349
 21
135.576322697
 31
0.0
  0
LINE
  5
D3
330
C1
100
AcDbEntity
  8
SLD-0
100
AcDbLine
 10
90.6805917349
 20
140.576322697
 30
0.0
 11
90.6805917349
 21
148.076322697
 31
0.0
  0
LINE
  5
D4
330
C1
100
AcDbEntity
  8
SLD-0
100
AcDbLine
 10
90.6805917349
 20
148.076322697
 30
0.0
 11
90.6805917349
 21
153.076322697
 31
0.0
  0
LINE
  5
D5
330
C1
100
AcDbEntity
  8
SLD-0
100
AcDbLine
 10
89.8767447349
 20
137.576322697
 30
0.0
 11
90.6805917349
 21
140.576322697
 31
0.0
  0
LINE
  5
D6
330
C1
100
AcDbEntity
  8
SLD-0
100
AcDbLine
 10
90.6805917349
 20
140.576322697
 30
0.0
 11
91.4844387349
 21
137.576322697
 31
0.0
  0
LINE
  5
D7
330
C1
100
AcDbEntity
  8
SLD-0
100
AcDbLine
 10
90.6805917349
 20
140.576322697
 30
0.0
 11
90.6805917349
 21
137.576322697
 31
0.0
  0
LINE
  5
D8
330
C1
100
AcDbEntity
  8
SLD-0
100
AcDbLine
 10
90.6805917349
 20
149.576322697
 30
0.0
 11
90.6805917349
 21
151.076322697
 31
0.0
  0
MTEXT
  5
D9
330
C1
100
AcDbEntity
  8
SLD-0
100
AcDbMText
 10
86.153898039
 20
141.2721423289
 30
0.1
 40
3.5
 41
0.0
 71
     1
 72
     1
  1
7.5
  7
SLDTEXTSTYLE0
 11
6.123031769111886E-17
 21
1.0
 31
0.0
 73
     1
 44
1.0
  0
ENDBLK
  5
CD
330
C1
100
AcDbEntity
  8
0
100
AcDbBlockEnd
  0
BLOCK
  5
E5
330
DB
100
AcDbEntity
  8
0
100
AcDbBlockBegin
  2
*D9
 70
     1
 71
     0
 10
0.0
 20
0.0
 30
0.0
  3
*D9
  1

  0
LINE
  5
E7
330
DB
100
AcDbEntity
  8
SLD-0
100
AcDbLine
 10
98.9477466637
 20
157.576322697
 30
0.0
 11
98.9477466637
 21
166.5867874152
 31
0.0
  0
LINE
  5
E8
330
DB
100
AcDbEntity
  8
SLD-0
100
AcDbLine
 10
113.9477466637
 20
158.076322697
 30
0.0
 11
113.9477466637
 21
166.5867874152
 31
0.0
  0
LINE
  5
E9
330
DB
100
AcDbEntity
  8
SLD-0
100
AcDbLine
 10
98.9477466637
 20
165.5867874152
 30
0.0
 11
113.9477466637
 21
165.5867874152
 31
0.0
  0
LINE
  5
EA
330
DB
100
AcDbEntity
  8
SLD-0
100
AcDbLine
 10
101.9477466637
 20
164.7829404152
 30
0.0
 11
98.9477466637
 21
165.5867874152
 31
0.0
  0
LINE
  5
EB
330
DB
100
AcDbEntity
  8
SLD-0
100
AcDbLine
 10
98.9477466637
 20
165.5867874152
 30
0.0
 11
101.9477466637
 21
166.3906344152
 31
0.0
  0
LINE
  5
EC
330
DB
100
AcDbEntity
  8
SLD-0
100
AcDbLine
 10
98.9477466637
 20
165.5867874152
 30
0.0
 11
101.9477466637
 21
165.5867874152
 31
0.0
  0
LINE
  5
ED
330
DB
100
AcDbEntity
  8
SLD-0
100
AcDbLine
 10
110.9477466637
 20
166.3906344152
 30
0.0
 11
113.9477466637
 21
165.5867874152
 31
0.0
  0
LINE
  5
EE
330
DB
100
AcDbEntity
  8
SLD-0
100
AcDbLine
 10
113.9477466637
 20
165.5867874152
 30
0.0
 11
110.9477466637
 21
164.7829404152
 31
0.0
  0
LINE
  5
EF
330
DB
100
AcDbEntity
  8
SLD-0
100
AcDbLine
 10
113.9477466637
 20
165.5867874152
 30
0.0
 11
110.9477466637
 21
165.5867874152
 31
0.0
  0
MTEXT
  5
F0
330
DB
100
AcDbEntity
  8
SLD-0
100
AcDbMText
 10
104.4111101607
 20
170.1134811111
 30
0.1
 40
3.5
 41
0.0
 71
     1
 72
     1
  1
15
  7
SLDTEXTSTYLE0
 73
     1
 44
1.0
  0
ENDBLK
  5
E6
330
DB
100
AcDbEntity
  8
0
100
AcDbBlockEnd
  0
BLOCK
  5
FD
330
F2
100
AcDbEntity
  8
0
100
AcDbBlockBegin
  2
*D10
 70
     1
 71
     0
 10
0.0
 20
0.0
 30
0.0
  3
*D10
  1

  0
ARC
  5
FF
330
F2
100
AcDbEntity
  8
SLD-0
 62
     7
100
AcDbCircle
 10
73.2802381141
 20
149.0254592001
 30
0.0
 40
4.554057666300001
100
AcDbArc
 50
243.4349488229
 51
296.5650511771
  0
ARC
  5
100
330
F2
100
AcDbEntity
  8
SLD-0
 62
     7
100
AcDbCircle
 10
73.2802381141
 20
148.127186194
 30
0.0
 40
4.554057666300001
100
AcDbArc
 50
63.4349488229
 51
116.5650511771
  0
LINE
  5
101
330
F2
100
AcDbEntity
  8
SLD-0
 62
     7
100
AcDbLine
 10
97.9477466637
 20
156.576322697
 30
0.0
 11
74.3168746171
 21
156.576322697
 31
0.0
  0
LINE
  5
102
330
F2
100
AcDbEntity
  8
SLD-0
 62
     7
100
AcDbLine
 10
97.9477466637
 20
140.576322697
 30
0.0
 11
74.3168746171
 21
140.576322697
 31
0.0
  0
LINE
  5
103
330
F2
100
AcDbEntity
  8
SLD-0
 62
     7
100
AcDbLine
 10
75.3168746171
 20
156.576322697
 30
0.0
 11
75.3168746171
 21
140.576322697
 31
0.0
  0
LINE
  5
104
330
F2
100
AcDbEntity
  8
SLD-0
 62
     7
100
AcDbLine
 10
74.5130276171
 20
153.576322697
 30
0.0
 11
75.3168746171
 21
156.576322697
 31
0.0
  0
LINE
  5
105
330
F2
100
AcDbEntity
  8
SLD-0
 62
     7
100
AcDbLine
 10
75.3168746171
 20
156.576322697
 30
0.0
 11
76.1207216171
 21
153.576322697
 31
0.0
  0
LINE
  5
106
330
F2
100
AcDbEntity
  8
SLD-0
 62
     7
100
AcDbLine
 10
75.3168746171
 20
156.576322697
 30
0.0
 11
75.3168746171
 21
153.576322697
 31
0.0
  0
LINE
  5
107
330
F2
100
AcDbEntity
  8
SLD-0
 62
     7
100
AcDbLine
 10
76.1207216171
 20
143.576322697
 30
0.0
 11
75.3168746171
 21
140.576322697
 31
0.0
  0
LINE
  5
108
330
F2
100
AcDbEntity
  8
SLD-0
 62
     7
100
AcDbLine
 10
75.3168746171
 20
140.576322697
 30
0.0
 11
74.5130276171
 21
143.576322697
 31
0.0
  0
LINE
  5
109
330
F2
100
AcDbEntity
  8
SLD-0
 62
     7
100
AcDbLine
 10
75.3168746171
 20
140.576322697
 30
0.0
 11
75.3168746171
 21
143.576322697
 31
0.0
  0
MTEXT
  5
10A
330
F2
100
AcDbEntity
  8
SLD-0
 62
     7
100
AcDbMText
 10
70.7901809212
 20
146.539686194
 30
0.1
 40
3.5
 41
0.0
 71
     1
 72
     1
  1
16
  7
SLDTEXTSTYLE0
 11
6.123031769111886E-17
 21
1.0
 31
0.0
 73
     1
 44
1.0
  0
ENDBLK
  5
FE
330
F2
100
AcDbEntity
  8
0
100
AcDbBlockEnd
  0
BLOCK
  5
117
330
10C
100
AcDbEntity
  8
0
100
AcDbBlockBegin
  2
*D11
 70
     1
 71
     0
 10
0.0
 20
0.0
 30
0.0
  3
*D11
  1

  0
LINE
  5
119
330
10C
100
AcDbEntity
  8
SLD-0
 62
     7
100
AcDbLine
 10
127.9477466637
 20
199.2469822302
 30
0.0
 11
76.881660338
 21
199.2469822302
 31
0.0
  0
LINE
  5
11A
330
10C
100
AcDbEntity
  8
SLD-0
 62
     7
100
AcDbLine
 10
127.9477466637
 20
183.2469822302
 30
0.0
 11
76.881660338
 21
183.2469822302
 31
0.0
  0
LINE
  5
11B
330
10C
100
AcDbEntity
  8
SLD-0
 62
     7
100
AcDbLine
 10
77.881660338
 20
199.2469822302
 30
0.0
 11
77.881660338
 21
183.2469822302
 31
0.0
  0
LINE
  5
11C
330
10C
100
AcDbEntity
  8
SLD-0
 62
     7
100
AcDbLine
 10
77.077813338
 20
196.2469822302
 30
0.0
 11
77.881660338
 21
199.2469822302
 31
0.0
  0
LINE
  5
11D
330
10C
100
AcDbEntity
  8
SLD-0
 62
     7
100
AcDbLine
 10
77.881660338
 20
199.2469822302
 30
0.0
 11
78.685507338
 21
196.2469822302
 31
0.0
  0
LINE
  5
11E
330
10C
100
AcDbEntity
  8
SLD-0
 62
     7
100
AcDbLine
 10
77.881660338
 20
199.2469822302
 30
0.0
 11
77.881660338
 21
196.2469822302
 31
0.0
  0
LINE
  5
11F
330
10C
100
AcDbEntity
  8
SLD-0
 62
     7
100
AcDbLine
 10
78.685507338
 20
186.2469822302
 30
0.0
 11
77.881660338
 21
183.2469822302
 31
0.0
  0
LINE
  5
120
330
10C
100
AcDbEntity
  8
SLD-0
 62
     7
100
AcDbLine
 10
77.881660338
 20
183.2469822302
 30
0.0
 11
77.077813338
 21
186.2469822302
 31
0.0
  0
LINE
  5
121
330
10C
100
AcDbEntity
  8
SLD-0
 62
     7
100
AcDbLine
 10
77.881660338
 20
183.2469822302
 30
0.0
 11
77.881660338
 21
186.2469822302
 31
0.0
  0
MTEXT
  5
122
330
10C
100
AcDbEntity
  8
SLD-0
 62
     7
100
AcDbMText
 10
73.3549666421
 20
189.2103457272
 30
0.1
 40
3.5
 41
0.0
 71
     1
 72
     1
  1
16
  7
SLDTEXTSTYLE0
 11
6.123031769111886E-17
 21
1.0
 31
0.0
 73
     1
 44
1.0
  0
ENDBLK
  5
118
330
10C
100
AcDbEntity
  8
0
100
AcDbBlockEnd
  0
BLOCK
  5
12E
330
124
100
AcDbEntity
  8
0
100
AcDbBlockBegin
  2
*D12
 70
     1
 71
     0
 10
0.0
 20
0.0
 30
0.0
  3
*D12
  1

  0
LINE
  5
130
330
124
100
AcDbEntity
  8
SLD-0
 62
     7
100
AcDbLine
 10
128.9477466637
 20
192.2469822302
 30
0.0
 11
128.9477466637
 21
220.7151761179
 31
0.0
  0
LINE
  5
131
330
124
100
AcDbEntity
  8
SLD-0
 62
     7
100
AcDbLine
 10
98.9477466637
 20
192.2469822302
 30
0.0
 11
98.9477466637
 21
220.7151761179
 31
0.0
  0
LINE
  5
132
330
124
100
AcDbEntity
  8
SLD-0
 62
     7
100
AcDbLine
 10
128.9477466637
 20
219.7151761179
 30
0.0
 11
98.9477466637
 21
219.7151761179
 31
0.0
  0
LINE
  5
133
330
124
100
AcDbEntity
  8
SLD-0
 62
     7
100
AcDbLine
 10
125.9477466637
 20
220.5190231179
 30
0.0
 11
128.9477466637
 21
219.7151761179
 31
0.0
  0
LINE
  5
134
330
124
100
AcDbEntity
  8
SLD-0
 62
     7
100
AcDbLine
 10
128.9477466637
 20
219.7151761179
 30
0.0
 11
125.9477466637
 21
218.9113291179
 31
0.0
  0
LINE
  5
135
330
124
100
AcDbEntity
  8
SLD-0
 62
     7
100
AcDbLine
 10
128.9477466637
 20
219.7151761179
 30
0.0
 11
125.9477466637
 21
219.7151761179
 31
0.0
  0
LINE
  5
136
330
124
100
AcDbEntity
  8
SLD-0
 62
     7
100
AcDbLine
 10
101.9477466637
 20
218.9113291179
 30
0.0
 11
98.9477466637
 21
219.7151761179
 31
0.0
  0
LINE
  5
137
330
124
100
AcDbEntity
  8
SLD-0
 62
     7
100
AcDbLine
 10
98.9477466637
 20
219.7151761179
 30
0.0
 11
101.9477466637
 21
220.5190231179
 31
0.0
  0
LINE
  5
138
330
124
100
AcDbEntity
  8
SLD-0
 62
     7
100
AcDbLine
 10
98.9477466637
 20
219.7151761179
 30
0.0
 11
101.9477466637
 21
219.7151761179
 31
0.0
  0
MTEXT
  5
139
330
124
100
AcDbEntity
  8
SLD-0
 62
     7
100
AcDbMText
 10
111.9111101607
 20
224.2418698138
 30
0.1
 40
3.5
 41
0.0
 71
     1
 72
     1
  1
30
  7
SLDTEXTSTYLE0
 73
     1
 44
1.0
  0
ENDBLK
  5
12F
330
124
100
AcDbEntity
  8
0
100
AcDbBlockEnd
  0
BLOCK
  5
146
330
13B
100
AcDbEntity
  8
0
100
AcDbBlockBegin
  2
*D13
 70
     1
 71
     0
 10
0.0
 20
0.0
 30
0.0
  3
*D13
  1

  0
LINE
  5
148
330
13B
100
AcDbEntity
  8
SLD-0
100
AcDbLine
 10
97.9477466637
 20
183.2469822302
 30
0.0
 11
88.3798847256
 21
183.2469822302
 31
0.0
  0
LINE
  5
149
330
13B
100
AcDbEntity
  8
SLD-0
100
AcDbLine
 10
97.9477466637
 20
191.2469822302
 30
0.0
 11
88.3798847256
 21
191.2469822302
 31
0.0
  0
LINE
  5
14A
330
13B
100
AcDbEntity
  8
SLD-0
100
AcDbLine
 10
89.3798847256
 20
183.2469822302
 30
0.0
 11
89.3798847256
 21
178.2469822302
 31
0.0
  0
LINE
  5
14B
330
13B
100
AcDbEntity
  8
SLD-0
100
AcDbLine
 10
89.3798847256
 20
183.2469822302
 30
0.0
 11
89.3798847256
 21
191.2469822302
 31
0.0
  0
LINE
  5
14C
330
13B
100
AcDbEntity
  8
SLD-0
100
AcDbLine
 10
89.3798847256
 20
191.2469822302
 30
0.0
 11
89.3798847256
 21
196.2469822302
 31
0.0
  0
LINE
  5
14D
330
13B
100
AcDbEntity
  8
SLD-0
100
AcDbLine
 10
88.5760377256
 20
180.2469822302
 30
0.0
 11
89.3798847256
 21
183.2469822302
 31
0.0
  0
LINE
  5
14E
330
13B
100
AcDbEntity
  8
SLD-0
100
AcDbLine
 10
89.3798847256
 20
183.2469822302
 30
0.0
 11
90.1837317256
 21
180.2469822302
 31
0.0
  0
LINE
  5
14F
330
13B
100
AcDbEntity
  8
SLD-0
100
AcDbLine
 10
89.3798847256
 20
183.2469822302
 30
0.0
 11
89.3798847256
 21
180.2469822302
 31
0.0
  0
LINE
  5
150
330
13B
100
AcDbEntity
  8
SLD-0
100
AcDbLine
 10
90.1837317256
 20
194.2469822302
 30
0.0
 11
89.3798847256
 21
191.2469822302
 31
0.0
  0
LINE
  5
151
330
13B
100
AcDbEntity
  8
SLD-0
100
AcDbLine
 10
89.3798847256
 20
191.2469822302
 30
0.0
 11
88.5760377256
 21
194.2469822302
 31
0.0
  0
LINE
  5
152
330
13B
100
AcDbEntity
  8
SLD-0
100
AcDbLine
 10
89.3798847256
 20
191.2469822302
 30
0.0
 11
89.3798847256
 21
194.2469822302
 31
0.0
  0
MTEXT
  5
153
330
13B
100
AcDbEntity
  8
SLD-0
100
AcDbMText
 10
84.8531910297
 20
186.2294383652
 30
0.1
 40
3.5
 41
0.0
 71
     1
 72
     1
  1
8
  7
SLDTEXTSTYLE0
 11
6.123031769111886E-17
 21
1.0
 31
0.0
 73
     1
 44
1.0
  0
ENDBLK
  5
147
330
13B
100
AcDbEntity
  8
0
100
AcDbBlockEnd
  0
BLOCK
  5
160
330
155
100
AcDbEntity
  8
0
100
AcDbBlockBegin
  2
*D14
 70
     1
 71
     0
 10
0.0
 20
0.0
 30
0.0
  3
*D14
  1

  0
LINE
  5
162
330
155
100
AcDbEntity
  8
SLD-0
100
AcDbLine
 10
98.9477466637
 20
200.2469822302
 30
0.0
 11
98.9477466637
 21
212.2991569523
 31
0.0
  0
LINE
  5
163
330
155
100
AcDbEntity
  8
SLD-0
100
AcDbLine
 10
103.9477466637
 20
197.2469822302
 30
0.0
 11
103.9477466637
 21
212.2991569523
 31
0.0
  0
LINE
  5
164
330
155
100
AcDbEntity
  8
SLD-0
100
AcDbLine
 10
98.9477466637
 20
211.2991569523
 30
0.0
 11
93.9477466637
 21
211.2991569523
 31
0.0
  0
LINE
  5
165
330
155
100
AcDbEntity
  8
SLD-0
100
AcDbLine
 10
98.9477466637
 20
211.2991569523
 30
0.0
 11
103.9477466637
 21
211.2991569523
 31
0.0
  0
LINE
  5
166
330
155
100
AcDbEntity
  8
SLD-0
100
AcDbLine
 10
103.9477466637
 20
211.2991569523
 30
0.0
 11
108.9477466637
 21
211.2991569523
 31
0.0
  0
LINE
  5
167
330
155
100
AcDbEntity
  8
SLD-0
100
AcDbLine
 10
95.9477466637
 20
212.1030039523
 30
0.0
 11
98.9477466637
 21
211.2991569523
 31
0.0
  0
LINE
  5
168
330
155
100
AcDbEntity
  8
SLD-0
100
AcDbLine
 10
98.9477466637
 20
211.2991569523
 30
0.0
 11
95.9477466637
 21
210.4953099523
 31
0.0
  0
LINE
  5
169
330
155
100
AcDbEntity
  8
SLD-0
100
AcDbLine
 10
98.9477466637
 20
211.2991569523
 30
0.0
 11
95.9477466637
 21
211.2991569523
 31
0.0
  0
LINE
  5
16A
330
155
100
AcDbEntity
  8
SLD-0
100
AcDbLine
 10
106.9477466637
 20
210.4953099523
 30
0.0
 11
103.9477466637
 21
211.2991569523
 31
0.0
  0
LINE
  5
16B
330
155
100
AcDbEntity
  8
SLD-0
100
AcDbLine
 10
103.9477466637
 20
211.2991569523
 30
0.0
 11
106.9477466637
 21
212.1030039523
 31
0.0
  0
LINE
  5
16C
330
155
100
AcDbEntity
  8
SLD-0
100
AcDbLine
 10
103.9477466637
 20
211.2991569523
 30
0.0
 11
106.9477466637
 21
211.2991569523
 31
0.0
  0
MTEXT
  5
16D
330
155
100
AcDbEntity
  8
SLD-0
100
AcDbMText
 10
100.4302027987
 20
215.8258506482
 30
0.1
 40
3.5
 41
0.0
 71
     1
 72
     1
  1
5
  7
SLDTEXTSTYLE0
 73
     1
 44
1.0
  0
ENDBLK
  5
161
330
155
100
AcDbEntity
  8
0
100
AcDbBlockEnd
  0
BLOCK
  5
179
330
16F
100
AcDbEntity
  8
0
100
AcDbBlockBegin
  2
*D15
 70
     1
 71
     0
 10
0.0
 20
0.0
 30
0.0
  3
*D15
  1

  0
LINE
  5
17B
330
16F
100
AcDbEntity
  8
SLD-0
100
AcDbLine
 10
103.9477466637
 20
197.2469822302
 30
0.0
 11
103.9477466637
 21
212.2991569523
 31
0.0
  0
LINE
  5
17C
330
16F
100
AcDbEntity
  8
SLD-0
100
AcDbLine
 10
123.9477466637
 20
197.2469822302
 30
0.0
 11
123.9477466637
 21
212.2991569523
 31
0.0
  0
LINE
  5
17D
330
16F
100
AcDbEntity
  8
SLD-0
100
AcDbLine
 10
103.9477466637
 20
211.2991569523
 30
0.0
 11
123.9477466637
 21
211.2991569523
 31
0.0
  0
LINE
  5
17E
330
16F
100
AcDbEntity
  8
SLD-0
100
AcDbLine
 10
106.9477466637
 20
210.4953099523
 30
0.0
 11
103.9477466637
 21
211.2991569523
 31
0.0
  0
LINE
  5
17F
330
16F
100
AcDbEntity
  8
SLD-0
100
AcDbLine
 10
103.9477466637
 20
211.2991569523
 30
0.0
 11
106.9477466637
 21
212.1030039523
 31
0.0
  0
LINE
  5
180
330
16F
100
AcDbEntity
  8
SLD-0
100
AcDbLine
 10
103.9477466637
 20
211.2991569523
 30
0.0
 11
106.9477466637
 21
211.2991569523
 31
0.0
  0
LINE
  5
181
330
16F
100
AcDbEntity
  8
SLD-0
100
AcDbLine
 10
120.9477466637
 20
212.1030039523
 30
0.0
 11
123.9477466637
 21
211.2991569523
 31
0.0
  0
LINE
  5
182
330
16F
100
AcDbEntity
  8
SLD-0
100
AcDbLine
 10
123.9477466637
 20
211.2991569523
 30
0.0
 11
120.9477466637
 21
210.4953099523
 31
0.0
  0
LINE
  5
183
330
16F
100
AcDbEntity
  8
SLD-0
100
AcDbLine
 10
123.9477466637
 20
211.2991569523
 30
0.0
 11
120.9477466637
 21
211.2991569523
 31
0.0
  0
MTEXT
  5
184
330
16F
100
AcDbEntity
  8
SLD-0
100
AcDbMText
 10
111.9111101607
 20
215.8258506482
 30
0.1
 40
3.5
 41
0.0
 71
     1
 72
     1
  1
20
  7
SLDTEXTSTYLE0
 73
     1
 44
1.0
  0
ENDBLK
  5
17A
330
16F
100
AcDbEntity
  8
0
100
AcDbBlockEnd
  0
ENDSEC
  0
SECTION
  2
ENTITIES
  0
LINE
  5
58
330
1F
100
AcDbEntity
  8
SLD-0
  6
Continuous
 62
   179
100
AcDbLine
 10
20.2604743903
 20
285.0
 30
0.0
 11
196.7604743903
 21
285.0
 31
0.0
  0
LINE
  5
59
330
1F
100
AcDbEntity
  8
SLD-0
  6
Continuous
 62
   179
100
AcDbLine
 10
20.2604743903
 20
285.0
 30
0.0
 11
20.2604743903
 21
10.0
 31
0.0
  0
LINE
  5
5A
330
1F
100
AcDbEntity
  8
SLD-0
  6
Continuous
 62
   179
100
AcDbLine
 10
20.2604743903
 20
10.0
 30
0.0
 11
196.7604743903
 21
10.0
 31
0.0
  0
LINE
  5
5B
330
1F
100
AcDbEntity
  8
SLD-0
  6
Continuous
 62
   179
100
AcDbLine
 10
196.7604743903
 20
285.0
 30
0.0
 11
196.7604743903
 21
10.0
 31
0.0
  0
LINE
  5
5C
330
1F
100
AcDbEntity
  8
SLD-0
  6
Continuous
 62
   179
100
AcDbLine
 10
65.7604743903
 20
285.0
 30
0.0
 11
196.7604743903
 21
285.0
 31
0.0
  0
LINE
  5
5D
330
1F
100
AcDbEntity
  8
SLD-0
  6
Continuous
 62
   179
100
AcDbLine
 10
196.7604743903
 20
285.0
 30
0.0
 11
196.7604743903
 21
264.25
 31
0.0
  0
LINE
  5
5E
330
1F
100
AcDbEntity
  8
SLD-0
  6
Continuous
 62
   179
100
AcDbLine
 10
127.0104743903
 20
50.75
 30
0.0
 11
196.7604743903
 21
50.75
 31
0.0
  0
LINE
  5
5F
330
1F
100
AcDbEntity
  8
SLD-0
  6
Continuous
 62
   179
100
AcDbLine
 10
127.0104743903
 20
50.75
 30
0.0
 11
127.0104743903
 21
10.0
 31
0.0
  0
LINE
  5
60
330
1F
100
AcDbEntity
  8
SLD-0
  6
Continuous
 62
   179
100
AcDbLine
 10
127.0104743903
 20
22.75
 30
0.0
 11
196.7604743903
 21
22.75
 31
0.0
  0
LINE
  5
61
330
1F
100
AcDbEntity
  8
SLD-0
  6
Continuous
 62
   179
100
AcDbLine
 10
127.0104743903
 20
36.75
 30
0.0
 11
196.7604743903
 21
36.75
 31
0.0
  0
LINE
  5
62
330
1F
100
AcDbEntity
  8
SLD-0
  6
Continuous
 62
   179
100
AcDbLine
 10
128.9477466637
 20
148.076322697
 30
0.0
 11
119.9268770353
 21
148.076322697
 31
0.0
  0
LINE
  5
63
330
1F
100
AcDbEntity
  8
SLD-0
  6
Continuous
 62
   179
100
AcDbLine
 10
128.9477466637
 20
140.576322697
 30
0.0
 11
128.9477466637
 21
148.076322697
 31
0.0
  0
LINE
  5
64
330
1F
100
AcDbEntity
  8
SLD-0
  6
Continuous
 62
   179
100
AcDbLine
 10
98.9477466637
 20
140.576322697
 30
0.0
 11
128.9477466637
 21
140.576322697
 31
0.0
  0
LINE
  5
65
330
1F
100
AcDbEntity
  8
SLD-0
  6
Continuous
 62
   179
100
AcDbLine
 10
98.9477466637
 20
148.076322697
 30
0.0
 11
98.9477466637
 21
140.576322697
 31
0.0
  0
LINE
  5
66
330
1F
100
AcDbEntity
  8
SLD-0
  6
Continuous
 62
   179
100
AcDbLine
 10
107.9686162922
 20
148.076322697
 30
0.0
 11
98.9477466637
 21
148.076322697
 31
0.0
  0
LINE
  5
67
330
1F
100
AcDbEntity
  8
SLD-0
  6
Continuous
 62
   179
100
AcDbLine
 10
128.9477466637
 20
156.576322697
 30
0.0
 11
98.9477466637
 21
156.576322697
 31
0.0
  0
LINE
  5
68
330
1F
100
AcDbEntity
  8
SLD-0
  6
Continuous
 62
   179
100
AcDbLine
 10
98.9477466637
 20
149.076322697
 30
0.0
 11
107.9686162922
 21
149.076322697
 31
0.0
  0
LINE
  5
69
330
1F
100
AcDbEntity
  8
SLD-0
  6
Continuous
 62
   179
100
AcDbLine
 10
98.9477466637
 20
156.576322697
 30
0.0
 11
98.9477466637
 21
149.076322697
 31
0.0
  0
LINE
  5
6A
330
1F
100
AcDbEntity
  8
SLD-0
  6
Continuous
 62
   179
100
AcDbLine
 10
128.9477466637
 20
149.076322697
 30
0.0
 11
128.9477466637
 21
156.576322697
 31
0.0
  0
LINE
  5
6B
330
1F
100
AcDbEntity
  8
SLD-0
  6
Continuous
 62
   179
100
AcDbLine
 10
119.9268770353
 20
149.076322697
 30
0.0
 11
128.9477466637
 21
149.076322697
 31
0.0
  0
LINE
  5
6C
330
1F
100
AcDbEntity
  8
SLD-0
  6
HIDDEN
 62
   179
100
AcDbLine
 10
121.4477466637
 20
148.076322697
 30
0.0
 11
121.4477466637
 21
140.576322697
 31
0.0
  0
LINE
  5
6D
330
1F
100
AcDbEntity
  8
SLD-0
  6
HIDDEN
 62
   179
100
AcDbLine
 10
126.4477466637
 20
140.576322697
 30
0.0
 11
126.4477466637
 21
148.076322697
 31
0.0
  0
LINE
  5
6E
330
1F
100
AcDbEntity
  8
SLD-0
  6
HIDDEN
 62
   179
100
AcDbLine
 10
101.4477466637
 20
148.076322697
 30
0.0
 11
101.4477466637
 21
140.576322697
 31
0.0
  0
LINE
  5
6F
330
1F
100
AcDbEntity
  8
SLD-0
  6
HIDDEN
 62
   179
100
AcDbLine
 10
106.4477466637
 20
140.576322697
 30
0.0
 11
106.4477466637
 21
148.076322697
 31
0.0
  0
LINE
  5
70
330
1F
100
AcDbEntity
  8
SLD-0
  6
HIDDEN
 62
   179
100
AcDbLine
 10
101.4477466637
 20
156.576322697
 30
0.0
 11
101.4477466637
 21
149.076322697
 31
0.0
  0
LINE
  5
71
330
1F
100
AcDbEntity
  8
SLD-0
  6
HIDDEN
 62
   179
100
AcDbLine
 10
106.4477466637
 20
149.076322697
 30
0.0
 11
106.4477466637
 21
156.576322697
 31
0.0
  0
LINE
  5
72
330
1F
100
AcDbEntity
  8
SLD-0
  6
HIDDEN
 62
   179
100
AcDbLine
 10
121.4477466637
 20
156.576322697
 30
0.0
 11
121.4477466637
 21
149.076322697
 31
0.0
  0
LINE
  5
73
330
1F
100
AcDbEntity
  8
SLD-0
  6
HIDDEN
 62
   179
100
AcDbLine
 10
126.4477466637
 20
149.076322697
 30
0.0
 11
126.4477466637
 21
156.576322697
 31
0.0
  0
LINE
  5
74
330
1F
100
AcDbEntity
  8
SLD-0
  6
CENTERX2
 62
   179
100
AcDbLine
 10
103.9477466637
 20
139.0492822469
 30
0.0
 11
103.9477466637
 21
158.576322697
 31
0.0
  0
LINE
  5
75
330
1F
100
AcDbEntity
  8
SLD-0
  6
CENTERX2
 62
   179
100
AcDbLine
 10
123.9477466637
 20
138.6778952927
 30
0.0
 11
123.9477466637
 21
158.576322697
 31
0.0
  0
LINE
  5
76
330
1F
100
AcDbEntity
  8
SLD-0
  6
Continuous
 62
   179
100
AcDbLine
 10
128.9477466637
 20
183.2469822302
 30
0.0
 11
128.9477466637
 21
199.2469822302
 31
0.0
  0
LINE
  5
77
330
1F
100
AcDbEntity
  8
SLD-0
  6
Continuous
 62
   179
100
AcDbLine
 10
128.9477466637
 20
183.2469822302
 30
0.0
 11
98.9477466637
 21
183.2469822302
 31
0.0
  0
LINE
  5
78
330
1F
100
AcDbEntity
  8
SLD-0
  6
Continuous
 62
   179
100
AcDbLine
 10
128.9477466637
 20
199.2469822302
 30
0.0
 11
98.9477466637
 21
199.2469822302
 31
0.0
  0
LINE
  5
79
330
1F
100
AcDbEntity
  8
SLD-0
  6
Continuous
 62
   179
100
AcDbLine
 10
98.9477466637
 20
183.2469822302
 30
0.0
 11
98.9477466637
 21
199.2469822302
 31
0.0
  0
LINE
  5
7A
330
1F
100
AcDbEntity
  8
SLD-0
  6
HIDDEN
 62
   179
100
AcDbLine
 10
107.9686162922
 20
183.2469822302
 30
0.0
 11
107.9686162922
 21
199.2469822302
 31
0.0
  0
LINE
  5
7B
330
1F
100
AcDbEntity
  8
SLD-0
  6
HIDDEN
 62
   179
100
AcDbLine
 10
119.9268770353
 20
183.2469822302
 30
0.0
 11
119.9268770353
 21
199.2469822302
 31
0.0
  0
LINE
  5
7C
330
1F
100
AcDbEntity
  8
SLD-0
  6
CENTERX2
 62
   179
100
AcDbLine
 10
113.9477466637
 20
181.2469822302
 30
0.0
 11
113.9477466637
 21
201.2469822302
 31
0.0
  0
ARC
  5
7D
330
1F
100
AcDbEntity
  8
SLD-0
  6
Continuous
 62
   179
100
AcDbCircle
 10
113.9477466637
 20
148.576322697
 30
0.0
 40
6.000000000049123
100
AcDbArc
 50
184.7801918586
 51
355.2198081528
  0
ARC
  5
7E
330
1F
100
AcDbEntity
  8
SLD-0
  6
Continuous
 62
   179
100
AcDbCircle
 10
113.9477466637
 20
148.576322697
 30
0.0
 40
6.000000000049123
100
AcDbArc
 50
4.7801918472
 51
175.2198081414
  0
CIRCLE
  5
7F
330
1F
100
AcDbEntity
  8
SLD-0
  6
Continuous
 62
   179
100
AcDbCircle
 10
123.9477466637
 20
191.2469822302
 30
0.0
 40
2.500000000000014
  0
CIRCLE
  5
80
330
1F
100
AcDbEntity
  8
SLD-0
  6
Continuous
 62
   179
100
AcDbCircle
 10
103.9477466637
 20
191.2469822302
 30
0.0
 40
2.5
  0
DIMENSION
  5
81
330
1F
100
AcDbEntity
  8
SLD-0
 62
     7
100
AcDbDimension
  2
*D5
 10
90.6805917349
 20
156.576322697
 30
0.0
 11
90.6805917349
 21
162.4914514329
 31
0.0
 70
   160
 71
     1
 42
7.5
  3
SLDDIMSTYLE0
100
AcDbAlignedDimension
 13
98.9477466637
 23
149.076322697
 33
0.0
 14
98.9477466637
 24
156.576322697
 34
0.0
 50
90.0
100
AcDbRotatedDimension
1001
ACAD
1000
DSTYLE
1002
{
1070
    77
1070
     3
1070
   143
1040
0.0393700787
1070
    41
1040
3.0
1070
    44
1040
1.0
1070
    42
1040
1.0
1070
   147
1040
1.524
1070
    73
1070
     0
1070
    74
1070
     0
1070
   140
1040
3.5
1070
   284
1070
    12
1070
    78
1070
    12
1002
}
  0
DIMENSION
  5
A2
330
1F
100
AcDbEntity
  8
SLD-0
100
AcDbDimension
  2
*D7
 10
90.6805917349
 20
148.076322697
 30
0.0
 11
90.6805917349
 21
148.576322697
 31
0.0
 70
   160
 71
     1
 42
1.0
  3
SLDDIMSTYLE1
100
AcDbAlignedDimension
 13
98.9477466637
 23
149.076322697
 33
0.0
 14
98.9477466637
 24
148.076322697
 34
0.0
 50
90.0
100
AcDbRotatedDimension
1001
ACAD
1000
DSTYLE
1002
{
1070
    77
1070
     3
1070
   143
1040
0.0393700787
1070
    41
1040
3.0
1070
    44
1040
1.0
1070
    42
1040
1.0
1070
   147
1040
1.524
1070
    73
1070
     0
1070
    74
1070
     0
1070
   140
1040
3.5
1070
   284
1070
    12
1070
    78
1070
    12
1002
}
  0
DIMENSION
  5
C0
330
1F
100
AcDbEntity
  8
SLD-0
100
AcDbDimension
  2
*D8
 10
90.6805917349
 20
140.576322697
 30
0.0
 11
90.6805917349
 21
144.326322697
 31
0.0
 70
   160
 71
     1
 42
7.5
  3
SLDDIMSTYLE0
100
AcDbAlignedDimension
 13
98.9477466637
 23
148.076322697
 33
0.0
 14
98.9477466637
 24
140.576322697
 34
0.0
 50
90.0
100
AcDbRotatedDimension
1001
ACAD
1000
DSTYLE
1002
{
1070
    77
1070
     3
1070
   143
1040
0.0393700787
1070
    41
1040
3.0
1070
    44
1040
1.0
1070
    42
1040
1.0
1070
   147
1040
1.524
1070
    73
1070
     0
1070
    74
1070
     0
1070
   140
1040
3.5
1070
   284
1070
    12
1070
    78
1070
    12
1002
}
  0
DIMENSION
  5
DA
330
1F
100
AcDbEntity
  8
SLD-0
100
AcDbDimension
  2
*D9
 10
98.9477466637
 20
165.5867874152
 30
0.0
 11
106.4477466637
 21
165.5867874152
 31
0.0
 70
   160
 71
     1
 42
15.0
  3
SLDDIMSTYLE1
100
AcDbAlignedDimension
 13
113.9477466637
 23
157.076322697
 33
0.0
 14
98.9477466637
 24
156.576322697
 34
0.0
100
AcDbRotatedDimension
1001
ACAD
1000
DSTYLE
1002
{
1070
    77
1070
     3
1070
   143
1040
0.0393700787
1070
    41
1040
3.0
1070
    44
1040
1.0
1070
    42
1040
1.0
1070
   147
1040
1.524
1070
    73
1070
     0
1070
    74
1070
     0
1070
   140
1040
3.5
1070
   284
1070
    12
1070
    78
1070
    12
1002
}
  0
DIMENSION
  5
F1
330
1F
100
AcDbEntity
  8
SLD-0
 62
     7
100
AcDbDimension
  2
*D10
 10
75.3168746171
 20
156.576322697
 30
0.0
 11
75.3168746171
 21
148.576322697
 31
0.0
 70
   160
  1
(<>)
 71
     1
 42
16.0
  3
SLDDIMSTYLE1
100
AcDbAlignedDimension
 13
98.9477466637
 23
140.576322697
 33
0.0
 14
98.9477466637
 24
156.576322697
 34
0.0
 50
90.0
100
AcDbRotatedDimension
1001
ACAD
1000
DSTYLE
1002
{
1070
    77
1070
     3
1070
   143
1040
0.0393700787
1070
    41
1040
3.0
1070
    44
1040
1.0
1070
    42
1040
1.0
1070
   147
1040
1.524
1070
    73
1070
     0
1070
    74
1070
     0
1070
   140
1040
3.5
1070
   284
1070
    12
1070
    78
1070
    12
1002
}
  0
DIMENSION
  5
10B
330
1F
100
AcDbEntity
  8
SLD-0
 62
     7
100
AcDbDimension
  2
*D11
 10
77.881660338
 20
199.2469822302
 30
0.0
 11
77.881660338
 21
191.2469822302
 31
0.0
 70
   160
 71
     1
 42
16.0
  3
SLDDIMSTYLE1
100
AcDbAlignedDimension
 13
128.9477466637
 23
183.2469822302
 33
0.0
 14
128.9477466637
 24
199.2469822302
 34
0.0
 50
90.0
100
AcDbRotatedDimension
1001
ACAD
1000
DSTYLE
1002
{
1070
    77
1070
     3
1070
   143
1040
0.0393700787
1070
    41
1040
3.0
1070
    44
1040
1.0
1070
    42
1040
1.0
1070
   147
1040
1.524
1070
    73
1070
     0
1070
    74
1070
     0
1070
   140
1040
3.5
1070
   284
1070
    12
1070
    78
1070
    12
1002
}
  0
DIMENSION
  5
123
330
1F
100
AcDbEntity
  8
SLD-0
 62
     7
100
AcDbDimension
  2
*D12
 10
128.9477466637
 20
219.7151761179
 30
0.0
 11
113.9477466637
 21
219.7151761179
 31
0.0
 70
   160
 71
     1
 42
30.0
  3
SLDDIMSTYLE1
100
AcDbAlignedDimension
 13
98.9477466637
 23
191.2469822302
 33
0.0
 14
128.9477466637
 24
191.2469822302
 34
0.0
100
AcDbRotatedDimension
1001
ACAD
1000
DSTYLE
1002
{
1070
    77
1070
     3
1070
   143
1040
0.0393700787
1070
    41
1040
3.0
1070
    44
1040
1.0
1070
    42
1040
1.0
1070
   147
1040
1.524
1070
    73
1070
     0
1070
    74
1070
     0
1070
   140
1040
3.5
1070
   284
1070
    12
1070
    78
1070
    12
1002
}
  0
DIMENSION
  5
13A
330
1F
100
AcDbEntity
  8
SLD-0
100
AcDbDimension
  2
*D13
 10
89.3798847256
 20
183.2469822302
 30
0.0
 11
89.3798847256
 21
187.2469822302
 31
0.0
 70
   160
 71
     1
 42
8.0
  3
SLDDIMSTYLE1
100
AcDbAlignedDimension
 13
98.9477466637
 23
191.2469822302
 33
0.0
 14
98.9477466637
 24
183.2469822302
 34
0.0
 50
90.0
100
AcDbRotatedDimension
1001
ACAD
1000
DSTYLE
1002
{
1070
    77
1070
     3
1070
   143
1040
0.0393700787
1070
    41
1040
3.0
1070
    44
1040
1.0
1070
    42
1040
1.0
1070
   147
1040
1.524
1070
    73
1070
     0
1070
    74
1070
     0
1070
   140
1040
3.5
1070
   284
1070
    12
1070
    78
1070
    12
1002
}
  0
DIMENSION
  5
154
330
1F
100
AcDbEntity
  8
SLD-0
100
AcDbDimension
  2
*D14
 10
98.9477466637
 20
211.2991569523
 30
0.0
 11
101.4477466637
 21
211.2991569523
 31
0.0
 70
   160
 71
     1
 42
5.0
  3
SLDDIMSTYLE1
100
AcDbAlignedDimension
 13
103.9477466637
 23
196.2469822302
 33
0.0
 14
98.9477466637
 24
199.2469822302
 34
0.0
100
AcDbRotatedDimension
1001
ACAD
1000
DSTYLE
1002
{
1070
    77
1070
     3
1070
   143
1040
0.0393700787
1070
    41
1040
3.0
1070
    44
1040
1.0
1070
    42
1040
1.0
1070
   147
1040
1.524
1070
    73
1070
     0
1070
    74
1070
     0
1070
   140
1040
3.5
1070
   284
1070
    12
1070
    78
1070
    12
1002
}
  0
DIMENSION
  5
16E
330
1F
100
AcDbEntity
  8
SLD-0
100
AcDbDimension
  2
*D15
 10
103.9477466637
 20
211.2991569523
 30
0.0
 11
113.9477466637
 21
211.2991569523
 31
0.0
 70
   160
 71
     1
 42
20.0
  3
SLDDIMSTYLE1
100
AcDbAlignedDimension
 13
123.9477466637
 23
196.2469822302
 33
0.0
 14
103.9477466637
 24
196.2469822302
 34
0.0
100
AcDbRotatedDimension
1001
ACAD
1000
DSTYLE
1002
{
1070
    77
1070
     3
1070
   143
1040
0.0393700787
1070
    41
1040
3.0
1070
    44
1040
1.0
1070
    42
1040
1.0
1070
   147
1040
1.524
1070
    73
1070
     0
1070
    74
1070
     0
1070
   140
1040
3.5
1070
   284
1070
    12
1070
    78
1070
    12
1002
}
  0
MTEXT
  5
185
330
1F
100
AcDbEntity
  8
SLD-0
 62
     7
100
AcDbMText
 10
151.0095547853
 20
19.2662335325
 30
0.0
 40
4.2333333333
 41
0.0
 71
     1
 72
     1
  1
131068
  7
SLDTEXTSTYLE1
 73
     1
 44
1.0
  0
MTEXT
  5
186
330
1F
100
AcDbEntity
  8
SLD-0
 62
     7
100
AcDbMText
 10
147.4024732131
 20
29.7138882404
 30
0.0
 40
4.2333333333
 41
0.0
 71
     1
 72
     1
  1
N01915-106-1
  7
SLDTEXTSTYLE1
 73
     1
 44
1.0
  0
MTEXT
  5
188
330
1F
100
AcDbEntity
  8
SLD-0
 62
     7
100
AcDbMText
 10
152.0670788943
 20
43.2377018572
 30
0.0
 40
4.2333333333
 41
0.0
 71
     1
 72
     1
  1
12 BKT W
  7
SLDTEXTSTYLE2
 73
     1
 44
1.0
  0
INSERT
  5
189
330
1F
100
AcDbEntity
  8
0
  6
Continuous
 62
     7
370
     0
100
AcDbBlockReference
  2
注記
 10
104.186237828
 20
63.4199483964
 30
0.0
  0
INSERT
  5
18A
330
1F
100
AcDbEntity
  8
0
  6
Continuous
 62
     7
370
     0
100
AcDbBlockReference
  2
SW_CENTERMARK0
 10
0.0
 20
0.0
 30
0.0
  0
INSERT
  5
18B
330
1F
100
AcDbEntity
  8
0
  6
Continuous
 62
     7
370
     0
100
AcDbBlockReference
  2
SW_CENTERMARK1
 10
0.0
 20
0.0
 30
0.0
  0
INSERT
  5
18C
330
1F
100
AcDbEntity
  8
0
  6
Continuous
 62
     7
370
     0
100
AcDbBlockReference
  2
SW_CENTERMARK2
 10
0.0
 20
0.0
 30
0.0
  0
ENDSEC
  0
SECTION
  2
OBJECTS
  0
DICTIONARY
  5
C
330
0
100
AcDbDictionary
281
     1
  3
ACAD_GROUP
350
D
  3
ACAD_LAYOUT
350
1A
  3
ACAD_MLINESTYLE
350
17
  3
ACAD_PLOTSETTINGS
350
19
  3
ACAD_PLOTSTYLENAME
350
E
  0
DICTIONARY
  5
D
102
{ACAD_REACTORS
330
C
102
}
330
C
100
AcDbDictionary
281
     1
  0
DICTIONARY
  5
1A
102
{ACAD_REACTORS
330
C
102
}
330
C
100
AcDbDictionary
281
     1
  3
Layout1
350
1E
  3
Layout2
350
26
  3
Model
350
22
  0
DICTIONARY
  5
17
102
{ACAD_REACTORS
330
C
102
}
330
C
100
AcDbDictionary
281
     1
  3
Standard
350
18
  0
DICTIONARY
  5
19
102
{ACAD_REACTORS
330
C
102
}
330
C
100
AcDbDictionary
281
     1
  0
ACDBDICTIONARYWDFLT
  5
E
102
{ACAD_REACTORS
330
C
102
}
330
C
100
AcDbDictionary
281
     1
  3
Normal
350
F
100
AcDbDictionaryWithDefault
340
F
  0
LAYOUT
  5
1E
102
{ACAD_REACTORS
330
1A
102
}
330
1A
100
AcDbPlotSettings
  1

  2

  4

  6

 40
0.0
 41
0.0
 42
0.0
 43
0.0
 44
0.0
 45
0.0
 46
0.0
 47
0.0
 48
0.0
 49
0.0
140
0.0
141
0.0
142
1.0
143
1.0
 70
   688
 72
     0
 73
     0
 74
     5
  7

 75
    16
147
1.0
148
0.0
149
0.0
100
AcDbLayout
  1
Layout1
 70
     1
 71
     1
 10
0.0
 20
0.0
 11
0.0
 21
0.0
 12
0.0
 22
0.0
 32
0.0
 14
0.0
 24
0.0
 34
0.0
 15
0.0
 25
0.0
 35
0.0
146
0.0
 13
0.0
 23
0.0
 33
0.0
 16
1.0
 26
0.0
 36
0.0
 17
0.0
 27
1.0
 37
0.0
 76
     0
330
1B
  0
LAYOUT
  5
26
102
{ACAD_REACTORS
330
1A
102
}
330
1A
100
AcDbPlotSettings
  1

  2

  4

  6

 40
0.0
 41
0.0
 42
0.0
 43
0.0
 44
0.0
 45
0.0
 46
0.0
 47
0.0
 48
0.0
 49
0.0
140
0.0
141
0.0
142
1.0
143
1.0
 70
   688
 72
     0
 73
     0
 74
     5
  7

 75
    16
147
1.0
148
0.0
149
0.0
100
AcDbLayout
  1
Layout2
 70
     1
 71
     2
 10
0.0
 20
0.0
 11
0.0
 21
0.0
 12
0.0
 22
0.0
 32
0.0
 14
0.0
 24
0.0
 34
0.0
 15
0.0
 25
0.0
 35
0.0
146
0.0
 13
0.0
 23
0.0
 33
0.0
 16
1.0
 26
0.0
 36
0.0
 17
0.0
 27
1.0
 37
0.0
 76
     0
330
23
  0
LAYOUT
  5
22
102
{ACAD_REACTORS
330
1A
102
}
330
1A
100
AcDbPlotSettings
  1

  2

  4

  6

 40
0.0
 41
0.0
 42
0.0
 43
0.0
 44
0.0
 45
0.0
 46
0.0
 47
0.0
 48
0.0
 49
0.0
140
0.0
141
0.0
142
1.0
143
1.0
 70
  1712
 72
     0
 73
     0
 74
     0
  7

 75
     0
147
1.0
148
0.0
149
0.0
100
AcDbLayout
  1
Model
 70
     1
 71
     0
 10
0.0
 20
0.0
 11
0.0
 21
0.0
 12
0.0
 22
0.0
 32
0.0
 14
0.0
 24
0.0
 34
0.0
 15
210.0
 25
297.0
 35
0.0
146
0.0
 13
0.0
 23
0.0
 33
0.0
 16
1.0
 26
0.0
 36
0.0
 17
0.0
 27
1.0
 37
0.0
 76
     0
330
1F
  0
MLINESTYLE
  5
18
102
{ACAD_REACTORS
330
17
102
}
330
17
100
AcDbMlineStyle
  2
Standard
 70
     0
  3

 62
   256
 51
90.0
 52
90.0
 71
     2
 49
0.5
 62
   256
  6
BYLAYER
 49
-0.5
 62
   256
  6
BYLAYER
  0
ACDBPLACEHOLDER
  5
F
102
{ACAD_REACTORS
330
E
102
}
330
E
  0
ENDSEC
  0
EOF
