  0
SECTION
  2
HEADER
  9
$ACADVER
  1
AC1015
  9
$ACADMAINTVER
 70
     6
  9
$DWGCODEPAGE
  3
DOS932
  9
$INSBASE
 10
0.0
 20
0.0
 30
0.0
  9
$EXTMIN
 10
0.0
 20
0.0
 30
0.0
  9
$EXTMAX
 10
210.0
 20
297.0
 30
0.0
  9
$LIMMIN
 10
0.0
 20
0.0
  9
$LIMMAX
 10
0.0
 20
0.0
  9
$ORTHOMODE
 70
     0
  9
$REGENMODE
 70
     1
  9
$FILLMODE
 70
     1
  9
$QTEXTMODE
 70
     0
  9
$MIRRTEXT
 70
     1
  9
$LTSCALE
 40
1.0
  9
$ATTMODE
 70
     1
  9
$TEXTSIZE
 40
3.5
  9
$TRACEWID
 40
1.0
  9
$TEXTSTYLE
  7
Standard
  9
$CLAYER
  8
0
  9
$CELTYPE
  6
ByLayer
  9
$CECOLOR
 62
   256
  9
$CELTSCALE
 40
1.0
  9
$DISPSILH
 70
     0
  9
$DIMSCALE
 40
1.0
  9
$DIMASZ
 40
3.0
  9
$DIMEXO
 40
1.0
  9
$DIMDLI
 40
3.75
  9
$DIMRND
 40
0.0
  9
$DIMDLE
 40
0.0
  9
$DIMEXE
 40
1.0
  9
$DIMTP
 40
0.0
  9
$DIMTM
 40
0.0
  9
$DIMTXT
 40
3.5
  9
$DIMCEN
 40
2.5
  9
$DIMTSZ
 40
0.0
  9
$DIMTOL
 70
     0
  9
$DIMLIM
 70
     0
  9
$DIMTIH
 70
     1
  9
$DIMTOH
 70
     1
  9
$DIMSE1
 70
     0
  9
$DIMSE2
 70
     0
  9
$DIMTAD
 70
     1
  9
$DIMZIN
 70
     1
  9
$DIMBLK
  1

  9
$DIMASO
 70
     1
  9
$DIMSHO
 70
     1
  9
$DIMPOST
  1

  9
$DIMAPOST
  1

  9
$DIMALT
 70
     0
  9
$DIMALTD
 70
     3
  9
$DIMALTF
 40
0.0393700787
  9
$DIMLFAC
 40
1.0
  9
$DIMTOFL
 70
     1
  9
$DIMTVP
 40
0.0
  9
$DIMTIX
 70
     0
  9
$DIMSOXD
 70
     0
  9
$DIMSAH
 70
     0
  9
$DIMBLK1
  1

  9
$DIMBLK2
  1

  9
$DIMSTYLE
  2
ISO-25
  9
$DIMCLRD
 70
     0
  9
$DIMCLRE
 70
     0
  9
$DIMCLRT
 70
     0
  9
$DIMTFAC
 40
1.0
  9
$DIMGAP
 40
1.524
  9
$DIMJUST
 70
     0
  9
$DIMSD1
 70
     0
  9
$DIMSD2
 70
     0
  9
$DIMTOLJ
 70
     0
  9
$DIMTZIN
 70
     1
  9
$DIMALTZ
 70
     0
  9
$DIMALTTZ
 70
     0
  9
$DIMUPT
 70
     0
  9
$DIMDEC
 70
     2
  9
$DIMTDEC
 70
     2
  9
$DIMALTU
 70
     2
  9
$DIMALTTD
 70
     3
  9
$DIMTXSTY
  7
Standard
  9
$DIMAUNIT
 70
     0
  9
$DIMADEC
 70
     0
  9
$DIMALTRND
 40
0.0
  9
$DIMAZIN
 70
     0
  9
$DIMDSEP
 70
    44
  9
$DIMATFIT
 70
     3
  9
$DIMFRAC
 70
     0
  9
$DIMLDRBLK
  1

  9
$DIMLUNIT
 70
     2
  9
$DIMLWD
 70
    -2
  9
$DIMLWE
 70
    -2
  9
$DIMTMOVE
 70
     0
  9
$LUNITS
 70
     2
  9
$LUPREC
 70
     1
  9
$SKETCHINC
 40
1.0
  9
$FILLETRAD
 40
10.0
  9
$AUNITS
 70
     0
  9
$AUPREC
 70
     0
  9
$MENU
  1
.
  9
$ELEVATION
 40
0.0
  9
$PELEVATION
 40
0.0
  9
$THICKNESS
 40
0.0
  9
$LIMCHECK
 70
     0
  9
$CHAMFERA
 40
10.0
  9
$CHAMFERB
 40
10.0
  9
$CHAMFERC
 40
20.0
  9
$CHAMFERD
 40
0.0
  9
$SKPOLY
 70
     0
  9
$TDCREATE
 40
2454322.440299838
  9
$TDUCREATE
 40
2454322.065299838
  9
$TDUPDATE
 40
2454322.44029985
  9
$TDUUPDATE
 40
2454322.06529985
  9
$TDINDWG
 40
0.0000000116
  9
$TDUSRTIMER
 40
0.0000000116
  9
$USRTIMER
 70
     1
  9
$ANGBASE
 50
0.0
  9
$ANGDIR
 70
     0
  9
$PDMODE
 70
     0
  9
$PDSIZE
 40
-1.0
  9
$PLINEWID
 40
0.0
  9
$SPLFRAME
 70
     0
  9
$SPLINETYPE
 70
     6
  9
$SPLINESEGS
 70
     8
  9
$HANDSEED
  5
16C
  9
$SURFTAB1
 70
     6
  9
$SURFTAB2
 70
     6
  9
$SURFTYPE
 70
     6
  9
$SURFU
 70
     6
  9
$SURFV
 70
     6
  9
$UCSBASE
  2

  9
$UCSNAME
  2

  9
$UCSORG
 10
0.0
 20
0.0
 30
0.0
  9
$UCSXDIR
 10
1.0
 20
0.0
 30
0.0
  9
$UCSYDIR
 10
0.0
 20
1.0
 30
0.0
  9
$UCSORTHOREF
  2

  9
$UCSORTHOVIEW
 70
     0
  9
$UCSORGTOP
 10
0.0
 20
0.0
 30
0.0
  9
$UCSORGBOTTOM
 10
0.0
 20
0.0
 30
0.0
  9
$UCSORGLEFT
 10
0.0
 20
0.0
 30
0.0
  9
$UCSORGRIGHT
 10
0.0
 20
0.0
 30
0.0
  9
$UCSORGFRONT
 10
0.0
 20
0.0
 30
0.0
  9
$UCSORGBACK
 10
0.0
 20
0.0
 30
0.0
  9
$PUCSBASE
  2

  9
$PUCSNAME
  2

  9
$PUCSORG
 10
0.0
 20
0.0
 30
0.0
  9
$PUCSXDIR
 10
1.0
 20
0.0
 30
0.0
  9
$PUCSYDIR
 10
0.0
 20
1.0
 30
0.0
  9
$PUCSORTHOREF
  2

  9
$PUCSORTHOVIEW
 70
     0
  9
$PUCSORGTOP
 10
0.0
 20
0.0
 30
0.0
  9
$PUCSORGBOTTOM
 10
0.0
 20
0.0
 30
0.0
  9
$PUCSORGLEFT
 10
0.0
 20
0.0
 30
0.0
  9
$PUCSORGRIGHT
 10
0.0
 20
0.0
 30
0.0
  9
$PUCSORGFRONT
 10
0.0
 20
0.0
 30
0.0
  9
$PUCSORGBACK
 10
0.0
 20
0.0
 30
0.0
  9
$USERI1
 70
     0
  9
$USERI2
 70
     0
  9
$USERI3
 70
     0
  9
$USERI4
 70
     0
  9
$USERI5
 70
     0
  9
$USERR1
 40
0.0
  9
$USERR2
 40
0.0
  9
$USERR3
 40
0.0
  9
$USERR4
 40
0.0
  9
$USERR5
 40
0.0
  9
$WORLDVIEW
 70
     1
  9
$SHADEDGE
 70
     3
  9
$SHADEDIF
 70
    70
  9
$TILEMODE
 70
     1
  9
$MAXACTVP
 70
    64
  9
$PINSBASE
 10
0.0
 20
0.0
 30
0.0
  9
$PLIMCHECK
 70
     0
  9
$PEXTMIN
 10
1.0000000000E+20
 20
1.0000000000E+20
 30
1.0000000000E+20
  9
$PEXTMAX
 10
-1.0000000000E+20
 20
-1.0000000000E+20
 30
-1.0000000000E+20
  9
$PLIMMIN
 10
0.0
 20
0.0
  9
$PLIMMAX
 10
420.0
 20
297.0
  9
$UNITMODE
 70
     0
  9
$VISRETAIN
 70
     1
  9
$PLINEGEN
 70
     0
  9
$PSLTSCALE
 70
     1
  9
$TREEDEPTH
 70
  3020
  9
$CMLSTYLE
  2
Standard
  9
$CMLJUST
 70
     0
  9
$CMLSCALE
 40
20.0
  9
$PROXYGRAPHICS
 70
     1
  9
$MEASUREMENT
 70
     1
  9
$CELWEIGHT
370
    -1
  9
$ENDCAPS
280
     0
  9
$JOINSTYLE
280
     0
  9
$LWDISPLAY
290
     1
  9
$INSUNITS
 70
     4
  9
$HYPERLINKBASE
  1

  9
$STYLESHEET
  1

  9
$XEDIT
290
     1
  9
$CEPSNTYPE
380
     0
  9
$PSTYLEMODE
290
     1
  9
$FINGERPRINTGUID
  2
{BF855136-CCE0-4DDB-ACD6-F07BF491334B}
  9
$VERSIONGUID
  2
{FAEB1C32-E019-11D5-929B-00C0DF256EC4}
  9
$EXTNAMES
290
     1
  9
$PSVPSCALE
 40
0.0
  9
$OLESTARTUP
290
     0
  0
ENDSEC
  0
SECTION
  2
CLASSES
  0
CLASS
  1
ACDBDICTIONARYWDFLT
  2
AcDbDictionaryWithDefault
  3
ObjectDBX Classes
 90
        0
280
     0
281
     0
  0
CLASS
  1
ACDBPLACEHOLDER
  2
AcDbPlaceHolder
  3
ObjectDBX Classes
 90
        0
280
     0
281
     0
  0
CLASS
  1
LAYOUT
  2
AcDbLayout
  3
ObjectDBX Classes
 90
        0
280
     0
281
     0
  0
ENDSEC
  0
SECTION
  2
TABLES
  0
TABLE
  2
VPORT
  5
8
330
0
100
AcDbSymbolTable
 70
     1
  0
VPORT
  5
29
330
8
100
AcDbSymbolTableRecord
100
AcDbViewportTableRecord
  2
*Active
 70
     0
 10
0.0
 20
0.0
 11
1.0
 21
1.0
 12
105.0
 22
148.5
 13
0.0
 23
0.0
 14
10.0
 24
10.0
 15
10.0
 25
10.0
 16
0.0
 26
0.0
 36
1.0
 17
0.0
 27
0.0
 37
0.0
 40
297.0
 41
1.9729729729
 42
50.0
 43
0.0
 44
0.0
 50
0.0
 51
0.0
 71
     0
 72
  2000
 73
     1
 74
     3
 75
     0
 76
     0
 77
     0
 78
     0
281
     0
 65
     1
110
0.0
120
0.0
130
0.0
111
1.0
121
0.0
131
0.0
112
0.0
122
1.0
132
0.0
 79
     0
146
0.0
  0
ENDTAB
  0
TABLE
  2
LTYPE
  5
5
330
0
100
AcDbSymbolTable
 70
     6
  0
LTYPE
  5
14
330
5
100
AcDbSymbolTableRecord
100
AcDbLinetypeTableRecord
  2
ByBlock
 70
     0
  3

 72
    65
 73
     0
 40
0.0
  0
LTYPE
  5
15
330
5
100
AcDbSymbolTableRecord
100
AcDbLinetypeTableRecord
  2
ByLayer
 70
     0
  3

 72
    65
 73
     0
 40
0.0
  0
LTYPE
  5
16
330
5
100
AcDbSymbolTableRecord
100
AcDbLinetypeTableRecord
  2
Continuous
 70
     0
  3
Solid line
 72
    65
 73
     0
 40
0.0
  0
LTYPE
  5
2A
330
5
100
AcDbSymbolTableRecord
100
AcDbLinetypeTableRecord
  2
HIDDEN
 70
     0
  3
Hidden __ __ __ __ __ __ __ __ __ __ __ __ __ __
 72
    65
 73
     2
 40
1.905
 49
1.27
 74
     0
 49
-0.635
 74
     0
  0
LTYPE
  5
2B
330
5
100
AcDbSymbolTableRecord
100
AcDbLinetypeTableRecord
  2
PHANTOM
 70
     0
  3
Phantom ______  __  __  ______  __  __  ______
 72
    65
 73
     6
 40
12.7
 49
6.35
 74
     0
 49
-1.27
 74
     0
 49
1.27
 74
     0
 49
-1.27
 74
     0
 49
1.27
 74
     0
 49
-1.27
 74
     0
  0
LTYPE
  5
2C
330
5
100
AcDbSymbolTableRecord
100
AcDbLinetypeTableRecord
  2
CENTER
 70
     0
  3
Center ____ _ ____ _ ____ _ ____ _ ____ _ ____
 72
    65
 73
     4
 40
10.16
 49
6.35
 74
     0
 49
-1.27
 74
     0
 49
1.27
 74
     0
 49
-1.27
 74
     0
  0
LTYPE
  5
2D
330
5
100
AcDbSymbolTableRecord
100
AcDbLinetypeTableRecord
  2
CENTERX2
 70
     0
  3
Center (2x) ________  __  ________  __  _____
 72
    65
 73
     4
 40
20.32
 49
12.7
 74
     0
 49
-2.54
 74
     0
 49
2.54
 74
     0
 49
-2.54
 74
     0
  0
LTYPE
  5
2E
330
5
100
AcDbSymbolTableRecord
100
AcDbLinetypeTableRecord
  2
DOT2
 70
     0
  3
Dot (.5x) ........................................
 72
    65
 73
     2
 40
0.635
 49
0.0
 74
     0
 49
-0.635
 74
     0
  0
ENDTAB
  0
TABLE
  2
LAYER
  5
2
330
0
100
AcDbSymbolTable
 70
     4
  0
LAYER
  5
10
330
2
100
AcDbSymbolTableRecord
100
AcDbLayerTableRecord
  2
0
 70
     0
 62
     7
  6
Continuous
370
    -3
390
F
  0
LAYER
  5
2F
330
2
100
AcDbSymbolTableRecord
100
AcDbLayerTableRecord
  2
SLD-0
 70
     0
 62
   179
  6
Continuous
370
     0
390
F
  0
LAYER
  5
30
330
2
100
AcDbSymbolTableRecord
100
AcDbLayerTableRecord
  2
SLD-DEFPOINTS
 70
     0
 62
   179
  6
Continuous
370
     0
390
F
  0
LAYER
  5
82
330
2
100
AcDbSymbolTableRecord
100
AcDbLayerTableRecord
  2
Defpoints
 70
     0
 62
     7
  6
Continuous
290
     0
370
    -3
390
F
  0
ENDTAB
  0
TABLE
  2
STYLE
  5
3
330
0
100
AcDbSymbolTable
 70
     4
  0
STYLE
  5
11
330
3
100
AcDbSymbolTableRecord
100
AcDbTextStyleTableRecord
  2
Standard
 70
     0
 40
0.0
 41
1.0
 50
0.0
 71
     0
 42
2.5
  3
txt
  4
bigfont
  0
STYLE
  5
34
330
3
100
AcDbSymbolTableRecord
100
AcDbTextStyleTableRecord
  2
SLDTEXTSTYLE0
 70
     0
 40
0.0
 41
0.7
 50
0.0
 71
     0
 42
0.2
  3
TXT
  4
bigfont
  0
STYLE
  5
90
330
3
100
AcDbSymbolTableRecord
100
AcDbTextStyleTableRecord
  2
SLDTEXTSTYLE1
 70
     0
 40
0.0
 41
0.5526315789
 50
0.0
 71
     0
 42
0.2
  3
TXT
  4
bigfont
  0
STYLE
  5
167
330
3
100
AcDbSymbolTableRecord
100
AcDbTextStyleTableRecord
  2
SLDTEXTSTYLE2
 70
     0
 40
0.0
 41
0.4346640316
 50
0.0
 71
     0
 42
0.2
  3
TXT
  4
bigfont
  0
ENDTAB
  0
TABLE
  2
VIEW
  5
6
330
0
100
AcDbSymbolTable
 70
     0
  0
ENDTAB
  0
TABLE
  2
UCS
  5
7
330
0
100
AcDbSymbolTable
 70
     0
  0
ENDTAB
  0
TABLE
  2
APPID
  5
9
330
0
100
AcDbSymbolTable
 70
     1
  0
APPID
  5
12
330
9
100
AcDbSymbolTableRecord
100
AcDbRegAppTableRecord
  2
ACAD
 70
     0
  0
ENDTAB
  0
TABLE
  2
DIMSTYLE
  5
A
330
0
100
AcDbSymbolTable
 70
     2
100
AcDbDimStyleTable
  0
DIMSTYLE
105
27
330
A
100
AcDbSymbolTableRecord
100
AcDbDimStyleTableRecord
  2
ISO-25
 70
     0
 41
2.5
 42
0.625
 43
3.75
 44
1.25
 73
     0
 74
     0
 77
     1
 78
     8
140
2.5
141
2.5
143
0.0393700787
147
0.625
171
     3
172
     1
271
     2
272
     2
274
     3
278
    44
283
     0
284
     8
340
11
  0
DIMSTYLE
105
91
102
{ACAD_REACTORS
330
81
330
A1
330
B8
330
D2
330
EC
330
104
330
11B
330
135
330
14F
102
}
330
A
100
AcDbSymbolTableRecord
100
AcDbDimStyleTableRecord
  2
SLDDIMSTYLE0
 70
     0
 41
3.0
 44
0.0
 73
     0
 74
     0
 77
     3
 78
    12
140
3.5
147
0.875
173
     1
271
     0
272
     2
284
    12
340
90
341
92
343
92
344
92
  0
ENDTAB
  0
TABLE
  2
BLOCK_RECORD
  5
1
330
0
100
AcDbSymbolTable
 70
    15
  0
BLOCK_RECORD
  5
1F
330
1
100
AcDbSymbolTableRecord
100
AcDbBlockTableRecord
  2
*Model_Space
340
22
  0
BLOCK_RECORD
  5
1B
330
1
100
AcDbSymbolTableRecord
100
AcDbBlockTableRecord
  2
*Paper_Space
340
1E
  0
BLOCK_RECORD
  5
23
330
1
100
AcDbSymbolTableRecord
100
AcDbBlockTableRecord
  2
*Paper_Space0
340
26
  0
BLOCK_RECORD
  5
31
330
1
100
AcDbSymbolTableRecord
100
AcDbBlockTableRecord
  2
注記
340
0
  0
BLOCK_RECORD
  5
37
330
1
100
AcDbSymbolTableRecord
100
AcDbBlockTableRecord
  2
SW_CENTERMARK0
340
0
102
{BLKREFS
331
169
102
}
  0
BLOCK_RECORD
  5
42
330
1
100
AcDbSymbolTableRecord
100
AcDbBlockTableRecord
  2
SW_CENTERMARK1
340
0
102
{BLKREFS
331
16A
102
}
  0
BLOCK_RECORD
  5
4D
330
1
100
AcDbSymbolTableRecord
100
AcDbBlockTableRecord
  2
SW_CENTERMARK2
340
0
102
{BLKREFS
331
16B
102
}
  0
BLOCK_RECORD
  5
83
330
1
100
AcDbSymbolTableRecord
100
AcDbBlockTableRecord
  2
*D5
340
0
  0
BLOCK_RECORD
  5
92
330
1
100
AcDbSymbolTableRecord
100
AcDbBlockTableRecord
  2
_None
340
0
102
{BLKREFS
331
88
331
87
331
A7
331
A6
331
BE
331
BD
331
D8
331
D7
331
F2
331
F1
331
10A
331
109
331
121
331
120
331
13B
331
13A
331
155
331
154
102
}
  0
BLOCK_RECORD
  5
A2
330
1
100
AcDbSymbolTableRecord
100
AcDbBlockTableRecord
  2
*D7
340
0
  0
BLOCK_RECORD
  5
B9
330
1
100
AcDbSymbolTableRecord
100
AcDbBlockTableRecord
  2
*D8
340
0
  0
BLOCK_RECORD
  5
D3
330
1
100
AcDbSymbolTableRecord
100
AcDbBlockTableRecord
  2
*D9
340
0
  0
BLOCK_RECORD
  5
ED
330
1
100
AcDbSymbolTableRecord
100
AcDbBlockTableRecord
  2
*D10
340
0
  0
BLOCK_RECORD
  5
105
330
1
100
AcDbSymbolTableRecord
100
AcDbBlockTableRecord
  2
*D11
340
0
  0
BLOCK_RECORD
  5
11C
330
1
100
AcDbSymbolTableRecord
100
AcDbBlockTableRecord
  2
*D12
340
0
  0
BLOCK_RECORD
  5
136
330
1
100
AcDbSymbolTableRecord
100
AcDbBlockTableRecord
  2
*D13
340
0
  0
BLOCK_RECORD
  5
150
330
1
100
AcDbSymbolTableRecord
100
AcDbBlockTableRecord
  2
*D14
340
0
  0
ENDTAB
  0
ENDSEC
  0
SECTION
  2
BLOCKS
  0
BLOCK
  5
20
330
1F
100
AcDbEntity
  8
0
100
AcDbBlockBegin
  2
*Model_Space
 70
     0
 71
     0
 10
0.0
 20
0.0
 30
0.0
  3
*Model_Space
  1

  0
ENDBLK
  5
21
330
1F
100
AcDbEntity
  8
0
100
AcDbBlockEnd
  0
BLOCK
  5
1C
330
1B
100
AcDbEntity
 67
     1
  8
0
100
AcDbBlockBegin
  2
*Paper_Space
 70
     0
 71
     0
 10
0.0
 20
0.0
 30
0.0
  3
*Paper_Space
  1

  0
ENDBLK
  5
1D
330
1B
100
AcDbEntity
 67
     1
  8
0
100
AcDbBlockEnd
  0
BLOCK
  5
24
330
23
100
AcDbEntity
  8
0
100
AcDbBlockBegin
  2
*Paper_Space0
 70
     0
 71
     0
 10
0.0
 20
0.0
 30
0.0
  3
*Paper_Space0
  1

  0
ENDBLK
  5
25
330
23
100
AcDbEntity
  8
0
100
AcDbBlockEnd
  0
BLOCK
  5
32
330
31
100
AcDbEntity
  8
0
100
AcDbBlockBegin
  2
注記
 70
     0
 71
     0
 10
0.0
 20
0.0
 30
0.0
  3
注記
  1

  0
MTEXT
  5
35
330
31
100
AcDbEntity
  8
0
  6
Continuous
 62
     7
370
     0
100
AcDbMText
 10
0.2636785918
 20
9.0739778448
 30
0.0
 40
3.5
 41
0.0
 71
     1
 72
     1
  1
１．特記ナキ角部ハ、バリ　カエリノ無キコト。
  7
SLDTEXTSTYLE0
 73
     1
 44
1.0
  0
MTEXT
  5
36
330
31
100
AcDbEntity
  8
0
  6
Continuous
 62
     7
370
     0
100
AcDbMText
 10
0.2636785918
 20
3.5759549983
 30
0.0
 40
3.5
 41
0.0
 71
     1
 72
     1
  1
２．特記ナキ隅部ハ、Ｒ０．４ＭＡＸトスル。
  7
SLDTEXTSTYLE0
 73
     1
 44
1.0
  0
ENDBLK
  5
33
330
31
100
AcDbEntity
  8
0
100
AcDbBlockEnd
  0
BLOCK
  5
38
330
37
100
AcDbEntity
  8
0
100
AcDbBlockBegin
  2
SW_CENTERMARK0
 70
     0
 71
     0
 10
0.0
 20
0.0
 30
0.0
  3
SW_CENTERMARK0
  1

  0
LINE
  5
3A
330
37
100
AcDbEntity
  8
SLD-0
  6
Continuous
 62
   179
100
AcDbLine
 10
109.2581927711
 20
145.7625903614
 30
0.0
 11
109.2581927711
 21
148.2625903614
 31
0.0
  0
LINE
  5
3B
330
37
100
AcDbEntity
  8
SLD-0
  6
Continuous
 62
   179
100
AcDbLine
 10
109.2581927711
 20
145.7625903614
 30
0.0
 11
106.7581927711
 21
145.7625903614
 31
0.0
  0
LINE
  5
3C
330
37
100
AcDbEntity
  8
SLD-0
  6
Continuous
 62
   179
100
AcDbLine
 10
109.2581927711
 20
145.7625903614
 30
0.0
 11
109.2581927711
 21
143.2625903614
 31
0.0
  0
LINE
  5
3D
330
37
100
AcDbEntity
  8
SLD-0
  6
Continuous
 62
   179
100
AcDbLine
 10
109.2581927711
 20
145.7625903614
 30
0.0
 11
111.7581927711
 21
145.7625903614
 31
0.0
  0
LINE
  5
3E
330
37
100
AcDbEntity
  8
SLD-0
  6
Continuous
 62
   179
100
AcDbLine
 10
109.2581927711
 20
150.7625903614
 30
0.0
 11
109.2581927711
 21
158.2625903614
 31
0.0
  0
LINE
  5
3F
330
37
100
AcDbEntity
  8
SLD-0
  6
Continuous
 62
   179
100
AcDbLine
 10
104.2581927711
 20
145.7625903614
 30
0.0
 11
96.7581927711
 21
145.7625903614
 31
0.0
  0
LINE
  5
40
330
37
100
AcDbEntity
  8
SLD-0
  6
Continuous
 62
   179
100
AcDbLine
 10
109.2581927711
 20
140.7625903614
 30
0.0
 11
109.2581927711
 21
133.2625903614
 31
0.0
  0
LINE
  5
41
330
37
100
AcDbEntity
  8
SLD-0
  6
Continuous
 62
   179
100
AcDbLine
 10
114.2581927711
 20
145.7625903614
 30
0.0
 11
121.7581927711
 21
145.7625903614
 31
0.0
  0
ENDBLK
  5
39
330
37
100
AcDbEntity
  8
0
100
AcDbBlockEnd
  0
BLOCK
  5
43
330
42
100
AcDbEntity
  8
0
100
AcDbBlockBegin
  2
SW_CENTERMARK1
 70
     0
 71
     0
 10
0.0
 20
0.0
 30
0.0
  3
SW_CENTERMARK1
  1

  0
LINE
  5
45
330
42
100
AcDbEntity
  8
SLD-0
  6
Continuous
 62
   179
100
AcDbLine
 10
124.2581927711
 20
191.2469822302
 30
0.0
 11
124.2581927711
 21
193.7469822302
 31
0.0
  0
LINE
  5
46
330
42
100
AcDbEntity
  8
SLD-0
  6
Continuous
 62
   179
100
AcDbLine
 10
124.2581927711
 20
191.2469822302
 30
0.0
 11
121.7581927711
 21
191.2469822302
 31
0.0
  0
LINE
  5
47
330
42
100
AcDbEntity
  8
SLD-0
  6
Continuous
 62
   179
100
AcDbLine
 10
124.2581927711
 20
191.2469822302
 30
0.0
 11
124.2581927711
 21
188.7469822302
 31
0.0
  0
LINE
  5
48
330
42
100
AcDbEntity
  8
SLD-0
  6
Continuous
 62
   179
100
AcDbLine
 10
124.2581927711
 20
191.2469822302
 30
0.0
 11
126.7581927711
 21
191.2469822302
 31
0.0
  0
LINE
  5
49
330
42
100
AcDbEntity
  8
SLD-0
  6
Continuous
 62
   179
100
AcDbLine
 10
124.2581927711
 20
196.2469822302
 30
0.0
 11
124.2581927711
 21
196.9969822302
 31
0.0
  0
LINE
  5
4A
330
42
100
AcDbEntity
  8
SLD-0
  6
Continuous
 62
   179
100
AcDbLine
 10
119.2581927711
 20
191.2469822302
 30
0.0
 11
118.5081927711
 21
191.2469822302
 31
0.0
  0
LINE
  5
4B
330
42
100
AcDbEntity
  8
SLD-0
  6
Continuous
 62
   179
100
AcDbLine
 10
124.2581927711
 20
186.2469822302
 30
0.0
 11
124.2581927711
 21
185.4969822302
 31
0.0
  0
LINE
  5
4C
330
42
100
AcDbEntity
  8
SLD-0
  6
Continuous
 62
   179
100
AcDbLine
 10
129.2581927711
 20
191.2469822302
 30
0.0
 11
130.0081927711
 21
191.2469822302
 31
0.0
  0
ENDBLK
  5
44
330
42
100
AcDbEntity
  8
0
100
AcDbBlockEnd
  0
BLOCK
  5
4E
330
4D
100
AcDbEntity
  8
0
100
AcDbBlockBegin
  2
SW_CENTERMARK2
 70
     0
 71
     0
 10
0.0
 20
0.0
 30
0.0
  3
SW_CENTERMARK2
  1

  0
LINE
  5
50
330
4D
100
AcDbEntity
  8
SLD-0
  6
Continuous
 62
   179
100
AcDbLine
 10
94.2581927711
 20
191.2469822302
 30
0.0
 11
94.2581927711
 21
193.7469822302
 31
0.0
  0
LINE
  5
51
330
4D
100
AcDbEntity
  8
SLD-0
  6
Continuous
 62
   179
100
AcDbLine
 10
94.2581927711
 20
191.2469822302
 30
0.0
 11
91.7581927711
 21
191.2469822302
 31
0.0
  0
LINE
  5
52
330
4D
100
AcDbEntity
  8
SLD-0
  6
Continuous
 62
   179
100
AcDbLine
 10
94.2581927711
 20
191.2469822302
 30
0.0
 11
94.2581927711
 21
188.7469822302
 31
0.0
  0
LINE
  5
53
330
4D
100
AcDbEntity
  8
SLD-0
  6
Continuous
 62
   179
100
AcDbLine
 10
94.2581927711
 20
191.2469822302
 30
0.0
 11
96.7581927711
 21
191.2469822302
 31
0.0
  0
LINE
  5
54
330
4D
100
AcDbEntity
  8
SLD-0
  6
Continuous
 62
   179
100
AcDbLine
 10
94.2581927711
 20
196.2469822302
 30
0.0
 11
94.2581927711
 21
196.9969822302
 31
0.0
  0
LINE
  5
55
330
4D
100
AcDbEntity
  8
SLD-0
  6
Continuous
 62
   179
100
AcDbLine
 10
89.2581927711
 20
191.2469822302
 30
0.0
 11
88.5081927711
 21
191.2469822302
 31
0.0
  0
LINE
  5
56
330
4D
100
AcDbEntity
  8
SLD-0
  6
Continuous
 62
   179
100
AcDbLine
 10
94.2581927711
 20
186.2469822302
 30
0.0
 11
94.2581927711
 21
185.4969822302
 31
0.0
  0
LINE
  5
57
330
4D
100
AcDbEntity
  8
SLD-0
  6
Continuous
 62
   179
100
AcDbLine
 10
99.2581927711
 20
191.2469822302
 30
0.0
 11
100.0081927711
 21
191.2469822302
 31
0.0
  0
ENDBLK
  5
4F
330
4D
100
AcDbEntity
  8
0
100
AcDbBlockEnd
  0
BLOCK
  5
8E
330
83
100
AcDbEntity
  8
0
100
AcDbBlockBegin
  2
*D5
 70
     1
 71
     0
 10
0.0
 20
0.0
 30
0.0
  3
*D5
  1

  0
ARC
  5
95
330
83
100
AcDbEntity
  8
SLD-0
100
AcDbCircle
 10
80.9910378423
 20
145.2625903614
 30
0.0
 40
0.75
100
AcDbArc
 50
90.0
 51
270.0
  0
ARC
  5
96
330
83
100
AcDbEntity
  8
SLD-0
100
AcDbCircle
 10
80.9910378423
 20
145.2625903614
 30
0.0
 40
0.75
100
AcDbArc
 50
270.0
 51
90.0
  0
LINE
  5
97
330
83
100
AcDbEntity
  8
SLD-0
100
AcDbLine
 10
88.2581927711
 20
132.2625903614
 30
0.0
 11
79.9910378423
 21
132.2625903614
 31
0.0
  0
LINE
  5
98
330
83
100
AcDbEntity
  8
SLD-0
100
AcDbLine
 10
88.2581927711
 20
145.2625903614
 30
0.0
 11
79.9910378423
 21
145.2625903614
 31
0.0
  0
LINE
  5
99
330
83
100
AcDbEntity
  8
SLD-0
100
AcDbLine
 10
80.9910378423
 20
132.2625903614
 30
0.0
 11
80.9910378423
 21
127.2625903614
 31
0.0
  0
LINE
  5
9A
330
83
100
AcDbEntity
  8
SLD-0
100
AcDbLine
 10
80.9910378423
 20
132.2625903614
 30
0.0
 11
80.9910378423
 21
145.2625903614
 31
0.0
  0
LINE
  5
9B
330
83
100
AcDbEntity
  8
SLD-0
100
AcDbLine
 10
80.9910378423
 20
145.2625903614
 30
0.0
 11
80.9910378423
 21
150.2625903614
 31
0.0
  0
LINE
  5
9C
330
83
100
AcDbEntity
  8
SLD-0
100
AcDbLine
 10
80.1871908423
 20
129.2625903614
 30
0.0
 11
80.9910378423
 21
132.2625903614
 31
0.0
  0
LINE
  5
9D
330
83
100
AcDbEntity
  8
SLD-0
100
AcDbLine
 10
80.9910378423
 20
132.2625903614
 30
0.0
 11
81.7948848423
 21
129.2625903614
 31
0.0
  0
LINE
  5
9E
330
83
100
AcDbEntity
  8
SLD-0
100
AcDbLine
 10
80.9910378423
 20
132.2625903614
 30
0.0
 11
80.9910378423
 21
129.2625903614
 31
0.0
  0
LINE
  5
9F
330
83
100
AcDbEntity
  8
SLD-0
100
AcDbLine
 10
80.9910378423
 20
146.7625903614
 30
0.0
 11
80.9910378423
 21
148.2625903614
 31
0.0
  0
MTEXT
  5
A0
330
83
100
AcDbEntity
  8
SLD-0
100
AcDbMText
 10
76.4643441463
 20
136.7271551383
 30
0.1
 40
3.5
 41
0.0
 71
     1
 72
     1
  1
13
  7
SLDTEXTSTYLE0
 11
6.123031769111886E-17
 21
1.0
 31
0.0
 73
     1
 44
1.0
  0
ENDBLK
  5
8F
330
83
100
AcDbEntity
  8
0
100
AcDbBlockEnd
  0
BLOCK
  5
93
330
92
100
AcDbEntity
  8
0
100
AcDbBlockBegin
  2
_None
 70
     0
 71
     0
 10
0.0
 20
0.0
 30
0.0
  3
_None
  1

  0
ENDBLK
  5
94
330
92
100
AcDbEntity
  8
0
100
AcDbBlockEnd
  0
BLOCK
  5
AC
330
A2
100
AcDbEntity
  8
0
100
AcDbBlockBegin
  2
*D7
 70
     1
 71
     0
 10
0.0
 20
0.0
 30
0.0
  3
*D7
  1

  0
LINE
  5
AE
330
A2
100
AcDbEntity
  8
SLD-0
100
AcDbLine
 10
89.2581927711
 20
160.2625903614
 30
0.0
 11
89.2581927711
 21
169.2730550796
 31
0.0
  0
LINE
  5
AF
330
A2
100
AcDbEntity
  8
SLD-0
100
AcDbLine
 10
109.2581927711
 20
159.2625903614
 30
0.0
 11
109.2581927711
 21
169.2730550796
 31
0.0
  0
LINE
  5
B0
330
A2
100
AcDbEntity
  8
SLD-0
100
AcDbLine
 10
89.2581927711
 20
168.2730550796
 30
0.0
 11
109.2581927711
 21
168.2730550796
 31
0.0
  0
LINE
  5
B1
330
A2
100
AcDbEntity
  8
SLD-0
100
AcDbLine
 10
92.2581927711
 20
167.4692080796
 30
0.0
 11
89.2581927711
 21
168.2730550796
 31
0.0
  0
LINE
  5
B2
330
A2
100
AcDbEntity
  8
SLD-0
100
AcDbLine
 10
89.2581927711
 20
168.2730550796
 30
0.0
 11
92.2581927711
 21
169.0769020796
 31
0.0
  0
LINE
  5
B3
330
A2
100
AcDbEntity
  8
SLD-0
100
AcDbLine
 10
89.2581927711
 20
168.2730550796
 30
0.0
 11
92.2581927711
 21
168.2730550796
 31
0.0
  0
LINE
  5
B4
330
A2
100
AcDbEntity
  8
SLD-0
100
AcDbLine
 10
106.2581927711
 20
169.0769020796
 30
0.0
 11
109.2581927711
 21
168.2730550796
 31
0.0
  0
LINE
  5
B5
330
A2
100
AcDbEntity
  8
SLD-0
100
AcDbLine
 10
109.2581927711
 20
168.2730550796
 30
0.0
 11
106.2581927711
 21
167.4692080796
 31
0.0
  0
LINE
  5
B6
330
A2
100
AcDbEntity
  8
SLD-0
100
AcDbLine
 10
109.2581927711
 20
168.2730550796
 30
0.0
 11
106.2581927711
 21
168.2730550796
 31
0.0
  0
MTEXT
  5
B7
330
A2
100
AcDbEntity
  8
SLD-0
100
AcDbMText
 10
97.2227575479
 20
172.7997487755
 30
0.1
 40
3.5
 41
0.0
 71
     1
 72
     1
  1
20
  7
SLDTEXTSTYLE0
 73
     1
 44
1.0
  0
ENDBLK
  5
AD
330
A2
100
AcDbEntity
  8
0
100
AcDbBlockEnd
  0
BLOCK
  5
C4
330
B9
100
AcDbEntity
  8
0
100
AcDbBlockBegin
  2
*D8
 70
     1
 71
     0
 10
0.0
 20
0.0
 30
0.0
  3
*D8
  1

  0
ARC
  5
C6
330
B9
100
AcDbEntity
  8
SLD-0
100
AcDbCircle
 10
80.9910378423
 20
146.2625903614
 30
0.0
 40
0.75
100
AcDbArc
 50
270.0
 51
90.0
  0
ARC
  5
C7
330
B9
100
AcDbEntity
  8
SLD-0
100
AcDbCircle
 10
80.9910378423
 20
146.2625903614
 30
0.0
 40
0.75
100
AcDbArc
 50
90.0
 51
270.0
  0
LINE
  5
C8
330
B9
100
AcDbEntity
  8
SLD-0
100
AcDbLine
 10
88.2581927711
 20
159.2625903614
 30
0.0
 11
79.9910378423
 21
159.2625903614
 31
0.0
  0
LINE
  5
C9
330
B9
100
AcDbEntity
  8
SLD-0
100
AcDbLine
 10
88.2581927711
 20
146.2625903614
 30
0.0
 11
79.9910378423
 21
146.2625903614
 31
0.0
  0
LINE
  5
CA
330
B9
100
AcDbEntity
  8
SLD-0
100
AcDbLine
 10
80.9910378423
 20
159.2625903614
 30
0.0
 11
80.9910378423
 21
164.2625903614
 31
0.0
  0
LINE
  5
CB
330
B9
100
AcDbEntity
  8
SLD-0
100
AcDbLine
 10
80.9910378423
 20
159.2625903614
 30
0.0
 11
80.9910378423
 21
146.2625903614
 31
0.0
  0
LINE
  5
CC
330
B9
100
AcDbEntity
  8
SLD-0
100
AcDbLine
 10
80.9910378423
 20
146.2625903614
 30
0.0
 11
80.9910378423
 21
141.2625903614
 31
0.0
  0
LINE
  5
CD
330
B9
100
AcDbEntity
  8
SLD-0
100
AcDbLine
 10
81.7948848423
 20
162.2625903614
 30
0.0
 11
80.9910378423
 21
159.2625903614
 31
0.0
  0
LINE
  5
CE
330
B9
100
AcDbEntity
  8
SLD-0
100
AcDbLine
 10
80.9910378423
 20
159.2625903614
 30
0.0
 11
80.1871908423
 21
162.2625903614
 31
0.0
  0
LINE
  5
CF
330
B9
100
AcDbEntity
  8
SLD-0
100
AcDbLine
 10
80.9910378423
 20
159.2625903614
 30
0.0
 11
80.9910378423
 21
162.2625903614
 31
0.0
  0
LINE
  5
D0
330
B9
100
AcDbEntity
  8
SLD-0
100
AcDbLine
 10
80.9910378423
 20
144.7625903614
 30
0.0
 11
80.9910378423
 21
143.2625903614
 31
0.0
  0
MTEXT
  5
D1
330
B9
100
AcDbEntity
  8
SLD-0
100
AcDbMText
 10
76.4643441463
 20
150.7271551383
 30
0.1
 40
3.5
 41
0.0
 71
     1
 72
     1
  1
13
  7
SLDTEXTSTYLE0
 11
6.123031769111886E-17
 21
1.0
 31
0.0
 73
     1
 44
1.0
  0
ENDBLK
  5
C5
330
B9
100
AcDbEntity
  8
0
100
AcDbBlockEnd
  0
BLOCK
  5
DE
330
D3
100
AcDbEntity
  8
0
100
AcDbBlockBegin
  2
*D9
 70
     1
 71
     0
 10
0.0
 20
0.0
 30
0.0
  3
*D9
  1

  0
ARC
  5
E0
330
D3
100
AcDbEntity
  8
SLD-0
 62
     7
100
AcDbCircle
 10
137.6698058149
 20
146.2105255846
 30
0.0
 40
4.55137152279999
100
AcDbArc
 50
243.4349488229
 51
296.5650511771
  0
ARC
  5
E1
330
D3
100
AcDbEntity
  8
SLD-0
 62
     7
100
AcDbCircle
 10
137.6698058149
 20
145.3146551383
 30
0.0
 40
4.55137152279999
100
AcDbArc
 50
63.4349488229
 51
116.5650511771
  0
LINE
  5
E2
330
D3
100
AcDbEntity
  8
SLD-0
 62
     7
100
AcDbLine
 10
130.2581927711
 20
159.2625903614
 30
0.0
 11
140.705241038
 21
159.2625903614
 31
0.0
  0
LINE
  5
E3
330
D3
100
AcDbEntity
  8
SLD-0
 62
     7
100
AcDbLine
 10
130.2581927711
 20
132.2625903614
 30
0.0
 11
140.705241038
 21
132.2625903614
 31
0.0
  0
LINE
  5
E4
330
D3
100
AcDbEntity
  8
SLD-0
 62
     7
100
AcDbLine
 10
139.705241038
 20
159.2625903614
 30
0.0
 11
139.705241038
 21
132.2625903614
 31
0.0
  0
LINE
  5
E5
330
D3
100
AcDbEntity
  8
SLD-0
 62
     7
100
AcDbLine
 10
138.901394038
 20
156.2625903614
 30
0.0
 11
139.705241038
 21
159.2625903614
 31
0.0
  0
LINE
  5
E6
330
D3
100
AcDbEntity
  8
SLD-0
 62
     7
100
AcDbLine
 10
139.705241038
 20
159.2625903614
 30
0.0
 11
140.509088038
 21
156.2625903614
 31
0.0
  0
LINE
  5
E7
330
D3
100
AcDbEntity
  8
SLD-0
 62
     7
100
AcDbLine
 10
139.705241038
 20
159.2625903614
 30
0.0
 11
139.705241038
 21
156.2625903614
 31
0.0
  0
LINE
  5
E8
330
D3
100
AcDbEntity
  8
SLD-0
 62
     7
100
AcDbLine
 10
140.509088038
 20
135.2625903614
 30
0.0
 11
139.705241038
 21
132.2625903614
 31
0.0
  0
LINE
  5
E9
330
D3
100
AcDbEntity
  8
SLD-0
 62
     7
100
AcDbLine
 10
139.705241038
 20
132.2625903614
 30
0.0
 11
138.901394038
 21
135.2625903614
 31
0.0
  0
LINE
  5
EA
330
D3
100
AcDbEntity
  8
SLD-0
 62
     7
100
AcDbLine
 10
139.705241038
 20
132.2625903614
 30
0.0
 11
139.705241038
 21
135.2625903614
 31
0.0
  0
MTEXT
  5
EB
330
D3
100
AcDbEntity
  8
SLD-0
 62
     7
100
AcDbMText
 10
135.1785473421
 20
143.7271551383
 30
0.1
 40
3.5
 41
0.0
 71
     1
 72
     1
  1
27
  7
SLDTEXTSTYLE0
 11
6.123031769111886E-17
 21
1.0
 31
0.0
 73
     1
 44
1.0
  0
ENDBLK
  5
DF
330
D3
100
AcDbEntity
  8
0
100
AcDbBlockEnd
  0
BLOCK
  5
F8
330
ED
100
AcDbEntity
  8
0
100
AcDbBlockBegin
  2
*D10
 70
     1
 71
     0
 10
0.0
 20
0.0
 30
0.0
  3
*D10
  1

  0
LINE
  5
FA
330
ED
100
AcDbEntity
  8
SLD-0
 62
     7
100
AcDbLine
 10
128.2581927711
 20
199.2469822302
 30
0.0
 11
69.26640633
 21
199.2469822302
 31
0.0
  0
LINE
  5
FB
330
ED
100
AcDbEntity
  8
SLD-0
 62
     7
100
AcDbLine
 10
128.2581927711
 20
183.2469822302
 30
0.0
 11
69.26640633
 21
183.2469822302
 31
0.0
  0
LINE
  5
FC
330
ED
100
AcDbEntity
  8
SLD-0
 62
     7
100
AcDbLine
 10
70.26640633
 20
199.2469822302
 30
0.0
 11
70.26640633
 21
183.2469822302
 31
0.0
  0
LINE
  5
FD
330
ED
100
AcDbEntity
  8
SLD-0
 62
     7
100
AcDbLine
 10
69.46255933
 20
196.2469822302
 30
0.0
 11
70.26640633
 21
199.2469822302
 31
0.0
  0
LINE
  5
FE
330
ED
100
AcDbEntity
  8
SLD-0
 62
     7
100
AcDbLine
 10
70.26640633
 20
199.2469822302
 30
0.0
 11
71.07025333
 21
196.2469822302
 31
0.0
  0
LINE
  5
FF
330
ED
100
AcDbEntity
  8
SLD-0
 62
     7
100
AcDbLine
 10
70.26640633
 20
199.2469822302
 30
0.0
 11
70.26640633
 21
196.2469822302
 31
0.0
  0
LINE
  5
100
330
ED
100
AcDbEntity
  8
SLD-0
 62
     7
100
AcDbLine
 10
71.07025333
 20
186.2469822302
 30
0.0
 11
70.26640633
 21
183.2469822302
 31
0.0
  0
LINE
  5
101
330
ED
100
AcDbEntity
  8
SLD-0
 62
     7
100
AcDbLine
 10
70.26640633
 20
183.2469822302
 30
0.0
 11
69.46255933
 21
186.2469822302
 31
0.0
  0
LINE
  5
102
330
ED
100
AcDbEntity
  8
SLD-0
 62
     7
100
AcDbLine
 10
70.26640633
 20
183.2469822302
 30
0.0
 11
70.26640633
 21
186.2469822302
 31
0.0
  0
MTEXT
  5
103
330
ED
100
AcDbEntity
  8
SLD-0
 62
     7
100
AcDbMText
 10
65.739712634
 20
189.2115470071
 30
0.1
 40
3.5
 41
0.0
 71
     1
 72
     1
  1
16
  7
SLDTEXTSTYLE0
 11
6.123031769111886E-17
 21
1.0
 31
0.0
 73
     1
 44
1.0
  0
ENDBLK
  5
F9
330
ED
100
AcDbEntity
  8
0
100
AcDbBlockEnd
  0
BLOCK
  5
10F
330
105
100
AcDbEntity
  8
0
100
AcDbBlockBegin
  2
*D11
 70
     1
 71
     0
 10
0.0
 20
0.0
 30
0.0
  3
*D11
  1

  0
LINE
  5
111
330
105
100
AcDbEntity
  8
SLD-0
 62
     7
100
AcDbLine
 10
129.2581927711
 20
192.2469822302
 30
0.0
 11
129.2581927711
 21
223.5680196994
 31
0.0
  0
LINE
  5
112
330
105
100
AcDbEntity
  8
SLD-0
 62
     7
100
AcDbLine
 10
89.2581927711
 20
192.2469822302
 30
0.0
 11
89.2581927711
 21
223.5680196994
 31
0.0
  0
LINE
  5
113
330
105
100
AcDbEntity
  8
SLD-0
 62
     7
100
AcDbLine
 10
129.2581927711
 20
222.5680196994
 30
0.0
 11
89.2581927711
 21
222.5680196994
 31
0.0
  0
LINE
  5
114
330
105
100
AcDbEntity
  8
SLD-0
 62
     7
100
AcDbLine
 10
126.2581927711
 20
223.3718666994
 30
0.0
 11
129.2581927711
 21
222.5680196994
 31
0.0
  0
LINE
  5
115
330
105
100
AcDbEntity
  8
SLD-0
 62
     7
100
AcDbLine
 10
129.2581927711
 20
222.5680196994
 30
0.0
 11
126.2581927711
 21
221.7641726994
 31
0.0
  0
LINE
  5
116
330
105
100
AcDbEntity
  8
SLD-0
 62
     7
100
AcDbLine
 10
129.2581927711
 20
222.5680196994
 30
0.0
 11
126.2581927711
 21
222.5680196994
 31
0.0
  0
LINE
  5
117
330
105
100
AcDbEntity
  8
SLD-0
 62
     7
100
AcDbLine
 10
92.2581927711
 20
221.7641726994
 30
0.0
 11
89.2581927711
 21
222.5680196994
 31
0.0
  0
LINE
  5
118
330
105
100
AcDbEntity
  8
SLD-0
 62
     7
100
AcDbLine
 10
89.2581927711
 20
222.5680196994
 30
0.0
 11
92.2581927711
 21
223.3718666994
 31
0.0
  0
LINE
  5
119
330
105
100
AcDbEntity
  8
SLD-0
 62
     7
100
AcDbLine
 10
89.2581927711
 20
222.5680196994
 30
0.0
 11
92.2581927711
 21
222.5680196994
 31
0.0
  0
MTEXT
  5
11A
330
105
100
AcDbEntity
  8
SLD-0
 62
     7
100
AcDbMText
 10
107.2227575479
 20
227.0947133953
 30
0.1
 40
3.5
 41
0.0
 71
     1
 72
     1
  1
40
  7
SLDTEXTSTYLE0
 73
     1
 44
1.0
  0
ENDBLK
  5
110
330
105
100
AcDbEntity
  8
0
100
AcDbBlockEnd
  0
BLOCK
  5
127
330
11C
100
AcDbEntity
  8
0
100
AcDbBlockBegin
  2
*D12
 70
     1
 71
     0
 10
0.0
 20
0.0
 30
0.0
  3
*D12
  1

  0
LINE
  5
129
330
11C
100
AcDbEntity
  8
SLD-0
100
AcDbLine
 10
88.2581927711
 20
183.2469822302
 30
0.0
 11
78.690330833
 21
183.2469822302
 31
0.0
  0
LINE
  5
12A
330
11C
100
AcDbEntity
  8
SLD-0
100
AcDbLine
 10
87.5081927711
 20
191.2469822302
 30
0.0
 11
78.690330833
 21
191.2469822302
 31
0.0
  0
LINE
  5
12B
330
11C
100
AcDbEntity
  8
SLD-0
100
AcDbLine
 10
79.690330833
 20
183.2469822302
 30
0.0
 11
79.690330833
 21
178.2469822302
 31
0.0
  0
LINE
  5
12C
330
11C
100
AcDbEntity
  8
SLD-0
100
AcDbLine
 10
79.690330833
 20
183.2469822302
 30
0.0
 11
79.690330833
 21
191.2469822302
 31
0.0
  0
LINE
  5
12D
330
11C
100
AcDbEntity
  8
SLD-0
100
AcDbLine
 10
79.690330833
 20
191.2469822302
 30
0.0
 11
79.690330833
 21
196.2469822302
 31
0.0
  0
LINE
  5
12E
330
11C
100
AcDbEntity
  8
SLD-0
100
AcDbLine
 10
78.886483833
 20
180.2469822302
 30
0.0
 11
79.690330833
 21
183.2469822302
 31
0.0
  0
LINE
  5
12F
330
11C
100
AcDbEntity
  8
SLD-0
100
AcDbLine
 10
79.690330833
 20
183.2469822302
 30
0.0
 11
80.494177833
 21
180.2469822302
 31
0.0
  0
LINE
  5
130
330
11C
100
AcDbEntity
  8
SLD-0
100
AcDbLine
 10
79.690330833
 20
183.2469822302
 30
0.0
 11
79.690330833
 21
180.2469822302
 31
0.0
  0
LINE
  5
131
330
11C
100
AcDbEntity
  8
SLD-0
100
AcDbLine
 10
80.494177833
 20
194.2469822302
 30
0.0
 11
79.690330833
 21
191.2469822302
 31
0.0
  0
LINE
  5
132
330
11C
100
AcDbEntity
  8
SLD-0
100
AcDbLine
 10
79.690330833
 20
191.2469822302
 30
0.0
 11
78.886483833
 21
194.2469822302
 31
0.0
  0
LINE
  5
133
330
11C
100
AcDbEntity
  8
SLD-0
100
AcDbLine
 10
79.690330833
 20
191.2469822302
 30
0.0
 11
79.690330833
 21
194.2469822302
 31
0.0
  0
MTEXT
  5
134
330
11C
100
AcDbEntity
  8
SLD-0
100
AcDbMText
 10
75.163637137
 20
186.2292646186
 30
0.1
 40
3.5
 41
0.0
 71
     1
 72
     1
  1
8
  7
SLDTEXTSTYLE0
 11
6.123031769111886E-17
 21
1.0
 31
0.0
 73
     1
 44
1.0
  0
ENDBLK
  5
128
330
11C
100
AcDbEntity
  8
0
100
AcDbBlockEnd
  0
BLOCK
  5
141
330
136
100
AcDbEntity
  8
0
100
AcDbBlockBegin
  2
*D13
 70
     1
 71
     0
 10
0.0
 20
0.0
 30
0.0
  3
*D13
  1

  0
LINE
  5
143
330
136
100
AcDbEntity
  8
SLD-0
100
AcDbLine
 10
89.2581927711
 20
200.2469822302
 30
0.0
 11
89.2581927711
 21
211.8426633368
 31
0.0
  0
LINE
  5
144
330
136
100
AcDbEntity
  8
SLD-0
100
AcDbLine
 10
94.2581927711
 20
197.9969822302
 30
0.0
 11
94.2581927711
 21
211.8426633368
 31
0.0
  0
LINE
  5
145
330
136
100
AcDbEntity
  8
SLD-0
100
AcDbLine
 10
89.2581927711
 20
210.8426633368
 30
0.0
 11
84.2581927711
 21
210.8426633368
 31
0.0
  0
LINE
  5
146
330
136
100
AcDbEntity
  8
SLD-0
100
AcDbLine
 10
89.2581927711
 20
210.8426633368
 30
0.0
 11
94.2581927711
 21
210.8426633368
 31
0.0
  0
LINE
  5
147
330
136
100
AcDbEntity
  8
SLD-0
100
AcDbLine
 10
94.2581927711
 20
210.8426633368
 30
0.0
 11
99.2581927711
 21
210.8426633368
 31
0.0
  0
LINE
  5
148
330
136
100
AcDbEntity
  8
SLD-0
100
AcDbLine
 10
86.2581927711
 20
211.6465103368
 30
0.0
 11
89.2581927711
 21
210.8426633368
 31
0.0
  0
LINE
  5
149
330
136
100
AcDbEntity
  8
SLD-0
100
AcDbLine
 10
89.2581927711
 20
210.8426633368
 30
0.0
 11
86.2581927711
 21
210.0388163368
 31
0.0
  0
LINE
  5
14A
330
136
100
AcDbEntity
  8
SLD-0
100
AcDbLine
 10
89.2581927711
 20
210.8426633368
 30
0.0
 11
86.2581927711
 21
210.8426633368
 31
0.0
  0
LINE
  5
14B
330
136
100
AcDbEntity
  8
SLD-0
100
AcDbLine
 10
97.2581927711
 20
210.0388163368
 30
0.0
 11
94.2581927711
 21
210.8426633368
 31
0.0
  0
LINE
  5
14C
330
136
100
AcDbEntity
  8
SLD-0
100
AcDbLine
 10
94.2581927711
 20
210.8426633368
 30
0.0
 11
97.2581927711
 21
211.6465103368
 31
0.0
  0
LINE
  5
14D
330
136
100
AcDbEntity
  8
SLD-0
100
AcDbLine
 10
94.2581927711
 20
210.8426633368
 30
0.0
 11
97.2581927711
 21
210.8426633368
 31
0.0
  0
MTEXT
  5
14E
330
136
100
AcDbEntity
  8
SLD-0
100
AcDbMText
 10
90.7404751595
 20
215.3693570328
 30
0.1
 40
3.5
 41
0.0
 71
     1
 72
     1
  1
5
  7
SLDTEXTSTYLE0
 73
     1
 44
1.0
  0
ENDBLK
  5
142
330
136
100
AcDbEntity
  8
0
100
AcDbBlockEnd
  0
BLOCK
  5
15A
330
150
100
AcDbEntity
  8
0
100
AcDbBlockBegin
  2
*D14
 70
     1
 71
     0
 10
0.0
 20
0.0
 30
0.0
  3
*D14
  1

  0
LINE
  5
15C
330
150
100
AcDbEntity
  8
SLD-0
100
AcDbLine
 10
94.2581927711
 20
197.9969822302
 30
0.0
 11
94.2581927711
 21
211.8426633368
 31
0.0
  0
LINE
  5
15D
330
150
100
AcDbEntity
  8
SLD-0
100
AcDbLine
 10
124.2581927711
 20
197.9969822302
 30
0.0
 11
124.2581927711
 21
211.8426633368
 31
0.0
  0
LINE
  5
15E
330
150
100
AcDbEntity
  8
SLD-0
100
AcDbLine
 10
94.2581927711
 20
210.8426633368
 30
0.0
 11
124.2581927711
 21
210.8426633368
 31
0.0
  0
LINE
  5
15F
330
150
100
AcDbEntity
  8
SLD-0
100
AcDbLine
 10
97.2581927711
 20
210.0388163368
 30
0.0
 11
94.2581927711
 21
210.8426633368
 31
0.0
  0
LINE
  5
160
330
150
100
AcDbEntity
  8
SLD-0
100
AcDbLine
 10
94.2581927711
 20
210.8426633368
 30
0.0
 11
97.2581927711
 21
211.6465103368
 31
0.0
  0
LINE
  5
161
330
150
100
AcDbEntity
  8
SLD-0
100
AcDbLine
 10
94.2581927711
 20
210.8426633368
 30
0.0
 11
97.2581927711
 21
210.8426633368
 31
0.0
  0
LINE
  5
162
330
150
100
AcDbEntity
  8
SLD-0
100
AcDbLine
 10
121.2581927711
 20
211.6465103368
 30
0.0
 11
124.2581927711
 21
210.8426633368
 31
0.0
  0
LINE
  5
163
330
150
100
AcDbEntity
  8
SLD-0
100
AcDbLine
 10
124.2581927711
 20
210.8426633368
 30
0.0
 11
121.2581927711
 21
210.0388163368
 31
0.0
  0
LINE
  5
164
330
150
100
AcDbEntity
  8
SLD-0
100
AcDbLine
 10
124.2581927711
 20
210.8426633368
 30
0.0
 11
121.2581927711
 21
210.8426633368
 31
0.0
  0
MTEXT
  5
165
330
150
100
AcDbEntity
  8
SLD-0
100
AcDbMText
 10
107.2227575479
 20
215.3693570328
 30
0.1
 40
3.5
 41
0.0
 71
     1
 72
     1
  1
30
  7
SLDTEXTSTYLE0
 73
     1
 44
1.0
  0
ENDBLK
  5
15B
330
150
100
AcDbEntity
  8
0
100
AcDbBlockEnd
  0
ENDSEC
  0
SECTION
  2
ENTITIES
  0
LINE
  5
58
330
1F
100
AcDbEntity
  8
SLD-0
  6
Continuous
 62
   179
100
AcDbLine
 10
20.2604743903
 20
285.0
 30
0.0
 11
196.7604743903
 21
285.0
 31
0.0
  0
LINE
  5
59
330
1F
100
AcDbEntity
  8
SLD-0
  6
Continuous
 62
   179
100
AcDbLine
 10
20.2604743903
 20
285.0
 30
0.0
 11
20.2604743903
 21
10.0
 31
0.0
  0
LINE
  5
5A
330
1F
100
AcDbEntity
  8
SLD-0
  6
Continuous
 62
   179
100
AcDbLine
 10
20.2604743903
 20
10.0
 30
0.0
 11
196.7604743903
 21
10.0
 31
0.0
  0
LINE
  5
5B
330
1F
100
AcDbEntity
  8
SLD-0
  6
Continuous
 62
   179
100
AcDbLine
 10
196.7604743903
 20
285.0
 30
0.0
 11
196.7604743903
 21
10.0
 31
0.0
  0
LINE
  5
5C
330
1F
100
AcDbEntity
  8
SLD-0
  6
Continuous
 62
   179
100
AcDbLine
 10
65.7604743903
 20
285.0
 30
0.0
 11
196.7604743903
 21
285.0
 31
0.0
  0
LINE
  5
5D
330
1F
100
AcDbEntity
  8
SLD-0
  6
Continuous
 62
   179
100
AcDbLine
 10
196.7604743903
 20
285.0
 30
0.0
 11
196.7604743903
 21
264.25
 31
0.0
  0
LINE
  5
5E
330
1F
100
AcDbEntity
  8
SLD-0
  6
Continuous
 62
   179
100
AcDbLine
 10
127.0104743903
 20
50.75
 30
0.0
 11
127.0104743903
 21
22.75
 31
0.0
  0
LINE
  5
5F
330
1F
100
AcDbEntity
  8
SLD-0
  6
Continuous
 62
   179
100
AcDbLine
 10
127.0104743903
 20
22.75
 30
0.0
 11
196.7604743903
 21
22.75
 31
0.0
  0
LINE
  5
60
330
1F
100
AcDbEntity
  8
SLD-0
  6
Continuous
 62
   179
100
AcDbLine
 10
127.0104743903
 20
36.75
 30
0.0
 11
196.7604743903
 21
36.75
 31
0.0
  0
LINE
  5
61
330
1F
100
AcDbEntity
  8
SLD-0
  6
Continuous
 62
   179
100
AcDbLine
 10
194.7104602959
 20
50.75
 30
0.0
 11
127.0104743903
 21
50.75
 31
0.0
  0
LINE
  5
62
330
1F
100
AcDbEntity
  8
SLD-0
  6
Continuous
 62
   179
100
AcDbLine
 10
129.258192324
 20
159.2625907116
 30
0.0
 11
89.2581932181
 21
159.2625907116
 31
0.0
  0
LINE
  5
63
330
1F
100
AcDbEntity
  8
SLD-0
  6
Continuous
 62
   179
100
AcDbLine
 10
129.258192324
 20
146.2625903852
 30
0.0
 11
129.258192324
 21
159.2625907116
 31
0.0
  0
LINE
  5
64
330
1F
100
AcDbEntity
  8
SLD-0
  6
Continuous
 62
   179
100
AcDbLine
 10
119.2456849488
 20
146.2625903614
 30
0.0
 11
129.258192324
 21
146.2625903852
 31
0.0
  0
LINE
  5
65
330
1F
100
AcDbEntity
  8
SLD-0
  6
Continuous
 62
   179
100
AcDbLine
 10
89.2581932181
 20
146.2625903852
 30
0.0
 11
99.2707005934
 21
146.2625903614
 31
0.0
  0
LINE
  5
66
330
1F
100
AcDbEntity
  8
SLD-0
  6
Continuous
 62
   179
100
AcDbLine
 10
89.2581932181
 20
159.2625907116
 30
0.0
 11
89.2581932181
 21
146.2625903852
 31
0.0
  0
LINE
  5
67
330
1F
100
AcDbEntity
  8
SLD-0
  6
Continuous
 62
   179
100
AcDbLine
 10
129.258192324
 20
145.2625903377
 30
0.0
 11
119.2456849488
 21
145.2625903614
 31
0.0
  0
LINE
  5
68
330
1F
100
AcDbEntity
  8
SLD-0
  6
Continuous
 62
   179
100
AcDbLine
 10
99.2707005934
 20
145.2625903614
 30
0.0
 11
89.2581932181
 21
145.2625903377
 31
0.0
  0
LINE
  5
69
330
1F
100
AcDbEntity
  8
SLD-0
  6
Continuous
 62
   179
100
AcDbLine
 10
129.258192324
 20
132.2625900113
 30
0.0
 11
129.258192324
 21
145.2625903377
 31
0.0
  0
LINE
  5
6A
330
1F
100
AcDbEntity
  8
SLD-0
  6
Continuous
 62
   179
100
AcDbLine
 10
89.2581932181
 20
132.2625900113
 30
0.0
 11
129.258192324
 21
132.2625900113
 31
0.0
  0
LINE
  5
6B
330
1F
100
AcDbEntity
  8
SLD-0
  6
Continuous
 62
   179
100
AcDbLine
 10
89.2581932181
 20
145.2625903377
 30
0.0
 11
89.2581932181
 21
132.2625900113
 31
0.0
  0
LINE
  5
6C
330
1F
100
AcDbEntity
  8
SLD-0
  6
HIDDEN
 62
     8
100
AcDbLine
 10
91.0081930393
 20
159.2625907116
 30
0.0
 11
91.0081930393
 21
146.2625903852
 31
0.0
  0
LINE
  5
6D
330
1F
100
AcDbEntity
  8
SLD-0
  6
HIDDEN
 62
     8
100
AcDbLine
 10
97.5081931734
 20
146.2625903852
 30
0.0
 11
97.5081931734
 21
159.2625907116
 31
0.0
  0
LINE
  5
6E
330
1F
100
AcDbEntity
  8
SLD-0
  6
HIDDEN
 62
     8
100
AcDbLine
 10
121.0081923688
 20
159.2625907116
 30
0.0
 11
121.0081923688
 21
146.2625903852
 31
0.0
  0
LINE
  5
6F
330
1F
100
AcDbEntity
  8
SLD-0
  6
HIDDEN
 62
     8
100
AcDbLine
 10
127.5081925029
 20
146.2625903852
 30
0.0
 11
127.5081925029
 21
159.2625907116
 31
0.0
  0
LINE
  5
70
330
1F
100
AcDbEntity
  8
SLD-0
  6
HIDDEN
 62
     8
100
AcDbLine
 10
91.0081930393
 20
145.2625903377
 30
0.0
 11
91.0081930393
 21
132.2625900113
 31
0.0
  0
LINE
  5
71
330
1F
100
AcDbEntity
  8
SLD-0
  6
HIDDEN
 62
     8
100
AcDbLine
 10
97.5081931734
 20
132.2625900113
 30
0.0
 11
97.5081931734
 21
145.2625903377
 31
0.0
  0
LINE
  5
72
330
1F
100
AcDbEntity
  8
SLD-0
  6
HIDDEN
 62
     8
100
AcDbLine
 10
121.0081923688
 20
145.2625903377
 30
0.0
 11
121.0081923688
 21
132.2625900113
 31
0.0
  0
LINE
  5
73
330
1F
100
AcDbEntity
  8
SLD-0
  6
HIDDEN
 62
     8
100
AcDbLine
 10
127.5081925029
 20
132.2625900113
 30
0.0
 11
127.5081925029
 21
145.2625903377
 31
0.0
  0
LINE
  5
74
330
1F
100
AcDbEntity
  8
SLD-0
  6
CENTERX2
 62
   179
100
AcDbLine
 10
124.2581927711
 20
130.5356533046
 30
0.0
 11
124.2581927711
 21
160.2625903614
 31
0.0
  0
LINE
  5
75
330
1F
100
AcDbEntity
  8
SLD-0
  6
CENTERX2
 62
   179
100
AcDbLine
 10
94.2581927711
 20
131.0925814427
 30
0.0
 11
94.2581927711
 21
160.2625903614
 31
0.0
  0
LINE
  5
76
330
1F
100
AcDbEntity
  8
SLD-0
  6
Continuous
 62
   179
100
AcDbLine
 10
129.258192324
 20
183.2469818502
 30
0.0
 11
129.258192324
 21
199.2469826102
 31
0.0
  0
LINE
  5
77
330
1F
100
AcDbEntity
  8
SLD-0
  6
Continuous
 62
   179
100
AcDbLine
 10
129.258192324
 20
183.2469818502
 30
0.0
 11
89.2581932181
 21
183.2469818502
 31
0.0
  0
LINE
  5
78
330
1F
100
AcDbEntity
  8
SLD-0
  6
Continuous
 62
   179
100
AcDbLine
 10
129.258192324
 20
199.2469826102
 30
0.0
 11
89.2581932181
 21
199.2469826102
 31
0.0
  0
LINE
  5
79
330
1F
100
AcDbEntity
  8
SLD-0
  6
Continuous
 62
   179
100
AcDbLine
 10
89.2581932181
 20
183.2469818502
 30
0.0
 11
89.2581932181
 21
199.2469826102
 31
0.0
  0
LINE
  5
7A
330
1F
100
AcDbEntity
  8
SLD-0
  6
HIDDEN
 62
     8
100
AcDbLine
 10
99.2707006568
 20
183.2469818502
 30
0.0
 11
99.2707006568
 21
199.2469826102
 31
0.0
  0
LINE
  5
7B
330
1F
100
AcDbEntity
  8
SLD-0
  6
HIDDEN
 62
     8
100
AcDbLine
 10
119.2456848854
 20
183.2469818502
 30
0.0
 11
119.2456848854
 21
199.2469826102
 31
0.0
  0
LINE
  5
7C
330
1F
100
AcDbEntity
  8
SLD-0
  6
CENTERX2
 62
   179
100
AcDbLine
 10
109.2581927711
 20
181.2469822302
 30
0.0
 11
109.2581927711
 21
201.2469822302
 31
0.0
  0
ARC
  5
7D
330
1F
100
AcDbEntity
  8
SLD-0
  6
Continuous
 62
   179
100
AcDbCircle
 10
109.2581927711
 20
145.7625903614
 30
0.0
 40
9.999999999999996
100
AcDbArc
 50
2.8659839848
 51
177.1340160174
  0
ARC
  5
7E
330
1F
100
AcDbEntity
  8
SLD-0
  6
Continuous
 62
   179
100
AcDbCircle
 10
109.2581927711
 20
145.7625903614
 30
0.0
 40
9.999999999980954
100
AcDbArc
 50
182.8659839826
 51
357.1340160174
  0
CIRCLE
  5
7F
330
1F
100
AcDbEntity
  8
SLD-0
  6
Continuous
 62
   179
100
AcDbCircle
 10
124.2581927711
 20
191.2469822302
 30
0.0
 40
3.25
  0
CIRCLE
  5
80
330
1F
100
AcDbEntity
  8
SLD-0
  6
Continuous
 62
   179
100
AcDbCircle
 10
94.2581927711
 20
191.2469822302
 30
0.0
 40
3.25
  0
DIMENSION
  5
81
330
1F
100
AcDbEntity
  8
SLD-0
100
AcDbDimension
  2
*D5
 10
80.9910378423
 20
132.2625903614
 30
0.0
 11
80.9910378423
 21
138.7625903614
 31
0.0
 70
   160
 71
     1
 42
13.0
  3
SLDDIMSTYLE0
100
AcDbAlignedDimension
 13
89.2581927711
 23
145.2625903614
 33
0.0
 14
89.2581927711
 24
132.2625903614
 34
0.0
 50
90.0
100
AcDbRotatedDimension
1001
ACAD
1000
DSTYLE
1002
{
1070
    77
1070
     3
1070
   143
1040
0.0393700787
1070
    41
1040
3.0
1070
    44
1040
1.0
1070
    42
1040
1.0
1070
   147
1040
1.524
1070
    73
1070
     0
1070
    74
1070
     0
1070
   140
1040
3.5
1070
   284
1070
    12
1070
    78
1070
    12
1002
}
  0
DIMENSION
  5
A1
330
1F
100
AcDbEntity
  8
SLD-0
100
AcDbDimension
  2
*D7
 10
89.2581927711
 20
168.2730550796
 30
0.0
 11
99.2581927711
 21
168.2730550796
 31
0.0
 70
   160
 71
     1
 42
20.0
  3
SLDDIMSTYLE0
100
AcDbAlignedDimension
 13
109.2581927711
 23
158.2625903614
 33
0.0
 14
89.2581927711
 24
159.2625903614
 34
0.0
100
AcDbRotatedDimension
1001
ACAD
1000
DSTYLE
1002
{
1070
    77
1070
     3
1070
   143
1040
0.0393700787
1070
    41
1040
3.0
1070
    44
1040
1.0
1070
    42
1040
1.0
1070
   147
1040
1.524
1070
    73
1070
     0
1070
    74
1070
     0
1070
   140
1040
3.5
1070
   284
1070
    12
1070
    78
1070
    12
1002
}
  0
DIMENSION
  5
B8
330
1F
100
AcDbEntity
  8
SLD-0
100
AcDbDimension
  2
*D8
 10
80.9910378423
 20
159.2625903614
 30
0.0
 11
80.9910378423
 21
152.7625903614
 31
0.0
 70
   160
 71
     1
 42
13.0
  3
SLDDIMSTYLE0
100
AcDbAlignedDimension
 13
89.2581927711
 23
146.2625903614
 33
0.0
 14
89.2581927711
 24
159.2625903614
 34
0.0
 50
90.0
100
AcDbRotatedDimension
1001
ACAD
1000
DSTYLE
1002
{
1070
    77
1070
     3
1070
   143
1040
0.0393700787
1070
    41
1040
3.0
1070
    44
1040
1.0
1070
    42
1040
1.0
1070
   147
1040
1.524
1070
    73
1070
     0
1070
    74
1070
     0
1070
   140
1040
3.5
1070
   284
1070
    12
1070
    78
1070
    12
1002
}
  0
DIMENSION
  5
D2
330
1F
100
AcDbEntity
  8
SLD-0
 62
     7
100
AcDbDimension
  2
*D9
 10
139.705241038
 20
159.2625903614
 30
0.0
 11
139.705241038
 21
145.7625903614
 31
0.0
 70
   160
  1
(<>)
 71
     1
 42
27.0
  3
SLDDIMSTYLE0
100
AcDbAlignedDimension
 13
129.2581927711
 23
132.2625903614
 33
0.0
 14
129.2581927711
 24
159.2625903614
 34
0.0
 50
90.0
100
AcDbRotatedDimension
1001
ACAD
1000
DSTYLE
1002
{
1070
    77
1070
     3
1070
   143
1040
0.0393700787
1070
    41
1040
3.0
1070
    44
1040
1.0
1070
    42
1040
1.0
1070
   147
1040
1.524
1070
    73
1070
     0
1070
    74
1070
     0
1070
   140
1040
3.5
1070
   284
1070
    12
1070
    78
1070
    12
1002
}
  0
DIMENSION
  5
EC
330
1F
100
AcDbEntity
  8
SLD-0
 62
     7
100
AcDbDimension
  2
*D10
 10
70.26640633
 20
199.2469822302
 30
0.0
 11
70.26640633
 21
191.2469822302
 31
0.0
 70
   160
 71
     1
 42
16.0
  3
SLDDIMSTYLE0
100
AcDbAlignedDimension
 13
129.2581927711
 23
183.2469822302
 33
0.0
 14
129.2581927711
 24
199.2469822302
 34
0.0
 50
90.0
100
AcDbRotatedDimension
1001
ACAD
1000
DSTYLE
1002
{
1070
    77
1070
     3
1070
   143
1040
0.0393700787
1070
    41
1040
3.0
1070
    44
1040
1.0
1070
    42
1040
1.0
1070
   147
1040
1.524
1070
    73
1070
     0
1070
    74
1070
     0
1070
   140
1040
3.5
1070
   284
1070
    12
1070
    78
1070
    12
1002
}
  0
DIMENSION
  5
104
330
1F
100
AcDbEntity
  8
SLD-0
 62
     7
100
AcDbDimension
  2
*D11
 10
129.2581927711
 20
222.5680196994
 30
0.0
 11
109.2581927711
 21
222.5680196994
 31
0.0
 70
   160
 71
     1
 42
40.0
  3
SLDDIMSTYLE0
100
AcDbAlignedDimension
 13
89.2581927711
 23
191.2469822302
 33
0.0
 14
129.2581927711
 24
191.2469822302
 34
0.0
100
AcDbRotatedDimension
1001
ACAD
1000
DSTYLE
1002
{
1070
    77
1070
     3
1070
   143
1040
0.0393700787
1070
    41
1040
3.0
1070
    44
1040
1.0
1070
    42
1040
1.0
1070
   147
1040
1.524
1070
    73
1070
     0
1070
    74
1070
     0
1070
   140
1040
3.5
1070
   284
1070
    12
1070
    78
1070
    12
1002
}
  0
DIMENSION
  5
11B
330
1F
100
AcDbEntity
  8
SLD-0
100
AcDbDimension
  2
*D12
 10
79.690330833
 20
183.2469822302
 30
0.0
 11
79.690330833
 21
187.2469822302
 31
0.0
 70
   160
 71
     1
 42
8.0
  3
SLDDIMSTYLE0
100
AcDbAlignedDimension
 13
88.5081927711
 23
191.2469822302
 33
0.0
 14
89.2581927711
 24
183.2469822302
 34
0.0
 50
90.0
100
AcDbRotatedDimension
1001
ACAD
1000
DSTYLE
1002
{
1070
    77
1070
     3
1070
   143
1040
0.0393700787
1070
    41
1040
3.0
1070
    44
1040
1.0
1070
    42
1040
1.0
1070
   147
1040
1.524
1070
    73
1070
     0
1070
    74
1070
     0
1070
   140
1040
3.5
1070
   284
1070
    12
1070
    78
1070
    12
1002
}
  0
DIMENSION
  5
135
330
1F
100
AcDbEntity
  8
SLD-0
100
AcDbDimension
  2
*D13
 10
89.2581927711
 20
210.8426633368
 30
0.0
 11
91.7581927711
 21
210.8426633368
 31
0.0
 70
   160
 71
     1
 42
5.0
  3
SLDDIMSTYLE0
100
AcDbAlignedDimension
 13
94.2581927711
 23
196.9969822302
 33
0.0
 14
89.2581927711
 24
199.2469822302
 34
0.0
100
AcDbRotatedDimension
1001
ACAD
1000
DSTYLE
1002
{
1070
    77
1070
     3
1070
   143
1040
0.0393700787
1070
    41
1040
3.0
1070
    44
1040
1.0
1070
    42
1040
1.0
1070
   147
1040
1.524
1070
    73
1070
     0
1070
    74
1070
     0
1070
   140
1040
3.5
1070
   284
1070
    12
1070
    78
1070
    12
1002
}
  0
DIMENSION
  5
14F
330
1F
100
AcDbEntity
  8
SLD-0
100
AcDbDimension
  2
*D14
 10
94.2581927711
 20
210.8426633368
 30
0.0
 11
109.2581927711
 21
210.8426633368
 31
0.0
 70
   160
 71
     1
 42
30.0
  3
SLDDIMSTYLE0
100
AcDbAlignedDimension
 13
124.2581927711
 23
196.9969822302
 33
0.0
 14
94.2581927711
 24
196.9969822302
 34
0.0
100
AcDbRotatedDimension
1001
ACAD
1000
DSTYLE
1002
{
1070
    77
1070
     3
1070
   143
1040
0.0393700787
1070
    41
1040
3.0
1070
    44
1040
1.0
1070
    42
1040
1.0
1070
   147
1040
1.524
1070
    73
1070
     0
1070
    74
1070
     0
1070
   140
1040
3.5
1070
   284
1070
    12
1070
    78
1070
    12
1002
}
  0
MTEXT
  5
166
330
1F
100
AcDbEntity
  8
SLD-0
 62
     7
100
AcDbMText
 10
147.3309364635
 20
29.7138882404
 30
0.0
 40
4.2333333333
 41
0.0
 71
     1
 72
     1
  1
N01915-107-0
  7
SLDTEXTSTYLE1
 73
     1
 44
1.0
  0
MTEXT
  5
168
330
1F
100
AcDbEntity
  8
SLD-0
 62
     7
100
AcDbMText
 10
151.9881940096
 20
43.2377018572
 30
0.0
 40
4.2333333333
 41
0.0
 71
     1
 72
     1
  1
20 BKT W
  7
SLDTEXTSTYLE2
 73
     1
 44
1.0
  0
INSERT
  5
169
330
1F
100
AcDbEntity
  8
0
  6
Continuous
 62
     7
370
     0
100
AcDbBlockReference
  2
SW_CENTERMARK0
 10
0.0
 20
0.0
 30
0.0
  0
INSERT
  5
16A
330
1F
100
AcDbEntity
  8
0
  6
Continuous
 62
     7
370
     0
100
AcDbBlockReference
  2
SW_CENTERMARK1
 10
0.0
 20
0.0
 30
0.0
  0
INSERT
  5
16B
330
1F
100
AcDbEntity
  8
0
  6
Continuous
 62
     7
370
     0
100
AcDbBlockReference
  2
SW_CENTERMARK2
 10
0.0
 20
0.0
 30
0.0
  0
ENDSEC
  0
SECTION
  2
OBJECTS
  0
DICTIONARY
  5
C
330
0
100
AcDbDictionary
281
     1
  3
ACAD_GROUP
350
D
  3
ACAD_LAYOUT
350
1A
  3
ACAD_MLINESTYLE
350
17
  3
ACAD_PLOTSETTINGS
350
19
  3
ACAD_PLOTSTYLENAME
350
E
  0
DICTIONARY
  5
D
102
{ACAD_REACTORS
330
C
102
}
330
C
100
AcDbDictionary
281
     1
  0
DICTIONARY
  5
1A
102
{ACAD_REACTORS
330
C
102
}
330
C
100
AcDbDictionary
281
     1
  3
Layout1
350
1E
  3
Layout2
350
26
  3
Model
350
22
  0
DICTIONARY
  5
17
102
{ACAD_REACTORS
330
C
102
}
330
C
100
AcDbDictionary
281
     1
  3
Standard
350
18
  0
DICTIONARY
  5
19
102
{ACAD_REACTORS
330
C
102
}
330
C
100
AcDbDictionary
281
     1
  0
ACDBDICTIONARYWDFLT
  5
E
102
{ACAD_REACTORS
330
C
102
}
330
C
100
AcDbDictionary
281
     1
  3
Normal
350
F
100
AcDbDictionaryWithDefault
340
F
  0
LAYOUT
  5
1E
102
{ACAD_REACTORS
330
1A
102
}
330
1A
100
AcDbPlotSettings
  1

  2

  4

  6

 40
0.0
 41
0.0
 42
0.0
 43
0.0
 44
0.0
 45
0.0
 46
0.0
 47
0.0
 48
0.0
 49
0.0
140
0.0
141
0.0
142
1.0
143
1.0
 70
   688
 72
     0
 73
     0
 74
     5
  7

 75
    16
147
1.0
148
0.0
149
0.0
100
AcDbLayout
  1
Layout1
 70
     1
 71
     1
 10
0.0
 20
0.0
 11
0.0
 21
0.0
 12
0.0
 22
0.0
 32
0.0
 14
0.0
 24
0.0
 34
0.0
 15
0.0
 25
0.0
 35
0.0
146
0.0
 13
0.0
 23
0.0
 33
0.0
 16
1.0
 26
0.0
 36
0.0
 17
0.0
 27
1.0
 37
0.0
 76
     0
330
1B
  0
LAYOUT
  5
26
102
{ACAD_REACTORS
330
1A
102
}
330
1A
100
AcDbPlotSettings
  1

  2

  4

  6

 40
0.0
 41
0.0
 42
0.0
 43
0.0
 44
0.0
 45
0.0
 46
0.0
 47
0.0
 48
0.0
 49
0.0
140
0.0
141
0.0
142
1.0
143
1.0
 70
   688
 72
     0
 73
     0
 74
     5
  7

 75
    16
147
1.0
148
0.0
149
0.0
100
AcDbLayout
  1
Layout2
 70
     1
 71
     2
 10
0.0
 20
0.0
 11
0.0
 21
0.0
 12
0.0
 22
0.0
 32
0.0
 14
0.0
 24
0.0
 34
0.0
 15
0.0
 25
0.0
 35
0.0
146
0.0
 13
0.0
 23
0.0
 33
0.0
 16
1.0
 26
0.0
 36
0.0
 17
0.0
 27
1.0
 37
0.0
 76
     0
330
23
  0
LAYOUT
  5
22
102
{ACAD_REACTORS
330
1A
102
}
330
1A
100
AcDbPlotSettings
  1

  2

  4

  6

 40
0.0
 41
0.0
 42
0.0
 43
0.0
 44
0.0
 45
0.0
 46
0.0
 47
0.0
 48
0.0
 49
0.0
140
0.0
141
0.0
142
1.0
143
1.0
 70
  1712
 72
     0
 73
     0
 74
     0
  7

 75
     0
147
1.0
148
0.0
149
0.0
100
AcDbLayout
  1
Model
 70
     1
 71
     0
 10
0.0
 20
0.0
 11
0.0
 21
0.0
 12
0.0
 22
0.0
 32
0.0
 14
0.0
 24
0.0
 34
0.0
 15
210.0
 25
297.0
 35
0.0
146
0.0
 13
0.0
 23
0.0
 33
0.0
 16
1.0
 26
0.0
 36
0.0
 17
0.0
 27
1.0
 37
0.0
 76
     0
330
1F
  0
MLINESTYLE
  5
18
102
{ACAD_REACTORS
330
17
102
}
330
17
100
AcDbMlineStyle
  2
Standard
 70
     0
  3

 62
   256
 51
90.0
 52
90.0
 71
     2
 49
0.5
 62
   256
  6
BYLAYER
 49
-0.5
 62
   256
  6
BYLAYER
  0
ACDBPLACEHOLDER
  5
F
102
{ACAD_REACTORS
330
E
102
}
330
E
  0
ENDSEC
  0
EOF
