  0
SECTION
  2
HEADER
  9
$ACADVER
  1
AC1015
  9
$ACADMAINTVER
 70
     6
  9
$DWGCODEPAGE
  3
DOS932
  9
$INSBASE
 10
0.0
 20
0.0
 30
0.0
  9
$EXTMIN
 10
0.0
 20
0.0
 30
0.0
  9
$EXTMAX
 10
210.0
 20
297.0
 30
0.0
  9
$LIMMIN
 10
0.0
 20
0.0
  9
$LIMMAX
 10
0.0
 20
0.0
  9
$ORTHOMODE
 70
     0
  9
$REGENMODE
 70
     1
  9
$FILLMODE
 70
     1
  9
$QTEXTMODE
 70
     0
  9
$MIRRTEXT
 70
     1
  9
$LTSCALE
 40
1.0
  9
$ATTMODE
 70
     1
  9
$TEXTSIZE
 40
3.5
  9
$TRACEWID
 40
1.0
  9
$TEXTSTYLE
  7
Standard
  9
$CLAYER
  8
0
  9
$CELTYPE
  6
ByLayer
  9
$CECOLOR
 62
   256
  9
$CELTSCALE
 40
1.0
  9
$DISPSILH
 70
     0
  9
$DIMSCALE
 40
1.0
  9
$DIMASZ
 40
3.0
  9
$DIMEXO
 40
1.0
  9
$DIMDLI
 40
3.75
  9
$DIMRND
 40
0.0
  9
$DIMDLE
 40
0.0
  9
$DIMEXE
 40
1.0
  9
$DIMTP
 40
0.0
  9
$DIMTM
 40
0.0
  9
$DIMTXT
 40
3.5
  9
$DIMCEN
 40
2.5
  9
$DIMTSZ
 40
0.0
  9
$DIMTOL
 70
     0
  9
$DIMLIM
 70
     0
  9
$DIMTIH
 70
     1
  9
$DIMTOH
 70
     1
  9
$DIMSE1
 70
     0
  9
$DIMSE2
 70
     0
  9
$DIMTAD
 70
     1
  9
$DIMZIN
 70
     1
  9
$DIMBLK
  1

  9
$DIMASO
 70
     1
  9
$DIMSHO
 70
     1
  9
$DIMPOST
  1

  9
$DIMAPOST
  1

  9
$DIMALT
 70
     0
  9
$DIMALTD
 70
     3
  9
$DIMALTF
 40
0.0393700787
  9
$DIMLFAC
 40
1.0
  9
$DIMTOFL
 70
     1
  9
$DIMTVP
 40
0.0
  9
$DIMTIX
 70
     0
  9
$DIMSOXD
 70
     0
  9
$DIMSAH
 70
     0
  9
$DIMBLK1
  1

  9
$DIMBLK2
  1

  9
$DIMSTYLE
  2
ISO-25
  9
$DIMCLRD
 70
     0
  9
$DIMCLRE
 70
     0
  9
$DIMCLRT
 70
     0
  9
$DIMTFAC
 40
1.0
  9
$DIMGAP
 40
1.524
  9
$DIMJUST
 70
     0
  9
$DIMSD1
 70
     0
  9
$DIMSD2
 70
     0
  9
$DIMTOLJ
 70
     0
  9
$DIMTZIN
 70
     1
  9
$DIMALTZ
 70
     0
  9
$DIMALTTZ
 70
     0
  9
$DIMUPT
 70
     0
  9
$DIMDEC
 70
     2
  9
$DIMTDEC
 70
     2
  9
$DIMALTU
 70
     2
  9
$DIMALTTD
 70
     3
  9
$DIMTXSTY
  7
Standard
  9
$DIMAUNIT
 70
     0
  9
$DIMADEC
 70
     0
  9
$DIMALTRND
 40
0.0
  9
$DIMAZIN
 70
     0
  9
$DIMDSEP
 70
    44
  9
$DIMATFIT
 70
     3
  9
$DIMFRAC
 70
     0
  9
$DIMLDRBLK
  1

  9
$DIMLUNIT
 70
     2
  9
$DIMLWD
 70
    -2
  9
$DIMLWE
 70
    -2
  9
$DIMTMOVE
 70
     0
  9
$LUNITS
 70
     2
  9
$LUPREC
 70
     1
  9
$SKETCHINC
 40
1.0
  9
$FILLETRAD
 40
10.0
  9
$AUNITS
 70
     0
  9
$AUPREC
 70
     0
  9
$MENU
  1
.
  9
$ELEVATION
 40
0.0
  9
$PELEVATION
 40
0.0
  9
$THICKNESS
 40
0.0
  9
$LIMCHECK
 70
     0
  9
$CHAMFERA
 40
10.0
  9
$CHAMFERB
 40
10.0
  9
$CHAMFERC
 40
20.0
  9
$CHAMFERD
 40
0.0
  9
$SKPOLY
 70
     0
  9
$TDCREATE
 40
2454392.366740451
  9
$TDUCREATE
 40
2454391.991740451
  9
$TDUPDATE
 40
2454392.366740463
  9
$TDUUPDATE
 40
2454391.991740463
  9
$TDINDWG
 40
0.0000000116
  9
$TDUSRTIMER
 40
0.0000000116
  9
$USRTIMER
 70
     1
  9
$ANGBASE
 50
0.0
  9
$ANGDIR
 70
     0
  9
$PDMODE
 70
     0
  9
$PDSIZE
 40
-1.0
  9
$PLINEWID
 40
0.0
  9
$SPLFRAME
 70
     0
  9
$SPLINETYPE
 70
     6
  9
$SPLINESEGS
 70
     8
  9
$HANDSEED
  5
293
  9
$SURFTAB1
 70
     6
  9
$SURFTAB2
 70
     6
  9
$SURFTYPE
 70
     6
  9
$SURFU
 70
     6
  9
$SURFV
 70
     6
  9
$UCSBASE
  2

  9
$UCSNAME
  2

  9
$UCSORG
 10
0.0
 20
0.0
 30
0.0
  9
$UCSXDIR
 10
1.0
 20
0.0
 30
0.0
  9
$UCSYDIR
 10
0.0
 20
1.0
 30
0.0
  9
$UCSORTHOREF
  2

  9
$UCSORTHOVIEW
 70
     0
  9
$UCSORGTOP
 10
0.0
 20
0.0
 30
0.0
  9
$UCSORGBOTTOM
 10
0.0
 20
0.0
 30
0.0
  9
$UCSORGLEFT
 10
0.0
 20
0.0
 30
0.0
  9
$UCSORGRIGHT
 10
0.0
 20
0.0
 30
0.0
  9
$UCSORGFRONT
 10
0.0
 20
0.0
 30
0.0
  9
$UCSORGBACK
 10
0.0
 20
0.0
 30
0.0
  9
$PUCSBASE
  2

  9
$PUCSNAME
  2

  9
$PUCSORG
 10
0.0
 20
0.0
 30
0.0
  9
$PUCSXDIR
 10
1.0
 20
0.0
 30
0.0
  9
$PUCSYDIR
 10
0.0
 20
1.0
 30
0.0
  9
$PUCSORTHOREF
  2

  9
$PUCSORTHOVIEW
 70
     0
  9
$PUCSORGTOP
 10
0.0
 20
0.0
 30
0.0
  9
$PUCSORGBOTTOM
 10
0.0
 20
0.0
 30
0.0
  9
$PUCSORGLEFT
 10
0.0
 20
0.0
 30
0.0
  9
$PUCSORGRIGHT
 10
0.0
 20
0.0
 30
0.0
  9
$PUCSORGFRONT
 10
0.0
 20
0.0
 30
0.0
  9
$PUCSORGBACK
 10
0.0
 20
0.0
 30
0.0
  9
$USERI1
 70
     0
  9
$USERI2
 70
     0
  9
$USERI3
 70
     0
  9
$USERI4
 70
     0
  9
$USERI5
 70
     0
  9
$USERR1
 40
0.0
  9
$USERR2
 40
0.0
  9
$USERR3
 40
0.0
  9
$USERR4
 40
0.0
  9
$USERR5
 40
0.0
  9
$WORLDVIEW
 70
     1
  9
$SHADEDGE
 70
     3
  9
$SHADEDIF
 70
    70
  9
$TILEMODE
 70
     1
  9
$MAXACTVP
 70
    64
  9
$PINSBASE
 10
0.0
 20
0.0
 30
0.0
  9
$PLIMCHECK
 70
     0
  9
$PEXTMIN
 10
1.0000000000E+20
 20
1.0000000000E+20
 30
1.0000000000E+20
  9
$PEXTMAX
 10
-1.0000000000E+20
 20
-1.0000000000E+20
 30
-1.0000000000E+20
  9
$PLIMMIN
 10
0.0
 20
0.0
  9
$PLIMMAX
 10
420.0
 20
297.0
  9
$UNITMODE
 70
     0
  9
$VISRETAIN
 70
     1
  9
$PLINEGEN
 70
     0
  9
$PSLTSCALE
 70
     1
  9
$TREEDEPTH
 70
  3020
  9
$CMLSTYLE
  2
Standard
  9
$CMLJUST
 70
     0
  9
$CMLSCALE
 40
20.0
  9
$PROXYGRAPHICS
 70
     1
  9
$MEASUREMENT
 70
     1
  9
$CELWEIGHT
370
    -1
  9
$ENDCAPS
280
     0
  9
$JOINSTYLE
280
     0
  9
$LWDISPLAY
290
     1
  9
$INSUNITS
 70
     4
  9
$HYPERLINKBASE
  1

  9
$STYLESHEET
  1

  9
$XEDIT
290
     1
  9
$CEPSNTYPE
380
     0
  9
$PSTYLEMODE
290
     1
  9
$FINGERPRINTGUID
  2
{C8AC2D52-5875-47F5-98A6-E304941A8F5C}
  9
$VERSIONGUID
  2
{FAEB1C32-E019-11D5-929B-00C0DF256EC4}
  9
$EXTNAMES
290
     1
  9
$PSVPSCALE
 40
0.0
  9
$OLESTARTUP
290
     0
  0
ENDSEC
  0
SECTION
  2
CLASSES
  0
CLASS
  1
ACDBDICTIONARYWDFLT
  2
AcDbDictionaryWithDefault
  3
ObjectDBX Classes
 90
        0
280
     0
281
     0
  0
CLASS
  1
ACDBPLACEHOLDER
  2
AcDbPlaceHolder
  3
ObjectDBX Classes
 90
        0
280
     0
281
     0
  0
CLASS
  1
LAYOUT
  2
AcDbLayout
  3
ObjectDBX Classes
 90
        0
280
     0
281
     0
  0
ENDSEC
  0
SECTION
  2
TABLES
  0
TABLE
  2
VPORT
  5
8
330
0
100
AcDbSymbolTable
 70
     1
  0
VPORT
  5
29
330
8
100
AcDbSymbolTableRecord
100
AcDbViewportTableRecord
  2
*Active
 70
     0
 10
0.0
 20
0.0
 11
1.0
 21
1.0
 12
105.0
 22
148.5
 13
0.0
 23
0.0
 14
10.0
 24
10.0
 15
10.0
 25
10.0
 16
0.0
 26
0.0
 36
1.0
 17
0.0
 27
0.0
 37
0.0
 40
297.0
 41
1.9729729729
 42
50.0
 43
0.0
 44
0.0
 50
0.0
 51
0.0
 71
     0
 72
  2000
 73
     1
 74
     3
 75
     0
 76
     0
 77
     0
 78
     0
281
     0
 65
     1
110
0.0
120
0.0
130
0.0
111
1.0
121
0.0
131
0.0
112
0.0
122
1.0
132
0.0
 79
     0
146
0.0
  0
ENDTAB
  0
TABLE
  2
LTYPE
  5
5
330
0
100
AcDbSymbolTable
 70
     6
  0
LTYPE
  5
14
330
5
100
AcDbSymbolTableRecord
100
AcDbLinetypeTableRecord
  2
ByBlock
 70
     0
  3

 72
    65
 73
     0
 40
0.0
  0
LTYPE
  5
15
330
5
100
AcDbSymbolTableRecord
100
AcDbLinetypeTableRecord
  2
ByLayer
 70
     0
  3

 72
    65
 73
     0
 40
0.0
  0
LTYPE
  5
16
330
5
100
AcDbSymbolTableRecord
100
AcDbLinetypeTableRecord
  2
Continuous
 70
     0
  3
Solid line
 72
    65
 73
     0
 40
0.0
  0
LTYPE
  5
2A
330
5
100
AcDbSymbolTableRecord
100
AcDbLinetypeTableRecord
  2
HIDDEN
 70
     0
  3
Hidden __ __ __ __ __ __ __ __ __ __ __ __ __ __
 72
    65
 73
     2
 40
1.905
 49
1.27
 74
     0
 49
-0.635
 74
     0
  0
LTYPE
  5
2B
330
5
100
AcDbSymbolTableRecord
100
AcDbLinetypeTableRecord
  2
PHANTOM
 70
     0
  3
Phantom ______  __  __  ______  __  __  ______
 72
    65
 73
     6
 40
12.7
 49
6.35
 74
     0
 49
-1.27
 74
     0
 49
1.27
 74
     0
 49
-1.27
 74
     0
 49
1.27
 74
     0
 49
-1.27
 74
     0
  0
LTYPE
  5
2C
330
5
100
AcDbSymbolTableRecord
100
AcDbLinetypeTableRecord
  2
CENTER
 70
     0
  3
Center ____ _ ____ _ ____ _ ____ _ ____ _ ____
 72
    65
 73
     4
 40
10.16
 49
6.35
 74
     0
 49
-1.27
 74
     0
 49
1.27
 74
     0
 49
-1.27
 74
     0
  0
LTYPE
  5
2D
330
5
100
AcDbSymbolTableRecord
100
AcDbLinetypeTableRecord
  2
CENTERX2
 70
     0
  3
Center (2x) ________  __  ________  __  _____
 72
    65
 73
     4
 40
20.32
 49
12.7
 74
     0
 49
-2.54
 74
     0
 49
2.54
 74
     0
 49
-2.54
 74
     0
  0
LTYPE
  5
2E
330
5
100
AcDbSymbolTableRecord
100
AcDbLinetypeTableRecord
  2
DOT2
 70
     0
  3
Dot (.5x) ........................................
 72
    65
 73
     2
 40
0.635
 49
0.0
 74
     0
 49
-0.635
 74
     0
  0
ENDTAB
  0
TABLE
  2
LAYER
  5
2
330
0
100
AcDbSymbolTable
 70
     4
  0
LAYER
  5
10
330
2
100
AcDbSymbolTableRecord
100
AcDbLayerTableRecord
  2
0
 70
     0
 62
     7
  6
Continuous
370
    -3
390
F
  0
LAYER
  5
2F
330
2
100
AcDbSymbolTableRecord
100
AcDbLayerTableRecord
  2
SLD-0
 70
     0
 62
     7
  6
Continuous
370
     0
390
F
  0
LAYER
  5
30
330
2
100
AcDbSymbolTableRecord
100
AcDbLayerTableRecord
  2
SLD-DEFPOINTS
 70
     0
 62
     7
  6
Continuous
370
     0
390
F
  0
LAYER
  5
C0
330
2
100
AcDbSymbolTableRecord
100
AcDbLayerTableRecord
  2
Defpoints
 70
     0
 62
     7
  6
Continuous
290
     0
370
    -3
390
F
  0
ENDTAB
  0
TABLE
  2
STYLE
  5
3
330
0
100
AcDbSymbolTable
 70
     4
  0
STYLE
  5
11
330
3
100
AcDbSymbolTableRecord
100
AcDbTextStyleTableRecord
  2
Standard
 70
     0
 40
0.0
 41
1.0
 50
0.0
 71
     0
 42
2.5
  3
txt
  4
bigfont
  0
STYLE
  5
34
330
3
100
AcDbSymbolTableRecord
100
AcDbTextStyleTableRecord
  2
SLDTEXTSTYLE0
 70
     0
 40
0.0
 41
0.7
 50
0.0
 71
     0
 42
0.2
  3
TXT
  4
bigfont
  0
STYLE
  5
D7
330
3
100
AcDbSymbolTableRecord
100
AcDbTextStyleTableRecord
  2
SLDTEXTSTYLE1
 70
     0
 40
0.0
 41
0.96
 50
0.0
 71
     0
 42
0.2
  3
TXT
  4
bigfont
  0
STYLE
  5
289
330
3
100
AcDbSymbolTableRecord
100
AcDbTextStyleTableRecord
  2
SLDTEXTSTYLE2
 70
     0
 40
0.0
 41
0.4958916766
 50
0.0
 71
     0
 42
0.2
  3
TXT
  4
bigfont
  0
ENDTAB
  0
TABLE
  2
VIEW
  5
6
330
0
100
AcDbSymbolTable
 70
     0
  0
ENDTAB
  0
TABLE
  2
UCS
  5
7
330
0
100
AcDbSymbolTable
 70
     0
  0
ENDTAB
  0
TABLE
  2
APPID
  5
9
330
0
100
AcDbSymbolTable
 70
     1
  0
APPID
  5
12
330
9
100
AcDbSymbolTableRecord
100
AcDbRegAppTableRecord
  2
ACAD
 70
     0
  0
ENDTAB
  0
TABLE
  2
DIMSTYLE
  5
A
330
0
100
AcDbSymbolTable
 70
     7
100
AcDbDimStyleTable
  0
DIMSTYLE
105
27
330
A
100
AcDbSymbolTableRecord
100
AcDbDimStyleTableRecord
  2
ISO-25
 70
     0
 41
2.5
 42
0.625
 43
3.75
 44
1.25
 73
     0
 74
     0
 77
     1
 78
     8
140
2.5
141
2.5
143
0.0393700787
147
0.625
171
     3
172
     1
271
     2
272
     2
274
     3
278
    44
283
     0
284
     8
340
11
  0
DIMSTYLE
105
CA
102
{ACAD_REACTORS
330
BF
102
}
330
A
100
AcDbSymbolTableRecord
100
AcDbDimStyleTableRecord
  2
SLDDIMSTYLE0
 70
     0
 41
3.0
 44
0.0
 78
    12
140
3.5
147
0.875
172
     1
173
     1
271
     0
272
     3
284
    12
340
34
341
CB
343
CB
344
CB
  0
DIMSTYLE
105
E8
102
{ACAD_REACTORS
330
DA
330
F3
330
10A
330
13D
330
155
330
16F
330
197
330
1AE
330
1C8
330
22B
330
245
102
}
330
A
100
AcDbSymbolTableRecord
100
AcDbDimStyleTableRecord
  2
SLDDIMSTYLE1
 70
     0
 41
3.0
 44
0.0
 73
     0
 74
     0
 77
     3
 78
    12
140
3.5
147
0.875
173
     1
271
     0
272
     3
284
    12
340
34
341
CB
343
CB
344
CB
  0
DIMSTYLE
105
130
102
{ACAD_REACTORS
330
121
330
1E5
330
200
330
25F
102
}
330
A
100
AcDbSymbolTableRecord
100
AcDbDimStyleTableRecord
  2
SLDDIMSTYLE2
 70
     0
 41
3.0
 44
0.0
 73
     0
 74
     0
 77
     3
 78
    12
140
3.5
147
0.875
173
     1
271
     1
272
     3
284
    12
340
34
341
CB
343
CB
344
CB
  0
DIMSTYLE
105
190
102
{ACAD_REACTORS
330
186
102
}
330
A
100
AcDbSymbolTableRecord
100
AcDbDimStyleTableRecord
  2
SLDDIMSTYLE3
 70
     0
 41
3.0
 44
0.0
 78
     4
140
3.5
147
0.875
173
     1
271
     1
272
     3
284
    12
340
34
341
CB
343
CB
344
CB
  0
DIMSTYLE
105
225
102
{ACAD_REACTORS
330
21B
102
}
330
A
100
AcDbSymbolTableRecord
100
AcDbDimStyleTableRecord
  2
SLDDIMSTYLE4
 70
     0
 41
3.0
 44
0.0
 78
    12
140
3.5
147
0.875
173
     1
271
     0
272
     3
284
    12
340
34
341
CB
343
CB
344
CB
  0
DIMSTYLE
105
280
102
{ACAD_REACTORS
330
276
102
}
330
A
100
AcDbSymbolTableRecord
100
AcDbDimStyleTableRecord
  2
SLDDIMSTYLE5
 70
     0
 41
3.0
 44
0.0
 78
    12
140
3.5
147
0.875
172
     1
173
     1
271
     1
272
     3
284
    12
340
34
341
CB
343
CB
344
CB
  0
ENDTAB
  0
TABLE
  2
BLOCK_RECORD
  5
1
330
0
100
AcDbSymbolTable
 70
    28
  0
BLOCK_RECORD
  5
1F
330
1
100
AcDbSymbolTableRecord
100
AcDbBlockTableRecord
  2
*Model_Space
340
22
  0
BLOCK_RECORD
  5
1B
330
1
100
AcDbSymbolTableRecord
100
AcDbBlockTableRecord
  2
*Paper_Space
340
1E
  0
BLOCK_RECORD
  5
23
330
1
100
AcDbSymbolTableRecord
100
AcDbBlockTableRecord
  2
*Paper_Space0
340
26
  0
BLOCK_RECORD
  5
31
330
1
100
AcDbSymbolTableRecord
100
AcDbBlockTableRecord
  2
注記
340
0
  0
BLOCK_RECORD
  5
37
330
1
100
AcDbSymbolTableRecord
100
AcDbBlockTableRecord
  2
SW_CENTERMARKSYMBOL_0
340
0
102
{BLKREFS
331
28D
102
}
  0
BLOCK_RECORD
  5
42
330
1
100
AcDbSymbolTableRecord
100
AcDbBlockTableRecord
  2
SW_CENTERMARKSYMBOL_1
340
0
102
{BLKREFS
331
28E
102
}
  0
BLOCK_RECORD
  5
4D
330
1
100
AcDbSymbolTableRecord
100
AcDbBlockTableRecord
  2
SW_CENTERMARKSYMBOL_2
340
0
102
{BLKREFS
331
28F
102
}
  0
BLOCK_RECORD
  5
58
330
1
100
AcDbSymbolTableRecord
100
AcDbBlockTableRecord
  2
SW_CENTERMARKSYMBOL_3
340
0
102
{BLKREFS
331
290
102
}
  0
BLOCK_RECORD
  5
63
330
1
100
AcDbSymbolTableRecord
100
AcDbBlockTableRecord
  2
SW_CENTERMARKSYMBOL_4
340
0
102
{BLKREFS
331
291
102
}
  0
BLOCK_RECORD
  5
6E
330
1
100
AcDbSymbolTableRecord
100
AcDbBlockTableRecord
  2
SW_CENTERMARKSYMBOL_5
340
0
102
{BLKREFS
331
292
102
}
  0
BLOCK_RECORD
  5
C1
330
1
100
AcDbSymbolTableRecord
100
AcDbBlockTableRecord
  2
*D8
340
0
  0
BLOCK_RECORD
  5
CB
330
1
100
AcDbSymbolTableRecord
100
AcDbBlockTableRecord
  2
_None
340
0
102
{BLKREFS
331
C5
331
E0
331
DF
331
F9
331
F8
331
110
331
10F
331
128
331
127
331
143
331
142
331
15B
331
15A
331
175
331
174
331
18B
331
19D
331
19C
331
1B4
331
1B3
331
1D0
331
1CF
331
1EC
331
1EB
331
207
331
206
331
220
331
231
331
230
331
24B
331
24A
331
265
331
264
331
27B
102
}
  0
BLOCK_RECORD
  5
DB
330
1
100
AcDbSymbolTableRecord
100
AcDbBlockTableRecord
  2
*D10
340
0
  0
BLOCK_RECORD
  5
F4
330
1
100
AcDbSymbolTableRecord
100
AcDbBlockTableRecord
  2
*D11
340
0
  0
BLOCK_RECORD
  5
10B
330
1
100
AcDbSymbolTableRecord
100
AcDbBlockTableRecord
  2
*D12
340
0
  0
BLOCK_RECORD
  5
122
330
1
100
AcDbSymbolTableRecord
100
AcDbBlockTableRecord
  2
*D13
340
0
  0
BLOCK_RECORD
  5
13E
330
1
100
AcDbSymbolTableRecord
100
AcDbBlockTableRecord
  2
*D14
340
0
  0
BLOCK_RECORD
  5
156
330
1
100
AcDbSymbolTableRecord
100
AcDbBlockTableRecord
  2
*D15
340
0
  0
BLOCK_RECORD
  5
170
330
1
100
AcDbSymbolTableRecord
100
AcDbBlockTableRecord
  2
*D16
340
0
  0
BLOCK_RECORD
  5
187
330
1
100
AcDbSymbolTableRecord
100
AcDbBlockTableRecord
  2
*D17
340
0
  0
BLOCK_RECORD
  5
198
330
1
100
AcDbSymbolTableRecord
100
AcDbBlockTableRecord
  2
*D18
340
0
  0
BLOCK_RECORD
  5
1AF
330
1
100
AcDbSymbolTableRecord
100
AcDbBlockTableRecord
  2
*D19
340
0
  0
BLOCK_RECORD
  5
1C9
330
1
100
AcDbSymbolTableRecord
100
AcDbBlockTableRecord
  2
*D20
340
0
  0
BLOCK_RECORD
  5
1E6
330
1
100
AcDbSymbolTableRecord
100
AcDbBlockTableRecord
  2
*D21
340
0
  0
BLOCK_RECORD
  5
201
330
1
100
AcDbSymbolTableRecord
100
AcDbBlockTableRecord
  2
*D22
340
0
  0
BLOCK_RECORD
  5
21C
330
1
100
AcDbSymbolTableRecord
100
AcDbBlockTableRecord
  2
*D23
340
0
  0
BLOCK_RECORD
  5
22C
330
1
100
AcDbSymbolTableRecord
100
AcDbBlockTableRecord
  2
*D24
340
0
  0
BLOCK_RECORD
  5
246
330
1
100
AcDbSymbolTableRecord
100
AcDbBlockTableRecord
  2
*D25
340
0
  0
BLOCK_RECORD
  5
260
330
1
100
AcDbSymbolTableRecord
100
AcDbBlockTableRecord
  2
*D26
340
0
  0
BLOCK_RECORD
  5
277
330
1
100
AcDbSymbolTableRecord
100
AcDbBlockTableRecord
  2
*D27
340
0
  0
ENDTAB
  0
ENDSEC
  0
SECTION
  2
BLOCKS
  0
BLOCK
  5
20
330
1F
100
AcDbEntity
  8
0
100
AcDbBlockBegin
  2
*Model_Space
 70
     0
 71
     0
 10
0.0
 20
0.0
 30
0.0
  3
*Model_Space
  1

  0
ENDBLK
  5
21
330
1F
100
AcDbEntity
  8
0
100
AcDbBlockEnd
  0
BLOCK
  5
1C
330
1B
100
AcDbEntity
 67
     1
  8
0
100
AcDbBlockBegin
  2
*Paper_Space
 70
     0
 71
     0
 10
0.0
 20
0.0
 30
0.0
  3
*Paper_Space
  1

  0
ENDBLK
  5
1D
330
1B
100
AcDbEntity
 67
     1
  8
0
100
AcDbBlockEnd
  0
BLOCK
  5
24
330
23
100
AcDbEntity
  8
0
100
AcDbBlockBegin
  2
*Paper_Space0
 70
     0
 71
     0
 10
0.0
 20
0.0
 30
0.0
  3
*Paper_Space0
  1

  0
ENDBLK
  5
25
330
23
100
AcDbEntity
  8
0
100
AcDbBlockEnd
  0
BLOCK
  5
32
330
31
100
AcDbEntity
  8
0
100
AcDbBlockBegin
  2
注記
 70
     0
 71
     0
 10
0.0
 20
0.0
 30
0.0
  3
注記
  1

  0
MTEXT
  5
35
330
31
100
AcDbEntity
  8
0
  6
Continuous
 62
     7
370
     0
100
AcDbMText
 10
0.2636785918
 20
9.0739778448
 30
0.0
 40
3.5
 41
0.0
 71
     1
 72
     1
  1
１．特記ナキ角部ハ、バリ　カエリノ無キコト。
  7
SLDTEXTSTYLE0
 73
     1
 44
1.0
  0
MTEXT
  5
36
330
31
100
AcDbEntity
  8
0
  6
Continuous
 62
     7
370
     0
100
AcDbMText
 10
0.2636785918
 20
3.5759549983
 30
0.0
 40
3.5
 41
0.0
 71
     1
 72
     1
  1
２．特記ナキ隅部ハ、Ｒ０．４ＭＡＸトスル。
  7
SLDTEXTSTYLE0
 73
     1
 44
1.0
  0
ENDBLK
  5
33
330
31
100
AcDbEntity
  8
0
100
AcDbBlockEnd
  0
BLOCK
  5
38
330
37
100
AcDbEntity
  8
0
100
AcDbBlockBegin
  2
SW_CENTERMARKSYMBOL_0
 70
     0
 71
     0
 10
0.0
 20
0.0
 30
0.0
  3
SW_CENTERMARKSYMBOL_0
  1

  0
LINE
  5
3A
330
37
100
AcDbEntity
  8
SLD-0
  6
Continuous
 62
     7
370
     0
100
AcDbLine
 10
0.0
 20
0.0
 30
0.0
 11
0.0
 21
2.5
 31
0.0
  0
LINE
  5
3B
330
37
100
AcDbEntity
  8
SLD-0
  6
Continuous
 62
     7
370
     0
100
AcDbLine
 10
0.0
 20
0.0
 30
0.0
 11
-2.5
 21
0.0
 31
0.0
  0
LINE
  5
3C
330
37
100
AcDbEntity
  8
SLD-0
  6
Continuous
 62
     7
370
     0
100
AcDbLine
 10
0.0
 20
0.0
 30
0.0
 11
0.0
 21
-2.5
 31
0.0
  0
LINE
  5
3D
330
37
100
AcDbEntity
  8
SLD-0
  6
Continuous
 62
     7
370
     0
100
AcDbLine
 10
0.0
 20
0.0
 30
0.0
 11
2.5
 21
0.0
 31
0.0
  0
LINE
  5
3E
330
37
100
AcDbEntity
  8
SLD-0
  6
Continuous
 62
     7
370
     0
100
AcDbLine
 10
0.0
 20
5.0
 30
0.0
 11
0.0
 21
9.0
 31
0.0
  0
LINE
  5
3F
330
37
100
AcDbEntity
  8
SLD-0
  6
Continuous
 62
     7
370
     0
100
AcDbLine
 10
-5.0
 20
0.0
 30
0.0
 11
-9.0
 21
0.0
 31
0.0
  0
LINE
  5
40
330
37
100
AcDbEntity
  8
SLD-0
  6
Continuous
 62
     7
370
     0
100
AcDbLine
 10
0.0
 20
-5.0
 30
0.0
 11
0.0
 21
-9.0
 31
0.0
  0
LINE
  5
41
330
37
100
AcDbEntity
  8
SLD-0
  6
Continuous
 62
     7
370
     0
100
AcDbLine
 10
5.0
 20
0.0
 30
0.0
 11
9.0
 21
0.0
 31
0.0
  0
ENDBLK
  5
39
330
37
100
AcDbEntity
  8
0
100
AcDbBlockEnd
  0
BLOCK
  5
43
330
42
100
AcDbEntity
  8
0
100
AcDbBlockBegin
  2
SW_CENTERMARKSYMBOL_1
 70
     0
 71
     0
 10
0.0
 20
0.0
 30
0.0
  3
SW_CENTERMARKSYMBOL_1
  1

  0
LINE
  5
45
330
42
100
AcDbEntity
  8
SLD-0
  6
Continuous
 62
     7
370
     0
100
AcDbLine
 10
0.0
 20
0.0
 30
0.0
 11
0.0
 21
2.5
 31
0.0
  0
LINE
  5
46
330
42
100
AcDbEntity
  8
SLD-0
  6
Continuous
 62
     7
370
     0
100
AcDbLine
 10
0.0
 20
0.0
 30
0.0
 11
-2.5
 21
0.0
 31
0.0
  0
LINE
  5
47
330
42
100
AcDbEntity
  8
SLD-0
  6
Continuous
 62
     7
370
     0
100
AcDbLine
 10
0.0
 20
0.0
 30
0.0
 11
0.0
 21
-2.5
 31
0.0
  0
LINE
  5
48
330
42
100
AcDbEntity
  8
SLD-0
  6
Continuous
 62
     7
370
     0
100
AcDbLine
 10
0.0
 20
0.0
 30
0.0
 11
2.5
 21
0.0
 31
0.0
  0
LINE
  5
49
330
42
100
AcDbEntity
  8
SLD-0
  6
Continuous
 62
     7
370
     0
100
AcDbLine
 10
0.0
 20
5.0
 30
0.0
 11
0.0
 21
5.75
 31
0.0
  0
LINE
  5
4A
330
42
100
AcDbEntity
  8
SLD-0
  6
Continuous
 62
     7
370
     0
100
AcDbLine
 10
-5.0
 20
0.0
 30
0.0
 11
-5.75
 21
0.0
 31
0.0
  0
LINE
  5
4B
330
42
100
AcDbEntity
  8
SLD-0
  6
Continuous
 62
     7
370
     0
100
AcDbLine
 10
0.0
 20
-5.0
 30
0.0
 11
0.0
 21
-5.75
 31
0.0
  0
LINE
  5
4C
330
42
100
AcDbEntity
  8
SLD-0
  6
Continuous
 62
     7
370
     0
100
AcDbLine
 10
5.0
 20
0.0
 30
0.0
 11
5.75
 21
0.0
 31
0.0
  0
ENDBLK
  5
44
330
42
100
AcDbEntity
  8
0
100
AcDbBlockEnd
  0
BLOCK
  5
4E
330
4D
100
AcDbEntity
  8
0
100
AcDbBlockBegin
  2
SW_CENTERMARKSYMBOL_2
 70
     0
 71
     0
 10
0.0
 20
0.0
 30
0.0
  3
SW_CENTERMARKSYMBOL_2
  1

  0
LINE
  5
50
330
4D
100
AcDbEntity
  8
SLD-0
  6
Continuous
 62
     7
370
     0
100
AcDbLine
 10
0.0
 20
0.0
 30
0.0
 11
0.0
 21
2.5
 31
0.0
  0
LINE
  5
51
330
4D
100
AcDbEntity
  8
SLD-0
  6
Continuous
 62
     7
370
     0
100
AcDbLine
 10
0.0
 20
0.0
 30
0.0
 11
-2.5
 21
0.0
 31
0.0
  0
LINE
  5
52
330
4D
100
AcDbEntity
  8
SLD-0
  6
Continuous
 62
     7
370
     0
100
AcDbLine
 10
0.0
 20
0.0
 30
0.0
 11
0.0
 21
-2.5
 31
0.0
  0
LINE
  5
53
330
4D
100
AcDbEntity
  8
SLD-0
  6
Continuous
 62
     7
370
     0
100
AcDbLine
 10
0.0
 20
0.0
 30
0.0
 11
2.5
 21
0.0
 31
0.0
  0
LINE
  5
54
330
4D
100
AcDbEntity
  8
SLD-0
  6
Continuous
 62
     7
370
     0
100
AcDbLine
 10
0.0
 20
5.0
 30
0.0
 11
0.0
 21
5.75
 31
0.0
  0
LINE
  5
55
330
4D
100
AcDbEntity
  8
SLD-0
  6
Continuous
 62
     7
370
     0
100
AcDbLine
 10
-5.0
 20
0.0
 30
0.0
 11
-5.75
 21
0.0
 31
0.0
  0
LINE
  5
56
330
4D
100
AcDbEntity
  8
SLD-0
  6
Continuous
 62
     7
370
     0
100
AcDbLine
 10
0.0
 20
-5.0
 30
0.0
 11
0.0
 21
-5.75
 31
0.0
  0
LINE
  5
57
330
4D
100
AcDbEntity
  8
SLD-0
  6
Continuous
 62
     7
370
     0
100
AcDbLine
 10
5.0
 20
0.0
 30
0.0
 11
5.75
 21
0.0
 31
0.0
  0
ENDBLK
  5
4F
330
4D
100
AcDbEntity
  8
0
100
AcDbBlockEnd
  0
BLOCK
  5
59
330
58
100
AcDbEntity
  8
0
100
AcDbBlockBegin
  2
SW_CENTERMARKSYMBOL_3
 70
     0
 71
     0
 10
0.0
 20
0.0
 30
0.0
  3
SW_CENTERMARKSYMBOL_3
  1

  0
LINE
  5
5B
330
58
100
AcDbEntity
  8
SLD-0
  6
Continuous
 62
     7
370
     0
100
AcDbLine
 10
0.0
 20
0.0
 30
0.0
 11
0.0
 21
2.5
 31
0.0
  0
LINE
  5
5C
330
58
100
AcDbEntity
  8
SLD-0
  6
Continuous
 62
     7
370
     0
100
AcDbLine
 10
0.0
 20
0.0
 30
0.0
 11
-2.5
 21
0.0
 31
0.0
  0
LINE
  5
5D
330
58
100
AcDbEntity
  8
SLD-0
  6
Continuous
 62
     7
370
     0
100
AcDbLine
 10
0.0
 20
0.0
 30
0.0
 11
0.0
 21
-2.5
 31
0.0
  0
LINE
  5
5E
330
58
100
AcDbEntity
  8
SLD-0
  6
Continuous
 62
     7
370
     0
100
AcDbLine
 10
0.0
 20
0.0
 30
0.0
 11
2.5
 21
0.0
 31
0.0
  0
LINE
  5
5F
330
58
100
AcDbEntity
  8
SLD-0
  6
Continuous
 62
     7
370
     0
100
AcDbLine
 10
0.0
 20
5.0
 30
0.0
 11
0.0
 21
5.75
 31
0.0
  0
LINE
  5
60
330
58
100
AcDbEntity
  8
SLD-0
  6
Continuous
 62
     7
370
     0
100
AcDbLine
 10
-5.0
 20
0.0
 30
0.0
 11
-5.75
 21
0.0
 31
0.0
  0
LINE
  5
61
330
58
100
AcDbEntity
  8
SLD-0
  6
Continuous
 62
     7
370
     0
100
AcDbLine
 10
0.0
 20
-5.0
 30
0.0
 11
0.0
 21
-5.75
 31
0.0
  0
LINE
  5
62
330
58
100
AcDbEntity
  8
SLD-0
  6
Continuous
 62
     7
370
     0
100
AcDbLine
 10
5.0
 20
0.0
 30
0.0
 11
5.75
 21
0.0
 31
0.0
  0
ENDBLK
  5
5A
330
58
100
AcDbEntity
  8
0
100
AcDbBlockEnd
  0
BLOCK
  5
64
330
63
100
AcDbEntity
  8
0
100
AcDbBlockBegin
  2
SW_CENTERMARKSYMBOL_4
 70
     0
 71
     0
 10
0.0
 20
0.0
 30
0.0
  3
SW_CENTERMARKSYMBOL_4
  1

  0
LINE
  5
66
330
63
100
AcDbEntity
  8
SLD-0
  6
Continuous
 62
     7
370
     0
100
AcDbLine
 10
0.0
 20
0.0
 30
0.0
 11
0.0
 21
2.5
 31
0.0
  0
LINE
  5
67
330
63
100
AcDbEntity
  8
SLD-0
  6
Continuous
 62
     7
370
     0
100
AcDbLine
 10
0.0
 20
0.0
 30
0.0
 11
-2.5
 21
0.0
 31
0.0
  0
LINE
  5
68
330
63
100
AcDbEntity
  8
SLD-0
  6
Continuous
 62
     7
370
     0
100
AcDbLine
 10
0.0
 20
0.0
 30
0.0
 11
0.0
 21
-2.5
 31
0.0
  0
LINE
  5
69
330
63
100
AcDbEntity
  8
SLD-0
  6
Continuous
 62
     7
370
     0
100
AcDbLine
 10
0.0
 20
0.0
 30
0.0
 11
2.5
 21
0.0
 31
0.0
  0
LINE
  5
6A
330
63
100
AcDbEntity
  8
SLD-0
  6
Continuous
 62
     7
370
     0
100
AcDbLine
 10
0.0
 20
5.0
 30
0.0
 11
0.0
 21
5.75
 31
0.0
  0
LINE
  5
6B
330
63
100
AcDbEntity
  8
SLD-0
  6
Continuous
 62
     7
370
     0
100
AcDbLine
 10
-5.0
 20
0.0
 30
0.0
 11
-5.75
 21
0.0
 31
0.0
  0
LINE
  5
6C
330
63
100
AcDbEntity
  8
SLD-0
  6
Continuous
 62
     7
370
     0
100
AcDbLine
 10
0.0
 20
-5.0
 30
0.0
 11
0.0
 21
-5.75
 31
0.0
  0
LINE
  5
6D
330
63
100
AcDbEntity
  8
SLD-0
  6
Continuous
 62
     7
370
     0
100
AcDbLine
 10
5.0
 20
0.0
 30
0.0
 11
5.75
 21
0.0
 31
0.0
  0
ENDBLK
  5
65
330
63
100
AcDbEntity
  8
0
100
AcDbBlockEnd
  0
BLOCK
  5
6F
330
6E
100
AcDbEntity
  8
0
100
AcDbBlockBegin
  2
SW_CENTERMARKSYMBOL_5
 70
     0
 71
     0
 10
0.0
 20
0.0
 30
0.0
  3
SW_CENTERMARKSYMBOL_5
  1

  0
LINE
  5
71
330
6E
100
AcDbEntity
  8
SLD-0
  6
Continuous
 62
     7
370
     0
100
AcDbLine
 10
0.0
 20
0.0
 30
0.0
 11
0.0
 21
2.5
 31
0.0
  0
LINE
  5
72
330
6E
100
AcDbEntity
  8
SLD-0
  6
Continuous
 62
     7
370
     0
100
AcDbLine
 10
0.0
 20
0.0
 30
0.0
 11
-2.5
 21
0.0
 31
0.0
  0
LINE
  5
73
330
6E
100
AcDbEntity
  8
SLD-0
  6
Continuous
 62
     7
370
     0
100
AcDbLine
 10
0.0
 20
0.0
 30
0.0
 11
0.0
 21
-2.5
 31
0.0
  0
LINE
  5
74
330
6E
100
AcDbEntity
  8
SLD-0
  6
Continuous
 62
     7
370
     0
100
AcDbLine
 10
0.0
 20
0.0
 30
0.0
 11
2.5
 21
0.0
 31
0.0
  0
LINE
  5
75
330
6E
100
AcDbEntity
  8
SLD-0
  6
Continuous
 62
     7
370
     0
100
AcDbLine
 10
0.0
 20
2.5
 30
0.0
 11
0.0
 21
4.75
 31
0.0
  0
LINE
  5
76
330
6E
100
AcDbEntity
  8
SLD-0
  6
Continuous
 62
     7
370
     0
100
AcDbLine
 10
-2.5
 20
0.0
 30
0.0
 11
-4.75
 21
0.0
 31
0.0
  0
LINE
  5
77
330
6E
100
AcDbEntity
  8
SLD-0
  6
Continuous
 62
     7
370
     0
100
AcDbLine
 10
0.0
 20
-2.5
 30
0.0
 11
0.0
 21
-4.75
 31
0.0
  0
LINE
  5
78
330
6E
100
AcDbEntity
  8
SLD-0
  6
Continuous
 62
     7
370
     0
100
AcDbLine
 10
2.5
 20
0.0
 30
0.0
 11
4.75
 21
0.0
 31
0.0
  0
ENDBLK
  5
70
330
6E
100
AcDbEntity
  8
0
100
AcDbBlockEnd
  0
BLOCK
  5
C8
330
C1
100
AcDbEntity
  8
0
100
AcDbBlockBegin
  2
*D8
 70
     1
 71
     0
 10
0.0
 20
0.0
 30
0.0
  3
*D8
  1

  0
LINE
  5
CE
330
C1
100
AcDbEntity
  8
SLD-0
 62
     7
100
AcDbLine
 10
133.1139113996
 20
134.5062423824
 30
0.0
 11
130.7200077338
 21
132.5275066147
 31
0.0
  0
LINE
  5
CF
330
C1
100
AcDbEntity
  8
SLD-0
 62
     7
100
AcDbLine
 10
130.7200077338
 20
132.5275066147
 30
0.0
 11
131.8038222839
 21
135.4380935006
 31
0.0
  0
LINE
  5
D0
330
C1
100
AcDbEntity
  8
SLD-0
 62
     7
100
AcDbLine
 10
130.7200077338
 20
132.5275066147
 30
0.0
 11
132.4588668418
 21
134.9721679415
 31
0.0
  0
LINE
  5
D1
330
C1
100
AcDbEntity
  8
SLD-0
 62
     7
100
AcDbLine
 10
135.2815404998
 20
140.3274161541
 30
0.0
 11
137.6754441656
 21
142.3061519218
 31
0.0
  0
LINE
  5
D2
330
C1
100
AcDbEntity
  8
SLD-0
 62
     7
100
AcDbLine
 10
137.6754441656
 20
142.3061519218
 30
0.0
 11
136.5916296155
 21
139.3955650359
 31
0.0
  0
LINE
  5
D3
330
C1
100
AcDbEntity
  8
SLD-0
 62
     7
100
AcDbLine
 10
137.6754441656
 20
142.3061519218
 30
0.0
 11
135.9365850576
 21
139.861490595
 31
0.0
  0
LINE
  5
D4
330
C1
100
AcDbEntity
  8
SLD-0
 62
     7
100
AcDbLine
 10
137.6754441656
 20
142.3061519218
 30
0.0
 11
156.7779850482
 21
169.1624065343
 31
0.0
  0
LINE
  5
D5
330
C1
100
AcDbEntity
  8
SLD-0
 62
     7
100
AcDbLine
 10
130.7200077338
 20
132.5275066147
 30
0.0
 11
137.6754441656
 21
142.3061519218
 31
0.0
  0
LINE
  5
D6
330
C1
100
AcDbEntity
  8
SLD-0
 62
     7
100
AcDbLine
 10
156.7779850482
 20
169.1624065343
 30
0.0
 11
169.4787740472
 21
169.1624065343
 31
0.0
  0
MTEXT
  5
D8
330
C1
100
AcDbEntity
  8
SLD-0
 62
     7
100
AcDbMText
 10
158.2029850482
 20
173.2351335742
 30
0.1
 40
3.5
 41
0.0
 71
     1
 72
     1
  1
%%c
  7
SLDTEXTSTYLE1
 73
     1
 44
1.0
  0
MTEXT
  5
D9
330
C1
100
AcDbEntity
  8
SLD-0
 62
     7
100
AcDbMText
 10
163.8200486756
 20
173.2351335742
 30
0.1
 40
3.5
 41
0.0
 71
     1
 72
     1
  1
12
  7
SLDTEXTSTYLE1
 73
     1
 44
1.0
  0
ENDBLK
  5
C9
330
C1
100
AcDbEntity
  8
0
100
AcDbBlockEnd
  0
BLOCK
  5
CC
330
CB
100
AcDbEntity
  8
0
100
AcDbBlockBegin
  2
_None
 70
     0
 71
     0
 10
0.0
 20
0.0
 30
0.0
  3
_None
  1

  0
ENDBLK
  5
CD
330
CB
100
AcDbEntity
  8
0
100
AcDbBlockEnd
  0
BLOCK
  5
E6
330
DB
100
AcDbEntity
  8
0
100
AcDbBlockBegin
  2
*D10
 70
     1
 71
     0
 10
0.0
 20
0.0
 30
0.0
  3
*D10
  1

  0
LINE
  5
E9
330
DB
100
AcDbEntity
  8
SLD-0
 62
     7
100
AcDbLine
 10
182.4798209033
 20
146.9168292683
 30
0.0
 11
183.2836679033
 21
149.9168292683
 31
0.0
  0
LINE
  5
EA
330
DB
100
AcDbEntity
  8
SLD-0
 62
     7
100
AcDbLine
 10
183.2836679033
 20
149.9168292683
 30
0.0
 11
184.0875149033
 21
146.9168292683
 31
0.0
  0
LINE
  5
EB
330
DB
100
AcDbEntity
  8
SLD-0
 62
     7
100
AcDbLine
 10
183.2836679033
 20
149.9168292683
 30
0.0
 11
183.2836679033
 21
146.9168292683
 31
0.0
  0
LINE
  5
EC
330
DB
100
AcDbEntity
  8
SLD-0
 62
     7
100
AcDbLine
 10
184.0875149033
 20
127.9168292683
 30
0.0
 11
183.2836679033
 21
124.9168292683
 31
0.0
  0
LINE
  5
ED
330
DB
100
AcDbEntity
  8
SLD-0
 62
     7
100
AcDbLine
 10
183.2836679033
 20
124.9168292683
 30
0.0
 11
182.4798209033
 21
127.9168292683
 31
0.0
  0
LINE
  5
EE
330
DB
100
AcDbEntity
  8
SLD-0
 62
     7
100
AcDbLine
 10
183.2836679033
 20
124.9168292683
 30
0.0
 11
183.2836679033
 21
127.9168292683
 31
0.0
  0
LINE
  5
EF
330
DB
100
AcDbEntity
  8
SLD-0
 62
     7
100
AcDbLine
 10
143.1977259497
 20
149.9168292683
 30
0.0
 11
184.2836679033
 21
149.9168292683
 31
0.0
  0
LINE
  5
F0
330
DB
100
AcDbEntity
  8
SLD-0
 62
     7
100
AcDbLine
 10
152.1977259497
 20
124.9168292683
 30
0.0
 11
184.2836679033
 21
124.9168292683
 31
0.0
  0
LINE
  5
F1
330
DB
100
AcDbEntity
  8
SLD-0
 62
     7
100
AcDbLine
 10
183.2836679033
 20
149.9168292683
 30
0.0
 11
183.2836679033
 21
124.9168292683
 31
0.0
  0
MTEXT
  5
F2
330
DB
100
AcDbEntity
  8
SLD-0
 62
     7
100
AcDbMText
 10
179.2109408634
 20
135.3812165825
 30
0.1
 40
3.5
 41
0.0
 71
     1
 72
     1
  1
25
  7
SLDTEXTSTYLE1
 11
-7.044197039909883E-15
 21
1.0
 31
0.0
 73
     1
 44
1.0
  0
ENDBLK
  5
E7
330
DB
100
AcDbEntity
  8
0
100
AcDbBlockEnd
  0
BLOCK
  5
FE
330
F4
100
AcDbEntity
  8
0
100
AcDbBlockBegin
  2
*D11
 70
     1
 71
     0
 10
0.0
 20
0.0
 30
0.0
  3
*D11
  1

  0
LINE
  5
100
330
F4
100
AcDbEntity
  8
SLD-0
 62
     7
100
AcDbLine
 10
148.1977259497
 20
107.7903102822
 30
0.0
 11
151.1977259497
 21
106.9864632822
 31
0.0
  0
LINE
  5
101
330
F4
100
AcDbEntity
  8
SLD-0
 62
     7
100
AcDbLine
 10
151.1977259497
 20
106.9864632822
 30
0.0
 11
148.1977259497
 21
106.1826162822
 31
0.0
  0
LINE
  5
102
330
F4
100
AcDbEntity
  8
SLD-0
 62
     7
100
AcDbLine
 10
151.1977259497
 20
106.9864632822
 30
0.0
 11
148.1977259497
 21
106.9864632822
 31
0.0
  0
LINE
  5
103
330
F4
100
AcDbEntity
  8
SLD-0
 62
     7
100
AcDbLine
 10
59.1977259497
 20
106.1826162822
 30
0.0
 11
56.1977259497
 21
106.9864632822
 31
0.0
  0
LINE
  5
104
330
F4
100
AcDbEntity
  8
SLD-0
 62
     7
100
AcDbLine
 10
56.1977259497
 20
106.9864632822
 30
0.0
 11
59.1977259497
 21
107.7903102822
 31
0.0
  0
LINE
  5
105
330
F4
100
AcDbEntity
  8
SLD-0
 62
     7
100
AcDbLine
 10
56.1977259497
 20
106.9864632822
 30
0.0
 11
59.1977259497
 21
106.9864632822
 31
0.0
  0
LINE
  5
106
330
F4
100
AcDbEntity
  8
SLD-0
 62
     7
100
AcDbLine
 10
151.1977259497
 20
123.9168292683
 30
0.0
 11
151.1977259497
 21
105.9864632822
 31
0.0
  0
LINE
  5
107
330
F4
100
AcDbEntity
  8
SLD-0
 62
     7
100
AcDbLine
 10
56.1977259497
 20
123.9168292683
 30
0.0
 11
56.1977259497
 21
105.9864632822
 31
0.0
  0
LINE
  5
108
330
F4
100
AcDbEntity
  8
SLD-0
 62
     7
100
AcDbLine
 10
151.1977259497
 20
106.9864632822
 30
0.0
 11
56.1977259497
 21
106.9864632822
 31
0.0
  0
MTEXT
  5
109
330
F4
100
AcDbEntity
  8
SLD-0
 62
     7
100
AcDbMText
 10
101.6621132639
 20
111.0591903221
 30
0.1
 40
3.5
 41
0.0
 71
     1
 72
     1
  1
95
  7
SLDTEXTSTYLE1
 73
     1
 44
1.0
  0
ENDBLK
  5
FF
330
F4
100
AcDbEntity
  8
0
100
AcDbBlockEnd
  0
BLOCK
  5
115
330
10B
100
AcDbEntity
  8
0
100
AcDbBlockBegin
  2
*D12
 70
     1
 71
     0
 10
0.0
 20
0.0
 30
0.0
  3
*D12
  1

  0
LINE
  5
117
330
10B
100
AcDbEntity
  8
SLD-0
 62
     7
100
AcDbLine
 10
131.1977259497
 20
157.3579006986
 30
0.0
 11
134.1977259497
 21
156.5540536986
 31
0.0
  0
LINE
  5
118
330
10B
100
AcDbEntity
  8
SLD-0
 62
     7
100
AcDbLine
 10
134.1977259497
 20
156.5540536986
 30
0.0
 11
131.1977259497
 21
155.7502066986
 31
0.0
  0
LINE
  5
119
330
10B
100
AcDbEntity
  8
SLD-0
 62
     7
100
AcDbLine
 10
134.1977259497
 20
156.5540536986
 30
0.0
 11
131.1977259497
 21
156.5540536986
 31
0.0
  0
LINE
  5
11A
330
10B
100
AcDbEntity
  8
SLD-0
 62
     7
100
AcDbLine
 10
59.1977259497
 20
155.7502066986
 30
0.0
 11
56.1977259497
 21
156.5540536986
 31
0.0
  0
LINE
  5
11B
330
10B
100
AcDbEntity
  8
SLD-0
 62
     7
100
AcDbLine
 10
56.1977259497
 20
156.5540536986
 30
0.0
 11
59.1977259497
 21
157.3579006986
 31
0.0
  0
LINE
  5
11C
330
10B
100
AcDbEntity
  8
SLD-0
 62
     7
100
AcDbLine
 10
56.1977259497
 20
156.5540536986
 30
0.0
 11
59.1977259497
 21
156.5540536986
 31
0.0
  0
LINE
  5
11D
330
10B
100
AcDbEntity
  8
SLD-0
 62
     7
100
AcDbLine
 10
134.1977259497
 20
138.4168292683
 30
0.0
 11
134.1977259497
 21
157.5540536986
 31
0.0
  0
LINE
  5
11E
330
10B
100
AcDbEntity
  8
SLD-0
 62
     7
100
AcDbLine
 10
56.1977259497
 20
150.9168292683
 30
0.0
 11
56.1977259497
 21
157.5540536986
 31
0.0
  0
LINE
  5
11F
330
10B
100
AcDbEntity
  8
SLD-0
 62
     7
100
AcDbLine
 10
134.1977259497
 20
156.5540536986
 30
0.0
 11
56.1977259497
 21
156.5540536986
 31
0.0
  0
MTEXT
  5
120
330
10B
100
AcDbEntity
  8
SLD-0
 62
     7
100
AcDbMText
 10
93.1621132639
 20
160.6267807385
 30
0.1
 40
3.5
 41
0.0
 71
     1
 72
     1
  1
78
  7
SLDTEXTSTYLE1
 73
     1
 44
1.0
  0
ENDBLK
  5
116
330
10B
100
AcDbEntity
  8
0
100
AcDbBlockEnd
  0
BLOCK
  5
12E
330
122
100
AcDbEntity
  8
0
100
AcDbBlockBegin
  2
*D13
 70
     1
 71
     0
 10
0.0
 20
0.0
 30
0.0
  3
*D13
  1

  0
LINE
  5
131
330
122
100
AcDbEntity
  8
SLD-0
 62
     7
100
AcDbLine
 10
48.2121740785
 20
137.1668292683
 30
0.0
 11
49.0160210785
 21
140.1668292683
 31
0.0
  0
LINE
  5
132
330
122
100
AcDbEntity
  8
SLD-0
 62
     7
100
AcDbLine
 10
49.0160210785
 20
140.1668292683
 30
0.0
 11
49.8198680785
 21
137.1668292683
 31
0.0
  0
LINE
  5
133
330
122
100
AcDbEntity
  8
SLD-0
 62
     7
100
AcDbLine
 10
49.0160210785
 20
140.1668292683
 30
0.0
 11
49.0160210785
 21
137.1668292683
 31
0.0
  0
LINE
  5
134
330
122
100
AcDbEntity
  8
SLD-0
 62
     7
100
AcDbLine
 10
49.8198680785
 20
149.6668292683
 30
0.0
 11
49.0160210785
 21
146.6668292683
 31
0.0
  0
LINE
  5
135
330
122
100
AcDbEntity
  8
SLD-0
 62
     7
100
AcDbLine
 10
49.0160210785
 20
146.6668292683
 30
0.0
 11
48.2121740785
 21
149.6668292683
 31
0.0
  0
LINE
  5
136
330
122
100
AcDbEntity
  8
SLD-0
 62
     7
100
AcDbLine
 10
49.0160210785
 20
146.6668292683
 30
0.0
 11
49.0160210785
 21
149.6668292683
 31
0.0
  0
LINE
  5
137
330
122
100
AcDbEntity
  8
SLD-0
 62
     7
100
AcDbLine
 10
63.1977259497
 20
140.1668292683
 30
0.0
 11
48.0160210785
 21
140.1668292683
 31
0.0
  0
LINE
  5
138
330
122
100
AcDbEntity
  8
SLD-0
 62
     7
100
AcDbLine
 10
63.1977259497
 20
146.6668292683
 30
0.0
 11
48.0160210785
 21
146.6668292683
 31
0.0
  0
LINE
  5
139
330
122
100
AcDbEntity
  8
SLD-0
 62
     7
100
AcDbLine
 10
49.0160210785
 20
140.1668292683
 30
0.0
 11
49.0160210785
 21
135.1668292683
 31
0.0
  0
LINE
  5
13A
330
122
100
AcDbEntity
  8
SLD-0
 62
     7
100
AcDbLine
 10
49.0160210785
 20
140.1668292683
 30
0.0
 11
49.0160210785
 21
146.6668292683
 31
0.0
  0
LINE
  5
13B
330
122
100
AcDbEntity
  8
SLD-0
 62
     7
100
AcDbLine
 10
49.0160210785
 20
146.6668292683
 30
0.0
 11
49.0160210785
 21
159.2861206855
 31
0.0
  0
MTEXT
  5
13C
330
122
100
AcDbEntity
  8
SLD-0
 62
     7
100
AcDbMText
 10
44.9432940386
 20
151.5887802494
 30
0.1
 40
3.5
 41
0.0
 71
     1
 72
     1
  1
6.5
  7
SLDTEXTSTYLE1
 11
6.123031769111886E-17
 21
1.0
 31
0.0
 73
     1
 44
1.0
  0
ENDBLK
  5
12F
330
122
100
AcDbEntity
  8
0
100
AcDbBlockEnd
  0
BLOCK
  5
149
330
13E
100
AcDbEntity
  8
0
100
AcDbBlockBegin
  2
*D14
 70
     1
 71
     0
 10
0.0
 20
0.0
 30
0.0
  3
*D14
  1

  0
LINE
  5
14B
330
13E
100
AcDbEntity
  8
SLD-0
 62
     7
100
AcDbLine
 10
41.9491673597
 20
134.4168292683
 30
0.0
 11
41.1453203597
 21
131.4168292683
 31
0.0
  0
LINE
  5
14C
330
13E
100
AcDbEntity
  8
SLD-0
 62
     7
100
AcDbLine
 10
41.1453203597
 20
131.4168292683
 30
0.0
 11
40.3414733597
 21
134.4168292683
 31
0.0
  0
LINE
  5
14D
330
13E
100
AcDbEntity
  8
SLD-0
 62
     7
100
AcDbLine
 10
41.1453203597
 20
131.4168292683
 30
0.0
 11
41.1453203597
 21
134.4168292683
 31
0.0
  0
LINE
  5
14E
330
13E
100
AcDbEntity
  8
SLD-0
 62
     7
100
AcDbLine
 10
40.3414733597
 20
140.4168292683
 30
0.0
 11
41.1453203597
 21
143.4168292683
 31
0.0
  0
LINE
  5
14F
330
13E
100
AcDbEntity
  8
SLD-0
 62
     7
100
AcDbLine
 10
41.1453203597
 20
143.4168292683
 30
0.0
 11
41.9491673597
 21
140.4168292683
 31
0.0
  0
LINE
  5
150
330
13E
100
AcDbEntity
  8
SLD-0
 62
     7
100
AcDbLine
 10
41.1453203597
 20
143.4168292683
 30
0.0
 11
41.1453203597
 21
140.4168292683
 31
0.0
  0
LINE
  5
151
330
13E
100
AcDbEntity
  8
SLD-0
 62
     7
100
AcDbLine
 10
63.1977259497
 20
131.4168292683
 30
0.0
 11
40.1453203597
 21
131.4168292683
 31
0.0
  0
LINE
  5
152
330
13E
100
AcDbEntity
  8
SLD-0
 62
     7
100
AcDbLine
 10
63.1977259497
 20
143.4168292683
 30
0.0
 11
40.1453203597
 21
143.4168292683
 31
0.0
  0
LINE
  5
153
330
13E
100
AcDbEntity
  8
SLD-0
 62
     7
100
AcDbLine
 10
41.1453203597
 20
131.4168292683
 30
0.0
 11
41.1453203597
 21
143.4168292683
 31
0.0
  0
MTEXT
  5
154
330
13E
100
AcDbEntity
  8
SLD-0
 62
     7
100
AcDbMText
 10
37.0725933198
 20
135.3812165825
 30
0.1
 40
3.5
 41
0.0
 71
     1
 72
     1
  1
12
  7
SLDTEXTSTYLE1
 11
6.123031769111886E-17
 21
1.0
 31
0.0
 73
     1
 44
1.0
  0
ENDBLK
  5
14A
330
13E
100
AcDbEntity
  8
0
100
AcDbBlockEnd
  0
BLOCK
  5
161
330
156
100
AcDbEntity
  8
0
100
AcDbBlockBegin
  2
*D15
 70
     1
 71
     0
 10
0.0
 20
0.0
 30
0.0
  3
*D15
  1

  0
LINE
  5
163
330
156
100
AcDbEntity
  8
SLD-0
 62
     7
100
AcDbLine
 10
67.1977259497
 20
113.6889542679
 30
0.0
 11
64.1977259497
 21
114.4928012679
 31
0.0
  0
LINE
  5
164
330
156
100
AcDbEntity
  8
SLD-0
 62
     7
100
AcDbLine
 10
64.1977259497
 20
114.4928012679
 30
0.0
 11
67.1977259497
 21
115.2966482679
 31
0.0
  0
LINE
  5
165
330
156
100
AcDbEntity
  8
SLD-0
 62
     7
100
AcDbLine
 10
64.1977259497
 20
114.4928012679
 30
0.0
 11
67.1977259497
 21
114.4928012679
 31
0.0
  0
LINE
  5
166
330
156
100
AcDbEntity
  8
SLD-0
 62
     7
100
AcDbLine
 10
53.1977259497
 20
115.2966482679
 30
0.0
 11
56.1977259497
 21
114.4928012679
 31
0.0
  0
LINE
  5
167
330
156
100
AcDbEntity
  8
SLD-0
 62
     7
100
AcDbLine
 10
56.1977259497
 20
114.4928012679
 30
0.0
 11
53.1977259497
 21
113.6889542679
 31
0.0
  0
LINE
  5
168
330
156
100
AcDbEntity
  8
SLD-0
 62
     7
100
AcDbLine
 10
56.1977259497
 20
114.4928012679
 30
0.0
 11
53.1977259497
 21
114.4928012679
 31
0.0
  0
LINE
  5
169
330
156
100
AcDbEntity
  8
SLD-0
 62
     7
100
AcDbLine
 10
64.1977259497
 20
130.4168292683
 30
0.0
 11
64.1977259497
 21
113.4928012679
 31
0.0
  0
LINE
  5
16A
330
156
100
AcDbEntity
  8
SLD-0
 62
     7
100
AcDbLine
 10
56.1977259497
 20
123.9168292683
 30
0.0
 11
56.1977259497
 21
113.4928012679
 31
0.0
  0
LINE
  5
16B
330
156
100
AcDbEntity
  8
SLD-0
 62
     7
100
AcDbLine
 10
64.1977259497
 20
114.4928012679
 30
0.0
 11
69.1977259497
 21
114.4928012679
 31
0.0
  0
LINE
  5
16C
330
156
100
AcDbEntity
  8
SLD-0
 62
     7
100
AcDbLine
 10
64.1977259497
 20
114.4928012679
 30
0.0
 11
56.1977259497
 21
114.4928012679
 31
0.0
  0
LINE
  5
16D
330
156
100
AcDbEntity
  8
SLD-0
 62
     7
100
AcDbLine
 10
56.1977259497
 20
114.4928012679
 30
0.0
 11
51.1977259497
 21
114.4928012679
 31
0.0
  0
MTEXT
  5
16E
330
156
100
AcDbEntity
  8
SLD-0
 62
     7
100
AcDbMText
 10
59.1799196068
 20
118.5655283078
 30
0.1
 40
3.5
 41
0.0
 71
     1
 72
     1
  1
8
  7
SLDTEXTSTYLE1
 73
     1
 44
1.0
  0
ENDBLK
  5
162
330
156
100
AcDbEntity
  8
0
100
AcDbBlockEnd
  0
BLOCK
  5
17A
330
170
100
AcDbEntity
  8
0
100
AcDbBlockBegin
  2
*D16
 70
     1
 71
     0
 10
0.0
 20
0.0
 30
0.0
  3
*D16
  1

  0
LINE
  5
17C
330
170
100
AcDbEntity
  8
SLD-0
 62
     7
100
AcDbLine
 10
117.1977259497
 20
114.2966482679
 30
0.0
 11
120.1977259497
 21
113.4928012679
 31
0.0
  0
LINE
  5
17D
330
170
100
AcDbEntity
  8
SLD-0
 62
     7
100
AcDbLine
 10
120.1977259497
 20
113.4928012679
 30
0.0
 11
117.1977259497
 21
112.6889542679
 31
0.0
  0
LINE
  5
17E
330
170
100
AcDbEntity
  8
SLD-0
 62
     7
100
AcDbLine
 10
120.1977259497
 20
113.4928012679
 30
0.0
 11
117.1977259497
 21
113.4928012679
 31
0.0
  0
LINE
  5
17F
330
170
100
AcDbEntity
  8
SLD-0
 62
     7
100
AcDbLine
 10
67.1977259497
 20
112.6889542679
 30
0.0
 11
64.1977259497
 21
113.4928012679
 31
0.0
  0
LINE
  5
180
330
170
100
AcDbEntity
  8
SLD-0
 62
     7
100
AcDbLine
 10
64.1977259497
 20
113.4928012679
 30
0.0
 11
67.1977259497
 21
114.2966482679
 31
0.0
  0
LINE
  5
181
330
170
100
AcDbEntity
  8
SLD-0
 62
     7
100
AcDbLine
 10
64.1977259497
 20
113.4928012679
 30
0.0
 11
67.1977259497
 21
113.4928012679
 31
0.0
  0
LINE
  5
182
330
170
100
AcDbEntity
  8
SLD-0
 62
     7
100
AcDbLine
 10
120.1977259497
 20
130.4168292683
 30
0.0
 11
120.1977259497
 21
112.4928012679
 31
0.0
  0
LINE
  5
183
330
170
100
AcDbEntity
  8
SLD-0
 62
     7
100
AcDbLine
 10
64.1977259497
 20
130.4168292683
 30
0.0
 11
64.1977259497
 21
112.4928012679
 31
0.0
  0
LINE
  5
184
330
170
100
AcDbEntity
  8
SLD-0
 62
     7
100
AcDbLine
 10
120.1977259497
 20
113.4928012679
 30
0.0
 11
64.1977259497
 21
113.4928012679
 31
0.0
  0
MTEXT
  5
185
330
170
100
AcDbEntity
  8
SLD-0
 62
     7
100
AcDbMText
 10
90.1621132639
 20
117.5655283078
 30
0.1
 40
3.5
 41
0.0
 71
     1
 72
     1
  1
56
  7
SLDTEXTSTYLE1
 73
     1
 44
1.0
  0
ENDBLK
  5
17B
330
170
100
AcDbEntity
  8
0
100
AcDbBlockEnd
  0
BLOCK
  5
18E
330
187
100
AcDbEntity
  8
0
100
AcDbBlockBegin
  2
*D17
 70
     1
 71
     0
 10
0.0
 20
0.0
 30
0.0
  3
*D17
  1

  0
LINE
  5
191
330
187
100
AcDbEntity
  8
SLD-0
 62
     7
100
AcDbLine
 10
152.5650745859
 20
123.1343521485
 30
0.0
 11
150.747842483
 21
125.6530497254
 31
0.0
  0
LINE
  5
192
330
187
100
AcDbEntity
  8
SLD-0
 62
     7
100
AcDbLine
 10
150.747842483
 20
125.6530497254
 30
0.0
 11
153.5809599801
 21
124.3804086735
 31
0.0
  0
LINE
  5
193
330
187
100
AcDbEntity
  8
SLD-0
 62
     7
100
AcDbLine
 10
150.747842483
 20
125.6530497254
 30
0.0
 11
153.073017283
 21
123.757380411
 31
0.0
  0
LINE
  5
194
330
187
100
AcDbEntity
  8
SLD-0
 62
     7
100
AcDbLine
 10
150.747842483
 20
125.6530497254
 30
0.0
 11
167.0327508122
 21
112.3762840358
 31
0.0
  0
MTEXT
  5
195
330
187
100
AcDbEntity
  8
SLD-0
 62
     7
100
AcDbMText
 10
162.0540139941
 20
121.6724338689
 30
0.1
 40
3.5
 41
0.0
 71
     1
 72
     1
  1
2-R
  7
SLDTEXTSTYLE1
 11
0.7750582666654172
 21
-0.6318897714582813
 31
0.0
 73
     1
 44
1.0
  0
MTEXT
  5
196
330
187
100
AcDbEntity
  8
SLD-0
 62
     7
100
AcDbMText
 10
166.7894963321
 20
117.8116881921
 30
0.1
 40
3.5
 41
0.0
 71
     1
 72
     1
  1
2
  7
SLDTEXTSTYLE1
 11
0.7750582666654172
 21
-0.6318897714582813
 31
0.0
 73
     1
 44
1.0
  0
ENDBLK
  5
18F
330
187
100
AcDbEntity
  8
0
100
AcDbBlockEnd
  0
BLOCK
  5
1A2
330
198
100
AcDbEntity
  8
0
100
AcDbBlockBegin
  2
*D18
 70
     1
 71
     0
 10
0.0
 20
0.0
 30
0.0
  3
*D18
  1

  0
LINE
  5
1A4
330
198
100
AcDbEntity
  8
SLD-0
 62
     7
100
AcDbLine
 10
59.1977259497
 20
164.8409904527
 30
0.0
 11
56.1977259497
 21
165.6448374527
 31
0.0
  0
LINE
  5
1A5
330
198
100
AcDbEntity
  8
SLD-0
 62
     7
100
AcDbLine
 10
56.1977259497
 20
165.6448374527
 30
0.0
 11
59.1977259497
 21
166.4486844527
 31
0.0
  0
LINE
  5
1A6
330
198
100
AcDbEntity
  8
SLD-0
 62
     7
100
AcDbLine
 10
56.1977259497
 20
165.6448374527
 30
0.0
 11
59.1977259497
 21
165.6448374527
 31
0.0
  0
LINE
  5
1A7
330
198
100
AcDbEntity
  8
SLD-0
 62
     7
100
AcDbLine
 10
139.1977259497
 20
166.4486844527
 30
0.0
 11
142.1977259497
 21
165.6448374527
 31
0.0
  0
LINE
  5
1A8
330
198
100
AcDbEntity
  8
SLD-0
 62
     7
100
AcDbLine
 10
142.1977259497
 20
165.6448374527
 30
0.0
 11
139.1977259497
 21
164.8409904527
 31
0.0
  0
LINE
  5
1A9
330
198
100
AcDbEntity
  8
SLD-0
 62
     7
100
AcDbLine
 10
142.1977259497
 20
165.6448374527
 30
0.0
 11
139.1977259497
 21
165.6448374527
 31
0.0
  0
LINE
  5
1AA
330
198
100
AcDbEntity
  8
SLD-0
 62
     7
100
AcDbLine
 10
56.1977259497
 20
150.9168292683
 30
0.0
 11
56.1977259497
 21
166.6448374527
 31
0.0
  0
LINE
  5
1AB
330
198
100
AcDbEntity
  8
SLD-0
 62
     7
100
AcDbLine
 10
142.1977259497
 20
148.9168292683
 30
0.0
 11
142.1977259497
 21
166.6448374527
 31
0.0
  0
LINE
  5
1AC
330
198
100
AcDbEntity
  8
SLD-0
 62
     7
100
AcDbLine
 10
56.1977259497
 20
165.6448374527
 30
0.0
 11
142.1977259497
 21
165.6448374527
 31
0.0
  0
MTEXT
  5
1AD
330
198
100
AcDbEntity
  8
SLD-0
 62
     7
100
AcDbMText
 10
97.1621132639
 20
169.7175644926
 30
0.1
 40
3.5
 41
0.0
 71
     1
 72
     1
  1
86
  7
SLDTEXTSTYLE1
 73
     1
 44
1.0
  0
ENDBLK
  5
1A3
330
198
100
AcDbEntity
  8
0
100
AcDbBlockEnd
  0
BLOCK
  5
1BA
330
1AF
100
AcDbEntity
  8
0
100
AcDbBlockBegin
  2
*D19
 70
     1
 71
     0
 10
0.0
 20
0.0
 30
0.0
  3
*D19
  1

  0
ARC
  5
1BC
330
1AF
100
AcDbEntity
  8
SLD-0
 62
     7
100
AcDbCircle
 10
170.414755561
 20
136.9168292683
 30
0.0
 40
0.75
100
AcDbArc
 50
90.0
 51
270.0
  0
ARC
  5
1BD
330
1AF
100
AcDbEntity
  8
SLD-0
 62
     7
100
AcDbCircle
 10
170.414755561
 20
136.9168292683
 30
0.0
 40
0.75
100
AcDbArc
 50
270.0
 51
90.0
  0
LINE
  5
1BE
330
1AF
100
AcDbEntity
  8
SLD-0
 62
     7
100
AcDbLine
 10
169.610908561
 20
121.9168292683
 30
0.0
 11
170.414755561
 21
124.9168292683
 31
0.0
  0
LINE
  5
1BF
330
1AF
100
AcDbEntity
  8
SLD-0
 62
     7
100
AcDbLine
 10
170.414755561
 20
124.9168292683
 30
0.0
 11
171.218602561
 21
121.9168292683
 31
0.0
  0
LINE
  5
1C0
330
1AF
100
AcDbEntity
  8
SLD-0
 62
     7
100
AcDbLine
 10
170.414755561
 20
124.9168292683
 30
0.0
 11
170.414755561
 21
121.9168292683
 31
0.0
  0
LINE
  5
1C1
330
1AF
100
AcDbEntity
  8
SLD-0
 62
     7
100
AcDbLine
 10
170.414755561
 20
138.4168292683
 30
0.0
 11
170.414755561
 21
139.9168292683
 31
0.0
  0
LINE
  5
1C2
330
1AF
100
AcDbEntity
  8
SLD-0
 62
     7
100
AcDbLine
 10
150.1977259497
 20
124.9168292683
 30
0.0
 11
171.414755561
 21
124.9168292683
 31
0.0
  0
LINE
  5
1C3
330
1AF
100
AcDbEntity
  8
SLD-0
 62
     7
100
AcDbLine
 10
152.1977259497
 20
136.9168292683
 30
0.0
 11
171.414755561
 21
136.9168292683
 31
0.0
  0
LINE
  5
1C4
330
1AF
100
AcDbEntity
  8
SLD-0
 62
     7
100
AcDbLine
 10
170.414755561
 20
124.9168292683
 30
0.0
 11
170.414755561
 21
119.9168292683
 31
0.0
  0
LINE
  5
1C5
330
1AF
100
AcDbEntity
  8
SLD-0
 62
     7
100
AcDbLine
 10
170.414755561
 20
124.9168292683
 30
0.0
 11
170.414755561
 21
136.9168292683
 31
0.0
  0
LINE
  5
1C6
330
1AF
100
AcDbEntity
  8
SLD-0
 62
     7
100
AcDbLine
 10
170.414755561
 20
136.9168292683
 30
0.0
 11
170.414755561
 21
141.9168292683
 31
0.0
  0
MTEXT
  5
1C7
330
1AF
100
AcDbEntity
  8
SLD-0
 62
     7
100
AcDbMText
 10
166.3420285211
 20
128.8812165825
 30
0.1
 40
3.5
 41
0.0
 71
     1
 72
     1
  1
12
  7
SLDTEXTSTYLE1
 11
6.123031769111886E-17
 21
1.0
 31
0.0
 73
     1
 44
1.0
  0
ENDBLK
  5
1BB
330
1AF
100
AcDbEntity
  8
0
100
AcDbBlockEnd
  0
BLOCK
  5
1D4
330
1C9
100
AcDbEntity
  8
0
100
AcDbBlockBegin
  2
*D20
 70
     1
 71
     0
 10
0.0
 20
0.0
 30
0.0
  3
*D20
  1

  0
ARC
  5
1D7
330
1C9
100
AcDbEntity
  8
SLD-0
 62
     7
100
AcDbCircle
 10
170.414755561
 20
136.9168292683
 30
0.0
 40
0.75
100
AcDbArc
 50
270.0
 51
90.0
  0
ARC
  5
1D8
330
1C9
100
AcDbEntity
  8
SLD-0
 62
     7
100
AcDbCircle
 10
170.414755561
 20
136.9168292683
 30
0.0
 40
0.75
100
AcDbArc
 50
90.0
 51
270.0
  0
ARC
  5
1D9
330
1C9
100
AcDbEntity
  8
SLD-0
 62
     7
100
AcDbCircle
 10
170.414755561
 20
137.9168292683
 30
0.0
 40
0.75
100
AcDbArc
 50
90.0
 51
270.0
  0
ARC
  5
1DA
330
1C9
100
AcDbEntity
  8
SLD-0
 62
     7
100
AcDbCircle
 10
170.414755561
 20
137.9168292683
 30
0.0
 40
0.75
100
AcDbArc
 50
270.0
 51
90.0
  0
LINE
  5
1DB
330
1C9
100
AcDbEntity
  8
SLD-0
 62
     7
100
AcDbLine
 10
170.414755561
 20
135.4168292683
 30
0.0
 11
170.414755561
 21
133.9168292683
 31
0.0
  0
LINE
  5
1DC
330
1C9
100
AcDbEntity
  8
SLD-0
 62
     7
100
AcDbLine
 10
170.414755561
 20
139.4168292683
 30
0.0
 11
170.414755561
 21
140.9168292683
 31
0.0
  0
LINE
  5
1DD
330
1C9
100
AcDbEntity
  8
SLD-0
 62
     7
100
AcDbLine
 10
152.1977259497
 20
136.9168292683
 30
0.0
 11
171.414755561
 21
136.9168292683
 31
0.0
  0
LINE
  5
1DE
330
1C9
100
AcDbEntity
  8
SLD-0
 62
     7
100
AcDbLine
 10
152.1977259497
 20
137.9168292683
 30
0.0
 11
171.414755561
 21
137.9168292683
 31
0.0
  0
LINE
  5
1DF
330
1C9
100
AcDbEntity
  8
SLD-0
 62
     7
100
AcDbLine
 10
170.414755561
 20
136.9168292683
 30
0.0
 11
170.414755561
 21
131.9168292683
 31
0.0
  0
LINE
  5
1E0
330
1C9
100
AcDbEntity
  8
SLD-0
 62
     7
100
AcDbLine
 10
170.414755561
 20
136.9168292683
 30
0.0
 11
170.414755561
 21
137.9168292683
 31
0.0
  0
LINE
  5
1E1
330
1C9
100
AcDbEntity
  8
SLD-0
 62
     7
100
AcDbLine
 10
170.414755561
 20
137.9168292683
 30
0.0
 11
170.414755561
 21
142.9168292683
 31
0.0
  0
LINE
  5
1E2
330
1C9
100
AcDbEntity
  8
SLD-0
 62
     7
100
AcDbLine
 10
170.414755561
 20
137.4168292683
 30
0.0
 11
173.564745507
 21
140.2687807673
 31
0.0
  0
LINE
  5
1E3
330
1C9
100
AcDbEntity
  8
SLD-0
 62
     7
100
AcDbLine
 10
173.564745507
 20
140.2687807673
 30
0.0
 11
178.7753581928
 21
140.2687807673
 31
0.0
  0
MTEXT
  5
1E4
330
1C9
100
AcDbEntity
  8
SLD-0
 62
     7
100
AcDbMText
 10
175.152245507
 20
144.3415078072
 30
0.1
 40
3.5
 41
0.0
 71
     1
 72
     1
  1
1
  7
SLDTEXTSTYLE1
 73
     1
 44
1.0
  0
ENDBLK
  5
1D5
330
1C9
100
AcDbEntity
  8
0
100
AcDbBlockEnd
  0
BLOCK
  5
1F2
330
1E6
100
AcDbEntity
  8
0
100
AcDbBlockBegin
  2
*D21
 70
     1
 71
     0
 10
0.0
 20
0.0
 30
0.0
  3
*D21
  1

  0
ARC
  5
1F4
330
1E6
100
AcDbEntity
  8
SLD-0
 62
     7
100
AcDbCircle
 10
170.414755561
 20
137.9168292683
 30
0.0
 40
0.75
100
AcDbArc
 50
270.0
 51
90.0
  0
ARC
  5
1F5
330
1E6
100
AcDbEntity
  8
SLD-0
 62
     7
100
AcDbCircle
 10
170.414755561
 20
137.9168292683
 30
0.0
 40
0.75
100
AcDbArc
 50
90.0
 51
270.0
  0
LINE
  5
1F6
330
1E6
100
AcDbEntity
  8
SLD-0
 62
     7
100
AcDbLine
 10
170.414755561
 20
136.4168292683
 30
0.0
 11
170.414755561
 21
134.9168292683
 31
0.0
  0
LINE
  5
1F7
330
1E6
100
AcDbEntity
  8
SLD-0
 62
     7
100
AcDbLine
 10
171.218602561
 20
147.4168292683
 30
0.0
 11
170.414755561
 21
144.4168292683
 31
0.0
  0
LINE
  5
1F8
330
1E6
100
AcDbEntity
  8
SLD-0
 62
     7
100
AcDbLine
 10
170.414755561
 20
144.4168292683
 30
0.0
 11
169.610908561
 21
147.4168292683
 31
0.0
  0
LINE
  5
1F9
330
1E6
100
AcDbEntity
  8
SLD-0
 62
     7
100
AcDbLine
 10
170.414755561
 20
144.4168292683
 30
0.0
 11
170.414755561
 21
147.4168292683
 31
0.0
  0
LINE
  5
1FA
330
1E6
100
AcDbEntity
  8
SLD-0
 62
     7
100
AcDbLine
 10
152.1977259497
 20
137.9168292683
 30
0.0
 11
171.414755561
 21
137.9168292683
 31
0.0
  0
LINE
  5
1FB
330
1E6
100
AcDbEntity
  8
SLD-0
 62
     7
100
AcDbLine
 10
152.1977259497
 20
144.4168292683
 30
0.0
 11
171.414755561
 21
144.4168292683
 31
0.0
  0
LINE
  5
1FC
330
1E6
100
AcDbEntity
  8
SLD-0
 62
     7
100
AcDbLine
 10
170.414755561
 20
137.9168292683
 30
0.0
 11
170.414755561
 21
132.9168292683
 31
0.0
  0
LINE
  5
1FD
330
1E6
100
AcDbEntity
  8
SLD-0
 62
     7
100
AcDbLine
 10
170.414755561
 20
137.9168292683
 30
0.0
 11
170.414755561
 21
144.4168292683
 31
0.0
  0
LINE
  5
1FE
330
1E6
100
AcDbEntity
  8
SLD-0
 62
     7
100
AcDbLine
 10
170.414755561
 20
144.4168292683
 30
0.0
 11
170.414755561
 21
161.1964739166
 31
0.0
  0
MTEXT
  5
1FF
330
1E6
100
AcDbEntity
  8
SLD-0
 62
     7
100
AcDbMText
 10
166.3420285211
 20
153.4991334806
 30
0.1
 40
3.5
 41
0.0
 71
     1
 72
     1
  1
6.5
  7
SLDTEXTSTYLE1
 11
6.123031769111886E-17
 21
1.0
 31
0.0
 73
     1
 44
1.0
  0
ENDBLK
  5
1F3
330
1E6
100
AcDbEntity
  8
0
100
AcDbBlockEnd
  0
BLOCK
  5
20D
330
201
100
AcDbEntity
  8
0
100
AcDbBlockBegin
  2
*D22
 70
     1
 71
     0
 10
0.0
 20
0.0
 30
0.0
  3
*D22
  1

  0
LINE
  5
20F
330
201
100
AcDbEntity
  8
SLD-0
 62
     7
100
AcDbLine
 10
40.3414733597
 20
121.9168292683
 30
0.0
 11
41.1453203597
 21
124.9168292683
 31
0.0
  0
LINE
  5
210
330
201
100
AcDbEntity
  8
SLD-0
 62
     7
100
AcDbLine
 10
41.1453203597
 20
124.9168292683
 30
0.0
 11
41.9491673597
 21
121.9168292683
 31
0.0
  0
LINE
  5
211
330
201
100
AcDbEntity
  8
SLD-0
 62
     7
100
AcDbLine
 10
41.1453203597
 20
124.9168292683
 30
0.0
 11
41.1453203597
 21
121.9168292683
 31
0.0
  0
LINE
  5
212
330
201
100
AcDbEntity
  8
SLD-0
 62
     7
100
AcDbLine
 10
41.9491673597
 20
134.4168292683
 30
0.0
 11
41.1453203597
 21
131.4168292683
 31
0.0
  0
LINE
  5
213
330
201
100
AcDbEntity
  8
SLD-0
 62
     7
100
AcDbLine
 10
41.1453203597
 20
131.4168292683
 30
0.0
 11
40.3414733597
 21
134.4168292683
 31
0.0
  0
LINE
  5
214
330
201
100
AcDbEntity
  8
SLD-0
 62
     7
100
AcDbLine
 10
41.1453203597
 20
131.4168292683
 30
0.0
 11
41.1453203597
 21
134.4168292683
 31
0.0
  0
LINE
  5
215
330
201
100
AcDbEntity
  8
SLD-0
 62
     7
100
AcDbLine
 10
55.1977259497
 20
124.9168292683
 30
0.0
 11
40.1453203597
 21
124.9168292683
 31
0.0
  0
LINE
  5
216
330
201
100
AcDbEntity
  8
SLD-0
 62
     7
100
AcDbLine
 10
61.1977259497
 20
131.4168292683
 30
0.0
 11
40.1453203597
 21
131.4168292683
 31
0.0
  0
LINE
  5
217
330
201
100
AcDbEntity
  8
SLD-0
 62
     7
100
AcDbLine
 10
41.1453203597
 20
124.9168292683
 30
0.0
 11
41.1453203597
 21
113.8690697058
 31
0.0
  0
LINE
  5
218
330
201
100
AcDbEntity
  8
SLD-0
 62
     7
100
AcDbLine
 10
41.1453203597
 20
124.9168292683
 30
0.0
 11
41.1453203597
 21
131.4168292683
 31
0.0
  0
LINE
  5
219
330
201
100
AcDbEntity
  8
SLD-0
 62
     7
100
AcDbLine
 10
41.1453203597
 20
131.4168292683
 30
0.0
 11
41.1453203597
 21
136.4168292683
 31
0.0
  0
MTEXT
  5
21A
330
201
100
AcDbEntity
  8
SLD-0
 62
     7
100
AcDbMText
 10
37.0725933198
 20
115.4565697058
 30
0.1
 40
3.5
 41
0.0
 71
     1
 72
     1
  1
6.5
  7
SLDTEXTSTYLE1
 11
6.123031769111886E-17
 21
1.0
 31
0.0
 73
     1
 44
1.0
  0
ENDBLK
  5
20E
330
201
100
AcDbEntity
  8
0
100
AcDbBlockEnd
  0
BLOCK
  5
223
330
21C
100
AcDbEntity
  8
0
100
AcDbBlockBegin
  2
*D23
 70
     1
 71
     0
 10
0.0
 20
0.0
 30
0.0
  3
*D23
  1

  0
LINE
  5
226
330
21C
100
AcDbEntity
  8
SLD-0
 62
     7
100
AcDbLine
 10
123.7164016631
 20
126.1892494053
 30
0.0
 11
122.34159446
 21
128.9742225028
 31
0.0
  0
LINE
  5
227
330
21C
100
AcDbEntity
  8
SLD-0
 62
     7
100
AcDbLine
 10
122.34159446
 20
128.9742225028
 30
0.0
 11
124.9246983527
 21
127.2497677256
 31
0.0
  0
LINE
  5
228
330
21C
100
AcDbEntity
  8
SLD-0
 62
     7
100
AcDbLine
 10
122.34159446
 20
128.9742225028
 30
0.0
 11
124.3205500079
 21
126.7195085654
 31
0.0
  0
LINE
  5
229
330
21C
100
AcDbEntity
  8
SLD-0
 62
     7
100
AcDbLine
 10
122.34159446
 20
128.9742225028
 30
0.0
 11
139.248654093
 21
109.7112415661
 31
0.0
  0
MTEXT
  5
22A
330
21C
100
AcDbEntity
  8
SLD-0
 62
     7
100
AcDbMText
 10
134.5401051529
 20
121.2371774931
 30
0.1
 40
3.5
 41
0.0
 71
     1
 72
     1
  1
2x2-R
  7
SLDTEXTSTYLE1
 11
0.6596518493100916
 21
-0.751571312452635
 31
0.0
 73
     1
 44
1.0
  0
ENDBLK
  5
224
330
21C
100
AcDbEntity
  8
0
100
AcDbBlockEnd
  0
BLOCK
  5
237
330
22C
100
AcDbEntity
  8
0
100
AcDbBlockBegin
  2
*D24
 70
     1
 71
     0
 10
0.0
 20
0.0
 30
0.0
  3
*D24
  1

  0
LINE
  5
239
330
22C
100
AcDbEntity
  8
SLD-0
 62
     7
100
AcDbLine
 10
178.0389478157
 20
213.7189128211
 30
0.0
 11
177.2351008157
 21
210.7189128211
 31
0.0
  0
LINE
  5
23A
330
22C
100
AcDbEntity
  8
SLD-0
 62
     7
100
AcDbLine
 10
177.2351008157
 20
210.7189128211
 30
0.0
 11
176.4312538157
 21
213.7189128211
 31
0.0
  0
LINE
  5
23B
330
22C
100
AcDbEntity
  8
SLD-0
 62
     7
100
AcDbLine
 10
177.2351008157
 20
210.7189128211
 30
0.0
 11
177.2351008157
 21
213.7189128211
 31
0.0
  0
LINE
  5
23C
330
22C
100
AcDbEntity
  8
SLD-0
 62
     7
100
AcDbLine
 10
176.4312538157
 20
197.7189128211
 30
0.0
 11
177.2351008157
 21
200.7189128211
 31
0.0
  0
LINE
  5
23D
330
22C
100
AcDbEntity
  8
SLD-0
 62
     7
100
AcDbLine
 10
177.2351008157
 20
200.7189128211
 30
0.0
 11
178.0389478157
 21
197.7189128211
 31
0.0
  0
LINE
  5
23E
330
22C
100
AcDbEntity
  8
SLD-0
 62
     7
100
AcDbLine
 10
177.2351008157
 20
200.7189128211
 30
0.0
 11
177.2351008157
 21
197.7189128211
 31
0.0
  0
LINE
  5
23F
330
22C
100
AcDbEntity
  8
SLD-0
 62
     7
100
AcDbLine
 10
152.1977259497
 20
210.7189128211
 30
0.0
 11
178.2351008157
 21
210.7189128211
 31
0.0
  0
LINE
  5
240
330
22C
100
AcDbEntity
  8
SLD-0
 62
     7
100
AcDbLine
 10
152.1977259497
 20
200.7189128211
 30
0.0
 11
178.2351008157
 21
200.7189128211
 31
0.0
  0
LINE
  5
241
330
22C
100
AcDbEntity
  8
SLD-0
 62
     7
100
AcDbLine
 10
177.2351008157
 20
210.7189128211
 30
0.0
 11
177.2351008157
 21
215.7189128211
 31
0.0
  0
LINE
  5
242
330
22C
100
AcDbEntity
  8
SLD-0
 62
     7
100
AcDbLine
 10
177.2351008157
 20
210.7189128211
 30
0.0
 11
177.2351008157
 21
200.7189128211
 31
0.0
  0
LINE
  5
243
330
22C
100
AcDbEntity
  8
SLD-0
 62
     7
100
AcDbLine
 10
177.2351008157
 20
200.7189128211
 30
0.0
 11
177.2351008157
 21
195.7189128211
 31
0.0
  0
MTEXT
  5
244
330
22C
100
AcDbEntity
  8
SLD-0
 62
     7
100
AcDbMText
 10
173.1623737758
 20
203.6833001353
 30
0.1
 40
3.5
 41
0.0
 71
     1
 72
     1
  1
10
  7
SLDTEXTSTYLE1
 11
-7.044197039909883E-15
 21
1.0
 31
0.0
 73
     1
 44
1.0
  0
ENDBLK
  5
238
330
22C
100
AcDbEntity
  8
0
100
AcDbBlockEnd
  0
BLOCK
  5
251
330
246
100
AcDbEntity
  8
0
100
AcDbBlockBegin
  2
*D25
 70
     1
 71
     0
 10
0.0
 20
0.0
 30
0.0
  3
*D25
  1

  0
LINE
  5
253
330
246
100
AcDbEntity
  8
SLD-0
 62
     7
100
AcDbLine
 10
167.0327762865
 20
202.7189128211
 30
0.0
 11
167.8366232865
 21
205.7189128211
 31
0.0
  0
LINE
  5
254
330
246
100
AcDbEntity
  8
SLD-0
 62
     7
100
AcDbLine
 10
167.8366232865
 20
205.7189128211
 30
0.0
 11
168.6404702865
 21
202.7189128211
 31
0.0
  0
LINE
  5
255
330
246
100
AcDbEntity
  8
SLD-0
 62
     7
100
AcDbLine
 10
167.8366232865
 20
205.7189128211
 30
0.0
 11
167.8366232865
 21
202.7189128211
 31
0.0
  0
LINE
  5
256
330
246
100
AcDbEntity
  8
SLD-0
 62
     7
100
AcDbLine
 10
168.6404702865
 20
213.7189128211
 30
0.0
 11
167.8366232865
 21
210.7189128211
 31
0.0
  0
LINE
  5
257
330
246
100
AcDbEntity
  8
SLD-0
 62
     7
100
AcDbLine
 10
167.8366232865
 20
210.7189128211
 30
0.0
 11
167.0327762865
 21
213.7189128211
 31
0.0
  0
LINE
  5
258
330
246
100
AcDbEntity
  8
SLD-0
 62
     7
100
AcDbLine
 10
167.8366232865
 20
210.7189128211
 30
0.0
 11
167.8366232865
 21
213.7189128211
 31
0.0
  0
LINE
  5
259
330
246
100
AcDbEntity
  8
SLD-0
 62
     7
100
AcDbLine
 10
147.6977259497
 20
205.7189128211
 30
0.0
 11
168.8366232865
 21
205.7189128211
 31
0.0
  0
LINE
  5
25A
330
246
100
AcDbEntity
  8
SLD-0
 62
     7
100
AcDbLine
 10
152.1977259497
 20
210.7189128211
 30
0.0
 11
168.8366232865
 21
210.7189128211
 31
0.0
  0
LINE
  5
25B
330
246
100
AcDbEntity
  8
SLD-0
 62
     7
100
AcDbLine
 10
167.8366232865
 20
205.7189128211
 30
0.0
 11
167.8366232865
 21
200.7189128211
 31
0.0
  0
LINE
  5
25C
330
246
100
AcDbEntity
  8
SLD-0
 62
     7
100
AcDbLine
 10
167.8366232865
 20
205.7189128211
 30
0.0
 11
167.8366232865
 21
210.7189128211
 31
0.0
  0
LINE
  5
25D
330
246
100
AcDbEntity
  8
SLD-0
 62
     7
100
AcDbLine
 10
167.8366232865
 20
210.7189128211
 30
0.0
 11
167.8366232865
 21
215.7189128211
 31
0.0
  0
MTEXT
  5
25E
330
246
100
AcDbEntity
  8
SLD-0
 62
     7
100
AcDbMText
 10
163.7638962466
 20
207.2011064782
 30
0.1
 40
3.5
 41
0.0
 71
     1
 72
     1
  1
5
  7
SLDTEXTSTYLE1
 11
6.123031769111886E-17
 21
1.0
 31
0.0
 73
     1
 44
1.0
  0
ENDBLK
  5
252
330
246
100
AcDbEntity
  8
0
100
AcDbBlockEnd
  0
BLOCK
  5
26A
330
260
100
AcDbEntity
  8
0
100
AcDbBlockBegin
  2
*D26
 70
     1
 71
     0
 10
0.0
 20
0.0
 30
0.0
  3
*D26
  1

  0
LINE
  5
26C
330
260
100
AcDbEntity
  8
SLD-0
 62
     7
100
AcDbLine
 10
143.6977259497
 20
221.505724415
 30
0.0
 11
146.6977259497
 21
220.701877415
 31
0.0
  0
LINE
  5
26D
330
260
100
AcDbEntity
  8
SLD-0
 62
     7
100
AcDbLine
 10
146.6977259497
 20
220.701877415
 30
0.0
 11
143.6977259497
 21
219.898030415
 31
0.0
  0
LINE
  5
26E
330
260
100
AcDbEntity
  8
SLD-0
 62
     7
100
AcDbLine
 10
146.6977259497
 20
220.701877415
 30
0.0
 11
143.6977259497
 21
220.701877415
 31
0.0
  0
LINE
  5
26F
330
260
100
AcDbEntity
  8
SLD-0
 62
     7
100
AcDbLine
 10
59.1977259497
 20
219.898030415
 30
0.0
 11
56.1977259497
 21
220.701877415
 31
0.0
  0
LINE
  5
270
330
260
100
AcDbEntity
  8
SLD-0
 62
     7
100
AcDbLine
 10
56.1977259497
 20
220.701877415
 30
0.0
 11
59.1977259497
 21
221.505724415
 31
0.0
  0
LINE
  5
271
330
260
100
AcDbEntity
  8
SLD-0
 62
     7
100
AcDbLine
 10
56.1977259497
 20
220.701877415
 30
0.0
 11
59.1977259497
 21
220.701877415
 31
0.0
  0
LINE
  5
272
330
260
100
AcDbEntity
  8
SLD-0
 62
     7
100
AcDbLine
 10
146.6977259497
 20
206.7189128211
 30
0.0
 11
146.6977259497
 21
221.701877415
 31
0.0
  0
LINE
  5
273
330
260
100
AcDbEntity
  8
SLD-0
 62
     7
100
AcDbLine
 10
56.1977259497
 20
211.7189128211
 30
0.0
 11
56.1977259497
 21
221.701877415
 31
0.0
  0
LINE
  5
274
330
260
100
AcDbEntity
  8
SLD-0
 62
     7
100
AcDbLine
 10
146.6977259497
 20
220.701877415
 30
0.0
 11
56.1977259497
 21
220.701877415
 31
0.0
  0
MTEXT
  5
275
330
260
100
AcDbEntity
  8
SLD-0
 62
     7
100
AcDbMText
 10
97.3749993888
 20
224.7746044549
 30
0.1
 40
3.5
 41
0.0
 71
     1
 72
     1
  1
90.5
  7
SLDTEXTSTYLE1
 73
     1
 44
1.0
  0
ENDBLK
  5
26B
330
260
100
AcDbEntity
  8
0
100
AcDbBlockEnd
  0
BLOCK
  5
27E
330
277
100
AcDbEntity
  8
0
100
AcDbBlockBegin
  2
*D27
 70
     1
 71
     0
 10
0.0
 20
0.0
 30
0.0
  3
*D27
  1

  0
LINE
  5
281
330
277
100
AcDbEntity
  8
SLD-0
 62
     7
100
AcDbLine
 10
149.3964531757
 20
210.2933571982
 30
0.0
 11
147.5345296782
 21
207.8075151097
 31
0.0
  0
LINE
  5
282
330
277
100
AcDbEntity
  8
SLD-0
 62
     7
100
AcDbLine
 10
147.5345296782
 20
207.8075151097
 30
0.0
 11
147.9040827901
 21
210.8912791242
 31
0.0
  0
LINE
  5
283
330
277
100
AcDbEntity
  8
SLD-0
 62
     7
100
AcDbLine
 10
147.5345296782
 20
207.8075151097
 30
0.0
 11
148.6502679829
 21
210.5923181612
 31
0.0
  0
LINE
  5
284
330
277
100
AcDbEntity
  8
SLD-0
 62
     7
100
AcDbLine
 10
147.5345296782
 20
207.8075151097
 30
0.0
 11
152.6997422911
 21
220.6995165629
 31
0.0
  0
LINE
  5
285
330
277
100
AcDbEntity
  8
SLD-0
 62
     7
100
AcDbLine
 10
152.6997422911
 20
220.6995165629
 30
0.0
 11
167.4391463545
 21
220.6995165629
 31
0.0
  0
MTEXT
  5
286
330
277
100
AcDbEntity
  8
SLD-0
 62
     7
100
AcDbMText
 10
154.1247422911
 20
224.7722436028
 30
0.1
 40
3.5
 41
0.0
 71
     1
 72
     1
  1
%%c
  7
SLDTEXTSTYLE1
 73
     1
 44
1.0
  0
MTEXT
  5
287
330
277
100
AcDbEntity
  8
SLD-0
 62
     7
100
AcDbMText
 10
159.7418059184
 20
224.7722436028
 30
0.1
 40
3.5
 41
0.0
 71
     1
 72
     1
  1
4.5
  7
SLDTEXTSTYLE1
 73
     1
 44
1.0
  0
ENDBLK
  5
27F
330
277
100
AcDbEntity
  8
0
100
AcDbBlockEnd
  0
ENDSEC
  0
SECTION
  2
ENTITIES
  0
LINE
  5
79
330
1F
100
AcDbEntity
  8
SLD-0
  6
Continuous
 62
     7
370
     0
100
AcDbLine
 10
20.2604743903
 20
285.0
 30
0.0
 11
196.7604743903
 21
285.0
 31
0.0
  0
LINE
  5
7A
330
1F
100
AcDbEntity
  8
SLD-0
  6
Continuous
 62
     7
370
     0
100
AcDbLine
 10
20.2604743903
 20
285.0
 30
0.0
 11
20.2604743903
 21
10.0
 31
0.0
  0
LINE
  5
7B
330
1F
100
AcDbEntity
  8
SLD-0
  6
Continuous
 62
     7
370
     0
100
AcDbLine
 10
20.2604743903
 20
10.0
 30
0.0
 11
196.7604743903
 21
10.0
 31
0.0
  0
LINE
  5
7C
330
1F
100
AcDbEntity
  8
SLD-0
  6
Continuous
 62
     7
370
     0
100
AcDbLine
 10
196.7604743903
 20
285.0
 30
0.0
 11
196.7604743903
 21
10.0
 31
0.0
  0
LINE
  5
7D
330
1F
100
AcDbEntity
  8
SLD-0
  6
Continuous
 62
     7
370
     0
100
AcDbLine
 10
127.0104743903
 20
50.75
 30
0.0
 11
196.7604743903
 21
50.75
 31
0.0
  0
LINE
  5
7E
330
1F
100
AcDbEntity
  8
SLD-0
  6
Continuous
 62
     7
370
     0
100
AcDbLine
 10
127.0104743903
 20
50.75
 30
0.0
 11
127.0104743903
 21
10.0
 31
0.0
  0
LINE
  5
7F
330
1F
100
AcDbEntity
  8
SLD-0
  6
Continuous
 62
     7
370
     0
100
AcDbLine
 10
127.0104743903
 20
22.75
 30
0.0
 11
196.7604743903
 21
22.75
 31
0.0
  0
LINE
  5
80
330
1F
100
AcDbEntity
  8
SLD-0
  6
Continuous
 62
     7
370
     0
100
AcDbLine
 10
127.0104743903
 20
36.75
 30
0.0
 11
196.7604743903
 21
36.75
 31
0.0
  0
LINE
  5
81
330
1F
100
AcDbEntity
  8
SLD-0
  6
Continuous
 62
     7
370
    30
100
AcDbLine
 10
64.1977259497
 20
128.1668292683
 30
0.0
 11
120.1977259497
 21
128.1668292683
 31
0.0
  0
LINE
  5
82
330
1F
100
AcDbEntity
  8
SLD-0
  6
Continuous
 62
     7
370
    30
100
AcDbLine
 10
120.1977259497
 20
134.6668292683
 30
0.0
 11
64.1977259497
 21
134.6668292683
 31
0.0
  0
LINE
  5
83
330
1F
100
AcDbEntity
  8
SLD-0
  6
Continuous
 62
     7
370
    30
100
AcDbLine
 10
151.1977259497
 20
126.9168292921
 30
0.0
 11
151.1977268736
 21
136.9168292683
 31
0.0
  0
LINE
  5
84
330
1F
100
AcDbEntity
  8
SLD-0
  6
Continuous
 62
     7
370
    30
100
AcDbLine
 10
56.1977243404
 20
124.9168292921
 30
0.0
 11
149.1977259497
 21
124.9168292921
 31
0.0
  0
LINE
  5
85
330
1F
100
AcDbEntity
  8
SLD-0
  6
Continuous
 62
     7
370
    30
100
AcDbLine
 10
56.1977243404
 20
149.9168296647
 30
0.0
 11
56.1977243404
 21
124.9168292921
 31
0.0
  0
LINE
  5
86
330
1F
100
AcDbEntity
  8
SLD-0
  6
Continuous
 62
     7
370
    30
100
AcDbLine
 10
140.1977259497
 20
149.9168296647
 30
0.0
 11
56.1977243404
 21
149.9168296647
 31
0.0
  0
LINE
  5
87
330
1F
100
AcDbEntity
  8
SLD-0
  6
Continuous
 62
     7
370
    30
100
AcDbLine
 10
142.1977263297
 20
144.4168298808
 30
0.0
 11
142.1977259497
 21
147.9168296647
 31
0.0
  0
LINE
  5
88
330
1F
100
AcDbEntity
  8
SLD-0
  6
Continuous
 62
     7
370
    30
100
AcDbLine
 10
151.1977268736
 20
137.9168292683
 30
0.0
 11
151.1977268736
 21
144.4168298808
 31
0.0
  0
LINE
  5
89
330
1F
100
AcDbEntity
  8
SLD-0
  6
Continuous
 62
     7
370
    30
100
AcDbLine
 10
140.6784666481
 20
137.9168292683
 30
0.0
 11
151.1977268736
 21
137.9168292683
 31
0.0
  0
LINE
  5
8A
330
1F
100
AcDbEntity
  8
SLD-0
  6
Continuous
 62
     7
370
    30
100
AcDbLine
 10
151.1977268736
 20
136.9168292683
 30
0.0
 11
140.6784666481
 21
136.9168292683
 31
0.0
  0
LINE
  5
8B
330
1F
100
AcDbEntity
  8
SLD-0
  6
Continuous
 62
     7
370
    30
100
AcDbLine
 10
120.1977259497
 20
146.6668292683
 30
0.0
 11
64.1977259497
 21
146.6668292683
 31
0.0
  0
LINE
  5
8C
330
1F
100
AcDbEntity
  8
SLD-0
  6
Continuous
 62
     7
370
    30
100
AcDbLine
 10
64.1977259497
 20
140.1668292683
 30
0.0
 11
120.1977259497
 21
140.1668292683
 31
0.0
  0
LINE
  5
8D
330
1F
100
AcDbEntity
  8
SLD-0
  6
Continuous
 62
     7
370
    30
100
AcDbLine
 10
151.1977268736
 20
144.4168298808
 30
0.0
 11
142.1977263297
 21
144.4168298808
 31
0.0
  0
LINE
  5
8E
330
1F
100
AcDbEntity
  8
SLD-0
  6
Continuous
 62
     7
370
    30
100
AcDbLine
 10
140.6784666481
 20
137.9168292683
 30
0.0
 11
140.1768563213
 21
137.9168292683
 31
0.0
  0
LINE
  5
8F
330
1F
100
AcDbEntity
  8
SLD-0
  6
Continuous
 62
     7
370
    30
100
AcDbLine
 10
140.1768563213
 20
136.9168292683
 30
0.0
 11
140.6784666481
 21
136.9168292683
 31
0.0
  0
LINE
  5
90
330
1F
100
AcDbEntity
  8
SLD-0
  6
HIDDEN
 62
     7
370
     0
100
AcDbLine
 10
144.4477262328
 20
144.4168294844
 30
0.0
 11
144.4477262328
 21
137.916829292
 31
0.0
  0
LINE
  5
91
330
1F
100
AcDbEntity
  8
SLD-0
  6
HIDDEN
 62
     7
370
     0
100
AcDbLine
 10
148.9477260391
 20
137.916829292
 30
0.0
 11
148.9477260391
 21
144.4168294844
 31
0.0
  0
LINE
  5
92
330
1F
100
AcDbEntity
  8
SLD-0
  6
HIDDEN
 62
     7
370
     0
100
AcDbLine
 10
145.0477261449
 20
136.9168292445
 30
0.0
 11
145.0477261449
 21
124.916829082
 31
0.0
  0
LINE
  5
93
330
1F
100
AcDbEntity
  8
SLD-0
  6
HIDDEN
 62
     7
370
     0
100
AcDbLine
 10
148.347726127
 20
124.916829082
 30
0.0
 11
148.347726127
 21
136.9168292445
 31
0.0
  0
LINE
  5
94
330
1F
100
AcDbEntity
  8
SLD-0
  6
Continuous
 62
     7
370
     0
100
AcDbLine
 10
147.8430260176
 20
121.9697697697
 30
0.0
 11
146.8627146837
 21
124.9168292683
 31
0.0
  0
LINE
  5
95
330
1F
100
AcDbEntity
  8
SLD-0
  6
Continuous
 62
     7
370
     0
100
AcDbLine
 10
146.8627146837
 20
124.9168292683
 30
0.0
 11
149.1852182113
 21
122.8547557091
 31
0.0
  0
LINE
  5
96
330
1F
100
AcDbEntity
  8
SLD-0
  6
Continuous
 62
     7
370
     0
100
AcDbLine
 10
146.8627146837
 20
124.9168292683
 30
0.0
 11
148.5141221144
 21
122.4122627394
 31
0.0
  0
LINE
  5
97
330
1F
100
AcDbEntity
  8
SLD-0
  6
Continuous
 62
     7
370
     0
100
AcDbLine
 10
148.5141221144
 20
122.4122627394
 30
0.0
 11
157.6976450942
 21
108.4842981169
 31
0.0
  0
LINE
  5
98
330
1F
100
AcDbEntity
  8
SLD-0
  6
Continuous
 62
     7
370
     0
100
AcDbLine
 10
157.6976450942
 20
108.4842981169
 30
0.0
 11
162.2718728444
 21
108.4842981169
 31
0.0
  0
LINE
  5
99
330
1F
100
AcDbEntity
  8
SLD-0
  6
HIDDEN
 62
     7
370
     0
100
AcDbLine
 10
148.6977255325
 20
124.916829082
 30
0.0
 11
148.6977255325
 21
136.9168292445
 31
0.0
  0
LINE
  5
9A
330
1F
100
AcDbEntity
  8
SLD-0
  6
HIDDEN
 62
     7
370
     0
100
AcDbLine
 10
144.6977258082
 20
136.9168292445
 30
0.0
 11
144.6977258082
 21
124.916829082
 31
0.0
  0
LINE
  5
9B
330
1F
100
AcDbEntity
  8
SLD-0
  6
CENTERX2
 62
     7
370
     0
100
AcDbLine
 10
122.1977259497
 20
143.4168292683
 30
0.0
 11
62.1977259497
 21
143.4168292683
 31
0.0
  0
LINE
  5
9C
330
1F
100
AcDbEntity
  8
SLD-0
  6
CENTERX2
 62
     7
370
     0
100
AcDbLine
 10
62.1977259497
 20
131.4168292683
 30
0.0
 11
122.1977259497
 21
131.4168292683
 31
0.0
  0
LINE
  5
9D
330
1F
100
AcDbEntity
  8
SLD-0
  6
CENTERX2
 62
     7
370
     0
100
AcDbLine
 10
146.6977259497
 20
122.9168292683
 30
0.0
 11
146.6977259497
 21
146.4168292683
 31
0.0
  0
LINE
  5
9E
330
1F
100
AcDbEntity
  8
SLD-0
  6
Continuous
 62
     7
370
    30
100
AcDbLine
 10
140.1977259497
 20
200.7189130446
 30
0.0
 11
56.1977243404
 21
200.7189130446
 31
0.0
  0
LINE
  5
9F
330
1F
100
AcDbEntity
  8
SLD-0
  6
Continuous
 62
     7
370
    30
100
AcDbLine
 10
140.1977259497
 20
210.7189128211
 30
0.0
 11
56.1977243404
 21
210.7189128211
 31
0.0
  0
LINE
  5
A0
330
1F
100
AcDbEntity
  8
SLD-0
  6
Continuous
 62
     7
370
    30
100
AcDbLine
 10
56.1977243404
 20
200.7189130446
 30
0.0
 11
56.1977243404
 21
210.7189128211
 31
0.0
  0
LINE
  5
A1
330
1F
100
AcDbEntity
  8
SLD-0
  6
Continuous
 62
     7
370
    30
100
AcDbLine
 10
142.1977259497
 20
210.7189128211
 30
0.0
 11
142.1977259497
 21
200.7189130446
 31
0.0
  0
LINE
  5
A2
330
1F
100
AcDbEntity
  8
SLD-0
  6
Continuous
 62
     7
370
    30
100
AcDbLine
 10
142.1977259497
 20
200.7189130446
 30
0.0
 11
140.1977259497
 21
200.7189130446
 31
0.0
  0
LINE
  5
A3
330
1F
100
AcDbEntity
  8
SLD-0
  6
Continuous
 62
     7
370
    30
100
AcDbLine
 10
140.1977259497
 20
210.7189128211
 30
0.0
 11
142.1977259497
 21
210.7189128211
 31
0.0
  0
LINE
  5
A4
330
1F
100
AcDbEntity
  8
SLD-0
  6
Continuous
 62
     7
370
    30
100
AcDbLine
 10
151.1977268736
 20
200.7189132681
 30
0.0
 11
151.1977268736
 21
210.7189128211
 31
0.0
  0
LINE
  5
A5
330
1F
100
AcDbEntity
  8
SLD-0
  6
Continuous
 62
     7
370
    30
100
AcDbLine
 10
151.1977268736
 20
200.7189132681
 30
0.0
 11
142.1977259497
 21
200.7189130446
 31
0.0
  0
LINE
  5
A6
330
1F
100
AcDbEntity
  8
SLD-0
  6
Continuous
 62
     7
370
    30
100
AcDbLine
 10
151.1977268736
 20
210.7189128211
 30
0.0
 11
142.1977259497
 21
210.7189128211
 31
0.0
  0
LINE
  5
A7
330
1F
100
AcDbEntity
  8
SLD-0
  6
HIDDEN
 62
     7
370
     0
100
AcDbLine
 10
128.1977259497
 20
210.2189128211
 30
0.0
 11
140.1768563213
 21
210.2189128211
 31
0.0
  0
LINE
  5
A8
330
1F
100
AcDbEntity
  8
SLD-0
  6
HIDDEN
 62
     7
370
     0
100
AcDbLine
 10
140.1768563213
 20
210.2189128211
 30
0.0
 11
140.6784667986
 21
210.7189128211
 31
0.0
  0
LINE
  5
A9
330
1F
100
AcDbEntity
  8
SLD-0
  6
HIDDEN
 62
     7
370
     0
100
AcDbLine
 10
140.6784667986
 20
200.7189130446
 30
0.0
 11
140.1768563213
 21
201.2189128211
 31
0.0
  0
LINE
  5
AA
330
1F
100
AcDbEntity
  8
SLD-0
  6
HIDDEN
 62
     7
370
     0
100
AcDbLine
 10
140.1768563213
 20
201.2189128211
 30
0.0
 11
128.1977259497
 21
201.2189128211
 31
0.0
  0
LINE
  5
AB
330
1F
100
AcDbEntity
  8
SLD-0
  6
HIDDEN
 62
     7
370
     0
100
AcDbLine
 10
140.1768563213
 20
201.2189128211
 30
0.0
 11
140.1768563213
 21
210.2189128211
 31
0.0
  0
LINE
  5
AC
330
1F
100
AcDbEntity
  8
SLD-0
  6
HIDDEN
 62
     7
370
     0
100
AcDbLine
 10
60.9477227907
 20
210.7189128211
 30
0.0
 11
60.9477227907
 21
200.7189130446
 31
0.0
  0
LINE
  5
AD
330
1F
100
AcDbEntity
  8
SLD-0
  6
HIDDEN
 62
     7
370
     0
100
AcDbLine
 10
123.4477255846
 20
200.7189130446
 30
0.0
 11
123.4477255846
 21
210.7189128211
 31
0.0
  0
LINE
  5
AE
330
1F
100
AcDbEntity
  8
SLD-0
  6
HIDDEN
 62
     7
370
     0
100
AcDbLine
 10
127.6977258156
 20
210.7189128211
 30
0.0
 11
128.1977259497
 21
210.2189128211
 31
0.0
  0
LINE
  5
AF
330
1F
100
AcDbEntity
  8
SLD-0
  6
HIDDEN
 62
     7
370
     0
100
AcDbLine
 10
128.1977259497
 20
201.2189128211
 30
0.0
 11
127.6977258156
 21
200.7189130446
 31
0.0
  0
LINE
  5
B0
330
1F
100
AcDbEntity
  8
SLD-0
  6
HIDDEN
 62
     7
370
     0
100
AcDbLine
 10
128.1977259497
 20
210.2189128211
 30
0.0
 11
128.1977259497
 21
201.2189128211
 31
0.0
  0
LINE
  5
B1
330
1F
100
AcDbEntity
  8
SLD-0
  6
CENTERX2
 62
     7
370
     0
100
AcDbLine
 10
134.1977259497
 20
199.2189128211
 30
0.0
 11
134.1977259497
 21
212.2189128211
 31
0.0
  0
LINE
  5
B2
330
1F
100
AcDbEntity
  8
SLD-0
  6
CENTERX2
 62
     7
370
     0
100
AcDbLine
 10
64.1977259497
 20
198.7189128211
 30
0.0
 11
64.1977259497
 21
212.7189128211
 31
0.0
  0
LINE
  5
B3
330
1F
100
AcDbEntity
  8
SLD-0
  6
CENTERX2
 62
     7
370
     0
100
AcDbLine
 10
120.1977259497
 20
198.7189128211
 30
0.0
 11
120.1977259497
 21
212.7189128211
 31
0.0
  0
ARC
  5
B4
330
1F
100
AcDbEntity
  8
SLD-0
  6
Continuous
 62
     7
370
    30
100
AcDbCircle
 10
64.1977259497
 20
131.4168292683
 30
0.0
 40
3.25
100
AcDbArc
 50
90.0
 51
270.0
  0
ARC
  5
B5
330
1F
100
AcDbEntity
  8
SLD-0
  6
Continuous
 62
     7
370
    30
100
AcDbCircle
 10
120.1977259497
 20
131.4168292683
 30
0.0
 40
3.25
100
AcDbArc
 50
270.0
 51
90.0
  0
ARC
  5
B6
330
1F
100
AcDbEntity
  8
SLD-0
  6
Continuous
 62
     7
370
    30
100
AcDbCircle
 10
149.1977259497
 20
126.9168292921
 30
0.0
 40
2.0
100
AcDbArc
 50
270.0
 51
0.0
  0
ARC
  5
B7
330
1F
100
AcDbEntity
  8
SLD-0
  6
Continuous
 62
     7
370
    30
100
AcDbCircle
 10
140.1977259497
 20
147.9168296647
 30
0.0
 40
2.0
100
AcDbArc
 50
0.0
 51
90.0
  0
ARC
  5
B8
330
1F
100
AcDbEntity
  8
SLD-0
  6
Continuous
 62
     7
370
    30
100
AcDbCircle
 10
134.1977259497
 20
137.4168292683
 30
0.0
 40
6.499999999999759
100
AcDbArc
 50
4.4117257858
 51
355.5882742142
  0
ARC
  5
B9
330
1F
100
AcDbEntity
  8
SLD-0
  6
Continuous
 62
     7
370
    30
100
AcDbCircle
 10
120.1977259497
 20
143.4168292683
 30
0.0
 40
3.25
100
AcDbArc
 50
270.0
 51
90.0
  0
ARC
  5
BA
330
1F
100
AcDbEntity
  8
SLD-0
  6
Continuous
 62
     7
370
    30
100
AcDbCircle
 10
64.1977259497
 20
143.4168292683
 30
0.0
 40
3.25
100
AcDbArc
 50
90.0
 51
270.0
  0
ARC
  5
BB
330
1F
100
AcDbEntity
  8
SLD-0
  6
Continuous
 62
     7
370
    30
100
AcDbCircle
 10
134.1977259497
 20
137.4168292683
 30
0.0
 40
6.000000000000004
100
AcDbArc
 50
4.7801918472
 51
355.2198081528
  0
CIRCLE
  5
BC
330
1F
100
AcDbEntity
  8
SLD-0
  6
Continuous
 62
     7
370
    30
100
AcDbCircle
 10
146.6977259497
 20
205.7189128211
 30
0.0
 40
2.25
  0
CIRCLE
  5
BD
330
1F
100
AcDbEntity
  8
SLD-0
  6
Continuous
 62
     7
370
    30
100
AcDbCircle
 10
146.6977259497
 20
205.7189128211
 30
0.0
 40
1.649999999999977
  0
CIRCLE
  5
BE
330
1F
100
AcDbEntity
  8
SLD-0
  6
Continuous
 62
     7
370
     0
100
AcDbCircle
 10
146.6977259497
 20
205.7189128211
 30
0.0
 40
1.999999582767458
  0
DIMENSION
  5
BF
330
1F
100
AcDbEntity
  8
SLD-0
 62
     7
100
AcDbDimension
  2
*D8
 10
8.3841261329
 20
8.5852425681
 30
0.0
 11
163.9221295477
 21
-4.2926218659
 31
0.0
 70
   163
  1
<>
 71
     1
 42
11.9999983736
  3
SLDDIMSTYLE0
100
AcDbDiametricDimension
 15
0.0
 25
0.0
 35
0.0
 40
0.0
1001
ACAD
1000
DSTYLE
1002
{
1070
    77
1070
     0
1070
   143
1040
0.0393700787
1070
    41
1040
3.0
1070
    44
1040
1.0
1070
    42
1040
1.0
1070
   147
1040
1.524
1070
    73
1070
     1
1070
    74
1070
     1
1070
   140
1040
3.5
1070
   284
1070
    12
1070
    78
1070
    12
1002
}
  0
DIMENSION
  5
DA
330
1F
100
AcDbEntity
  8
SLD-0
 62
     7
100
AcDbDimension
  2
*D10
 10
183.2836679033
 20
149.9168292683
 30
0.0
 11
183.2836679033
 21
137.4168292683
 31
0.0
 70
   160
 71
     1
 42
25.0
  3
SLDDIMSTYLE1
100
AcDbAlignedDimension
 13
151.1977259497
 23
124.9168292683
 33
0.0
 14
142.1977259497
 24
149.9168292683
 34
0.0
 50
90.0
100
AcDbRotatedDimension
1001
ACAD
1000
DSTYLE
1002
{
1070
    77
1070
     3
1070
   143
1040
0.0393700787
1070
    41
1040
3.0
1070
    44
1040
1.0
1070
    42
1040
1.0
1070
   147
1040
1.524
1070
    73
1070
     0
1070
    74
1070
     0
1070
   140
1040
3.5
1070
   284
1070
    12
1070
    78
1070
    12
1002
}
  0
DIMENSION
  5
F3
330
1F
100
AcDbEntity
  8
SLD-0
 62
     7
100
AcDbDimension
  2
*D11
 10
151.1977259497
 20
106.9864632822
 30
0.0
 11
103.6977259497
 21
106.9864632822
 31
0.0
 70
   160
 71
     1
 42
95.0
  3
SLDDIMSTYLE1
100
AcDbAlignedDimension
 13
56.1977259497
 23
124.9168292683
 33
0.0
 14
151.1977259497
 24
124.9168292683
 34
0.0
100
AcDbRotatedDimension
1001
ACAD
1000
DSTYLE
1002
{
1070
    77
1070
     3
1070
   143
1040
0.0393700787
1070
    41
1040
3.0
1070
    44
1040
1.0
1070
    42
1040
1.0
1070
   147
1040
1.524
1070
    73
1070
     0
1070
    74
1070
     0
1070
   140
1040
3.5
1070
   284
1070
    12
1070
    78
1070
    12
1002
}
  0
DIMENSION
  5
10A
330
1F
100
AcDbEntity
  8
SLD-0
 62
     7
100
AcDbDimension
  2
*D12
 10
134.1977259497
 20
156.5540536986
 30
0.0
 11
95.1977259497
 21
156.5540536986
 31
0.0
 70
   160
 71
     1
 42
78.0
  3
SLDDIMSTYLE1
100
AcDbAlignedDimension
 13
56.1977259497
 23
149.9168292683
 33
0.0
 14
134.1977259497
 24
137.4168292683
 34
0.0
100
AcDbRotatedDimension
1001
ACAD
1000
DSTYLE
1002
{
1070
    77
1070
     3
1070
   143
1040
0.0393700787
1070
    41
1040
3.0
1070
    44
1040
1.0
1070
    42
1040
1.0
1070
   147
1040
1.524
1070
    73
1070
     0
1070
    74
1070
     0
1070
   140
1040
3.5
1070
   284
1070
    12
1070
    78
1070
    12
1002
}
  0
DIMENSION
  5
121
330
1F
100
AcDbEntity
  8
SLD-0
 62
     7
100
AcDbDimension
  2
*D13
 10
49.0160210785
 20
140.1668292683
 30
0.0
 11
49.0160210785
 21
154.6437004675
 31
0.0
 70
   160
 71
     1
 42
6.5
  3
SLDDIMSTYLE2
100
AcDbAlignedDimension
 13
64.1977259497
 23
146.6668292683
 33
0.0
 14
64.1977259497
 24
140.1668292683
 34
0.0
 50
90.0
100
AcDbRotatedDimension
1001
ACAD
1000
DSTYLE
1002
{
1070
    77
1070
     3
1070
   143
1040
0.0393700787
1070
    41
1040
3.0
1070
    44
1040
1.0
1070
    42
1040
1.0
1070
   147
1040
1.524
1070
    73
1070
     0
1070
    74
1070
     0
1070
   140
1040
3.5
1070
   284
1070
    12
1070
    78
1070
    12
1002
}
  0
DIMENSION
  5
13D
330
1F
100
AcDbEntity
  8
SLD-0
 62
     7
100
AcDbDimension
  2
*D14
 10
41.1453203597
 20
131.4168292683
 30
0.0
 11
41.1453203597
 21
137.4168292683
 31
0.0
 70
   160
 71
     1
 42
12.0
  3
SLDDIMSTYLE1
100
AcDbAlignedDimension
 13
64.1977259497
 23
143.4168292683
 33
0.0
 14
64.1977259497
 24
131.4168292683
 34
0.0
 50
90.0
100
AcDbRotatedDimension
1001
ACAD
1000
DSTYLE
1002
{
1070
    77
1070
     3
1070
   143
1040
0.0393700787
1070
    41
1040
3.0
1070
    44
1040
1.0
1070
    42
1040
1.0
1070
   147
1040
1.524
1070
    73
1070
     0
1070
    74
1070
     0
1070
   140
1040
3.5
1070
   284
1070
    12
1070
    78
1070
    12
1002
}
  0
DIMENSION
  5
155
330
1F
100
AcDbEntity
  8
SLD-0
 62
     7
100
AcDbDimension
  2
*D15
 10
64.1977259497
 20
114.4928012679
 30
0.0
 11
60.1977259497
 21
114.4928012679
 31
0.0
 70
   160
 71
     1
 42
8.0
  3
SLDDIMSTYLE1
100
AcDbAlignedDimension
 13
56.1977259497
 23
124.9168292683
 33
0.0
 14
64.1977259497
 24
131.4168292683
 34
0.0
100
AcDbRotatedDimension
1001
ACAD
1000
DSTYLE
1002
{
1070
    77
1070
     3
1070
   143
1040
0.0393700787
1070
    41
1040
3.0
1070
    44
1040
1.0
1070
    42
1040
1.0
1070
   147
1040
1.524
1070
    73
1070
     0
1070
    74
1070
     0
1070
   140
1040
3.5
1070
   284
1070
    12
1070
    78
1070
    12
1002
}
  0
DIMENSION
  5
16F
330
1F
100
AcDbEntity
  8
SLD-0
 62
     7
100
AcDbDimension
  2
*D16
 10
120.1977259497
 20
113.4928012679
 30
0.0
 11
92.1977259497
 21
113.4928012679
 31
0.0
 70
   160
 71
     1
 42
56.0
  3
SLDDIMSTYLE1
100
AcDbAlignedDimension
 13
64.1977259497
 23
131.4168292683
 33
0.0
 14
120.1977259497
 24
131.4168292683
 34
0.0
100
AcDbRotatedDimension
1001
ACAD
1000
DSTYLE
1002
{
1070
    77
1070
     3
1070
   143
1040
0.0393700787
1070
    41
1040
3.0
1070
    44
1040
1.0
1070
    42
1040
1.0
1070
   147
1040
1.524
1070
    73
1070
     0
1070
    74
1070
     0
1070
   140
1040
3.5
1070
   284
1070
    12
1070
    78
1070
    12
1002
}
  0
DIMENSION
  5
186
330
1F
100
AcDbEntity
  8
SLD-0
 62
     7
100
AcDbDimension
  2
*D17
 10
149.1977259497
 20
126.9168292683
 30
0.0
 11
162.736747484
 21
115.8787311136
 31
0.0
 70
   164
  1
2-<>
 71
     1
 42
195.8771119352
  3
SLDDIMSTYLE3
100
AcDbRadialDimension
 15
0.0
 25
0.0
 35
0.0
 40
0.0
1001
ACAD
1000
DSTYLE
1002
{
1070
    77
1070
     0
1070
   143
1040
0.0393700787
1070
    41
1040
3.0
1070
    44
1040
1.0
1070
    42
1040
1.0
1070
   147
1040
1.524
1070
    73
1070
     1
1070
    74
1070
     1
1070
   140
1040
3.5
1070
   284
1070
    12
1070
    78
1070
     4
1002
}
  0
DIMENSION
  5
197
330
1F
100
AcDbEntity
  8
SLD-0
 62
     7
100
AcDbDimension
  2
*D18
 10
56.1977259497
 20
165.6448374527
 30
0.0
 11
99.1977259497
 21
165.6448374527
 31
0.0
 70
   160
 71
     1
 42
86.0
  3
SLDDIMSTYLE1
100
AcDbAlignedDimension
 13
142.1977259497
 23
147.9168292683
 33
0.0
 14
56.1977259497
 24
149.9168292683
 34
0.0
100
AcDbRotatedDimension
1001
ACAD
1000
DSTYLE
1002
{
1070
    77
1070
     3
1070
   143
1040
0.0393700787
1070
    41
1040
3.0
1070
    44
1040
1.0
1070
    42
1040
1.0
1070
   147
1040
1.524
1070
    73
1070
     0
1070
    74
1070
     0
1070
   140
1040
3.5
1070
   284
1070
    12
1070
    78
1070
    12
1002
}
  0
DIMENSION
  5
1AE
330
1F
100
AcDbEntity
  8
SLD-0
 62
     7
100
AcDbDimension
  2
*D19
 10
170.414755561
 20
124.9168292683
 30
0.0
 11
170.414755561
 21
130.9168292683
 31
0.0
 70
   160
 71
     1
 42
12.0
  3
SLDDIMSTYLE1
100
AcDbAlignedDimension
 13
151.1977259497
 23
136.9168292683
 33
0.0
 14
149.1977259497
 24
124.9168292683
 34
0.0
 50
90.0
100
AcDbRotatedDimension
1001
ACAD
1000
DSTYLE
1002
{
1070
    77
1070
     3
1070
   143
1040
0.0393700787
1070
    41
1040
3.0
1070
    44
1040
1.0
1070
    42
1040
1.0
1070
   147
1040
1.524
1070
    73
1070
     0
1070
    74
1070
     0
1070
   140
1040
3.5
1070
   284
1070
    12
1070
    78
1070
    12
1002
}
  0
DIMENSION
  5
1C8
330
1F
100
AcDbEntity
  8
SLD-0
 62
     7
100
AcDbDimension
  2
*D20
 10
170.414755561
 20
136.9168292683
 30
0.0
 11
170.414755561
 21
137.4168292683
 31
0.0
 70
   160
 71
     1
 42
1.0
  3
SLDDIMSTYLE1
100
AcDbAlignedDimension
 13
151.1977259497
 23
137.9168292683
 33
0.0
 14
151.1977259497
 24
136.9168292683
 34
0.0
 50
90.0
100
AcDbRotatedDimension
1001
ACAD
1000
DSTYLE
1002
{
1070
    77
1070
     3
1070
   143
1040
0.0393700787
1070
    41
1040
3.0
1070
    44
1040
1.0
1070
    42
1040
1.0
1070
   147
1040
1.524
1070
    73
1070
     0
1070
    74
1070
     0
1070
   140
1040
3.5
1070
   284
1070
    12
1070
    78
1070
    12
1002
}
  0
DIMENSION
  5
1E5
330
1F
100
AcDbEntity
  8
SLD-0
 62
     7
100
AcDbDimension
  2
*D21
 10
170.414755561
 20
137.9168292683
 30
0.0
 11
170.414755561
 21
156.5540536986
 31
0.0
 70
   160
 71
     1
 42
6.5
  3
SLDDIMSTYLE2
100
AcDbAlignedDimension
 13
151.1977259497
 23
144.4168292683
 33
0.0
 14
151.1977259497
 24
137.9168292683
 34
0.0
 50
90.0
100
AcDbRotatedDimension
1001
ACAD
1000
DSTYLE
1002
{
1070
    77
1070
     3
1070
   143
1040
0.0393700787
1070
    41
1040
3.0
1070
    44
1040
1.0
1070
    42
1040
1.0
1070
   147
1040
1.524
1070
    73
1070
     0
1070
    74
1070
     0
1070
   140
1040
3.5
1070
   284
1070
    12
1070
    78
1070
    12
1002
}
  0
DIMENSION
  5
200
330
1F
100
AcDbEntity
  8
SLD-0
 62
     7
100
AcDbDimension
  2
*D22
 10
41.1453203597
 20
124.9168292683
 30
0.0
 11
41.1453203597
 21
118.5114899238
 31
0.0
 70
   160
 71
     1
 42
6.5
  3
SLDDIMSTYLE2
100
AcDbAlignedDimension
 13
62.1977259497
 23
131.4168292683
 33
0.0
 14
56.1977259497
 24
124.9168292683
 34
0.0
 50
90.0
100
AcDbRotatedDimension
1001
ACAD
1000
DSTYLE
1002
{
1070
    77
1070
     3
1070
   143
1040
0.0393700787
1070
    41
1040
3.0
1070
    44
1040
1.0
1070
    42
1040
1.0
1070
   147
1040
1.524
1070
    73
1070
     0
1070
    74
1070
     0
1070
   140
1040
3.5
1070
   284
1070
    12
1070
    78
1070
    12
1002
}
  0
DIMENSION
  5
21B
330
1F
100
AcDbEntity
  8
SLD-0
 62
     7
100
AcDbDimension
  2
*D23
 10
120.1977259497
 20
131.4168292683
 30
0.0
 11
134.9043981974
 21
114.6608496185
 31
0.0
 70
   164
  1
<>x2-R
 71
     1
 42
178.0951328319
  3
SLDDIMSTYLE4
100
AcDbRadialDimension
 15
0.0
 25
0.0
 35
0.0
 40
0.0
1001
ACAD
1000
DSTYLE
1002
{
1070
    77
1070
     0
1070
   143
1040
0.0393700787
1070
    41
1040
3.0
1070
    44
1040
1.0
1070
    42
1040
1.0
1070
   147
1040
1.524
1070
    73
1070
     1
1070
    74
1070
     1
1070
   140
1040
3.5
1070
   284
1070
    12
1070
    78
1070
    12
1002
}
  0
DIMENSION
  5
22B
330
1F
100
AcDbEntity
  8
SLD-0
 62
     7
100
AcDbDimension
  2
*D24
 10
177.2351008157
 20
210.7189128211
 30
0.0
 11
177.2351008157
 21
205.7189128211
 31
0.0
 70
   160
 71
     1
 42
10.0
  3
SLDDIMSTYLE1
100
AcDbAlignedDimension
 13
151.1977259497
 23
200.7189128211
 33
0.0
 14
151.1977259497
 24
210.7189128211
 34
0.0
 50
90.0
100
AcDbRotatedDimension
1001
ACAD
1000
DSTYLE
1002
{
1070
    77
1070
     3
1070
   143
1040
0.0393700787
1070
    41
1040
3.0
1070
    44
1040
1.0
1070
    42
1040
1.0
1070
   147
1040
1.524
1070
    73
1070
     0
1070
    74
1070
     0
1070
   140
1040
3.5
1070
   284
1070
    12
1070
    78
1070
    12
1002
}
  0
DIMENSION
  5
245
330
1F
100
AcDbEntity
  8
SLD-0
 62
     7
100
AcDbDimension
  2
*D25
 10
167.8366232865
 20
205.7189128211
 30
0.0
 11
167.8366232865
 21
208.2189128211
 31
0.0
 70
   160
 71
     1
 42
5.0
  3
SLDDIMSTYLE1
100
AcDbAlignedDimension
 13
151.1977259497
 23
210.7189128211
 33
0.0
 14
146.6977259497
 24
205.7189128211
 34
0.0
 50
90.0
100
AcDbRotatedDimension
1001
ACAD
1000
DSTYLE
1002
{
1070
    77
1070
     3
1070
   143
1040
0.0393700787
1070
    41
1040
3.0
1070
    44
1040
1.0
1070
    42
1040
1.0
1070
   147
1040
1.524
1070
    73
1070
     0
1070
    74
1070
     0
1070
   140
1040
3.5
1070
   284
1070
    12
1070
    78
1070
    12
1002
}
  0
DIMENSION
  5
25F
330
1F
100
AcDbEntity
  8
SLD-0
 62
     7
100
AcDbDimension
  2
*D26
 10
146.6977259497
 20
220.701877415
 30
0.0
 11
101.4477259497
 21
220.701877415
 31
0.0
 70
   160
 71
     1
 42
90.5
  3
SLDDIMSTYLE2
100
AcDbAlignedDimension
 13
56.1977259497
 23
210.7189128211
 33
0.0
 14
146.6977259497
 24
205.7189128211
 34
0.0
100
AcDbRotatedDimension
1001
ACAD
1000
DSTYLE
1002
{
1070
    77
1070
     3
1070
   143
1040
0.0393700787
1070
    41
1040
3.0
1070
    44
1040
1.0
1070
    42
1040
1.0
1070
   147
1040
1.524
1070
    73
1070
     0
1070
    74
1070
     0
1070
   140
1040
3.5
1070
   284
1070
    12
1070
    78
1070
    12
1002
}
  0
DIMENSION
  5
276
330
1F
100
AcDbEntity
  8
SLD-0
 62
     7
100
AcDbDimension
  2
*D27
 10
2.6126891534
 20
3.6638575594
 30
0.0
 11
160.8631943228
 21
-4.8851437952
 31
0.0
 70
   163
  1
<>
 71
     1
 42
4.4999996475
  3
SLDDIMSTYLE5
100
AcDbDiametricDimension
 15
0.0
 25
0.0
 35
0.0
 40
0.0
1001
ACAD
1000
DSTYLE
1002
{
1070
    77
1070
     0
1070
   143
1040
0.0393700787
1070
    41
1040
3.0
1070
    44
1040
1.0
1070
    42
1040
1.0
1070
   147
1040
1.524
1070
    73
1070
     1
1070
    74
1070
     1
1070
   140
1040
3.5
1070
   284
1070
    12
1070
    78
1070
    12
1002
}
  0
MTEXT
  5
288
330
1F
100
AcDbEntity
  8
SLD-0
 62
     7
100
AcDbMText
 10
147.3985523451
 20
29.8867576638
 30
0.0
 40
4.2333333333
 41
0.0
 71
     1
 72
     1
  1
N01915-112
  7
SLDTEXTSTYLE0
 73
     1
 44
1.0
  0
MTEXT
  5
28A
330
1F
100
AcDbEntity
  8
SLD-0
 62
     7
100
AcDbMText
 10
146.4922099023
 20
43.4105712806
 30
0.0
 40
4.2333333333
 41
0.0
 71
     1
 72
     1
  1
φ12 CYL BKT
  7
SLDTEXTSTYLE2
 73
     1
 44
1.0
  0
MTEXT
  5
28B
330
1F
100
AcDbEntity
  8
SLD-0
 62
     7
100
AcDbMText
 10
152.6811592498
 20
16.2924183344
 30
0.0
 40
4.2333333333
 41
0.0
 71
     1
 72
     1
  1
131074　
  7
SLDTEXTSTYLE0
 73
     1
 44
1.0
  0
MTEXT
  5
28C
330
1F
100
AcDbEntity
  8
SLD-0
 62
     7
100
AcDbMText
 10
158.1993372335
 20
112.5591703947
 30
0.0
 40
3.5
 41
0.0
 71
     1
 72
     1
  1
M4
  7
SLDTEXTSTYLE0
 73
     1
 44
1.0
  0
INSERT
  5
28D
330
1F
100
AcDbEntity
  8
0
  6
Continuous
 62
     7
370
     0
100
AcDbBlockReference
  2
SW_CENTERMARKSYMBOL_0
 10
134.1977259497
 20
137.4168292683
 30
0.0
  0
INSERT
  5
28E
330
1F
100
AcDbEntity
  8
0
  6
Continuous
 62
     7
370
     0
100
AcDbBlockReference
  2
SW_CENTERMARKSYMBOL_1
 10
120.1977259497
 20
143.4168292683
 30
0.0
  0
INSERT
  5
28F
330
1F
100
AcDbEntity
  8
0
  6
Continuous
 62
     7
370
     0
100
AcDbBlockReference
  2
SW_CENTERMARKSYMBOL_2
 10
120.1977259497
 20
131.4168292683
 30
0.0
  0
INSERT
  5
290
330
1F
100
AcDbEntity
  8
0
  6
Continuous
 62
     7
370
     0
100
AcDbBlockReference
  2
SW_CENTERMARKSYMBOL_3
 10
64.1977259497
 20
131.4168292683
 30
0.0
  0
INSERT
  5
291
330
1F
100
AcDbEntity
  8
0
  6
Continuous
 62
     7
370
     0
100
AcDbBlockReference
  2
SW_CENTERMARKSYMBOL_4
 10
64.1977259497
 20
143.4168292683
 30
0.0
  0
INSERT
  5
292
330
1F
100
AcDbEntity
  8
0
  6
Continuous
 62
     7
370
     0
100
AcDbBlockReference
  2
SW_CENTERMARKSYMBOL_5
 10
146.6977259497
 20
205.7189128211
 30
0.0
  0
ENDSEC
  0
SECTION
  2
OBJECTS
  0
DICTIONARY
  5
C
330
0
100
AcDbDictionary
281
     1
  3
ACAD_GROUP
350
D
  3
ACAD_LAYOUT
350
1A
  3
ACAD_MLINESTYLE
350
17
  3
ACAD_PLOTSETTINGS
350
19
  3
ACAD_PLOTSTYLENAME
350
E
  0
DICTIONARY
  5
D
102
{ACAD_REACTORS
330
C
102
}
330
C
100
AcDbDictionary
281
     1
  0
DICTIONARY
  5
1A
102
{ACAD_REACTORS
330
C
102
}
330
C
100
AcDbDictionary
281
     1
  3
Layout1
350
1E
  3
Layout2
350
26
  3
Model
350
22
  0
DICTIONARY
  5
17
102
{ACAD_REACTORS
330
C
102
}
330
C
100
AcDbDictionary
281
     1
  3
Standard
350
18
  0
DICTIONARY
  5
19
102
{ACAD_REACTORS
330
C
102
}
330
C
100
AcDbDictionary
281
     1
  0
ACDBDICTIONARYWDFLT
  5
E
102
{ACAD_REACTORS
330
C
102
}
330
C
100
AcDbDictionary
281
     1
  3
Normal
350
F
100
AcDbDictionaryWithDefault
340
F
  0
LAYOUT
  5
1E
102
{ACAD_REACTORS
330
1A
102
}
330
1A
100
AcDbPlotSettings
  1

  2

  4

  6

 40
0.0
 41
0.0
 42
0.0
 43
0.0
 44
0.0
 45
0.0
 46
0.0
 47
0.0
 48
0.0
 49
0.0
140
0.0
141
0.0
142
1.0
143
1.0
 70
   688
 72
     0
 73
     0
 74
     5
  7

 75
    16
147
1.0
148
0.0
149
0.0
100
AcDbLayout
  1
Layout1
 70
     1
 71
     1
 10
0.0
 20
0.0
 11
0.0
 21
0.0
 12
0.0
 22
0.0
 32
0.0
 14
0.0
 24
0.0
 34
0.0
 15
0.0
 25
0.0
 35
0.0
146
0.0
 13
0.0
 23
0.0
 33
0.0
 16
1.0
 26
0.0
 36
0.0
 17
0.0
 27
1.0
 37
0.0
 76
     0
330
1B
  0
LAYOUT
  5
26
102
{ACAD_REACTORS
330
1A
102
}
330
1A
100
AcDbPlotSettings
  1

  2

  4

  6

 40
0.0
 41
0.0
 42
0.0
 43
0.0
 44
0.0
 45
0.0
 46
0.0
 47
0.0
 48
0.0
 49
0.0
140
0.0
141
0.0
142
1.0
143
1.0
 70
   688
 72
     0
 73
     0
 74
     5
  7

 75
    16
147
1.0
148
0.0
149
0.0
100
AcDbLayout
  1
Layout2
 70
     1
 71
     2
 10
0.0
 20
0.0
 11
0.0
 21
0.0
 12
0.0
 22
0.0
 32
0.0
 14
0.0
 24
0.0
 34
0.0
 15
0.0
 25
0.0
 35
0.0
146
0.0
 13
0.0
 23
0.0
 33
0.0
 16
1.0
 26
0.0
 36
0.0
 17
0.0
 27
1.0
 37
0.0
 76
     0
330
23
  0
LAYOUT
  5
22
102
{ACAD_REACTORS
330
1A
102
}
330
1A
100
AcDbPlotSettings
  1

  2

  4

  6

 40
0.0
 41
0.0
 42
0.0
 43
0.0
 44
0.0
 45
0.0
 46
0.0
 47
0.0
 48
0.0
 49
0.0
140
0.0
141
0.0
142
1.0
143
1.0
 70
  1712
 72
     0
 73
     0
 74
     0
  7

 75
     0
147
1.0
148
0.0
149
0.0
100
AcDbLayout
  1
Model
 70
     1
 71
     0
 10
0.0
 20
0.0
 11
0.0
 21
0.0
 12
0.0
 22
0.0
 32
0.0
 14
0.0
 24
0.0
 34
0.0
 15
210.0
 25
297.0
 35
0.0
146
0.0
 13
0.0
 23
0.0
 33
0.0
 16
1.0
 26
0.0
 36
0.0
 17
0.0
 27
1.0
 37
0.0
 76
     0
330
1F
  0
MLINESTYLE
  5
18
102
{ACAD_REACTORS
330
17
102
}
330
17
100
AcDbMlineStyle
  2
Standard
 70
     0
  3

 62
   256
 51
90.0
 52
90.0
 71
     2
 49
0.5
 62
   256
  6
BYLAYER
 49
-0.5
 62
   256
  6
BYLAYER
  0
ACDBPLACEHOLDER
  5
F
102
{ACAD_REACTORS
330
E
102
}
330
E
  0
ENDSEC
  0
EOF
