  0
SECTION
  2
HEADER
  9
$ACADVER
  1
AC1015
  9
$ACADMAINTVER
 70
     6
  9
$DWGCODEPAGE
  3
DOS932
  9
$INSBASE
 10
0.0
 20
0.0
 30
0.0
  9
$EXTMIN
 10
0.0
 20
0.0
 30
0.0
  9
$EXTMAX
 10
210.0
 20
297.0
 30
0.0
  9
$LIMMIN
 10
0.0
 20
0.0
  9
$LIMMAX
 10
0.0
 20
0.0
  9
$ORTHOMODE
 70
     0
  9
$REGENMODE
 70
     1
  9
$FILLMODE
 70
     1
  9
$QTEXTMODE
 70
     0
  9
$MIRRTEXT
 70
     1
  9
$LTSCALE
 40
1.0
  9
$ATTMODE
 70
     1
  9
$TEXTSIZE
 40
3.5
  9
$TRACEWID
 40
1.0
  9
$TEXTSTYLE
  7
Standard
  9
$CLAYER
  8
0
  9
$CELTYPE
  6
ByLayer
  9
$CECOLOR
 62
   256
  9
$CELTSCALE
 40
1.0
  9
$DISPSILH
 70
     0
  9
$DIMSCALE
 40
1.0
  9
$DIMASZ
 40
3.0
  9
$DIMEXO
 40
1.0
  9
$DIMDLI
 40
3.75
  9
$DIMRND
 40
0.0
  9
$DIMDLE
 40
0.0
  9
$DIMEXE
 40
1.0
  9
$DIMTP
 40
0.0
  9
$DIMTM
 40
0.0
  9
$DIMTXT
 40
3.5
  9
$DIMCEN
 40
2.5
  9
$DIMTSZ
 40
0.0
  9
$DIMTOL
 70
     0
  9
$DIMLIM
 70
     0
  9
$DIMTIH
 70
     1
  9
$DIMTOH
 70
     1
  9
$DIMSE1
 70
     0
  9
$DIMSE2
 70
     0
  9
$DIMTAD
 70
     1
  9
$DIMZIN
 70
     1
  9
$DIMBLK
  1

  9
$DIMASO
 70
     1
  9
$DIMSHO
 70
     1
  9
$DIMPOST
  1

  9
$DIMAPOST
  1

  9
$DIMALT
 70
     0
  9
$DIMALTD
 70
     3
  9
$DIMALTF
 40
0.0393700787
  9
$DIMLFAC
 40
1.0
  9
$DIMTOFL
 70
     1
  9
$DIMTVP
 40
0.0
  9
$DIMTIX
 70
     0
  9
$DIMSOXD
 70
     0
  9
$DIMSAH
 70
     0
  9
$DIMBLK1
  1

  9
$DIMBLK2
  1

  9
$DIMSTYLE
  2
ISO-25
  9
$DIMCLRD
 70
     0
  9
$DIMCLRE
 70
     0
  9
$DIMCLRT
 70
     0
  9
$DIMTFAC
 40
1.0
  9
$DIMGAP
 40
1.524
  9
$DIMJUST
 70
     0
  9
$DIMSD1
 70
     0
  9
$DIMSD2
 70
     0
  9
$DIMTOLJ
 70
     0
  9
$DIMTZIN
 70
     1
  9
$DIMALTZ
 70
     0
  9
$DIMALTTZ
 70
     0
  9
$DIMUPT
 70
     0
  9
$DIMDEC
 70
     2
  9
$DIMTDEC
 70
     2
  9
$DIMALTU
 70
     2
  9
$DIMALTTD
 70
     3
  9
$DIMTXSTY
  7
Standard
  9
$DIMAUNIT
 70
     0
  9
$DIMADEC
 70
     0
  9
$DIMALTRND
 40
0.0
  9
$DIMAZIN
 70
     0
  9
$DIMDSEP
 70
    44
  9
$DIMATFIT
 70
     3
  9
$DIMFRAC
 70
     0
  9
$DIMLDRBLK
  1

  9
$DIMLUNIT
 70
     2
  9
$DIMLWD
 70
    -2
  9
$DIMLWE
 70
    -2
  9
$DIMTMOVE
 70
     0
  9
$LUNITS
 70
     2
  9
$LUPREC
 70
     1
  9
$SKETCHINC
 40
1.0
  9
$FILLETRAD
 40
10.0
  9
$AUNITS
 70
     0
  9
$AUPREC
 70
     0
  9
$MENU
  1
.
  9
$ELEVATION
 40
0.0
  9
$PELEVATION
 40
0.0
  9
$THICKNESS
 40
0.0
  9
$LIMCHECK
 70
     0
  9
$CHAMFERA
 40
10.0
  9
$CHAMFERB
 40
10.0
  9
$CHAMFERC
 40
20.0
  9
$CHAMFERD
 40
0.0
  9
$SKPOLY
 70
     0
  9
$TDCREATE
 40
2454392.367112269
  9
$TDUCREATE
 40
2454391.992112269
  9
$TDUPDATE
 40
2454392.36711228
  9
$TDUUPDATE
 40
2454391.99211228
  9
$TDINDWG
 40
0.0000000116
  9
$TDUSRTIMER
 40
0.0000000116
  9
$USRTIMER
 70
     1
  9
$ANGBASE
 50
0.0
  9
$ANGDIR
 70
     0
  9
$PDMODE
 70
     0
  9
$PDSIZE
 40
-1.0
  9
$PLINEWID
 40
0.0
  9
$SPLFRAME
 70
     0
  9
$SPLINETYPE
 70
     6
  9
$SPLINESEGS
 70
     8
  9
$HANDSEED
  5
291
  9
$SURFTAB1
 70
     6
  9
$SURFTAB2
 70
     6
  9
$SURFTYPE
 70
     6
  9
$SURFU
 70
     6
  9
$SURFV
 70
     6
  9
$UCSBASE
  2

  9
$UCSNAME
  2

  9
$UCSORG
 10
0.0
 20
0.0
 30
0.0
  9
$UCSXDIR
 10
1.0
 20
0.0
 30
0.0
  9
$UCSYDIR
 10
0.0
 20
1.0
 30
0.0
  9
$UCSORTHOREF
  2

  9
$UCSORTHOVIEW
 70
     0
  9
$UCSORGTOP
 10
0.0
 20
0.0
 30
0.0
  9
$UCSORGBOTTOM
 10
0.0
 20
0.0
 30
0.0
  9
$UCSORGLEFT
 10
0.0
 20
0.0
 30
0.0
  9
$UCSORGRIGHT
 10
0.0
 20
0.0
 30
0.0
  9
$UCSORGFRONT
 10
0.0
 20
0.0
 30
0.0
  9
$UCSORGBACK
 10
0.0
 20
0.0
 30
0.0
  9
$PUCSBASE
  2

  9
$PUCSNAME
  2

  9
$PUCSORG
 10
0.0
 20
0.0
 30
0.0
  9
$PUCSXDIR
 10
1.0
 20
0.0
 30
0.0
  9
$PUCSYDIR
 10
0.0
 20
1.0
 30
0.0
  9
$PUCSORTHOREF
  2

  9
$PUCSORTHOVIEW
 70
     0
  9
$PUCSORGTOP
 10
0.0
 20
0.0
 30
0.0
  9
$PUCSORGBOTTOM
 10
0.0
 20
0.0
 30
0.0
  9
$PUCSORGLEFT
 10
0.0
 20
0.0
 30
0.0
  9
$PUCSORGRIGHT
 10
0.0
 20
0.0
 30
0.0
  9
$PUCSORGFRONT
 10
0.0
 20
0.0
 30
0.0
  9
$PUCSORGBACK
 10
0.0
 20
0.0
 30
0.0
  9
$USERI1
 70
     0
  9
$USERI2
 70
     0
  9
$USERI3
 70
     0
  9
$USERI4
 70
     0
  9
$USERI5
 70
     0
  9
$USERR1
 40
0.0
  9
$USERR2
 40
0.0
  9
$USERR3
 40
0.0
  9
$USERR4
 40
0.0
  9
$USERR5
 40
0.0
  9
$WORLDVIEW
 70
     1
  9
$SHADEDGE
 70
     3
  9
$SHADEDIF
 70
    70
  9
$TILEMODE
 70
     1
  9
$MAXACTVP
 70
    64
  9
$PINSBASE
 10
0.0
 20
0.0
 30
0.0
  9
$PLIMCHECK
 70
     0
  9
$PEXTMIN
 10
1.0000000000E+20
 20
1.0000000000E+20
 30
1.0000000000E+20
  9
$PEXTMAX
 10
-1.0000000000E+20
 20
-1.0000000000E+20
 30
-1.0000000000E+20
  9
$PLIMMIN
 10
0.0
 20
0.0
  9
$PLIMMAX
 10
420.0
 20
297.0
  9
$UNITMODE
 70
     0
  9
$VISRETAIN
 70
     1
  9
$PLINEGEN
 70
     0
  9
$PSLTSCALE
 70
     1
  9
$TREEDEPTH
 70
  3020
  9
$CMLSTYLE
  2
Standard
  9
$CMLJUST
 70
     0
  9
$CMLSCALE
 40
20.0
  9
$PROXYGRAPHICS
 70
     1
  9
$MEASUREMENT
 70
     1
  9
$CELWEIGHT
370
    -1
  9
$ENDCAPS
280
     0
  9
$JOINSTYLE
280
     0
  9
$LWDISPLAY
290
     1
  9
$INSUNITS
 70
     4
  9
$HYPERLINKBASE
  1

  9
$STYLESHEET
  1

  9
$XEDIT
290
     1
  9
$CEPSNTYPE
380
     0
  9
$PSTYLEMODE
290
     1
  9
$FINGERPRINTGUID
  2
{6D79B3FF-2370-4B4D-9E1F-CB1515230207}
  9
$VERSIONGUID
  2
{FAEB1C32-E019-11D5-929B-00C0DF256EC4}
  9
$EXTNAMES
290
     1
  9
$PSVPSCALE
 40
0.0
  9
$OLESTARTUP
290
     0
  0
ENDSEC
  0
SECTION
  2
CLASSES
  0
CLASS
  1
ACDBDICTIONARYWDFLT
  2
AcDbDictionaryWithDefault
  3
ObjectDBX Classes
 90
        0
280
     0
281
     0
  0
CLASS
  1
ACDBPLACEHOLDER
  2
AcDbPlaceHolder
  3
ObjectDBX Classes
 90
        0
280
     0
281
     0
  0
CLASS
  1
LAYOUT
  2
AcDbLayout
  3
ObjectDBX Classes
 90
        0
280
     0
281
     0
  0
ENDSEC
  0
SECTION
  2
TABLES
  0
TABLE
  2
VPORT
  5
8
330
0
100
AcDbSymbolTable
 70
     1
  0
VPORT
  5
29
330
8
100
AcDbSymbolTableRecord
100
AcDbViewportTableRecord
  2
*Active
 70
     0
 10
0.0
 20
0.0
 11
1.0
 21
1.0
 12
105.0
 22
148.5
 13
0.0
 23
0.0
 14
10.0
 24
10.0
 15
10.0
 25
10.0
 16
0.0
 26
0.0
 36
1.0
 17
0.0
 27
0.0
 37
0.0
 40
297.0
 41
1.9729729729
 42
50.0
 43
0.0
 44
0.0
 50
0.0
 51
0.0
 71
     0
 72
  2000
 73
     1
 74
     3
 75
     0
 76
     0
 77
     0
 78
     0
281
     0
 65
     1
110
0.0
120
0.0
130
0.0
111
1.0
121
0.0
131
0.0
112
0.0
122
1.0
132
0.0
 79
     0
146
0.0
  0
ENDTAB
  0
TABLE
  2
LTYPE
  5
5
330
0
100
AcDbSymbolTable
 70
     6
  0
LTYPE
  5
14
330
5
100
AcDbSymbolTableRecord
100
AcDbLinetypeTableRecord
  2
ByBlock
 70
     0
  3

 72
    65
 73
     0
 40
0.0
  0
LTYPE
  5
15
330
5
100
AcDbSymbolTableRecord
100
AcDbLinetypeTableRecord
  2
ByLayer
 70
     0
  3

 72
    65
 73
     0
 40
0.0
  0
LTYPE
  5
16
330
5
100
AcDbSymbolTableRecord
100
AcDbLinetypeTableRecord
  2
Continuous
 70
     0
  3
Solid line
 72
    65
 73
     0
 40
0.0
  0
LTYPE
  5
2A
330
5
100
AcDbSymbolTableRecord
100
AcDbLinetypeTableRecord
  2
HIDDEN
 70
     0
  3
Hidden __ __ __ __ __ __ __ __ __ __ __ __ __ __
 72
    65
 73
     2
 40
1.905
 49
1.27
 74
     0
 49
-0.635
 74
     0
  0
LTYPE
  5
2B
330
5
100
AcDbSymbolTableRecord
100
AcDbLinetypeTableRecord
  2
PHANTOM
 70
     0
  3
Phantom ______  __  __  ______  __  __  ______
 72
    65
 73
     6
 40
12.7
 49
6.35
 74
     0
 49
-1.27
 74
     0
 49
1.27
 74
     0
 49
-1.27
 74
     0
 49
1.27
 74
     0
 49
-1.27
 74
     0
  0
LTYPE
  5
2C
330
5
100
AcDbSymbolTableRecord
100
AcDbLinetypeTableRecord
  2
CENTER
 70
     0
  3
Center ____ _ ____ _ ____ _ ____ _ ____ _ ____
 72
    65
 73
     4
 40
10.16
 49
6.35
 74
     0
 49
-1.27
 74
     0
 49
1.27
 74
     0
 49
-1.27
 74
     0
  0
LTYPE
  5
2D
330
5
100
AcDbSymbolTableRecord
100
AcDbLinetypeTableRecord
  2
CENTERX2
 70
     0
  3
Center (2x) ________  __  ________  __  _____
 72
    65
 73
     4
 40
20.32
 49
12.7
 74
     0
 49
-2.54
 74
     0
 49
2.54
 74
     0
 49
-2.54
 74
     0
  0
LTYPE
  5
2E
330
5
100
AcDbSymbolTableRecord
100
AcDbLinetypeTableRecord
  2
DOT2
 70
     0
  3
Dot (.5x) ........................................
 72
    65
 73
     2
 40
0.635
 49
0.0
 74
     0
 49
-0.635
 74
     0
  0
ENDTAB
  0
TABLE
  2
LAYER
  5
2
330
0
100
AcDbSymbolTable
 70
     4
  0
LAYER
  5
10
330
2
100
AcDbSymbolTableRecord
100
AcDbLayerTableRecord
  2
0
 70
     0
 62
     7
  6
Continuous
370
    -3
390
F
  0
LAYER
  5
2F
330
2
100
AcDbSymbolTableRecord
100
AcDbLayerTableRecord
  2
SLD-0
 70
     0
 62
     7
  6
Continuous
370
     0
390
F
  0
LAYER
  5
30
330
2
100
AcDbSymbolTableRecord
100
AcDbLayerTableRecord
  2
SLD-DEFPOINTS
 70
     0
 62
     7
  6
Continuous
370
     0
390
F
  0
LAYER
  5
BD
330
2
100
AcDbSymbolTableRecord
100
AcDbLayerTableRecord
  2
Defpoints
 70
     0
 62
     7
  6
Continuous
290
     0
370
    -3
390
F
  0
ENDTAB
  0
TABLE
  2
STYLE
  5
3
330
0
100
AcDbSymbolTable
 70
     4
  0
STYLE
  5
11
330
3
100
AcDbSymbolTableRecord
100
AcDbTextStyleTableRecord
  2
Standard
 70
     0
 40
0.0
 41
1.0
 50
0.0
 71
     0
 42
2.5
  3
txt
  4
bigfont
  0
STYLE
  5
34
330
3
100
AcDbSymbolTableRecord
100
AcDbTextStyleTableRecord
  2
SLDTEXTSTYLE0
 70
     0
 40
0.0
 41
0.7
 50
0.0
 71
     0
 42
0.2
  3
TXT
  4
bigfont
  0
STYLE
  5
D4
330
3
100
AcDbSymbolTableRecord
100
AcDbTextStyleTableRecord
  2
SLDTEXTSTYLE1
 70
     0
 40
0.0
 41
0.96
 50
0.0
 71
     0
 42
0.2
  3
TXT
  4
bigfont
  0
STYLE
  5
287
330
3
100
AcDbSymbolTableRecord
100
AcDbTextStyleTableRecord
  2
SLDTEXTSTYLE2
 70
     0
 40
0.0
 41
0.46305
 50
0.0
 71
     0
 42
0.2
  3
TXT
  4
bigfont
  0
ENDTAB
  0
TABLE
  2
VIEW
  5
6
330
0
100
AcDbSymbolTable
 70
     0
  0
ENDTAB
  0
TABLE
  2
UCS
  5
7
330
0
100
AcDbSymbolTable
 70
     0
  0
ENDTAB
  0
TABLE
  2
APPID
  5
9
330
0
100
AcDbSymbolTable
 70
     1
  0
APPID
  5
12
330
9
100
AcDbSymbolTableRecord
100
AcDbRegAppTableRecord
  2
ACAD
 70
     0
  0
ENDTAB
  0
TABLE
  2
DIMSTYLE
  5
A
330
0
100
AcDbSymbolTable
 70
     7
100
AcDbDimStyleTable
  0
DIMSTYLE
105
27
330
A
100
AcDbSymbolTableRecord
100
AcDbDimStyleTableRecord
  2
ISO-25
 70
     0
 41
2.5
 42
0.625
 43
3.75
 44
1.25
 73
     0
 74
     0
 77
     1
 78
     8
140
2.5
141
2.5
143
0.0393700787
147
0.625
171
     3
172
     1
271
     2
272
     2
274
     3
278
    44
283
     0
284
     8
340
11
  0
DIMSTYLE
105
C7
102
{ACAD_REACTORS
330
BC
102
}
330
A
100
AcDbSymbolTableRecord
100
AcDbDimStyleTableRecord
  2
SLDDIMSTYLE0
 70
     0
 41
3.0
 44
0.0
 78
    12
140
3.5
147
0.875
172
     1
173
     1
271
     0
272
     3
284
    12
340
34
341
C8
343
C8
344
C8
  0
DIMSTYLE
105
E5
102
{ACAD_REACTORS
330
D7
330
F0
330
107
330
13A
330
152
330
16C
330
194
330
1AB
330
1C5
330
228
102
}
330
A
100
AcDbSymbolTableRecord
100
AcDbDimStyleTableRecord
  2
SLDDIMSTYLE1
 70
     0
 41
3.0
 44
0.0
 73
     0
 74
     0
 77
     3
 78
    12
140
3.5
147
0.875
173
     1
271
     0
272
     3
284
    12
340
34
341
C8
343
C8
344
C8
  0
DIMSTYLE
105
12D
102
{ACAD_REACTORS
330
11E
330
1E2
330
1FD
330
242
330
25D
102
}
330
A
100
AcDbSymbolTableRecord
100
AcDbDimStyleTableRecord
  2
SLDDIMSTYLE2
 70
     0
 41
3.0
 44
0.0
 73
     0
 74
     0
 77
     3
 78
    12
140
3.5
147
0.875
173
     1
271
     1
272
     3
284
    12
340
34
341
C8
343
C8
344
C8
  0
DIMSTYLE
105
18D
102
{ACAD_REACTORS
330
183
102
}
330
A
100
AcDbSymbolTableRecord
100
AcDbDimStyleTableRecord
  2
SLDDIMSTYLE3
 70
     0
 41
3.0
 44
0.0
 78
     4
140
3.5
147
0.875
173
     1
271
     1
272
     3
284
    12
340
34
341
C8
343
C8
344
C8
  0
DIMSTYLE
105
222
102
{ACAD_REACTORS
330
218
102
}
330
A
100
AcDbSymbolTableRecord
100
AcDbDimStyleTableRecord
  2
SLDDIMSTYLE4
 70
     0
 41
3.0
 44
0.0
 78
    12
140
3.5
147
0.875
173
     1
271
     0
272
     3
284
    12
340
34
341
C8
343
C8
344
C8
  0
DIMSTYLE
105
27E
102
{ACAD_REACTORS
330
274
102
}
330
A
100
AcDbSymbolTableRecord
100
AcDbDimStyleTableRecord
  2
SLDDIMSTYLE5
 70
     0
 41
3.0
 44
0.0
 78
    12
140
3.5
147
0.875
172
     1
173
     1
271
     1
272
     3
284
    12
340
34
341
C8
343
C8
344
C8
  0
ENDTAB
  0
TABLE
  2
BLOCK_RECORD
  5
1
330
0
100
AcDbSymbolTable
 70
    28
  0
BLOCK_RECORD
  5
1F
330
1
100
AcDbSymbolTableRecord
100
AcDbBlockTableRecord
  2
*Model_Space
340
22
  0
BLOCK_RECORD
  5
1B
330
1
100
AcDbSymbolTableRecord
100
AcDbBlockTableRecord
  2
*Paper_Space
340
1E
  0
BLOCK_RECORD
  5
23
330
1
100
AcDbSymbolTableRecord
100
AcDbBlockTableRecord
  2
*Paper_Space0
340
26
  0
BLOCK_RECORD
  5
31
330
1
100
AcDbSymbolTableRecord
100
AcDbBlockTableRecord
  2
注記
340
0
  0
BLOCK_RECORD
  5
37
330
1
100
AcDbSymbolTableRecord
100
AcDbBlockTableRecord
  2
SW_CENTERMARKSYMBOL_0
340
0
102
{BLKREFS
331
28B
102
}
  0
BLOCK_RECORD
  5
42
330
1
100
AcDbSymbolTableRecord
100
AcDbBlockTableRecord
  2
SW_CENTERMARKSYMBOL_1
340
0
102
{BLKREFS
331
28C
102
}
  0
BLOCK_RECORD
  5
4D
330
1
100
AcDbSymbolTableRecord
100
AcDbBlockTableRecord
  2
SW_CENTERMARKSYMBOL_2
340
0
102
{BLKREFS
331
28D
102
}
  0
BLOCK_RECORD
  5
58
330
1
100
AcDbSymbolTableRecord
100
AcDbBlockTableRecord
  2
SW_CENTERMARKSYMBOL_3
340
0
102
{BLKREFS
331
28E
102
}
  0
BLOCK_RECORD
  5
63
330
1
100
AcDbSymbolTableRecord
100
AcDbBlockTableRecord
  2
SW_CENTERMARKSYMBOL_4
340
0
102
{BLKREFS
331
28F
102
}
  0
BLOCK_RECORD
  5
6E
330
1
100
AcDbSymbolTableRecord
100
AcDbBlockTableRecord
  2
SW_CENTERMARKSYMBOL_5
340
0
102
{BLKREFS
331
290
102
}
  0
BLOCK_RECORD
  5
BE
330
1
100
AcDbSymbolTableRecord
100
AcDbBlockTableRecord
  2
*D8
340
0
  0
BLOCK_RECORD
  5
C8
330
1
100
AcDbSymbolTableRecord
100
AcDbBlockTableRecord
  2
_None
340
0
102
{BLKREFS
331
C2
331
DD
331
DC
331
F6
331
F5
331
10D
331
10C
331
125
331
124
331
140
331
13F
331
158
331
157
331
172
331
171
331
188
331
19A
331
199
331
1B1
331
1B0
331
1CD
331
1CC
331
1E9
331
1E8
331
204
331
203
331
21D
331
22E
331
22D
331
249
331
248
331
263
331
262
331
279
102
}
  0
BLOCK_RECORD
  5
D8
330
1
100
AcDbSymbolTableRecord
100
AcDbBlockTableRecord
  2
*D10
340
0
  0
BLOCK_RECORD
  5
F1
330
1
100
AcDbSymbolTableRecord
100
AcDbBlockTableRecord
  2
*D11
340
0
  0
BLOCK_RECORD
  5
108
330
1
100
AcDbSymbolTableRecord
100
AcDbBlockTableRecord
  2
*D12
340
0
  0
BLOCK_RECORD
  5
11F
330
1
100
AcDbSymbolTableRecord
100
AcDbBlockTableRecord
  2
*D13
340
0
  0
BLOCK_RECORD
  5
13B
330
1
100
AcDbSymbolTableRecord
100
AcDbBlockTableRecord
  2
*D14
340
0
  0
BLOCK_RECORD
  5
153
330
1
100
AcDbSymbolTableRecord
100
AcDbBlockTableRecord
  2
*D15
340
0
  0
BLOCK_RECORD
  5
16D
330
1
100
AcDbSymbolTableRecord
100
AcDbBlockTableRecord
  2
*D16
340
0
  0
BLOCK_RECORD
  5
184
330
1
100
AcDbSymbolTableRecord
100
AcDbBlockTableRecord
  2
*D17
340
0
  0
BLOCK_RECORD
  5
195
330
1
100
AcDbSymbolTableRecord
100
AcDbBlockTableRecord
  2
*D18
340
0
  0
BLOCK_RECORD
  5
1AC
330
1
100
AcDbSymbolTableRecord
100
AcDbBlockTableRecord
  2
*D19
340
0
  0
BLOCK_RECORD
  5
1C6
330
1
100
AcDbSymbolTableRecord
100
AcDbBlockTableRecord
  2
*D20
340
0
  0
BLOCK_RECORD
  5
1E3
330
1
100
AcDbSymbolTableRecord
100
AcDbBlockTableRecord
  2
*D21
340
0
  0
BLOCK_RECORD
  5
1FE
330
1
100
AcDbSymbolTableRecord
100
AcDbBlockTableRecord
  2
*D22
340
0
  0
BLOCK_RECORD
  5
219
330
1
100
AcDbSymbolTableRecord
100
AcDbBlockTableRecord
  2
*D23
340
0
  0
BLOCK_RECORD
  5
229
330
1
100
AcDbSymbolTableRecord
100
AcDbBlockTableRecord
  2
*D24
340
0
  0
BLOCK_RECORD
  5
243
330
1
100
AcDbSymbolTableRecord
100
AcDbBlockTableRecord
  2
*D25
340
0
  0
BLOCK_RECORD
  5
25E
330
1
100
AcDbSymbolTableRecord
100
AcDbBlockTableRecord
  2
*D26
340
0
  0
BLOCK_RECORD
  5
275
330
1
100
AcDbSymbolTableRecord
100
AcDbBlockTableRecord
  2
*D27
340
0
  0
ENDTAB
  0
ENDSEC
  0
SECTION
  2
BLOCKS
  0
BLOCK
  5
20
330
1F
100
AcDbEntity
  8
0
100
AcDbBlockBegin
  2
*Model_Space
 70
     0
 71
     0
 10
0.0
 20
0.0
 30
0.0
  3
*Model_Space
  1

  0
ENDBLK
  5
21
330
1F
100
AcDbEntity
  8
0
100
AcDbBlockEnd
  0
BLOCK
  5
1C
330
1B
100
AcDbEntity
 67
     1
  8
0
100
AcDbBlockBegin
  2
*Paper_Space
 70
     0
 71
     0
 10
0.0
 20
0.0
 30
0.0
  3
*Paper_Space
  1

  0
ENDBLK
  5
1D
330
1B
100
AcDbEntity
 67
     1
  8
0
100
AcDbBlockEnd
  0
BLOCK
  5
24
330
23
100
AcDbEntity
  8
0
100
AcDbBlockBegin
  2
*Paper_Space0
 70
     0
 71
     0
 10
0.0
 20
0.0
 30
0.0
  3
*Paper_Space0
  1

  0
ENDBLK
  5
25
330
23
100
AcDbEntity
  8
0
100
AcDbBlockEnd
  0
BLOCK
  5
32
330
31
100
AcDbEntity
  8
0
100
AcDbBlockBegin
  2
注記
 70
     0
 71
     0
 10
0.0
 20
0.0
 30
0.0
  3
注記
  1

  0
MTEXT
  5
35
330
31
100
AcDbEntity
  8
0
  6
Continuous
 62
     7
370
     0
100
AcDbMText
 10
0.2636785918
 20
9.0739778448
 30
0.0
 40
3.5
 41
0.0
 71
     1
 72
     1
  1
１．特記ナキ角部ハ、バリ　カエリノ無キコト。
  7
SLDTEXTSTYLE0
 73
     1
 44
1.0
  0
MTEXT
  5
36
330
31
100
AcDbEntity
  8
0
  6
Continuous
 62
     7
370
     0
100
AcDbMText
 10
0.2636785918
 20
3.5759549983
 30
0.0
 40
3.5
 41
0.0
 71
     1
 72
     1
  1
２．特記ナキ隅部ハ、Ｒ０．４ＭＡＸトスル。
  7
SLDTEXTSTYLE0
 73
     1
 44
1.0
  0
ENDBLK
  5
33
330
31
100
AcDbEntity
  8
0
100
AcDbBlockEnd
  0
BLOCK
  5
38
330
37
100
AcDbEntity
  8
0
100
AcDbBlockBegin
  2
SW_CENTERMARKSYMBOL_0
 70
     0
 71
     0
 10
0.0
 20
0.0
 30
0.0
  3
SW_CENTERMARKSYMBOL_0
  1

  0
LINE
  5
3A
330
37
100
AcDbEntity
  8
SLD-0
  6
Continuous
 62
     7
370
     0
100
AcDbLine
 10
0.0
 20
0.0
 30
0.0
 11
0.0
 21
2.5
 31
0.0
  0
LINE
  5
3B
330
37
100
AcDbEntity
  8
SLD-0
  6
Continuous
 62
     7
370
     0
100
AcDbLine
 10
0.0
 20
0.0
 30
0.0
 11
-2.5
 21
0.0
 31
0.0
  0
LINE
  5
3C
330
37
100
AcDbEntity
  8
SLD-0
  6
Continuous
 62
     7
370
     0
100
AcDbLine
 10
0.0
 20
0.0
 30
0.0
 11
0.0
 21
-2.5
 31
0.0
  0
LINE
  5
3D
330
37
100
AcDbEntity
  8
SLD-0
  6
Continuous
 62
     7
370
     0
100
AcDbLine
 10
0.0
 20
0.0
 30
0.0
 11
2.5
 21
0.0
 31
0.0
  0
LINE
  5
3E
330
37
100
AcDbEntity
  8
SLD-0
  6
Continuous
 62
     7
370
     0
100
AcDbLine
 10
0.0
 20
5.0
 30
0.0
 11
0.0
 21
7.0
 31
0.0
  0
LINE
  5
3F
330
37
100
AcDbEntity
  8
SLD-0
  6
Continuous
 62
     7
370
     0
100
AcDbLine
 10
-5.0
 20
0.0
 30
0.0
 11
-7.0
 21
0.0
 31
0.0
  0
LINE
  5
40
330
37
100
AcDbEntity
  8
SLD-0
  6
Continuous
 62
     7
370
     0
100
AcDbLine
 10
0.0
 20
-5.0
 30
0.0
 11
0.0
 21
-7.0
 31
0.0
  0
LINE
  5
41
330
37
100
AcDbEntity
  8
SLD-0
  6
Continuous
 62
     7
370
     0
100
AcDbLine
 10
5.0
 20
0.0
 30
0.0
 11
7.0
 21
0.0
 31
0.0
  0
ENDBLK
  5
39
330
37
100
AcDbEntity
  8
0
100
AcDbBlockEnd
  0
BLOCK
  5
43
330
42
100
AcDbEntity
  8
0
100
AcDbBlockBegin
  2
SW_CENTERMARKSYMBOL_1
 70
     0
 71
     0
 10
0.0
 20
0.0
 30
0.0
  3
SW_CENTERMARKSYMBOL_1
  1

  0
LINE
  5
45
330
42
100
AcDbEntity
  8
SLD-0
  6
Continuous
 62
     7
370
     0
100
AcDbLine
 10
0.0
 20
0.0
 30
0.0
 11
0.0
 21
2.5
 31
0.0
  0
LINE
  5
46
330
42
100
AcDbEntity
  8
SLD-0
  6
Continuous
 62
     7
370
     0
100
AcDbLine
 10
0.0
 20
0.0
 30
0.0
 11
-2.5
 21
0.0
 31
0.0
  0
LINE
  5
47
330
42
100
AcDbEntity
  8
SLD-0
  6
Continuous
 62
     7
370
     0
100
AcDbLine
 10
0.0
 20
0.0
 30
0.0
 11
0.0
 21
-2.5
 31
0.0
  0
LINE
  5
48
330
42
100
AcDbEntity
  8
SLD-0
  6
Continuous
 62
     7
370
     0
100
AcDbLine
 10
0.0
 20
0.0
 30
0.0
 11
2.5
 21
0.0
 31
0.0
  0
LINE
  5
49
330
42
100
AcDbEntity
  8
SLD-0
  6
Continuous
 62
     7
370
     0
100
AcDbLine
 10
0.0
 20
5.0
 30
0.0
 11
0.0
 21
5.75
 31
0.0
  0
LINE
  5
4A
330
42
100
AcDbEntity
  8
SLD-0
  6
Continuous
 62
     7
370
     0
100
AcDbLine
 10
-5.0
 20
0.0
 30
0.0
 11
-5.75
 21
0.0
 31
0.0
  0
LINE
  5
4B
330
42
100
AcDbEntity
  8
SLD-0
  6
Continuous
 62
     7
370
     0
100
AcDbLine
 10
0.0
 20
-5.0
 30
0.0
 11
0.0
 21
-5.75
 31
0.0
  0
LINE
  5
4C
330
42
100
AcDbEntity
  8
SLD-0
  6
Continuous
 62
     7
370
     0
100
AcDbLine
 10
5.0
 20
0.0
 30
0.0
 11
5.75
 21
0.0
 31
0.0
  0
ENDBLK
  5
44
330
42
100
AcDbEntity
  8
0
100
AcDbBlockEnd
  0
BLOCK
  5
4E
330
4D
100
AcDbEntity
  8
0
100
AcDbBlockBegin
  2
SW_CENTERMARKSYMBOL_2
 70
     0
 71
     0
 10
0.0
 20
0.0
 30
0.0
  3
SW_CENTERMARKSYMBOL_2
  1

  0
LINE
  5
50
330
4D
100
AcDbEntity
  8
SLD-0
  6
Continuous
 62
     7
370
     0
100
AcDbLine
 10
0.0
 20
0.0
 30
0.0
 11
0.0
 21
2.5
 31
0.0
  0
LINE
  5
51
330
4D
100
AcDbEntity
  8
SLD-0
  6
Continuous
 62
     7
370
     0
100
AcDbLine
 10
0.0
 20
0.0
 30
0.0
 11
-2.5
 21
0.0
 31
0.0
  0
LINE
  5
52
330
4D
100
AcDbEntity
  8
SLD-0
  6
Continuous
 62
     7
370
     0
100
AcDbLine
 10
0.0
 20
0.0
 30
0.0
 11
0.0
 21
-2.5
 31
0.0
  0
LINE
  5
53
330
4D
100
AcDbEntity
  8
SLD-0
  6
Continuous
 62
     7
370
     0
100
AcDbLine
 10
0.0
 20
0.0
 30
0.0
 11
2.5
 21
0.0
 31
0.0
  0
LINE
  5
54
330
4D
100
AcDbEntity
  8
SLD-0
  6
Continuous
 62
     7
370
     0
100
AcDbLine
 10
0.0
 20
5.0
 30
0.0
 11
0.0
 21
5.75
 31
0.0
  0
LINE
  5
55
330
4D
100
AcDbEntity
  8
SLD-0
  6
Continuous
 62
     7
370
     0
100
AcDbLine
 10
-5.0
 20
0.0
 30
0.0
 11
-5.75
 21
0.0
 31
0.0
  0
LINE
  5
56
330
4D
100
AcDbEntity
  8
SLD-0
  6
Continuous
 62
     7
370
     0
100
AcDbLine
 10
0.0
 20
-5.0
 30
0.0
 11
0.0
 21
-5.75
 31
0.0
  0
LINE
  5
57
330
4D
100
AcDbEntity
  8
SLD-0
  6
Continuous
 62
     7
370
     0
100
AcDbLine
 10
5.0
 20
0.0
 30
0.0
 11
5.75
 21
0.0
 31
0.0
  0
ENDBLK
  5
4F
330
4D
100
AcDbEntity
  8
0
100
AcDbBlockEnd
  0
BLOCK
  5
59
330
58
100
AcDbEntity
  8
0
100
AcDbBlockBegin
  2
SW_CENTERMARKSYMBOL_3
 70
     0
 71
     0
 10
0.0
 20
0.0
 30
0.0
  3
SW_CENTERMARKSYMBOL_3
  1

  0
LINE
  5
5B
330
58
100
AcDbEntity
  8
SLD-0
  6
Continuous
 62
     7
370
     0
100
AcDbLine
 10
0.0
 20
0.0
 30
0.0
 11
0.0
 21
2.5
 31
0.0
  0
LINE
  5
5C
330
58
100
AcDbEntity
  8
SLD-0
  6
Continuous
 62
     7
370
     0
100
AcDbLine
 10
0.0
 20
0.0
 30
0.0
 11
-2.5
 21
0.0
 31
0.0
  0
LINE
  5
5D
330
58
100
AcDbEntity
  8
SLD-0
  6
Continuous
 62
     7
370
     0
100
AcDbLine
 10
0.0
 20
0.0
 30
0.0
 11
0.0
 21
-2.5
 31
0.0
  0
LINE
  5
5E
330
58
100
AcDbEntity
  8
SLD-0
  6
Continuous
 62
     7
370
     0
100
AcDbLine
 10
0.0
 20
0.0
 30
0.0
 11
2.5
 21
0.0
 31
0.0
  0
LINE
  5
5F
330
58
100
AcDbEntity
  8
SLD-0
  6
Continuous
 62
     7
370
     0
100
AcDbLine
 10
0.0
 20
5.0
 30
0.0
 11
0.0
 21
5.75
 31
0.0
  0
LINE
  5
60
330
58
100
AcDbEntity
  8
SLD-0
  6
Continuous
 62
     7
370
     0
100
AcDbLine
 10
-5.0
 20
0.0
 30
0.0
 11
-5.75
 21
0.0
 31
0.0
  0
LINE
  5
61
330
58
100
AcDbEntity
  8
SLD-0
  6
Continuous
 62
     7
370
     0
100
AcDbLine
 10
0.0
 20
-5.0
 30
0.0
 11
0.0
 21
-5.75
 31
0.0
  0
LINE
  5
62
330
58
100
AcDbEntity
  8
SLD-0
  6
Continuous
 62
     7
370
     0
100
AcDbLine
 10
5.0
 20
0.0
 30
0.0
 11
5.75
 21
0.0
 31
0.0
  0
ENDBLK
  5
5A
330
58
100
AcDbEntity
  8
0
100
AcDbBlockEnd
  0
BLOCK
  5
64
330
63
100
AcDbEntity
  8
0
100
AcDbBlockBegin
  2
SW_CENTERMARKSYMBOL_4
 70
     0
 71
     0
 10
0.0
 20
0.0
 30
0.0
  3
SW_CENTERMARKSYMBOL_4
  1

  0
LINE
  5
66
330
63
100
AcDbEntity
  8
SLD-0
  6
Continuous
 62
     7
370
     0
100
AcDbLine
 10
0.0
 20
0.0
 30
0.0
 11
0.0
 21
2.5
 31
0.0
  0
LINE
  5
67
330
63
100
AcDbEntity
  8
SLD-0
  6
Continuous
 62
     7
370
     0
100
AcDbLine
 10
0.0
 20
0.0
 30
0.0
 11
-2.5
 21
0.0
 31
0.0
  0
LINE
  5
68
330
63
100
AcDbEntity
  8
SLD-0
  6
Continuous
 62
     7
370
     0
100
AcDbLine
 10
0.0
 20
0.0
 30
0.0
 11
0.0
 21
-2.5
 31
0.0
  0
LINE
  5
69
330
63
100
AcDbEntity
  8
SLD-0
  6
Continuous
 62
     7
370
     0
100
AcDbLine
 10
0.0
 20
0.0
 30
0.0
 11
2.5
 21
0.0
 31
0.0
  0
LINE
  5
6A
330
63
100
AcDbEntity
  8
SLD-0
  6
Continuous
 62
     7
370
     0
100
AcDbLine
 10
0.0
 20
5.0
 30
0.0
 11
0.0
 21
5.75
 31
0.0
  0
LINE
  5
6B
330
63
100
AcDbEntity
  8
SLD-0
  6
Continuous
 62
     7
370
     0
100
AcDbLine
 10
-5.0
 20
0.0
 30
0.0
 11
-5.75
 21
0.0
 31
0.0
  0
LINE
  5
6C
330
63
100
AcDbEntity
  8
SLD-0
  6
Continuous
 62
     7
370
     0
100
AcDbLine
 10
0.0
 20
-5.0
 30
0.0
 11
0.0
 21
-5.75
 31
0.0
  0
LINE
  5
6D
330
63
100
AcDbEntity
  8
SLD-0
  6
Continuous
 62
     7
370
     0
100
AcDbLine
 10
5.0
 20
0.0
 30
0.0
 11
5.75
 21
0.0
 31
0.0
  0
ENDBLK
  5
65
330
63
100
AcDbEntity
  8
0
100
AcDbBlockEnd
  0
BLOCK
  5
6F
330
6E
100
AcDbEntity
  8
0
100
AcDbBlockBegin
  2
SW_CENTERMARKSYMBOL_5
 70
     0
 71
     0
 10
0.0
 20
0.0
 30
0.0
  3
SW_CENTERMARKSYMBOL_5
  1

  0
LINE
  5
71
330
6E
100
AcDbEntity
  8
SLD-0
  6
Continuous
 62
     7
370
     0
100
AcDbLine
 10
0.0
 20
0.0
 30
0.0
 11
0.0
 21
2.5
 31
0.0
  0
LINE
  5
72
330
6E
100
AcDbEntity
  8
SLD-0
  6
Continuous
 62
     7
370
     0
100
AcDbLine
 10
0.0
 20
0.0
 30
0.0
 11
-2.5
 21
0.0
 31
0.0
  0
LINE
  5
73
330
6E
100
AcDbEntity
  8
SLD-0
  6
Continuous
 62
     7
370
     0
100
AcDbLine
 10
0.0
 20
0.0
 30
0.0
 11
0.0
 21
-2.5
 31
0.0
  0
LINE
  5
74
330
6E
100
AcDbEntity
  8
SLD-0
  6
Continuous
 62
     7
370
     0
100
AcDbLine
 10
0.0
 20
0.0
 30
0.0
 11
2.5
 21
0.0
 31
0.0
  0
LINE
  5
75
330
6E
100
AcDbEntity
  8
SLD-0
  6
Continuous
 62
     7
370
     0
100
AcDbLine
 10
0.0
 20
2.5
 30
0.0
 11
0.0
 21
4.75
 31
0.0
  0
LINE
  5
76
330
6E
100
AcDbEntity
  8
SLD-0
  6
Continuous
 62
     7
370
     0
100
AcDbLine
 10
-2.5
 20
0.0
 30
0.0
 11
-4.75
 21
0.0
 31
0.0
  0
LINE
  5
77
330
6E
100
AcDbEntity
  8
SLD-0
  6
Continuous
 62
     7
370
     0
100
AcDbLine
 10
0.0
 20
-2.5
 30
0.0
 11
0.0
 21
-4.75
 31
0.0
  0
LINE
  5
78
330
6E
100
AcDbEntity
  8
SLD-0
  6
Continuous
 62
     7
370
     0
100
AcDbLine
 10
2.5
 20
0.0
 30
0.0
 11
4.75
 21
0.0
 31
0.0
  0
ENDBLK
  5
70
330
6E
100
AcDbEntity
  8
0
100
AcDbBlockEnd
  0
BLOCK
  5
C5
330
BE
100
AcDbEntity
  8
0
100
AcDbBlockBegin
  2
*D8
 70
     1
 71
     0
 10
0.0
 20
0.0
 30
0.0
  3
*D8
  1

  0
LINE
  5
CB
330
BE
100
AcDbEntity
  8
SLD-0
 62
     7
100
AcDbLine
 10
134.2519142258
 20
136.1349425221
 30
0.0
 11
131.8255467954
 21
134.1961513801
 31
0.0
  0
LINE
  5
CC
330
BE
100
AcDbEntity
  8
SLD-0
 62
     7
100
AcDbLine
 10
131.8255467954
 20
134.1961513801
 30
0.0
 11
132.9574480966
 21
137.0883770704
 31
0.0
  0
LINE
  5
CD
330
BE
100
AcDbEntity
  8
SLD-0
 62
     7
100
AcDbLine
 10
131.8255467954
 20
134.1961513801
 30
0.0
 11
133.6046811612
 21
136.6116597963
 31
0.0
  0
LINE
  5
CE
330
BE
100
AcDbEntity
  8
SLD-0
 62
     7
100
AcDbLine
 10
134.1435376737
 20
138.6987160145
 30
0.0
 11
136.5699051041
 21
140.6375071565
 31
0.0
  0
LINE
  5
CF
330
BE
100
AcDbEntity
  8
SLD-0
 62
     7
100
AcDbLine
 10
136.5699051041
 20
140.6375071565
 30
0.0
 11
135.4380038029
 21
137.7452814662
 31
0.0
  0
LINE
  5
D0
330
BE
100
AcDbEntity
  8
SLD-0
 62
     7
100
AcDbLine
 10
136.5699051041
 20
140.6375071565
 30
0.0
 11
134.7907707383
 21
138.2219987403
 31
0.0
  0
LINE
  5
D1
330
BE
100
AcDbEntity
  8
SLD-0
 62
     7
100
AcDbLine
 10
136.5699051041
 20
140.6375071565
 30
0.0
 11
156.4731837448
 21
167.6599389589
 31
0.0
  0
LINE
  5
D2
330
BE
100
AcDbEntity
  8
SLD-0
 62
     7
100
AcDbLine
 10
131.8255467954
 20
134.1961513801
 30
0.0
 11
136.5699051041
 21
140.6375071565
 31
0.0
  0
LINE
  5
D3
330
BE
100
AcDbEntity
  8
SLD-0
 62
     7
100
AcDbLine
 10
156.4731837448
 20
167.6599389589
 30
0.0
 11
167.1412162531
 21
167.6599389589
 31
0.0
  0
MTEXT
  5
D5
330
BE
100
AcDbEntity
  8
SLD-0
 62
     7
100
AcDbMText
 10
157.8981837448
 20
171.7326659988
 30
0.1
 40
3.5
 41
0.0
 71
     1
 72
     1
  1
%%c
  7
SLDTEXTSTYLE1
 73
     1
 44
1.0
  0
MTEXT
  5
D6
330
BE
100
AcDbEntity
  8
SLD-0
 62
     7
100
AcDbMText
 10
163.5171301143
 20
171.7326659988
 30
0.1
 40
3.5
 41
0.0
 71
     1
 72
     1
  1
8
  7
SLDTEXTSTYLE1
 73
     1
 44
1.0
  0
ENDBLK
  5
C6
330
BE
100
AcDbEntity
  8
0
100
AcDbBlockEnd
  0
BLOCK
  5
C9
330
C8
100
AcDbEntity
  8
0
100
AcDbBlockBegin
  2
_None
 70
     0
 71
     0
 10
0.0
 20
0.0
 30
0.0
  3
_None
  1

  0
ENDBLK
  5
CA
330
C8
100
AcDbEntity
  8
0
100
AcDbBlockEnd
  0
BLOCK
  5
E3
330
D8
100
AcDbEntity
  8
0
100
AcDbBlockBegin
  2
*D10
 70
     1
 71
     0
 10
0.0
 20
0.0
 30
0.0
  3
*D10
  1

  0
LINE
  5
E6
330
D8
100
AcDbEntity
  8
SLD-0
 62
     7
100
AcDbLine
 10
180.4798209033
 20
146.9168292683
 30
0.0
 11
181.2836679033
 21
149.9168292683
 31
0.0
  0
LINE
  5
E7
330
D8
100
AcDbEntity
  8
SLD-0
 62
     7
100
AcDbLine
 10
181.2836679033
 20
149.9168292683
 30
0.0
 11
182.0875149033
 21
146.9168292683
 31
0.0
  0
LINE
  5
E8
330
D8
100
AcDbEntity
  8
SLD-0
 62
     7
100
AcDbLine
 10
181.2836679033
 20
149.9168292683
 30
0.0
 11
181.2836679033
 21
146.9168292683
 31
0.0
  0
LINE
  5
E9
330
D8
100
AcDbEntity
  8
SLD-0
 62
     7
100
AcDbLine
 10
182.0875149033
 20
127.9168292683
 30
0.0
 11
181.2836679033
 21
124.9168292683
 31
0.0
  0
LINE
  5
EA
330
D8
100
AcDbEntity
  8
SLD-0
 62
     7
100
AcDbLine
 10
181.2836679033
 20
124.9168292683
 30
0.0
 11
180.4798209033
 21
127.9168292683
 31
0.0
  0
LINE
  5
EB
330
D8
100
AcDbEntity
  8
SLD-0
 62
     7
100
AcDbLine
 10
181.2836679033
 20
124.9168292683
 30
0.0
 11
181.2836679033
 21
127.9168292683
 31
0.0
  0
LINE
  5
EC
330
D8
100
AcDbEntity
  8
SLD-0
 62
     7
100
AcDbLine
 10
141.1977259497
 20
149.9168292683
 30
0.0
 11
182.2836679033
 21
149.9168292683
 31
0.0
  0
LINE
  5
ED
330
D8
100
AcDbEntity
  8
SLD-0
 62
     7
100
AcDbLine
 10
150.1977259497
 20
124.9168292683
 30
0.0
 11
182.2836679033
 21
124.9168292683
 31
0.0
  0
LINE
  5
EE
330
D8
100
AcDbEntity
  8
SLD-0
 62
     7
100
AcDbLine
 10
181.2836679033
 20
149.9168292683
 30
0.0
 11
181.2836679033
 21
124.9168292683
 31
0.0
  0
MTEXT
  5
EF
330
D8
100
AcDbEntity
  8
SLD-0
 62
     7
100
AcDbMText
 10
177.2109408634
 20
135.3802431295
 30
0.1
 40
3.5
 41
0.0
 71
     1
 72
     1
  1
25
  7
SLDTEXTSTYLE1
 11
-7.044197039909883E-15
 21
1.0
 31
0.0
 73
     1
 44
1.0
  0
ENDBLK
  5
E4
330
D8
100
AcDbEntity
  8
0
100
AcDbBlockEnd
  0
BLOCK
  5
FB
330
F1
100
AcDbEntity
  8
0
100
AcDbBlockBegin
  2
*D11
 70
     1
 71
     0
 10
0.0
 20
0.0
 30
0.0
  3
*D11
  1

  0
LINE
  5
FD
330
F1
100
AcDbEntity
  8
SLD-0
 62
     7
100
AcDbLine
 10
146.1977259497
 20
107.7903102822
 30
0.0
 11
149.1977259497
 21
106.9864632822
 31
0.0
  0
LINE
  5
FE
330
F1
100
AcDbEntity
  8
SLD-0
 62
     7
100
AcDbLine
 10
149.1977259497
 20
106.9864632822
 30
0.0
 11
146.1977259497
 21
106.1826162822
 31
0.0
  0
LINE
  5
FF
330
F1
100
AcDbEntity
  8
SLD-0
 62
     7
100
AcDbLine
 10
149.1977259497
 20
106.9864632822
 30
0.0
 11
146.1977259497
 21
106.9864632822
 31
0.0
  0
LINE
  5
100
330
F1
100
AcDbEntity
  8
SLD-0
 62
     7
100
AcDbLine
 10
62.1977259497
 20
106.1826162822
 30
0.0
 11
59.1977259497
 21
106.9864632822
 31
0.0
  0
LINE
  5
101
330
F1
100
AcDbEntity
  8
SLD-0
 62
     7
100
AcDbLine
 10
59.1977259497
 20
106.9864632822
 30
0.0
 11
62.1977259497
 21
107.7903102822
 31
0.0
  0
LINE
  5
102
330
F1
100
AcDbEntity
  8
SLD-0
 62
     7
100
AcDbLine
 10
59.1977259497
 20
106.9864632822
 30
0.0
 11
62.1977259497
 21
106.9864632822
 31
0.0
  0
LINE
  5
103
330
F1
100
AcDbEntity
  8
SLD-0
 62
     7
100
AcDbLine
 10
149.1977259497
 20
123.9168292683
 30
0.0
 11
149.1977259497
 21
105.9864632822
 31
0.0
  0
LINE
  5
104
330
F1
100
AcDbEntity
  8
SLD-0
 62
     7
100
AcDbLine
 10
59.1977259497
 20
123.9168292683
 30
0.0
 11
59.1977259497
 21
105.9864632822
 31
0.0
  0
LINE
  5
105
330
F1
100
AcDbEntity
  8
SLD-0
 62
     7
100
AcDbLine
 10
149.1977259497
 20
106.9864632822
 30
0.0
 11
59.1977259497
 21
106.9864632822
 31
0.0
  0
MTEXT
  5
106
330
F1
100
AcDbEntity
  8
SLD-0
 62
     7
100
AcDbMText
 10
102.1611398109
 20
111.0591903221
 30
0.1
 40
3.5
 41
0.0
 71
     1
 72
     1
  1
90
  7
SLDTEXTSTYLE1
 73
     1
 44
1.0
  0
ENDBLK
  5
FC
330
F1
100
AcDbEntity
  8
0
100
AcDbBlockEnd
  0
BLOCK
  5
112
330
108
100
AcDbEntity
  8
0
100
AcDbBlockBegin
  2
*D12
 70
     1
 71
     0
 10
0.0
 20
0.0
 30
0.0
  3
*D12
  1

  0
LINE
  5
114
330
108
100
AcDbEntity
  8
SLD-0
 62
     7
100
AcDbLine
 10
131.1977259497
 20
157.3579006986
 30
0.0
 11
134.1977259497
 21
156.5540536986
 31
0.0
  0
LINE
  5
115
330
108
100
AcDbEntity
  8
SLD-0
 62
     7
100
AcDbLine
 10
134.1977259497
 20
156.5540536986
 30
0.0
 11
131.1977259497
 21
155.7502066986
 31
0.0
  0
LINE
  5
116
330
108
100
AcDbEntity
  8
SLD-0
 62
     7
100
AcDbLine
 10
134.1977259497
 20
156.5540536986
 30
0.0
 11
131.1977259497
 21
156.5540536986
 31
0.0
  0
LINE
  5
117
330
108
100
AcDbEntity
  8
SLD-0
 62
     7
100
AcDbLine
 10
62.1977259497
 20
155.7502066986
 30
0.0
 11
59.1977259497
 21
156.5540536986
 31
0.0
  0
LINE
  5
118
330
108
100
AcDbEntity
  8
SLD-0
 62
     7
100
AcDbLine
 10
59.1977259497
 20
156.5540536986
 30
0.0
 11
62.1977259497
 21
157.3579006986
 31
0.0
  0
LINE
  5
119
330
108
100
AcDbEntity
  8
SLD-0
 62
     7
100
AcDbLine
 10
59.1977259497
 20
156.5540536986
 30
0.0
 11
62.1977259497
 21
156.5540536986
 31
0.0
  0
LINE
  5
11A
330
108
100
AcDbEntity
  8
SLD-0
 62
     7
100
AcDbLine
 10
134.1977259497
 20
138.4168292683
 30
0.0
 11
134.1977259497
 21
157.5540536986
 31
0.0
  0
LINE
  5
11B
330
108
100
AcDbEntity
  8
SLD-0
 62
     7
100
AcDbLine
 10
59.1977259497
 20
150.9168292683
 30
0.0
 11
59.1977259497
 21
157.5540536986
 31
0.0
  0
LINE
  5
11C
330
108
100
AcDbEntity
  8
SLD-0
 62
     7
100
AcDbLine
 10
134.1977259497
 20
156.5540536986
 30
0.0
 11
59.1977259497
 21
156.5540536986
 31
0.0
  0
MTEXT
  5
11D
330
108
100
AcDbEntity
  8
SLD-0
 62
     7
100
AcDbMText
 10
94.6611398109
 20
160.6267807385
 30
0.1
 40
3.5
 41
0.0
 71
     1
 72
     1
  1
75
  7
SLDTEXTSTYLE1
 73
     1
 44
1.0
  0
ENDBLK
  5
113
330
108
100
AcDbEntity
  8
0
100
AcDbBlockEnd
  0
BLOCK
  5
12B
330
11F
100
AcDbEntity
  8
0
100
AcDbBlockBegin
  2
*D13
 70
     1
 71
     0
 10
0.0
 20
0.0
 30
0.0
  3
*D13
  1

  0
LINE
  5
12E
330
11F
100
AcDbEntity
  8
SLD-0
 62
     7
100
AcDbLine
 10
51.2121740785
 20
137.1668292683
 30
0.0
 11
52.0160210785
 21
140.1668292683
 31
0.0
  0
LINE
  5
12F
330
11F
100
AcDbEntity
  8
SLD-0
 62
     7
100
AcDbLine
 10
52.0160210785
 20
140.1668292683
 30
0.0
 11
52.8198680785
 21
137.1668292683
 31
0.0
  0
LINE
  5
130
330
11F
100
AcDbEntity
  8
SLD-0
 62
     7
100
AcDbLine
 10
52.0160210785
 20
140.1668292683
 30
0.0
 11
52.0160210785
 21
137.1668292683
 31
0.0
  0
LINE
  5
131
330
11F
100
AcDbEntity
  8
SLD-0
 62
     7
100
AcDbLine
 10
52.8198680785
 20
149.6668292683
 30
0.0
 11
52.0160210785
 21
146.6668292683
 31
0.0
  0
LINE
  5
132
330
11F
100
AcDbEntity
  8
SLD-0
 62
     7
100
AcDbLine
 10
52.0160210785
 20
146.6668292683
 30
0.0
 11
51.2121740785
 21
149.6668292683
 31
0.0
  0
LINE
  5
133
330
11F
100
AcDbEntity
  8
SLD-0
 62
     7
100
AcDbLine
 10
52.0160210785
 20
146.6668292683
 30
0.0
 11
52.0160210785
 21
149.6668292683
 31
0.0
  0
LINE
  5
134
330
11F
100
AcDbEntity
  8
SLD-0
 62
     7
100
AcDbLine
 10
66.1977259497
 20
140.1668292683
 30
0.0
 11
51.0160210785
 21
140.1668292683
 31
0.0
  0
LINE
  5
135
330
11F
100
AcDbEntity
  8
SLD-0
 62
     7
100
AcDbLine
 10
66.1977259497
 20
146.6668292683
 30
0.0
 11
51.0160210785
 21
146.6668292683
 31
0.0
  0
LINE
  5
136
330
11F
100
AcDbEntity
  8
SLD-0
 62
     7
100
AcDbLine
 10
52.0160210785
 20
140.1668292683
 30
0.0
 11
52.0160210785
 21
135.1668292683
 31
0.0
  0
LINE
  5
137
330
11F
100
AcDbEntity
  8
SLD-0
 62
     7
100
AcDbLine
 10
52.0160210785
 20
140.1668292683
 30
0.0
 11
52.0160210785
 21
146.6668292683
 31
0.0
  0
LINE
  5
138
330
11F
100
AcDbEntity
  8
SLD-0
 62
     7
100
AcDbLine
 10
52.0160210785
 20
146.6668292683
 30
0.0
 11
52.0160210785
 21
159.2860796756
 31
0.0
  0
MTEXT
  5
139
330
11F
100
AcDbEntity
  8
SLD-0
 62
     7
100
AcDbMText
 10
47.9432940386
 20
151.5888212593
 30
0.1
 40
3.5
 41
0.0
 71
     1
 72
     1
  1
6.5
  7
SLDTEXTSTYLE1
 11
6.123031769111886E-17
 21
1.0
 31
0.0
 73
     1
 44
1.0
  0
ENDBLK
  5
12C
330
11F
100
AcDbEntity
  8
0
100
AcDbBlockEnd
  0
BLOCK
  5
146
330
13B
100
AcDbEntity
  8
0
100
AcDbBlockBegin
  2
*D14
 70
     1
 71
     0
 10
0.0
 20
0.0
 30
0.0
  3
*D14
  1

  0
LINE
  5
148
330
13B
100
AcDbEntity
  8
SLD-0
 62
     7
100
AcDbLine
 10
44.9640536677
 20
134.4168292683
 30
0.0
 11
44.1602066677
 21
131.4168292683
 31
0.0
  0
LINE
  5
149
330
13B
100
AcDbEntity
  8
SLD-0
 62
     7
100
AcDbLine
 10
44.1602066677
 20
131.4168292683
 30
0.0
 11
43.3563596677
 21
134.4168292683
 31
0.0
  0
LINE
  5
14A
330
13B
100
AcDbEntity
  8
SLD-0
 62
     7
100
AcDbLine
 10
44.1602066677
 20
131.4168292683
 30
0.0
 11
44.1602066677
 21
134.4168292683
 31
0.0
  0
LINE
  5
14B
330
13B
100
AcDbEntity
  8
SLD-0
 62
     7
100
AcDbLine
 10
43.3563596677
 20
140.4168292683
 30
0.0
 11
44.1602066677
 21
143.4168292683
 31
0.0
  0
LINE
  5
14C
330
13B
100
AcDbEntity
  8
SLD-0
 62
     7
100
AcDbLine
 10
44.1602066677
 20
143.4168292683
 30
0.0
 11
44.9640536677
 21
140.4168292683
 31
0.0
  0
LINE
  5
14D
330
13B
100
AcDbEntity
  8
SLD-0
 62
     7
100
AcDbLine
 10
44.1602066677
 20
143.4168292683
 30
0.0
 11
44.1602066677
 21
140.4168292683
 31
0.0
  0
LINE
  5
14E
330
13B
100
AcDbEntity
  8
SLD-0
 62
     7
100
AcDbLine
 10
66.1977259497
 20
131.4168292683
 30
0.0
 11
43.1602066677
 21
131.4168292683
 31
0.0
  0
LINE
  5
14F
330
13B
100
AcDbEntity
  8
SLD-0
 62
     7
100
AcDbLine
 10
66.1977259497
 20
143.4168292683
 30
0.0
 11
43.1602066677
 21
143.4168292683
 31
0.0
  0
LINE
  5
150
330
13B
100
AcDbEntity
  8
SLD-0
 62
     7
100
AcDbLine
 10
44.1602066677
 20
131.4168292683
 30
0.0
 11
44.1602066677
 21
143.4168292683
 31
0.0
  0
MTEXT
  5
151
330
13B
100
AcDbEntity
  8
SLD-0
 62
     7
100
AcDbMText
 10
40.0874796279
 20
135.3802431295
 30
0.1
 40
3.5
 41
0.0
 71
     1
 72
     1
  1
12
  7
SLDTEXTSTYLE1
 11
6.123031769111886E-17
 21
1.0
 31
0.0
 73
     1
 44
1.0
  0
ENDBLK
  5
147
330
13B
100
AcDbEntity
  8
0
100
AcDbBlockEnd
  0
BLOCK
  5
15E
330
153
100
AcDbEntity
  8
0
100
AcDbBlockBegin
  2
*D15
 70
     1
 71
     0
 10
0.0
 20
0.0
 30
0.0
  3
*D15
  1

  0
LINE
  5
160
330
153
100
AcDbEntity
  8
SLD-0
 62
     7
100
AcDbLine
 10
70.1977259497
 20
113.6889542679
 30
0.0
 11
67.1977259497
 21
114.4928012679
 31
0.0
  0
LINE
  5
161
330
153
100
AcDbEntity
  8
SLD-0
 62
     7
100
AcDbLine
 10
67.1977259497
 20
114.4928012679
 30
0.0
 11
70.1977259497
 21
115.2966482679
 31
0.0
  0
LINE
  5
162
330
153
100
AcDbEntity
  8
SLD-0
 62
     7
100
AcDbLine
 10
67.1977259497
 20
114.4928012679
 30
0.0
 11
70.1977259497
 21
114.4928012679
 31
0.0
  0
LINE
  5
163
330
153
100
AcDbEntity
  8
SLD-0
 62
     7
100
AcDbLine
 10
56.1977259497
 20
115.2966482679
 30
0.0
 11
59.1977259497
 21
114.4928012679
 31
0.0
  0
LINE
  5
164
330
153
100
AcDbEntity
  8
SLD-0
 62
     7
100
AcDbLine
 10
59.1977259497
 20
114.4928012679
 30
0.0
 11
56.1977259497
 21
113.6889542679
 31
0.0
  0
LINE
  5
165
330
153
100
AcDbEntity
  8
SLD-0
 62
     7
100
AcDbLine
 10
59.1977259497
 20
114.4928012679
 30
0.0
 11
56.1977259497
 21
114.4928012679
 31
0.0
  0
LINE
  5
166
330
153
100
AcDbEntity
  8
SLD-0
 62
     7
100
AcDbLine
 10
67.1977259497
 20
130.4168292683
 30
0.0
 11
67.1977259497
 21
113.4928012679
 31
0.0
  0
LINE
  5
167
330
153
100
AcDbEntity
  8
SLD-0
 62
     7
100
AcDbLine
 10
59.1977259497
 20
123.9168292683
 30
0.0
 11
59.1977259497
 21
113.4928012679
 31
0.0
  0
LINE
  5
168
330
153
100
AcDbEntity
  8
SLD-0
 62
     7
100
AcDbLine
 10
67.1977259497
 20
114.4928012679
 30
0.0
 11
72.1977259497
 21
114.4928012679
 31
0.0
  0
LINE
  5
169
330
153
100
AcDbEntity
  8
SLD-0
 62
     7
100
AcDbLine
 10
67.1977259497
 20
114.4928012679
 30
0.0
 11
59.1977259497
 21
114.4928012679
 31
0.0
  0
LINE
  5
16A
330
153
100
AcDbEntity
  8
SLD-0
 62
     7
100
AcDbLine
 10
59.1977259497
 20
114.4928012679
 30
0.0
 11
54.1977259497
 21
114.4928012679
 31
0.0
  0
MTEXT
  5
16B
330
153
100
AcDbEntity
  8
SLD-0
 62
     7
100
AcDbMText
 10
62.1794328803
 20
118.5655283078
 30
0.1
 40
3.5
 41
0.0
 71
     1
 72
     1
  1
8
  7
SLDTEXTSTYLE1
 73
     1
 44
1.0
  0
ENDBLK
  5
15F
330
153
100
AcDbEntity
  8
0
100
AcDbBlockEnd
  0
BLOCK
  5
177
330
16D
100
AcDbEntity
  8
0
100
AcDbBlockBegin
  2
*D16
 70
     1
 71
     0
 10
0.0
 20
0.0
 30
0.0
  3
*D16
  1

  0
LINE
  5
179
330
16D
100
AcDbEntity
  8
SLD-0
 62
     7
100
AcDbLine
 10
120.1977259497
 20
115.2966482679
 30
0.0
 11
123.1977259497
 21
114.4928012679
 31
0.0
  0
LINE
  5
17A
330
16D
100
AcDbEntity
  8
SLD-0
 62
     7
100
AcDbLine
 10
123.1977259497
 20
114.4928012679
 30
0.0
 11
120.1977259497
 21
113.6889542679
 31
0.0
  0
LINE
  5
17B
330
16D
100
AcDbEntity
  8
SLD-0
 62
     7
100
AcDbLine
 10
123.1977259497
 20
114.4928012679
 30
0.0
 11
120.1977259497
 21
114.4928012679
 31
0.0
  0
LINE
  5
17C
330
16D
100
AcDbEntity
  8
SLD-0
 62
     7
100
AcDbLine
 10
70.1977259497
 20
113.6889542679
 30
0.0
 11
67.1977259497
 21
114.4928012679
 31
0.0
  0
LINE
  5
17D
330
16D
100
AcDbEntity
  8
SLD-0
 62
     7
100
AcDbLine
 10
67.1977259497
 20
114.4928012679
 30
0.0
 11
70.1977259497
 21
115.2966482679
 31
0.0
  0
LINE
  5
17E
330
16D
100
AcDbEntity
  8
SLD-0
 62
     7
100
AcDbLine
 10
67.1977259497
 20
114.4928012679
 30
0.0
 11
70.1977259497
 21
114.4928012679
 31
0.0
  0
LINE
  5
17F
330
16D
100
AcDbEntity
  8
SLD-0
 62
     7
100
AcDbLine
 10
123.1977259497
 20
130.4168292683
 30
0.0
 11
123.1977259497
 21
113.4928012679
 31
0.0
  0
LINE
  5
180
330
16D
100
AcDbEntity
  8
SLD-0
 62
     7
100
AcDbLine
 10
67.1977259497
 20
130.4168292683
 30
0.0
 11
67.1977259497
 21
113.4928012679
 31
0.0
  0
LINE
  5
181
330
16D
100
AcDbEntity
  8
SLD-0
 62
     7
100
AcDbLine
 10
123.1977259497
 20
114.4928012679
 30
0.0
 11
67.1977259497
 21
114.4928012679
 31
0.0
  0
MTEXT
  5
182
330
16D
100
AcDbEntity
  8
SLD-0
 62
     7
100
AcDbMText
 10
93.1611398109
 20
118.5655283078
 30
0.1
 40
3.5
 41
0.0
 71
     1
 72
     1
  1
56
  7
SLDTEXTSTYLE1
 73
     1
 44
1.0
  0
ENDBLK
  5
178
330
16D
100
AcDbEntity
  8
0
100
AcDbBlockEnd
  0
BLOCK
  5
18B
330
184
100
AcDbEntity
  8
0
100
AcDbBlockBegin
  2
*D17
 70
     1
 71
     0
 10
0.0
 20
0.0
 30
0.0
  3
*D17
  1

  0
LINE
  5
18E
330
184
100
AcDbEntity
  8
SLD-0
 62
     7
100
AcDbLine
 10
150.7897426308
 20
123.3470132839
 30
0.0
 11
148.8221142522
 21
125.7500548073
 31
0.0
  0
LINE
  5
18F
330
184
100
AcDbEntity
  8
SLD-0
 62
     7
100
AcDbLine
 10
148.8221142522
 20
125.7500548073
 30
0.0
 11
151.727650781
 21
124.6527729477
 31
0.0
  0
LINE
  5
190
330
184
100
AcDbEntity
  8
SLD-0
 62
     7
100
AcDbLine
 10
148.8221142522
 20
125.7500548073
 30
0.0
 11
151.2586967059
 21
123.9998931158
 31
0.0
  0
LINE
  5
191
330
184
100
AcDbEntity
  8
SLD-0
 62
     7
100
AcDbLine
 10
148.8221142522
 20
125.7500548073
 30
0.0
 11
164.079033917
 21
114.7912316051
 31
0.0
  0
MTEXT
  5
192
330
184
100
AcDbEntity
  8
SLD-0
 62
     7
100
AcDbMText
 10
158.5387952082
 20
123.7631370664
 30
0.1
 40
3.5
 41
0.0
 71
     1
 72
     1
  1
2-R
  7
SLDTEXTSTYLE1
 11
0.8121941512315817
 21
-0.5833872304955009
 31
0.0
 73
     1
 44
1.0
  0
MTEXT
  5
193
330
184
100
AcDbEntity
  8
SLD-0
 62
     7
100
AcDbMText
 10
163.5011052593
 20
120.1987820249
 30
0.1
 40
3.5
 41
0.0
 71
     1
 72
     1
  1
2
  7
SLDTEXTSTYLE1
 11
0.8121941512315817
 21
-0.5833872304955009
 31
0.0
 73
     1
 44
1.0
  0
ENDBLK
  5
18C
330
184
100
AcDbEntity
  8
0
100
AcDbBlockEnd
  0
BLOCK
  5
19F
330
195
100
AcDbEntity
  8
0
100
AcDbBlockBegin
  2
*D18
 70
     1
 71
     0
 10
0.0
 20
0.0
 30
0.0
  3
*D18
  1

  0
LINE
  5
1A1
330
195
100
AcDbEntity
  8
SLD-0
 62
     7
100
AcDbLine
 10
62.1977259497
 20
164.8409904527
 30
0.0
 11
59.1977259497
 21
165.6448374527
 31
0.0
  0
LINE
  5
1A2
330
195
100
AcDbEntity
  8
SLD-0
 62
     7
100
AcDbLine
 10
59.1977259497
 20
165.6448374527
 30
0.0
 11
62.1977259497
 21
166.4486844527
 31
0.0
  0
LINE
  5
1A3
330
195
100
AcDbEntity
  8
SLD-0
 62
     7
100
AcDbLine
 10
59.1977259497
 20
165.6448374527
 30
0.0
 11
62.1977259497
 21
165.6448374527
 31
0.0
  0
LINE
  5
1A4
330
195
100
AcDbEntity
  8
SLD-0
 62
     7
100
AcDbLine
 10
137.1977259497
 20
166.4486844527
 30
0.0
 11
140.1977259497
 21
165.6448374527
 31
0.0
  0
LINE
  5
1A5
330
195
100
AcDbEntity
  8
SLD-0
 62
     7
100
AcDbLine
 10
140.1977259497
 20
165.6448374527
 30
0.0
 11
137.1977259497
 21
164.8409904527
 31
0.0
  0
LINE
  5
1A6
330
195
100
AcDbEntity
  8
SLD-0
 62
     7
100
AcDbLine
 10
140.1977259497
 20
165.6448374527
 30
0.0
 11
137.1977259497
 21
165.6448374527
 31
0.0
  0
LINE
  5
1A7
330
195
100
AcDbEntity
  8
SLD-0
 62
     7
100
AcDbLine
 10
59.1977259497
 20
150.9168292683
 30
0.0
 11
59.1977259497
 21
166.6448374527
 31
0.0
  0
LINE
  5
1A8
330
195
100
AcDbEntity
  8
SLD-0
 62
     7
100
AcDbLine
 10
140.1977259497
 20
148.9168292683
 30
0.0
 11
140.1977259497
 21
166.6448374527
 31
0.0
  0
LINE
  5
1A9
330
195
100
AcDbEntity
  8
SLD-0
 62
     7
100
AcDbLine
 10
59.1977259497
 20
165.6448374527
 30
0.0
 11
140.1977259497
 21
165.6448374527
 31
0.0
  0
MTEXT
  5
1AA
330
195
100
AcDbEntity
  8
SLD-0
 62
     7
100
AcDbMText
 10
97.6611398109
 20
169.7175644926
 30
0.1
 40
3.5
 41
0.0
 71
     1
 72
     1
  1
81
  7
SLDTEXTSTYLE1
 73
     1
 44
1.0
  0
ENDBLK
  5
1A0
330
195
100
AcDbEntity
  8
0
100
AcDbBlockEnd
  0
BLOCK
  5
1B7
330
1AC
100
AcDbEntity
  8
0
100
AcDbBlockBegin
  2
*D19
 70
     1
 71
     0
 10
0.0
 20
0.0
 30
0.0
  3
*D19
  1

  0
ARC
  5
1B9
330
1AC
100
AcDbEntity
  8
SLD-0
 62
     7
100
AcDbCircle
 10
167.0311952242
 20
136.9168292683
 30
0.0
 40
0.75
100
AcDbArc
 50
90.0
 51
270.0
  0
ARC
  5
1BA
330
1AC
100
AcDbEntity
  8
SLD-0
 62
     7
100
AcDbCircle
 10
167.0311952242
 20
136.9168292683
 30
0.0
 40
0.75
100
AcDbArc
 50
270.0
 51
90.0
  0
LINE
  5
1BB
330
1AC
100
AcDbEntity
  8
SLD-0
 62
     7
100
AcDbLine
 10
166.2273482242
 20
121.9168292683
 30
0.0
 11
167.0311952242
 21
124.9168292683
 31
0.0
  0
LINE
  5
1BC
330
1AC
100
AcDbEntity
  8
SLD-0
 62
     7
100
AcDbLine
 10
167.0311952242
 20
124.9168292683
 30
0.0
 11
167.8350422242
 21
121.9168292683
 31
0.0
  0
LINE
  5
1BD
330
1AC
100
AcDbEntity
  8
SLD-0
 62
     7
100
AcDbLine
 10
167.0311952242
 20
124.9168292683
 30
0.0
 11
167.0311952242
 21
121.9168292683
 31
0.0
  0
LINE
  5
1BE
330
1AC
100
AcDbEntity
  8
SLD-0
 62
     7
100
AcDbLine
 10
167.0311952242
 20
138.4168292683
 30
0.0
 11
167.0311952242
 21
139.9168292683
 31
0.0
  0
LINE
  5
1BF
330
1AC
100
AcDbEntity
  8
SLD-0
 62
     7
100
AcDbLine
 10
148.1977259497
 20
124.9168292683
 30
0.0
 11
168.0311952242
 21
124.9168292683
 31
0.0
  0
LINE
  5
1C0
330
1AC
100
AcDbEntity
  8
SLD-0
 62
     7
100
AcDbLine
 10
150.1977259497
 20
136.9168292683
 30
0.0
 11
168.0311952242
 21
136.9168292683
 31
0.0
  0
LINE
  5
1C1
330
1AC
100
AcDbEntity
  8
SLD-0
 62
     7
100
AcDbLine
 10
167.0311952242
 20
124.9168292683
 30
0.0
 11
167.0311952242
 21
119.9168292683
 31
0.0
  0
LINE
  5
1C2
330
1AC
100
AcDbEntity
  8
SLD-0
 62
     7
100
AcDbLine
 10
167.0311952242
 20
124.9168292683
 30
0.0
 11
167.0311952242
 21
136.9168292683
 31
0.0
  0
LINE
  5
1C3
330
1AC
100
AcDbEntity
  8
SLD-0
 62
     7
100
AcDbLine
 10
167.0311952242
 20
136.9168292683
 30
0.0
 11
167.0311952242
 21
141.9168292683
 31
0.0
  0
MTEXT
  5
1C4
330
1AC
100
AcDbEntity
  8
SLD-0
 62
     7
100
AcDbMText
 10
162.9584681843
 20
128.8802431295
 30
0.1
 40
3.5
 41
0.0
 71
     1
 72
     1
  1
12
  7
SLDTEXTSTYLE1
 11
6.123031769111886E-17
 21
1.0
 31
0.0
 73
     1
 44
1.0
  0
ENDBLK
  5
1B8
330
1AC
100
AcDbEntity
  8
0
100
AcDbBlockEnd
  0
BLOCK
  5
1D1
330
1C6
100
AcDbEntity
  8
0
100
AcDbBlockBegin
  2
*D20
 70
     1
 71
     0
 10
0.0
 20
0.0
 30
0.0
  3
*D20
  1

  0
ARC
  5
1D4
330
1C6
100
AcDbEntity
  8
SLD-0
 62
     7
100
AcDbCircle
 10
167.0311952242
 20
136.9168292683
 30
0.0
 40
0.75
100
AcDbArc
 50
270.0
 51
90.0
  0
ARC
  5
1D5
330
1C6
100
AcDbEntity
  8
SLD-0
 62
     7
100
AcDbCircle
 10
167.0311952242
 20
136.9168292683
 30
0.0
 40
0.75
100
AcDbArc
 50
90.0
 51
270.0
  0
ARC
  5
1D6
330
1C6
100
AcDbEntity
  8
SLD-0
 62
     7
100
AcDbCircle
 10
167.0311952242
 20
137.9168292683
 30
0.0
 40
0.75
100
AcDbArc
 50
90.0
 51
270.0
  0
ARC
  5
1D7
330
1C6
100
AcDbEntity
  8
SLD-0
 62
     7
100
AcDbCircle
 10
167.0311952242
 20
137.9168292683
 30
0.0
 40
0.75
100
AcDbArc
 50
270.0
 51
90.0
  0
LINE
  5
1D8
330
1C6
100
AcDbEntity
  8
SLD-0
 62
     7
100
AcDbLine
 10
167.0311952242
 20
135.4168292683
 30
0.0
 11
167.0311952242
 21
133.9168292683
 31
0.0
  0
LINE
  5
1D9
330
1C6
100
AcDbEntity
  8
SLD-0
 62
     7
100
AcDbLine
 10
167.0311952242
 20
139.4168292683
 30
0.0
 11
167.0311952242
 21
140.9168292683
 31
0.0
  0
LINE
  5
1DA
330
1C6
100
AcDbEntity
  8
SLD-0
 62
     7
100
AcDbLine
 10
150.1977259497
 20
136.9168292683
 30
0.0
 11
168.0311952242
 21
136.9168292683
 31
0.0
  0
LINE
  5
1DB
330
1C6
100
AcDbEntity
  8
SLD-0
 62
     7
100
AcDbLine
 10
150.1977259497
 20
137.9168292683
 30
0.0
 11
168.0311952242
 21
137.9168292683
 31
0.0
  0
LINE
  5
1DC
330
1C6
100
AcDbEntity
  8
SLD-0
 62
     7
100
AcDbLine
 10
167.0311952242
 20
136.9168292683
 30
0.0
 11
167.0311952242
 21
131.9168292683
 31
0.0
  0
LINE
  5
1DD
330
1C6
100
AcDbEntity
  8
SLD-0
 62
     7
100
AcDbLine
 10
167.0311952242
 20
136.9168292683
 30
0.0
 11
167.0311952242
 21
137.9168292683
 31
0.0
  0
LINE
  5
1DE
330
1C6
100
AcDbEntity
  8
SLD-0
 62
     7
100
AcDbLine
 10
167.0311952242
 20
137.9168292683
 30
0.0
 11
167.0311952242
 21
142.9168292683
 31
0.0
  0
LINE
  5
1DF
330
1C6
100
AcDbEntity
  8
SLD-0
 62
     7
100
AcDbLine
 10
167.0311952242
 20
137.4168292683
 30
0.0
 11
169.4578548046
 21
140.4754588036
 31
0.0
  0
LINE
  5
1E0
330
1C6
100
AcDbEntity
  8
SLD-0
 62
     7
100
AcDbLine
 10
169.4578548046
 20
140.4754588036
 30
0.0
 11
174.6694409433
 21
140.4754588036
 31
0.0
  0
MTEXT
  5
1E1
330
1C6
100
AcDbEntity
  8
SLD-0
 62
     7
100
AcDbMText
 10
171.0453548046
 20
144.5481858435
 30
0.1
 40
3.5
 41
0.0
 71
     1
 72
     1
  1
1
  7
SLDTEXTSTYLE1
 73
     1
 44
1.0
  0
ENDBLK
  5
1D2
330
1C6
100
AcDbEntity
  8
0
100
AcDbBlockEnd
  0
BLOCK
  5
1EF
330
1E3
100
AcDbEntity
  8
0
100
AcDbBlockBegin
  2
*D21
 70
     1
 71
     0
 10
0.0
 20
0.0
 30
0.0
  3
*D21
  1

  0
ARC
  5
1F1
330
1E3
100
AcDbEntity
  8
SLD-0
 62
     7
100
AcDbCircle
 10
167.0311952242
 20
137.9168292683
 30
0.0
 40
0.75
100
AcDbArc
 50
270.0
 51
90.0
  0
ARC
  5
1F2
330
1E3
100
AcDbEntity
  8
SLD-0
 62
     7
100
AcDbCircle
 10
167.0311952242
 20
137.9168292683
 30
0.0
 40
0.75
100
AcDbArc
 50
90.0
 51
270.0
  0
LINE
  5
1F3
330
1E3
100
AcDbEntity
  8
SLD-0
 62
     7
100
AcDbLine
 10
167.0311952242
 20
136.4168292683
 30
0.0
 11
167.0311952242
 21
134.9168292683
 31
0.0
  0
LINE
  5
1F4
330
1E3
100
AcDbEntity
  8
SLD-0
 62
     7
100
AcDbLine
 10
167.8350422242
 20
147.4168292683
 30
0.0
 11
167.0311952242
 21
144.4168292683
 31
0.0
  0
LINE
  5
1F5
330
1E3
100
AcDbEntity
  8
SLD-0
 62
     7
100
AcDbLine
 10
167.0311952242
 20
144.4168292683
 30
0.0
 11
166.2273482242
 21
147.4168292683
 31
0.0
  0
LINE
  5
1F6
330
1E3
100
AcDbEntity
  8
SLD-0
 62
     7
100
AcDbLine
 10
167.0311952242
 20
144.4168292683
 30
0.0
 11
167.0311952242
 21
147.4168292683
 31
0.0
  0
LINE
  5
1F7
330
1E3
100
AcDbEntity
  8
SLD-0
 62
     7
100
AcDbLine
 10
150.1977259497
 20
137.9168292683
 30
0.0
 11
168.0311952242
 21
137.9168292683
 31
0.0
  0
LINE
  5
1F8
330
1E3
100
AcDbEntity
  8
SLD-0
 62
     7
100
AcDbLine
 10
150.1977259497
 20
144.4168292683
 30
0.0
 11
168.0311952242
 21
144.4168292683
 31
0.0
  0
LINE
  5
1F9
330
1E3
100
AcDbEntity
  8
SLD-0
 62
     7
100
AcDbLine
 10
167.0311952242
 20
137.9168292683
 30
0.0
 11
167.0311952242
 21
132.9168292683
 31
0.0
  0
LINE
  5
1FA
330
1E3
100
AcDbEntity
  8
SLD-0
 62
     7
100
AcDbLine
 10
167.0311952242
 20
137.9168292683
 30
0.0
 11
167.0311952242
 21
144.4168292683
 31
0.0
  0
LINE
  5
1FB
330
1E3
100
AcDbEntity
  8
SLD-0
 62
     7
100
AcDbLine
 10
167.0311952242
 20
144.4168292683
 30
0.0
 11
167.0311952242
 21
161.1964329067
 31
0.0
  0
MTEXT
  5
1FC
330
1E3
100
AcDbEntity
  8
SLD-0
 62
     7
100
AcDbMText
 10
162.9584681843
 20
153.4991744904
 30
0.1
 40
3.5
 41
0.0
 71
     1
 72
     1
  1
6.5
  7
SLDTEXTSTYLE1
 11
6.123031769111886E-17
 21
1.0
 31
0.0
 73
     1
 44
1.0
  0
ENDBLK
  5
1F0
330
1E3
100
AcDbEntity
  8
0
100
AcDbBlockEnd
  0
BLOCK
  5
20A
330
1FE
100
AcDbEntity
  8
0
100
AcDbBlockBegin
  2
*D22
 70
     1
 71
     0
 10
0.0
 20
0.0
 30
0.0
  3
*D22
  1

  0
LINE
  5
20C
330
1FE
100
AcDbEntity
  8
SLD-0
 62
     7
100
AcDbLine
 10
43.3563596677
 20
121.9168292683
 30
0.0
 11
44.1602066677
 21
124.9168292683
 31
0.0
  0
LINE
  5
20D
330
1FE
100
AcDbEntity
  8
SLD-0
 62
     7
100
AcDbLine
 10
44.1602066677
 20
124.9168292683
 30
0.0
 11
44.9640536677
 21
121.9168292683
 31
0.0
  0
LINE
  5
20E
330
1FE
100
AcDbEntity
  8
SLD-0
 62
     7
100
AcDbLine
 10
44.1602066677
 20
124.9168292683
 30
0.0
 11
44.1602066677
 21
121.9168292683
 31
0.0
  0
LINE
  5
20F
330
1FE
100
AcDbEntity
  8
SLD-0
 62
     7
100
AcDbLine
 10
44.9640536677
 20
134.4168292683
 30
0.0
 11
44.1602066677
 21
131.4168292683
 31
0.0
  0
LINE
  5
210
330
1FE
100
AcDbEntity
  8
SLD-0
 62
     7
100
AcDbLine
 10
44.1602066677
 20
131.4168292683
 30
0.0
 11
43.3563596677
 21
134.4168292683
 31
0.0
  0
LINE
  5
211
330
1FE
100
AcDbEntity
  8
SLD-0
 62
     7
100
AcDbLine
 10
44.1602066677
 20
131.4168292683
 30
0.0
 11
44.1602066677
 21
134.4168292683
 31
0.0
  0
LINE
  5
212
330
1FE
100
AcDbEntity
  8
SLD-0
 62
     7
100
AcDbLine
 10
58.1977259497
 20
124.9168292683
 30
0.0
 11
43.1602066677
 21
124.9168292683
 31
0.0
  0
LINE
  5
213
330
1FE
100
AcDbEntity
  8
SLD-0
 62
     7
100
AcDbLine
 10
64.1977259497
 20
131.4168292683
 30
0.0
 11
43.1602066677
 21
131.4168292683
 31
0.0
  0
LINE
  5
214
330
1FE
100
AcDbEntity
  8
SLD-0
 62
     7
100
AcDbLine
 10
44.1602066677
 20
124.9168292683
 30
0.0
 11
44.1602066677
 21
113.8562092487
 31
0.0
  0
LINE
  5
215
330
1FE
100
AcDbEntity
  8
SLD-0
 62
     7
100
AcDbLine
 10
44.1602066677
 20
124.9168292683
 30
0.0
 11
44.1602066677
 21
131.4168292683
 31
0.0
  0
LINE
  5
216
330
1FE
100
AcDbEntity
  8
SLD-0
 62
     7
100
AcDbLine
 10
44.1602066677
 20
131.4168292683
 30
0.0
 11
44.1602066677
 21
136.4168292683
 31
0.0
  0
MTEXT
  5
217
330
1FE
100
AcDbEntity
  8
SLD-0
 62
     7
100
AcDbMText
 10
40.0874796279
 20
115.4437092487
 30
0.1
 40
3.5
 41
0.0
 71
     1
 72
     1
  1
6.5
  7
SLDTEXTSTYLE1
 11
6.123031769111886E-17
 21
1.0
 31
0.0
 73
     1
 44
1.0
  0
ENDBLK
  5
20B
330
1FE
100
AcDbEntity
  8
0
100
AcDbBlockEnd
  0
BLOCK
  5
220
330
219
100
AcDbEntity
  8
0
100
AcDbBlockBegin
  2
*D23
 70
     1
 71
     0
 10
0.0
 20
0.0
 30
0.0
  3
*D23
  1

  0
LINE
  5
223
330
219
100
AcDbEntity
  8
SLD-0
 62
     7
100
AcDbLine
 10
127.0232667045
 20
126.4094439293
 30
0.0
 11
125.4840806564
 21
129.1070495915
 31
0.0
  0
LINE
  5
224
330
219
100
AcDbEntity
  8
SLD-0
 62
     7
100
AcDbLine
 10
125.4840806564
 20
129.1070495915
 30
0.0
 11
128.1658571438
 21
127.5404466197
 31
0.0
  0
LINE
  5
225
330
219
100
AcDbEntity
  8
SLD-0
 62
     7
100
AcDbLine
 10
125.4840806564
 20
129.1070495915
 30
0.0
 11
127.5945619241
 21
126.9749452745
 31
0.0
  0
LINE
  5
226
330
219
100
AcDbEntity
  8
SLD-0
 62
     7
100
AcDbLine
 10
125.4840806564
 20
129.1070495915
 30
0.0
 11
142.0507857617
 21
112.3706094184
 31
0.0
  0
MTEXT
  5
227
330
219
100
AcDbEntity
  8
SLD-0
 62
     7
100
AcDbMText
 10
136.6575692439
 20
123.5937983858
 30
0.1
 40
3.5
 41
0.0
 71
     1
 72
     1
  1
2x2-R
  7
SLDTEXTSTYLE1
 11
0.7034937559066009
 21
-0.7107014390026404
 31
0.0
 73
     1
 44
1.0
  0
ENDBLK
  5
221
330
219
100
AcDbEntity
  8
0
100
AcDbBlockEnd
  0
BLOCK
  5
234
330
229
100
AcDbEntity
  8
0
100
AcDbBlockBegin
  2
*D24
 70
     1
 71
     0
 10
0.0
 20
0.0
 30
0.0
  3
*D24
  1

  0
LINE
  5
236
330
229
100
AcDbEntity
  8
SLD-0
 62
     7
100
AcDbLine
 10
176.0389478157
 20
213.7189128211
 30
0.0
 11
175.2351008157
 21
210.7189128211
 31
0.0
  0
LINE
  5
237
330
229
100
AcDbEntity
  8
SLD-0
 62
     7
100
AcDbLine
 10
175.2351008157
 20
210.7189128211
 30
0.0
 11
174.4312538157
 21
213.7189128211
 31
0.0
  0
LINE
  5
238
330
229
100
AcDbEntity
  8
SLD-0
 62
     7
100
AcDbLine
 10
175.2351008157
 20
210.7189128211
 30
0.0
 11
175.2351008157
 21
213.7189128211
 31
0.0
  0
LINE
  5
239
330
229
100
AcDbEntity
  8
SLD-0
 62
     7
100
AcDbLine
 10
174.4312538157
 20
196.7189128211
 30
0.0
 11
175.2351008157
 21
199.7189128211
 31
0.0
  0
LINE
  5
23A
330
229
100
AcDbEntity
  8
SLD-0
 62
     7
100
AcDbLine
 10
175.2351008157
 20
199.7189128211
 30
0.0
 11
176.0389478157
 21
196.7189128211
 31
0.0
  0
LINE
  5
23B
330
229
100
AcDbEntity
  8
SLD-0
 62
     7
100
AcDbLine
 10
175.2351008157
 20
199.7189128211
 30
0.0
 11
175.2351008157
 21
196.7189128211
 31
0.0
  0
LINE
  5
23C
330
229
100
AcDbEntity
  8
SLD-0
 62
     7
100
AcDbLine
 10
150.1977259497
 20
210.7189128211
 30
0.0
 11
176.2351008157
 21
210.7189128211
 31
0.0
  0
LINE
  5
23D
330
229
100
AcDbEntity
  8
SLD-0
 62
     7
100
AcDbLine
 10
150.1977259497
 20
199.7189128211
 30
0.0
 11
176.2351008157
 21
199.7189128211
 31
0.0
  0
LINE
  5
23E
330
229
100
AcDbEntity
  8
SLD-0
 62
     7
100
AcDbLine
 10
175.2351008157
 20
210.7189128211
 30
0.0
 11
175.2351008157
 21
215.7189128211
 31
0.0
  0
LINE
  5
23F
330
229
100
AcDbEntity
  8
SLD-0
 62
     7
100
AcDbLine
 10
175.2351008157
 20
210.7189128211
 30
0.0
 11
175.2351008157
 21
199.7189128211
 31
0.0
  0
LINE
  5
240
330
229
100
AcDbEntity
  8
SLD-0
 62
     7
100
AcDbLine
 10
175.2351008157
 20
199.7189128211
 30
0.0
 11
175.2351008157
 21
194.7189128211
 31
0.0
  0
MTEXT
  5
241
330
229
100
AcDbEntity
  8
SLD-0
 62
     7
100
AcDbMText
 10
171.1623737758
 20
203.1823266823
 30
0.1
 40
3.5
 41
0.0
 71
     1
 72
     1
  1
11
  7
SLDTEXTSTYLE1
 11
-7.044197039909883E-15
 21
1.0
 31
0.0
 73
     1
 44
1.0
  0
ENDBLK
  5
235
330
229
100
AcDbEntity
  8
0
100
AcDbBlockEnd
  0
BLOCK
  5
24F
330
243
100
AcDbEntity
  8
0
100
AcDbBlockBegin
  2
*D25
 70
     1
 71
     0
 10
0.0
 20
0.0
 30
0.0
  3
*D25
  1

  0
LINE
  5
251
330
243
100
AcDbEntity
  8
SLD-0
 62
     7
100
AcDbLine
 10
163.9820458333
 20
202.2189128211
 30
0.0
 11
164.7858928333
 21
205.2189128211
 31
0.0
  0
LINE
  5
252
330
243
100
AcDbEntity
  8
SLD-0
 62
     7
100
AcDbLine
 10
164.7858928333
 20
205.2189128211
 30
0.0
 11
165.5897398333
 21
202.2189128211
 31
0.0
  0
LINE
  5
253
330
243
100
AcDbEntity
  8
SLD-0
 62
     7
100
AcDbLine
 10
164.7858928333
 20
205.2189128211
 30
0.0
 11
164.7858928333
 21
202.2189128211
 31
0.0
  0
LINE
  5
254
330
243
100
AcDbEntity
  8
SLD-0
 62
     7
100
AcDbLine
 10
165.5897398333
 20
213.7189128211
 30
0.0
 11
164.7858928333
 21
210.7189128211
 31
0.0
  0
LINE
  5
255
330
243
100
AcDbEntity
  8
SLD-0
 62
     7
100
AcDbLine
 10
164.7858928333
 20
210.7189128211
 30
0.0
 11
163.9820458333
 21
213.7189128211
 31
0.0
  0
LINE
  5
256
330
243
100
AcDbEntity
  8
SLD-0
 62
     7
100
AcDbLine
 10
164.7858928333
 20
210.7189128211
 30
0.0
 11
164.7858928333
 21
213.7189128211
 31
0.0
  0
LINE
  5
257
330
243
100
AcDbEntity
  8
SLD-0
 62
     7
100
AcDbLine
 10
145.6977259497
 20
205.2189128211
 30
0.0
 11
165.7858928333
 21
205.2189128211
 31
0.0
  0
LINE
  5
258
330
243
100
AcDbEntity
  8
SLD-0
 62
     7
100
AcDbLine
 10
150.1977259497
 20
210.7189128211
 30
0.0
 11
165.7858928333
 21
210.7189128211
 31
0.0
  0
LINE
  5
259
330
243
100
AcDbEntity
  8
SLD-0
 62
     7
100
AcDbLine
 10
164.7858928333
 20
205.2189128211
 30
0.0
 11
164.7858928333
 21
200.2189128211
 31
0.0
  0
LINE
  5
25A
330
243
100
AcDbEntity
  8
SLD-0
 62
     7
100
AcDbLine
 10
164.7858928333
 20
205.2189128211
 30
0.0
 11
164.7858928333
 21
210.7189128211
 31
0.0
  0
LINE
  5
25B
330
243
100
AcDbEntity
  8
SLD-0
 62
     7
100
AcDbLine
 10
164.7858928333
 20
210.7189128211
 30
0.0
 11
164.7858928333
 21
225.35374848
 31
0.0
  0
MTEXT
  5
25C
330
243
100
AcDbEntity
  8
SLD-0
 62
     7
100
AcDbMText
 10
160.7131657934
 20
217.6564900637
 30
0.1
 40
3.5
 41
0.0
 71
     1
 72
     1
  1
5.5
  7
SLDTEXTSTYLE1
 11
6.123031769111886E-17
 21
1.0
 31
0.0
 73
     1
 44
1.0
  0
ENDBLK
  5
250
330
243
100
AcDbEntity
  8
0
100
AcDbBlockEnd
  0
BLOCK
  5
268
330
25E
100
AcDbEntity
  8
0
100
AcDbBlockBegin
  2
*D26
 70
     1
 71
     0
 10
0.0
 20
0.0
 30
0.0
  3
*D26
  1

  0
LINE
  5
26A
330
25E
100
AcDbEntity
  8
SLD-0
 62
     7
100
AcDbLine
 10
141.6977259497
 20
221.005724415
 30
0.0
 11
144.6977259497
 21
220.201877415
 31
0.0
  0
LINE
  5
26B
330
25E
100
AcDbEntity
  8
SLD-0
 62
     7
100
AcDbLine
 10
144.6977259497
 20
220.201877415
 30
0.0
 11
141.6977259497
 21
219.398030415
 31
0.0
  0
LINE
  5
26C
330
25E
100
AcDbEntity
  8
SLD-0
 62
     7
100
AcDbLine
 10
144.6977259497
 20
220.201877415
 30
0.0
 11
141.6977259497
 21
220.201877415
 31
0.0
  0
LINE
  5
26D
330
25E
100
AcDbEntity
  8
SLD-0
 62
     7
100
AcDbLine
 10
62.1977259497
 20
219.398030415
 30
0.0
 11
59.1977259497
 21
220.201877415
 31
0.0
  0
LINE
  5
26E
330
25E
100
AcDbEntity
  8
SLD-0
 62
     7
100
AcDbLine
 10
59.1977259497
 20
220.201877415
 30
0.0
 11
62.1977259497
 21
221.005724415
 31
0.0
  0
LINE
  5
26F
330
25E
100
AcDbEntity
  8
SLD-0
 62
     7
100
AcDbLine
 10
59.1977259497
 20
220.201877415
 30
0.0
 11
62.1977259497
 21
220.201877415
 31
0.0
  0
LINE
  5
270
330
25E
100
AcDbEntity
  8
SLD-0
 62
     7
100
AcDbLine
 10
144.6977259497
 20
206.2189128211
 30
0.0
 11
144.6977259497
 21
221.201877415
 31
0.0
  0
LINE
  5
271
330
25E
100
AcDbEntity
  8
SLD-0
 62
     7
100
AcDbLine
 10
59.1977259497
 20
211.7189128211
 30
0.0
 11
59.1977259497
 21
221.201877415
 31
0.0
  0
LINE
  5
272
330
25E
100
AcDbEntity
  8
SLD-0
 62
     7
100
AcDbLine
 10
144.6977259497
 20
220.201877415
 30
0.0
 11
59.1977259497
 21
220.201877415
 31
0.0
  0
MTEXT
  5
273
330
25E
100
AcDbEntity
  8
SLD-0
 62
     7
100
AcDbMText
 10
97.8745536722
 20
224.2746044549
 30
0.1
 40
3.5
 41
0.0
 71
     1
 72
     1
  1
85.5
  7
SLDTEXTSTYLE1
 73
     1
 44
1.0
  0
ENDBLK
  5
269
330
25E
100
AcDbEntity
  8
0
100
AcDbBlockEnd
  0
BLOCK
  5
27C
330
275
100
AcDbEntity
  8
0
100
AcDbBlockBegin
  2
*D27
 70
     1
 71
     0
 10
0.0
 20
0.0
 30
0.0
  3
*D27
  1

  0
LINE
  5
27F
330
275
100
AcDbEntity
  8
SLD-0
 62
     7
100
AcDbLine
 10
145.7440485095
 20
200.0118139071
 30
0.0
 11
145.469741597
 21
203.1055051841
 31
0.0
  0
LINE
  5
280
330
275
100
AcDbEntity
  8
SLD-0
 62
     7
100
AcDbLine
 10
145.469741597
 20
203.1055051841
 30
0.0
 11
147.2541430773
 21
200.5634427623
 31
0.0
  0
LINE
  5
281
330
275
100
AcDbEntity
  8
SLD-0
 62
     7
100
AcDbLine
 10
145.469741597
 20
203.1055051841
 30
0.0
 11
146.4990957934
 21
200.2876283347
 31
0.0
  0
LINE
  5
282
330
275
100
AcDbEntity
  8
SLD-0
 62
     7
100
AcDbLine
 10
145.469741597
 20
203.1055051841
 30
0.0
 11
150.8036281223
 21
188.50388855
 31
0.0
  0
LINE
  5
283
330
275
100
AcDbEntity
  8
SLD-0
 62
     7
100
AcDbLine
 10
150.8036281223
 20
188.50388855
 30
0.0
 11
165.5448329081
 21
188.50388855
 31
0.0
  0
MTEXT
  5
284
330
275
100
AcDbEntity
  8
SLD-0
 62
     7
100
AcDbMText
 10
152.2286281223
 20
192.5766155899
 30
0.1
 40
3.5
 41
0.0
 71
     1
 72
     1
  1
%%c
  7
SLDTEXTSTYLE1
 73
     1
 44
1.0
  0
MTEXT
  5
285
330
275
100
AcDbEntity
  8
SLD-0
 62
     7
100
AcDbMText
 10
157.8475744918
 20
192.5766155899
 30
0.1
 40
3.5
 41
0.0
 71
     1
 72
     1
  1
4.5
  7
SLDTEXTSTYLE1
 73
     1
 44
1.0
  0
ENDBLK
  5
27D
330
275
100
AcDbEntity
  8
0
100
AcDbBlockEnd
  0
ENDSEC
  0
SECTION
  2
ENTITIES
  0
LINE
  5
79
330
1F
100
AcDbEntity
  8
SLD-0
  6
Continuous
 62
     7
370
     0
100
AcDbLine
 10
20.2604743903
 20
285.0
 30
0.0
 11
196.7604743903
 21
285.0
 31
0.0
  0
LINE
  5
7A
330
1F
100
AcDbEntity
  8
SLD-0
  6
Continuous
 62
     7
370
     0
100
AcDbLine
 10
20.2604743903
 20
285.0
 30
0.0
 11
20.2604743903
 21
10.0
 31
0.0
  0
LINE
  5
7B
330
1F
100
AcDbEntity
  8
SLD-0
  6
Continuous
 62
     7
370
     0
100
AcDbLine
 10
20.2604743903
 20
10.0
 30
0.0
 11
196.7604743903
 21
10.0
 31
0.0
  0
LINE
  5
7C
330
1F
100
AcDbEntity
  8
SLD-0
  6
Continuous
 62
     7
370
     0
100
AcDbLine
 10
196.7604743903
 20
285.0
 30
0.0
 11
196.7604743903
 21
10.0
 31
0.0
  0
LINE
  5
7D
330
1F
100
AcDbEntity
  8
SLD-0
  6
Continuous
 62
     7
370
     0
100
AcDbLine
 10
127.0104743903
 20
50.75
 30
0.0
 11
196.7604743903
 21
50.75
 31
0.0
  0
LINE
  5
7E
330
1F
100
AcDbEntity
  8
SLD-0
  6
Continuous
 62
     7
370
     0
100
AcDbLine
 10
127.0104743903
 20
50.75
 30
0.0
 11
127.0104743903
 21
10.0
 31
0.0
  0
LINE
  5
7F
330
1F
100
AcDbEntity
  8
SLD-0
  6
Continuous
 62
     7
370
     0
100
AcDbLine
 10
127.0104743903
 20
22.75
 30
0.0
 11
196.7604743903
 21
22.75
 31
0.0
  0
LINE
  5
80
330
1F
100
AcDbEntity
  8
SLD-0
  6
Continuous
 62
     7
370
     0
100
AcDbLine
 10
127.0104743903
 20
36.75
 30
0.0
 11
196.7604743903
 21
36.75
 31
0.0
  0
LINE
  5
81
330
1F
100
AcDbEntity
  8
SLD-0
  6
Continuous
 62
     7
370
    30
100
AcDbLine
 10
67.1977259497
 20
128.1668292683
 30
0.0
 11
123.1977259497
 21
128.1668292683
 31
0.0
  0
LINE
  5
82
330
1F
100
AcDbEntity
  8
SLD-0
  6
Continuous
 62
     7
370
    30
100
AcDbLine
 10
123.1977259497
 20
134.6668292683
 30
0.0
 11
67.1977259497
 21
134.6668292683
 31
0.0
  0
LINE
  5
83
330
1F
100
AcDbEntity
  8
SLD-0
  6
Continuous
 62
     7
370
    30
100
AcDbLine
 10
149.1977259497
 20
126.9168292921
 30
0.0
 11
149.1977256144
 21
136.9168292683
 31
0.0
  0
LINE
  5
84
330
1F
100
AcDbEntity
  8
SLD-0
  6
Continuous
 62
     7
370
    30
100
AcDbLine
 10
59.1977229695
 20
124.9168292921
 30
0.0
 11
147.1977259497
 21
124.9168292921
 31
0.0
  0
LINE
  5
85
330
1F
100
AcDbEntity
  8
SLD-0
  6
Continuous
 62
     7
370
    30
100
AcDbLine
 10
59.1977229695
 20
149.9168296647
 30
0.0
 11
59.1977229695
 21
124.9168292921
 31
0.0
  0
LINE
  5
86
330
1F
100
AcDbEntity
  8
SLD-0
  6
Continuous
 62
     7
370
    30
100
AcDbLine
 10
138.1977259497
 20
149.9168296647
 30
0.0
 11
59.1977229695
 21
149.9168296647
 31
0.0
  0
LINE
  5
87
330
1F
100
AcDbEntity
  8
SLD-0
  6
Continuous
 62
     7
370
    30
100
AcDbLine
 10
140.1977259497
 20
144.4168298808
 30
0.0
 11
140.1977259497
 21
147.9168296647
 31
0.0
  0
LINE
  5
88
330
1F
100
AcDbEntity
  8
SLD-0
  6
Continuous
 62
     7
370
    30
100
AcDbLine
 10
149.1977256144
 20
137.9168292683
 30
0.0
 11
149.1977256144
 21
144.4168298808
 31
0.0
  0
LINE
  5
89
330
1F
100
AcDbEntity
  8
SLD-0
  6
Continuous
 62
     7
370
    30
100
AcDbLine
 10
138.6698619047
 20
137.9168292683
 30
0.0
 11
149.1977256144
 21
137.9168292683
 31
0.0
  0
LINE
  5
8A
330
1F
100
AcDbEntity
  8
SLD-0
  6
Continuous
 62
     7
370
    30
100
AcDbLine
 10
149.1977256144
 20
136.9168292683
 30
0.0
 11
138.6698619047
 21
136.9168292683
 31
0.0
  0
LINE
  5
8B
330
1F
100
AcDbEntity
  8
SLD-0
  6
Continuous
 62
     7
370
    30
100
AcDbLine
 10
123.1977259497
 20
146.6668292683
 30
0.0
 11
67.1977259497
 21
146.6668292683
 31
0.0
  0
LINE
  5
8C
330
1F
100
AcDbEntity
  8
SLD-0
  6
Continuous
 62
     7
370
    30
100
AcDbLine
 10
67.1977259497
 20
140.1668292683
 30
0.0
 11
123.1977259497
 21
140.1668292683
 31
0.0
  0
LINE
  5
8D
330
1F
100
AcDbEntity
  8
SLD-0
  6
Continuous
 62
     7
370
    30
100
AcDbLine
 10
149.1977256144
 20
144.4168298808
 30
0.0
 11
140.1977259497
 21
144.4168298808
 31
0.0
  0
LINE
  5
8E
330
1F
100
AcDbEntity
  8
SLD-0
  6
Continuous
 62
     7
370
    30
100
AcDbLine
 10
138.6698619047
 20
137.9168292683
 30
0.0
 11
138.1663529163
 21
137.9168292683
 31
0.0
  0
LINE
  5
8F
330
1F
100
AcDbEntity
  8
SLD-0
  6
Continuous
 62
     7
370
    30
100
AcDbLine
 10
138.1663529163
 20
136.9168292683
 30
0.0
 11
138.6698619047
 21
136.9168292683
 31
0.0
  0
LINE
  5
90
330
1F
100
AcDbEntity
  8
SLD-0
  6
HIDDEN
 62
     7
370
     0
100
AcDbLine
 10
142.447725905
 20
144.4168294844
 30
0.0
 11
142.447725905
 21
137.916829292
 31
0.0
  0
LINE
  5
91
330
1F
100
AcDbEntity
  8
SLD-0
  6
HIDDEN
 62
     7
370
     0
100
AcDbLine
 10
146.9477257113
 20
137.916829292
 30
0.0
 11
146.9477257113
 21
144.4168294844
 31
0.0
  0
LINE
  5
92
330
1F
100
AcDbEntity
  8
SLD-0
  6
HIDDEN
 62
     7
370
     0
100
AcDbLine
 10
143.0477258171
 20
136.9168292445
 30
0.0
 11
143.0477258171
 21
124.916829082
 31
0.0
  0
LINE
  5
93
330
1F
100
AcDbEntity
  8
SLD-0
  6
HIDDEN
 62
     7
370
     0
100
AcDbLine
 10
146.3477257992
 20
124.916829082
 30
0.0
 11
146.3477257992
 21
136.9168292445
 31
0.0
  0
LINE
  5
94
330
1F
100
AcDbEntity
  8
SLD-0
  6
Continuous
 62
     7
370
     0
100
AcDbLine
 10
145.8672567615
 20
121.9379834763
 30
0.0
 11
144.9882529238
 21
124.9168292683
 31
0.0
  0
LINE
  5
95
330
1F
100
AcDbEntity
  8
SLD-0
  6
Continuous
 62
     7
370
     0
100
AcDbLine
 10
144.9882529238
 20
124.9168292683
 30
0.0
 11
147.2389147048
 21
122.7765742491
 31
0.0
  0
LINE
  5
96
330
1F
100
AcDbEntity
  8
SLD-0
  6
Continuous
 62
     7
370
     0
100
AcDbLine
 10
144.9882529238
 20
124.9168292683
 30
0.0
 11
146.5530857332
 21
122.3572788627
 31
0.0
  0
LINE
  5
97
330
1F
100
AcDbEntity
  8
SLD-0
  6
Continuous
 62
     7
370
     0
100
AcDbLine
 10
146.5530857332
 20
122.3572788627
 30
0.0
 11
153.5309927391
 21
110.9437242641
 31
0.0
  0
LINE
  5
98
330
1F
100
AcDbEntity
  8
SLD-0
  6
Continuous
 62
     7
370
     0
100
AcDbLine
 10
153.5309927391
 20
110.9437242641
 30
0.0
 11
158.1041650166
 21
110.9437242641
 31
0.0
  0
LINE
  5
99
330
1F
100
AcDbEntity
  8
SLD-0
  6
CENTERX2
 62
     7
370
     0
100
AcDbLine
 10
125.1977259497
 20
143.4168292683
 30
0.0
 11
65.1977259497
 21
143.4168292683
 31
0.0
  0
LINE
  5
9A
330
1F
100
AcDbEntity
  8
SLD-0
  6
CENTERX2
 62
     7
370
     0
100
AcDbLine
 10
65.1977259497
 20
131.4168292683
 30
0.0
 11
125.1977259497
 21
131.4168292683
 31
0.0
  0
LINE
  5
9B
330
1F
100
AcDbEntity
  8
SLD-0
  6
CENTERX2
 62
     7
370
     0
100
AcDbLine
 10
144.6977259497
 20
122.9168292683
 30
0.0
 11
144.6977259497
 21
146.4168292683
 31
0.0
  0
LINE
  5
9C
330
1F
100
AcDbEntity
  8
SLD-0
  6
Continuous
 62
     7
370
    30
100
AcDbLine
 10
138.1977259497
 20
199.7189128807
 30
0.0
 11
59.1977229695
 21
199.7189128807
 31
0.0
  0
LINE
  5
9D
330
1F
100
AcDbEntity
  8
SLD-0
  6
Continuous
 62
     7
370
    30
100
AcDbLine
 10
138.1977259497
 20
210.7189128211
 30
0.0
 11
59.1977229695
 21
210.7189128211
 31
0.0
  0
LINE
  5
9E
330
1F
100
AcDbEntity
  8
SLD-0
  6
Continuous
 62
     7
370
    30
100
AcDbLine
 10
59.1977229695
 20
199.7189128807
 30
0.0
 11
59.1977229695
 21
210.7189128211
 31
0.0
  0
LINE
  5
9F
330
1F
100
AcDbEntity
  8
SLD-0
  6
Continuous
 62
     7
370
    30
100
AcDbLine
 10
140.1977259497
 20
210.7189128211
 30
0.0
 11
140.1977259497
 21
199.7189128807
 31
0.0
  0
LINE
  5
A0
330
1F
100
AcDbEntity
  8
SLD-0
  6
Continuous
 62
     7
370
    30
100
AcDbLine
 10
140.1977259497
 20
199.7189128807
 30
0.0
 11
138.1977259497
 21
199.7189128807
 31
0.0
  0
LINE
  5
A1
330
1F
100
AcDbEntity
  8
SLD-0
  6
Continuous
 62
     7
370
    30
100
AcDbLine
 10
138.1977259497
 20
210.7189128211
 30
0.0
 11
140.1977259497
 21
210.7189128211
 31
0.0
  0
LINE
  5
A2
330
1F
100
AcDbEntity
  8
SLD-0
  6
Continuous
 62
     7
370
    30
100
AcDbLine
 10
149.1977256144
 20
199.7189128807
 30
0.0
 11
149.1977256144
 21
210.7189128211
 31
0.0
  0
LINE
  5
A3
330
1F
100
AcDbEntity
  8
SLD-0
  6
Continuous
 62
     7
370
    30
100
AcDbLine
 10
149.1977256144
 20
199.7189128807
 30
0.0
 11
140.1977259497
 21
199.7189128807
 31
0.0
  0
LINE
  5
A4
330
1F
100
AcDbEntity
  8
SLD-0
  6
Continuous
 62
     7
370
    30
100
AcDbLine
 10
149.1977256144
 20
210.7189128211
 30
0.0
 11
140.1977259497
 21
210.7189128211
 31
0.0
  0
LINE
  5
A5
330
1F
100
AcDbEntity
  8
SLD-0
  6
HIDDEN
 62
     7
370
     0
100
AcDbLine
 10
130.1977259497
 20
210.2189128211
 30
0.0
 11
138.1663529163
 21
210.2189128211
 31
0.0
  0
LINE
  5
A6
330
1F
100
AcDbEntity
  8
SLD-0
  6
HIDDEN
 62
     7
370
     0
100
AcDbLine
 10
138.1663529163
 20
210.2189128211
 30
0.0
 11
138.6698619815
 21
210.7189128211
 31
0.0
  0
LINE
  5
A7
330
1F
100
AcDbEntity
  8
SLD-0
  6
HIDDEN
 62
     7
370
     0
100
AcDbLine
 10
138.6698619815
 20
199.7189128807
 30
0.0
 11
138.1663529163
 21
200.2189128211
 31
0.0
  0
LINE
  5
A8
330
1F
100
AcDbEntity
  8
SLD-0
  6
HIDDEN
 62
     7
370
     0
100
AcDbLine
 10
138.1663529163
 20
200.2189128211
 30
0.0
 11
130.1977259497
 21
200.2189128211
 31
0.0
  0
LINE
  5
A9
330
1F
100
AcDbEntity
  8
SLD-0
  6
HIDDEN
 62
     7
370
     0
100
AcDbLine
 10
138.1663529163
 20
200.2189128211
 30
0.0
 11
138.1663529163
 21
210.2189128211
 31
0.0
  0
LINE
  5
AA
330
1F
100
AcDbEntity
  8
SLD-0
  6
HIDDEN
 62
     7
370
     0
100
AcDbLine
 10
63.9477288703
 20
210.7189128211
 30
0.0
 11
63.9477288703
 21
199.7189128807
 31
0.0
  0
LINE
  5
AB
330
1F
100
AcDbEntity
  8
SLD-0
  6
HIDDEN
 62
     7
370
     0
100
AcDbLine
 10
126.4477260764
 20
199.7189128807
 30
0.0
 11
126.4477260764
 21
210.7189128211
 31
0.0
  0
LINE
  5
AC
330
1F
100
AcDbEntity
  8
SLD-0
  6
HIDDEN
 62
     7
370
     0
100
AcDbLine
 10
129.6977261434
 20
210.7189128211
 30
0.0
 11
130.1977259497
 21
210.2189128211
 31
0.0
  0
LINE
  5
AD
330
1F
100
AcDbEntity
  8
SLD-0
  6
HIDDEN
 62
     7
370
     0
100
AcDbLine
 10
130.1977259497
 20
200.2189128211
 30
0.0
 11
129.6977261434
 21
199.7189128807
 31
0.0
  0
LINE
  5
AE
330
1F
100
AcDbEntity
  8
SLD-0
  6
HIDDEN
 62
     7
370
     0
100
AcDbLine
 10
130.1977259497
 20
210.2189128211
 30
0.0
 11
130.1977259497
 21
200.2189128211
 31
0.0
  0
LINE
  5
AF
330
1F
100
AcDbEntity
  8
SLD-0
  6
CENTERX2
 62
     7
370
     0
100
AcDbLine
 10
134.1977259497
 20
198.2189128211
 30
0.0
 11
134.1977259497
 21
212.2189128211
 31
0.0
  0
LINE
  5
B0
330
1F
100
AcDbEntity
  8
SLD-0
  6
CENTERX2
 62
     7
370
     0
100
AcDbLine
 10
67.1977259497
 20
197.7189128211
 30
0.0
 11
67.1977259497
 21
212.7189128211
 31
0.0
  0
LINE
  5
B1
330
1F
100
AcDbEntity
  8
SLD-0
  6
CENTERX2
 62
     7
370
     0
100
AcDbLine
 10
123.1977259497
 20
197.7189128211
 30
0.0
 11
123.1977259497
 21
212.7189128211
 31
0.0
  0
ARC
  5
B2
330
1F
100
AcDbEntity
  8
SLD-0
  6
Continuous
 62
     7
370
    30
100
AcDbCircle
 10
67.1977259497
 20
131.4168292683
 30
0.0
 40
3.25
100
AcDbArc
 50
90.0
 51
270.0
  0
ARC
  5
B3
330
1F
100
AcDbEntity
  8
SLD-0
  6
Continuous
 62
     7
370
    30
100
AcDbCircle
 10
123.1977259497
 20
131.4168292683
 30
0.0
 40
3.25
100
AcDbArc
 50
270.0
 51
90.0
  0
ARC
  5
B4
330
1F
100
AcDbEntity
  8
SLD-0
  6
Continuous
 62
     7
370
    30
100
AcDbCircle
 10
147.1977259497
 20
126.9168292921
 30
0.0
 40
2.0
100
AcDbArc
 50
270.0
 51
0.0
  0
ARC
  5
B5
330
1F
100
AcDbEntity
  8
SLD-0
  6
Continuous
 62
     7
370
    30
100
AcDbCircle
 10
138.1977259497
 20
147.9168296647
 30
0.0
 40
2.0
100
AcDbArc
 50
0.0
 51
90.0
  0
ARC
  5
B6
330
1F
100
AcDbEntity
  8
SLD-0
  6
Continuous
 62
     7
370
    30
100
AcDbCircle
 10
134.1977259497
 20
137.4168292683
 30
0.0
 40
4.500000000000682
100
AcDbArc
 50
6.3793702085
 51
353.6206297915
  0
ARC
  5
B7
330
1F
100
AcDbEntity
  8
SLD-0
  6
Continuous
 62
     7
370
    30
100
AcDbCircle
 10
123.1977259497
 20
143.4168292683
 30
0.0
 40
3.25
100
AcDbArc
 50
270.0
 51
90.0
  0
ARC
  5
B8
330
1F
100
AcDbEntity
  8
SLD-0
  6
Continuous
 62
     7
370
    30
100
AcDbCircle
 10
67.1977259497
 20
143.4168292683
 30
0.0
 40
3.25
100
AcDbArc
 50
90.0
 51
270.0
  0
ARC
  5
B9
330
1F
100
AcDbEntity
  8
SLD-0
  6
Continuous
 62
     7
370
    30
100
AcDbCircle
 10
134.1977259497
 20
137.4168292683
 30
0.0
 40
3.999999999999982
100
AcDbArc
 50
7.1807557815
 51
352.8192442185
  0
CIRCLE
  5
BA
330
1F
100
AcDbEntity
  8
SLD-0
  6
Continuous
 62
     7
370
    30
100
AcDbCircle
 10
144.6977259497
 20
205.2189128211
 30
0.0
 40
2.25
  0
CIRCLE
  5
BB
330
1F
100
AcDbEntity
  8
SLD-0
  6
Continuous
 62
     7
370
    30
100
AcDbCircle
 10
144.6977259497
 20
205.2189128211
 30
0.0
 40
1.649999999999977
  0
DIMENSION
  5
BC
330
1F
100
AcDbEntity
  8
SLD-0
 62
     7
100
AcDbDimension
  2
*D8
 10
5.5894174219
 20
5.7234950454
 30
0.0
 11
162.6009499989
 21
-4.2926218659
 31
0.0
 70
   163
  1
<>
 71
     1
 42
7.9999989157
  3
SLDDIMSTYLE0
100
AcDbDiametricDimension
 15
0.0
 25
0.0
 35
0.0
 40
0.0
1001
ACAD
1000
DSTYLE
1002
{
1070
    77
1070
     0
1070
   143
1040
0.0393700787
1070
    41
1040
3.0
1070
    44
1040
1.0
1070
    42
1040
1.0
1070
   147
1040
1.524
1070
    73
1070
     1
1070
    74
1070
     1
1070
   140
1040
3.5
1070
   284
1070
    12
1070
    78
1070
    12
1002
}
  0
DIMENSION
  5
D7
330
1F
100
AcDbEntity
  8
SLD-0
 62
     7
100
AcDbDimension
  2
*D10
 10
181.2836679033
 20
149.9168292683
 30
0.0
 11
181.2836679033
 21
137.4168292683
 31
0.0
 70
   160
 71
     1
 42
25.0
  3
SLDDIMSTYLE1
100
AcDbAlignedDimension
 13
149.1977259497
 23
124.9168292683
 33
0.0
 14
140.1977259497
 24
149.9168292683
 34
0.0
 50
90.0
100
AcDbRotatedDimension
1001
ACAD
1000
DSTYLE
1002
{
1070
    77
1070
     3
1070
   143
1040
0.0393700787
1070
    41
1040
3.0
1070
    44
1040
1.0
1070
    42
1040
1.0
1070
   147
1040
1.524
1070
    73
1070
     0
1070
    74
1070
     0
1070
   140
1040
3.5
1070
   284
1070
    12
1070
    78
1070
    12
1002
}
  0
DIMENSION
  5
F0
330
1F
100
AcDbEntity
  8
SLD-0
 62
     7
100
AcDbDimension
  2
*D11
 10
149.1977259497
 20
106.9864632822
 30
0.0
 11
104.1977259497
 21
106.9864632822
 31
0.0
 70
   160
 71
     1
 42
90.0
  3
SLDDIMSTYLE1
100
AcDbAlignedDimension
 13
59.1977259497
 23
124.9168292683
 33
0.0
 14
149.1977259497
 24
124.9168292683
 34
0.0
100
AcDbRotatedDimension
1001
ACAD
1000
DSTYLE
1002
{
1070
    77
1070
     3
1070
   143
1040
0.0393700787
1070
    41
1040
3.0
1070
    44
1040
1.0
1070
    42
1040
1.0
1070
   147
1040
1.524
1070
    73
1070
     0
1070
    74
1070
     0
1070
   140
1040
3.5
1070
   284
1070
    12
1070
    78
1070
    12
1002
}
  0
DIMENSION
  5
107
330
1F
100
AcDbEntity
  8
SLD-0
 62
     7
100
AcDbDimension
  2
*D12
 10
134.1977259497
 20
156.5540536986
 30
0.0
 11
96.6977259497
 21
156.5540536986
 31
0.0
 70
   160
 71
     1
 42
75.0
  3
SLDDIMSTYLE1
100
AcDbAlignedDimension
 13
59.1977259497
 23
149.9168292683
 33
0.0
 14
134.1977259497
 24
137.4168292683
 34
0.0
100
AcDbRotatedDimension
1001
ACAD
1000
DSTYLE
1002
{
1070
    77
1070
     3
1070
   143
1040
0.0393700787
1070
    41
1040
3.0
1070
    44
1040
1.0
1070
    42
1040
1.0
1070
   147
1040
1.524
1070
    73
1070
     0
1070
    74
1070
     0
1070
   140
1040
3.5
1070
   284
1070
    12
1070
    78
1070
    12
1002
}
  0
DIMENSION
  5
11E
330
1F
100
AcDbEntity
  8
SLD-0
 62
     7
100
AcDbDimension
  2
*D13
 10
52.0160210785
 20
140.1668292683
 30
0.0
 11
52.0160210785
 21
154.6437004675
 31
0.0
 70
   160
 71
     1
 42
6.5
  3
SLDDIMSTYLE2
100
AcDbAlignedDimension
 13
67.1977259497
 23
146.6668292683
 33
0.0
 14
67.1977259497
 24
140.1668292683
 34
0.0
 50
90.0
100
AcDbRotatedDimension
1001
ACAD
1000
DSTYLE
1002
{
1070
    77
1070
     3
1070
   143
1040
0.0393700787
1070
    41
1040
3.0
1070
    44
1040
1.0
1070
    42
1040
1.0
1070
   147
1040
1.524
1070
    73
1070
     0
1070
    74
1070
     0
1070
   140
1040
3.5
1070
   284
1070
    12
1070
    78
1070
    12
1002
}
  0
DIMENSION
  5
13A
330
1F
100
AcDbEntity
  8
SLD-0
 62
     7
100
AcDbDimension
  2
*D14
 10
44.1602066677
 20
131.4168292683
 30
0.0
 11
44.1602066677
 21
137.4168292683
 31
0.0
 70
   160
 71
     1
 42
12.0
  3
SLDDIMSTYLE1
100
AcDbAlignedDimension
 13
67.1977259497
 23
143.4168292683
 33
0.0
 14
67.1977259497
 24
131.4168292683
 34
0.0
 50
90.0
100
AcDbRotatedDimension
1001
ACAD
1000
DSTYLE
1002
{
1070
    77
1070
     3
1070
   143
1040
0.0393700787
1070
    41
1040
3.0
1070
    44
1040
1.0
1070
    42
1040
1.0
1070
   147
1040
1.524
1070
    73
1070
     0
1070
    74
1070
     0
1070
   140
1040
3.5
1070
   284
1070
    12
1070
    78
1070
    12
1002
}
  0
DIMENSION
  5
152
330
1F
100
AcDbEntity
  8
SLD-0
 62
     7
100
AcDbDimension
  2
*D15
 10
67.1977259497
 20
114.4928012679
 30
0.0
 11
63.1977259497
 21
114.4928012679
 31
0.0
 70
   160
 71
     1
 42
8.0
  3
SLDDIMSTYLE1
100
AcDbAlignedDimension
 13
59.1977259497
 23
124.9168292683
 33
0.0
 14
67.1977259497
 24
131.4168292683
 34
0.0
100
AcDbRotatedDimension
1001
ACAD
1000
DSTYLE
1002
{
1070
    77
1070
     3
1070
   143
1040
0.0393700787
1070
    41
1040
3.0
1070
    44
1040
1.0
1070
    42
1040
1.0
1070
   147
1040
1.524
1070
    73
1070
     0
1070
    74
1070
     0
1070
   140
1040
3.5
1070
   284
1070
    12
1070
    78
1070
    12
1002
}
  0
DIMENSION
  5
16C
330
1F
100
AcDbEntity
  8
SLD-0
 62
     7
100
AcDbDimension
  2
*D16
 10
123.1977259497
 20
114.4928012679
 30
0.0
 11
95.1977259497
 21
114.4928012679
 31
0.0
 70
   160
 71
     1
 42
56.0
  3
SLDDIMSTYLE1
100
AcDbAlignedDimension
 13
67.1977259497
 23
131.4168292683
 33
0.0
 14
123.1977259497
 24
131.4168292683
 34
0.0
100
AcDbRotatedDimension
1001
ACAD
1000
DSTYLE
1002
{
1070
    77
1070
     3
1070
   143
1040
0.0393700787
1070
    41
1040
3.0
1070
    44
1040
1.0
1070
    42
1040
1.0
1070
   147
1040
1.524
1070
    73
1070
     0
1070
    74
1070
     0
1070
   140
1040
3.5
1070
   284
1070
    12
1070
    78
1070
    12
1002
}
  0
DIMENSION
  5
183
330
1F
100
AcDbEntity
  8
SLD-0
 62
     7
100
AcDbDimension
  2
*D17
 10
147.1977259497
 20
126.9168292683
 30
0.0
 11
159.5904075246
 21
118.015346573
 31
0.0
 70
   164
  1
2-<>
 71
     1
 42
194.3580512258
  3
SLDDIMSTYLE3
100
AcDbRadialDimension
 15
0.0
 25
0.0
 35
0.0
 40
0.0
1001
ACAD
1000
DSTYLE
1002
{
1070
    77
1070
     0
1070
   143
1040
0.0393700787
1070
    41
1040
3.0
1070
    44
1040
1.0
1070
    42
1040
1.0
1070
   147
1040
1.524
1070
    73
1070
     1
1070
    74
1070
     1
1070
   140
1040
3.5
1070
   284
1070
    12
1070
    78
1070
     4
1002
}
  0
DIMENSION
  5
194
330
1F
100
AcDbEntity
  8
SLD-0
 62
     7
100
AcDbDimension
  2
*D18
 10
59.1977259497
 20
165.6448374527
 30
0.0
 11
99.6977259497
 21
165.6448374527
 31
0.0
 70
   160
 71
     1
 42
81.0
  3
SLDDIMSTYLE1
100
AcDbAlignedDimension
 13
140.1977259497
 23
147.9168292683
 33
0.0
 14
59.1977259497
 24
149.9168292683
 34
0.0
100
AcDbRotatedDimension
1001
ACAD
1000
DSTYLE
1002
{
1070
    77
1070
     3
1070
   143
1040
0.0393700787
1070
    41
1040
3.0
1070
    44
1040
1.0
1070
    42
1040
1.0
1070
   147
1040
1.524
1070
    73
1070
     0
1070
    74
1070
     0
1070
   140
1040
3.5
1070
   284
1070
    12
1070
    78
1070
    12
1002
}
  0
DIMENSION
  5
1AB
330
1F
100
AcDbEntity
  8
SLD-0
 62
     7
100
AcDbDimension
  2
*D19
 10
167.0311952242
 20
124.9168292683
 30
0.0
 11
167.0311952242
 21
130.9168292683
 31
0.0
 70
   160
 71
     1
 42
12.0
  3
SLDDIMSTYLE1
100
AcDbAlignedDimension
 13
149.1977259497
 23
136.9168292683
 33
0.0
 14
147.1977259497
 24
124.9168292683
 34
0.0
 50
90.0
100
AcDbRotatedDimension
1001
ACAD
1000
DSTYLE
1002
{
1070
    77
1070
     3
1070
   143
1040
0.0393700787
1070
    41
1040
3.0
1070
    44
1040
1.0
1070
    42
1040
1.0
1070
   147
1040
1.524
1070
    73
1070
     0
1070
    74
1070
     0
1070
   140
1040
3.5
1070
   284
1070
    12
1070
    78
1070
    12
1002
}
  0
DIMENSION
  5
1C5
330
1F
100
AcDbEntity
  8
SLD-0
 62
     7
100
AcDbDimension
  2
*D20
 10
167.0311952242
 20
136.9168292683
 30
0.0
 11
167.0311952242
 21
137.4168292683
 31
0.0
 70
   160
 71
     1
 42
1.0
  3
SLDDIMSTYLE1
100
AcDbAlignedDimension
 13
149.1977259497
 23
137.9168292683
 33
0.0
 14
149.1977259497
 24
136.9168292683
 34
0.0
 50
90.0
100
AcDbRotatedDimension
1001
ACAD
1000
DSTYLE
1002
{
1070
    77
1070
     3
1070
   143
1040
0.0393700787
1070
    41
1040
3.0
1070
    44
1040
1.0
1070
    42
1040
1.0
1070
   147
1040
1.524
1070
    73
1070
     0
1070
    74
1070
     0
1070
   140
1040
3.5
1070
   284
1070
    12
1070
    78
1070
    12
1002
}
  0
DIMENSION
  5
1E2
330
1F
100
AcDbEntity
  8
SLD-0
 62
     7
100
AcDbDimension
  2
*D21
 10
167.0311952242
 20
137.9168292683
 30
0.0
 11
167.0311952242
 21
156.5540536986
 31
0.0
 70
   160
 71
     1
 42
6.5
  3
SLDDIMSTYLE2
100
AcDbAlignedDimension
 13
149.1977259497
 23
144.4168292683
 33
0.0
 14
149.1977259497
 24
137.9168292683
 34
0.0
 50
90.0
100
AcDbRotatedDimension
1001
ACAD
1000
DSTYLE
1002
{
1070
    77
1070
     3
1070
   143
1040
0.0393700787
1070
    41
1040
3.0
1070
    44
1040
1.0
1070
    42
1040
1.0
1070
   147
1040
1.524
1070
    73
1070
     0
1070
    74
1070
     0
1070
   140
1040
3.5
1070
   284
1070
    12
1070
    78
1070
    12
1002
}
  0
DIMENSION
  5
1FD
330
1F
100
AcDbEntity
  8
SLD-0
 62
     7
100
AcDbDimension
  2
*D22
 10
44.1602066677
 20
124.9168292683
 30
0.0
 11
44.1602066677
 21
118.4985884568
 31
0.0
 70
   160
 71
     1
 42
6.5
  3
SLDDIMSTYLE2
100
AcDbAlignedDimension
 13
65.1977259497
 23
131.4168292683
 33
0.0
 14
59.1977259497
 24
124.9168292683
 34
0.0
 50
90.0
100
AcDbRotatedDimension
1001
ACAD
1000
DSTYLE
1002
{
1070
    77
1070
     3
1070
   143
1040
0.0393700787
1070
    41
1040
3.0
1070
    44
1040
1.0
1070
    42
1040
1.0
1070
   147
1040
1.524
1070
    73
1070
     0
1070
    74
1070
     0
1070
   140
1040
3.5
1070
   284
1070
    12
1070
    78
1070
    12
1002
}
  0
DIMENSION
  5
218
330
1F
100
AcDbEntity
  8
SLD-0
 62
     7
100
AcDbDimension
  2
*D23
 10
123.1977259497
 20
131.4168292683
 30
0.0
 11
137.4237769788
 21
117.0450244686
 31
0.0
 70
   164
  1
<>x2-R
 71
     1
 42
180.1334580085
  3
SLDDIMSTYLE4
100
AcDbRadialDimension
 15
0.0
 25
0.0
 35
0.0
 40
0.0
1001
ACAD
1000
DSTYLE
1002
{
1070
    77
1070
     0
1070
   143
1040
0.0393700787
1070
    41
1040
3.0
1070
    44
1040
1.0
1070
    42
1040
1.0
1070
   147
1040
1.524
1070
    73
1070
     1
1070
    74
1070
     1
1070
   140
1040
3.5
1070
   284
1070
    12
1070
    78
1070
    12
1002
}
  0
DIMENSION
  5
228
330
1F
100
AcDbEntity
  8
SLD-0
 62
     7
100
AcDbDimension
  2
*D24
 10
175.2351008157
 20
210.7189128211
 30
0.0
 11
175.2351008157
 21
205.2189128211
 31
0.0
 70
   160
 71
     1
 42
11.0
  3
SLDDIMSTYLE1
100
AcDbAlignedDimension
 13
149.1977259497
 23
199.7189128211
 33
0.0
 14
149.1977259497
 24
210.7189128211
 34
0.0
 50
90.0
100
AcDbRotatedDimension
1001
ACAD
1000
DSTYLE
1002
{
1070
    77
1070
     3
1070
   143
1040
0.0393700787
1070
    41
1040
3.0
1070
    44
1040
1.0
1070
    42
1040
1.0
1070
   147
1040
1.524
1070
    73
1070
     0
1070
    74
1070
     0
1070
   140
1040
3.5
1070
   284
1070
    12
1070
    78
1070
    12
1002
}
  0
DIMENSION
  5
242
330
1F
100
AcDbEntity
  8
SLD-0
 62
     7
100
AcDbDimension
  2
*D25
 10
164.7858928333
 20
205.2189128211
 30
0.0
 11
164.7858928333
 21
220.7113692718
 31
0.0
 70
   160
 71
     1
 42
5.5
  3
SLDDIMSTYLE2
100
AcDbAlignedDimension
 13
149.1977259497
 23
210.7189128211
 33
0.0
 14
144.6977259497
 24
205.2189128211
 34
0.0
 50
90.0
100
AcDbRotatedDimension
1001
ACAD
1000
DSTYLE
1002
{
1070
    77
1070
     3
1070
   143
1040
0.0393700787
1070
    41
1040
3.0
1070
    44
1040
1.0
1070
    42
1040
1.0
1070
   147
1040
1.524
1070
    73
1070
     0
1070
    74
1070
     0
1070
   140
1040
3.5
1070
   284
1070
    12
1070
    78
1070
    12
1002
}
  0
DIMENSION
  5
25D
330
1F
100
AcDbEntity
  8
SLD-0
 62
     7
100
AcDbDimension
  2
*D26
 10
144.6977259497
 20
220.201877415
 30
0.0
 11
101.9477259497
 21
220.201877415
 31
0.0
 70
   160
 71
     1
 42
85.5
  3
SLDDIMSTYLE2
100
AcDbAlignedDimension
 13
59.1977259497
 23
210.7189128211
 33
0.0
 14
144.6977259497
 24
205.2189128211
 34
0.0
100
AcDbRotatedDimension
1001
ACAD
1000
DSTYLE
1002
{
1070
    77
1070
     3
1070
   143
1040
0.0393700787
1070
    41
1040
3.0
1070
    44
1040
1.0
1070
    42
1040
1.0
1070
   147
1040
1.524
1070
    73
1070
     0
1070
    74
1070
     0
1070
   140
1040
3.5
1070
   284
1070
    12
1070
    78
1070
    12
1002
}
  0
DIMENSION
  5
274
330
1F
100
AcDbEntity
  8
SLD-0
 62
     7
100
AcDbDimension
  2
*D27
 10
2.5931279462
 20
3.677728136
 30
0.0
 11
158.9679805152
 21
-4.9036379036
 31
0.0
 70
   163
  1
<>
 71
     1
 42
4.4999996431
  3
SLDDIMSTYLE5
100
AcDbDiametricDimension
 15
0.0
 25
0.0
 35
0.0
 40
0.0
1001
ACAD
1000
DSTYLE
1002
{
1070
    77
1070
     0
1070
   143
1040
0.0393700787
1070
    41
1040
3.0
1070
    44
1040
1.0
1070
    42
1040
1.0
1070
   147
1040
1.524
1070
    73
1070
     1
1070
    74
1070
     1
1070
   140
1040
3.5
1070
   284
1070
    12
1070
    78
1070
    12
1002
}
  0
MTEXT
  5
286
330
1F
100
AcDbEntity
  8
SLD-0
 62
     7
100
AcDbMText
 10
147.4112928379
 20
29.8867576638
 30
0.0
 40
4.2333333333
 41
0.0
 71
     1
 72
     1
  1
N01915-113
  7
SLDTEXTSTYLE0
 73
     1
 44
1.0
  0
MTEXT
  5
288
330
1F
100
AcDbEntity
  8
SLD-0
 62
     7
100
AcDbMText
 10
147.7969984173
 20
43.4105712806
 30
0.0
 40
4.2333333333
 41
0.0
 71
     1
 72
     1
  1
φ8 CYL BKT
  7
SLDTEXTSTYLE2
 73
     1
 44
1.0
  0
MTEXT
  5
289
330
1F
100
AcDbEntity
  8
SLD-0
 62
     7
100
AcDbMText
 10
152.6938978799
 20
16.2924183344
 30
0.0
 40
4.2333333333
 41
0.0
 71
     1
 72
     1
  1
131075　
  7
SLDTEXTSTYLE0
 73
     1
 44
1.0
  0
MTEXT
  5
28A
330
1F
100
AcDbEntity
  8
SLD-0
 62
     7
100
AcDbMText
 10
154.0321940573
 20
115.0184543235
 30
0.0
 40
3.5
 41
0.0
 71
     1
 72
     1
  1
M4
  7
SLDTEXTSTYLE0
 73
     1
 44
1.0
  0
INSERT
  5
28B
330
1F
100
AcDbEntity
  8
0
  6
Continuous
 62
     7
370
     0
100
AcDbBlockReference
  2
SW_CENTERMARKSYMBOL_0
 10
134.1977259497
 20
137.4168292683
 30
0.0
  0
INSERT
  5
28C
330
1F
100
AcDbEntity
  8
0
  6
Continuous
 62
     7
370
     0
100
AcDbBlockReference
  2
SW_CENTERMARKSYMBOL_1
 10
123.1977259497
 20
143.4168292683
 30
0.0
  0
INSERT
  5
28D
330
1F
100
AcDbEntity
  8
0
  6
Continuous
 62
     7
370
     0
100
AcDbBlockReference
  2
SW_CENTERMARKSYMBOL_2
 10
123.1977259497
 20
131.4168292683
 30
0.0
  0
INSERT
  5
28E
330
1F
100
AcDbEntity
  8
0
  6
Continuous
 62
     7
370
     0
100
AcDbBlockReference
  2
SW_CENTERMARKSYMBOL_3
 10
67.1977259497
 20
131.4168292683
 30
0.0
  0
INSERT
  5
28F
330
1F
100
AcDbEntity
  8
0
  6
Continuous
 62
     7
370
     0
100
AcDbBlockReference
  2
SW_CENTERMARKSYMBOL_4
 10
67.1977259497
 20
143.4168292683
 30
0.0
  0
INSERT
  5
290
330
1F
100
AcDbEntity
  8
0
  6
Continuous
 62
     7
370
     0
100
AcDbBlockReference
  2
SW_CENTERMARKSYMBOL_5
 10
144.6977259497
 20
205.2189128211
 30
0.0
  0
ENDSEC
  0
SECTION
  2
OBJECTS
  0
DICTIONARY
  5
C
330
0
100
AcDbDictionary
281
     1
  3
ACAD_GROUP
350
D
  3
ACAD_LAYOUT
350
1A
  3
ACAD_MLINESTYLE
350
17
  3
ACAD_PLOTSETTINGS
350
19
  3
ACAD_PLOTSTYLENAME
350
E
  0
DICTIONARY
  5
D
102
{ACAD_REACTORS
330
C
102
}
330
C
100
AcDbDictionary
281
     1
  0
DICTIONARY
  5
1A
102
{ACAD_REACTORS
330
C
102
}
330
C
100
AcDbDictionary
281
     1
  3
Layout1
350
1E
  3
Layout2
350
26
  3
Model
350
22
  0
DICTIONARY
  5
17
102
{ACAD_REACTORS
330
C
102
}
330
C
100
AcDbDictionary
281
     1
  3
Standard
350
18
  0
DICTIONARY
  5
19
102
{ACAD_REACTORS
330
C
102
}
330
C
100
AcDbDictionary
281
     1
  0
ACDBDICTIONARYWDFLT
  5
E
102
{ACAD_REACTORS
330
C
102
}
330
C
100
AcDbDictionary
281
     1
  3
Normal
350
F
100
AcDbDictionaryWithDefault
340
F
  0
LAYOUT
  5
1E
102
{ACAD_REACTORS
330
1A
102
}
330
1A
100
AcDbPlotSettings
  1

  2

  4

  6

 40
0.0
 41
0.0
 42
0.0
 43
0.0
 44
0.0
 45
0.0
 46
0.0
 47
0.0
 48
0.0
 49
0.0
140
0.0
141
0.0
142
1.0
143
1.0
 70
   688
 72
     0
 73
     0
 74
     5
  7

 75
    16
147
1.0
148
0.0
149
0.0
100
AcDbLayout
  1
Layout1
 70
     1
 71
     1
 10
0.0
 20
0.0
 11
0.0
 21
0.0
 12
0.0
 22
0.0
 32
0.0
 14
0.0
 24
0.0
 34
0.0
 15
0.0
 25
0.0
 35
0.0
146
0.0
 13
0.0
 23
0.0
 33
0.0
 16
1.0
 26
0.0
 36
0.0
 17
0.0
 27
1.0
 37
0.0
 76
     0
330
1B
  0
LAYOUT
  5
26
102
{ACAD_REACTORS
330
1A
102
}
330
1A
100
AcDbPlotSettings
  1

  2

  4

  6

 40
0.0
 41
0.0
 42
0.0
 43
0.0
 44
0.0
 45
0.0
 46
0.0
 47
0.0
 48
0.0
 49
0.0
140
0.0
141
0.0
142
1.0
143
1.0
 70
   688
 72
     0
 73
     0
 74
     5
  7

 75
    16
147
1.0
148
0.0
149
0.0
100
AcDbLayout
  1
Layout2
 70
     1
 71
     2
 10
0.0
 20
0.0
 11
0.0
 21
0.0
 12
0.0
 22
0.0
 32
0.0
 14
0.0
 24
0.0
 34
0.0
 15
0.0
 25
0.0
 35
0.0
146
0.0
 13
0.0
 23
0.0
 33
0.0
 16
1.0
 26
0.0
 36
0.0
 17
0.0
 27
1.0
 37
0.0
 76
     0
330
23
  0
LAYOUT
  5
22
102
{ACAD_REACTORS
330
1A
102
}
330
1A
100
AcDbPlotSettings
  1

  2

  4

  6

 40
0.0
 41
0.0
 42
0.0
 43
0.0
 44
0.0
 45
0.0
 46
0.0
 47
0.0
 48
0.0
 49
0.0
140
0.0
141
0.0
142
1.0
143
1.0
 70
  1712
 72
     0
 73
     0
 74
     0
  7

 75
     0
147
1.0
148
0.0
149
0.0
100
AcDbLayout
  1
Model
 70
     1
 71
     0
 10
0.0
 20
0.0
 11
0.0
 21
0.0
 12
0.0
 22
0.0
 32
0.0
 14
0.0
 24
0.0
 34
0.0
 15
210.0
 25
297.0
 35
0.0
146
0.0
 13
0.0
 23
0.0
 33
0.0
 16
1.0
 26
0.0
 36
0.0
 17
0.0
 27
1.0
 37
0.0
 76
     0
330
1F
  0
MLINESTYLE
  5
18
102
{ACAD_REACTORS
330
17
102
}
330
17
100
AcDbMlineStyle
  2
Standard
 70
     0
  3

 62
   256
 51
90.0
 52
90.0
 71
     2
 49
0.5
 62
   256
  6
BYLAYER
 49
-0.5
 62
   256
  6
BYLAYER
  0
ACDBPLACEHOLDER
  5
F
102
{ACAD_REACTORS
330
E
102
}
330
E
  0
ENDSEC
  0
EOF
