  0
SECTION
  2
HEADER
  9
$ACADVER
  1
AC1015
  9
$ACADMAINTVER
 70
     6
  9
$DWGCODEPAGE
  3
DOS932
  9
$INSBASE
 10
0.0
 20
0.0
 30
0.0
  9
$EXTMIN
 10
0.0
 20
0.0
 30
0.0
  9
$EXTMAX
 10
210.0
 20
297.0
 30
0.0
  9
$LIMMIN
 10
0.0
 20
0.0
  9
$LIMMAX
 10
0.0
 20
0.0
  9
$ORTHOMODE
 70
     0
  9
$REGENMODE
 70
     1
  9
$FILLMODE
 70
     1
  9
$QTEXTMODE
 70
     0
  9
$MIRRTEXT
 70
     1
  9
$LTSCALE
 40
1.0
  9
$ATTMODE
 70
     1
  9
$TEXTSIZE
 40
3.5
  9
$TRACEWID
 40
1.0
  9
$TEXTSTYLE
  7
Standard
  9
$CLAYER
  8
0
  9
$CELTYPE
  6
ByLayer
  9
$CECOLOR
 62
   256
  9
$CELTSCALE
 40
1.0
  9
$DISPSILH
 70
     0
  9
$DIMSCALE
 40
1.0
  9
$DIMASZ
 40
3.0
  9
$DIMEXO
 40
1.0
  9
$DIMDLI
 40
3.75
  9
$DIMRND
 40
0.0
  9
$DIMDLE
 40
0.0
  9
$DIMEXE
 40
1.0
  9
$DIMTP
 40
0.0
  9
$DIMTM
 40
0.0
  9
$DIMTXT
 40
3.5
  9
$DIMCEN
 40
2.5
  9
$DIMTSZ
 40
0.0
  9
$DIMTOL
 70
     0
  9
$DIMLIM
 70
     0
  9
$DIMTIH
 70
     1
  9
$DIMTOH
 70
     1
  9
$DIMSE1
 70
     0
  9
$DIMSE2
 70
     0
  9
$DIMTAD
 70
     1
  9
$DIMZIN
 70
     1
  9
$DIMBLK
  1

  9
$DIMASO
 70
     1
  9
$DIMSHO
 70
     1
  9
$DIMPOST
  1

  9
$DIMAPOST
  1

  9
$DIMALT
 70
     0
  9
$DIMALTD
 70
     3
  9
$DIMALTF
 40
0.0393700787
  9
$DIMLFAC
 40
1.0
  9
$DIMTOFL
 70
     1
  9
$DIMTVP
 40
0.0
  9
$DIMTIX
 70
     0
  9
$DIMSOXD
 70
     0
  9
$DIMSAH
 70
     0
  9
$DIMBLK1
  1

  9
$DIMBLK2
  1

  9
$DIMSTYLE
  2
ISO-25
  9
$DIMCLRD
 70
     0
  9
$DIMCLRE
 70
     0
  9
$DIMCLRT
 70
     0
  9
$DIMTFAC
 40
1.0
  9
$DIMGAP
 40
1.524
  9
$DIMJUST
 70
     0
  9
$DIMSD1
 70
     0
  9
$DIMSD2
 70
     0
  9
$DIMTOLJ
 70
     0
  9
$DIMTZIN
 70
     1
  9
$DIMALTZ
 70
     0
  9
$DIMALTTZ
 70
     0
  9
$DIMUPT
 70
     0
  9
$DIMDEC
 70
     2
  9
$DIMTDEC
 70
     2
  9
$DIMALTU
 70
     2
  9
$DIMALTTD
 70
     3
  9
$DIMTXSTY
  7
Standard
  9
$DIMAUNIT
 70
     0
  9
$DIMADEC
 70
     0
  9
$DIMALTRND
 40
0.0
  9
$DIMAZIN
 70
     0
  9
$DIMDSEP
 70
    44
  9
$DIMATFIT
 70
     3
  9
$DIMFRAC
 70
     0
  9
$DIMLDRBLK
  1

  9
$DIMLUNIT
 70
     2
  9
$DIMLWD
 70
    -2
  9
$DIMLWE
 70
    -2
  9
$DIMTMOVE
 70
     0
  9
$LUNITS
 70
     2
  9
$LUPREC
 70
     1
  9
$SKETCHINC
 40
1.0
  9
$FILLETRAD
 40
10.0
  9
$AUNITS
 70
     0
  9
$AUPREC
 70
     0
  9
$MENU
  1
.
  9
$ELEVATION
 40
0.0
  9
$PELEVATION
 40
0.0
  9
$THICKNESS
 40
0.0
  9
$LIMCHECK
 70
     0
  9
$CHAMFERA
 40
10.0
  9
$CHAMFERB
 40
10.0
  9
$CHAMFERC
 40
20.0
  9
$CHAMFERD
 40
0.0
  9
$SKPOLY
 70
     0
  9
$TDCREATE
 40
2454322.460151181
  9
$TDUCREATE
 40
2454322.085151181
  9
$TDUPDATE
 40
2454322.460151192
  9
$TDUUPDATE
 40
2454322.085151192
  9
$TDINDWG
 40
0.0000000116
  9
$TDUSRTIMER
 40
0.0000000116
  9
$USRTIMER
 70
     1
  9
$ANGBASE
 50
0.0
  9
$ANGDIR
 70
     0
  9
$PDMODE
 70
     0
  9
$PDSIZE
 40
-1.0
  9
$PLINEWID
 40
0.0
  9
$SPLFRAME
 70
     0
  9
$SPLINETYPE
 70
     6
  9
$SPLINESEGS
 70
     8
  9
$HANDSEED
  5
2EE
  9
$SURFTAB1
 70
     6
  9
$SURFTAB2
 70
     6
  9
$SURFTYPE
 70
     6
  9
$SURFU
 70
     6
  9
$SURFV
 70
     6
  9
$UCSBASE
  2

  9
$UCSNAME
  2

  9
$UCSORG
 10
0.0
 20
0.0
 30
0.0
  9
$UCSXDIR
 10
1.0
 20
0.0
 30
0.0
  9
$UCSYDIR
 10
0.0
 20
1.0
 30
0.0
  9
$UCSORTHOREF
  2

  9
$UCSORTHOVIEW
 70
     0
  9
$UCSORGTOP
 10
0.0
 20
0.0
 30
0.0
  9
$UCSORGBOTTOM
 10
0.0
 20
0.0
 30
0.0
  9
$UCSORGLEFT
 10
0.0
 20
0.0
 30
0.0
  9
$UCSORGRIGHT
 10
0.0
 20
0.0
 30
0.0
  9
$UCSORGFRONT
 10
0.0
 20
0.0
 30
0.0
  9
$UCSORGBACK
 10
0.0
 20
0.0
 30
0.0
  9
$PUCSBASE
  2

  9
$PUCSNAME
  2

  9
$PUCSORG
 10
0.0
 20
0.0
 30
0.0
  9
$PUCSXDIR
 10
1.0
 20
0.0
 30
0.0
  9
$PUCSYDIR
 10
0.0
 20
1.0
 30
0.0
  9
$PUCSORTHOREF
  2

  9
$PUCSORTHOVIEW
 70
     0
  9
$PUCSORGTOP
 10
0.0
 20
0.0
 30
0.0
  9
$PUCSORGBOTTOM
 10
0.0
 20
0.0
 30
0.0
  9
$PUCSORGLEFT
 10
0.0
 20
0.0
 30
0.0
  9
$PUCSORGRIGHT
 10
0.0
 20
0.0
 30
0.0
  9
$PUCSORGFRONT
 10
0.0
 20
0.0
 30
0.0
  9
$PUCSORGBACK
 10
0.0
 20
0.0
 30
0.0
  9
$USERI1
 70
     0
  9
$USERI2
 70
     0
  9
$USERI3
 70
     0
  9
$USERI4
 70
     0
  9
$USERI5
 70
     0
  9
$USERR1
 40
0.0
  9
$USERR2
 40
0.0
  9
$USERR3
 40
0.0
  9
$USERR4
 40
0.0
  9
$USERR5
 40
0.0
  9
$WORLDVIEW
 70
     1
  9
$SHADEDGE
 70
     3
  9
$SHADEDIF
 70
    70
  9
$TILEMODE
 70
     1
  9
$MAXACTVP
 70
    64
  9
$PINSBASE
 10
0.0
 20
0.0
 30
0.0
  9
$PLIMCHECK
 70
     0
  9
$PEXTMIN
 10
1.0000000000E+20
 20
1.0000000000E+20
 30
1.0000000000E+20
  9
$PEXTMAX
 10
-1.0000000000E+20
 20
-1.0000000000E+20
 30
-1.0000000000E+20
  9
$PLIMMIN
 10
0.0
 20
0.0
  9
$PLIMMAX
 10
420.0
 20
297.0
  9
$UNITMODE
 70
     0
  9
$VISRETAIN
 70
     1
  9
$PLINEGEN
 70
     0
  9
$PSLTSCALE
 70
     1
  9
$TREEDEPTH
 70
  3020
  9
$CMLSTYLE
  2
Standard
  9
$CMLJUST
 70
     0
  9
$CMLSCALE
 40
20.0
  9
$PROXYGRAPHICS
 70
     1
  9
$MEASUREMENT
 70
     1
  9
$CELWEIGHT
370
    -1
  9
$ENDCAPS
280
     0
  9
$JOINSTYLE
280
     0
  9
$LWDISPLAY
290
     1
  9
$INSUNITS
 70
     4
  9
$HYPERLINKBASE
  1

  9
$STYLESHEET
  1

  9
$XEDIT
290
     1
  9
$CEPSNTYPE
380
     0
  9
$PSTYLEMODE
290
     1
  9
$FINGERPRINTGUID
  2
{4477EC76-5206-4BCB-9BD5-31A5096D65E3}
  9
$VERSIONGUID
  2
{FAEB1C32-E019-11D5-929B-00C0DF256EC4}
  9
$EXTNAMES
290
     1
  9
$PSVPSCALE
 40
0.0
  9
$OLESTARTUP
290
     0
  0
ENDSEC
  0
SECTION
  2
CLASSES
  0
CLASS
  1
ACDBDICTIONARYWDFLT
  2
AcDbDictionaryWithDefault
  3
ObjectDBX Classes
 90
        0
280
     0
281
     0
  0
CLASS
  1
ACDBPLACEHOLDER
  2
AcDbPlaceHolder
  3
ObjectDBX Classes
 90
        0
280
     0
281
     0
  0
CLASS
  1
LAYOUT
  2
AcDbLayout
  3
ObjectDBX Classes
 90
        0
280
     0
281
     0
  0
ENDSEC
  0
SECTION
  2
TABLES
  0
TABLE
  2
VPORT
  5
8
330
0
100
AcDbSymbolTable
 70
     1
  0
VPORT
  5
29
330
8
100
AcDbSymbolTableRecord
100
AcDbViewportTableRecord
  2
*Active
 70
     0
 10
0.0
 20
0.0
 11
1.0
 21
1.0
 12
105.0
 22
148.5
 13
0.0
 23
0.0
 14
10.0
 24
10.0
 15
10.0
 25
10.0
 16
0.0
 26
0.0
 36
1.0
 17
0.0
 27
0.0
 37
0.0
 40
297.0
 41
1.9729729729
 42
50.0
 43
0.0
 44
0.0
 50
0.0
 51
0.0
 71
     0
 72
  2000
 73
     1
 74
     3
 75
     0
 76
     0
 77
     0
 78
     0
281
     0
 65
     1
110
0.0
120
0.0
130
0.0
111
1.0
121
0.0
131
0.0
112
0.0
122
1.0
132
0.0
 79
     0
146
0.0
  0
ENDTAB
  0
TABLE
  2
LTYPE
  5
5
330
0
100
AcDbSymbolTable
 70
     6
  0
LTYPE
  5
14
330
5
100
AcDbSymbolTableRecord
100
AcDbLinetypeTableRecord
  2
ByBlock
 70
     0
  3

 72
    65
 73
     0
 40
0.0
  0
LTYPE
  5
15
330
5
100
AcDbSymbolTableRecord
100
AcDbLinetypeTableRecord
  2
ByLayer
 70
     0
  3

 72
    65
 73
     0
 40
0.0
  0
LTYPE
  5
16
330
5
100
AcDbSymbolTableRecord
100
AcDbLinetypeTableRecord
  2
Continuous
 70
     0
  3
Solid line
 72
    65
 73
     0
 40
0.0
  0
LTYPE
  5
2A
330
5
100
AcDbSymbolTableRecord
100
AcDbLinetypeTableRecord
  2
HIDDEN
 70
     0
  3
Hidden __ __ __ __ __ __ __ __ __ __ __ __ __ __
 72
    65
 73
     2
 40
1.905
 49
1.27
 74
     0
 49
-0.635
 74
     0
  0
LTYPE
  5
2B
330
5
100
AcDbSymbolTableRecord
100
AcDbLinetypeTableRecord
  2
PHANTOM
 70
     0
  3
Phantom ______  __  __  ______  __  __  ______
 72
    65
 73
     6
 40
12.7
 49
6.35
 74
     0
 49
-1.27
 74
     0
 49
1.27
 74
     0
 49
-1.27
 74
     0
 49
1.27
 74
     0
 49
-1.27
 74
     0
  0
LTYPE
  5
2C
330
5
100
AcDbSymbolTableRecord
100
AcDbLinetypeTableRecord
  2
CENTER
 70
     0
  3
Center ____ _ ____ _ ____ _ ____ _ ____ _ ____
 72
    65
 73
     4
 40
10.16
 49
6.35
 74
     0
 49
-1.27
 74
     0
 49
1.27
 74
     0
 49
-1.27
 74
     0
  0
LTYPE
  5
2D
330
5
100
AcDbSymbolTableRecord
100
AcDbLinetypeTableRecord
  2
CENTERX2
 70
     0
  3
Center (2x) ________  __  ________  __  _____
 72
    65
 73
     4
 40
20.32
 49
12.7
 74
     0
 49
-2.54
 74
     0
 49
2.54
 74
     0
 49
-2.54
 74
     0
  0
LTYPE
  5
2E
330
5
100
AcDbSymbolTableRecord
100
AcDbLinetypeTableRecord
  2
DOT2
 70
     0
  3
Dot (.5x) ........................................
 72
    65
 73
     2
 40
0.635
 49
0.0
 74
     0
 49
-0.635
 74
     0
  0
ENDTAB
  0
TABLE
  2
LAYER
  5
2
330
0
100
AcDbSymbolTable
 70
     4
  0
LAYER
  5
10
330
2
100
AcDbSymbolTableRecord
100
AcDbLayerTableRecord
  2
0
 70
     0
 62
     7
  6
Continuous
370
    -3
390
F
  0
LAYER
  5
2F
330
2
100
AcDbSymbolTableRecord
100
AcDbLayerTableRecord
  2
SLD-0
 70
     0
 62
   179
  6
Continuous
370
     0
390
F
  0
LAYER
  5
30
330
2
100
AcDbSymbolTableRecord
100
AcDbLayerTableRecord
  2
SLD-DEFPOINTS
 70
     0
 62
   179
  6
Continuous
370
     0
390
F
  0
LAYER
  5
EB
330
2
100
AcDbSymbolTableRecord
100
AcDbLayerTableRecord
  2
Defpoints
 70
     0
 62
     7
  6
Continuous
290
     0
370
    -3
390
F
  0
ENDTAB
  0
TABLE
  2
STYLE
  5
3
330
0
100
AcDbSymbolTable
 70
     4
  0
STYLE
  5
11
330
3
100
AcDbSymbolTableRecord
100
AcDbTextStyleTableRecord
  2
Standard
 70
     0
 40
0.0
 41
1.0
 50
0.0
 71
     0
 42
2.5
  3
txt
  4
bigfont
  0
STYLE
  5
34
330
3
100
AcDbSymbolTableRecord
100
AcDbTextStyleTableRecord
  2
SLDTEXTSTYLE0
 70
     0
 40
0.0
 41
0.7
 50
0.0
 71
     0
 42
0.2
  3
TXT
  4
bigfont
  0
STYLE
  5
F8
330
3
100
AcDbSymbolTableRecord
100
AcDbTextStyleTableRecord
  2
SLDTEXTSTYLE1
 70
     0
 40
0.0
 41
0.5526315789
 50
0.0
 71
     0
 42
0.2
  3
TXT
  4
bigfont
  0
STYLE
  5
2EB
330
3
100
AcDbSymbolTableRecord
100
AcDbTextStyleTableRecord
  2
SLDTEXTSTYLE2
 70
     0
 40
0.0
 41
0.47432
 50
0.0
 71
     0
 42
0.2
  3
TXT
  4
bigfont
  0
ENDTAB
  0
TABLE
  2
VIEW
  5
6
330
0
100
AcDbSymbolTable
 70
     0
  0
ENDTAB
  0
TABLE
  2
UCS
  5
7
330
0
100
AcDbSymbolTable
 70
     0
  0
ENDTAB
  0
TABLE
  2
APPID
  5
9
330
0
100
AcDbSymbolTable
 70
     1
  0
APPID
  5
12
330
9
100
AcDbSymbolTableRecord
100
AcDbRegAppTableRecord
  2
ACAD
 70
     0
  0
ENDTAB
  0
TABLE
  2
DIMSTYLE
  5
A
330
0
100
AcDbSymbolTable
 70
     3
100
AcDbDimStyleTable
  0
DIMSTYLE
105
27
330
A
100
AcDbSymbolTableRecord
100
AcDbDimStyleTableRecord
  2
ISO-25
 70
     0
 41
2.5
 42
0.625
 43
3.75
 44
1.25
 73
     0
 74
     0
 77
     1
 78
     8
140
2.5
141
2.5
143
0.0393700787
147
0.625
171
     3
172
     1
271
     2
272
     2
274
     3
278
    44
283
     0
284
     8
340
11
  0
DIMSTYLE
105
F9
102
{ACAD_REACTORS
330
EA
330
107
330
169
330
181
330
199
330
1B1
330
1C8
330
1DF
330
1F6
330
20D
330
224
330
23B
330
255
330
26F
330
286
330
29E
330
2B6
330
2D0
102
}
330
A
100
AcDbSymbolTableRecord
100
AcDbDimStyleTableRecord
  2
SLDDIMSTYLE0
 70
     0
 41
3.0
 44
0.0
 73
     0
 74
     0
 77
     3
 78
    12
140
3.5
147
0.875
173
     1
271
     0
272
     3
284
    12
340
F8
341
FA
343
FA
344
FA
  0
DIMSTYLE
105
12C
102
{ACAD_REACTORS
330
11F
330
139
330
150
102
}
330
A
100
AcDbSymbolTableRecord
100
AcDbDimStyleTableRecord
  2
SLDDIMSTYLE1
 70
     0
 41
3.0
 44
0.0
 73
     0
 74
     0
 77
     3
 78
    12
140
3.5
147
0.875
173
     1
271
     1
272
     3
284
    12
340
F8
341
FA
343
FA
344
FA
  0
ENDTAB
  0
TABLE
  2
BLOCK_RECORD
  5
1
330
0
100
AcDbSymbolTable
 70
    25
  0
BLOCK_RECORD
  5
1F
330
1
100
AcDbSymbolTableRecord
100
AcDbBlockTableRecord
  2
*Model_Space
340
22
  0
BLOCK_RECORD
  5
1B
330
1
100
AcDbSymbolTableRecord
100
AcDbBlockTableRecord
  2
*Paper_Space
340
1E
  0
BLOCK_RECORD
  5
23
330
1
100
AcDbSymbolTableRecord
100
AcDbBlockTableRecord
  2
*Paper_Space0
340
26
  0
BLOCK_RECORD
  5
31
330
1
100
AcDbSymbolTableRecord
100
AcDbBlockTableRecord
  2
注記
340
0
  0
BLOCK_RECORD
  5
37
330
1
100
AcDbSymbolTableRecord
100
AcDbBlockTableRecord
  2
SW_CENTERMARK0
340
0
102
{BLKREFS
331
2ED
102
}
  0
BLOCK_RECORD
  5
EC
330
1
100
AcDbSymbolTableRecord
100
AcDbBlockTableRecord
  2
*D3
340
0
  0
BLOCK_RECORD
  5
FA
330
1
100
AcDbSymbolTableRecord
100
AcDbBlockTableRecord
  2
_None
340
0
102
{BLKREFS
331
F1
331
F0
331
10D
331
10C
331
125
331
124
331
13F
331
13E
331
157
331
156
331
16F
331
16E
331
187
331
186
331
19F
331
19E
331
1B7
331
1B6
331
1CE
331
1CD
331
1E5
331
1E4
331
1FC
331
1FB
331
213
331
212
331
22A
331
229
331
241
331
240
331
25C
331
25B
331
275
331
274
331
28C
331
28B
331
2A4
331
2A3
331
2BC
331
2BB
331
2D6
331
2D5
102
}
  0
BLOCK_RECORD
  5
108
330
1
100
AcDbSymbolTableRecord
100
AcDbBlockTableRecord
  2
*D5
340
0
  0
BLOCK_RECORD
  5
120
330
1
100
AcDbSymbolTableRecord
100
AcDbBlockTableRecord
  2
*D6
340
0
  0
BLOCK_RECORD
  5
13A
330
1
100
AcDbSymbolTableRecord
100
AcDbBlockTableRecord
  2
*D7
340
0
  0
BLOCK_RECORD
  5
151
330
1
100
AcDbSymbolTableRecord
100
AcDbBlockTableRecord
  2
*D8
340
0
  0
BLOCK_RECORD
  5
16A
330
1
100
AcDbSymbolTableRecord
100
AcDbBlockTableRecord
  2
*D9
340
0
  0
BLOCK_RECORD
  5
182
330
1
100
AcDbSymbolTableRecord
100
AcDbBlockTableRecord
  2
*D10
340
0
  0
BLOCK_RECORD
  5
19A
330
1
100
AcDbSymbolTableRecord
100
AcDbBlockTableRecord
  2
*D11
340
0
  0
BLOCK_RECORD
  5
1B2
330
1
100
AcDbSymbolTableRecord
100
AcDbBlockTableRecord
  2
*D12
340
0
  0
BLOCK_RECORD
  5
1C9
330
1
100
AcDbSymbolTableRecord
100
AcDbBlockTableRecord
  2
*D13
340
0
  0
BLOCK_RECORD
  5
1E0
330
1
100
AcDbSymbolTableRecord
100
AcDbBlockTableRecord
  2
*D14
340
0
  0
BLOCK_RECORD
  5
1F7
330
1
100
AcDbSymbolTableRecord
100
AcDbBlockTableRecord
  2
*D15
340
0
  0
BLOCK_RECORD
  5
20E
330
1
100
AcDbSymbolTableRecord
100
AcDbBlockTableRecord
  2
*D16
340
0
  0
BLOCK_RECORD
  5
225
330
1
100
AcDbSymbolTableRecord
100
AcDbBlockTableRecord
  2
*D17
340
0
  0
BLOCK_RECORD
  5
23C
330
1
100
AcDbSymbolTableRecord
100
AcDbBlockTableRecord
  2
*D18
340
0
  0
BLOCK_RECORD
  5
256
330
1
100
AcDbSymbolTableRecord
100
AcDbBlockTableRecord
  2
*D19
340
0
  0
BLOCK_RECORD
  5
270
330
1
100
AcDbSymbolTableRecord
100
AcDbBlockTableRecord
  2
*D20
340
0
  0
BLOCK_RECORD
  5
287
330
1
100
AcDbSymbolTableRecord
100
AcDbBlockTableRecord
  2
*D21
340
0
  0
BLOCK_RECORD
  5
29F
330
1
100
AcDbSymbolTableRecord
100
AcDbBlockTableRecord
  2
*D22
340
0
  0
BLOCK_RECORD
  5
2B7
330
1
100
AcDbSymbolTableRecord
100
AcDbBlockTableRecord
  2
*D23
340
0
  0
BLOCK_RECORD
  5
2D1
330
1
100
AcDbSymbolTableRecord
100
AcDbBlockTableRecord
  2
*D24
340
0
  0
ENDTAB
  0
ENDSEC
  0
SECTION
  2
BLOCKS
  0
BLOCK
  5
20
330
1F
100
AcDbEntity
  8
0
100
AcDbBlockBegin
  2
*Model_Space
 70
     0
 71
     0
 10
0.0
 20
0.0
 30
0.0
  3
*Model_Space
  1

  0
ENDBLK
  5
21
330
1F
100
AcDbEntity
  8
0
100
AcDbBlockEnd
  0
BLOCK
  5
1C
330
1B
100
AcDbEntity
 67
     1
  8
0
100
AcDbBlockBegin
  2
*Paper_Space
 70
     0
 71
     0
 10
0.0
 20
0.0
 30
0.0
  3
*Paper_Space
  1

  0
ENDBLK
  5
1D
330
1B
100
AcDbEntity
 67
     1
  8
0
100
AcDbBlockEnd
  0
BLOCK
  5
24
330
23
100
AcDbEntity
  8
0
100
AcDbBlockBegin
  2
*Paper_Space0
 70
     0
 71
     0
 10
0.0
 20
0.0
 30
0.0
  3
*Paper_Space0
  1

  0
ENDBLK
  5
25
330
23
100
AcDbEntity
  8
0
100
AcDbBlockEnd
  0
BLOCK
  5
32
330
31
100
AcDbEntity
  8
0
100
AcDbBlockBegin
  2
注記
 70
     0
 71
     0
 10
0.0
 20
0.0
 30
0.0
  3
注記
  1

  0
MTEXT
  5
35
330
31
100
AcDbEntity
  8
0
  6
Continuous
 62
     7
370
     0
100
AcDbMText
 10
0.2636785918
 20
9.0739778448
 30
0.0
 40
3.5
 41
0.0
 71
     1
 72
     1
  1
１．特記ナキ角部ハ、バリ　カエリノ無キコト。
  7
SLDTEXTSTYLE0
 73
     1
 44
1.0
  0
MTEXT
  5
36
330
31
100
AcDbEntity
  8
0
  6
Continuous
 62
     7
370
     0
100
AcDbMText
 10
0.2636785918
 20
3.5759549983
 30
0.0
 40
3.5
 41
0.0
 71
     1
 72
     1
  1
２．特記ナキ隅部ハ、Ｒ０．４ＭＡＸトスル。
  7
SLDTEXTSTYLE0
 73
     1
 44
1.0
  0
ENDBLK
  5
33
330
31
100
AcDbEntity
  8
0
100
AcDbBlockEnd
  0
BLOCK
  5
38
330
37
100
AcDbEntity
  8
0
100
AcDbBlockBegin
  2
SW_CENTERMARK0
 70
     0
 71
     0
 10
0.0
 20
0.0
 30
0.0
  3
SW_CENTERMARK0
  1

  0
LINE
  5
3A
330
37
100
AcDbEntity
  8
SLD-0
  6
Continuous
 62
   179
100
AcDbLine
 10
52.3519601205
 20
181.4901571909
 30
0.0
 11
52.3519601205
 21
183.9901571909
 31
0.0
  0
LINE
  5
3B
330
37
100
AcDbEntity
  8
SLD-0
  6
Continuous
 62
   179
100
AcDbLine
 10
52.3519601205
 20
181.4901571909
 30
0.0
 11
49.8519601205
 21
181.4901571909
 31
0.0
  0
LINE
  5
3C
330
37
100
AcDbEntity
  8
SLD-0
  6
Continuous
 62
   179
100
AcDbLine
 10
52.3519601205
 20
181.4901571909
 30
0.0
 11
52.3519601205
 21
178.9901571909
 31
0.0
  0
LINE
  5
3D
330
37
100
AcDbEntity
  8
SLD-0
  6
Continuous
 62
   179
100
AcDbLine
 10
52.3519601205
 20
181.4901571909
 30
0.0
 11
54.8519601205
 21
181.4901571909
 31
0.0
  0
LINE
  5
3E
330
37
100
AcDbEntity
  8
SLD-0
  6
Continuous
 62
   179
100
AcDbLine
 10
52.3519601205
 20
186.4901571909
 30
0.0
 11
52.3519601205
 21
187.2401571909
 31
0.0
  0
LINE
  5
3F
330
37
100
AcDbEntity
  8
SLD-0
  6
Continuous
 62
   179
100
AcDbLine
 10
47.3519601205
 20
181.4901571909
 30
0.0
 11
46.6019601205
 21
181.4901571909
 31
0.0
  0
LINE
  5
40
330
37
100
AcDbEntity
  8
SLD-0
  6
Continuous
 62
   179
100
AcDbLine
 10
52.3519601205
 20
176.4901571909
 30
0.0
 11
52.3519601205
 21
175.7401571909
 31
0.0
  0
LINE
  5
41
330
37
100
AcDbEntity
  8
SLD-0
  6
Continuous
 62
   179
100
AcDbLine
 10
70.8519601205
 20
181.4901571909
 30
0.0
 11
70.8519601205
 21
183.9901571909
 31
0.0
  0
LINE
  5
42
330
37
100
AcDbEntity
  8
SLD-0
  6
Continuous
 62
   179
100
AcDbLine
 10
70.8519601205
 20
181.4901571909
 30
0.0
 11
68.3519601205
 21
181.4901571909
 31
0.0
  0
LINE
  5
43
330
37
100
AcDbEntity
  8
SLD-0
  6
Continuous
 62
   179
100
AcDbLine
 10
70.8519601205
 20
181.4901571909
 30
0.0
 11
70.8519601205
 21
178.9901571909
 31
0.0
  0
LINE
  5
44
330
37
100
AcDbEntity
  8
SLD-0
  6
Continuous
 62
   179
100
AcDbLine
 10
70.8519601205
 20
181.4901571909
 30
0.0
 11
73.3519601205
 21
181.4901571909
 31
0.0
  0
LINE
  5
45
330
37
100
AcDbEntity
  8
SLD-0
  6
Continuous
 62
   179
100
AcDbLine
 10
70.8519601205
 20
186.4901571909
 30
0.0
 11
70.8519601205
 21
187.2401571909
 31
0.0
  0
LINE
  5
46
330
37
100
AcDbEntity
  8
SLD-0
  6
Continuous
 62
   179
100
AcDbLine
 10
70.8519601205
 20
176.4901571909
 30
0.0
 11
70.8519601205
 21
175.7401571909
 31
0.0
  0
LINE
  5
47
330
37
100
AcDbEntity
  8
SLD-0
  6
Continuous
 62
   179
100
AcDbLine
 10
105.8519601205
 20
181.4901571909
 30
0.0
 11
105.8519601205
 21
183.9901571909
 31
0.0
  0
LINE
  5
48
330
37
100
AcDbEntity
  8
SLD-0
  6
Continuous
 62
   179
100
AcDbLine
 10
105.8519601205
 20
181.4901571909
 30
0.0
 11
103.3519601205
 21
181.4901571909
 31
0.0
  0
LINE
  5
49
330
37
100
AcDbEntity
  8
SLD-0
  6
Continuous
 62
   179
100
AcDbLine
 10
105.8519601205
 20
181.4901571909
 30
0.0
 11
105.8519601205
 21
178.9901571909
 31
0.0
  0
LINE
  5
4A
330
37
100
AcDbEntity
  8
SLD-0
  6
Continuous
 62
   179
100
AcDbLine
 10
105.8519601205
 20
181.4901571909
 30
0.0
 11
108.3519601205
 21
181.4901571909
 31
0.0
  0
LINE
  5
4B
330
37
100
AcDbEntity
  8
SLD-0
  6
Continuous
 62
   179
100
AcDbLine
 10
105.8519601205
 20
183.9901571909
 30
0.0
 11
105.8519601205
 21
186.4901571909
 31
0.0
  0
LINE
  5
4C
330
37
100
AcDbEntity
  8
SLD-0
  6
Continuous
 62
   179
100
AcDbLine
 10
150.8519601205
 20
181.4901571909
 30
0.0
 11
150.8519601205
 21
183.9901571909
 31
0.0
  0
LINE
  5
4D
330
37
100
AcDbEntity
  8
SLD-0
  6
Continuous
 62
   179
100
AcDbLine
 10
150.8519601205
 20
181.4901571909
 30
0.0
 11
148.3519601205
 21
181.4901571909
 31
0.0
  0
LINE
  5
4E
330
37
100
AcDbEntity
  8
SLD-0
  6
Continuous
 62
   179
100
AcDbLine
 10
150.8519601205
 20
181.4901571909
 30
0.0
 11
150.8519601205
 21
178.9901571909
 31
0.0
  0
LINE
  5
4F
330
37
100
AcDbEntity
  8
SLD-0
  6
Continuous
 62
   179
100
AcDbLine
 10
150.8519601205
 20
181.4901571909
 30
0.0
 11
153.3519601205
 21
181.4901571909
 31
0.0
  0
LINE
  5
50
330
37
100
AcDbEntity
  8
SLD-0
  6
Continuous
 62
   179
100
AcDbLine
 10
150.8519601205
 20
183.9901571909
 30
0.0
 11
150.8519601205
 21
186.4901571909
 31
0.0
  0
LINE
  5
51
330
37
100
AcDbEntity
  8
SLD-0
  6
Continuous
 62
   179
100
AcDbLine
 10
153.3519601205
 20
181.4901571909
 30
0.0
 11
155.8519601205
 21
181.4901571909
 31
0.0
  0
LINE
  5
52
330
37
100
AcDbEntity
  8
SLD-0
  6
Continuous
 62
   179
100
AcDbLine
 10
150.8519601205
 20
161.4901571909
 30
0.0
 11
150.8519601205
 21
163.9901571909
 31
0.0
  0
LINE
  5
53
330
37
100
AcDbEntity
  8
SLD-0
  6
Continuous
 62
   179
100
AcDbLine
 10
150.8519601205
 20
161.4901571909
 30
0.0
 11
148.3519601205
 21
161.4901571909
 31
0.0
  0
LINE
  5
54
330
37
100
AcDbEntity
  8
SLD-0
  6
Continuous
 62
   179
100
AcDbLine
 10
150.8519601205
 20
161.4901571909
 30
0.0
 11
150.8519601205
 21
158.9901571909
 31
0.0
  0
LINE
  5
55
330
37
100
AcDbEntity
  8
SLD-0
  6
Continuous
 62
   179
100
AcDbLine
 10
150.8519601205
 20
161.4901571909
 30
0.0
 11
153.3519601205
 21
161.4901571909
 31
0.0
  0
LINE
  5
56
330
37
100
AcDbEntity
  8
SLD-0
  6
Continuous
 62
   179
100
AcDbLine
 10
150.8519601205
 20
158.9901571909
 30
0.0
 11
150.8519601205
 21
156.4901571909
 31
0.0
  0
LINE
  5
57
330
37
100
AcDbEntity
  8
SLD-0
  6
Continuous
 62
   179
100
AcDbLine
 10
153.3519601205
 20
161.4901571909
 30
0.0
 11
155.8519601205
 21
161.4901571909
 31
0.0
  0
LINE
  5
58
330
37
100
AcDbEntity
  8
SLD-0
  6
Continuous
 62
   179
100
AcDbLine
 10
105.8519601205
 20
161.4901571909
 30
0.0
 11
105.8519601205
 21
163.9901571909
 31
0.0
  0
LINE
  5
59
330
37
100
AcDbEntity
  8
SLD-0
  6
Continuous
 62
   179
100
AcDbLine
 10
105.8519601205
 20
161.4901571909
 30
0.0
 11
103.3519601205
 21
161.4901571909
 31
0.0
  0
LINE
  5
5A
330
37
100
AcDbEntity
  8
SLD-0
  6
Continuous
 62
   179
100
AcDbLine
 10
105.8519601205
 20
161.4901571909
 30
0.0
 11
105.8519601205
 21
158.9901571909
 31
0.0
  0
LINE
  5
5B
330
37
100
AcDbEntity
  8
SLD-0
  6
Continuous
 62
   179
100
AcDbLine
 10
105.8519601205
 20
161.4901571909
 30
0.0
 11
108.3519601205
 21
161.4901571909
 31
0.0
  0
LINE
  5
5C
330
37
100
AcDbEntity
  8
SLD-0
  6
Continuous
 62
   179
100
AcDbLine
 10
105.8519601205
 20
158.9901571909
 30
0.0
 11
105.8519601205
 21
156.4901571909
 31
0.0
  0
LINE
  5
5D
330
37
100
AcDbEntity
  8
SLD-0
  6
Continuous
 62
   179
100
AcDbLine
 10
114.8519601205
 20
159.4901571909
 30
0.0
 11
114.8519601205
 21
161.9901571909
 31
0.0
  0
LINE
  5
5E
330
37
100
AcDbEntity
  8
SLD-0
  6
Continuous
 62
   179
100
AcDbLine
 10
114.8519601205
 20
159.4901571909
 30
0.0
 11
112.3519601205
 21
159.4901571909
 31
0.0
  0
LINE
  5
5F
330
37
100
AcDbEntity
  8
SLD-0
  6
Continuous
 62
   179
100
AcDbLine
 10
114.8519601205
 20
159.4901571909
 30
0.0
 11
114.8519601205
 21
156.9901571909
 31
0.0
  0
LINE
  5
60
330
37
100
AcDbEntity
  8
SLD-0
  6
Continuous
 62
   179
100
AcDbLine
 10
114.8519601205
 20
159.4901571909
 30
0.0
 11
117.3519601205
 21
159.4901571909
 31
0.0
  0
LINE
  5
61
330
37
100
AcDbEntity
  8
SLD-0
  6
Continuous
 62
   179
100
AcDbLine
 10
112.3519601205
 20
159.4901571909
 30
0.0
 11
109.8519601205
 21
159.4901571909
 31
0.0
  0
LINE
  5
62
330
37
100
AcDbEntity
  8
SLD-0
  6
Continuous
 62
   179
100
AcDbLine
 10
114.8519601205
 20
156.9901571909
 30
0.0
 11
114.8519601205
 21
154.4901571909
 31
0.0
  0
LINE
  5
63
330
37
100
AcDbEntity
  8
SLD-0
  6
Continuous
 62
   179
100
AcDbLine
 10
114.8519601205
 20
183.4901571909
 30
0.0
 11
114.8519601205
 21
185.9901571909
 31
0.0
  0
LINE
  5
64
330
37
100
AcDbEntity
  8
SLD-0
  6
Continuous
 62
   179
100
AcDbLine
 10
114.8519601205
 20
183.4901571909
 30
0.0
 11
112.3519601205
 21
183.4901571909
 31
0.0
  0
LINE
  5
65
330
37
100
AcDbEntity
  8
SLD-0
  6
Continuous
 62
   179
100
AcDbLine
 10
114.8519601205
 20
183.4901571909
 30
0.0
 11
114.8519601205
 21
180.9901571909
 31
0.0
  0
LINE
  5
66
330
37
100
AcDbEntity
  8
SLD-0
  6
Continuous
 62
   179
100
AcDbLine
 10
114.8519601205
 20
183.4901571909
 30
0.0
 11
117.3519601205
 21
183.4901571909
 31
0.0
  0
LINE
  5
67
330
37
100
AcDbEntity
  8
SLD-0
  6
Continuous
 62
   179
100
AcDbLine
 10
114.8519601205
 20
185.9901571909
 30
0.0
 11
114.8519601205
 21
188.4901571909
 31
0.0
  0
LINE
  5
68
330
37
100
AcDbEntity
  8
SLD-0
  6
Continuous
 62
   179
100
AcDbLine
 10
112.3519601205
 20
183.4901571909
 30
0.0
 11
109.8519601205
 21
183.4901571909
 31
0.0
  0
LINE
  5
69
330
37
100
AcDbEntity
  8
SLD-0
  6
Continuous
 62
   179
100
AcDbLine
 10
160.8519601205
 20
185.4901571909
 30
0.0
 11
160.8519601205
 21
187.9901571909
 31
0.0
  0
LINE
  5
6A
330
37
100
AcDbEntity
  8
SLD-0
  6
Continuous
 62
   179
100
AcDbLine
 10
160.8519601205
 20
185.4901571909
 30
0.0
 11
158.3519601205
 21
185.4901571909
 31
0.0
  0
LINE
  5
6B
330
37
100
AcDbEntity
  8
SLD-0
  6
Continuous
 62
   179
100
AcDbLine
 10
160.8519601205
 20
185.4901571909
 30
0.0
 11
160.8519601205
 21
182.9901571909
 31
0.0
  0
LINE
  5
6C
330
37
100
AcDbEntity
  8
SLD-0
  6
Continuous
 62
   179
100
AcDbLine
 10
160.8519601205
 20
185.4901571909
 30
0.0
 11
163.3519601205
 21
185.4901571909
 31
0.0
  0
LINE
  5
6D
330
37
100
AcDbEntity
  8
SLD-0
  6
Continuous
 62
   179
100
AcDbLine
 10
160.8519601205
 20
187.9901571909
 30
0.0
 11
160.8519601205
 21
190.4901571909
 31
0.0
  0
LINE
  5
6E
330
37
100
AcDbEntity
  8
SLD-0
  6
Continuous
 62
   179
100
AcDbLine
 10
163.3519601205
 20
185.4901571909
 30
0.0
 11
165.8519601205
 21
185.4901571909
 31
0.0
  0
LINE
  5
6F
330
37
100
AcDbEntity
  8
SLD-0
  6
Continuous
 62
   179
100
AcDbLine
 10
167.8519601205
 20
183.4901571909
 30
0.0
 11
167.8519601205
 21
185.9901571909
 31
0.0
  0
LINE
  5
70
330
37
100
AcDbEntity
  8
SLD-0
  6
Continuous
 62
   179
100
AcDbLine
 10
167.8519601205
 20
183.4901571909
 30
0.0
 11
165.3519601205
 21
183.4901571909
 31
0.0
  0
LINE
  5
71
330
37
100
AcDbEntity
  8
SLD-0
  6
Continuous
 62
   179
100
AcDbLine
 10
167.8519601205
 20
183.4901571909
 30
0.0
 11
167.8519601205
 21
180.9901571909
 31
0.0
  0
LINE
  5
72
330
37
100
AcDbEntity
  8
SLD-0
  6
Continuous
 62
   179
100
AcDbLine
 10
167.8519601205
 20
183.4901571909
 30
0.0
 11
170.3519601205
 21
183.4901571909
 31
0.0
  0
LINE
  5
73
330
37
100
AcDbEntity
  8
SLD-0
  6
Continuous
 62
   179
100
AcDbLine
 10
167.8519601205
 20
185.9901571909
 30
0.0
 11
167.8519601205
 21
188.4901571909
 31
0.0
  0
LINE
  5
74
330
37
100
AcDbEntity
  8
SLD-0
  6
Continuous
 62
   179
100
AcDbLine
 10
170.3519601205
 20
183.4901571909
 30
0.0
 11
172.8519601205
 21
183.4901571909
 31
0.0
  0
LINE
  5
75
330
37
100
AcDbEntity
  8
SLD-0
  6
Continuous
 62
   179
100
AcDbLine
 10
167.8519601205
 20
159.4901571909
 30
0.0
 11
167.8519601205
 21
161.9901571909
 31
0.0
  0
LINE
  5
76
330
37
100
AcDbEntity
  8
SLD-0
  6
Continuous
 62
   179
100
AcDbLine
 10
167.8519601205
 20
159.4901571909
 30
0.0
 11
165.3519601205
 21
159.4901571909
 31
0.0
  0
LINE
  5
77
330
37
100
AcDbEntity
  8
SLD-0
  6
Continuous
 62
   179
100
AcDbLine
 10
167.8519601205
 20
159.4901571909
 30
0.0
 11
167.8519601205
 21
156.9901571909
 31
0.0
  0
LINE
  5
78
330
37
100
AcDbEntity
  8
SLD-0
  6
Continuous
 62
   179
100
AcDbLine
 10
167.8519601205
 20
159.4901571909
 30
0.0
 11
170.3519601205
 21
159.4901571909
 31
0.0
  0
LINE
  5
79
330
37
100
AcDbEntity
  8
SLD-0
  6
Continuous
 62
   179
100
AcDbLine
 10
167.8519601205
 20
156.9901571909
 30
0.0
 11
167.8519601205
 21
154.4901571909
 31
0.0
  0
LINE
  5
7A
330
37
100
AcDbEntity
  8
SLD-0
  6
Continuous
 62
   179
100
AcDbLine
 10
170.3519601205
 20
159.4901571909
 30
0.0
 11
172.8519601205
 21
159.4901571909
 31
0.0
  0
LINE
  5
7B
330
37
100
AcDbEntity
  8
SLD-0
  6
Continuous
 62
   179
100
AcDbLine
 10
160.8519601205
 20
157.4901571909
 30
0.0
 11
160.8519601205
 21
159.9901571909
 31
0.0
  0
LINE
  5
7C
330
37
100
AcDbEntity
  8
SLD-0
  6
Continuous
 62
   179
100
AcDbLine
 10
160.8519601205
 20
157.4901571909
 30
0.0
 11
158.3519601205
 21
157.4901571909
 31
0.0
  0
LINE
  5
7D
330
37
100
AcDbEntity
  8
SLD-0
  6
Continuous
 62
   179
100
AcDbLine
 10
160.8519601205
 20
157.4901571909
 30
0.0
 11
160.8519601205
 21
154.9901571909
 31
0.0
  0
LINE
  5
7E
330
37
100
AcDbEntity
  8
SLD-0
  6
Continuous
 62
   179
100
AcDbLine
 10
160.8519601205
 20
157.4901571909
 30
0.0
 11
163.3519601205
 21
157.4901571909
 31
0.0
  0
LINE
  5
7F
330
37
100
AcDbEntity
  8
SLD-0
  6
Continuous
 62
   179
100
AcDbLine
 10
160.8519601205
 20
154.9901571909
 30
0.0
 11
160.8519601205
 21
152.4901571909
 31
0.0
  0
LINE
  5
80
330
37
100
AcDbEntity
  8
SLD-0
  6
Continuous
 62
   179
100
AcDbLine
 10
163.3519601205
 20
157.4901571909
 30
0.0
 11
165.8519601205
 21
157.4901571909
 31
0.0
  0
LINE
  5
81
330
37
100
AcDbEntity
  8
SLD-0
  6
Continuous
 62
   179
100
AcDbLine
 10
152.8519601205
 20
153.4901571909
 30
0.0
 11
152.8519601205
 21
155.9901571909
 31
0.0
  0
LINE
  5
82
330
37
100
AcDbEntity
  8
SLD-0
  6
Continuous
 62
   179
100
AcDbLine
 10
152.8519601205
 20
153.4901571909
 30
0.0
 11
150.3519601205
 21
153.4901571909
 31
0.0
  0
LINE
  5
83
330
37
100
AcDbEntity
  8
SLD-0
  6
Continuous
 62
   179
100
AcDbLine
 10
152.8519601205
 20
153.4901571909
 30
0.0
 11
152.8519601205
 21
150.9901571909
 31
0.0
  0
LINE
  5
84
330
37
100
AcDbEntity
  8
SLD-0
  6
Continuous
 62
   179
100
AcDbLine
 10
152.8519601205
 20
153.4901571909
 30
0.0
 11
155.3519601205
 21
153.4901571909
 31
0.0
  0
LINE
  5
85
330
37
100
AcDbEntity
  8
SLD-0
  6
Continuous
 62
   179
100
AcDbLine
 10
150.3519601205
 20
153.4901571909
 30
0.0
 11
147.8519601205
 21
153.4901571909
 31
0.0
  0
LINE
  5
86
330
37
100
AcDbEntity
  8
SLD-0
  6
Continuous
 62
   179
100
AcDbLine
 10
152.8519601205
 20
150.9901571909
 30
0.0
 11
152.8519601205
 21
148.4901571909
 31
0.0
  0
LINE
  5
87
330
37
100
AcDbEntity
  8
SLD-0
  6
Continuous
 62
   179
100
AcDbLine
 10
155.3519601205
 20
153.4901571909
 30
0.0
 11
157.8519601205
 21
153.4901571909
 31
0.0
  0
LINE
  5
88
330
37
100
AcDbEntity
  8
SLD-0
  6
Continuous
 62
   179
100
AcDbLine
 10
152.8519601205
 20
189.4901571909
 30
0.0
 11
152.8519601205
 21
191.9901571909
 31
0.0
  0
LINE
  5
89
330
37
100
AcDbEntity
  8
SLD-0
  6
Continuous
 62
   179
100
AcDbLine
 10
152.8519601205
 20
189.4901571909
 30
0.0
 11
150.3519601205
 21
189.4901571909
 31
0.0
  0
LINE
  5
8A
330
37
100
AcDbEntity
  8
SLD-0
  6
Continuous
 62
   179
100
AcDbLine
 10
152.8519601205
 20
189.4901571909
 30
0.0
 11
152.8519601205
 21
186.9901571909
 31
0.0
  0
LINE
  5
8B
330
37
100
AcDbEntity
  8
SLD-0
  6
Continuous
 62
   179
100
AcDbLine
 10
152.8519601205
 20
189.4901571909
 30
0.0
 11
155.3519601205
 21
189.4901571909
 31
0.0
  0
LINE
  5
8C
330
37
100
AcDbEntity
  8
SLD-0
  6
Continuous
 62
   179
100
AcDbLine
 10
152.8519601205
 20
191.9901571909
 30
0.0
 11
152.8519601205
 21
194.4901571909
 31
0.0
  0
LINE
  5
8D
330
37
100
AcDbEntity
  8
SLD-0
  6
Continuous
 62
   179
100
AcDbLine
 10
150.3519601205
 20
189.4901571909
 30
0.0
 11
147.8519601205
 21
189.4901571909
 31
0.0
  0
LINE
  5
8E
330
37
100
AcDbEntity
  8
SLD-0
  6
Continuous
 62
   179
100
AcDbLine
 10
155.3519601205
 20
189.4901571909
 30
0.0
 11
157.8519601205
 21
189.4901571909
 31
0.0
  0
LINE
  5
8F
330
37
100
AcDbEntity
  8
SLD-0
  6
Continuous
 62
   179
100
AcDbLine
 10
80.8519601205
 20
157.4901571909
 30
0.0
 11
80.8519601205
 21
159.9901571909
 31
0.0
  0
LINE
  5
90
330
37
100
AcDbEntity
  8
SLD-0
  6
Continuous
 62
   179
100
AcDbLine
 10
80.8519601205
 20
157.4901571909
 30
0.0
 11
78.3519601205
 21
157.4901571909
 31
0.0
  0
LINE
  5
91
330
37
100
AcDbEntity
  8
SLD-0
  6
Continuous
 62
   179
100
AcDbLine
 10
80.8519601205
 20
157.4901571909
 30
0.0
 11
80.8519601205
 21
154.9901571909
 31
0.0
  0
LINE
  5
92
330
37
100
AcDbEntity
  8
SLD-0
  6
Continuous
 62
   179
100
AcDbLine
 10
80.8519601205
 20
157.4901571909
 30
0.0
 11
83.3519601205
 21
157.4901571909
 31
0.0
  0
LINE
  5
93
330
37
100
AcDbEntity
  8
SLD-0
  6
Continuous
 62
   179
100
AcDbLine
 10
78.3519601205
 20
157.4901571909
 30
0.0
 11
75.8519601205
 21
157.4901571909
 31
0.0
  0
LINE
  5
94
330
37
100
AcDbEntity
  8
SLD-0
  6
Continuous
 62
   179
100
AcDbLine
 10
80.8519601205
 20
154.9901571909
 30
0.0
 11
80.8519601205
 21
152.4901571909
 31
0.0
  0
LINE
  5
95
330
37
100
AcDbEntity
  8
SLD-0
  6
Continuous
 62
   179
100
AcDbLine
 10
80.8519601205
 20
185.4901571909
 30
0.0
 11
80.8519601205
 21
187.9901571909
 31
0.0
  0
LINE
  5
96
330
37
100
AcDbEntity
  8
SLD-0
  6
Continuous
 62
   179
100
AcDbLine
 10
80.8519601205
 20
185.4901571909
 30
0.0
 11
78.3519601205
 21
185.4901571909
 31
0.0
  0
LINE
  5
97
330
37
100
AcDbEntity
  8
SLD-0
  6
Continuous
 62
   179
100
AcDbLine
 10
80.8519601205
 20
185.4901571909
 30
0.0
 11
80.8519601205
 21
182.9901571909
 31
0.0
  0
LINE
  5
98
330
37
100
AcDbEntity
  8
SLD-0
  6
Continuous
 62
   179
100
AcDbLine
 10
80.8519601205
 20
185.4901571909
 30
0.0
 11
83.3519601205
 21
185.4901571909
 31
0.0
  0
LINE
  5
99
330
37
100
AcDbEntity
  8
SLD-0
  6
Continuous
 62
   179
100
AcDbLine
 10
80.8519601205
 20
187.9901571909
 30
0.0
 11
80.8519601205
 21
190.4901571909
 31
0.0
  0
LINE
  5
9A
330
37
100
AcDbEntity
  8
SLD-0
  6
Continuous
 62
   179
100
AcDbLine
 10
78.3519601205
 20
185.4901571909
 30
0.0
 11
75.8519601205
 21
185.4901571909
 31
0.0
  0
LINE
  5
9B
330
37
100
AcDbEntity
  8
SLD-0
  6
Continuous
 62
   179
100
AcDbLine
 10
70.8519601205
 20
161.4901571909
 30
0.0
 11
70.8519601205
 21
163.9901571909
 31
0.0
  0
LINE
  5
9C
330
37
100
AcDbEntity
  8
SLD-0
  6
Continuous
 62
   179
100
AcDbLine
 10
70.8519601205
 20
161.4901571909
 30
0.0
 11
68.3519601205
 21
161.4901571909
 31
0.0
  0
LINE
  5
9D
330
37
100
AcDbEntity
  8
SLD-0
  6
Continuous
 62
   179
100
AcDbLine
 10
70.8519601205
 20
161.4901571909
 30
0.0
 11
70.8519601205
 21
158.9901571909
 31
0.0
  0
LINE
  5
9E
330
37
100
AcDbEntity
  8
SLD-0
  6
Continuous
 62
   179
100
AcDbLine
 10
70.8519601205
 20
161.4901571909
 30
0.0
 11
73.3519601205
 21
161.4901571909
 31
0.0
  0
LINE
  5
9F
330
37
100
AcDbEntity
  8
SLD-0
  6
Continuous
 62
   179
100
AcDbLine
 10
70.8519601205
 20
166.4901571909
 30
0.0
 11
70.8519601205
 21
167.2401571909
 31
0.0
  0
LINE
  5
A0
330
37
100
AcDbEntity
  8
SLD-0
  6
Continuous
 62
   179
100
AcDbLine
 10
70.8519601205
 20
156.4901571909
 30
0.0
 11
70.8519601205
 21
155.7401571909
 31
0.0
  0
LINE
  5
A1
330
37
100
AcDbEntity
  8
SLD-0
  6
Continuous
 62
   179
100
AcDbLine
 10
52.3519601205
 20
161.4901571909
 30
0.0
 11
52.3519601205
 21
163.9901571909
 31
0.0
  0
LINE
  5
A2
330
37
100
AcDbEntity
  8
SLD-0
  6
Continuous
 62
   179
100
AcDbLine
 10
52.3519601205
 20
161.4901571909
 30
0.0
 11
49.8519601205
 21
161.4901571909
 31
0.0
  0
LINE
  5
A3
330
37
100
AcDbEntity
  8
SLD-0
  6
Continuous
 62
   179
100
AcDbLine
 10
52.3519601205
 20
161.4901571909
 30
0.0
 11
52.3519601205
 21
158.9901571909
 31
0.0
  0
LINE
  5
A4
330
37
100
AcDbEntity
  8
SLD-0
  6
Continuous
 62
   179
100
AcDbLine
 10
52.3519601205
 20
161.4901571909
 30
0.0
 11
54.8519601205
 21
161.4901571909
 31
0.0
  0
LINE
  5
A5
330
37
100
AcDbEntity
  8
SLD-0
  6
Continuous
 62
   179
100
AcDbLine
 10
52.3519601205
 20
166.4901571909
 30
0.0
 11
52.3519601205
 21
167.2401571909
 31
0.0
  0
LINE
  5
A6
330
37
100
AcDbEntity
  8
SLD-0
  6
Continuous
 62
   179
100
AcDbLine
 10
47.3519601205
 20
161.4901571909
 30
0.0
 11
46.6019601205
 21
161.4901571909
 31
0.0
  0
LINE
  5
A7
330
37
100
AcDbEntity
  8
SLD-0
  6
Continuous
 62
   179
100
AcDbLine
 10
52.3519601205
 20
156.4901571909
 30
0.0
 11
52.3519601205
 21
155.7401571909
 31
0.0
  0
LINE
  5
A8
330
37
100
AcDbEntity
  8
SLD-0
  6
CENTERX2
 62
   179
100
AcDbLine
 10
57.3519601205
 20
181.4901571909
 30
0.0
 11
65.8519601205
 21
181.4901571909
 31
0.0
  0
LINE
  5
A9
330
37
100
AcDbEntity
  8
SLD-0
  6
CENTERX2
 62
   179
100
AcDbLine
 10
75.8519601205
 20
181.4901571909
 30
0.0
 11
100.8519601205
 21
181.4901571909
 31
0.0
  0
LINE
  5
AA
330
37
100
AcDbEntity
  8
SLD-0
  6
CENTERX2
 62
   179
100
AcDbLine
 10
110.8519601205
 20
181.4901571909
 30
0.0
 11
145.8519601205
 21
181.4901571909
 31
0.0
  0
LINE
  5
AB
330
37
100
AcDbEntity
  8
SLD-0
  6
CENTERX2
 62
   179
100
AcDbLine
 10
150.8519601205
 20
166.4901571909
 30
0.0
 11
150.8519601205
 21
176.4901571909
 31
0.0
  0
LINE
  5
AC
330
37
100
AcDbEntity
  8
SLD-0
  6
CENTERX2
 62
   179
100
AcDbLine
 10
110.8519601205
 20
161.4901571909
 30
0.0
 11
145.8519601205
 21
161.4901571909
 31
0.0
  0
LINE
  5
AD
330
37
100
AcDbEntity
  8
SLD-0
  6
CENTERX2
 62
   179
100
AcDbLine
 10
105.8519601205
 20
166.4901571909
 30
0.0
 11
105.8519601205
 21
176.4901571909
 31
0.0
  0
LINE
  5
AE
330
37
100
AcDbEntity
  8
SLD-0
  6
CENTERX2
 62
   179
100
AcDbLine
 10
114.8519601205
 20
164.4901571909
 30
0.0
 11
114.8519601205
 21
178.4901571909
 31
0.0
  0
LINE
  5
AF
330
37
100
AcDbEntity
  8
SLD-0
  6
CENTERX2
 62
   179
100
AcDbLine
 10
119.8519601205
 20
183.4901571909
 30
0.0
 11
162.8519601205
 21
183.4901571909
 31
0.0
  0
LINE
  5
B0
330
37
100
AcDbEntity
  8
SLD-0
  6
CENTERX2
 62
   179
100
AcDbLine
 10
119.8519601205
 20
159.4901571909
 30
0.0
 11
162.8519601205
 21
159.4901571909
 31
0.0
  0
LINE
  5
B1
330
37
100
AcDbEntity
  8
SLD-0
  6
CENTERX2
 62
   179
100
AcDbLine
 10
167.8519601205
 20
164.4901571909
 30
0.0
 11
167.8519601205
 21
178.4901571909
 31
0.0
  0
LINE
  5
B2
330
37
100
AcDbEntity
  8
SLD-0
  6
CENTERX2
 62
   179
100
AcDbLine
 10
160.8519601205
 20
162.4901571909
 30
0.0
 11
160.8519601205
 21
180.4901571909
 31
0.0
  0
LINE
  5
B3
330
37
100
AcDbEntity
  8
SLD-0
  6
CENTERX2
 62
   179
100
AcDbLine
 10
152.8519601205
 20
158.4901571909
 30
0.0
 11
152.8519601205
 21
184.4901571909
 31
0.0
  0
LINE
  5
B4
330
37
100
AcDbEntity
  8
SLD-0
  6
CENTERX2
 62
   179
100
AcDbLine
 10
85.8519601205
 20
157.4901571909
 30
0.0
 11
155.8519601205
 21
157.4901571909
 31
0.0
  0
LINE
  5
B5
330
37
100
AcDbEntity
  8
SLD-0
  6
CENTERX2
 62
   179
100
AcDbLine
 10
85.8519601205
 20
185.4901571909
 30
0.0
 11
155.8519601205
 21
185.4901571909
 31
0.0
  0
LINE
  5
B6
330
37
100
AcDbEntity
  8
SLD-0
  6
CENTERX2
 62
   179
100
AcDbLine
 10
80.8519601205
 20
162.4901571909
 30
0.0
 11
80.8519601205
 21
180.4901571909
 31
0.0
  0
LINE
  5
B7
330
37
100
AcDbEntity
  8
SLD-0
  6
CENTERX2
 62
   179
100
AcDbLine
 10
75.8519601205
 20
161.4901571909
 30
0.0
 11
100.8519601205
 21
161.4901571909
 31
0.0
  0
LINE
  5
B8
330
37
100
AcDbEntity
  8
SLD-0
  6
CENTERX2
 62
   179
100
AcDbLine
 10
57.3519601205
 20
161.4901571909
 30
0.0
 11
65.8519601205
 21
161.4901571909
 31
0.0
  0
ENDBLK
  5
39
330
37
100
AcDbEntity
  8
0
100
AcDbBlockEnd
  0
BLOCK
  5
F6
330
EC
100
AcDbEntity
  8
0
100
AcDbBlockBegin
  2
*D3
 70
     1
 71
     0
 10
0.0
 20
0.0
 30
0.0
  3
*D3
  1

  0
LINE
  5
FD
330
EC
100
AcDbEntity
  8
SLD-0
 62
     7
100
AcDbLine
 10
39.8519601205
 20
190.4901571909
 30
0.0
 11
39.8519601205
 21
227.7899311109
 31
0.0
  0
LINE
  5
FE
330
EC
100
AcDbEntity
  8
SLD-0
 62
     7
100
AcDbLine
 10
172.8519601205
 20
190.4901571909
 30
0.0
 11
172.8519601205
 21
227.7899311109
 31
0.0
  0
LINE
  5
FF
330
EC
100
AcDbEntity
  8
SLD-0
 62
     7
100
AcDbLine
 10
39.8519601205
 20
226.7899311109
 30
0.0
 11
172.8519601205
 21
226.7899311109
 31
0.0
  0
LINE
  5
100
330
EC
100
AcDbEntity
  8
SLD-0
 62
     7
100
AcDbLine
 10
42.8519601205
 20
225.9860841109
 30
0.0
 11
39.8519601205
 21
226.7899311109
 31
0.0
  0
LINE
  5
101
330
EC
100
AcDbEntity
  8
SLD-0
 62
     7
100
AcDbLine
 10
39.8519601205
 20
226.7899311109
 30
0.0
 11
42.8519601205
 21
227.5937781109
 31
0.0
  0
LINE
  5
102
330
EC
100
AcDbEntity
  8
SLD-0
 62
     7
100
AcDbLine
 10
39.8519601205
 20
226.7899311109
 30
0.0
 11
42.8519601205
 21
226.7899311109
 31
0.0
  0
LINE
  5
103
330
EC
100
AcDbEntity
  8
SLD-0
 62
     7
100
AcDbLine
 10
169.8519601205
 20
227.5937781109
 30
0.0
 11
172.8519601205
 21
226.7899311109
 31
0.0
  0
LINE
  5
104
330
EC
100
AcDbEntity
  8
SLD-0
 62
     7
100
AcDbLine
 10
172.8519601205
 20
226.7899311109
 30
0.0
 11
169.8519601205
 21
225.9860841109
 31
0.0
  0
LINE
  5
105
330
EC
100
AcDbEntity
  8
SLD-0
 62
     7
100
AcDbLine
 10
172.8519601205
 20
226.7899311109
 30
0.0
 11
169.8519601205
 21
226.7899311109
 31
0.0
  0
MTEXT
  5
106
330
EC
100
AcDbEntity
  8
SLD-0
 62
     7
100
AcDbMText
 10
103.298454133
 20
231.3166248069
 30
0.1
 40
3.5
 41
0.0
 71
     1
 72
     1
  1
133
  7
SLDTEXTSTYLE0
 73
     1
 44
1.0
  0
ENDBLK
  5
F7
330
EC
100
AcDbEntity
  8
0
100
AcDbBlockEnd
  0
BLOCK
  5
FB
330
FA
100
AcDbEntity
  8
0
100
AcDbBlockBegin
  2
_None
 70
     0
 71
     0
 10
0.0
 20
0.0
 30
0.0
  3
_None
  1

  0
ENDBLK
  5
FC
330
FA
100
AcDbEntity
  8
0
100
AcDbBlockEnd
  0
BLOCK
  5
113
330
108
100
AcDbEntity
  8
0
100
AcDbBlockBegin
  2
*D5
 70
     1
 71
     0
 10
0.0
 20
0.0
 30
0.0
  3
*D5
  1

  0
LINE
  5
115
330
108
100
AcDbEntity
  8
SLD-0
 62
     7
100
AcDbLine
 10
168.8519601205
 20
194.4901571909
 30
0.0
 11
191.2805899469
 21
194.4901571909
 31
0.0
  0
LINE
  5
116
330
108
100
AcDbEntity
  8
SLD-0
 62
     7
100
AcDbLine
 10
168.8519601205
 20
148.4901571909
 30
0.0
 11
191.2805899469
 21
148.4901571909
 31
0.0
  0
LINE
  5
117
330
108
100
AcDbEntity
  8
SLD-0
 62
     7
100
AcDbLine
 10
190.2805899469
 20
194.4901571909
 30
0.0
 11
190.2805899469
 21
148.4901571909
 31
0.0
  0
LINE
  5
118
330
108
100
AcDbEntity
  8
SLD-0
 62
     7
100
AcDbLine
 10
189.4767429469
 20
191.4901571909
 30
0.0
 11
190.2805899469
 21
194.4901571909
 31
0.0
  0
LINE
  5
119
330
108
100
AcDbEntity
  8
SLD-0
 62
     7
100
AcDbLine
 10
190.2805899469
 20
194.4901571909
 30
0.0
 11
191.0844369469
 21
191.4901571909
 31
0.0
  0
LINE
  5
11A
330
108
100
AcDbEntity
  8
SLD-0
 62
     7
100
AcDbLine
 10
190.2805899469
 20
194.4901571909
 30
0.0
 11
190.2805899469
 21
191.4901571909
 31
0.0
  0
LINE
  5
11B
330
108
100
AcDbEntity
  8
SLD-0
 62
     7
100
AcDbLine
 10
191.0844369469
 20
151.4901571909
 30
0.0
 11
190.2805899469
 21
148.4901571909
 31
0.0
  0
LINE
  5
11C
330
108
100
AcDbEntity
  8
SLD-0
 62
     7
100
AcDbLine
 10
190.2805899469
 20
148.4901571909
 30
0.0
 11
189.4767429469
 21
151.4901571909
 31
0.0
  0
LINE
  5
11D
330
108
100
AcDbEntity
  8
SLD-0
 62
     7
100
AcDbLine
 10
190.2805899469
 20
148.4901571909
 30
0.0
 11
190.2805899469
 21
151.4901571909
 31
0.0
  0
MTEXT
  5
11E
330
108
100
AcDbEntity
  8
SLD-0
 62
     7
100
AcDbMText
 10
185.753896251
 20
169.4551894575
 30
0.1
 40
3.5
 41
0.0
 71
     1
 72
     1
  1
46
  7
SLDTEXTSTYLE0
 11
6.123031769111886E-17
 21
1.0
 31
0.0
 73
     1
 44
1.0
  0
ENDBLK
  5
114
330
108
100
AcDbEntity
  8
0
100
AcDbBlockEnd
  0
BLOCK
  5
12A
330
120
100
AcDbEntity
  8
0
100
AcDbBlockBegin
  2
*D6
 70
     1
 71
     0
 10
0.0
 20
0.0
 30
0.0
  3
*D6
  1

  0
LINE
  5
12D
330
120
100
AcDbEntity
  8
SLD-0
 62
     7
100
AcDbLine
 10
52.3519601205
 20
188.2401571909
 30
0.0
 11
52.3519601205
 21
214.0938158679
 31
0.0
  0
LINE
  5
12E
330
120
100
AcDbEntity
  8
SLD-0
 62
     7
100
AcDbLine
 10
39.8519601205
 20
190.4901571909
 30
0.0
 11
39.8519601205
 21
214.0938158679
 31
0.0
  0
LINE
  5
12F
330
120
100
AcDbEntity
  8
SLD-0
 62
     7
100
AcDbLine
 10
52.3519601205
 20
213.0938158679
 30
0.0
 11
57.3519601205
 21
213.0938158679
 31
0.0
  0
LINE
  5
130
330
120
100
AcDbEntity
  8
SLD-0
 62
     7
100
AcDbLine
 10
52.3519601205
 20
213.0938158679
 30
0.0
 11
39.8519601205
 21
213.0938158679
 31
0.0
  0
LINE
  5
131
330
120
100
AcDbEntity
  8
SLD-0
 62
     7
100
AcDbLine
 10
39.8519601205
 20
213.0938158679
 30
0.0
 11
34.8519601205
 21
213.0938158679
 31
0.0
  0
LINE
  5
132
330
120
100
AcDbEntity
  8
SLD-0
 62
     7
100
AcDbLine
 10
55.3519601205
 20
212.2899688679
 30
0.0
 11
52.3519601205
 21
213.0938158679
 31
0.0
  0
LINE
  5
133
330
120
100
AcDbEntity
  8
SLD-0
 62
     7
100
AcDbLine
 10
52.3519601205
 20
213.0938158679
 30
0.0
 11
55.3519601205
 21
213.8976628679
 31
0.0
  0
LINE
  5
134
330
120
100
AcDbEntity
  8
SLD-0
 62
     7
100
AcDbLine
 10
52.3519601205
 20
213.0938158679
 30
0.0
 11
55.3519601205
 21
213.0938158679
 31
0.0
  0
LINE
  5
135
330
120
100
AcDbEntity
  8
SLD-0
 62
     7
100
AcDbLine
 10
36.8519601205
 20
213.8976628679
 30
0.0
 11
39.8519601205
 21
213.0938158679
 31
0.0
  0
LINE
  5
136
330
120
100
AcDbEntity
  8
SLD-0
 62
     7
100
AcDbLine
 10
39.8519601205
 20
213.0938158679
 30
0.0
 11
36.8519601205
 21
212.2899688679
 31
0.0
  0
LINE
  5
137
330
120
100
AcDbEntity
  8
SLD-0
 62
     7
100
AcDbLine
 10
39.8519601205
 20
213.0938158679
 30
0.0
 11
36.8519601205
 21
213.0938158679
 31
0.0
  0
MTEXT
  5
138
330
120
100
AcDbEntity
  8
SLD-0
 62
     7
100
AcDbMText
 10
42.0299158788
 20
217.6205095638
 30
0.1
 40
3.5
 41
0.0
 71
     1
 72
     1
  1
12.5
  7
SLDTEXTSTYLE0
 73
     1
 44
1.0
  0
ENDBLK
  5
12B
330
120
100
AcDbEntity
  8
0
100
AcDbBlockEnd
  0
BLOCK
  5
144
330
13A
100
AcDbEntity
  8
0
100
AcDbBlockBegin
  2
*D7
 70
     1
 71
     0
 10
0.0
 20
0.0
 30
0.0
  3
*D7
  1

  0
LINE
  5
146
330
13A
100
AcDbEntity
  8
SLD-0
 62
     7
100
AcDbLine
 10
52.3519601205
 20
188.2401571909
 30
0.0
 11
52.3519601205
 21
214.0938158679
 31
0.0
  0
LINE
  5
147
330
13A
100
AcDbEntity
  8
SLD-0
 62
     7
100
AcDbLine
 10
70.8519601205
 20
188.2401571909
 30
0.0
 11
70.8519601205
 21
214.0938158679
 31
0.0
  0
LINE
  5
148
330
13A
100
AcDbEntity
  8
SLD-0
 62
     7
100
AcDbLine
 10
52.3519601205
 20
213.0938158679
 30
0.0
 11
70.8519601205
 21
213.0938158679
 31
0.0
  0
LINE
  5
149
330
13A
100
AcDbEntity
  8
SLD-0
 62
     7
100
AcDbLine
 10
55.3519601205
 20
212.2899688679
 30
0.0
 11
52.3519601205
 21
213.0938158679
 31
0.0
  0
LINE
  5
14A
330
13A
100
AcDbEntity
  8
SLD-0
 62
     7
100
AcDbLine
 10
52.3519601205
 20
213.0938158679
 30
0.0
 11
55.3519601205
 21
213.8976628679
 31
0.0
  0
LINE
  5
14B
330
13A
100
AcDbEntity
  8
SLD-0
 62
     7
100
AcDbLine
 10
52.3519601205
 20
213.0938158679
 30
0.0
 11
55.3519601205
 21
213.0938158679
 31
0.0
  0
LINE
  5
14C
330
13A
100
AcDbEntity
  8
SLD-0
 62
     7
100
AcDbLine
 10
67.8519601205
 20
213.8976628679
 30
0.0
 11
70.8519601205
 21
213.0938158679
 31
0.0
  0
LINE
  5
14D
330
13A
100
AcDbEntity
  8
SLD-0
 62
     7
100
AcDbLine
 10
70.8519601205
 20
213.0938158679
 30
0.0
 11
67.8519601205
 21
212.2899688679
 31
0.0
  0
LINE
  5
14E
330
13A
100
AcDbEntity
  8
SLD-0
 62
     7
100
AcDbLine
 10
70.8519601205
 20
213.0938158679
 30
0.0
 11
67.8519601205
 21
213.0938158679
 31
0.0
  0
MTEXT
  5
14F
330
13A
100
AcDbEntity
  8
SLD-0
 62
     7
100
AcDbMText
 10
57.5299158788
 20
217.6205095638
 30
0.1
 40
3.5
 41
0.0
 71
     1
 72
     1
  1
18.5
  7
SLDTEXTSTYLE0
 73
     1
 44
1.0
  0
ENDBLK
  5
145
330
13A
100
AcDbEntity
  8
0
100
AcDbBlockEnd
  0
BLOCK
  5
15D
330
151
100
AcDbEntity
  8
0
100
AcDbBlockBegin
  2
*D8
 70
     1
 71
     0
 10
0.0
 20
0.0
 30
0.0
  3
*D8
  1

  0
LINE
  5
15F
330
151
100
AcDbEntity
  8
SLD-0
 62
     7
100
AcDbLine
 10
63.6352119543
 20
178.2401571909
 30
0.0
 11
63.6352119543
 21
173.2401571909
 31
0.0
  0
LINE
  5
160
330
151
100
AcDbEntity
  8
SLD-0
 62
     7
100
AcDbLine
 10
63.6352119543
 20
178.2401571909
 30
0.0
 11
63.6352119543
 21
184.7401571909
 31
0.0
  0
LINE
  5
161
330
151
100
AcDbEntity
  8
SLD-0
 62
     7
100
AcDbLine
 10
63.6352119543
 20
184.7401571909
 30
0.0
 11
63.6352119543
 21
206.154071493
 31
0.0
  0
LINE
  5
162
330
151
100
AcDbEntity
  8
SLD-0
 62
     7
100
AcDbLine
 10
62.8313649543
 20
175.2401571909
 30
0.0
 11
63.6352119543
 21
178.2401571909
 31
0.0
  0
LINE
  5
163
330
151
100
AcDbEntity
  8
SLD-0
 62
     7
100
AcDbLine
 10
63.6352119543
 20
178.2401571909
 30
0.0
 11
64.4390589543
 21
175.2401571909
 31
0.0
  0
LINE
  5
164
330
151
100
AcDbEntity
  8
SLD-0
 62
     7
100
AcDbLine
 10
63.6352119543
 20
178.2401571909
 30
0.0
 11
63.6352119543
 21
175.2401571909
 31
0.0
  0
LINE
  5
165
330
151
100
AcDbEntity
  8
SLD-0
 62
     7
100
AcDbLine
 10
64.4390589543
 20
187.7401571909
 30
0.0
 11
63.6352119543
 21
184.7401571909
 31
0.0
  0
LINE
  5
166
330
151
100
AcDbEntity
  8
SLD-0
 62
     7
100
AcDbLine
 10
63.6352119543
 20
184.7401571909
 30
0.0
 11
62.8313649543
 21
187.7401571909
 31
0.0
  0
LINE
  5
167
330
151
100
AcDbEntity
  8
SLD-0
 62
     7
100
AcDbLine
 10
63.6352119543
 20
184.7401571909
 30
0.0
 11
63.6352119543
 21
187.7401571909
 31
0.0
  0
MTEXT
  5
168
330
151
100
AcDbEntity
  8
SLD-0
 62
     7
100
AcDbMText
 10
59.1085182583
 20
198.4595595179
 30
0.1
 40
3.5
 41
0.0
 71
     1
 72
     1
  1
6.5
  7
SLDTEXTSTYLE0
 11
6.123031769111886E-17
 21
1.0
 31
0.0
 73
     1
 44
1.0
  0
ENDBLK
  5
15E
330
151
100
AcDbEntity
  8
0
100
AcDbBlockEnd
  0
BLOCK
  5
175
330
16A
100
AcDbEntity
  8
0
100
AcDbBlockBegin
  2
*D9
 70
     1
 71
     0
 10
0.0
 20
0.0
 30
0.0
  3
*D9
  1

  0
LINE
  5
177
330
16A
100
AcDbEntity
  8
SLD-0
 62
     7
100
AcDbLine
 10
74.8519601205
 20
185.4901571909
 30
0.0
 11
26.4401976864
 21
185.4901571909
 31
0.0
  0
LINE
  5
178
330
16A
100
AcDbEntity
  8
SLD-0
 62
     7
100
AcDbLine
 10
74.8519601205
 20
157.4901571909
 30
0.0
 11
26.4401976864
 21
157.4901571909
 31
0.0
  0
LINE
  5
179
330
16A
100
AcDbEntity
  8
SLD-0
 62
     7
100
AcDbLine
 10
27.4401976864
 20
185.4901571909
 30
0.0
 11
27.4401976864
 21
157.4901571909
 31
0.0
  0
LINE
  5
17A
330
16A
100
AcDbEntity
  8
SLD-0
 62
     7
100
AcDbLine
 10
26.6363506864
 20
182.4901571909
 30
0.0
 11
27.4401976864
 21
185.4901571909
 31
0.0
  0
LINE
  5
17B
330
16A
100
AcDbEntity
  8
SLD-0
 62
     7
100
AcDbLine
 10
27.4401976864
 20
185.4901571909
 30
0.0
 11
28.2440446864
 21
182.4901571909
 31
0.0
  0
LINE
  5
17C
330
16A
100
AcDbEntity
  8
SLD-0
 62
     7
100
AcDbLine
 10
27.4401976864
 20
185.4901571909
 30
0.0
 11
27.4401976864
 21
182.4901571909
 31
0.0
  0
LINE
  5
17D
330
16A
100
AcDbEntity
  8
SLD-0
 62
     7
100
AcDbLine
 10
28.2440446864
 20
160.4901571909
 30
0.0
 11
27.4401976864
 21
157.4901571909
 31
0.0
  0
LINE
  5
17E
330
16A
100
AcDbEntity
  8
SLD-0
 62
     7
100
AcDbLine
 10
27.4401976864
 20
157.4901571909
 30
0.0
 11
26.6363506864
 21
160.4901571909
 31
0.0
  0
LINE
  5
17F
330
16A
100
AcDbEntity
  8
SLD-0
 62
     7
100
AcDbLine
 10
27.4401976864
 20
157.4901571909
 30
0.0
 11
27.4401976864
 21
160.4901571909
 31
0.0
  0
MTEXT
  5
180
330
16A
100
AcDbEntity
  8
SLD-0
 62
     7
100
AcDbMText
 10
22.9135039904
 20
169.4551894575
 30
0.1
 40
3.5
 41
0.0
 71
     1
 72
     1
  1
28
  7
SLDTEXTSTYLE0
 11
6.123031769111886E-17
 21
1.0
 31
0.0
 73
     1
 44
1.0
  0
ENDBLK
  5
176
330
16A
100
AcDbEntity
  8
0
100
AcDbBlockEnd
  0
BLOCK
  5
18D
330
182
100
AcDbEntity
  8
0
100
AcDbBlockBegin
  2
*D10
 70
     1
 71
     0
 10
0.0
 20
0.0
 30
0.0
  3
*D10
  1

  0
LINE
  5
18F
330
182
100
AcDbEntity
  8
SLD-0
 62
     7
100
AcDbLine
 10
120.8519601205
 20
183.4901571909
 30
0.0
 11
183.8521884592
 21
183.4901571909
 31
0.0
  0
LINE
  5
190
330
182
100
AcDbEntity
  8
SLD-0
 62
     7
100
AcDbLine
 10
120.8519601205
 20
159.4901571909
 30
0.0
 11
183.8521884592
 21
159.4901571909
 31
0.0
  0
LINE
  5
191
330
182
100
AcDbEntity
  8
SLD-0
 62
     7
100
AcDbLine
 10
182.8521884592
 20
183.4901571909
 30
0.0
 11
182.8521884592
 21
159.4901571909
 31
0.0
  0
LINE
  5
192
330
182
100
AcDbEntity
  8
SLD-0
 62
     7
100
AcDbLine
 10
182.0483414592
 20
180.4901571909
 30
0.0
 11
182.8521884592
 21
183.4901571909
 31
0.0
  0
LINE
  5
193
330
182
100
AcDbEntity
  8
SLD-0
 62
     7
100
AcDbLine
 10
182.8521884592
 20
183.4901571909
 30
0.0
 11
183.6560354592
 21
180.4901571909
 31
0.0
  0
LINE
  5
194
330
182
100
AcDbEntity
  8
SLD-0
 62
     7
100
AcDbLine
 10
182.8521884592
 20
183.4901571909
 30
0.0
 11
182.8521884592
 21
180.4901571909
 31
0.0
  0
LINE
  5
195
330
182
100
AcDbEntity
  8
SLD-0
 62
     7
100
AcDbLine
 10
183.6560354592
 20
162.4901571909
 30
0.0
 11
182.8521884592
 21
159.4901571909
 31
0.0
  0
LINE
  5
196
330
182
100
AcDbEntity
  8
SLD-0
 62
     7
100
AcDbLine
 10
182.8521884592
 20
159.4901571909
 30
0.0
 11
182.0483414592
 21
162.4901571909
 31
0.0
  0
LINE
  5
197
330
182
100
AcDbEntity
  8
SLD-0
 62
     7
100
AcDbLine
 10
182.8521884592
 20
159.4901571909
 30
0.0
 11
182.8521884592
 21
162.4901571909
 31
0.0
  0
MTEXT
  5
198
330
182
100
AcDbEntity
  8
SLD-0
 62
     7
100
AcDbMText
 10
178.3254947632
 20
169.4551894575
 30
0.1
 40
3.5
 41
0.0
 71
     1
 72
     1
  1
24
  7
SLDTEXTSTYLE0
 11
6.123031769111886E-17
 21
1.0
 31
0.0
 73
     1
 44
1.0
  0
ENDBLK
  5
18E
330
182
100
AcDbEntity
  8
0
100
AcDbBlockEnd
  0
BLOCK
  5
1A5
330
19A
100
AcDbEntity
  8
0
100
AcDbBlockBegin
  2
*D11
 70
     1
 71
     0
 10
0.0
 20
0.0
 30
0.0
  3
*D11
  1

  0
LINE
  5
1A7
330
19A
100
AcDbEntity
  8
SLD-0
 62
     7
100
AcDbLine
 10
146.8519601205
 20
189.4901571909
 30
0.0
 11
140.158992384
 21
189.4901571909
 31
0.0
  0
LINE
  5
1A8
330
19A
100
AcDbEntity
  8
SLD-0
 62
     7
100
AcDbLine
 10
146.8519601205
 20
153.4901571909
 30
0.0
 11
140.158992384
 21
153.4901571909
 31
0.0
  0
LINE
  5
1A9
330
19A
100
AcDbEntity
  8
SLD-0
 62
     7
100
AcDbLine
 10
141.158992384
 20
189.4901571909
 30
0.0
 11
141.158992384
 21
153.4901571909
 31
0.0
  0
LINE
  5
1AA
330
19A
100
AcDbEntity
  8
SLD-0
 62
     7
100
AcDbLine
 10
140.355145384
 20
186.4901571909
 30
0.0
 11
141.158992384
 21
189.4901571909
 31
0.0
  0
LINE
  5
1AB
330
19A
100
AcDbEntity
  8
SLD-0
 62
     7
100
AcDbLine
 10
141.158992384
 20
189.4901571909
 30
0.0
 11
141.962839384
 21
186.4901571909
 31
0.0
  0
LINE
  5
1AC
330
19A
100
AcDbEntity
  8
SLD-0
 62
     7
100
AcDbLine
 10
141.158992384
 20
189.4901571909
 30
0.0
 11
141.158992384
 21
186.4901571909
 31
0.0
  0
LINE
  5
1AD
330
19A
100
AcDbEntity
  8
SLD-0
 62
     7
100
AcDbLine
 10
141.962839384
 20
156.4901571909
 30
0.0
 11
141.158992384
 21
153.4901571909
 31
0.0
  0
LINE
  5
1AE
330
19A
100
AcDbEntity
  8
SLD-0
 62
     7
100
AcDbLine
 10
141.158992384
 20
153.4901571909
 30
0.0
 11
140.355145384
 21
156.4901571909
 31
0.0
  0
LINE
  5
1AF
330
19A
100
AcDbEntity
  8
SLD-0
 62
     7
100
AcDbLine
 10
141.158992384
 20
153.4901571909
 30
0.0
 11
141.158992384
 21
156.4901571909
 31
0.0
  0
MTEXT
  5
1B0
330
19A
100
AcDbEntity
  8
SLD-0
 62
     7
100
AcDbMText
 10
136.6322986881
 20
169.4551894575
 30
0.1
 40
3.5
 41
0.0
 71
     1
 72
     1
  1
36
  7
SLDTEXTSTYLE0
 11
6.123031769111886E-17
 21
1.0
 31
0.0
 73
     1
 44
1.0
  0
ENDBLK
  5
1A6
330
19A
100
AcDbEntity
  8
0
100
AcDbBlockEnd
  0
BLOCK
  5
1BC
330
1B2
100
AcDbEntity
  8
0
100
AcDbBlockBegin
  2
*D12
 70
     1
 71
     0
 10
0.0
 20
0.0
 30
0.0
  3
*D12
  1

  0
LINE
  5
1BE
330
1B2
100
AcDbEntity
  8
SLD-0
 62
     7
100
AcDbLine
 10
80.8519601205
 20
151.4901571909
 30
0.0
 11
80.8519601205
 21
120.7995808039
 31
0.0
  0
LINE
  5
1BF
330
1B2
100
AcDbEntity
  8
SLD-0
 62
     7
100
AcDbLine
 10
39.8519601205
 20
152.4901571909
 30
0.0
 11
39.8519601205
 21
120.7995808039
 31
0.0
  0
LINE
  5
1C0
330
1B2
100
AcDbEntity
  8
SLD-0
 62
     7
100
AcDbLine
 10
80.8519601205
 20
121.7995808039
 30
0.0
 11
39.8519601205
 21
121.7995808039
 31
0.0
  0
LINE
  5
1C1
330
1B2
100
AcDbEntity
  8
SLD-0
 62
     7
100
AcDbLine
 10
77.8519601205
 20
122.6034278039
 30
0.0
 11
80.8519601205
 21
121.7995808039
 31
0.0
  0
LINE
  5
1C2
330
1B2
100
AcDbEntity
  8
SLD-0
 62
     7
100
AcDbLine
 10
80.8519601205
 20
121.7995808039
 30
0.0
 11
77.8519601205
 21
120.9957338039
 31
0.0
  0
LINE
  5
1C3
330
1B2
100
AcDbEntity
  8
SLD-0
 62
     7
100
AcDbLine
 10
80.8519601205
 20
121.7995808039
 30
0.0
 11
77.8519601205
 21
121.7995808039
 31
0.0
  0
LINE
  5
1C4
330
1B2
100
AcDbEntity
  8
SLD-0
 62
     7
100
AcDbLine
 10
42.8519601205
 20
120.9957338039
 30
0.0
 11
39.8519601205
 21
121.7995808039
 31
0.0
  0
LINE
  5
1C5
330
1B2
100
AcDbEntity
  8
SLD-0
 62
     7
100
AcDbLine
 10
39.8519601205
 20
121.7995808039
 30
0.0
 11
42.8519601205
 21
122.6034278039
 31
0.0
  0
LINE
  5
1C6
330
1B2
100
AcDbEntity
  8
SLD-0
 62
     7
100
AcDbLine
 10
39.8519601205
 20
121.7995808039
 30
0.0
 11
42.8519601205
 21
121.7995808039
 31
0.0
  0
MTEXT
  5
1C7
330
1B2
100
AcDbEntity
  8
SLD-0
 62
     7
100
AcDbMText
 10
58.3169923871
 20
126.3262744999
 30
0.1
 40
3.5
 41
0.0
 71
     1
 72
     1
  1
41
  7
SLDTEXTSTYLE0
 73
     1
 44
1.0
  0
ENDBLK
  5
1BD
330
1B2
100
AcDbEntity
  8
0
100
AcDbBlockEnd
  0
BLOCK
  5
1D3
330
1C9
100
AcDbEntity
  8
0
100
AcDbBlockBegin
  2
*D13
 70
     1
 71
     0
 10
0.0
 20
0.0
 30
0.0
  3
*D13
  1

  0
LINE
  5
1D5
330
1C9
100
AcDbEntity
  8
SLD-0
 62
     7
100
AcDbLine
 10
105.8519601205
 20
155.4901571909
 30
0.0
 11
105.8519601205
 21
127.1530179278
 31
0.0
  0
LINE
  5
1D6
330
1C9
100
AcDbEntity
  8
SLD-0
 62
     7
100
AcDbLine
 10
39.8519601205
 20
152.4901571909
 30
0.0
 11
39.8519601205
 21
127.1530179278
 31
0.0
  0
LINE
  5
1D7
330
1C9
100
AcDbEntity
  8
SLD-0
 62
     7
100
AcDbLine
 10
105.8519601205
 20
128.1530179278
 30
0.0
 11
39.8519601205
 21
128.1530179278
 31
0.0
  0
LINE
  5
1D8
330
1C9
100
AcDbEntity
  8
SLD-0
 62
     7
100
AcDbLine
 10
102.8519601205
 20
128.9568649278
 30
0.0
 11
105.8519601205
 21
128.1530179278
 31
0.0
  0
LINE
  5
1D9
330
1C9
100
AcDbEntity
  8
SLD-0
 62
     7
100
AcDbLine
 10
105.8519601205
 20
128.1530179278
 30
0.0
 11
102.8519601205
 21
127.3491709278
 31
0.0
  0
LINE
  5
1DA
330
1C9
100
AcDbEntity
  8
SLD-0
 62
     7
100
AcDbLine
 10
105.8519601205
 20
128.1530179278
 30
0.0
 11
102.8519601205
 21
128.1530179278
 31
0.0
  0
LINE
  5
1DB
330
1C9
100
AcDbEntity
  8
SLD-0
 62
     7
100
AcDbLine
 10
42.8519601205
 20
127.3491709278
 30
0.0
 11
39.8519601205
 21
128.1530179278
 31
0.0
  0
LINE
  5
1DC
330
1C9
100
AcDbEntity
  8
SLD-0
 62
     7
100
AcDbLine
 10
39.8519601205
 20
128.1530179278
 30
0.0
 11
42.8519601205
 21
128.9568649278
 31
0.0
  0
LINE
  5
1DD
330
1C9
100
AcDbEntity
  8
SLD-0
 62
     7
100
AcDbLine
 10
39.8519601205
 20
128.1530179278
 30
0.0
 11
42.8519601205
 21
128.1530179278
 31
0.0
  0
MTEXT
  5
1DE
330
1C9
100
AcDbEntity
  8
SLD-0
 62
     7
100
AcDbMText
 10
70.8169923871
 20
132.6797116238
 30
0.1
 40
3.5
 41
0.0
 71
     1
 72
     1
  1
66
  7
SLDTEXTSTYLE0
 73
     1
 44
1.0
  0
ENDBLK
  5
1D4
330
1C9
100
AcDbEntity
  8
0
100
AcDbBlockEnd
  0
BLOCK
  5
1EA
330
1E0
100
AcDbEntity
  8
0
100
AcDbBlockBegin
  2
*D14
 70
     1
 71
     0
 10
0.0
 20
0.0
 30
0.0
  3
*D14
  1

  0
LINE
  5
1EC
330
1E0
100
AcDbEntity
  8
SLD-0
 62
     7
100
AcDbLine
 10
114.8519601205
 20
153.4901571909
 30
0.0
 11
114.8519601205
 21
113.7164155642
 31
0.0
  0
LINE
  5
1ED
330
1E0
100
AcDbEntity
  8
SLD-0
 62
     7
100
AcDbLine
 10
39.8519601205
 20
152.4901571909
 30
0.0
 11
39.8519601205
 21
113.7164155642
 31
0.0
  0
LINE
  5
1EE
330
1E0
100
AcDbEntity
  8
SLD-0
 62
     7
100
AcDbLine
 10
114.8519601205
 20
114.7164155642
 30
0.0
 11
39.8519601205
 21
114.7164155642
 31
0.0
  0
LINE
  5
1EF
330
1E0
100
AcDbEntity
  8
SLD-0
 62
     7
100
AcDbLine
 10
111.8519601205
 20
115.5202625642
 30
0.0
 11
114.8519601205
 21
114.7164155642
 31
0.0
  0
LINE
  5
1F0
330
1E0
100
AcDbEntity
  8
SLD-0
 62
     7
100
AcDbLine
 10
114.8519601205
 20
114.7164155642
 30
0.0
 11
111.8519601205
 21
113.9125685642
 31
0.0
  0
LINE
  5
1F1
330
1E0
100
AcDbEntity
  8
SLD-0
 62
     7
100
AcDbLine
 10
114.8519601205
 20
114.7164155642
 30
0.0
 11
111.8519601205
 21
114.7164155642
 31
0.0
  0
LINE
  5
1F2
330
1E0
100
AcDbEntity
  8
SLD-0
 62
     7
100
AcDbLine
 10
42.8519601205
 20
113.9125685642
 30
0.0
 11
39.8519601205
 21
114.7164155642
 31
0.0
  0
LINE
  5
1F3
330
1E0
100
AcDbEntity
  8
SLD-0
 62
     7
100
AcDbLine
 10
39.8519601205
 20
114.7164155642
 30
0.0
 11
42.8519601205
 21
115.5202625642
 31
0.0
  0
LINE
  5
1F4
330
1E0
100
AcDbEntity
  8
SLD-0
 62
     7
100
AcDbLine
 10
39.8519601205
 20
114.7164155642
 30
0.0
 11
42.8519601205
 21
114.7164155642
 31
0.0
  0
MTEXT
  5
1F5
330
1E0
100
AcDbEntity
  8
SLD-0
 62
     7
100
AcDbMText
 10
75.3169923871
 20
119.2431092602
 30
0.1
 40
3.5
 41
0.0
 71
     1
 72
     1
  1
75
  7
SLDTEXTSTYLE0
 73
     1
 44
1.0
  0
ENDBLK
  5
1EB
330
1E0
100
AcDbEntity
  8
0
100
AcDbBlockEnd
  0
BLOCK
  5
201
330
1F7
100
AcDbEntity
  8
0
100
AcDbBlockBegin
  2
*D15
 70
     1
 71
     0
 10
0.0
 20
0.0
 30
0.0
  3
*D15
  1

  0
LINE
  5
203
330
1F7
100
AcDbEntity
  8
SLD-0
 62
     7
100
AcDbLine
 10
150.8519601205
 20
155.4901571909
 30
0.0
 11
150.8519601205
 21
127.1530179278
 31
0.0
  0
LINE
  5
204
330
1F7
100
AcDbEntity
  8
SLD-0
 62
     7
100
AcDbLine
 10
105.8519601205
 20
155.4901571909
 30
0.0
 11
105.8519601205
 21
127.1530179278
 31
0.0
  0
LINE
  5
205
330
1F7
100
AcDbEntity
  8
SLD-0
 62
     7
100
AcDbLine
 10
150.8519601205
 20
128.1530179278
 30
0.0
 11
105.8519601205
 21
128.1530179278
 31
0.0
  0
LINE
  5
206
330
1F7
100
AcDbEntity
  8
SLD-0
 62
     7
100
AcDbLine
 10
147.8519601205
 20
128.9568649278
 30
0.0
 11
150.8519601205
 21
128.1530179278
 31
0.0
  0
LINE
  5
207
330
1F7
100
AcDbEntity
  8
SLD-0
 62
     7
100
AcDbLine
 10
150.8519601205
 20
128.1530179278
 30
0.0
 11
147.8519601205
 21
127.3491709278
 31
0.0
  0
LINE
  5
208
330
1F7
100
AcDbEntity
  8
SLD-0
 62
     7
100
AcDbLine
 10
150.8519601205
 20
128.1530179278
 30
0.0
 11
147.8519601205
 21
128.1530179278
 31
0.0
  0
LINE
  5
209
330
1F7
100
AcDbEntity
  8
SLD-0
 62
     7
100
AcDbLine
 10
108.8519601205
 20
127.3491709278
 30
0.0
 11
105.8519601205
 21
128.1530179278
 31
0.0
  0
LINE
  5
20A
330
1F7
100
AcDbEntity
  8
SLD-0
 62
     7
100
AcDbLine
 10
105.8519601205
 20
128.1530179278
 30
0.0
 11
108.8519601205
 21
128.9568649278
 31
0.0
  0
LINE
  5
20B
330
1F7
100
AcDbEntity
  8
SLD-0
 62
     7
100
AcDbLine
 10
105.8519601205
 20
128.1530179278
 30
0.0
 11
108.8519601205
 21
128.1530179278
 31
0.0
  0
MTEXT
  5
20C
330
1F7
100
AcDbEntity
  8
SLD-0
 62
     7
100
AcDbMText
 10
126.3169923871
 20
132.6797116238
 30
0.1
 40
3.5
 41
0.0
 71
     1
 72
     1
  1
45
  7
SLDTEXTSTYLE0
 73
     1
 44
1.0
  0
ENDBLK
  5
202
330
1F7
100
AcDbEntity
  8
0
100
AcDbBlockEnd
  0
BLOCK
  5
218
330
20E
100
AcDbEntity
  8
0
100
AcDbBlockBegin
  2
*D16
 70
     1
 71
     0
 10
0.0
 20
0.0
 30
0.0
  3
*D16
  1

  0
LINE
  5
21A
330
20E
100
AcDbEntity
  8
SLD-0
 62
     7
100
AcDbLine
 10
160.8519601205
 20
151.4901571909
 30
0.0
 11
160.8519601205
 21
120.7995808039
 31
0.0
  0
LINE
  5
21B
330
20E
100
AcDbEntity
  8
SLD-0
 62
     7
100
AcDbLine
 10
80.8519601205
 20
151.4901571909
 30
0.0
 11
80.8519601205
 21
120.7995808039
 31
0.0
  0
LINE
  5
21C
330
20E
100
AcDbEntity
  8
SLD-0
 62
     7
100
AcDbLine
 10
160.8519601205
 20
121.7995808039
 30
0.0
 11
80.8519601205
 21
121.7995808039
 31
0.0
  0
LINE
  5
21D
330
20E
100
AcDbEntity
  8
SLD-0
 62
     7
100
AcDbLine
 10
157.8519601205
 20
122.6034278039
 30
0.0
 11
160.8519601205
 21
121.7995808039
 31
0.0
  0
LINE
  5
21E
330
20E
100
AcDbEntity
  8
SLD-0
 62
     7
100
AcDbLine
 10
160.8519601205
 20
121.7995808039
 30
0.0
 11
157.8519601205
 21
120.9957338039
 31
0.0
  0
LINE
  5
21F
330
20E
100
AcDbEntity
  8
SLD-0
 62
     7
100
AcDbLine
 10
160.8519601205
 20
121.7995808039
 30
0.0
 11
157.8519601205
 21
121.7995808039
 31
0.0
  0
LINE
  5
220
330
20E
100
AcDbEntity
  8
SLD-0
 62
     7
100
AcDbLine
 10
83.8519601205
 20
120.9957338039
 30
0.0
 11
80.8519601205
 21
121.7995808039
 31
0.0
  0
LINE
  5
221
330
20E
100
AcDbEntity
  8
SLD-0
 62
     7
100
AcDbLine
 10
80.8519601205
 20
121.7995808039
 30
0.0
 11
83.8519601205
 21
122.6034278039
 31
0.0
  0
LINE
  5
222
330
20E
100
AcDbEntity
  8
SLD-0
 62
     7
100
AcDbLine
 10
80.8519601205
 20
121.7995808039
 30
0.0
 11
83.8519601205
 21
121.7995808039
 31
0.0
  0
MTEXT
  5
223
330
20E
100
AcDbEntity
  8
SLD-0
 62
     7
100
AcDbMText
 10
118.8169923871
 20
126.3262744999
 30
0.1
 40
3.5
 41
0.0
 71
     1
 72
     1
  1
80
  7
SLDTEXTSTYLE0
 73
     1
 44
1.0
  0
ENDBLK
  5
219
330
20E
100
AcDbEntity
  8
0
100
AcDbBlockEnd
  0
BLOCK
  5
22F
330
225
100
AcDbEntity
  8
0
100
AcDbBlockBegin
  2
*D17
 70
     1
 71
     0
 10
0.0
 20
0.0
 30
0.0
  3
*D17
  1

  0
LINE
  5
231
330
225
100
AcDbEntity
  8
SLD-0
 62
     7
100
AcDbLine
 10
114.8519601205
 20
153.4901571909
 30
0.0
 11
114.8519601205
 21
113.7164155642
 31
0.0
  0
LINE
  5
232
330
225
100
AcDbEntity
  8
SLD-0
 62
     7
100
AcDbLine
 10
167.8519601205
 20
153.4901571909
 30
0.0
 11
167.8519601205
 21
113.7164155642
 31
0.0
  0
LINE
  5
233
330
225
100
AcDbEntity
  8
SLD-0
 62
     7
100
AcDbLine
 10
114.8519601205
 20
114.7164155642
 30
0.0
 11
167.8519601205
 21
114.7164155642
 31
0.0
  0
LINE
  5
234
330
225
100
AcDbEntity
  8
SLD-0
 62
     7
100
AcDbLine
 10
117.8519601205
 20
113.9125685642
 30
0.0
 11
114.8519601205
 21
114.7164155642
 31
0.0
  0
LINE
  5
235
330
225
100
AcDbEntity
  8
SLD-0
 62
     7
100
AcDbLine
 10
114.8519601205
 20
114.7164155642
 30
0.0
 11
117.8519601205
 21
115.5202625642
 31
0.0
  0
LINE
  5
236
330
225
100
AcDbEntity
  8
SLD-0
 62
     7
100
AcDbLine
 10
114.8519601205
 20
114.7164155642
 30
0.0
 11
117.8519601205
 21
114.7164155642
 31
0.0
  0
LINE
  5
237
330
225
100
AcDbEntity
  8
SLD-0
 62
     7
100
AcDbLine
 10
164.8519601205
 20
115.5202625642
 30
0.0
 11
167.8519601205
 21
114.7164155642
 31
0.0
  0
LINE
  5
238
330
225
100
AcDbEntity
  8
SLD-0
 62
     7
100
AcDbLine
 10
167.8519601205
 20
114.7164155642
 30
0.0
 11
164.8519601205
 21
113.9125685642
 31
0.0
  0
LINE
  5
239
330
225
100
AcDbEntity
  8
SLD-0
 62
     7
100
AcDbLine
 10
167.8519601205
 20
114.7164155642
 30
0.0
 11
164.8519601205
 21
114.7164155642
 31
0.0
  0
MTEXT
  5
23A
330
225
100
AcDbEntity
  8
SLD-0
 62
     7
100
AcDbMText
 10
139.3169923871
 20
119.2431092602
 30
0.1
 40
3.5
 41
0.0
 71
     1
 72
     1
  1
53
  7
SLDTEXTSTYLE0
 73
     1
 44
1.0
  0
ENDBLK
  5
230
330
225
100
AcDbEntity
  8
0
100
AcDbBlockEnd
  0
BLOCK
  5
247
330
23C
100
AcDbEntity
  8
0
100
AcDbBlockBegin
  2
*D18
 70
     1
 71
     0
 10
0.0
 20
0.0
 30
0.0
  3
*D18
  1

  0
LINE
  5
249
330
23C
100
AcDbEntity
  8
SLD-0
 62
     7
100
AcDbLine
 10
168.8519601205
 20
148.4901571909
 30
0.0
 11
183.8521884592
 21
148.4901571909
 31
0.0
  0
LINE
  5
24A
330
23C
100
AcDbEntity
  8
SLD-0
 62
     7
100
AcDbLine
 10
173.8519601205
 20
159.4901571909
 30
0.0
 11
183.8521884592
 21
159.4901571909
 31
0.0
  0
LINE
  5
24B
330
23C
100
AcDbEntity
  8
SLD-0
 62
     7
100
AcDbLine
 10
182.8521884592
 20
148.4901571909
 30
0.0
 11
182.8521884592
 21
143.4901571909
 31
0.0
  0
LINE
  5
24C
330
23C
100
AcDbEntity
  8
SLD-0
 62
     7
100
AcDbLine
 10
182.8521884592
 20
148.4901571909
 30
0.0
 11
182.8521884592
 21
159.4901571909
 31
0.0
  0
LINE
  5
24D
330
23C
100
AcDbEntity
  8
SLD-0
 62
     7
100
AcDbLine
 10
182.8521884592
 20
159.4901571909
 30
0.0
 11
182.8521884592
 21
164.4901571909
 31
0.0
  0
LINE
  5
24E
330
23C
100
AcDbEntity
  8
SLD-0
 62
     7
100
AcDbLine
 10
182.0483414592
 20
145.4901571909
 30
0.0
 11
182.8521884592
 21
148.4901571909
 31
0.0
  0
LINE
  5
24F
330
23C
100
AcDbEntity
  8
SLD-0
 62
     7
100
AcDbLine
 10
182.8521884592
 20
148.4901571909
 30
0.0
 11
183.6560354592
 21
145.4901571909
 31
0.0
  0
LINE
  5
250
330
23C
100
AcDbEntity
  8
SLD-0
 62
     7
100
AcDbLine
 10
182.8521884592
 20
148.4901571909
 30
0.0
 11
182.8521884592
 21
145.4901571909
 31
0.0
  0
LINE
  5
251
330
23C
100
AcDbEntity
  8
SLD-0
 62
     7
100
AcDbLine
 10
183.6560354592
 20
162.4901571909
 30
0.0
 11
182.8521884592
 21
159.4901571909
 31
0.0
  0
LINE
  5
252
330
23C
100
AcDbEntity
  8
SLD-0
 62
     7
100
AcDbLine
 10
182.8521884592
 20
159.4901571909
 30
0.0
 11
182.0483414592
 21
162.4901571909
 31
0.0
  0
LINE
  5
253
330
23C
100
AcDbEntity
  8
SLD-0
 62
     7
100
AcDbLine
 10
182.8521884592
 20
159.4901571909
 30
0.0
 11
182.8521884592
 21
162.4901571909
 31
0.0
  0
MTEXT
  5
254
330
23C
100
AcDbEntity
  8
SLD-0
 62
     7
100
AcDbMText
 10
178.3254947632
 20
151.9551894575
 30
0.1
 40
3.5
 41
0.0
 71
     1
 72
     1
  1
11
  7
SLDTEXTSTYLE0
 11
6.123031769111886E-17
 21
1.0
 31
0.0
 73
     1
 44
1.0
  0
ENDBLK
  5
248
330
23C
100
AcDbEntity
  8
0
100
AcDbBlockEnd
  0
BLOCK
  5
262
330
256
100
AcDbEntity
  8
0
100
AcDbBlockBegin
  2
*D19
 70
     1
 71
     0
 10
0.0
 20
0.0
 30
0.0
  3
*D19
  1

  0
LINE
  5
264
330
256
100
AcDbEntity
  8
SLD-0
 62
     7
100
AcDbLine
 10
146.8519601205
 20
153.4901571909
 30
0.0
 11
140.158992384
 21
153.4901571909
 31
0.0
  0
LINE
  5
265
330
256
100
AcDbEntity
  8
SLD-0
 62
     7
100
AcDbLine
 10
141.158992384
 20
148.4901571909
 30
0.0
 11
141.158992384
 21
135.9177478799
 31
0.0
  0
LINE
  5
266
330
256
100
AcDbEntity
  8
SLD-0
 62
     7
100
AcDbLine
 10
141.158992384
 20
148.4901571909
 30
0.0
 11
141.158992384
 21
153.4901571909
 31
0.0
  0
LINE
  5
267
330
256
100
AcDbEntity
  8
SLD-0
 62
     7
100
AcDbLine
 10
141.158992384
 20
153.4901571909
 30
0.0
 11
141.158992384
 21
158.4901571909
 31
0.0
  0
LINE
  5
268
330
256
100
AcDbEntity
  8
SLD-0
 62
     7
100
AcDbLine
 10
140.355145384
 20
145.4901571909
 30
0.0
 11
141.158992384
 21
148.4901571909
 31
0.0
  0
LINE
  5
269
330
256
100
AcDbEntity
  8
SLD-0
 62
     7
100
AcDbLine
 10
141.158992384
 20
148.4901571909
 30
0.0
 11
141.962839384
 21
145.4901571909
 31
0.0
  0
LINE
  5
26A
330
256
100
AcDbEntity
  8
SLD-0
 62
     7
100
AcDbLine
 10
141.158992384
 20
148.4901571909
 30
0.0
 11
141.158992384
 21
145.4901571909
 31
0.0
  0
LINE
  5
26B
330
256
100
AcDbEntity
  8
SLD-0
 62
     7
100
AcDbLine
 10
141.962839384
 20
156.4901571909
 30
0.0
 11
141.158992384
 21
153.4901571909
 31
0.0
  0
LINE
  5
26C
330
256
100
AcDbEntity
  8
SLD-0
 62
     7
100
AcDbLine
 10
141.158992384
 20
153.4901571909
 30
0.0
 11
140.355145384
 21
156.4901571909
 31
0.0
  0
LINE
  5
26D
330
256
100
AcDbEntity
  8
SLD-0
 62
     7
100
AcDbLine
 10
141.158992384
 20
153.4901571909
 30
0.0
 11
141.158992384
 21
156.4901571909
 31
0.0
  0
MTEXT
  5
26E
330
256
100
AcDbEntity
  8
SLD-0
 62
     7
100
AcDbMText
 10
136.6322986881
 20
137.5052478799
 30
0.1
 40
3.5
 41
0.0
 71
     1
 72
     1
  1
5
  7
SLDTEXTSTYLE0
 11
6.123031769111886E-17
 21
1.0
 31
0.0
 73
     1
 44
1.0
  0
ENDBLK
  5
263
330
256
100
AcDbEntity
  8
0
100
AcDbBlockEnd
  0
BLOCK
  5
27A
330
270
100
AcDbEntity
  8
0
100
AcDbBlockBegin
  2
*D20
 70
     1
 71
     0
 10
0.0
 20
0.0
 30
0.0
  3
*D20
  1

  0
LINE
  5
27C
330
270
100
AcDbEntity
  8
SLD-0
 62
     7
100
AcDbLine
 10
152.8519601205
 20
195.4901571909
 30
0.0
 11
152.8519601205
 21
220.8258047162
 31
0.0
  0
LINE
  5
27D
330
270
100
AcDbEntity
  8
SLD-0
 62
     7
100
AcDbLine
 10
39.8519601205
 20
190.4901571909
 30
0.0
 11
39.8519601205
 21
220.8258047162
 31
0.0
  0
LINE
  5
27E
330
270
100
AcDbEntity
  8
SLD-0
 62
     7
100
AcDbLine
 10
152.8519601205
 20
219.8258047162
 30
0.0
 11
39.8519601205
 21
219.8258047162
 31
0.0
  0
LINE
  5
27F
330
270
100
AcDbEntity
  8
SLD-0
 62
     7
100
AcDbLine
 10
149.8519601205
 20
220.6296517162
 30
0.0
 11
152.8519601205
 21
219.8258047162
 31
0.0
  0
LINE
  5
280
330
270
100
AcDbEntity
  8
SLD-0
 62
     7
100
AcDbLine
 10
152.8519601205
 20
219.8258047162
 30
0.0
 11
149.8519601205
 21
219.0219577162
 31
0.0
  0
LINE
  5
281
330
270
100
AcDbEntity
  8
SLD-0
 62
     7
100
AcDbLine
 10
152.8519601205
 20
219.8258047162
 30
0.0
 11
149.8519601205
 21
219.8258047162
 31
0.0
  0
LINE
  5
282
330
270
100
AcDbEntity
  8
SLD-0
 62
     7
100
AcDbLine
 10
42.8519601205
 20
219.0219577162
 30
0.0
 11
39.8519601205
 21
219.8258047162
 31
0.0
  0
LINE
  5
283
330
270
100
AcDbEntity
  8
SLD-0
 62
     7
100
AcDbLine
 10
39.8519601205
 20
219.8258047162
 30
0.0
 11
42.8519601205
 21
220.6296517162
 31
0.0
  0
LINE
  5
284
330
270
100
AcDbEntity
  8
SLD-0
 62
     7
100
AcDbLine
 10
39.8519601205
 20
219.8258047162
 30
0.0
 11
42.8519601205
 21
219.8258047162
 31
0.0
  0
MTEXT
  5
285
330
270
100
AcDbEntity
  8
SLD-0
 62
     7
100
AcDbMText
 10
93.298454133
 20
224.3524984121
 30
0.1
 40
3.5
 41
0.0
 71
     1
 72
     1
  1
113
  7
SLDTEXTSTYLE0
 73
     1
 44
1.0
  0
ENDBLK
  5
27B
330
270
100
AcDbEntity
  8
0
100
AcDbBlockEnd
  0
BLOCK
  5
292
330
287
100
AcDbEntity
  8
0
100
AcDbBlockBegin
  2
*D21
 70
     1
 71
     0
 10
0.0
 20
0.0
 30
0.0
  3
*D21
  1

  0
LINE
  5
294
330
287
100
AcDbEntity
  8
SLD-0
 62
     7
100
AcDbLine
 10
45.6019601205
 20
181.4901571909
 30
0.0
 11
34.5650118136
 21
181.4901571909
 31
0.0
  0
LINE
  5
295
330
287
100
AcDbEntity
  8
SLD-0
 62
     7
100
AcDbLine
 10
45.6019601205
 20
161.4901571909
 30
0.0
 11
34.5650118136
 21
161.4901571909
 31
0.0
  0
LINE
  5
296
330
287
100
AcDbEntity
  8
SLD-0
 62
     7
100
AcDbLine
 10
35.5650118136
 20
181.4901571909
 30
0.0
 11
35.5650118136
 21
161.4901571909
 31
0.0
  0
LINE
  5
297
330
287
100
AcDbEntity
  8
SLD-0
 62
     7
100
AcDbLine
 10
34.7611648136
 20
178.4901571909
 30
0.0
 11
35.5650118136
 21
181.4901571909
 31
0.0
  0
LINE
  5
298
330
287
100
AcDbEntity
  8
SLD-0
 62
     7
100
AcDbLine
 10
35.5650118136
 20
181.4901571909
 30
0.0
 11
36.3688588136
 21
178.4901571909
 31
0.0
  0
LINE
  5
299
330
287
100
AcDbEntity
  8
SLD-0
 62
     7
100
AcDbLine
 10
35.5650118136
 20
181.4901571909
 30
0.0
 11
35.5650118136
 21
178.4901571909
 31
0.0
  0
LINE
  5
29A
330
287
100
AcDbEntity
  8
SLD-0
 62
     7
100
AcDbLine
 10
36.3688588136
 20
164.4901571909
 30
0.0
 11
35.5650118136
 21
161.4901571909
 31
0.0
  0
LINE
  5
29B
330
287
100
AcDbEntity
  8
SLD-0
 62
     7
100
AcDbLine
 10
35.5650118136
 20
161.4901571909
 30
0.0
 11
34.7611648136
 21
164.4901571909
 31
0.0
  0
LINE
  5
29C
330
287
100
AcDbEntity
  8
SLD-0
 62
     7
100
AcDbLine
 10
35.5650118136
 20
161.4901571909
 30
0.0
 11
35.5650118136
 21
164.4901571909
 31
0.0
  0
MTEXT
  5
29D
330
287
100
AcDbEntity
  8
SLD-0
 62
     7
100
AcDbMText
 10
31.0383181177
 20
169.4551894575
 30
0.1
 40
3.5
 41
0.0
 71
     1
 72
     1
  1
20
  7
SLDTEXTSTYLE0
 11
6.123031769111886E-17
 21
1.0
 31
0.0
 73
     1
 44
1.0
  0
ENDBLK
  5
293
330
287
100
AcDbEntity
  8
0
100
AcDbBlockEnd
  0
BLOCK
  5
2AA
330
29F
100
AcDbEntity
  8
0
100
AcDbBlockBegin
  2
*D22
 70
     1
 71
     0
 10
0.0
 20
0.0
 30
0.0
  3
*D22
  1

  0
LINE
  5
2AC
330
29F
100
AcDbEntity
  8
SLD-0
 62
     7
100
AcDbLine
 10
43.8519601205
 20
148.4901571909
 30
0.0
 11
34.5650118136
 21
148.4901571909
 31
0.0
  0
LINE
  5
2AD
330
29F
100
AcDbEntity
  8
SLD-0
 62
     7
100
AcDbLine
 10
57.1019601205
 20
161.4901571909
 30
0.0
 11
34.5650118136
 21
161.4901571909
 31
0.0
  0
LINE
  5
2AE
330
29F
100
AcDbEntity
  8
SLD-0
 62
     7
100
AcDbLine
 10
35.5650118136
 20
148.4901571909
 30
0.0
 11
35.5650118136
 21
161.4901571909
 31
0.0
  0
LINE
  5
2AF
330
29F
100
AcDbEntity
  8
SLD-0
 62
     7
100
AcDbLine
 10
36.3688588136
 20
151.4901571909
 30
0.0
 11
35.5650118136
 21
148.4901571909
 31
0.0
  0
LINE
  5
2B0
330
29F
100
AcDbEntity
  8
SLD-0
 62
     7
100
AcDbLine
 10
35.5650118136
 20
148.4901571909
 30
0.0
 11
34.7611648136
 21
151.4901571909
 31
0.0
  0
LINE
  5
2B1
330
29F
100
AcDbEntity
  8
SLD-0
 62
     7
100
AcDbLine
 10
35.5650118136
 20
148.4901571909
 30
0.0
 11
35.5650118136
 21
151.4901571909
 31
0.0
  0
LINE
  5
2B2
330
29F
100
AcDbEntity
  8
SLD-0
 62
     7
100
AcDbLine
 10
34.7611648136
 20
158.4901571909
 30
0.0
 11
35.5650118136
 21
161.4901571909
 31
0.0
  0
LINE
  5
2B3
330
29F
100
AcDbEntity
  8
SLD-0
 62
     7
100
AcDbLine
 10
35.5650118136
 20
161.4901571909
 30
0.0
 11
36.3688588136
 21
158.4901571909
 31
0.0
  0
LINE
  5
2B4
330
29F
100
AcDbEntity
  8
SLD-0
 62
     7
100
AcDbLine
 10
35.5650118136
 20
161.4901571909
 30
0.0
 11
35.5650118136
 21
158.4901571909
 31
0.0
  0
MTEXT
  5
2B5
330
29F
100
AcDbEntity
  8
SLD-0
 62
     7
100
AcDbMText
 10
31.0383181177
 20
152.9551894575
 30
0.1
 40
3.5
 41
0.0
 71
     1
 72
     1
  1
13
  7
SLDTEXTSTYLE0
 11
6.123031769111886E-17
 21
1.0
 31
0.0
 73
     1
 44
1.0
  0
ENDBLK
  5
2AB
330
29F
100
AcDbEntity
  8
0
100
AcDbBlockEnd
  0
BLOCK
  5
2C2
330
2B7
100
AcDbEntity
  8
0
100
AcDbBlockBegin
  2
*D23
 70
     1
 71
     0
 10
0.0
 20
0.0
 30
0.0
  3
*D23
  1

  0
LINE
  5
2C4
330
2B7
100
AcDbEntity
  8
SLD-0
 62
     7
100
AcDbLine
 10
43.8519601205
 20
148.4901571909
 30
0.0
 11
26.4401976864
 21
148.4901571909
 31
0.0
  0
LINE
  5
2C5
330
2B7
100
AcDbEntity
  8
SLD-0
 62
     7
100
AcDbLine
 10
74.8519601205
 20
157.4901571909
 30
0.0
 11
26.4401976864
 21
157.4901571909
 31
0.0
  0
LINE
  5
2C6
330
2B7
100
AcDbEntity
  8
SLD-0
 62
     7
100
AcDbLine
 10
27.4401976864
 20
148.4901571909
 30
0.0
 11
27.4401976864
 21
143.4901571909
 31
0.0
  0
LINE
  5
2C7
330
2B7
100
AcDbEntity
  8
SLD-0
 62
     7
100
AcDbLine
 10
27.4401976864
 20
148.4901571909
 30
0.0
 11
27.4401976864
 21
157.4901571909
 31
0.0
  0
LINE
  5
2C8
330
2B7
100
AcDbEntity
  8
SLD-0
 62
     7
100
AcDbLine
 10
27.4401976864
 20
157.4901571909
 30
0.0
 11
27.4401976864
 21
162.4901571909
 31
0.0
  0
LINE
  5
2C9
330
2B7
100
AcDbEntity
  8
SLD-0
 62
     7
100
AcDbLine
 10
26.6363506864
 20
145.4901571909
 30
0.0
 11
27.4401976864
 21
148.4901571909
 31
0.0
  0
LINE
  5
2CA
330
2B7
100
AcDbEntity
  8
SLD-0
 62
     7
100
AcDbLine
 10
27.4401976864
 20
148.4901571909
 30
0.0
 11
28.2440446864
 21
145.4901571909
 31
0.0
  0
LINE
  5
2CB
330
2B7
100
AcDbEntity
  8
SLD-0
 62
     7
100
AcDbLine
 10
27.4401976864
 20
148.4901571909
 30
0.0
 11
27.4401976864
 21
145.4901571909
 31
0.0
  0
LINE
  5
2CC
330
2B7
100
AcDbEntity
  8
SLD-0
 62
     7
100
AcDbLine
 10
28.2440446864
 20
160.4901571909
 30
0.0
 11
27.4401976864
 21
157.4901571909
 31
0.0
  0
LINE
  5
2CD
330
2B7
100
AcDbEntity
  8
SLD-0
 62
     7
100
AcDbLine
 10
27.4401976864
 20
157.4901571909
 30
0.0
 11
26.6363506864
 21
160.4901571909
 31
0.0
  0
LINE
  5
2CE
330
2B7
100
AcDbEntity
  8
SLD-0
 62
     7
100
AcDbLine
 10
27.4401976864
 20
157.4901571909
 30
0.0
 11
27.4401976864
 21
160.4901571909
 31
0.0
  0
MTEXT
  5
2CF
330
2B7
100
AcDbEntity
  8
SLD-0
 62
     7
100
AcDbMText
 10
22.9135039904
 20
151.9737277117
 30
0.1
 40
3.5
 41
0.0
 71
     1
 72
     1
  1
9
  7
SLDTEXTSTYLE0
 11
6.123031769111886E-17
 21
1.0
 31
0.0
 73
     1
 44
1.0
  0
ENDBLK
  5
2C3
330
2B7
100
AcDbEntity
  8
0
100
AcDbBlockEnd
  0
BLOCK
  5
2DC
330
2D1
100
AcDbEntity
  8
0
100
AcDbBlockBegin
  2
*D24
 70
     1
 71
     0
 10
0.0
 20
0.0
 30
0.0
  3
*D24
  1

  0
LINE
  5
2DE
330
2D1
100
AcDbEntity
  8
SLD-0
 62
     7
100
AcDbLine
 10
173.8519601205
 20
94.0686141909
 30
0.0
 11
187.4068859754
 21
94.0686141909
 31
0.0
  0
LINE
  5
2DF
330
2D1
100
AcDbEntity
  8
SLD-0
 62
     7
100
AcDbLine
 10
173.8519601205
 20
99.0686141909
 30
0.0
 11
187.4068859754
 21
99.0686141909
 31
0.0
  0
LINE
  5
2E0
330
2D1
100
AcDbEntity
  8
SLD-0
 62
     7
100
AcDbLine
 10
186.4068859754
 20
94.0686141909
 30
0.0
 11
186.4068859754
 21
89.0686141909
 31
0.0
  0
LINE
  5
2E1
330
2D1
100
AcDbEntity
  8
SLD-0
 62
     7
100
AcDbLine
 10
186.4068859754
 20
94.0686141909
 30
0.0
 11
186.4068859754
 21
99.0686141909
 31
0.0
  0
LINE
  5
2E2
330
2D1
100
AcDbEntity
  8
SLD-0
 62
     7
100
AcDbLine
 10
186.4068859754
 20
99.0686141909
 30
0.0
 11
186.4068859754
 21
104.0686141909
 31
0.0
  0
LINE
  5
2E3
330
2D1
100
AcDbEntity
  8
SLD-0
 62
     7
100
AcDbLine
 10
185.6030389754
 20
91.0686141909
 30
0.0
 11
186.4068859754
 21
94.0686141909
 31
0.0
  0
LINE
  5
2E4
330
2D1
100
AcDbEntity
  8
SLD-0
 62
     7
100
AcDbLine
 10
186.4068859754
 20
94.0686141909
 30
0.0
 11
187.2107329754
 21
91.0686141909
 31
0.0
  0
LINE
  5
2E5
330
2D1
100
AcDbEntity
  8
SLD-0
 62
     7
100
AcDbLine
 10
186.4068859754
 20
94.0686141909
 30
0.0
 11
186.4068859754
 21
91.0686141909
 31
0.0
  0
LINE
  5
2E6
330
2D1
100
AcDbEntity
  8
SLD-0
 62
     7
100
AcDbLine
 10
187.2107329754
 20
102.0686141909
 30
0.0
 11
186.4068859754
 21
99.0686141909
 31
0.0
  0
LINE
  5
2E7
330
2D1
100
AcDbEntity
  8
SLD-0
 62
     7
100
AcDbLine
 10
186.4068859754
 20
99.0686141909
 30
0.0
 11
185.6030389754
 21
102.0686141909
 31
0.0
  0
LINE
  5
2E8
330
2D1
100
AcDbEntity
  8
SLD-0
 62
     7
100
AcDbLine
 10
186.4068859754
 20
99.0686141909
 30
0.0
 11
186.4068859754
 21
102.0686141909
 31
0.0
  0
MTEXT
  5
2E9
330
2D1
100
AcDbEntity
  8
SLD-0
 62
     7
100
AcDbMText
 10
181.8801922795
 20
95.5521847117
 30
0.1
 40
3.5
 41
0.0
 71
     1
 72
     1
  1
5
  7
SLDTEXTSTYLE0
 11
6.123031769111886E-17
 21
1.0
 31
0.0
 73
     1
 44
1.0
  0
ENDBLK
  5
2DD
330
2D1
100
AcDbEntity
  8
0
100
AcDbBlockEnd
  0
ENDSEC
  0
SECTION
  2
ENTITIES
  0
LINE
  5
B9
330
1F
100
AcDbEntity
  8
SLD-0
  6
Continuous
 62
   179
100
AcDbLine
 10
20.2604743903
 20
284.9014818653
 30
0.0
 11
196.7604743903
 21
284.9014818653
 31
0.0
  0
LINE
  5
BA
330
1F
100
AcDbEntity
  8
SLD-0
  6
Continuous
 62
   179
100
AcDbLine
 10
20.2604743903
 20
284.9014818653
 30
0.0
 11
20.2604743903
 21
10.0
 31
0.0
  0
LINE
  5
BB
330
1F
100
AcDbEntity
  8
SLD-0
  6
Continuous
 62
   179
100
AcDbLine
 10
20.2604743903
 20
10.0
 30
0.0
 11
196.7604743903
 21
10.0
 31
0.0
  0
LINE
  5
BC
330
1F
100
AcDbEntity
  8
SLD-0
  6
Continuous
 62
   179
100
AcDbLine
 10
196.7604743903
 20
284.9014818653
 30
0.0
 11
196.7604743903
 21
10.0
 31
0.0
  0
LINE
  5
BD
330
1F
100
AcDbEntity
  8
SLD-0
  6
Continuous
 62
   179
100
AcDbLine
 10
196.7604743903
 20
284.9014818653
 30
0.0
 11
196.7604743903
 21
264.25
 31
0.0
  0
LINE
  5
BE
330
1F
100
AcDbEntity
  8
SLD-0
  6
Continuous
 62
   179
100
AcDbLine
 10
127.0104743903
 20
50.75
 30
0.0
 11
196.7604743903
 21
50.75
 31
0.0
  0
LINE
  5
BF
330
1F
100
AcDbEntity
  8
SLD-0
  6
Continuous
 62
   179
100
AcDbLine
 10
127.0104743903
 20
50.75
 30
0.0
 11
127.0104743903
 21
22.75
 31
0.0
  0
LINE
  5
C0
330
1F
100
AcDbEntity
  8
SLD-0
  6
Continuous
 62
   179
100
AcDbLine
 10
127.0104743903
 20
22.75
 30
0.0
 11
196.7604743903
 21
22.75
 31
0.0
  0
LINE
  5
C1
330
1F
100
AcDbEntity
  8
SLD-0
  6
Continuous
 62
   179
100
AcDbLine
 10
127.0104743903
 20
36.75
 30
0.0
 11
196.7604743903
 21
36.75
 31
0.0
  0
LINE
  5
C2
330
1F
100
AcDbEntity
  8
SLD-0
  6
Continuous
 62
   179
100
AcDbLine
 10
52.3519601205
 20
178.2401571909
 30
0.0
 11
70.8519601205
 21
178.2401571909
 31
0.0
  0
LINE
  5
C3
330
1F
100
AcDbEntity
  8
SLD-0
  6
Continuous
 62
   179
100
AcDbLine
 10
70.8519601205
 20
184.7401571909
 30
0.0
 11
52.3519601205
 21
184.7401571909
 31
0.0
  0
LINE
  5
C4
330
1F
100
AcDbEntity
  8
SLD-0
  6
Continuous
 62
   179
100
AcDbLine
 10
70.8519601205
 20
164.7401571909
 30
0.0
 11
52.3519601205
 21
164.7401571909
 31
0.0
  0
LINE
  5
C5
330
1F
100
AcDbEntity
  8
SLD-0
  6
Continuous
 62
   179
100
AcDbLine
 10
39.8519594649
 20
189.4901564161
 30
0.0
 11
39.8519594649
 21
153.4901579658
 31
0.0
  0
LINE
  5
C6
330
1F
100
AcDbEntity
  8
SLD-0
  6
Continuous
 62
   179
100
AcDbLine
 10
44.8519584218
 20
194.4901572356
 30
0.0
 11
39.8519594649
 21
189.4901564161
 31
0.0
  0
LINE
  5
C7
330
1F
100
AcDbEntity
  8
SLD-0
  6
Continuous
 62
   179
100
AcDbLine
 10
167.8519618192
 20
194.4901572356
 30
0.0
 11
44.8519584218
 21
194.4901572356
 31
0.0
  0
LINE
  5
C8
330
1F
100
AcDbEntity
  8
SLD-0
  6
Continuous
 62
   179
100
AcDbLine
 10
172.8519607762
 20
189.4901564161
 30
0.0
 11
167.8519618192
 21
194.4901572356
 31
0.0
  0
LINE
  5
C9
330
1F
100
AcDbEntity
  8
SLD-0
  6
Continuous
 62
   179
100
AcDbLine
 10
172.8519607762
 20
153.4901579658
 30
0.0
 11
172.8519607762
 21
189.4901564161
 31
0.0
  0
LINE
  5
CA
330
1F
100
AcDbEntity
  8
SLD-0
  6
Continuous
 62
   179
100
AcDbLine
 10
167.8519618192
 20
148.4901571462
 30
0.0
 11
172.8519607762
 21
153.4901579658
 31
0.0
  0
LINE
  5
CB
330
1F
100
AcDbEntity
  8
SLD-0
  6
Continuous
 62
   179
100
AcDbLine
 10
52.3519601205
 20
158.2401571909
 30
0.0
 11
70.8519601205
 21
158.2401571909
 31
0.0
  0
LINE
  5
CC
330
1F
100
AcDbEntity
  8
SLD-0
  6
Continuous
 62
   179
100
AcDbLine
 10
44.8519584218
 20
148.4901571462
 30
0.0
 11
167.8519618192
 21
148.4901571462
 31
0.0
  0
LINE
  5
CD
330
1F
100
AcDbEntity
  8
SLD-0
  6
Continuous
 62
   179
100
AcDbLine
 10
39.8519594649
 20
153.4901579658
 30
0.0
 11
44.8519584218
 21
148.4901571462
 31
0.0
  0
LINE
  5
CE
330
1F
100
AcDbEntity
  8
SLD-0
  6
Continuous
 62
   179
100
AcDbLine
 10
39.8519594649
 20
99.0686140792
 30
0.0
 11
39.8519594649
 21
94.0686141909
 31
0.0
  0
LINE
  5
CF
330
1F
100
AcDbEntity
  8
SLD-0
  6
Continuous
 62
   179
100
AcDbLine
 10
39.8519594649
 20
99.0686140792
 30
0.0
 11
44.8519584218
 21
99.0686140792
 31
0.0
  0
LINE
  5
D0
330
1F
100
AcDbEntity
  8
SLD-0
  6
Continuous
 62
   179
100
AcDbLine
 10
44.8519584218
 20
99.0686140792
 30
0.0
 11
44.8519584218
 21
94.0686141909
 31
0.0
  0
LINE
  5
D1
330
1F
100
AcDbEntity
  8
SLD-0
  6
Continuous
 62
   179
100
AcDbLine
 10
39.8519594649
 20
94.0686141909
 30
0.0
 11
44.8519584218
 21
94.0686141909
 31
0.0
  0
LINE
  5
D2
330
1F
100
AcDbEntity
  8
SLD-0
  6
Continuous
 62
   179
100
AcDbLine
 10
44.8519584218
 20
99.0686140792
 30
0.0
 11
167.8519618192
 21
99.0686140792
 31
0.0
  0
LINE
  5
D3
330
1F
100
AcDbEntity
  8
SLD-0
  6
Continuous
 62
   179
100
AcDbLine
 10
167.8519618192
 20
99.0686140792
 30
0.0
 11
167.8519618192
 21
94.0686141909
 31
0.0
  0
LINE
  5
D4
330
1F
100
AcDbEntity
  8
SLD-0
  6
Continuous
 62
   179
100
AcDbLine
 10
44.8519584218
 20
94.0686141909
 30
0.0
 11
167.8519618192
 21
94.0686141909
 31
0.0
  0
LINE
  5
D5
330
1F
100
AcDbEntity
  8
SLD-0
  6
Continuous
 62
   179
100
AcDbLine
 10
167.8519618192
 20
99.0686140792
 30
0.0
 11
172.8519607762
 21
99.0686140792
 31
0.0
  0
LINE
  5
D6
330
1F
100
AcDbEntity
  8
SLD-0
  6
Continuous
 62
   179
100
AcDbLine
 10
172.8519607762
 20
99.0686140792
 30
0.0
 11
172.8519607762
 21
94.0686141909
 31
0.0
  0
LINE
  5
D7
330
1F
100
AcDbEntity
  8
SLD-0
  6
Continuous
 62
   179
100
AcDbLine
 10
167.8519618192
 20
94.0686141909
 30
0.0
 11
172.8519607762
 21
94.0686141909
 31
0.0
  0
ARC
  5
D8
330
1F
100
AcDbEntity
  8
SLD-0
  6
Continuous
 62
   179
100
AcDbCircle
 10
70.8519601205
 20
181.4901571909
 30
0.0
 40
3.25
100
AcDbArc
 50
270.0
 51
90.0
  0
ARC
  5
D9
330
1F
100
AcDbEntity
  8
SLD-0
  6
Continuous
 62
   179
100
AcDbCircle
 10
52.3519601205
 20
181.4901571909
 30
0.0
 40
3.25
100
AcDbArc
 50
90.0
 51
270.0
  0
ARC
  5
DA
330
1F
100
AcDbEntity
  8
SLD-0
  6
Continuous
 62
   179
100
AcDbCircle
 10
52.3519601205
 20
161.4901571909
 30
0.0
 40
3.25
100
AcDbArc
 50
90.0
 51
270.0
  0
ARC
  5
DB
330
1F
100
AcDbEntity
  8
SLD-0
  6
Continuous
 62
   179
100
AcDbCircle
 10
70.8519601205
 20
161.4901571909
 30
0.0
 40
3.25
100
AcDbArc
 50
270.0
 51
90.0
  0
CIRCLE
  5
DC
330
1F
100
AcDbEntity
  8
SLD-0
  6
Continuous
 62
   179
100
AcDbCircle
 10
80.8519601205
 20
185.4901571909
 30
0.0
 40
2.5
  0
CIRCLE
  5
DD
330
1F
100
AcDbEntity
  8
SLD-0
  6
Continuous
 62
   179
100
AcDbCircle
 10
105.8519601205
 20
181.4901571909
 30
0.0
 40
2.5
  0
CIRCLE
  5
DE
330
1F
100
AcDbEntity
  8
SLD-0
  6
Continuous
 62
   179
100
AcDbCircle
 10
152.8519601205
 20
189.4901571909
 30
0.0
 40
2.5
  0
CIRCLE
  5
DF
330
1F
100
AcDbEntity
  8
SLD-0
  6
Continuous
 62
   179
100
AcDbCircle
 10
160.8519601205
 20
185.4901571909
 30
0.0
 40
2.5
  0
CIRCLE
  5
E0
330
1F
100
AcDbEntity
  8
SLD-0
  6
Continuous
 62
   179
100
AcDbCircle
 10
114.8519601205
 20
183.4901571909
 30
0.0
 40
2.500000000000014
  0
CIRCLE
  5
E1
330
1F
100
AcDbEntity
  8
SLD-0
  6
Continuous
 62
   179
100
AcDbCircle
 10
150.8519601205
 20
181.4901571909
 30
0.0
 40
2.5
  0
CIRCLE
  5
E2
330
1F
100
AcDbEntity
  8
SLD-0
  6
Continuous
 62
   179
100
AcDbCircle
 10
160.8519601205
 20
157.4901571909
 30
0.0
 40
2.5
  0
CIRCLE
  5
E3
330
1F
100
AcDbEntity
  8
SLD-0
  6
Continuous
 62
   179
100
AcDbCircle
 10
152.8519601205
 20
153.4901571909
 30
0.0
 40
2.5
  0
CIRCLE
  5
E4
330
1F
100
AcDbEntity
  8
SLD-0
  6
Continuous
 62
   179
100
AcDbCircle
 10
150.8519601205
 20
161.4901571909
 30
0.0
 40
2.5
  0
CIRCLE
  5
E5
330
1F
100
AcDbEntity
  8
SLD-0
  6
Continuous
 62
   179
100
AcDbCircle
 10
114.8519601205
 20
159.4901571909
 30
0.0
 40
2.500000000000014
  0
CIRCLE
  5
E6
330
1F
100
AcDbEntity
  8
SLD-0
  6
Continuous
 62
   179
100
AcDbCircle
 10
105.8519601205
 20
161.4901571909
 30
0.0
 40
2.5
  0
CIRCLE
  5
E7
330
1F
100
AcDbEntity
  8
SLD-0
  6
Continuous
 62
   179
100
AcDbCircle
 10
80.8519601205
 20
157.4901571909
 30
0.0
 40
2.5
  0
CIRCLE
  5
E8
330
1F
100
AcDbEntity
  8
SLD-0
  6
Continuous
 62
   179
100
AcDbCircle
 10
167.8519601205
 20
183.4901571909
 30
0.0
 40
2.5
  0
CIRCLE
  5
E9
330
1F
100
AcDbEntity
  8
SLD-0
  6
Continuous
 62
   179
100
AcDbCircle
 10
167.8519601205
 20
159.4901571909
 30
0.0
 40
2.5
  0
DIMENSION
  5
EA
330
1F
100
AcDbEntity
  8
SLD-0
 62
     7
100
AcDbDimension
  2
*D3
 10
39.8519601205
 20
226.7899311109
 30
0.0
 11
106.3519601205
 21
226.7899311109
 31
0.0
 70
   160
 71
     1
 42
133.0
  3
SLDDIMSTYLE0
100
AcDbAlignedDimension
 13
172.8519601205
 23
189.4901571909
 33
0.0
 14
39.8519601205
 24
189.4901571909
 34
0.0
100
AcDbRotatedDimension
1001
ACAD
1000
DSTYLE
1002
{
1070
    77
1070
     3
1070
   143
1040
0.0393700787
1070
    41
1040
3.0
1070
    44
1040
1.0
1070
    42
1040
1.0
1070
   147
1040
1.524
1070
    73
1070
     0
1070
    74
1070
     0
1070
   140
1040
3.5
1070
   284
1070
    12
1070
    78
1070
    12
1002
}
  0
DIMENSION
  5
107
330
1F
100
AcDbEntity
  8
SLD-0
 62
     7
100
AcDbDimension
  2
*D5
 10
190.2805899469
 20
194.4901571909
 30
0.0
 11
190.2805899469
 21
171.4901571909
 31
0.0
 70
   160
 71
     1
 42
46.0
  3
SLDDIMSTYLE0
100
AcDbAlignedDimension
 13
167.8519601205
 23
148.4901571909
 33
0.0
 14
167.8519601205
 24
194.4901571909
 34
0.0
 50
90.0
100
AcDbRotatedDimension
1001
ACAD
1000
DSTYLE
1002
{
1070
    77
1070
     3
1070
   143
1040
0.0393700787
1070
    41
1040
3.0
1070
    44
1040
1.0
1070
    42
1040
1.0
1070
   147
1040
1.524
1070
    73
1070
     0
1070
    74
1070
     0
1070
   140
1040
3.5
1070
   284
1070
    12
1070
    78
1070
    12
1002
}
  0
DIMENSION
  5
11F
330
1F
100
AcDbEntity
  8
SLD-0
 62
     7
100
AcDbDimension
  2
*D6
 10
52.3519601205
 20
213.0938158679
 30
0.0
 11
46.1019601205
 21
213.0938158679
 31
0.0
 70
   160
 71
     1
 42
12.5
  3
SLDDIMSTYLE1
100
AcDbAlignedDimension
 13
39.8519601205
 23
189.4901571909
 33
0.0
 14
52.3519601205
 24
181.4901571909
 34
0.0
100
AcDbRotatedDimension
1001
ACAD
1000
DSTYLE
1002
{
1070
    77
1070
     3
1070
   143
1040
0.0393700787
1070
    41
1040
3.0
1070
    44
1040
1.0
1070
    42
1040
1.0
1070
   147
1040
1.524
1070
    73
1070
     0
1070
    74
1070
     0
1070
   140
1040
3.5
1070
   284
1070
    12
1070
    78
1070
    12
1002
}
  0
DIMENSION
  5
139
330
1F
100
AcDbEntity
  8
SLD-0
 62
     7
100
AcDbDimension
  2
*D7
 10
52.3519601205
 20
213.0938158679
 30
0.0
 11
61.6019601205
 21
213.0938158679
 31
0.0
 70
   160
 71
     1
 42
18.5
  3
SLDDIMSTYLE1
100
AcDbAlignedDimension
 13
70.8519601205
 23
181.4901571909
 33
0.0
 14
52.3519601205
 24
181.4901571909
 34
0.0
100
AcDbRotatedDimension
1001
ACAD
1000
DSTYLE
1002
{
1070
    77
1070
     3
1070
   143
1040
0.0393700787
1070
    41
1040
3.0
1070
    44
1040
1.0
1070
    42
1040
1.0
1070
   147
1040
1.524
1070
    73
1070
     0
1070
    74
1070
     0
1070
   140
1040
3.5
1070
   284
1070
    12
1070
    78
1070
    12
1002
}
  0
DIMENSION
  5
150
330
1F
100
AcDbEntity
  8
SLD-0
 62
     7
100
AcDbDimension
  2
*D8
 10
63.6352119543
 20
178.2401571909
 30
0.0
 11
63.6352119543
 21
201.5130655054
 31
0.0
 70
   160
 71
     1
 42
6.5
  3
SLDDIMSTYLE1
100
AcDbAlignedDimension
 13
70.8519601205
 23
184.7401571909
 33
0.0
 14
70.8519601205
 24
178.2401571909
 34
0.0
 50
90.0
100
AcDbRotatedDimension
1001
ACAD
1000
DSTYLE
1002
{
1070
    77
1070
     3
1070
   143
1040
0.0393700787
1070
    41
1040
3.0
1070
    44
1040
1.0
1070
    42
1040
1.0
1070
   147
1040
1.524
1070
    73
1070
     0
1070
    74
1070
     0
1070
   140
1040
3.5
1070
   284
1070
    12
1070
    78
1070
    12
1002
}
  0
DIMENSION
  5
169
330
1F
100
AcDbEntity
  8
SLD-0
 62
     7
100
AcDbDimension
  2
*D9
 10
27.4401976864
 20
185.4901571909
 30
0.0
 11
27.4401976864
 21
171.4901571909
 31
0.0
 70
   160
 71
     1
 42
28.0
  3
SLDDIMSTYLE0
100
AcDbAlignedDimension
 13
80.8519601205
 23
157.4901571909
 33
0.0
 14
80.8519601205
 24
185.4901571909
 34
0.0
 50
90.0
100
AcDbRotatedDimension
1001
ACAD
1000
DSTYLE
1002
{
1070
    77
1070
     3
1070
   143
1040
0.0393700787
1070
    41
1040
3.0
1070
    44
1040
1.0
1070
    42
1040
1.0
1070
   147
1040
1.524
1070
    73
1070
     0
1070
    74
1070
     0
1070
   140
1040
3.5
1070
   284
1070
    12
1070
    78
1070
    12
1002
}
  0
DIMENSION
  5
181
330
1F
100
AcDbEntity
  8
SLD-0
 62
     7
100
AcDbDimension
  2
*D10
 10
182.8521884592
 20
183.4901571909
 30
0.0
 11
182.8521884592
 21
171.4901571909
 31
0.0
 70
   160
 71
     1
 42
24.0
  3
SLDDIMSTYLE0
100
AcDbAlignedDimension
 13
114.8519601205
 23
159.4901571909
 33
0.0
 14
114.8519601205
 24
183.4901571909
 34
0.0
 50
90.0
100
AcDbRotatedDimension
1001
ACAD
1000
DSTYLE
1002
{
1070
    77
1070
     3
1070
   143
1040
0.0393700787
1070
    41
1040
3.0
1070
    44
1040
1.0
1070
    42
1040
1.0
1070
   147
1040
1.524
1070
    73
1070
     0
1070
    74
1070
     0
1070
   140
1040
3.5
1070
   284
1070
    12
1070
    78
1070
    12
1002
}
  0
DIMENSION
  5
199
330
1F
100
AcDbEntity
  8
SLD-0
 62
     7
100
AcDbDimension
  2
*D11
 10
141.158992384
 20
189.4901571909
 30
0.0
 11
141.158992384
 21
171.4901571909
 31
0.0
 70
   160
 71
     1
 42
36.0
  3
SLDDIMSTYLE0
100
AcDbAlignedDimension
 13
152.8519601205
 23
153.4901571909
 33
0.0
 14
152.8519601205
 24
189.4901571909
 34
0.0
 50
90.0
100
AcDbRotatedDimension
1001
ACAD
1000
DSTYLE
1002
{
1070
    77
1070
     3
1070
   143
1040
0.0393700787
1070
    41
1040
3.0
1070
    44
1040
1.0
1070
    42
1040
1.0
1070
   147
1040
1.524
1070
    73
1070
     0
1070
    74
1070
     0
1070
   140
1040
3.5
1070
   284
1070
    12
1070
    78
1070
    12
1002
}
  0
DIMENSION
  5
1B1
330
1F
100
AcDbEntity
  8
SLD-0
 62
     7
100
AcDbDimension
  2
*D12
 10
80.8519601205
 20
121.7995808039
 30
0.0
 11
60.3519601205
 21
121.7995808039
 31
0.0
 70
   160
 71
     1
 42
41.0
  3
SLDDIMSTYLE0
100
AcDbAlignedDimension
 13
39.8519601205
 23
153.4901571909
 33
0.0
 14
80.8519601205
 24
157.4901571909
 34
0.0
100
AcDbRotatedDimension
1001
ACAD
1000
DSTYLE
1002
{
1070
    77
1070
     3
1070
   143
1040
0.0393700787
1070
    41
1040
3.0
1070
    44
1040
1.0
1070
    42
1040
1.0
1070
   147
1040
1.524
1070
    73
1070
     0
1070
    74
1070
     0
1070
   140
1040
3.5
1070
   284
1070
    12
1070
    78
1070
    12
1002
}
  0
DIMENSION
  5
1C8
330
1F
100
AcDbEntity
  8
SLD-0
 62
     7
100
AcDbDimension
  2
*D13
 10
105.8519601205
 20
128.1530179278
 30
0.0
 11
72.8519601205
 21
128.1530179278
 31
0.0
 70
   160
 71
     1
 42
66.0
  3
SLDDIMSTYLE0
100
AcDbAlignedDimension
 13
39.8519601205
 23
153.4901571909
 33
0.0
 14
105.8519601205
 24
161.4901571909
 34
0.0
100
AcDbRotatedDimension
1001
ACAD
1000
DSTYLE
1002
{
1070
    77
1070
     3
1070
   143
1040
0.0393700787
1070
    41
1040
3.0
1070
    44
1040
1.0
1070
    42
1040
1.0
1070
   147
1040
1.524
1070
    73
1070
     0
1070
    74
1070
     0
1070
   140
1040
3.5
1070
   284
1070
    12
1070
    78
1070
    12
1002
}
  0
DIMENSION
  5
1DF
330
1F
100
AcDbEntity
  8
SLD-0
 62
     7
100
AcDbDimension
  2
*D14
 10
114.8519601205
 20
114.7164155642
 30
0.0
 11
77.3519601205
 21
114.7164155642
 31
0.0
 70
   160
 71
     1
 42
75.0
  3
SLDDIMSTYLE0
100
AcDbAlignedDimension
 13
39.8519601205
 23
153.4901571909
 33
0.0
 14
114.8519601205
 24
159.4901571909
 34
0.0
100
AcDbRotatedDimension
1001
ACAD
1000
DSTYLE
1002
{
1070
    77
1070
     3
1070
   143
1040
0.0393700787
1070
    41
1040
3.0
1070
    44
1040
1.0
1070
    42
1040
1.0
1070
   147
1040
1.524
1070
    73
1070
     0
1070
    74
1070
     0
1070
   140
1040
3.5
1070
   284
1070
    12
1070
    78
1070
    12
1002
}
  0
DIMENSION
  5
1F6
330
1F
100
AcDbEntity
  8
SLD-0
 62
     7
100
AcDbDimension
  2
*D15
 10
150.8519601205
 20
128.1530179278
 30
0.0
 11
128.3519601205
 21
128.1530179278
 31
0.0
 70
   160
 71
     1
 42
45.0
  3
SLDDIMSTYLE0
100
AcDbAlignedDimension
 13
105.8519601205
 23
161.4901571909
 33
0.0
 14
150.8519601205
 24
161.4901571909
 34
0.0
100
AcDbRotatedDimension
1001
ACAD
1000
DSTYLE
1002
{
1070
    77
1070
     3
1070
   143
1040
0.0393700787
1070
    41
1040
3.0
1070
    44
1040
1.0
1070
    42
1040
1.0
1070
   147
1040
1.524
1070
    73
1070
     0
1070
    74
1070
     0
1070
   140
1040
3.5
1070
   284
1070
    12
1070
    78
1070
    12
1002
}
  0
DIMENSION
  5
20D
330
1F
100
AcDbEntity
  8
SLD-0
 62
     7
100
AcDbDimension
  2
*D16
 10
160.8519601205
 20
121.7995808039
 30
0.0
 11
120.8519601205
 21
121.7995808039
 31
0.0
 70
   160
 71
     1
 42
80.0
  3
SLDDIMSTYLE0
100
AcDbAlignedDimension
 13
80.8519601205
 23
157.4901571909
 33
0.0
 14
160.8519601205
 24
157.4901571909
 34
0.0
100
AcDbRotatedDimension
1001
ACAD
1000
DSTYLE
1002
{
1070
    77
1070
     3
1070
   143
1040
0.0393700787
1070
    41
1040
3.0
1070
    44
1040
1.0
1070
    42
1040
1.0
1070
   147
1040
1.524
1070
    73
1070
     0
1070
    74
1070
     0
1070
   140
1040
3.5
1070
   284
1070
    12
1070
    78
1070
    12
1002
}
  0
DIMENSION
  5
224
330
1F
100
AcDbEntity
  8
SLD-0
 62
     7
100
AcDbDimension
  2
*D17
 10
114.8519601205
 20
114.7164155642
 30
0.0
 11
141.3519601205
 21
114.7164155642
 31
0.0
 70
   160
 71
     1
 42
53.0
  3
SLDDIMSTYLE0
100
AcDbAlignedDimension
 13
167.8519601205
 23
159.4901571909
 33
0.0
 14
114.8519601205
 24
159.4901571909
 34
0.0
100
AcDbRotatedDimension
1001
ACAD
1000
DSTYLE
1002
{
1070
    77
1070
     3
1070
   143
1040
0.0393700787
1070
    41
1040
3.0
1070
    44
1040
1.0
1070
    42
1040
1.0
1070
   147
1040
1.524
1070
    73
1070
     0
1070
    74
1070
     0
1070
   140
1040
3.5
1070
   284
1070
    12
1070
    78
1070
    12
1002
}
  0
DIMENSION
  5
23B
330
1F
100
AcDbEntity
  8
SLD-0
 62
     7
100
AcDbDimension
  2
*D18
 10
182.8521884592
 20
148.4901571909
 30
0.0
 11
182.8521884592
 21
153.9901571909
 31
0.0
 70
   160
 71
     1
 42
11.0
  3
SLDDIMSTYLE0
100
AcDbAlignedDimension
 13
172.8519601205
 23
159.4901571909
 33
0.0
 14
167.8519601205
 24
148.4901571909
 34
0.0
 50
90.0
100
AcDbRotatedDimension
1001
ACAD
1000
DSTYLE
1002
{
1070
    77
1070
     3
1070
   143
1040
0.0393700787
1070
    41
1040
3.0
1070
    44
1040
1.0
1070
    42
1040
1.0
1070
   147
1040
1.524
1070
    73
1070
     0
1070
    74
1070
     0
1070
   140
1040
3.5
1070
   284
1070
    12
1070
    78
1070
    12
1002
}
  0
DIMENSION
  5
255
330
1F
100
AcDbEntity
  8
SLD-0
 62
     7
100
AcDbDimension
  2
*D19
 10
141.158992384
 20
148.4901571909
 30
0.0
 11
141.158992384
 21
138.5216773591
 31
0.0
 70
   160
 71
     1
 42
5.0
  3
SLDDIMSTYLE0
100
AcDbAlignedDimension
 13
147.8519601205
 23
153.4901571909
 33
0.0
 14
167.8519601205
 24
148.4901571909
 34
0.0
 50
90.0
100
AcDbRotatedDimension
1001
ACAD
1000
DSTYLE
1002
{
1070
    77
1070
     3
1070
   143
1040
0.0393700787
1070
    41
1040
3.0
1070
    44
1040
1.0
1070
    42
1040
1.0
1070
   147
1040
1.524
1070
    73
1070
     0
1070
    74
1070
     0
1070
   140
1040
3.5
1070
   284
1070
    12
1070
    78
1070
    12
1002
}
  0
DIMENSION
  5
26F
330
1F
100
AcDbEntity
  8
SLD-0
 62
     7
100
AcDbDimension
  2
*D20
 10
152.8519601205
 20
219.8258047162
 30
0.0
 11
96.3519601205
 21
219.8258047162
 31
0.0
 70
   160
 71
     1
 42
113.0
  3
SLDDIMSTYLE0
100
AcDbAlignedDimension
 13
39.8519601205
 23
189.4901571909
 33
0.0
 14
152.8519601205
 24
194.4901571909
 34
0.0
100
AcDbRotatedDimension
1001
ACAD
1000
DSTYLE
1002
{
1070
    77
1070
     3
1070
   143
1040
0.0393700787
1070
    41
1040
3.0
1070
    44
1040
1.0
1070
    42
1040
1.0
1070
   147
1040
1.524
1070
    73
1070
     0
1070
    74
1070
     0
1070
   140
1040
3.5
1070
   284
1070
    12
1070
    78
1070
    12
1002
}
  0
DIMENSION
  5
286
330
1F
100
AcDbEntity
  8
SLD-0
 62
     7
100
AcDbDimension
  2
*D21
 10
35.5650118136
 20
181.4901571909
 30
0.0
 11
35.5650118136
 21
171.4901571909
 31
0.0
 70
   160
 71
     1
 42
20.0
  3
SLDDIMSTYLE0
100
AcDbAlignedDimension
 13
52.3519601205
 23
161.4901571909
 33
0.0
 14
52.3519601205
 24
181.4901571909
 34
0.0
 50
90.0
100
AcDbRotatedDimension
1001
ACAD
1000
DSTYLE
1002
{
1070
    77
1070
     3
1070
   143
1040
0.0393700787
1070
    41
1040
3.0
1070
    44
1040
1.0
1070
    42
1040
1.0
1070
   147
1040
1.524
1070
    73
1070
     0
1070
    74
1070
     0
1070
   140
1040
3.5
1070
   284
1070
    12
1070
    78
1070
    12
1002
}
  0
DIMENSION
  5
29E
330
1F
100
AcDbEntity
  8
SLD-0
 62
     7
100
AcDbDimension
  2
*D22
 10
35.5650118136
 20
148.4901571909
 30
0.0
 11
35.5650118136
 21
154.9901571909
 31
0.0
 70
   160
 71
     1
 42
13.0
  3
SLDDIMSTYLE0
100
AcDbAlignedDimension
 13
58.1019601205
 23
161.4901571909
 33
0.0
 14
44.8519601205
 24
148.4901571909
 34
0.0
 50
90.0
100
AcDbRotatedDimension
1001
ACAD
1000
DSTYLE
1002
{
1070
    77
1070
     3
1070
   143
1040
0.0393700787
1070
    41
1040
3.0
1070
    44
1040
1.0
1070
    42
1040
1.0
1070
   147
1040
1.524
1070
    73
1070
     0
1070
    74
1070
     0
1070
   140
1040
3.5
1070
   284
1070
    12
1070
    78
1070
    12
1002
}
  0
DIMENSION
  5
2B6
330
1F
100
AcDbEntity
  8
SLD-0
 62
     7
100
AcDbDimension
  2
*D23
 10
27.4401976864
 20
148.4901571909
 30
0.0
 11
27.4401976864
 21
152.9901571909
 31
0.0
 70
   160
 71
     1
 42
9.0
  3
SLDDIMSTYLE0
100
AcDbAlignedDimension
 13
75.8519601205
 23
157.4901571909
 33
0.0
 14
44.8519601205
 24
148.4901571909
 34
0.0
 50
90.0
100
AcDbRotatedDimension
1001
ACAD
1000
DSTYLE
1002
{
1070
    77
1070
     3
1070
   143
1040
0.0393700787
1070
    41
1040
3.0
1070
    44
1040
1.0
1070
    42
1040
1.0
1070
   147
1040
1.524
1070
    73
1070
     0
1070
    74
1070
     0
1070
   140
1040
3.5
1070
   284
1070
    12
1070
    78
1070
    12
1002
}
  0
DIMENSION
  5
2D0
330
1F
100
AcDbEntity
  8
SLD-0
 62
     7
100
AcDbDimension
  2
*D24
 10
186.4068859754
 20
94.0686141909
 30
0.0
 11
186.4068859754
 21
96.5686141909
 31
0.0
 70
   160
 71
     1
 42
5.0
  3
SLDDIMSTYLE0
100
AcDbAlignedDimension
 13
172.8519601205
 23
99.0686141909
 33
0.0
 14
172.8519601205
 24
94.0686141909
 34
0.0
 50
90.0
100
AcDbRotatedDimension
1001
ACAD
1000
DSTYLE
1002
{
1070
    77
1070
     3
1070
   143
1040
0.0393700787
1070
    41
1040
3.0
1070
    44
1040
1.0
1070
    42
1040
1.0
1070
   147
1040
1.524
1070
    73
1070
     0
1070
    74
1070
     0
1070
   140
1040
3.5
1070
   284
1070
    12
1070
    78
1070
    12
1002
}
  0
MTEXT
  5
2EA
330
1F
100
AcDbEntity
  8
SLD-0
 62
     7
100
AcDbMText
 10
147.2535212058
 20
29.7138882404
 30
0.0
 40
4.2333333333
 41
0.0
 71
     1
 72
     1
  1
N01915-305-0
  7
SLDTEXTSTYLE1
 73
     1
 44
1.0
  0
MTEXT
  5
2EC
330
1F
100
AcDbEntity
  8
SLD-0
 62
     7
100
AcDbMText
 10
147.9087124228
 20
43.2377018572
 30
0.0
 40
4.2333333333
 41
0.0
 71
     1
 72
     1
  1
Nipper BKT E
  7
SLDTEXTSTYLE2
 73
     1
 44
1.0
  0
INSERT
  5
2ED
330
1F
100
AcDbEntity
  8
0
  6
Continuous
 62
     7
370
     0
100
AcDbBlockReference
  2
SW_CENTERMARK0
 10
0.0
 20
0.0
 30
0.0
  0
ENDSEC
  0
SECTION
  2
OBJECTS
  0
DICTIONARY
  5
C
330
0
100
AcDbDictionary
281
     1
  3
ACAD_GROUP
350
D
  3
ACAD_LAYOUT
350
1A
  3
ACAD_MLINESTYLE
350
17
  3
ACAD_PLOTSETTINGS
350
19
  3
ACAD_PLOTSTYLENAME
350
E
  0
DICTIONARY
  5
D
102
{ACAD_REACTORS
330
C
102
}
330
C
100
AcDbDictionary
281
     1
  0
DICTIONARY
  5
1A
102
{ACAD_REACTORS
330
C
102
}
330
C
100
AcDbDictionary
281
     1
  3
Layout1
350
1E
  3
Layout2
350
26
  3
Model
350
22
  0
DICTIONARY
  5
17
102
{ACAD_REACTORS
330
C
102
}
330
C
100
AcDbDictionary
281
     1
  3
Standard
350
18
  0
DICTIONARY
  5
19
102
{ACAD_REACTORS
330
C
102
}
330
C
100
AcDbDictionary
281
     1
  0
ACDBDICTIONARYWDFLT
  5
E
102
{ACAD_REACTORS
330
C
102
}
330
C
100
AcDbDictionary
281
     1
  3
Normal
350
F
100
AcDbDictionaryWithDefault
340
F
  0
LAYOUT
  5
1E
102
{ACAD_REACTORS
330
1A
102
}
330
1A
100
AcDbPlotSettings
  1

  2

  4

  6

 40
0.0
 41
0.0
 42
0.0
 43
0.0
 44
0.0
 45
0.0
 46
0.0
 47
0.0
 48
0.0
 49
0.0
140
0.0
141
0.0
142
1.0
143
1.0
 70
   688
 72
     0
 73
     0
 74
     5
  7

 75
    16
147
1.0
148
0.0
149
0.0
100
AcDbLayout
  1
Layout1
 70
     1
 71
     1
 10
0.0
 20
0.0
 11
0.0
 21
0.0
 12
0.0
 22
0.0
 32
0.0
 14
0.0
 24
0.0
 34
0.0
 15
0.0
 25
0.0
 35
0.0
146
0.0
 13
0.0
 23
0.0
 33
0.0
 16
1.0
 26
0.0
 36
0.0
 17
0.0
 27
1.0
 37
0.0
 76
     0
330
1B
  0
LAYOUT
  5
26
102
{ACAD_REACTORS
330
1A
102
}
330
1A
100
AcDbPlotSettings
  1

  2

  4

  6

 40
0.0
 41
0.0
 42
0.0
 43
0.0
 44
0.0
 45
0.0
 46
0.0
 47
0.0
 48
0.0
 49
0.0
140
0.0
141
0.0
142
1.0
143
1.0
 70
   688
 72
     0
 73
     0
 74
     5
  7

 75
    16
147
1.0
148
0.0
149
0.0
100
AcDbLayout
  1
Layout2
 70
     1
 71
     2
 10
0.0
 20
0.0
 11
0.0
 21
0.0
 12
0.0
 22
0.0
 32
0.0
 14
0.0
 24
0.0
 34
0.0
 15
0.0
 25
0.0
 35
0.0
146
0.0
 13
0.0
 23
0.0
 33
0.0
 16
1.0
 26
0.0
 36
0.0
 17
0.0
 27
1.0
 37
0.0
 76
     0
330
23
  0
LAYOUT
  5
22
102
{ACAD_REACTORS
330
1A
102
}
330
1A
100
AcDbPlotSettings
  1

  2

  4

  6

 40
0.0
 41
0.0
 42
0.0
 43
0.0
 44
0.0
 45
0.0
 46
0.0
 47
0.0
 48
0.0
 49
0.0
140
0.0
141
0.0
142
1.0
143
1.0
 70
  1712
 72
     0
 73
     0
 74
     0
  7

 75
     0
147
1.0
148
0.0
149
0.0
100
AcDbLayout
  1
Model
 70
     1
 71
     0
 10
0.0
 20
0.0
 11
0.0
 21
0.0
 12
0.0
 22
0.0
 32
0.0
 14
0.0
 24
0.0
 34
0.0
 15
210.0
 25
297.0
 35
0.0
146
0.0
 13
0.0
 23
0.0
 33
0.0
 16
1.0
 26
0.0
 36
0.0
 17
0.0
 27
1.0
 37
0.0
 76
     0
330
1F
  0
MLINESTYLE
  5
18
102
{ACAD_REACTORS
330
17
102
}
330
17
100
AcDbMlineStyle
  2
Standard
 70
     0
  3

 62
   256
 51
90.0
 52
90.0
 71
     2
 49
0.5
 62
   256
  6
BYLAYER
 49
-0.5
 62
   256
  6
BYLAYER
  0
ACDBPLACEHOLDER
  5
F
102
{ACAD_REACTORS
330
E
102
}
330
E
  0
ENDSEC
  0
EOF
