  0
SECTION
  2
HEADER
  9
$ACADVER
  1
AC1015
  9
$ACADMAINTVER
 70
     6
  9
$DWGCODEPAGE
  3
DOS932
  9
$INSBASE
 10
0.0
 20
0.0
 30
0.0
  9
$EXTMIN
 10
0.0
 20
0.0
 30
0.0
  9
$EXTMAX
 10
210.0
 20
297.0
 30
0.0
  9
$LIMMIN
 10
0.0
 20
0.0
  9
$LIMMAX
 10
0.0
 20
0.0
  9
$ORTHOMODE
 70
     0
  9
$REGENMODE
 70
     1
  9
$FILLMODE
 70
     1
  9
$QTEXTMODE
 70
     0
  9
$MIRRTEXT
 70
     1
  9
$LTSCALE
 40
1.0
  9
$ATTMODE
 70
     1
  9
$TEXTSIZE
 40
3.5
  9
$TRACEWID
 40
1.0
  9
$TEXTSTYLE
  7
Standard
  9
$CLAYER
  8
0
  9
$CELTYPE
  6
ByLayer
  9
$CECOLOR
 62
   256
  9
$CELTSCALE
 40
1.0
  9
$DISPSILH
 70
     0
  9
$DIMSCALE
 40
1.0
  9
$DIMASZ
 40
3.0
  9
$DIMEXO
 40
1.0
  9
$DIMDLI
 40
3.75
  9
$DIMRND
 40
0.0
  9
$DIMDLE
 40
0.0
  9
$DIMEXE
 40
1.0
  9
$DIMTP
 40
0.0
  9
$DIMTM
 40
0.0
  9
$DIMTXT
 40
3.5
  9
$DIMCEN
 40
2.5
  9
$DIMTSZ
 40
0.0
  9
$DIMTOL
 70
     0
  9
$DIMLIM
 70
     0
  9
$DIMTIH
 70
     1
  9
$DIMTOH
 70
     1
  9
$DIMSE1
 70
     0
  9
$DIMSE2
 70
     0
  9
$DIMTAD
 70
     1
  9
$DIMZIN
 70
     1
  9
$DIMBLK
  1

  9
$DIMASO
 70
     1
  9
$DIMSHO
 70
     1
  9
$DIMPOST
  1

  9
$DIMAPOST
  1

  9
$DIMALT
 70
     0
  9
$DIMALTD
 70
     3
  9
$DIMALTF
 40
0.0393700787
  9
$DIMLFAC
 40
1.0
  9
$DIMTOFL
 70
     1
  9
$DIMTVP
 40
0.0
  9
$DIMTIX
 70
     0
  9
$DIMSOXD
 70
     0
  9
$DIMSAH
 70
     0
  9
$DIMBLK1
  1

  9
$DIMBLK2
  1

  9
$DIMSTYLE
  2
ISO-25
  9
$DIMCLRD
 70
     0
  9
$DIMCLRE
 70
     0
  9
$DIMCLRT
 70
     0
  9
$DIMTFAC
 40
1.0
  9
$DIMGAP
 40
1.524
  9
$DIMJUST
 70
     0
  9
$DIMSD1
 70
     0
  9
$DIMSD2
 70
     0
  9
$DIMTOLJ
 70
     0
  9
$DIMTZIN
 70
     1
  9
$DIMALTZ
 70
     0
  9
$DIMALTTZ
 70
     0
  9
$DIMUPT
 70
     0
  9
$DIMDEC
 70
     2
  9
$DIMTDEC
 70
     2
  9
$DIMALTU
 70
     2
  9
$DIMALTTD
 70
     3
  9
$DIMTXSTY
  7
Standard
  9
$DIMAUNIT
 70
     0
  9
$DIMADEC
 70
     0
  9
$DIMALTRND
 40
0.0
  9
$DIMAZIN
 70
     0
  9
$DIMDSEP
 70
    44
  9
$DIMATFIT
 70
     3
  9
$DIMFRAC
 70
     0
  9
$DIMLDRBLK
  1

  9
$DIMLUNIT
 70
     2
  9
$DIMLWD
 70
    -2
  9
$DIMLWE
 70
    -2
  9
$DIMTMOVE
 70
     0
  9
$LUNITS
 70
     2
  9
$LUPREC
 70
     1
  9
$SKETCHINC
 40
1.0
  9
$FILLETRAD
 40
10.0
  9
$AUNITS
 70
     0
  9
$AUPREC
 70
     0
  9
$MENU
  1
.
  9
$ELEVATION
 40
0.0
  9
$PELEVATION
 40
0.0
  9
$THICKNESS
 40
0.0
  9
$LIMCHECK
 70
     0
  9
$CHAMFERA
 40
10.0
  9
$CHAMFERB
 40
10.0
  9
$CHAMFERC
 40
20.0
  9
$CHAMFERD
 40
0.0
  9
$SKPOLY
 70
     0
  9
$TDCREATE
 40
2454322.461703738
  9
$TDUCREATE
 40
2454322.086703738
  9
$TDUPDATE
 40
2454322.46170375
  9
$TDUUPDATE
 40
2454322.08670375
  9
$TDINDWG
 40
0.0000000116
  9
$TDUSRTIMER
 40
0.0000000116
  9
$USRTIMER
 70
     1
  9
$ANGBASE
 50
0.0
  9
$ANGDIR
 70
     0
  9
$PDMODE
 70
     0
  9
$PDSIZE
 40
-1.0
  9
$PLINEWID
 40
0.0
  9
$SPLFRAME
 70
     0
  9
$SPLINETYPE
 70
     6
  9
$SPLINESEGS
 70
     8
  9
$HANDSEED
  5
2AB
  9
$SURFTAB1
 70
     6
  9
$SURFTAB2
 70
     6
  9
$SURFTYPE
 70
     6
  9
$SURFU
 70
     6
  9
$SURFV
 70
     6
  9
$UCSBASE
  2

  9
$UCSNAME
  2

  9
$UCSORG
 10
0.0
 20
0.0
 30
0.0
  9
$UCSXDIR
 10
1.0
 20
0.0
 30
0.0
  9
$UCSYDIR
 10
0.0
 20
1.0
 30
0.0
  9
$UCSORTHOREF
  2

  9
$UCSORTHOVIEW
 70
     0
  9
$UCSORGTOP
 10
0.0
 20
0.0
 30
0.0
  9
$UCSORGBOTTOM
 10
0.0
 20
0.0
 30
0.0
  9
$UCSORGLEFT
 10
0.0
 20
0.0
 30
0.0
  9
$UCSORGRIGHT
 10
0.0
 20
0.0
 30
0.0
  9
$UCSORGFRONT
 10
0.0
 20
0.0
 30
0.0
  9
$UCSORGBACK
 10
0.0
 20
0.0
 30
0.0
  9
$PUCSBASE
  2

  9
$PUCSNAME
  2

  9
$PUCSORG
 10
0.0
 20
0.0
 30
0.0
  9
$PUCSXDIR
 10
1.0
 20
0.0
 30
0.0
  9
$PUCSYDIR
 10
0.0
 20
1.0
 30
0.0
  9
$PUCSORTHOREF
  2

  9
$PUCSORTHOVIEW
 70
     0
  9
$PUCSORGTOP
 10
0.0
 20
0.0
 30
0.0
  9
$PUCSORGBOTTOM
 10
0.0
 20
0.0
 30
0.0
  9
$PUCSORGLEFT
 10
0.0
 20
0.0
 30
0.0
  9
$PUCSORGRIGHT
 10
0.0
 20
0.0
 30
0.0
  9
$PUCSORGFRONT
 10
0.0
 20
0.0
 30
0.0
  9
$PUCSORGBACK
 10
0.0
 20
0.0
 30
0.0
  9
$USERI1
 70
     0
  9
$USERI2
 70
     0
  9
$USERI3
 70
     0
  9
$USERI4
 70
     0
  9
$USERI5
 70
     0
  9
$USERR1
 40
0.0
  9
$USERR2
 40
0.0
  9
$USERR3
 40
0.0
  9
$USERR4
 40
0.0
  9
$USERR5
 40
0.0
  9
$WORLDVIEW
 70
     1
  9
$SHADEDGE
 70
     3
  9
$SHADEDIF
 70
    70
  9
$TILEMODE
 70
     1
  9
$MAXACTVP
 70
    64
  9
$PINSBASE
 10
0.0
 20
0.0
 30
0.0
  9
$PLIMCHECK
 70
     0
  9
$PEXTMIN
 10
1.0000000000E+20
 20
1.0000000000E+20
 30
1.0000000000E+20
  9
$PEXTMAX
 10
-1.0000000000E+20
 20
-1.0000000000E+20
 30
-1.0000000000E+20
  9
$PLIMMIN
 10
0.0
 20
0.0
  9
$PLIMMAX
 10
420.0
 20
297.0
  9
$UNITMODE
 70
     0
  9
$VISRETAIN
 70
     1
  9
$PLINEGEN
 70
     0
  9
$PSLTSCALE
 70
     1
  9
$TREEDEPTH
 70
  3020
  9
$CMLSTYLE
  2
Standard
  9
$CMLJUST
 70
     0
  9
$CMLSCALE
 40
20.0
  9
$PROXYGRAPHICS
 70
     1
  9
$MEASUREMENT
 70
     1
  9
$CELWEIGHT
370
    -1
  9
$ENDCAPS
280
     0
  9
$JOINSTYLE
280
     0
  9
$LWDISPLAY
290
     1
  9
$INSUNITS
 70
     4
  9
$HYPERLINKBASE
  1

  9
$STYLESHEET
  1

  9
$XEDIT
290
     1
  9
$CEPSNTYPE
380
     0
  9
$PSTYLEMODE
290
     1
  9
$FINGERPRINTGUID
  2
{DC866853-83D5-4402-B0C1-964D6873B13B}
  9
$VERSIONGUID
  2
{FAEB1C32-E019-11D5-929B-00C0DF256EC4}
  9
$EXTNAMES
290
     1
  9
$PSVPSCALE
 40
0.0
  9
$OLESTARTUP
290
     0
  0
ENDSEC
  0
SECTION
  2
CLASSES
  0
CLASS
  1
ACDBDICTIONARYWDFLT
  2
AcDbDictionaryWithDefault
  3
ObjectDBX Classes
 90
        0
280
     0
281
     0
  0
CLASS
  1
ACDBPLACEHOLDER
  2
AcDbPlaceHolder
  3
ObjectDBX Classes
 90
        0
280
     0
281
     0
  0
CLASS
  1
LAYOUT
  2
AcDbLayout
  3
ObjectDBX Classes
 90
        0
280
     0
281
     0
  0
ENDSEC
  0
SECTION
  2
TABLES
  0
TABLE
  2
VPORT
  5
8
330
0
100
AcDbSymbolTable
 70
     1
  0
VPORT
  5
29
330
8
100
AcDbSymbolTableRecord
100
AcDbViewportTableRecord
  2
*Active
 70
     0
 10
0.0
 20
0.0
 11
1.0
 21
1.0
 12
105.0
 22
148.5
 13
0.0
 23
0.0
 14
10.0
 24
10.0
 15
10.0
 25
10.0
 16
0.0
 26
0.0
 36
1.0
 17
0.0
 27
0.0
 37
0.0
 40
297.0
 41
1.9729729729
 42
50.0
 43
0.0
 44
0.0
 50
0.0
 51
0.0
 71
     0
 72
  2000
 73
     1
 74
     3
 75
     0
 76
     0
 77
     0
 78
     0
281
     0
 65
     1
110
0.0
120
0.0
130
0.0
111
1.0
121
0.0
131
0.0
112
0.0
122
1.0
132
0.0
 79
     0
146
0.0
  0
ENDTAB
  0
TABLE
  2
LTYPE
  5
5
330
0
100
AcDbSymbolTable
 70
     6
  0
LTYPE
  5
14
330
5
100
AcDbSymbolTableRecord
100
AcDbLinetypeTableRecord
  2
ByBlock
 70
     0
  3

 72
    65
 73
     0
 40
0.0
  0
LTYPE
  5
15
330
5
100
AcDbSymbolTableRecord
100
AcDbLinetypeTableRecord
  2
ByLayer
 70
     0
  3

 72
    65
 73
     0
 40
0.0
  0
LTYPE
  5
16
330
5
100
AcDbSymbolTableRecord
100
AcDbLinetypeTableRecord
  2
Continuous
 70
     0
  3
Solid line
 72
    65
 73
     0
 40
0.0
  0
LTYPE
  5
2A
330
5
100
AcDbSymbolTableRecord
100
AcDbLinetypeTableRecord
  2
HIDDEN
 70
     0
  3
Hidden __ __ __ __ __ __ __ __ __ __ __ __ __ __
 72
    65
 73
     2
 40
1.905
 49
1.27
 74
     0
 49
-0.635
 74
     0
  0
LTYPE
  5
2B
330
5
100
AcDbSymbolTableRecord
100
AcDbLinetypeTableRecord
  2
PHANTOM
 70
     0
  3
Phantom ______  __  __  ______  __  __  ______
 72
    65
 73
     6
 40
12.7
 49
6.35
 74
     0
 49
-1.27
 74
     0
 49
1.27
 74
     0
 49
-1.27
 74
     0
 49
1.27
 74
     0
 49
-1.27
 74
     0
  0
LTYPE
  5
2C
330
5
100
AcDbSymbolTableRecord
100
AcDbLinetypeTableRecord
  2
CENTER
 70
     0
  3
Center ____ _ ____ _ ____ _ ____ _ ____ _ ____
 72
    65
 73
     4
 40
10.16
 49
6.35
 74
     0
 49
-1.27
 74
     0
 49
1.27
 74
     0
 49
-1.27
 74
     0
  0
LTYPE
  5
2D
330
5
100
AcDbSymbolTableRecord
100
AcDbLinetypeTableRecord
  2
CENTERX2
 70
     0
  3
Center (2x) ________  __  ________  __  _____
 72
    65
 73
     4
 40
20.32
 49
12.7
 74
     0
 49
-2.54
 74
     0
 49
2.54
 74
     0
 49
-2.54
 74
     0
  0
LTYPE
  5
2E
330
5
100
AcDbSymbolTableRecord
100
AcDbLinetypeTableRecord
  2
DOT2
 70
     0
  3
Dot (.5x) ........................................
 72
    65
 73
     2
 40
0.635
 49
0.0
 74
     0
 49
-0.635
 74
     0
  0
ENDTAB
  0
TABLE
  2
LAYER
  5
2
330
0
100
AcDbSymbolTable
 70
     4
  0
LAYER
  5
10
330
2
100
AcDbSymbolTableRecord
100
AcDbLayerTableRecord
  2
0
 70
     0
 62
     7
  6
Continuous
370
    -3
390
F
  0
LAYER
  5
2F
330
2
100
AcDbSymbolTableRecord
100
AcDbLayerTableRecord
  2
SLD-0
 70
     0
 62
   179
  6
Continuous
370
     0
390
F
  0
LAYER
  5
30
330
2
100
AcDbSymbolTableRecord
100
AcDbLayerTableRecord
  2
SLD-DEFPOINTS
 70
     0
 62
   179
  6
Continuous
370
     0
390
F
  0
LAYER
  5
EA
330
2
100
AcDbSymbolTableRecord
100
AcDbLayerTableRecord
  2
Defpoints
 70
     0
 62
     7
  6
Continuous
290
     0
370
    -3
390
F
  0
ENDTAB
  0
TABLE
  2
STYLE
  5
3
330
0
100
AcDbSymbolTable
 70
     3
  0
STYLE
  5
11
330
3
100
AcDbSymbolTableRecord
100
AcDbTextStyleTableRecord
  2
Standard
 70
     0
 40
0.0
 41
1.0
 50
0.0
 71
     0
 42
2.5
  3
txt
  4
bigfont
  0
STYLE
  5
34
330
3
100
AcDbSymbolTableRecord
100
AcDbTextStyleTableRecord
  2
SLDTEXTSTYLE0
 70
     0
 40
0.0
 41
0.7
 50
0.0
 71
     0
 42
0.2
  3
TXT
  4
bigfont
  0
STYLE
  5
F7
330
3
100
AcDbSymbolTableRecord
100
AcDbTextStyleTableRecord
  2
SLDTEXTSTYLE1
 70
     0
 40
0.0
 41
0.5526315789
 50
0.0
 71
     0
 42
0.2
  3
TXT
  4
bigfont
  0
ENDTAB
  0
TABLE
  2
VIEW
  5
6
330
0
100
AcDbSymbolTable
 70
     0
  0
ENDTAB
  0
TABLE
  2
UCS
  5
7
330
0
100
AcDbSymbolTable
 70
     0
  0
ENDTAB
  0
TABLE
  2
APPID
  5
9
330
0
100
AcDbSymbolTable
 70
     1
  0
APPID
  5
12
330
9
100
AcDbSymbolTableRecord
100
AcDbRegAppTableRecord
  2
ACAD
 70
     0
  0
ENDTAB
  0
TABLE
  2
DIMSTYLE
  5
A
330
0
100
AcDbSymbolTable
 70
     5
100
AcDbDimStyleTable
  0
DIMSTYLE
105
27
330
A
100
AcDbSymbolTableRecord
100
AcDbDimStyleTableRecord
  2
ISO-25
 70
     0
 41
2.5
 42
0.625
 43
3.75
 44
1.25
 73
     0
 74
     0
 77
     1
 78
     8
140
2.5
141
2.5
143
0.0393700787
147
0.625
171
     3
172
     1
271
     2
272
     2
274
     3
278
    44
283
     0
284
     8
340
11
  0
DIMSTYLE
105
F8
102
{ACAD_REACTORS
330
E9
330
106
330
11D
330
150
330
168
330
182
330
19A
330
1B2
330
1CA
330
1E2
330
1FC
330
215
330
231
330
248
102
}
330
A
100
AcDbSymbolTableRecord
100
AcDbDimStyleTableRecord
  2
SLDDIMSTYLE0
 70
     0
 41
3.0
 44
0.0
 73
     0
 74
     0
 77
     3
 78
    12
140
3.5
147
0.875
173
     1
271
     0
272
     3
284
    12
340
F7
341
F9
343
F9
344
F9
  0
DIMSTYLE
105
145
102
{ACAD_REACTORS
330
135
102
}
330
A
100
AcDbSymbolTableRecord
100
AcDbDimStyleTableRecord
  2
SLDDIMSTYLE1
 70
     0
 41
3.0
 44
0.0
 73
     0
 74
     0
 77
     3
 78
    12
140
3.5
147
0.875
173
     1
271
     1
272
     3
284
    12
340
F7
341
F9
343
F9
344
F9
  0
DIMSTYLE
105
269
102
{ACAD_REACTORS
330
25F
330
272
102
}
330
A
100
AcDbSymbolTableRecord
100
AcDbDimStyleTableRecord
  2
SLDDIMSTYLE2
 70
     0
 41
3.0
 44
0.0
 78
    12
140
3.5
147
0.875
172
     1
173
     1
271
     0
272
     3
284
    12
340
F7
341
F9
343
F9
344
F9
  0
DIMSTYLE
105
291
102
{ACAD_REACTORS
330
283
102
}
330
A
100
AcDbSymbolTableRecord
100
AcDbDimStyleTableRecord
  2
SLDDIMSTYLE3
 70
     0
 41
3.0
 44
0.0
 73
     0
 74
     0
 77
     3
 78
    12
140
3.5
147
0.875
173
     1
271
     0
272
     2
284
    12
340
F7
341
F9
343
F9
344
F9
  0
ENDTAB
  0
TABLE
  2
BLOCK_RECORD
  5
1
330
0
100
AcDbSymbolTable
 70
    32
  0
BLOCK_RECORD
  5
1F
330
1
100
AcDbSymbolTableRecord
100
AcDbBlockTableRecord
  2
*Model_Space
340
22
  0
BLOCK_RECORD
  5
1B
330
1
100
AcDbSymbolTableRecord
100
AcDbBlockTableRecord
  2
*Paper_Space
340
1E
  0
BLOCK_RECORD
  5
23
330
1
100
AcDbSymbolTableRecord
100
AcDbBlockTableRecord
  2
*Paper_Space0
340
26
  0
BLOCK_RECORD
  5
31
330
1
100
AcDbSymbolTableRecord
100
AcDbBlockTableRecord
  2
注記
340
0
  0
BLOCK_RECORD
  5
37
330
1
100
AcDbSymbolTableRecord
100
AcDbBlockTableRecord
  2
SW_CENTERMARK0
340
0
102
{BLKREFS
331
2A0
102
}
  0
BLOCK_RECORD
  5
42
330
1
100
AcDbSymbolTableRecord
100
AcDbBlockTableRecord
  2
SW_CENTERMARK1
340
0
102
{BLKREFS
331
2A1
102
}
  0
BLOCK_RECORD
  5
4D
330
1
100
AcDbSymbolTableRecord
100
AcDbBlockTableRecord
  2
SW_CENTERMARK2
340
0
102
{BLKREFS
331
2A2
102
}
  0
BLOCK_RECORD
  5
58
330
1
100
AcDbSymbolTableRecord
100
AcDbBlockTableRecord
  2
SW_CENTERMARK3
340
0
102
{BLKREFS
331
2A3
102
}
  0
BLOCK_RECORD
  5
63
330
1
100
AcDbSymbolTableRecord
100
AcDbBlockTableRecord
  2
SW_CENTERMARK4
340
0
102
{BLKREFS
331
2A4
102
}
  0
BLOCK_RECORD
  5
6E
330
1
100
AcDbSymbolTableRecord
100
AcDbBlockTableRecord
  2
SW_CENTERMARK5
340
0
102
{BLKREFS
331
2A5
102
}
  0
BLOCK_RECORD
  5
79
330
1
100
AcDbSymbolTableRecord
100
AcDbBlockTableRecord
  2
SW_CENTERMARK6
340
0
102
{BLKREFS
331
2A6
102
}
  0
BLOCK_RECORD
  5
84
330
1
100
AcDbSymbolTableRecord
100
AcDbBlockTableRecord
  2
SW_CENTERMARK7
340
0
102
{BLKREFS
331
2A7
102
}
  0
BLOCK_RECORD
  5
8F
330
1
100
AcDbSymbolTableRecord
100
AcDbBlockTableRecord
  2
SW_CENTERMARK8
340
0
102
{BLKREFS
331
2A8
102
}
  0
BLOCK_RECORD
  5
9A
330
1
100
AcDbSymbolTableRecord
100
AcDbBlockTableRecord
  2
SW_CENTERMARK9
340
0
102
{BLKREFS
331
2A9
102
}
  0
BLOCK_RECORD
  5
A5
330
1
100
AcDbSymbolTableRecord
100
AcDbBlockTableRecord
  2
SW_CENTERMARK10
340
0
102
{BLKREFS
331
2AA
102
}
  0
BLOCK_RECORD
  5
EB
330
1
100
AcDbSymbolTableRecord
100
AcDbBlockTableRecord
  2
*D13
340
0
  0
BLOCK_RECORD
  5
F9
330
1
100
AcDbSymbolTableRecord
100
AcDbBlockTableRecord
  2
_None
340
0
102
{BLKREFS
331
F0
331
EF
331
10C
331
10B
331
123
331
122
331
13C
331
13B
331
156
331
155
331
16E
331
16D
331
188
331
187
331
1A0
331
19F
331
1B8
331
1B7
331
1D0
331
1CF
331
1E8
331
1E7
331
202
331
201
331
21C
331
21B
331
237
331
236
331
24E
331
24D
331
264
331
277
331
289
331
288
102
}
  0
BLOCK_RECORD
  5
107
330
1
100
AcDbSymbolTableRecord
100
AcDbBlockTableRecord
  2
*D15
340
0
  0
BLOCK_RECORD
  5
11E
330
1
100
AcDbSymbolTableRecord
100
AcDbBlockTableRecord
  2
*D16
340
0
  0
BLOCK_RECORD
  5
136
330
1
100
AcDbSymbolTableRecord
100
AcDbBlockTableRecord
  2
*D17
340
0
  0
BLOCK_RECORD
  5
151
330
1
100
AcDbSymbolTableRecord
100
AcDbBlockTableRecord
  2
*D18
340
0
  0
BLOCK_RECORD
  5
169
330
1
100
AcDbSymbolTableRecord
100
AcDbBlockTableRecord
  2
*D19
340
0
  0
BLOCK_RECORD
  5
183
330
1
100
AcDbSymbolTableRecord
100
AcDbBlockTableRecord
  2
*D20
340
0
  0
BLOCK_RECORD
  5
19B
330
1
100
AcDbSymbolTableRecord
100
AcDbBlockTableRecord
  2
*D21
340
0
  0
BLOCK_RECORD
  5
1B3
330
1
100
AcDbSymbolTableRecord
100
AcDbBlockTableRecord
  2
*D22
340
0
  0
BLOCK_RECORD
  5
1CB
330
1
100
AcDbSymbolTableRecord
100
AcDbBlockTableRecord
  2
*D23
340
0
  0
BLOCK_RECORD
  5
1E3
330
1
100
AcDbSymbolTableRecord
100
AcDbBlockTableRecord
  2
*D24
340
0
  0
BLOCK_RECORD
  5
1FD
330
1
100
AcDbSymbolTableRecord
100
AcDbBlockTableRecord
  2
*D25
340
0
  0
BLOCK_RECORD
  5
216
330
1
100
AcDbSymbolTableRecord
100
AcDbBlockTableRecord
  2
*D26
340
0
  0
BLOCK_RECORD
  5
232
330
1
100
AcDbSymbolTableRecord
100
AcDbBlockTableRecord
  2
*D27
340
0
  0
BLOCK_RECORD
  5
249
330
1
100
AcDbSymbolTableRecord
100
AcDbBlockTableRecord
  2
*D28
340
0
  0
BLOCK_RECORD
  5
260
330
1
100
AcDbSymbolTableRecord
100
AcDbBlockTableRecord
  2
*D29
340
0
  0
BLOCK_RECORD
  5
273
330
1
100
AcDbSymbolTableRecord
100
AcDbBlockTableRecord
  2
*D30
340
0
  0
BLOCK_RECORD
  5
284
330
1
100
AcDbSymbolTableRecord
100
AcDbBlockTableRecord
  2
*D31
340
0
  0
ENDTAB
  0
ENDSEC
  0
SECTION
  2
BLOCKS
  0
BLOCK
  5
20
330
1F
100
AcDbEntity
  8
0
100
AcDbBlockBegin
  2
*Model_Space
 70
     0
 71
     0
 10
0.0
 20
0.0
 30
0.0
  3
*Model_Space
  1

  0
ENDBLK
  5
21
330
1F
100
AcDbEntity
  8
0
100
AcDbBlockEnd
  0
BLOCK
  5
1C
330
1B
100
AcDbEntity
 67
     1
  8
0
100
AcDbBlockBegin
  2
*Paper_Space
 70
     0
 71
     0
 10
0.0
 20
0.0
 30
0.0
  3
*Paper_Space
  1

  0
ENDBLK
  5
1D
330
1B
100
AcDbEntity
 67
     1
  8
0
100
AcDbBlockEnd
  0
BLOCK
  5
24
330
23
100
AcDbEntity
  8
0
100
AcDbBlockBegin
  2
*Paper_Space0
 70
     0
 71
     0
 10
0.0
 20
0.0
 30
0.0
  3
*Paper_Space0
  1

  0
ENDBLK
  5
25
330
23
100
AcDbEntity
  8
0
100
AcDbBlockEnd
  0
BLOCK
  5
32
330
31
100
AcDbEntity
  8
0
100
AcDbBlockBegin
  2
注記
 70
     0
 71
     0
 10
0.0
 20
0.0
 30
0.0
  3
注記
  1

  0
MTEXT
  5
35
330
31
100
AcDbEntity
  8
0
  6
Continuous
 62
     7
370
     0
100
AcDbMText
 10
0.2636785918
 20
9.0739778448
 30
0.0
 40
3.5
 41
0.0
 71
     1
 72
     1
  1
１．特記ナキ角部ハ、バリ　カエリノ無キコト。
  7
SLDTEXTSTYLE0
 73
     1
 44
1.0
  0
MTEXT
  5
36
330
31
100
AcDbEntity
  8
0
  6
Continuous
 62
     7
370
     0
100
AcDbMText
 10
0.2636785918
 20
3.5759549983
 30
0.0
 40
3.5
 41
0.0
 71
     1
 72
     1
  1
２．特記ナキ隅部ハ、Ｒ０．４ＭＡＸトスル。
  7
SLDTEXTSTYLE0
 73
     1
 44
1.0
  0
ENDBLK
  5
33
330
31
100
AcDbEntity
  8
0
100
AcDbBlockEnd
  0
BLOCK
  5
38
330
37
100
AcDbEntity
  8
0
100
AcDbBlockBegin
  2
SW_CENTERMARK0
 70
     0
 71
     0
 10
0.0
 20
0.0
 30
0.0
  3
SW_CENTERMARK0
  1

  0
LINE
  5
3A
330
37
100
AcDbEntity
  8
SLD-0
  6
Continuous
 62
   179
100
AcDbLine
 10
89.3363247162
 20
204.9940776714
 30
0.0
 11
89.3363247162
 21
207.4940776714
 31
0.0
  0
LINE
  5
3B
330
37
100
AcDbEntity
  8
SLD-0
  6
Continuous
 62
   179
100
AcDbLine
 10
89.3363247162
 20
204.9940776714
 30
0.0
 11
86.8363247162
 21
204.9940776714
 31
0.0
  0
LINE
  5
3C
330
37
100
AcDbEntity
  8
SLD-0
  6
Continuous
 62
   179
100
AcDbLine
 10
89.3363247162
 20
204.9940776714
 30
0.0
 11
89.3363247162
 21
202.4940776714
 31
0.0
  0
LINE
  5
3D
330
37
100
AcDbEntity
  8
SLD-0
  6
Continuous
 62
   179
100
AcDbLine
 10
89.3363247162
 20
204.9940776714
 30
0.0
 11
91.8363247162
 21
204.9940776714
 31
0.0
  0
LINE
  5
3E
330
37
100
AcDbEntity
  8
SLD-0
  6
Continuous
 62
   179
100
AcDbLine
 10
89.3363247162
 20
207.4940776714
 30
0.0
 11
89.3363247162
 21
209.9940776714
 31
0.0
  0
LINE
  5
3F
330
37
100
AcDbEntity
  8
SLD-0
  6
Continuous
 62
   179
100
AcDbLine
 10
86.8363247162
 20
204.9940776714
 30
0.0
 11
84.3363247162
 21
204.9940776714
 31
0.0
  0
LINE
  5
40
330
37
100
AcDbEntity
  8
SLD-0
  6
Continuous
 62
   179
100
AcDbLine
 10
89.3363247162
 20
202.4940776714
 30
0.0
 11
89.3363247162
 21
199.9940776714
 31
0.0
  0
LINE
  5
41
330
37
100
AcDbEntity
  8
SLD-0
  6
Continuous
 62
   179
100
AcDbLine
 10
91.8363247162
 20
204.9940776714
 30
0.0
 11
94.3363247162
 21
204.9940776714
 31
0.0
  0
ENDBLK
  5
39
330
37
100
AcDbEntity
  8
0
100
AcDbBlockEnd
  0
BLOCK
  5
43
330
42
100
AcDbEntity
  8
0
100
AcDbBlockBegin
  2
SW_CENTERMARK1
 70
     0
 71
     0
 10
0.0
 20
0.0
 30
0.0
  3
SW_CENTERMARK1
  1

  0
LINE
  5
45
330
42
100
AcDbEntity
  8
SLD-0
  6
Continuous
 62
   179
100
AcDbLine
 10
89.3363247162
 20
174.9940776714
 30
0.0
 11
89.3363247162
 21
177.4940776714
 31
0.0
  0
LINE
  5
46
330
42
100
AcDbEntity
  8
SLD-0
  6
Continuous
 62
   179
100
AcDbLine
 10
89.3363247162
 20
174.9940776714
 30
0.0
 11
86.8363247162
 21
174.9940776714
 31
0.0
  0
LINE
  5
47
330
42
100
AcDbEntity
  8
SLD-0
  6
Continuous
 62
   179
100
AcDbLine
 10
89.3363247162
 20
174.9940776714
 30
0.0
 11
89.3363247162
 21
172.4940776714
 31
0.0
  0
LINE
  5
48
330
42
100
AcDbEntity
  8
SLD-0
  6
Continuous
 62
   179
100
AcDbLine
 10
89.3363247162
 20
174.9940776714
 30
0.0
 11
91.8363247162
 21
174.9940776714
 31
0.0
  0
LINE
  5
49
330
42
100
AcDbEntity
  8
SLD-0
  6
Continuous
 62
   179
100
AcDbLine
 10
89.3363247162
 20
177.4940776714
 30
0.0
 11
89.3363247162
 21
179.9940776714
 31
0.0
  0
LINE
  5
4A
330
42
100
AcDbEntity
  8
SLD-0
  6
Continuous
 62
   179
100
AcDbLine
 10
86.8363247162
 20
174.9940776714
 30
0.0
 11
84.3363247162
 21
174.9940776714
 31
0.0
  0
LINE
  5
4B
330
42
100
AcDbEntity
  8
SLD-0
  6
Continuous
 62
   179
100
AcDbLine
 10
89.3363247162
 20
172.4940776714
 30
0.0
 11
89.3363247162
 21
169.9940776714
 31
0.0
  0
LINE
  5
4C
330
42
100
AcDbEntity
  8
SLD-0
  6
Continuous
 62
   179
100
AcDbLine
 10
91.8363247162
 20
174.9940776714
 30
0.0
 11
94.3363247162
 21
174.9940776714
 31
0.0
  0
ENDBLK
  5
44
330
42
100
AcDbEntity
  8
0
100
AcDbBlockEnd
  0
BLOCK
  5
4E
330
4D
100
AcDbEntity
  8
0
100
AcDbBlockBegin
  2
SW_CENTERMARK2
 70
     0
 71
     0
 10
0.0
 20
0.0
 30
0.0
  3
SW_CENTERMARK2
  1

  0
LINE
  5
50
330
4D
100
AcDbEntity
  8
SLD-0
  6
Continuous
 62
   179
100
AcDbLine
 10
89.3363247162
 20
154.9940776714
 30
0.0
 11
89.3363247162
 21
157.4940776714
 31
0.0
  0
LINE
  5
51
330
4D
100
AcDbEntity
  8
SLD-0
  6
Continuous
 62
   179
100
AcDbLine
 10
89.3363247162
 20
154.9940776714
 30
0.0
 11
86.8363247162
 21
154.9940776714
 31
0.0
  0
LINE
  5
52
330
4D
100
AcDbEntity
  8
SLD-0
  6
Continuous
 62
   179
100
AcDbLine
 10
89.3363247162
 20
154.9940776714
 30
0.0
 11
89.3363247162
 21
152.4940776714
 31
0.0
  0
LINE
  5
53
330
4D
100
AcDbEntity
  8
SLD-0
  6
Continuous
 62
   179
100
AcDbLine
 10
89.3363247162
 20
154.9940776714
 30
0.0
 11
91.8363247162
 21
154.9940776714
 31
0.0
  0
LINE
  5
54
330
4D
100
AcDbEntity
  8
SLD-0
  6
Continuous
 62
   179
100
AcDbLine
 10
89.3363247162
 20
157.4940776714
 30
0.0
 11
89.3363247162
 21
159.9940776714
 31
0.0
  0
LINE
  5
55
330
4D
100
AcDbEntity
  8
SLD-0
  6
Continuous
 62
   179
100
AcDbLine
 10
86.8363247162
 20
154.9940776714
 30
0.0
 11
84.3363247162
 21
154.9940776714
 31
0.0
  0
LINE
  5
56
330
4D
100
AcDbEntity
  8
SLD-0
  6
Continuous
 62
   179
100
AcDbLine
 10
89.3363247162
 20
152.4940776714
 30
0.0
 11
89.3363247162
 21
149.9940776714
 31
0.0
  0
LINE
  5
57
330
4D
100
AcDbEntity
  8
SLD-0
  6
Continuous
 62
   179
100
AcDbLine
 10
91.8363247162
 20
154.9940776714
 30
0.0
 11
94.3363247162
 21
154.9940776714
 31
0.0
  0
ENDBLK
  5
4F
330
4D
100
AcDbEntity
  8
0
100
AcDbBlockEnd
  0
BLOCK
  5
59
330
58
100
AcDbEntity
  8
0
100
AcDbBlockBegin
  2
SW_CENTERMARK3
 70
     0
 71
     0
 10
0.0
 20
0.0
 30
0.0
  3
SW_CENTERMARK3
  1

  0
LINE
  5
5B
330
58
100
AcDbEntity
  8
SLD-0
  6
Continuous
 62
   179
100
AcDbLine
 10
73.3363247162
 20
174.9940776714
 30
0.0
 11
73.3363247162
 21
177.4940776714
 31
0.0
  0
LINE
  5
5C
330
58
100
AcDbEntity
  8
SLD-0
  6
Continuous
 62
   179
100
AcDbLine
 10
73.3363247162
 20
174.9940776714
 30
0.0
 11
70.8363247162
 21
174.9940776714
 31
0.0
  0
LINE
  5
5D
330
58
100
AcDbEntity
  8
SLD-0
  6
Continuous
 62
   179
100
AcDbLine
 10
73.3363247162
 20
174.9940776714
 30
0.0
 11
73.3363247162
 21
172.4940776714
 31
0.0
  0
LINE
  5
5E
330
58
100
AcDbEntity
  8
SLD-0
  6
Continuous
 62
   179
100
AcDbLine
 10
73.3363247162
 20
174.9940776714
 30
0.0
 11
75.8363247162
 21
174.9940776714
 31
0.0
  0
LINE
  5
5F
330
58
100
AcDbEntity
  8
SLD-0
  6
Continuous
 62
   179
100
AcDbLine
 10
73.3363247162
 20
177.4940776714
 30
0.0
 11
73.3363247162
 21
179.1440776714
 31
0.0
  0
LINE
  5
60
330
58
100
AcDbEntity
  8
SLD-0
  6
Continuous
 62
   179
100
AcDbLine
 10
70.8363247162
 20
174.9940776714
 30
0.0
 11
69.1863247162
 21
174.9940776714
 31
0.0
  0
LINE
  5
61
330
58
100
AcDbEntity
  8
SLD-0
  6
Continuous
 62
   179
100
AcDbLine
 10
73.3363247162
 20
172.4940776714
 30
0.0
 11
73.3363247162
 21
170.8440776714
 31
0.0
  0
LINE
  5
62
330
58
100
AcDbEntity
  8
SLD-0
  6
Continuous
 62
   179
100
AcDbLine
 10
75.8363247162
 20
174.9940776714
 30
0.0
 11
77.4863247162
 21
174.9940776714
 31
0.0
  0
ENDBLK
  5
5A
330
58
100
AcDbEntity
  8
0
100
AcDbBlockEnd
  0
BLOCK
  5
64
330
63
100
AcDbEntity
  8
0
100
AcDbBlockBegin
  2
SW_CENTERMARK4
 70
     0
 71
     0
 10
0.0
 20
0.0
 30
0.0
  3
SW_CENTERMARK4
  1

  0
LINE
  5
66
330
63
100
AcDbEntity
  8
SLD-0
  6
Continuous
 62
   179
100
AcDbLine
 10
73.3363247162
 20
184.9940776714
 30
0.0
 11
73.3363247162
 21
187.4940776714
 31
0.0
  0
LINE
  5
67
330
63
100
AcDbEntity
  8
SLD-0
  6
Continuous
 62
   179
100
AcDbLine
 10
73.3363247162
 20
184.9940776714
 30
0.0
 11
70.8363247162
 21
184.9940776714
 31
0.0
  0
LINE
  5
68
330
63
100
AcDbEntity
  8
SLD-0
  6
Continuous
 62
   179
100
AcDbLine
 10
73.3363247162
 20
184.9940776714
 30
0.0
 11
73.3363247162
 21
182.4940776714
 31
0.0
  0
LINE
  5
69
330
63
100
AcDbEntity
  8
SLD-0
  6
Continuous
 62
   179
100
AcDbLine
 10
73.3363247162
 20
184.9940776714
 30
0.0
 11
75.8363247162
 21
184.9940776714
 31
0.0
  0
LINE
  5
6A
330
63
100
AcDbEntity
  8
SLD-0
  6
Continuous
 62
   179
100
AcDbLine
 10
73.3363247162
 20
187.4940776714
 30
0.0
 11
73.3363247162
 21
189.1440776714
 31
0.0
  0
LINE
  5
6B
330
63
100
AcDbEntity
  8
SLD-0
  6
Continuous
 62
   179
100
AcDbLine
 10
70.8363247162
 20
184.9940776714
 30
0.0
 11
69.1863247162
 21
184.9940776714
 31
0.0
  0
LINE
  5
6C
330
63
100
AcDbEntity
  8
SLD-0
  6
Continuous
 62
   179
100
AcDbLine
 10
73.3363247162
 20
182.4940776714
 30
0.0
 11
73.3363247162
 21
180.8440776714
 31
0.0
  0
LINE
  5
6D
330
63
100
AcDbEntity
  8
SLD-0
  6
Continuous
 62
   179
100
AcDbLine
 10
75.8363247162
 20
184.9940776714
 30
0.0
 11
77.4863247162
 21
184.9940776714
 31
0.0
  0
ENDBLK
  5
65
330
63
100
AcDbEntity
  8
0
100
AcDbBlockEnd
  0
BLOCK
  5
6F
330
6E
100
AcDbEntity
  8
0
100
AcDbBlockBegin
  2
SW_CENTERMARK5
 70
     0
 71
     0
 10
0.0
 20
0.0
 30
0.0
  3
SW_CENTERMARK5
  1

  0
LINE
  5
71
330
6E
100
AcDbEntity
  8
SLD-0
  6
Continuous
 62
   179
100
AcDbLine
 10
105.3363247162
 20
184.9940776714
 30
0.0
 11
105.3363247162
 21
187.4940776714
 31
0.0
  0
LINE
  5
72
330
6E
100
AcDbEntity
  8
SLD-0
  6
Continuous
 62
   179
100
AcDbLine
 10
105.3363247162
 20
184.9940776714
 30
0.0
 11
102.8363247162
 21
184.9940776714
 31
0.0
  0
LINE
  5
73
330
6E
100
AcDbEntity
  8
SLD-0
  6
Continuous
 62
   179
100
AcDbLine
 10
105.3363247162
 20
184.9940776714
 30
0.0
 11
105.3363247162
 21
182.4940776714
 31
0.0
  0
LINE
  5
74
330
6E
100
AcDbEntity
  8
SLD-0
  6
Continuous
 62
   179
100
AcDbLine
 10
105.3363247162
 20
184.9940776714
 30
0.0
 11
107.8363247162
 21
184.9940776714
 31
0.0
  0
LINE
  5
75
330
6E
100
AcDbEntity
  8
SLD-0
  6
Continuous
 62
   179
100
AcDbLine
 10
105.3363247162
 20
187.4940776714
 30
0.0
 11
105.3363247162
 21
189.1440776714
 31
0.0
  0
LINE
  5
76
330
6E
100
AcDbEntity
  8
SLD-0
  6
Continuous
 62
   179
100
AcDbLine
 10
102.8363247162
 20
184.9940776714
 30
0.0
 11
101.1863247162
 21
184.9940776714
 31
0.0
  0
LINE
  5
77
330
6E
100
AcDbEntity
  8
SLD-0
  6
Continuous
 62
   179
100
AcDbLine
 10
105.3363247162
 20
182.4940776714
 30
0.0
 11
105.3363247162
 21
180.8440776714
 31
0.0
  0
LINE
  5
78
330
6E
100
AcDbEntity
  8
SLD-0
  6
Continuous
 62
   179
100
AcDbLine
 10
107.8363247162
 20
184.9940776714
 30
0.0
 11
109.4863247162
 21
184.9940776714
 31
0.0
  0
ENDBLK
  5
70
330
6E
100
AcDbEntity
  8
0
100
AcDbBlockEnd
  0
BLOCK
  5
7A
330
79
100
AcDbEntity
  8
0
100
AcDbBlockBegin
  2
SW_CENTERMARK6
 70
     0
 71
     0
 10
0.0
 20
0.0
 30
0.0
  3
SW_CENTERMARK6
  1

  0
LINE
  5
7C
330
79
100
AcDbEntity
  8
SLD-0
  6
Continuous
 62
   179
100
AcDbLine
 10
105.3363247162
 20
174.9940776714
 30
0.0
 11
105.3363247162
 21
177.4940776714
 31
0.0
  0
LINE
  5
7D
330
79
100
AcDbEntity
  8
SLD-0
  6
Continuous
 62
   179
100
AcDbLine
 10
105.3363247162
 20
174.9940776714
 30
0.0
 11
102.8363247162
 21
174.9940776714
 31
0.0
  0
LINE
  5
7E
330
79
100
AcDbEntity
  8
SLD-0
  6
Continuous
 62
   179
100
AcDbLine
 10
105.3363247162
 20
174.9940776714
 30
0.0
 11
105.3363247162
 21
172.4940776714
 31
0.0
  0
LINE
  5
7F
330
79
100
AcDbEntity
  8
SLD-0
  6
Continuous
 62
   179
100
AcDbLine
 10
105.3363247162
 20
174.9940776714
 30
0.0
 11
107.8363247162
 21
174.9940776714
 31
0.0
  0
LINE
  5
80
330
79
100
AcDbEntity
  8
SLD-0
  6
Continuous
 62
   179
100
AcDbLine
 10
105.3363247162
 20
177.4940776714
 30
0.0
 11
105.3363247162
 21
179.1440776714
 31
0.0
  0
LINE
  5
81
330
79
100
AcDbEntity
  8
SLD-0
  6
Continuous
 62
   179
100
AcDbLine
 10
102.8363247162
 20
174.9940776714
 30
0.0
 11
101.1863247162
 21
174.9940776714
 31
0.0
  0
LINE
  5
82
330
79
100
AcDbEntity
  8
SLD-0
  6
Continuous
 62
   179
100
AcDbLine
 10
105.3363247162
 20
172.4940776714
 30
0.0
 11
105.3363247162
 21
170.8440776714
 31
0.0
  0
LINE
  5
83
330
79
100
AcDbEntity
  8
SLD-0
  6
Continuous
 62
   179
100
AcDbLine
 10
107.8363247162
 20
174.9940776714
 30
0.0
 11
109.4863247162
 21
174.9940776714
 31
0.0
  0
ENDBLK
  5
7B
330
79
100
AcDbEntity
  8
0
100
AcDbBlockEnd
  0
BLOCK
  5
85
330
84
100
AcDbEntity
  8
0
100
AcDbBlockBegin
  2
SW_CENTERMARK7
 70
     0
 71
     0
 10
0.0
 20
0.0
 30
0.0
  3
SW_CENTERMARK7
  1

  0
LINE
  5
87
330
84
100
AcDbEntity
  8
SLD-0
  6
Continuous
 62
   179
100
AcDbLine
 10
99.3363247162
 20
154.9940776714
 30
0.0
 11
99.3363247162
 21
157.4940776714
 31
0.0
  0
LINE
  5
88
330
84
100
AcDbEntity
  8
SLD-0
  6
Continuous
 62
   179
100
AcDbLine
 10
99.3363247162
 20
154.9940776714
 30
0.0
 11
96.8363247162
 21
154.9940776714
 31
0.0
  0
LINE
  5
89
330
84
100
AcDbEntity
  8
SLD-0
  6
Continuous
 62
   179
100
AcDbLine
 10
99.3363247162
 20
154.9940776714
 30
0.0
 11
99.3363247162
 21
152.4940776714
 31
0.0
  0
LINE
  5
8A
330
84
100
AcDbEntity
  8
SLD-0
  6
Continuous
 62
   179
100
AcDbLine
 10
99.3363247162
 20
154.9940776714
 30
0.0
 11
101.8363247162
 21
154.9940776714
 31
0.0
  0
LINE
  5
8B
330
84
100
AcDbEntity
  8
SLD-0
  6
Continuous
 62
   179
100
AcDbLine
 10
99.3363247162
 20
159.9940776714
 30
0.0
 11
99.3363247162
 21
160.7440776714
 31
0.0
  0
LINE
  5
8C
330
84
100
AcDbEntity
  8
SLD-0
  6
Continuous
 62
   179
100
AcDbLine
 10
94.3363247162
 20
154.9940776714
 30
0.0
 11
93.5863247162
 21
154.9940776714
 31
0.0
  0
LINE
  5
8D
330
84
100
AcDbEntity
  8
SLD-0
  6
Continuous
 62
   179
100
AcDbLine
 10
99.3363247162
 20
149.9940776714
 30
0.0
 11
99.3363247162
 21
149.2440776714
 31
0.0
  0
LINE
  5
8E
330
84
100
AcDbEntity
  8
SLD-0
  6
Continuous
 62
   179
100
AcDbLine
 10
104.3363247162
 20
154.9940776714
 30
0.0
 11
105.0863247162
 21
154.9940776714
 31
0.0
  0
ENDBLK
  5
86
330
84
100
AcDbEntity
  8
0
100
AcDbBlockEnd
  0
BLOCK
  5
90
330
8F
100
AcDbEntity
  8
0
100
AcDbBlockBegin
  2
SW_CENTERMARK8
 70
     0
 71
     0
 10
0.0
 20
0.0
 30
0.0
  3
SW_CENTERMARK8
  1

  0
LINE
  5
92
330
8F
100
AcDbEntity
  8
SLD-0
  6
Continuous
 62
   179
100
AcDbLine
 10
99.3363247162
 20
104.9940776714
 30
0.0
 11
99.3363247162
 21
107.4940776714
 31
0.0
  0
LINE
  5
93
330
8F
100
AcDbEntity
  8
SLD-0
  6
Continuous
 62
   179
100
AcDbLine
 10
99.3363247162
 20
104.9940776714
 30
0.0
 11
96.8363247162
 21
104.9940776714
 31
0.0
  0
LINE
  5
94
330
8F
100
AcDbEntity
  8
SLD-0
  6
Continuous
 62
   179
100
AcDbLine
 10
99.3363247162
 20
104.9940776714
 30
0.0
 11
99.3363247162
 21
102.4940776714
 31
0.0
  0
LINE
  5
95
330
8F
100
AcDbEntity
  8
SLD-0
  6
Continuous
 62
   179
100
AcDbLine
 10
99.3363247162
 20
104.9940776714
 30
0.0
 11
101.8363247162
 21
104.9940776714
 31
0.0
  0
LINE
  5
96
330
8F
100
AcDbEntity
  8
SLD-0
  6
Continuous
 62
   179
100
AcDbLine
 10
99.3363247162
 20
109.9940776714
 30
0.0
 11
99.3363247162
 21
110.7440776714
 31
0.0
  0
LINE
  5
97
330
8F
100
AcDbEntity
  8
SLD-0
  6
Continuous
 62
   179
100
AcDbLine
 10
94.3363247162
 20
104.9940776714
 30
0.0
 11
93.5863247162
 21
104.9940776714
 31
0.0
  0
LINE
  5
98
330
8F
100
AcDbEntity
  8
SLD-0
  6
Continuous
 62
   179
100
AcDbLine
 10
99.3363247162
 20
99.9940776714
 30
0.0
 11
99.3363247162
 21
99.2440776714
 31
0.0
  0
LINE
  5
99
330
8F
100
AcDbEntity
  8
SLD-0
  6
Continuous
 62
   179
100
AcDbLine
 10
104.3363247162
 20
104.9940776714
 30
0.0
 11
105.0863247162
 21
104.9940776714
 31
0.0
  0
ENDBLK
  5
91
330
8F
100
AcDbEntity
  8
0
100
AcDbBlockEnd
  0
BLOCK
  5
9B
330
9A
100
AcDbEntity
  8
0
100
AcDbBlockBegin
  2
SW_CENTERMARK9
 70
     0
 71
     0
 10
0.0
 20
0.0
 30
0.0
  3
SW_CENTERMARK9
  1

  0
LINE
  5
9D
330
9A
100
AcDbEntity
  8
SLD-0
  6
Continuous
 62
   179
100
AcDbLine
 10
79.3363247162
 20
104.9940776714
 30
0.0
 11
79.3363247162
 21
107.4940776714
 31
0.0
  0
LINE
  5
9E
330
9A
100
AcDbEntity
  8
SLD-0
  6
Continuous
 62
   179
100
AcDbLine
 10
79.3363247162
 20
104.9940776714
 30
0.0
 11
76.8363247162
 21
104.9940776714
 31
0.0
  0
LINE
  5
9F
330
9A
100
AcDbEntity
  8
SLD-0
  6
Continuous
 62
   179
100
AcDbLine
 10
79.3363247162
 20
104.9940776714
 30
0.0
 11
79.3363247162
 21
102.4940776714
 31
0.0
  0
LINE
  5
A0
330
9A
100
AcDbEntity
  8
SLD-0
  6
Continuous
 62
   179
100
AcDbLine
 10
79.3363247162
 20
104.9940776714
 30
0.0
 11
81.8363247162
 21
104.9940776714
 31
0.0
  0
LINE
  5
A1
330
9A
100
AcDbEntity
  8
SLD-0
  6
Continuous
 62
   179
100
AcDbLine
 10
79.3363247162
 20
109.9940776714
 30
0.0
 11
79.3363247162
 21
110.7440776714
 31
0.0
  0
LINE
  5
A2
330
9A
100
AcDbEntity
  8
SLD-0
  6
Continuous
 62
   179
100
AcDbLine
 10
74.3363247162
 20
104.9940776714
 30
0.0
 11
73.5863247162
 21
104.9940776714
 31
0.0
  0
LINE
  5
A3
330
9A
100
AcDbEntity
  8
SLD-0
  6
Continuous
 62
   179
100
AcDbLine
 10
79.3363247162
 20
99.9940776714
 30
0.0
 11
79.3363247162
 21
99.2440776714
 31
0.0
  0
LINE
  5
A4
330
9A
100
AcDbEntity
  8
SLD-0
  6
Continuous
 62
   179
100
AcDbLine
 10
84.3363247162
 20
104.9940776714
 30
0.0
 11
85.0863247162
 21
104.9940776714
 31
0.0
  0
ENDBLK
  5
9C
330
9A
100
AcDbEntity
  8
0
100
AcDbBlockEnd
  0
BLOCK
  5
A6
330
A5
100
AcDbEntity
  8
0
100
AcDbBlockBegin
  2
SW_CENTERMARK10
 70
     0
 71
     0
 10
0.0
 20
0.0
 30
0.0
  3
SW_CENTERMARK10
  1

  0
LINE
  5
A8
330
A5
100
AcDbEntity
  8
SLD-0
  6
Continuous
 62
   179
100
AcDbLine
 10
79.3363247162
 20
154.9940776714
 30
0.0
 11
79.3363247162
 21
157.4940776714
 31
0.0
  0
LINE
  5
A9
330
A5
100
AcDbEntity
  8
SLD-0
  6
Continuous
 62
   179
100
AcDbLine
 10
79.3363247162
 20
154.9940776714
 30
0.0
 11
76.8363247162
 21
154.9940776714
 31
0.0
  0
LINE
  5
AA
330
A5
100
AcDbEntity
  8
SLD-0
  6
Continuous
 62
   179
100
AcDbLine
 10
79.3363247162
 20
154.9940776714
 30
0.0
 11
79.3363247162
 21
152.4940776714
 31
0.0
  0
LINE
  5
AB
330
A5
100
AcDbEntity
  8
SLD-0
  6
Continuous
 62
   179
100
AcDbLine
 10
79.3363247162
 20
154.9940776714
 30
0.0
 11
81.8363247162
 21
154.9940776714
 31
0.0
  0
LINE
  5
AC
330
A5
100
AcDbEntity
  8
SLD-0
  6
Continuous
 62
   179
100
AcDbLine
 10
79.3363247162
 20
159.9940776714
 30
0.0
 11
79.3363247162
 21
160.7440776714
 31
0.0
  0
LINE
  5
AD
330
A5
100
AcDbEntity
  8
SLD-0
  6
Continuous
 62
   179
100
AcDbLine
 10
74.3363247162
 20
154.9940776714
 30
0.0
 11
73.5863247162
 21
154.9940776714
 31
0.0
  0
LINE
  5
AE
330
A5
100
AcDbEntity
  8
SLD-0
  6
Continuous
 62
   179
100
AcDbLine
 10
79.3363247162
 20
149.9940776714
 30
0.0
 11
79.3363247162
 21
149.2440776714
 31
0.0
  0
LINE
  5
AF
330
A5
100
AcDbEntity
  8
SLD-0
  6
Continuous
 62
   179
100
AcDbLine
 10
84.3363247162
 20
154.9940776714
 30
0.0
 11
85.0863247162
 21
154.9940776714
 31
0.0
  0
ENDBLK
  5
A7
330
A5
100
AcDbEntity
  8
0
100
AcDbBlockEnd
  0
BLOCK
  5
F5
330
EB
100
AcDbEntity
  8
0
100
AcDbBlockBegin
  2
*D13
 70
     1
 71
     0
 10
0.0
 20
0.0
 30
0.0
  3
*D13
  1

  0
LINE
  5
FC
330
EB
100
AcDbEntity
  8
SLD-0
 62
     7
100
AcDbLine
 10
69.3363247162
 20
210.9940776714
 30
0.0
 11
69.3363247162
 21
243.9672703932
 31
0.0
  0
LINE
  5
FD
330
EB
100
AcDbEntity
  8
SLD-0
 62
     7
100
AcDbLine
 10
109.3363247162
 20
210.9940776714
 30
0.0
 11
109.3363247162
 21
243.9672703932
 31
0.0
  0
LINE
  5
FE
330
EB
100
AcDbEntity
  8
SLD-0
 62
     7
100
AcDbLine
 10
69.3363247162
 20
242.9672703932
 30
0.0
 11
109.3363247162
 21
242.9672703932
 31
0.0
  0
LINE
  5
FF
330
EB
100
AcDbEntity
  8
SLD-0
 62
     7
100
AcDbLine
 10
72.3363247162
 20
242.1634233932
 30
0.0
 11
69.3363247162
 21
242.9672703932
 31
0.0
  0
LINE
  5
100
330
EB
100
AcDbEntity
  8
SLD-0
 62
     7
100
AcDbLine
 10
69.3363247162
 20
242.9672703932
 30
0.0
 11
72.3363247162
 21
243.7711173932
 31
0.0
  0
LINE
  5
101
330
EB
100
AcDbEntity
  8
SLD-0
 62
     7
100
AcDbLine
 10
69.3363247162
 20
242.9672703932
 30
0.0
 11
72.3363247162
 21
242.9672703932
 31
0.0
  0
LINE
  5
102
330
EB
100
AcDbEntity
  8
SLD-0
 62
     7
100
AcDbLine
 10
106.3363247162
 20
243.7711173932
 30
0.0
 11
109.3363247162
 21
242.9672703932
 31
0.0
  0
LINE
  5
103
330
EB
100
AcDbEntity
  8
SLD-0
 62
     7
100
AcDbLine
 10
109.3363247162
 20
242.9672703932
 30
0.0
 11
106.3363247162
 21
242.1634233932
 31
0.0
  0
LINE
  5
104
330
EB
100
AcDbEntity
  8
SLD-0
 62
     7
100
AcDbLine
 10
109.3363247162
 20
242.9672703932
 30
0.0
 11
106.3363247162
 21
242.9672703932
 31
0.0
  0
MTEXT
  5
105
330
EB
100
AcDbEntity
  8
SLD-0
 62
     7
100
AcDbMText
 10
87.3008894931
 20
247.4939640892
 30
0.1
 40
3.5
 41
0.0
 71
     1
 72
     1
  1
40
  7
SLDTEXTSTYLE0
 73
     1
 44
1.0
  0
ENDBLK
  5
F6
330
EB
100
AcDbEntity
  8
0
100
AcDbBlockEnd
  0
BLOCK
  5
FA
330
F9
100
AcDbEntity
  8
0
100
AcDbBlockBegin
  2
_None
 70
     0
 71
     0
 10
0.0
 20
0.0
 30
0.0
  3
_None
  1

  0
ENDBLK
  5
FB
330
F9
100
AcDbEntity
  8
0
100
AcDbBlockEnd
  0
BLOCK
  5
111
330
107
100
AcDbEntity
  8
0
100
AcDbBlockBegin
  2
*D15
 70
     1
 71
     0
 10
0.0
 20
0.0
 30
0.0
  3
*D15
  1

  0
LINE
  5
113
330
107
100
AcDbEntity
  8
SLD-0
 62
     7
100
AcDbLine
 10
79.3363247162
 20
98.2440776714
 30
0.0
 11
79.3363247162
 21
83.2586986983
 31
0.0
  0
LINE
  5
114
330
107
100
AcDbEntity
  8
SLD-0
 62
     7
100
AcDbLine
 10
99.3363247162
 20
98.2440776714
 30
0.0
 11
99.3363247162
 21
83.2586986983
 31
0.0
  0
LINE
  5
115
330
107
100
AcDbEntity
  8
SLD-0
 62
     7
100
AcDbLine
 10
79.3363247162
 20
84.2586986983
 30
0.0
 11
99.3363247162
 21
84.2586986983
 31
0.0
  0
LINE
  5
116
330
107
100
AcDbEntity
  8
SLD-0
 62
     7
100
AcDbLine
 10
82.3363247162
 20
83.4548516983
 30
0.0
 11
79.3363247162
 21
84.2586986983
 31
0.0
  0
LINE
  5
117
330
107
100
AcDbEntity
  8
SLD-0
 62
     7
100
AcDbLine
 10
79.3363247162
 20
84.2586986983
 30
0.0
 11
82.3363247162
 21
85.0625456983
 31
0.0
  0
LINE
  5
118
330
107
100
AcDbEntity
  8
SLD-0
 62
     7
100
AcDbLine
 10
79.3363247162
 20
84.2586986983
 30
0.0
 11
82.3363247162
 21
84.2586986983
 31
0.0
  0
LINE
  5
119
330
107
100
AcDbEntity
  8
SLD-0
 62
     7
100
AcDbLine
 10
96.3363247162
 20
85.0625456983
 30
0.0
 11
99.3363247162
 21
84.2586986983
 31
0.0
  0
LINE
  5
11A
330
107
100
AcDbEntity
  8
SLD-0
 62
     7
100
AcDbLine
 10
99.3363247162
 20
84.2586986983
 30
0.0
 11
96.3363247162
 21
83.4548516983
 31
0.0
  0
LINE
  5
11B
330
107
100
AcDbEntity
  8
SLD-0
 62
     7
100
AcDbLine
 10
99.3363247162
 20
84.2586986983
 30
0.0
 11
96.3363247162
 21
84.2586986983
 31
0.0
  0
MTEXT
  5
11C
330
107
100
AcDbEntity
  8
SLD-0
 62
     7
100
AcDbMText
 10
87.3008894931
 20
88.7853923943
 30
0.1
 40
3.5
 41
0.0
 71
     1
 72
     1
  1
20
  7
SLDTEXTSTYLE0
 73
     1
 44
1.0
  0
ENDBLK
  5
112
330
107
100
AcDbEntity
  8
0
100
AcDbBlockEnd
  0
BLOCK
  5
129
330
11E
100
AcDbEntity
  8
0
100
AcDbBlockBegin
  2
*D16
 70
     1
 71
     0
 10
0.0
 20
0.0
 30
0.0
  3
*D16
  1

  0
LINE
  5
12B
330
11E
100
AcDbEntity
  8
SLD-0
 62
     7
100
AcDbLine
 10
72.5863247162
 20
104.9940776714
 30
0.0
 11
45.0576471299
 21
104.9940776714
 31
0.0
  0
LINE
  5
12C
330
11E
100
AcDbEntity
  8
SLD-0
 62
     7
100
AcDbLine
 10
72.5863247162
 20
154.9940776714
 30
0.0
 11
45.0576471299
 21
154.9940776714
 31
0.0
  0
LINE
  5
12D
330
11E
100
AcDbEntity
  8
SLD-0
 62
     7
100
AcDbLine
 10
46.0576471299
 20
104.9940776714
 30
0.0
 11
46.0576471299
 21
154.9940776714
 31
0.0
  0
LINE
  5
12E
330
11E
100
AcDbEntity
  8
SLD-0
 62
     7
100
AcDbLine
 10
46.8614941299
 20
107.9940776714
 30
0.0
 11
46.0576471299
 21
104.9940776714
 31
0.0
  0
LINE
  5
12F
330
11E
100
AcDbEntity
  8
SLD-0
 62
     7
100
AcDbLine
 10
46.0576471299
 20
104.9940776714
 30
0.0
 11
45.2538001299
 21
107.9940776714
 31
0.0
  0
LINE
  5
130
330
11E
100
AcDbEntity
  8
SLD-0
 62
     7
100
AcDbLine
 10
46.0576471299
 20
104.9940776714
 30
0.0
 11
46.0576471299
 21
107.9940776714
 31
0.0
  0
LINE
  5
131
330
11E
100
AcDbEntity
  8
SLD-0
 62
     7
100
AcDbLine
 10
45.2538001299
 20
151.9940776714
 30
0.0
 11
46.0576471299
 21
154.9940776714
 31
0.0
  0
LINE
  5
132
330
11E
100
AcDbEntity
  8
SLD-0
 62
     7
100
AcDbLine
 10
46.0576471299
 20
154.9940776714
 30
0.0
 11
46.8614941299
 21
151.9940776714
 31
0.0
  0
LINE
  5
133
330
11E
100
AcDbEntity
  8
SLD-0
 62
     7
100
AcDbLine
 10
46.0576471299
 20
154.9940776714
 30
0.0
 11
46.0576471299
 21
151.9940776714
 31
0.0
  0
MTEXT
  5
134
330
11E
100
AcDbEntity
  8
SLD-0
 62
     7
100
AcDbMText
 10
41.5309534339
 20
127.9586424483
 30
0.1
 40
3.5
 41
0.0
 71
     1
 72
     1
  1
50
  7
SLDTEXTSTYLE0
 11
6.123031769111886E-17
 21
1.0
 31
0.0
 73
     1
 44
1.0
  0
ENDBLK
  5
12A
330
11E
100
AcDbEntity
  8
0
100
AcDbBlockEnd
  0
BLOCK
  5
143
330
136
100
AcDbEntity
  8
0
100
AcDbBlockBegin
  2
*D17
 70
     1
 71
     0
 10
0.0
 20
0.0
 30
0.0
  3
*D17
  1

  0
LINE
  5
146
330
136
100
AcDbEntity
  8
SLD-0
 62
     7
100
AcDbLine
 10
82.5863247162
 20
126.0531761567
 30
0.0
 11
87.5863247162
 21
126.0531761567
 31
0.0
  0
LINE
  5
147
330
136
100
AcDbEntity
  8
SLD-0
 62
     7
100
AcDbLine
 10
82.5863247162
 20
126.0531761567
 30
0.0
 11
76.0863247162
 21
126.0531761567
 31
0.0
  0
LINE
  5
148
330
136
100
AcDbEntity
  8
SLD-0
 62
     7
100
AcDbLine
 10
76.0863247162
 20
126.0531761567
 30
0.0
 11
54.7706623232
 21
126.0531761567
 31
0.0
  0
LINE
  5
149
330
136
100
AcDbEntity
  8
SLD-0
 62
     7
100
AcDbLine
 10
85.5863247162
 20
125.2493291567
 30
0.0
 11
82.5863247162
 21
126.0531761567
 31
0.0
  0
LINE
  5
14A
330
136
100
AcDbEntity
  8
SLD-0
 62
     7
100
AcDbLine
 10
82.5863247162
 20
126.0531761567
 30
0.0
 11
85.5863247162
 21
126.8570231567
 31
0.0
  0
LINE
  5
14B
330
136
100
AcDbEntity
  8
SLD-0
 62
     7
100
AcDbLine
 10
82.5863247162
 20
126.0531761567
 30
0.0
 11
85.5863247162
 21
126.0531761567
 31
0.0
  0
LINE
  5
14C
330
136
100
AcDbEntity
  8
SLD-0
 62
     7
100
AcDbLine
 10
73.0863247162
 20
126.8570231567
 30
0.0
 11
76.0863247162
 21
126.0531761567
 31
0.0
  0
LINE
  5
14D
330
136
100
AcDbEntity
  8
SLD-0
 62
     7
100
AcDbLine
 10
76.0863247162
 20
126.0531761567
 30
0.0
 11
73.0863247162
 21
125.2493291567
 31
0.0
  0
LINE
  5
14E
330
136
100
AcDbEntity
  8
SLD-0
 62
     7
100
AcDbLine
 10
76.0863247162
 20
126.0531761567
 30
0.0
 11
73.0863247162
 21
126.0531761567
 31
0.0
  0
MTEXT
  5
14F
330
136
100
AcDbEntity
  8
SLD-0
 62
     7
100
AcDbMText
 10
56.3581623232
 20
130.5798698527
 30
0.1
 40
3.5
 41
0.0
 71
     1
 72
     1
  1
6.5
  7
SLDTEXTSTYLE0
 73
     1
 44
1.0
  0
ENDBLK
  5
144
330
136
100
AcDbEntity
  8
0
100
AcDbBlockEnd
  0
BLOCK
  5
15C
330
151
100
AcDbEntity
  8
0
100
AcDbBlockBegin
  2
*D18
 70
     1
 71
     0
 10
0.0
 20
0.0
 30
0.0
  3
*D18
  1

  0
LINE
  5
15E
330
151
100
AcDbEntity
  8
SLD-0
 62
     7
100
AcDbLine
 10
73.3363247162
 20
94.9940776714
 30
0.0
 11
37.1941411814
 21
94.9940776714
 31
0.0
  0
LINE
  5
15F
330
151
100
AcDbEntity
  8
SLD-0
 62
     7
100
AcDbLine
 10
73.3363247162
 20
214.9940776714
 30
0.0
 11
37.1941411814
 21
214.9940776714
 31
0.0
  0
LINE
  5
160
330
151
100
AcDbEntity
  8
SLD-0
 62
     7
100
AcDbLine
 10
38.1941411814
 20
94.9940776714
 30
0.0
 11
38.1941411814
 21
214.9940776714
 31
0.0
  0
LINE
  5
161
330
151
100
AcDbEntity
  8
SLD-0
 62
     7
100
AcDbLine
 10
38.9979881814
 20
97.9940776714
 30
0.0
 11
38.1941411814
 21
94.9940776714
 31
0.0
  0
LINE
  5
162
330
151
100
AcDbEntity
  8
SLD-0
 62
     7
100
AcDbLine
 10
38.1941411814
 20
94.9940776714
 30
0.0
 11
37.3902941814
 21
97.9940776714
 31
0.0
  0
LINE
  5
163
330
151
100
AcDbEntity
  8
SLD-0
 62
     7
100
AcDbLine
 10
38.1941411814
 20
94.9940776714
 30
0.0
 11
38.1941411814
 21
97.9940776714
 31
0.0
  0
LINE
  5
164
330
151
100
AcDbEntity
  8
SLD-0
 62
     7
100
AcDbLine
 10
37.3902941814
 20
211.9940776714
 30
0.0
 11
38.1941411814
 21
214.9940776714
 31
0.0
  0
LINE
  5
165
330
151
100
AcDbEntity
  8
SLD-0
 62
     7
100
AcDbLine
 10
38.1941411814
 20
214.9940776714
 30
0.0
 11
38.9979881814
 21
211.9940776714
 31
0.0
  0
LINE
  5
166
330
151
100
AcDbEntity
  8
SLD-0
 62
     7
100
AcDbLine
 10
38.1941411814
 20
214.9940776714
 30
0.0
 11
38.1941411814
 21
211.9940776714
 31
0.0
  0
MTEXT
  5
167
330
151
100
AcDbEntity
  8
SLD-0
 62
     7
100
AcDbMText
 10
33.6674474855
 20
151.9390976955
 30
0.1
 40
3.5
 41
0.0
 71
     1
 72
     1
  1
120
  7
SLDTEXTSTYLE0
 11
6.123031769111886E-17
 21
1.0
 31
0.0
 73
     1
 44
1.0
  0
ENDBLK
  5
15D
330
151
100
AcDbEntity
  8
0
100
AcDbBlockEnd
  0
BLOCK
  5
174
330
169
100
AcDbEntity
  8
0
100
AcDbBlockBegin
  2
*D19
 70
     1
 71
     0
 10
0.0
 20
0.0
 30
0.0
  3
*D19
  1

  0
LINE
  5
176
330
169
100
AcDbEntity
  8
SLD-0
 62
     7
100
AcDbLine
 10
105.3363247162
 20
214.9940776714
 30
0.0
 11
123.1445973473
 21
214.9940776714
 31
0.0
  0
LINE
  5
177
330
169
100
AcDbEntity
  8
SLD-0
 62
     7
100
AcDbLine
 10
95.3363247162
 20
204.9940776714
 30
0.0
 11
123.1445973473
 21
204.9940776714
 31
0.0
  0
LINE
  5
178
330
169
100
AcDbEntity
  8
SLD-0
 62
     7
100
AcDbLine
 10
122.1445973473
 20
214.9940776714
 30
0.0
 11
122.1445973473
 21
219.9940776714
 31
0.0
  0
LINE
  5
179
330
169
100
AcDbEntity
  8
SLD-0
 62
     7
100
AcDbLine
 10
122.1445973473
 20
214.9940776714
 30
0.0
 11
122.1445973473
 21
204.9940776714
 31
0.0
  0
LINE
  5
17A
330
169
100
AcDbEntity
  8
SLD-0
 62
     7
100
AcDbLine
 10
122.1445973473
 20
204.9940776714
 30
0.0
 11
122.1445973473
 21
199.9940776714
 31
0.0
  0
LINE
  5
17B
330
169
100
AcDbEntity
  8
SLD-0
 62
     7
100
AcDbLine
 10
122.9484443473
 20
217.9940776714
 30
0.0
 11
122.1445973473
 21
214.9940776714
 31
0.0
  0
LINE
  5
17C
330
169
100
AcDbEntity
  8
SLD-0
 62
     7
100
AcDbLine
 10
122.1445973473
 20
214.9940776714
 30
0.0
 11
121.3407503473
 21
217.9940776714
 31
0.0
  0
LINE
  5
17D
330
169
100
AcDbEntity
  8
SLD-0
 62
     7
100
AcDbLine
 10
122.1445973473
 20
214.9940776714
 30
0.0
 11
122.1445973473
 21
217.9940776714
 31
0.0
  0
LINE
  5
17E
330
169
100
AcDbEntity
  8
SLD-0
 62
     7
100
AcDbLine
 10
121.3407503473
 20
201.9940776714
 30
0.0
 11
122.1445973473
 21
204.9940776714
 31
0.0
  0
LINE
  5
17F
330
169
100
AcDbEntity
  8
SLD-0
 62
     7
100
AcDbLine
 10
122.1445973473
 20
204.9940776714
 30
0.0
 11
122.9484443473
 21
201.9940776714
 31
0.0
  0
LINE
  5
180
330
169
100
AcDbEntity
  8
SLD-0
 62
     7
100
AcDbLine
 10
122.1445973473
 20
204.9940776714
 30
0.0
 11
122.1445973473
 21
201.9940776714
 31
0.0
  0
MTEXT
  5
181
330
169
100
AcDbEntity
  8
SLD-0
 62
     7
100
AcDbMText
 10
117.6179036514
 20
207.9586424483
 30
0.1
 40
3.5
 41
0.0
 71
     1
 72
     1
  1
10
  7
SLDTEXTSTYLE0
 11
6.123031769111886E-17
 21
1.0
 31
0.0
 73
     1
 44
1.0
  0
ENDBLK
  5
175
330
169
100
AcDbEntity
  8
0
100
AcDbBlockEnd
  0
BLOCK
  5
18E
330
183
100
AcDbEntity
  8
0
100
AcDbBlockBegin
  2
*D20
 70
     1
 71
     0
 10
0.0
 20
0.0
 30
0.0
  3
*D20
  1

  0
LINE
  5
190
330
183
100
AcDbEntity
  8
SLD-0
 62
     7
100
AcDbLine
 10
95.3363247162
 20
204.9940776714
 30
0.0
 11
123.1445973473
 21
204.9940776714
 31
0.0
  0
LINE
  5
191
330
183
100
AcDbEntity
  8
SLD-0
 62
     7
100
AcDbLine
 10
95.3363247162
 20
174.9940776714
 30
0.0
 11
123.1445973473
 21
174.9940776714
 31
0.0
  0
LINE
  5
192
330
183
100
AcDbEntity
  8
SLD-0
 62
     7
100
AcDbLine
 10
122.1445973473
 20
204.9940776714
 30
0.0
 11
122.1445973473
 21
174.9940776714
 31
0.0
  0
LINE
  5
193
330
183
100
AcDbEntity
  8
SLD-0
 62
     7
100
AcDbLine
 10
121.3407503473
 20
201.9940776714
 30
0.0
 11
122.1445973473
 21
204.9940776714
 31
0.0
  0
LINE
  5
194
330
183
100
AcDbEntity
  8
SLD-0
 62
     7
100
AcDbLine
 10
122.1445973473
 20
204.9940776714
 30
0.0
 11
122.9484443473
 21
201.9940776714
 31
0.0
  0
LINE
  5
195
330
183
100
AcDbEntity
  8
SLD-0
 62
     7
100
AcDbLine
 10
122.1445973473
 20
204.9940776714
 30
0.0
 11
122.1445973473
 21
201.9940776714
 31
0.0
  0
LINE
  5
196
330
183
100
AcDbEntity
  8
SLD-0
 62
     7
100
AcDbLine
 10
122.9484443473
 20
177.9940776714
 30
0.0
 11
122.1445973473
 21
174.9940776714
 31
0.0
  0
LINE
  5
197
330
183
100
AcDbEntity
  8
SLD-0
 62
     7
100
AcDbLine
 10
122.1445973473
 20
174.9940776714
 30
0.0
 11
121.3407503473
 21
177.9940776714
 31
0.0
  0
LINE
  5
198
330
183
100
AcDbEntity
  8
SLD-0
 62
     7
100
AcDbLine
 10
122.1445973473
 20
174.9940776714
 30
0.0
 11
122.1445973473
 21
177.9940776714
 31
0.0
  0
MTEXT
  5
199
330
183
100
AcDbEntity
  8
SLD-0
 62
     7
100
AcDbMText
 10
117.6179036514
 20
187.9586424483
 30
0.1
 40
3.5
 41
0.0
 71
     1
 72
     1
  1
30
  7
SLDTEXTSTYLE0
 11
6.123031769111886E-17
 21
1.0
 31
0.0
 73
     1
 44
1.0
  0
ENDBLK
  5
18F
330
183
100
AcDbEntity
  8
0
100
AcDbBlockEnd
  0
BLOCK
  5
1A6
330
19B
100
AcDbEntity
  8
0
100
AcDbBlockBegin
  2
*D21
 70
     1
 71
     0
 10
0.0
 20
0.0
 30
0.0
  3
*D21
  1

  0
LINE
  5
1A8
330
19B
100
AcDbEntity
  8
SLD-0
 62
     7
100
AcDbLine
 10
95.3363247162
 20
154.9940776714
 30
0.0
 11
123.1445973473
 21
154.9940776714
 31
0.0
  0
LINE
  5
1A9
330
19B
100
AcDbEntity
  8
SLD-0
 62
     7
100
AcDbLine
 10
95.3363247162
 20
174.9940776714
 30
0.0
 11
123.1445973473
 21
174.9940776714
 31
0.0
  0
LINE
  5
1AA
330
19B
100
AcDbEntity
  8
SLD-0
 62
     7
100
AcDbLine
 10
122.1445973473
 20
154.9940776714
 30
0.0
 11
122.1445973473
 21
174.9940776714
 31
0.0
  0
LINE
  5
1AB
330
19B
100
AcDbEntity
  8
SLD-0
 62
     7
100
AcDbLine
 10
122.9484443473
 20
157.9940776714
 30
0.0
 11
122.1445973473
 21
154.9940776714
 31
0.0
  0
LINE
  5
1AC
330
19B
100
AcDbEntity
  8
SLD-0
 62
     7
100
AcDbLine
 10
122.1445973473
 20
154.9940776714
 30
0.0
 11
121.3407503473
 21
157.9940776714
 31
0.0
  0
LINE
  5
1AD
330
19B
100
AcDbEntity
  8
SLD-0
 62
     7
100
AcDbLine
 10
122.1445973473
 20
154.9940776714
 30
0.0
 11
122.1445973473
 21
157.9940776714
 31
0.0
  0
LINE
  5
1AE
330
19B
100
AcDbEntity
  8
SLD-0
 62
     7
100
AcDbLine
 10
121.3407503473
 20
171.9940776714
 30
0.0
 11
122.1445973473
 21
174.9940776714
 31
0.0
  0
LINE
  5
1AF
330
19B
100
AcDbEntity
  8
SLD-0
 62
     7
100
AcDbLine
 10
122.1445973473
 20
174.9940776714
 30
0.0
 11
122.9484443473
 21
171.9940776714
 31
0.0
  0
LINE
  5
1B0
330
19B
100
AcDbEntity
  8
SLD-0
 62
     7
100
AcDbLine
 10
122.1445973473
 20
174.9940776714
 30
0.0
 11
122.1445973473
 21
171.9940776714
 31
0.0
  0
MTEXT
  5
1B1
330
19B
100
AcDbEntity
  8
SLD-0
 62
     7
100
AcDbMText
 10
117.6179036514
 20
162.9586424483
 30
0.1
 40
3.5
 41
0.0
 71
     1
 72
     1
  1
20
  7
SLDTEXTSTYLE0
 11
6.123031769111886E-17
 21
1.0
 31
0.0
 73
     1
 44
1.0
  0
ENDBLK
  5
1A7
330
19B
100
AcDbEntity
  8
0
100
AcDbBlockEnd
  0
BLOCK
  5
1BE
330
1B3
100
AcDbEntity
  8
0
100
AcDbBlockBegin
  2
*D22
 70
     1
 71
     0
 10
0.0
 20
0.0
 30
0.0
  3
*D22
  1

  0
LINE
  5
1C0
330
1B3
100
AcDbEntity
  8
SLD-0
 62
     7
100
AcDbLine
 10
73.3363247162
 20
214.9940776714
 30
0.0
 11
45.0576471299
 21
214.9940776714
 31
0.0
  0
LINE
  5
1C1
330
1B3
100
AcDbEntity
  8
SLD-0
 62
     7
100
AcDbLine
 10
78.3363247162
 20
154.9940776714
 30
0.0
 11
45.0576471299
 21
154.9940776714
 31
0.0
  0
LINE
  5
1C2
330
1B3
100
AcDbEntity
  8
SLD-0
 62
     7
100
AcDbLine
 10
46.0576471299
 20
214.9940776714
 30
0.0
 11
46.0576471299
 21
154.9940776714
 31
0.0
  0
LINE
  5
1C3
330
1B3
100
AcDbEntity
  8
SLD-0
 62
     7
100
AcDbLine
 10
45.2538001299
 20
211.9940776714
 30
0.0
 11
46.0576471299
 21
214.9940776714
 31
0.0
  0
LINE
  5
1C4
330
1B3
100
AcDbEntity
  8
SLD-0
 62
     7
100
AcDbLine
 10
46.0576471299
 20
214.9940776714
 30
0.0
 11
46.8614941299
 21
211.9940776714
 31
0.0
  0
LINE
  5
1C5
330
1B3
100
AcDbEntity
  8
SLD-0
 62
     7
100
AcDbLine
 10
46.0576471299
 20
214.9940776714
 30
0.0
 11
46.0576471299
 21
211.9940776714
 31
0.0
  0
LINE
  5
1C6
330
1B3
100
AcDbEntity
  8
SLD-0
 62
     7
100
AcDbLine
 10
46.8614941299
 20
157.9940776714
 30
0.0
 11
46.0576471299
 21
154.9940776714
 31
0.0
  0
LINE
  5
1C7
330
1B3
100
AcDbEntity
  8
SLD-0
 62
     7
100
AcDbLine
 10
46.0576471299
 20
154.9940776714
 30
0.0
 11
45.2538001299
 21
157.9940776714
 31
0.0
  0
LINE
  5
1C8
330
1B3
100
AcDbEntity
  8
SLD-0
 62
     7
100
AcDbLine
 10
46.0576471299
 20
154.9940776714
 30
0.0
 11
46.0576471299
 21
157.9940776714
 31
0.0
  0
MTEXT
  5
1C9
330
1B3
100
AcDbEntity
  8
SLD-0
 62
     7
100
AcDbMText
 10
41.5309534339
 20
182.9586424483
 30
0.1
 40
3.5
 41
0.0
 71
     1
 72
     1
  1
60
  7
SLDTEXTSTYLE0
 11
6.123031769111886E-17
 21
1.0
 31
0.0
 73
     1
 44
1.0
  0
ENDBLK
  5
1BF
330
1B3
100
AcDbEntity
  8
0
100
AcDbBlockEnd
  0
BLOCK
  5
1D6
330
1CB
100
AcDbEntity
  8
0
100
AcDbBlockBegin
  2
*D23
 70
     1
 71
     0
 10
0.0
 20
0.0
 30
0.0
  3
*D23
  1

  0
LINE
  5
1D8
330
1CB
100
AcDbEntity
  8
SLD-0
 62
     7
100
AcDbLine
 10
73.3363247162
 20
214.9940776714
 30
0.0
 11
54.000642299
 21
214.9940776714
 31
0.0
  0
LINE
  5
1D9
330
1CB
100
AcDbEntity
  8
SLD-0
 62
     7
100
AcDbLine
 10
68.1863247162
 20
184.9940776714
 30
0.0
 11
54.000642299
 21
184.9940776714
 31
0.0
  0
LINE
  5
1DA
330
1CB
100
AcDbEntity
  8
SLD-0
 62
     7
100
AcDbLine
 10
55.000642299
 20
214.9940776714
 30
0.0
 11
55.000642299
 21
184.9940776714
 31
0.0
  0
LINE
  5
1DB
330
1CB
100
AcDbEntity
  8
SLD-0
 62
     7
100
AcDbLine
 10
54.196795299
 20
211.9940776714
 30
0.0
 11
55.000642299
 21
214.9940776714
 31
0.0
  0
LINE
  5
1DC
330
1CB
100
AcDbEntity
  8
SLD-0
 62
     7
100
AcDbLine
 10
55.000642299
 20
214.9940776714
 30
0.0
 11
55.804489299
 21
211.9940776714
 31
0.0
  0
LINE
  5
1DD
330
1CB
100
AcDbEntity
  8
SLD-0
 62
     7
100
AcDbLine
 10
55.000642299
 20
214.9940776714
 30
0.0
 11
55.000642299
 21
211.9940776714
 31
0.0
  0
LINE
  5
1DE
330
1CB
100
AcDbEntity
  8
SLD-0
 62
     7
100
AcDbLine
 10
55.804489299
 20
187.9940776714
 30
0.0
 11
55.000642299
 21
184.9940776714
 31
0.0
  0
LINE
  5
1DF
330
1CB
100
AcDbEntity
  8
SLD-0
 62
     7
100
AcDbLine
 10
55.000642299
 20
184.9940776714
 30
0.0
 11
54.196795299
 21
187.9940776714
 31
0.0
  0
LINE
  5
1E0
330
1CB
100
AcDbEntity
  8
SLD-0
 62
     7
100
AcDbLine
 10
55.000642299
 20
184.9940776714
 30
0.0
 11
55.000642299
 21
187.9940776714
 31
0.0
  0
MTEXT
  5
1E1
330
1CB
100
AcDbEntity
  8
SLD-0
 62
     7
100
AcDbMText
 10
50.4739486031
 20
197.9586424483
 30
0.1
 40
3.5
 41
0.0
 71
     1
 72
     1
  1
30
  7
SLDTEXTSTYLE0
 11
6.123031769111886E-17
 21
1.0
 31
0.0
 73
     1
 44
1.0
  0
ENDBLK
  5
1D7
330
1CB
100
AcDbEntity
  8
0
100
AcDbBlockEnd
  0
BLOCK
  5
1EE
330
1E3
100
AcDbEntity
  8
0
100
AcDbBlockBegin
  2
*D24
 70
     1
 71
     0
 10
0.0
 20
0.0
 30
0.0
  3
*D24
  1

  0
LINE
  5
1F0
330
1E3
100
AcDbEntity
  8
SLD-0
 62
     7
100
AcDbLine
 10
68.1863247162
 20
174.9940776714
 30
0.0
 11
54.000642299
 21
174.9940776714
 31
0.0
  0
LINE
  5
1F1
330
1E3
100
AcDbEntity
  8
SLD-0
 62
     7
100
AcDbLine
 10
68.1863247162
 20
184.9940776714
 30
0.0
 11
54.000642299
 21
184.9940776714
 31
0.0
  0
LINE
  5
1F2
330
1E3
100
AcDbEntity
  8
SLD-0
 62
     7
100
AcDbLine
 10
55.000642299
 20
174.9940776714
 30
0.0
 11
55.000642299
 21
169.9940776714
 31
0.0
  0
LINE
  5
1F3
330
1E3
100
AcDbEntity
  8
SLD-0
 62
     7
100
AcDbLine
 10
55.000642299
 20
174.9940776714
 30
0.0
 11
55.000642299
 21
184.9940776714
 31
0.0
  0
LINE
  5
1F4
330
1E3
100
AcDbEntity
  8
SLD-0
 62
     7
100
AcDbLine
 10
55.000642299
 20
184.9940776714
 30
0.0
 11
55.000642299
 21
189.9940776714
 31
0.0
  0
LINE
  5
1F5
330
1E3
100
AcDbEntity
  8
SLD-0
 62
     7
100
AcDbLine
 10
54.196795299
 20
171.9940776714
 30
0.0
 11
55.000642299
 21
174.9940776714
 31
0.0
  0
LINE
  5
1F6
330
1E3
100
AcDbEntity
  8
SLD-0
 62
     7
100
AcDbLine
 10
55.000642299
 20
174.9940776714
 30
0.0
 11
55.804489299
 21
171.9940776714
 31
0.0
  0
LINE
  5
1F7
330
1E3
100
AcDbEntity
  8
SLD-0
 62
     7
100
AcDbLine
 10
55.000642299
 20
174.9940776714
 30
0.0
 11
55.000642299
 21
171.9940776714
 31
0.0
  0
LINE
  5
1F8
330
1E3
100
AcDbEntity
  8
SLD-0
 62
     7
100
AcDbLine
 10
55.804489299
 20
187.9940776714
 30
0.0
 11
55.000642299
 21
184.9940776714
 31
0.0
  0
LINE
  5
1F9
330
1E3
100
AcDbEntity
  8
SLD-0
 62
     7
100
AcDbLine
 10
55.000642299
 20
184.9940776714
 30
0.0
 11
54.196795299
 21
187.9940776714
 31
0.0
  0
LINE
  5
1FA
330
1E3
100
AcDbEntity
  8
SLD-0
 62
     7
100
AcDbLine
 10
55.000642299
 20
184.9940776714
 30
0.0
 11
55.000642299
 21
187.9940776714
 31
0.0
  0
MTEXT
  5
1FB
330
1E3
100
AcDbEntity
  8
SLD-0
 62
     7
100
AcDbMText
 10
50.4739486031
 20
177.9586424483
 30
0.1
 40
3.5
 41
0.0
 71
     1
 72
     1
  1
10
  7
SLDTEXTSTYLE0
 11
6.123031769111886E-17
 21
1.0
 31
0.0
 73
     1
 44
1.0
  0
ENDBLK
  5
1EF
330
1E3
100
AcDbEntity
  8
0
100
AcDbBlockEnd
  0
BLOCK
  5
207
330
1FD
100
AcDbEntity
  8
0
100
AcDbBlockBegin
  2
*D25
 70
     1
 71
     0
 10
0.0
 20
0.0
 30
0.0
  3
*D25
  1

  0
LINE
  5
209
330
1FD
100
AcDbEntity
  8
SLD-0
 62
     7
100
AcDbLine
 10
69.3363247162
 20
98.9940776714
 30
0.0
 11
69.3363247162
 21
83.2586986983
 31
0.0
  0
LINE
  5
20A
330
1FD
100
AcDbEntity
  8
SLD-0
 62
     7
100
AcDbLine
 10
79.3363247162
 20
101.9940776714
 30
0.0
 11
79.3363247162
 21
83.2586986983
 31
0.0
  0
LINE
  5
20B
330
1FD
100
AcDbEntity
  8
SLD-0
 62
     7
100
AcDbLine
 10
69.3363247162
 20
84.2586986983
 30
0.0
 11
64.3363247162
 21
84.2586986983
 31
0.0
  0
LINE
  5
20C
330
1FD
100
AcDbEntity
  8
SLD-0
 62
     7
100
AcDbLine
 10
69.3363247162
 20
84.2586986983
 30
0.0
 11
79.3363247162
 21
84.2586986983
 31
0.0
  0
LINE
  5
20D
330
1FD
100
AcDbEntity
  8
SLD-0
 62
     7
100
AcDbLine
 10
79.3363247162
 20
84.2586986983
 30
0.0
 11
84.3363247162
 21
84.2586986983
 31
0.0
  0
LINE
  5
20E
330
1FD
100
AcDbEntity
  8
SLD-0
 62
     7
100
AcDbLine
 10
66.3363247162
 20
85.0625456983
 30
0.0
 11
69.3363247162
 21
84.2586986983
 31
0.0
  0
LINE
  5
20F
330
1FD
100
AcDbEntity
  8
SLD-0
 62
     7
100
AcDbLine
 10
69.3363247162
 20
84.2586986983
 30
0.0
 11
66.3363247162
 21
83.4548516983
 31
0.0
  0
LINE
  5
210
330
1FD
100
AcDbEntity
  8
SLD-0
 62
     7
100
AcDbLine
 10
69.3363247162
 20
84.2586986983
 30
0.0
 11
66.3363247162
 21
84.2586986983
 31
0.0
  0
LINE
  5
211
330
1FD
100
AcDbEntity
  8
SLD-0
 62
     7
100
AcDbLine
 10
82.3363247162
 20
83.4548516983
 30
0.0
 11
79.3363247162
 21
84.2586986983
 31
0.0
  0
LINE
  5
212
330
1FD
100
AcDbEntity
  8
SLD-0
 62
     7
100
AcDbLine
 10
79.3363247162
 20
84.2586986983
 30
0.0
 11
82.3363247162
 21
85.0625456983
 31
0.0
  0
LINE
  5
213
330
1FD
100
AcDbEntity
  8
SLD-0
 62
     7
100
AcDbLine
 10
79.3363247162
 20
84.2586986983
 30
0.0
 11
82.3363247162
 21
84.2586986983
 31
0.0
  0
MTEXT
  5
214
330
1FD
100
AcDbEntity
  8
SLD-0
 62
     7
100
AcDbMText
 10
72.3008894931
 20
88.7853923943
 30
0.1
 40
3.5
 41
0.0
 71
     1
 72
     1
  1
10
  7
SLDTEXTSTYLE0
 73
     1
 44
1.0
  0
ENDBLK
  5
208
330
1FD
100
AcDbEntity
  8
0
100
AcDbBlockEnd
  0
BLOCK
  5
223
330
216
100
AcDbEntity
  8
0
100
AcDbBlockBegin
  2
*D26
 70
     1
 71
     0
 10
0.0
 20
0.0
 30
0.0
  3
*D26
  1

  0
LINE
  5
225
330
216
100
AcDbEntity
  8
SLD-0
 62
     7
100
AcDbLine
 10
69.3363247162
 20
210.9940776714
 30
0.0
 11
69.3363247162
 21
235.0411241147
 31
0.0
  0
LINE
  5
226
330
216
100
AcDbEntity
  8
SLD-0
 62
     7
100
AcDbLine
 10
73.3363247162
 20
190.1440776714
 30
0.0
 11
73.3363247162
 21
235.0411241147
 31
0.0
  0
LINE
  5
227
330
216
100
AcDbEntity
  8
SLD-0
 62
     7
100
AcDbLine
 10
69.3363247162
 20
234.0411241147
 30
0.0
 11
58.3863024717
 21
234.0411241147
 31
0.0
  0
LINE
  5
228
330
216
100
AcDbEntity
  8
SLD-0
 62
     7
100
AcDbLine
 10
69.3363247162
 20
234.0411241147
 30
0.0
 11
73.3363247162
 21
234.0411241147
 31
0.0
  0
LINE
  5
229
330
216
100
AcDbEntity
  8
SLD-0
 62
     7
100
AcDbLine
 10
73.3363247162
 20
234.0411241147
 30
0.0
 11
78.3363247162
 21
234.0411241147
 31
0.0
  0
LINE
  5
22A
330
216
100
AcDbEntity
  8
SLD-0
 62
     7
100
AcDbLine
 10
66.3363247162
 20
234.8449711147
 30
0.0
 11
69.3363247162
 21
234.0411241147
 31
0.0
  0
LINE
  5
22B
330
216
100
AcDbEntity
  8
SLD-0
 62
     7
100
AcDbLine
 10
69.3363247162
 20
234.0411241147
 30
0.0
 11
66.3363247162
 21
233.2372771147
 31
0.0
  0
LINE
  5
22C
330
216
100
AcDbEntity
  8
SLD-0
 62
     7
100
AcDbLine
 10
69.3363247162
 20
234.0411241147
 30
0.0
 11
66.3363247162
 21
234.0411241147
 31
0.0
  0
LINE
  5
22D
330
216
100
AcDbEntity
  8
SLD-0
 62
     7
100
AcDbLine
 10
76.3363247162
 20
233.2372771147
 30
0.0
 11
73.3363247162
 21
234.0411241147
 31
0.0
  0
LINE
  5
22E
330
216
100
AcDbEntity
  8
SLD-0
 62
     7
100
AcDbLine
 10
73.3363247162
 20
234.0411241147
 30
0.0
 11
76.3363247162
 21
234.8449711147
 31
0.0
  0
LINE
  5
22F
330
216
100
AcDbEntity
  8
SLD-0
 62
     7
100
AcDbLine
 10
73.3363247162
 20
234.0411241147
 30
0.0
 11
76.3363247162
 21
234.0411241147
 31
0.0
  0
MTEXT
  5
230
330
216
100
AcDbEntity
  8
SLD-0
 62
     7
100
AcDbMText
 10
59.9738024717
 20
238.5678178106
 30
0.1
 40
3.5
 41
0.0
 71
     1
 72
     1
  1
4
  7
SLDTEXTSTYLE0
 73
     1
 44
1.0
  0
ENDBLK
  5
224
330
216
100
AcDbEntity
  8
0
100
AcDbBlockEnd
  0
BLOCK
  5
23C
330
232
100
AcDbEntity
  8
0
100
AcDbBlockBegin
  2
*D27
 70
     1
 71
     0
 10
0.0
 20
0.0
 30
0.0
  3
*D27
  1

  0
LINE
  5
23E
330
232
100
AcDbEntity
  8
SLD-0
 62
     7
100
AcDbLine
 10
73.3363247162
 20
190.1440776714
 30
0.0
 11
73.3363247162
 21
235.0411241147
 31
0.0
  0
LINE
  5
23F
330
232
100
AcDbEntity
  8
SLD-0
 62
     7
100
AcDbLine
 10
105.3363247162
 20
190.1440776714
 30
0.0
 11
105.3363247162
 21
235.0411241147
 31
0.0
  0
LINE
  5
240
330
232
100
AcDbEntity
  8
SLD-0
 62
     7
100
AcDbLine
 10
73.3363247162
 20
234.0411241147
 30
0.0
 11
105.3363247162
 21
234.0411241147
 31
0.0
  0
LINE
  5
241
330
232
100
AcDbEntity
  8
SLD-0
 62
     7
100
AcDbLine
 10
76.3363247162
 20
233.2372771147
 30
0.0
 11
73.3363247162
 21
234.0411241147
 31
0.0
  0
LINE
  5
242
330
232
100
AcDbEntity
  8
SLD-0
 62
     7
100
AcDbLine
 10
73.3363247162
 20
234.0411241147
 30
0.0
 11
76.3363247162
 21
234.8449711147
 31
0.0
  0
LINE
  5
243
330
232
100
AcDbEntity
  8
SLD-0
 62
     7
100
AcDbLine
 10
73.3363247162
 20
234.0411241147
 30
0.0
 11
76.3363247162
 21
234.0411241147
 31
0.0
  0
LINE
  5
244
330
232
100
AcDbEntity
  8
SLD-0
 62
     7
100
AcDbLine
 10
102.3363247162
 20
234.8449711147
 30
0.0
 11
105.3363247162
 21
234.0411241147
 31
0.0
  0
LINE
  5
245
330
232
100
AcDbEntity
  8
SLD-0
 62
     7
100
AcDbLine
 10
105.3363247162
 20
234.0411241147
 30
0.0
 11
102.3363247162
 21
233.2372771147
 31
0.0
  0
LINE
  5
246
330
232
100
AcDbEntity
  8
SLD-0
 62
     7
100
AcDbLine
 10
105.3363247162
 20
234.0411241147
 30
0.0
 11
102.3363247162
 21
234.0411241147
 31
0.0
  0
MTEXT
  5
247
330
232
100
AcDbEntity
  8
SLD-0
 62
     7
100
AcDbMText
 10
87.3008894931
 20
238.5678178106
 30
0.1
 40
3.5
 41
0.0
 71
     1
 72
     1
  1
32
  7
SLDTEXTSTYLE0
 73
     1
 44
1.0
  0
ENDBLK
  5
23D
330
232
100
AcDbEntity
  8
0
100
AcDbBlockEnd
  0
BLOCK
  5
253
330
249
100
AcDbEntity
  8
0
100
AcDbBlockBegin
  2
*D28
 70
     1
 71
     0
 10
0.0
 20
0.0
 30
0.0
  3
*D28
  1

  0
LINE
  5
255
330
249
100
AcDbEntity
  8
SLD-0
 62
     7
100
AcDbLine
 10
89.3363247162
 20
210.9940776714
 30
0.0
 11
89.3363247162
 21
225.6745889821
 31
0.0
  0
LINE
  5
256
330
249
100
AcDbEntity
  8
SLD-0
 62
     7
100
AcDbLine
 10
69.3363247162
 20
210.9940776714
 30
0.0
 11
69.3363247162
 21
225.6745889821
 31
0.0
  0
LINE
  5
257
330
249
100
AcDbEntity
  8
SLD-0
 62
     7
100
AcDbLine
 10
89.3363247162
 20
224.6745889821
 30
0.0
 11
69.3363247162
 21
224.6745889821
 31
0.0
  0
LINE
  5
258
330
249
100
AcDbEntity
  8
SLD-0
 62
     7
100
AcDbLine
 10
86.3363247162
 20
225.4784359821
 30
0.0
 11
89.3363247162
 21
224.6745889821
 31
0.0
  0
LINE
  5
259
330
249
100
AcDbEntity
  8
SLD-0
 62
     7
100
AcDbLine
 10
89.3363247162
 20
224.6745889821
 30
0.0
 11
86.3363247162
 21
223.8707419821
 31
0.0
  0
LINE
  5
25A
330
249
100
AcDbEntity
  8
SLD-0
 62
     7
100
AcDbLine
 10
89.3363247162
 20
224.6745889821
 30
0.0
 11
86.3363247162
 21
224.6745889821
 31
0.0
  0
LINE
  5
25B
330
249
100
AcDbEntity
  8
SLD-0
 62
     7
100
AcDbLine
 10
72.3363247162
 20
223.8707419821
 30
0.0
 11
69.3363247162
 21
224.6745889821
 31
0.0
  0
LINE
  5
25C
330
249
100
AcDbEntity
  8
SLD-0
 62
     7
100
AcDbLine
 10
69.3363247162
 20
224.6745889821
 30
0.0
 11
72.3363247162
 21
225.4784359821
 31
0.0
  0
LINE
  5
25D
330
249
100
AcDbEntity
  8
SLD-0
 62
     7
100
AcDbLine
 10
69.3363247162
 20
224.6745889821
 30
0.0
 11
72.3363247162
 21
224.6745889821
 31
0.0
  0
MTEXT
  5
25E
330
249
100
AcDbEntity
  8
SLD-0
 62
     7
100
AcDbMText
 10
77.3008894931
 20
229.201282678
 30
0.1
 40
3.5
 41
0.0
 71
     1
 72
     1
  1
20
  7
SLDTEXTSTYLE0
 73
     1
 44
1.0
  0
ENDBLK
  5
254
330
249
100
AcDbEntity
  8
0
100
AcDbBlockEnd
  0
BLOCK
  5
267
330
260
100
AcDbEntity
  8
0
100
AcDbBlockBegin
  2
*D29
 70
     1
 71
     0
 10
0.0
 20
0.0
 30
0.0
  3
*D29
  1

  0
LINE
  5
26A
330
260
100
AcDbEntity
  8
SLD-0
 62
     7
100
AcDbLine
 10
91.247980505
 20
207.3061270103
 30
0.0
 11
104.8507641459
 21
223.7579940826
 31
0.0
  0
LINE
  5
26B
330
260
100
AcDbEntity
  8
SLD-0
 62
     7
100
AcDbLine
 10
105.8218852866
 20
224.9325151467
 30
0.0
 11
108.8507641459
 21
228.5957883184
 31
0.0
  0
LINE
  5
26C
330
260
100
AcDbEntity
  8
SLD-0
 62
     7
100
AcDbLine
 10
109.8218852866
 20
229.7703093825
 30
0.0
 11
111.6701486893
 21
232.0056888915
 31
0.0
  0
LINE
  5
26D
330
260
100
AcDbEntity
  8
SLD-0
 62
     7
100
AcDbLine
 10
111.6701486893
 20
232.0056888915
 30
0.0
 11
124.5780438642
 21
232.0056888915
 31
0.0
  0
LINE
  5
26E
330
260
100
AcDbEntity
  8
SLD-0
 62
     7
100
AcDbLine
 10
93.779147602
 20
209.1059500923
 30
0.0
 11
91.247980505
 21
207.3061270103
 31
0.0
  0
LINE
  5
26F
330
260
100
AcDbEntity
  8
SLD-0
 62
     7
100
AcDbLine
 10
91.247980505
 20
207.3061270103
 30
0.0
 11
92.5401249854
 21
210.1304026061
 31
0.0
  0
LINE
  5
270
330
260
100
AcDbEntity
  8
SLD-0
 62
     7
100
AcDbLine
 10
91.247980505
 20
207.3061270103
 30
0.0
 11
93.1596362937
 21
209.6181763492
 31
0.0
  0
MTEXT
  5
271
330
260
100
AcDbEntity
  8
SLD-0
 62
     7
100
AcDbMText
 10
114.8451486893
 20
236.5323825875
 30
0.1
 40
3.5
 41
0.0
 71
     1
 72
     1
  1
3-M6
  7
SLDTEXTSTYLE0
 73
     1
 44
1.0
  0
ENDBLK
  5
268
330
260
100
AcDbEntity
  8
0
100
AcDbBlockEnd
  0
BLOCK
  5
27A
330
273
100
AcDbEntity
  8
0
100
AcDbBlockBegin
  2
*D30
 70
     1
 71
     0
 10
0.0
 20
0.0
 30
0.0
  3
*D30
  1

  0
LINE
  5
27C
330
273
100
AcDbEntity
  8
SLD-0
 62
     7
100
AcDbLine
 10
106.9203013647
 20
186.2151501414
 30
0.0
 11
121.5411022442
 21
197.4861858985
 31
0.0
  0
LINE
  5
27D
330
273
100
AcDbEntity
  8
SLD-0
 62
     7
100
AcDbLine
 10
122.7480924504
 20
198.4166431207
 30
0.0
 11
126.8508169877
 21
201.579394282
 31
0.0
  0
LINE
  5
27E
330
273
100
AcDbEntity
  8
SLD-0
 62
     7
100
AcDbLine
 10
126.8508169877
 20
201.579394282
 30
0.0
 11
139.7587121626
 21
201.579394282
 31
0.0
  0
LINE
  5
27F
330
273
100
AcDbEntity
  8
SLD-0
 62
     7
100
AcDbLine
 10
109.7870440583
 20
187.4101214079
 30
0.0
 11
106.9203013647
 21
186.2151501414
 31
0.0
  0
LINE
  5
280
330
273
100
AcDbEntity
  8
SLD-0
 62
     7
100
AcDbLine
 10
106.9203013647
 20
186.2151501414
 30
0.0
 11
108.8054886165
 21
188.6833962849
 31
0.0
  0
LINE
  5
281
330
273
100
AcDbEntity
  8
SLD-0
 62
     7
100
AcDbLine
 10
106.9203013647
 20
186.2151501414
 30
0.0
 11
109.2962663374
 21
188.0467588464
 31
0.0
  0
MTEXT
  5
282
330
273
100
AcDbEntity
  8
SLD-0
 62
     7
100
AcDbMText
 10
130.0258169877
 20
206.1060879779
 30
0.1
 40
3.5
 41
0.0
 71
     1
 72
     1
  1
4-M4
  7
SLDTEXTSTYLE0
 73
     1
 44
1.0
  0
ENDBLK
  5
27B
330
273
100
AcDbEntity
  8
0
100
AcDbBlockEnd
  0
BLOCK
  5
28F
330
284
100
AcDbEntity
  8
0
100
AcDbBlockBegin
  2
*D31
 70
     1
 71
     0
 10
0.0
 20
0.0
 30
0.0
  3
*D31
  1

  0
LINE
  5
292
330
284
100
AcDbEntity
  8
SLD-0
 62
     7
100
AcDbLine
 10
155.6444987775
 20
215.9940776714
 30
0.0
 11
155.6444987775
 21
230.4051045663
 31
0.0
  0
LINE
  5
293
330
284
100
AcDbEntity
  8
SLD-0
 62
     7
100
AcDbLine
 10
150.6444987775
 20
215.9940776714
 30
0.0
 11
150.6444987775
 21
230.4051045663
 31
0.0
  0
LINE
  5
294
330
284
100
AcDbEntity
  8
SLD-0
 62
     7
100
AcDbLine
 10
155.6444987775
 20
229.4051045663
 30
0.0
 11
160.6444987775
 21
229.4051045663
 31
0.0
  0
LINE
  5
295
330
284
100
AcDbEntity
  8
SLD-0
 62
     7
100
AcDbLine
 10
155.6444987775
 20
229.4051045663
 30
0.0
 11
150.6444987775
 21
229.4051045663
 31
0.0
  0
LINE
  5
296
330
284
100
AcDbEntity
  8
SLD-0
 62
     7
100
AcDbLine
 10
150.6444987775
 20
229.4051045663
 30
0.0
 11
145.6444987775
 21
229.4051045663
 31
0.0
  0
LINE
  5
297
330
284
100
AcDbEntity
  8
SLD-0
 62
     7
100
AcDbLine
 10
158.6444987775
 20
228.6012575663
 30
0.0
 11
155.6444987775
 21
229.4051045663
 31
0.0
  0
LINE
  5
298
330
284
100
AcDbEntity
  8
SLD-0
 62
     7
100
AcDbLine
 10
155.6444987775
 20
229.4051045663
 30
0.0
 11
158.6444987775
 21
230.2089515663
 31
0.0
  0
LINE
  5
299
330
284
100
AcDbEntity
  8
SLD-0
 62
     7
100
AcDbLine
 10
155.6444987775
 20
229.4051045663
 30
0.0
 11
158.6444987775
 21
229.4051045663
 31
0.0
  0
LINE
  5
29A
330
284
100
AcDbEntity
  8
SLD-0
 62
     7
100
AcDbLine
 10
147.6444987775
 20
230.2089515663
 30
0.0
 11
150.6444987775
 21
229.4051045663
 31
0.0
  0
LINE
  5
29B
330
284
100
AcDbEntity
  8
SLD-0
 62
     7
100
AcDbLine
 10
150.6444987775
 20
229.4051045663
 30
0.0
 11
147.6444987775
 21
228.6012575663
 31
0.0
  0
LINE
  5
29C
330
284
100
AcDbEntity
  8
SLD-0
 62
     7
100
AcDbLine
 10
150.6444987775
 20
229.4051045663
 30
0.0
 11
147.6444987775
 21
229.4051045663
 31
0.0
  0
MTEXT
  5
29D
330
284
100
AcDbEntity
  8
SLD-0
 62
     7
100
AcDbMText
 10
152.1267811659
 20
233.9317982622
 30
0.1
 40
3.5
 41
0.0
 71
     1
 72
     1
  1
5
  7
SLDTEXTSTYLE0
 73
     1
 44
1.0
  0
ENDBLK
  5
290
330
284
100
AcDbEntity
  8
0
100
AcDbBlockEnd
  0
ENDSEC
  0
SECTION
  2
ENTITIES
  0
LINE
  5
B0
330
1F
100
AcDbEntity
  8
SLD-0
  6
Continuous
 62
   179
100
AcDbLine
 10
20.2604743903
 20
285.0
 30
0.0
 11
196.7604743903
 21
285.0
 31
0.0
  0
LINE
  5
B1
330
1F
100
AcDbEntity
  8
SLD-0
  6
Continuous
 62
   179
100
AcDbLine
 10
20.2604743903
 20
285.0
 30
0.0
 11
20.2604743903
 21
10.0
 31
0.0
  0
LINE
  5
B2
330
1F
100
AcDbEntity
  8
SLD-0
  6
Continuous
 62
   179
100
AcDbLine
 10
20.2604743903
 20
10.0
 30
0.0
 11
196.7604743903
 21
10.0
 31
0.0
  0
LINE
  5
B3
330
1F
100
AcDbEntity
  8
SLD-0
  6
Continuous
 62
   179
100
AcDbLine
 10
196.7604743903
 20
285.0
 30
0.0
 11
196.7604743903
 21
10.0
 31
0.0
  0
LINE
  5
B4
330
1F
100
AcDbEntity
  8
SLD-0
  6
Continuous
 62
   179
100
AcDbLine
 10
65.7604743903
 20
285.0
 30
0.0
 11
196.7604743903
 21
285.0
 31
0.0
  0
LINE
  5
B5
330
1F
100
AcDbEntity
  8
SLD-0
  6
Continuous
 62
   179
100
AcDbLine
 10
196.7604743903
 20
285.0
 30
0.0
 11
196.7604743903
 21
264.25
 31
0.0
  0
LINE
  5
B6
330
1F
100
AcDbEntity
  8
SLD-0
  6
Continuous
 62
   179
100
AcDbLine
 10
127.0104743903
 20
50.75
 30
0.0
 11
196.7604743903
 21
50.75
 31
0.0
  0
LINE
  5
B7
330
1F
100
AcDbEntity
  8
SLD-0
  6
Continuous
 62
   179
100
AcDbLine
 10
127.0104743903
 20
50.75
 30
0.0
 11
127.0104743903
 21
22.75
 31
0.0
  0
LINE
  5
B8
330
1F
100
AcDbEntity
  8
SLD-0
  6
Continuous
 62
   179
100
AcDbLine
 10
127.0104743903
 20
22.75
 30
0.0
 11
196.7604743903
 21
22.75
 31
0.0
  0
LINE
  5
B9
330
1F
100
AcDbEntity
  8
SLD-0
  6
Continuous
 62
   179
100
AcDbLine
 10
127.0104743903
 20
36.75
 30
0.0
 11
196.7604743903
 21
36.75
 31
0.0
  0
LINE
  5
BA
330
1F
100
AcDbEntity
  8
SLD-0
  6
Continuous
 62
   179
100
AcDbLine
 10
74.3363250515
 20
94.9940790125
 30
0.0
 11
104.336324381
 21
94.9940790125
 31
0.0
  0
LINE
  5
BB
330
1F
100
AcDbEntity
  8
SLD-0
  6
Continuous
 62
   179
100
AcDbLine
 10
69.3363251633
 20
209.9940773734
 30
0.0
 11
69.3363251633
 21
99.9940779694
 31
0.0
  0
LINE
  5
BC
330
1F
100
AcDbEntity
  8
SLD-0
  6
Continuous
 62
   179
100
AcDbLine
 10
104.336324381
 20
214.9940763303
 30
0.0
 11
74.3363250515
 21
214.9940763303
 31
0.0
  0
LINE
  5
BD
330
1F
100
AcDbEntity
  8
SLD-0
  6
Continuous
 62
   179
100
AcDbLine
 10
109.3363242692
 20
209.9940773734
 30
0.0
 11
104.336324381
 21
214.9940763303
 31
0.0
  0
LINE
  5
BE
330
1F
100
AcDbEntity
  8
SLD-0
  6
Continuous
 62
   179
100
AcDbLine
 10
109.3363242692
 20
99.9940779694
 30
0.0
 11
109.3363242692
 21
209.9940773734
 31
0.0
  0
LINE
  5
BF
330
1F
100
AcDbEntity
  8
SLD-0
  6
Continuous
 62
   179
100
AcDbLine
 10
104.336324381
 20
94.9940790125
 30
0.0
 11
109.3363242692
 21
99.9940779694
 31
0.0
  0
LINE
  5
C0
330
1F
100
AcDbEntity
  8
SLD-0
  6
Continuous
 62
   179
100
AcDbLine
 10
82.5863247162
 20
104.9940776714
 30
0.0
 11
82.5863247162
 21
154.9940776714
 31
0.0
  0
LINE
  5
C1
330
1F
100
AcDbEntity
  8
SLD-0
  6
Continuous
 62
   179
100
AcDbLine
 10
76.0863247162
 20
154.9940776714
 30
0.0
 11
76.0863247162
 21
104.9940776714
 31
0.0
  0
LINE
  5
C2
330
1F
100
AcDbEntity
  8
SLD-0
  6
Continuous
 62
   179
100
AcDbLine
 10
102.5863247162
 20
104.9940776714
 30
0.0
 11
102.5863247162
 21
154.9940776714
 31
0.0
  0
LINE
  5
C3
330
1F
100
AcDbEntity
  8
SLD-0
  6
Continuous
 62
   179
100
AcDbLine
 10
96.0863247162
 20
154.9940776714
 30
0.0
 11
96.0863247162
 21
104.9940776714
 31
0.0
  0
LINE
  5
C4
330
1F
100
AcDbEntity
  8
SLD-0
  6
Continuous
 62
   179
100
AcDbLine
 10
74.3363250515
 20
214.9940763303
 30
0.0
 11
69.3363251633
 21
209.9940773734
 31
0.0
  0
LINE
  5
C5
330
1F
100
AcDbEntity
  8
SLD-0
  6
Continuous
 62
   179
100
AcDbLine
 10
69.3363251633
 20
99.9940779694
 30
0.0
 11
74.3363250515
 21
94.9940790125
 31
0.0
  0
LINE
  5
C6
330
1F
100
AcDbEntity
  8
SLD-0
  6
CENTERX2
 62
   179
100
AcDbLine
 10
79.3363247162
 20
102.9940776714
 30
0.0
 11
79.3363247162
 21
156.9940776714
 31
0.0
  0
LINE
  5
C7
330
1F
100
AcDbEntity
  8
SLD-0
  6
CENTERX2
 62
   179
100
AcDbLine
 10
99.3363247162
 20
102.9940776714
 30
0.0
 11
99.3363247162
 21
156.9940776714
 31
0.0
  0
LINE
  5
C8
330
1F
100
AcDbEntity
  8
SLD-0
  6
Continuous
 62
   179
100
AcDbLine
 10
150.6444988893
 20
94.9940790125
 30
0.0
 11
155.6444987775
 21
94.9940790125
 31
0.0
  0
LINE
  5
C9
330
1F
100
AcDbEntity
  8
SLD-0
  6
Continuous
 62
   179
100
AcDbLine
 10
150.6444988893
 20
99.9940779694
 30
0.0
 11
155.6444987775
 21
99.9940779694
 31
0.0
  0
LINE
  5
CA
330
1F
100
AcDbEntity
  8
SLD-0
  6
Continuous
 62
   179
100
AcDbLine
 10
150.6444988893
 20
94.9940790125
 30
0.0
 11
150.6444988893
 21
99.9940779694
 31
0.0
  0
LINE
  5
CB
330
1F
100
AcDbEntity
  8
SLD-0
  6
Continuous
 62
   179
100
AcDbLine
 10
155.6444987775
 20
94.9940790125
 30
0.0
 11
155.6444987775
 21
99.9940779694
 31
0.0
  0
LINE
  5
CC
330
1F
100
AcDbEntity
  8
SLD-0
  6
Continuous
 62
   179
100
AcDbLine
 10
150.6444988893
 20
209.9940773734
 30
0.0
 11
155.6444987775
 21
209.9940773734
 31
0.0
  0
LINE
  5
CD
330
1F
100
AcDbEntity
  8
SLD-0
  6
Continuous
 62
   179
100
AcDbLine
 10
150.6444988893
 20
99.9940779694
 30
0.0
 11
150.6444988893
 21
209.9940773734
 31
0.0
  0
LINE
  5
CE
330
1F
100
AcDbEntity
  8
SLD-0
  6
Continuous
 62
   179
100
AcDbLine
 10
155.6444987775
 20
99.9940779694
 30
0.0
 11
155.6444987775
 21
209.9940773734
 31
0.0
  0
LINE
  5
CF
330
1F
100
AcDbEntity
  8
SLD-0
  6
Continuous
 62
   179
100
AcDbLine
 10
150.6444988893
 20
214.9940763303
 30
0.0
 11
155.6444987775
 21
214.9940763303
 31
0.0
  0
LINE
  5
D0
330
1F
100
AcDbEntity
  8
SLD-0
  6
Continuous
 62
   179
100
AcDbLine
 10
150.6444988893
 20
209.9940773734
 30
0.0
 11
150.6444988893
 21
214.9940763303
 31
0.0
  0
LINE
  5
D1
330
1F
100
AcDbEntity
  8
SLD-0
  6
Continuous
 62
   179
100
AcDbLine
 10
155.6444987775
 20
209.9940773734
 30
0.0
 11
155.6444987775
 21
214.9940763303
 31
0.0
  0
LINE
  5
D2
330
1F
100
AcDbEntity
  8
SLD-0
  6
CENTERX2
 62
   179
100
AcDbLine
 10
157.6444987775
 20
104.9940776714
 30
0.0
 11
148.6444987775
 21
104.9940776714
 31
0.0
  0
LINE
  5
D3
330
1F
100
AcDbEntity
  8
SLD-0
  6
CENTERX2
 62
   179
100
AcDbLine
 10
157.6444987775
 20
154.9940776714
 30
0.0
 11
148.6444987775
 21
154.9940776714
 31
0.0
  0
LINE
  5
D4
330
1F
100
AcDbEntity
  8
SLD-0
  6
CENTERX2
 62
   179
100
AcDbLine
 10
157.6444987775
 20
174.9940776714
 30
0.0
 11
148.6444987775
 21
174.9940776714
 31
0.0
  0
LINE
  5
D5
330
1F
100
AcDbEntity
  8
SLD-0
  6
CENTERX2
 62
   179
100
AcDbLine
 10
157.6444987775
 20
184.9940776714
 30
0.0
 11
148.6444987775
 21
184.9940776714
 31
0.0
  0
LINE
  5
D6
330
1F
100
AcDbEntity
  8
SLD-0
  6
CENTERX2
 62
   179
100
AcDbLine
 10
157.6444987775
 20
204.9940776714
 30
0.0
 11
148.6444987775
 21
204.9940776714
 31
0.0
  0
ARC
  5
D7
330
1F
100
AcDbEntity
  8
SLD-0
  6
Continuous
 62
   179
100
AcDbCircle
 10
79.3363247162
 20
154.9940776714
 30
0.0
 40
3.250000000000014
100
AcDbArc
 50
0.0
 51
180.0
  0
ARC
  5
D8
330
1F
100
AcDbEntity
  8
SLD-0
  6
Continuous
 62
   179
100
AcDbCircle
 10
79.3363247162
 20
104.9940776714
 30
0.0
 40
3.250000000000014
100
AcDbArc
 50
180.0
 51
0.0
  0
ARC
  5
D9
330
1F
100
AcDbEntity
  8
SLD-0
  6
Continuous
 62
   179
100
AcDbCircle
 10
99.3363247162
 20
154.9940776714
 30
0.0
 40
3.25
100
AcDbArc
 50
0.0
 51
180.0
  0
ARC
  5
DA
330
1F
100
AcDbEntity
  8
SLD-0
  6
Continuous
 62
   179
100
AcDbCircle
 10
99.3363247162
 20
104.9940776714
 30
0.0
 40
3.25
100
AcDbArc
 50
180.0
 51
0.0
  0
CIRCLE
  5
DB
330
1F
100
AcDbEntity
  8
SLD-0
  6
Continuous
 62
   179
100
AcDbCircle
 10
105.3363247162
 20
174.9940776714
 30
0.0
 40
1.650000000000006
  0
CIRCLE
  5
DC
330
1F
100
AcDbEntity
  8
SLD-0
  6
Continuous
 62
   179
100
AcDbCircle
 10
105.3363247162
 20
184.9940776714
 30
0.0
 40
1.650000000000006
  0
CIRCLE
  5
DD
330
1F
100
AcDbEntity
  8
SLD-0
  6
Continuous
 62
   179
100
AcDbCircle
 10
73.3363247162
 20
184.9940776714
 30
0.0
 40
1.650000000000006
  0
CIRCLE
  5
DE
330
1F
100
AcDbEntity
  8
SLD-0
  6
Continuous
 62
   179
100
AcDbCircle
 10
73.3363247162
 20
174.9940776714
 30
0.0
 40
1.650000000000006
  0
CIRCLE
  5
DF
330
1F
100
AcDbEntity
  8
SLD-0
  6
Continuous
 62
   179
100
AcDbCircle
 10
89.3363247162
 20
204.9940776714
 30
0.0
 40
2.5
  0
CIRCLE
  5
E0
330
1F
100
AcDbEntity
  8
SLD-0
  6
Continuous
 62
   179
100
AcDbCircle
 10
89.3363247162
 20
174.9940776714
 30
0.0
 40
2.5
  0
CIRCLE
  5
E1
330
1F
100
AcDbEntity
  8
SLD-0
  6
Continuous
 62
   179
100
AcDbCircle
 10
89.3363247162
 20
154.9940776714
 30
0.0
 40
2.5
  0
CIRCLE
  5
E2
330
1F
100
AcDbEntity
  8
SLD-0
 62
   179
100
AcDbCircle
 10
105.3363247162
 20
174.9940776714
 30
0.0
 40
1.999999880800004
  0
CIRCLE
  5
E3
330
1F
100
AcDbEntity
  8
SLD-0
 62
   179
100
AcDbCircle
 10
105.3363247162
 20
184.9940776714
 30
0.0
 40
2.000001519899996
  0
CIRCLE
  5
E4
330
1F
100
AcDbEntity
  8
SLD-0
 62
   179
100
AcDbCircle
 10
73.3363247162
 20
184.9940776714
 30
0.0
 40
2.000001519899996
  0
CIRCLE
  5
E5
330
1F
100
AcDbEntity
  8
SLD-0
 62
   179
100
AcDbCircle
 10
73.3363247162
 20
174.9940776714
 30
0.0
 40
1.999999880800004
  0
CIRCLE
  5
E6
330
1F
100
AcDbEntity
  8
SLD-0
 62
   179
100
AcDbCircle
 10
89.3363247162
 20
204.9940776714
 30
0.0
 40
2.999999374199987
  0
CIRCLE
  5
E7
330
1F
100
AcDbEntity
  8
SLD-0
 62
   179
100
AcDbCircle
 10
89.3363247162
 20
174.9940776714
 30
0.0
 40
3.000000044700002
  0
CIRCLE
  5
E8
330
1F
100
AcDbEntity
  8
SLD-0
 62
   179
100
AcDbCircle
 10
89.3363247162
 20
154.9940776714
 30
0.0
 40
3.000000026099997
  0
DIMENSION
  5
E9
330
1F
100
AcDbEntity
  8
SLD-0
 62
     7
100
AcDbDimension
  2
*D13
 10
69.3363247162
 20
242.9672703932
 30
0.0
 11
89.3363247162
 21
242.9672703932
 31
0.0
 70
   160
 71
     1
 42
40.0
  3
SLDDIMSTYLE0
100
AcDbAlignedDimension
 13
109.3363247162
 23
209.9940776714
 33
0.0
 14
69.3363247162
 24
209.9940776714
 34
0.0
100
AcDbRotatedDimension
1001
ACAD
1000
DSTYLE
1002
{
1070
    77
1070
     3
1070
   143
1040
0.0393700787
1070
    41
1040
3.0
1070
    44
1040
1.0
1070
    42
1040
1.0
1070
   147
1040
1.524
1070
    73
1070
     0
1070
    74
1070
     0
1070
   140
1040
3.5
1070
   284
1070
    12
1070
    78
1070
    12
1002
}
  0
DIMENSION
  5
106
330
1F
100
AcDbEntity
  8
SLD-0
 62
     7
100
AcDbDimension
  2
*D15
 10
79.3363247162
 20
84.2586986983
 30
0.0
 11
89.3363247162
 21
84.2586986983
 31
0.0
 70
   160
 71
     1
 42
20.0
  3
SLDDIMSTYLE0
100
AcDbAlignedDimension
 13
99.3363247162
 23
104.9940776714
 33
0.0
 14
79.3363247162
 24
104.9940776714
 34
0.0
100
AcDbRotatedDimension
1001
ACAD
1000
DSTYLE
1002
{
1070
    77
1070
     3
1070
   143
1040
0.0393700787
1070
    41
1040
3.0
1070
    44
1040
1.0
1070
    42
1040
1.0
1070
   147
1040
1.524
1070
    73
1070
     0
1070
    74
1070
     0
1070
   140
1040
3.5
1070
   284
1070
    12
1070
    78
1070
    12
1002
}
  0
DIMENSION
  5
11D
330
1F
100
AcDbEntity
  8
SLD-0
 62
     7
100
AcDbDimension
  2
*D16
 10
46.0576471299
 20
104.9940776714
 30
0.0
 11
46.0576471299
 21
129.9940776714
 31
0.0
 70
   160
 71
     1
 42
50.0
  3
SLDDIMSTYLE0
100
AcDbAlignedDimension
 13
79.3363247162
 23
154.9940776714
 33
0.0
 14
79.3363247162
 24
104.9940776714
 34
0.0
 50
90.0
100
AcDbRotatedDimension
1001
ACAD
1000
DSTYLE
1002
{
1070
    77
1070
     3
1070
   143
1040
0.0393700787
1070
    41
1040
3.0
1070
    44
1040
1.0
1070
    42
1040
1.0
1070
   147
1040
1.524
1070
    73
1070
     0
1070
    74
1070
     0
1070
   140
1040
3.5
1070
   284
1070
    12
1070
    78
1070
    12
1002
}
  0
DIMENSION
  5
135
330
1F
100
AcDbEntity
  8
SLD-0
 62
     7
100
AcDbDimension
  2
*D17
 10
82.5863247162
 20
126.0531761567
 30
0.0
 11
59.413142299
 21
126.0531761567
 31
0.0
 70
   160
 71
     1
 42
6.5
  3
SLDDIMSTYLE1
100
AcDbAlignedDimension
 13
76.0863247162
 23
104.9940776714
 33
0.0
 14
82.5863247162
 24
104.9940776714
 34
0.0
100
AcDbRotatedDimension
1001
ACAD
1000
DSTYLE
1002
{
1070
    77
1070
     3
1070
   143
1040
0.0393700787
1070
    41
1040
3.0
1070
    44
1040
1.0
1070
    42
1040
1.0
1070
   147
1040
1.524
1070
    73
1070
     0
1070
    74
1070
     0
1070
   140
1040
3.5
1070
   284
1070
    12
1070
    78
1070
    12
1002
}
  0
DIMENSION
  5
150
330
1F
100
AcDbEntity
  8
SLD-0
 62
     7
100
AcDbDimension
  2
*D18
 10
38.1941411814
 20
94.9940776714
 30
0.0
 11
38.1941411814
 21
154.9940776714
 31
0.0
 70
   160
 71
     1
 42
120.0
  3
SLDDIMSTYLE0
100
AcDbAlignedDimension
 13
74.3363247162
 23
214.9940776714
 33
0.0
 14
74.3363247162
 24
94.9940776714
 34
0.0
 50
90.0
100
AcDbRotatedDimension
1001
ACAD
1000
DSTYLE
1002
{
1070
    77
1070
     3
1070
   143
1040
0.0393700787
1070
    41
1040
3.0
1070
    44
1040
1.0
1070
    42
1040
1.0
1070
   147
1040
1.524
1070
    73
1070
     0
1070
    74
1070
     0
1070
   140
1040
3.5
1070
   284
1070
    12
1070
    78
1070
    12
1002
}
  0
DIMENSION
  5
168
330
1F
100
AcDbEntity
  8
SLD-0
 62
     7
100
AcDbDimension
  2
*D19
 10
122.1445973473
 20
214.9940776714
 30
0.0
 11
122.1445973473
 21
209.9940776714
 31
0.0
 70
   160
 71
     1
 42
10.0
  3
SLDDIMSTYLE0
100
AcDbAlignedDimension
 13
94.3363247162
 23
204.9940776714
 33
0.0
 14
104.3363247162
 24
214.9940776714
 34
0.0
 50
90.0
100
AcDbRotatedDimension
1001
ACAD
1000
DSTYLE
1002
{
1070
    77
1070
     3
1070
   143
1040
0.0393700787
1070
    41
1040
3.0
1070
    44
1040
1.0
1070
    42
1040
1.0
1070
   147
1040
1.524
1070
    73
1070
     0
1070
    74
1070
     0
1070
   140
1040
3.5
1070
   284
1070
    12
1070
    78
1070
    12
1002
}
  0
DIMENSION
  5
182
330
1F
100
AcDbEntity
  8
SLD-0
 62
     7
100
AcDbDimension
  2
*D20
 10
122.1445973473
 20
204.9940776714
 30
0.0
 11
122.1445973473
 21
189.9940776714
 31
0.0
 70
   160
 71
     1
 42
30.0
  3
SLDDIMSTYLE0
100
AcDbAlignedDimension
 13
94.3363247162
 23
174.9940776714
 33
0.0
 14
94.3363247162
 24
204.9940776714
 34
0.0
 50
90.0
100
AcDbRotatedDimension
1001
ACAD
1000
DSTYLE
1002
{
1070
    77
1070
     3
1070
   143
1040
0.0393700787
1070
    41
1040
3.0
1070
    44
1040
1.0
1070
    42
1040
1.0
1070
   147
1040
1.524
1070
    73
1070
     0
1070
    74
1070
     0
1070
   140
1040
3.5
1070
   284
1070
    12
1070
    78
1070
    12
1002
}
  0
DIMENSION
  5
19A
330
1F
100
AcDbEntity
  8
SLD-0
 62
     7
100
AcDbDimension
  2
*D21
 10
122.1445973473
 20
154.9940776714
 30
0.0
 11
122.1445973473
 21
164.9940776714
 31
0.0
 70
   160
 71
     1
 42
20.0
  3
SLDDIMSTYLE0
100
AcDbAlignedDimension
 13
94.3363247162
 23
174.9940776714
 33
0.0
 14
94.3363247162
 24
154.9940776714
 34
0.0
 50
90.0
100
AcDbRotatedDimension
1001
ACAD
1000
DSTYLE
1002
{
1070
    77
1070
     3
1070
   143
1040
0.0393700787
1070
    41
1040
3.0
1070
    44
1040
1.0
1070
    42
1040
1.0
1070
   147
1040
1.524
1070
    73
1070
     0
1070
    74
1070
     0
1070
   140
1040
3.5
1070
   284
1070
    12
1070
    78
1070
    12
1002
}
  0
DIMENSION
  5
1B2
330
1F
100
AcDbEntity
  8
SLD-0
 62
     7
100
AcDbDimension
  2
*D22
 10
46.0576471299
 20
214.9940776714
 30
0.0
 11
46.0576471299
 21
184.9940776714
 31
0.0
 70
   160
 71
     1
 42
60.0
  3
SLDDIMSTYLE0
100
AcDbAlignedDimension
 13
79.3363247162
 23
154.9940776714
 33
0.0
 14
74.3363247162
 24
214.9940776714
 34
0.0
 50
90.0
100
AcDbRotatedDimension
1001
ACAD
1000
DSTYLE
1002
{
1070
    77
1070
     3
1070
   143
1040
0.0393700787
1070
    41
1040
3.0
1070
    44
1040
1.0
1070
    42
1040
1.0
1070
   147
1040
1.524
1070
    73
1070
     0
1070
    74
1070
     0
1070
   140
1040
3.5
1070
   284
1070
    12
1070
    78
1070
    12
1002
}
  0
DIMENSION
  5
1CA
330
1F
100
AcDbEntity
  8
SLD-0
 62
     7
100
AcDbDimension
  2
*D23
 10
55.000642299
 20
214.9940776714
 30
0.0
 11
55.000642299
 21
199.9940776714
 31
0.0
 70
   160
 71
     1
 42
30.0
  3
SLDDIMSTYLE0
100
AcDbAlignedDimension
 13
69.1863247162
 23
184.9940776714
 33
0.0
 14
74.3363247162
 24
214.9940776714
 34
0.0
 50
90.0
100
AcDbRotatedDimension
1001
ACAD
1000
DSTYLE
1002
{
1070
    77
1070
     3
1070
   143
1040
0.0393700787
1070
    41
1040
3.0
1070
    44
1040
1.0
1070
    42
1040
1.0
1070
   147
1040
1.524
1070
    73
1070
     0
1070
    74
1070
     0
1070
   140
1040
3.5
1070
   284
1070
    12
1070
    78
1070
    12
1002
}
  0
DIMENSION
  5
1E2
330
1F
100
AcDbEntity
  8
SLD-0
 62
     7
100
AcDbDimension
  2
*D24
 10
55.000642299
 20
174.9940776714
 30
0.0
 11
55.000642299
 21
179.9940776714
 31
0.0
 70
   160
 71
     1
 42
10.0
  3
SLDDIMSTYLE0
100
AcDbAlignedDimension
 13
69.1863247162
 23
184.9940776714
 33
0.0
 14
69.1863247162
 24
174.9940776714
 34
0.0
 50
90.0
100
AcDbRotatedDimension
1001
ACAD
1000
DSTYLE
1002
{
1070
    77
1070
     3
1070
   143
1040
0.0393700787
1070
    41
1040
3.0
1070
    44
1040
1.0
1070
    42
1040
1.0
1070
   147
1040
1.524
1070
    73
1070
     0
1070
    74
1070
     0
1070
   140
1040
3.5
1070
   284
1070
    12
1070
    78
1070
    12
1002
}
  0
DIMENSION
  5
1FC
330
1F
100
AcDbEntity
  8
SLD-0
 62
     7
100
AcDbDimension
  2
*D25
 10
69.3363247162
 20
84.2586986983
 30
0.0
 11
74.3363247162
 21
84.2586986983
 31
0.0
 70
   160
 71
     1
 42
10.0
  3
SLDDIMSTYLE0
100
AcDbAlignedDimension
 13
79.3363247162
 23
102.9940776714
 33
0.0
 14
69.3363247162
 24
99.9940776714
 34
0.0
100
AcDbRotatedDimension
1001
ACAD
1000
DSTYLE
1002
{
1070
    77
1070
     3
1070
   143
1040
0.0393700787
1070
    41
1040
3.0
1070
    44
1040
1.0
1070
    42
1040
1.0
1070
   147
1040
1.524
1070
    73
1070
     0
1070
    74
1070
     0
1070
   140
1040
3.5
1070
   284
1070
    12
1070
    78
1070
    12
1002
}
  0
DIMENSION
  5
215
330
1F
100
AcDbEntity
  8
SLD-0
 62
     7
100
AcDbDimension
  2
*D26
 10
69.3363247162
 20
234.0411241147
 30
0.0
 11
60.9915200833
 21
234.0411241147
 31
0.0
 70
   160
 71
     1
 42
4.0
  3
SLDDIMSTYLE0
100
AcDbAlignedDimension
 13
73.3363247162
 23
189.1440776714
 33
0.0
 14
69.3363247162
 24
209.9940776714
 34
0.0
100
AcDbRotatedDimension
1001
ACAD
1000
DSTYLE
1002
{
1070
    77
1070
     3
1070
   143
1040
0.0393700787
1070
    41
1040
3.0
1070
    44
1040
1.0
1070
    42
1040
1.0
1070
   147
1040
1.524
1070
    73
1070
     0
1070
    74
1070
     0
1070
   140
1040
3.5
1070
   284
1070
    12
1070
    78
1070
    12
1002
}
  0
DIMENSION
  5
231
330
1F
100
AcDbEntity
  8
SLD-0
 62
     7
100
AcDbDimension
  2
*D27
 10
73.3363247162
 20
234.0411241147
 30
0.0
 11
89.3363247162
 21
234.0411241147
 31
0.0
 70
   160
 71
     1
 42
32.0
  3
SLDDIMSTYLE0
100
AcDbAlignedDimension
 13
105.3363247162
 23
189.1440776714
 33
0.0
 14
73.3363247162
 24
189.1440776714
 34
0.0
100
AcDbRotatedDimension
1001
ACAD
1000
DSTYLE
1002
{
1070
    77
1070
     3
1070
   143
1040
0.0393700787
1070
    41
1040
3.0
1070
    44
1040
1.0
1070
    42
1040
1.0
1070
   147
1040
1.524
1070
    73
1070
     0
1070
    74
1070
     0
1070
   140
1040
3.5
1070
   284
1070
    12
1070
    78
1070
    12
1002
}
  0
DIMENSION
  5
248
330
1F
100
AcDbEntity
  8
SLD-0
 62
     7
100
AcDbDimension
  2
*D28
 10
89.3363247162
 20
224.6745889821
 30
0.0
 11
79.3363247162
 21
224.6745889821
 31
0.0
 70
   160
 71
     1
 42
20.0
  3
SLDDIMSTYLE0
100
AcDbAlignedDimension
 13
69.3363247162
 23
209.9940776714
 33
0.0
 14
89.3363247162
 24
209.9940776714
 34
0.0
100
AcDbRotatedDimension
1001
ACAD
1000
DSTYLE
1002
{
1070
    77
1070
     3
1070
   143
1040
0.0393700787
1070
    41
1040
3.0
1070
    44
1040
1.0
1070
    42
1040
1.0
1070
   147
1040
1.524
1070
    73
1070
     0
1070
    74
1070
     0
1070
   140
1040
3.5
1070
   284
1070
    12
1070
    78
1070
    12
1002
}
  0
DIMENSION
  5
25F
330
1F
100
AcDbEntity
  8
SLD-0
 62
     7
100
AcDbDimension
  2
*D29
 10
2.3970597863
 20
5.5003724585
 30
0.0
 11
118.9178462768
 21
-5.5003730084
 31
0.0
 70
   163
  1
3-M<><>
 71
     1
 42
5.9999994001
  3
SLDDIMSTYLE2
100
AcDbDiametricDimension
 15
0.0
 25
0.0
 35
0.0
 40
0.0
1001
ACAD
1000
DSTYLE
1002
{
1070
    77
1070
     0
1070
   143
1040
0.0393700787
1070
    41
1040
3.0
1070
    44
1040
1.0
1070
    42
1040
1.0
1070
   147
1040
1.524
1070
    73
1070
     1
1070
    74
1070
     1
1070
   140
1040
3.5
1070
   284
1070
    12
1070
    78
1070
    12
1002
}
  0
DIMENSION
  5
272
330
1F
100
AcDbEntity
  8
SLD-0
 62
     7
100
AcDbDimension
  2
*D30
 10
1.9792474836
 20
3.475999981
 30
0.0
 11
134.0985145751
 21
-5.2140005468
 31
0.0
 70
   163
  1
<>-M4<>
 71
     1
 42
3.9999995587
  3
SLDDIMSTYLE2
100
AcDbDiametricDimension
 15
0.0
 25
0.0
 35
0.0
 40
0.0
1001
ACAD
1000
DSTYLE
1002
{
1070
    77
1070
     0
1070
   143
1040
0.0393700787
1070
    41
1040
3.0
1070
    44
1040
1.0
1070
    42
1040
1.0
1070
   147
1040
1.524
1070
    73
1070
     1
1070
    74
1070
     1
1070
   140
1040
3.5
1070
   284
1070
    12
1070
    78
1070
    12
1002
}
  0
DIMENSION
  5
283
330
1F
100
AcDbEntity
  8
SLD-0
 62
     7
100
AcDbDimension
  2
*D31
 10
155.6444987775
 20
229.4051045663
 30
0.0
 11
153.1444987775
 21
229.4051045663
 31
0.0
 70
   160
 71
     1
 42
5.0
  3
SLDDIMSTYLE3
100
AcDbAlignedDimension
 13
150.6444987775
 23
214.9940776714
 33
0.0
 14
155.6444987775
 24
214.9940776714
 34
0.0
100
AcDbRotatedDimension
1001
ACAD
1000
DSTYLE
1002
{
1070
    77
1070
     3
1070
   143
1040
0.0393700787
1070
    41
1040
3.0
1070
    44
1040
1.0
1070
    42
1040
1.0
1070
   147
1040
1.524
1070
    73
1070
     0
1070
    74
1070
     0
1070
   140
1040
3.5
1070
   284
1070
    12
1070
    78
1070
    12
1002
}
  0
MTEXT
  5
29E
330
1F
100
AcDbEntity
  8
SLD-0
 62
     7
100
AcDbMText
 10
147.3083984572
 20
29.7138882404
 30
0.0
 40
4.2333333333
 41
0.0
 71
     1
 72
     1
  1
N01915-401-0
  7
SLDTEXTSTYLE1
 73
     1
 44
1.0
  0
MTEXT
  5
29F
330
1F
100
AcDbEntity
  8
SLD-0
 62
     7
100
AcDbMText
 10
150.3913855761
 20
43.2377018572
 30
0.0
 40
4.2333333333
 41
0.0
 71
     1
 72
     1
  1
NCON BKT
  7
SLDTEXTSTYLE1
 73
     1
 44
1.0
  0
INSERT
  5
2A0
330
1F
100
AcDbEntity
  8
0
  6
Continuous
 62
     7
370
     0
100
AcDbBlockReference
  2
SW_CENTERMARK0
 10
0.0
 20
0.0
 30
0.0
  0
INSERT
  5
2A1
330
1F
100
AcDbEntity
  8
0
  6
Continuous
 62
     7
370
     0
100
AcDbBlockReference
  2
SW_CENTERMARK1
 10
0.0
 20
0.0
 30
0.0
  0
INSERT
  5
2A2
330
1F
100
AcDbEntity
  8
0
  6
Continuous
 62
     7
370
     0
100
AcDbBlockReference
  2
SW_CENTERMARK2
 10
0.0
 20
0.0
 30
0.0
  0
INSERT
  5
2A3
330
1F
100
AcDbEntity
  8
0
  6
Continuous
 62
     7
370
     0
100
AcDbBlockReference
  2
SW_CENTERMARK3
 10
0.0
 20
0.0
 30
0.0
  0
INSERT
  5
2A4
330
1F
100
AcDbEntity
  8
0
  6
Continuous
 62
     7
370
     0
100
AcDbBlockReference
  2
SW_CENTERMARK4
 10
0.0
 20
0.0
 30
0.0
  0
INSERT
  5
2A5
330
1F
100
AcDbEntity
  8
0
  6
Continuous
 62
     7
370
     0
100
AcDbBlockReference
  2
SW_CENTERMARK5
 10
0.0
 20
0.0
 30
0.0
  0
INSERT
  5
2A6
330
1F
100
AcDbEntity
  8
0
  6
Continuous
 62
     7
370
     0
100
AcDbBlockReference
  2
SW_CENTERMARK6
 10
0.0
 20
0.0
 30
0.0
  0
INSERT
  5
2A7
330
1F
100
AcDbEntity
  8
0
  6
Continuous
 62
     7
370
     0
100
AcDbBlockReference
  2
SW_CENTERMARK7
 10
0.0
 20
0.0
 30
0.0
  0
INSERT
  5
2A8
330
1F
100
AcDbEntity
  8
0
  6
Continuous
 62
     7
370
     0
100
AcDbBlockReference
  2
SW_CENTERMARK8
 10
0.0
 20
0.0
 30
0.0
  0
INSERT
  5
2A9
330
1F
100
AcDbEntity
  8
0
  6
Continuous
 62
     7
370
     0
100
AcDbBlockReference
  2
SW_CENTERMARK9
 10
0.0
 20
0.0
 30
0.0
  0
INSERT
  5
2AA
330
1F
100
AcDbEntity
  8
0
  6
Continuous
 62
     7
370
     0
100
AcDbBlockReference
  2
SW_CENTERMARK10
 10
0.0
 20
0.0
 30
0.0
  0
ENDSEC
  0
SECTION
  2
OBJECTS
  0
DICTIONARY
  5
C
330
0
100
AcDbDictionary
281
     1
  3
ACAD_GROUP
350
D
  3
ACAD_LAYOUT
350
1A
  3
ACAD_MLINESTYLE
350
17
  3
ACAD_PLOTSETTINGS
350
19
  3
ACAD_PLOTSTYLENAME
350
E
  0
DICTIONARY
  5
D
102
{ACAD_REACTORS
330
C
102
}
330
C
100
AcDbDictionary
281
     1
  0
DICTIONARY
  5
1A
102
{ACAD_REACTORS
330
C
102
}
330
C
100
AcDbDictionary
281
     1
  3
Layout1
350
1E
  3
Layout2
350
26
  3
Model
350
22
  0
DICTIONARY
  5
17
102
{ACAD_REACTORS
330
C
102
}
330
C
100
AcDbDictionary
281
     1
  3
Standard
350
18
  0
DICTIONARY
  5
19
102
{ACAD_REACTORS
330
C
102
}
330
C
100
AcDbDictionary
281
     1
  0
ACDBDICTIONARYWDFLT
  5
E
102
{ACAD_REACTORS
330
C
102
}
330
C
100
AcDbDictionary
281
     1
  3
Normal
350
F
100
AcDbDictionaryWithDefault
340
F
  0
LAYOUT
  5
1E
102
{ACAD_REACTORS
330
1A
102
}
330
1A
100
AcDbPlotSettings
  1

  2

  4

  6

 40
0.0
 41
0.0
 42
0.0
 43
0.0
 44
0.0
 45
0.0
 46
0.0
 47
0.0
 48
0.0
 49
0.0
140
0.0
141
0.0
142
1.0
143
1.0
 70
   688
 72
     0
 73
     0
 74
     5
  7

 75
    16
147
1.0
148
0.0
149
0.0
100
AcDbLayout
  1
Layout1
 70
     1
 71
     1
 10
0.0
 20
0.0
 11
0.0
 21
0.0
 12
0.0
 22
0.0
 32
0.0
 14
0.0
 24
0.0
 34
0.0
 15
0.0
 25
0.0
 35
0.0
146
0.0
 13
0.0
 23
0.0
 33
0.0
 16
1.0
 26
0.0
 36
0.0
 17
0.0
 27
1.0
 37
0.0
 76
     0
330
1B
  0
LAYOUT
  5
26
102
{ACAD_REACTORS
330
1A
102
}
330
1A
100
AcDbPlotSettings
  1

  2

  4

  6

 40
0.0
 41
0.0
 42
0.0
 43
0.0
 44
0.0
 45
0.0
 46
0.0
 47
0.0
 48
0.0
 49
0.0
140
0.0
141
0.0
142
1.0
143
1.0
 70
   688
 72
     0
 73
     0
 74
     5
  7

 75
    16
147
1.0
148
0.0
149
0.0
100
AcDbLayout
  1
Layout2
 70
     1
 71
     2
 10
0.0
 20
0.0
 11
0.0
 21
0.0
 12
0.0
 22
0.0
 32
0.0
 14
0.0
 24
0.0
 34
0.0
 15
0.0
 25
0.0
 35
0.0
146
0.0
 13
0.0
 23
0.0
 33
0.0
 16
1.0
 26
0.0
 36
0.0
 17
0.0
 27
1.0
 37
0.0
 76
     0
330
23
  0
LAYOUT
  5
22
102
{ACAD_REACTORS
330
1A
102
}
330
1A
100
AcDbPlotSettings
  1

  2

  4

  6

 40
0.0
 41
0.0
 42
0.0
 43
0.0
 44
0.0
 45
0.0
 46
0.0
 47
0.0
 48
0.0
 49
0.0
140
0.0
141
0.0
142
1.0
143
1.0
 70
  1712
 72
     0
 73
     0
 74
     0
  7

 75
     0
147
1.0
148
0.0
149
0.0
100
AcDbLayout
  1
Model
 70
     1
 71
     0
 10
0.0
 20
0.0
 11
0.0
 21
0.0
 12
0.0
 22
0.0
 32
0.0
 14
0.0
 24
0.0
 34
0.0
 15
210.0
 25
297.0
 35
0.0
146
0.0
 13
0.0
 23
0.0
 33
0.0
 16
1.0
 26
0.0
 36
0.0
 17
0.0
 27
1.0
 37
0.0
 76
     0
330
1F
  0
MLINESTYLE
  5
18
102
{ACAD_REACTORS
330
17
102
}
330
17
100
AcDbMlineStyle
  2
Standard
 70
     0
  3

 62
   256
 51
90.0
 52
90.0
 71
     2
 49
0.5
 62
   256
  6
BYLAYER
 49
-0.5
 62
   256
  6
BYLAYER
  0
ACDBPLACEHOLDER
  5
F
102
{ACAD_REACTORS
330
E
102
}
330
E
  0
ENDSEC
  0
EOF
