  0
SECTION
  2
HEADER
  9
$ACADVER
  1
AC1015
  9
$ACADMAINTVER
 70
     6
  9
$DWGCODEPAGE
  3
DOS932
  9
$INSBASE
 10
0.0
 20
0.0
 30
0.0
  9
$EXTMIN
 10
0.0
 20
0.0
 30
0.0
  9
$EXTMAX
 10
210.0
 20
297.0
 30
0.0
  9
$LIMMIN
 10
0.0
 20
0.0
  9
$LIMMAX
 10
0.0
 20
0.0
  9
$ORTHOMODE
 70
     0
  9
$REGENMODE
 70
     1
  9
$FILLMODE
 70
     1
  9
$QTEXTMODE
 70
     0
  9
$MIRRTEXT
 70
     1
  9
$LTSCALE
 40
1.0
  9
$ATTMODE
 70
     1
  9
$TEXTSIZE
 40
3.5
  9
$TRACEWID
 40
1.0
  9
$TEXTSTYLE
  7
Standard
  9
$CLAYER
  8
0
  9
$CELTYPE
  6
ByLayer
  9
$CECOLOR
 62
   256
  9
$CELTSCALE
 40
1.0
  9
$DISPSILH
 70
     0
  9
$DIMSCALE
 40
1.0
  9
$DIMASZ
 40
3.0
  9
$DIMEXO
 40
1.0
  9
$DIMDLI
 40
3.75
  9
$DIMRND
 40
0.0
  9
$DIMDLE
 40
0.0
  9
$DIMEXE
 40
1.0
  9
$DIMTP
 40
0.0
  9
$DIMTM
 40
0.0
  9
$DIMTXT
 40
3.5
  9
$DIMCEN
 40
2.5
  9
$DIMTSZ
 40
0.0
  9
$DIMTOL
 70
     0
  9
$DIMLIM
 70
     0
  9
$DIMTIH
 70
     1
  9
$DIMTOH
 70
     1
  9
$DIMSE1
 70
     0
  9
$DIMSE2
 70
     0
  9
$DIMTAD
 70
     1
  9
$DIMZIN
 70
     1
  9
$DIMBLK
  1

  9
$DIMASO
 70
     1
  9
$DIMSHO
 70
     1
  9
$DIMPOST
  1

  9
$DIMAPOST
  1

  9
$DIMALT
 70
     0
  9
$DIMALTD
 70
     3
  9
$DIMALTF
 40
0.0393700787
  9
$DIMLFAC
 40
1.0
  9
$DIMTOFL
 70
     1
  9
$DIMTVP
 40
0.0
  9
$DIMTIX
 70
     0
  9
$DIMSOXD
 70
     0
  9
$DIMSAH
 70
     0
  9
$DIMBLK1
  1

  9
$DIMBLK2
  1

  9
$DIMSTYLE
  2
ISO-25
  9
$DIMCLRD
 70
     0
  9
$DIMCLRE
 70
     0
  9
$DIMCLRT
 70
     0
  9
$DIMTFAC
 40
1.0
  9
$DIMGAP
 40
1.524
  9
$DIMJUST
 70
     0
  9
$DIMSD1
 70
     0
  9
$DIMSD2
 70
     0
  9
$DIMTOLJ
 70
     0
  9
$DIMTZIN
 70
     1
  9
$DIMALTZ
 70
     0
  9
$DIMALTTZ
 70
     0
  9
$DIMUPT
 70
     0
  9
$DIMDEC
 70
     2
  9
$DIMTDEC
 70
     2
  9
$DIMALTU
 70
     2
  9
$DIMALTTD
 70
     3
  9
$DIMTXSTY
  7
Standard
  9
$DIMAUNIT
 70
     0
  9
$DIMADEC
 70
     0
  9
$DIMALTRND
 40
0.0
  9
$DIMAZIN
 70
     0
  9
$DIMDSEP
 70
    44
  9
$DIMATFIT
 70
     3
  9
$DIMFRAC
 70
     0
  9
$DIMLDRBLK
  1

  9
$DIMLUNIT
 70
     2
  9
$DIMLWD
 70
    -2
  9
$DIMLWE
 70
    -2
  9
$DIMTMOVE
 70
     0
  9
$LUNITS
 70
     2
  9
$LUPREC
 70
     1
  9
$SKETCHINC
 40
1.0
  9
$FILLETRAD
 40
10.0
  9
$AUNITS
 70
     0
  9
$AUPREC
 70
     0
  9
$MENU
  1
.
  9
$ELEVATION
 40
0.0
  9
$PELEVATION
 40
0.0
  9
$THICKNESS
 40
0.0
  9
$LIMCHECK
 70
     0
  9
$CHAMFERA
 40
10.0
  9
$CHAMFERB
 40
10.0
  9
$CHAMFERC
 40
20.0
  9
$CHAMFERD
 40
0.0
  9
$SKPOLY
 70
     0
  9
$TDCREATE
 40
2454359.599551505
  9
$TDUCREATE
 40
2454359.224551505
  9
$TDUPDATE
 40
2454359.599551516
  9
$TDUUPDATE
 40
2454359.224551516
  9
$TDINDWG
 40
0.0000000116
  9
$TDUSRTIMER
 40
0.0000000116
  9
$USRTIMER
 70
     1
  9
$ANGBASE
 50
0.0
  9
$ANGDIR
 70
     0
  9
$PDMODE
 70
     0
  9
$PDSIZE
 40
-1.0
  9
$PLINEWID
 40
0.0
  9
$SPLFRAME
 70
     0
  9
$SPLINETYPE
 70
     6
  9
$SPLINESEGS
 70
     8
  9
$HANDSEED
  5
18A
  9
$SURFTAB1
 70
     6
  9
$SURFTAB2
 70
     6
  9
$SURFTYPE
 70
     6
  9
$SURFU
 70
     6
  9
$SURFV
 70
     6
  9
$UCSBASE
  2

  9
$UCSNAME
  2

  9
$UCSORG
 10
0.0
 20
0.0
 30
0.0
  9
$UCSXDIR
 10
1.0
 20
0.0
 30
0.0
  9
$UCSYDIR
 10
0.0
 20
1.0
 30
0.0
  9
$UCSORTHOREF
  2

  9
$UCSORTHOVIEW
 70
     0
  9
$UCSORGTOP
 10
0.0
 20
0.0
 30
0.0
  9
$UCSORGBOTTOM
 10
0.0
 20
0.0
 30
0.0
  9
$UCSORGLEFT
 10
0.0
 20
0.0
 30
0.0
  9
$UCSORGRIGHT
 10
0.0
 20
0.0
 30
0.0
  9
$UCSORGFRONT
 10
0.0
 20
0.0
 30
0.0
  9
$UCSORGBACK
 10
0.0
 20
0.0
 30
0.0
  9
$PUCSBASE
  2

  9
$PUCSNAME
  2

  9
$PUCSORG
 10
0.0
 20
0.0
 30
0.0
  9
$PUCSXDIR
 10
1.0
 20
0.0
 30
0.0
  9
$PUCSYDIR
 10
0.0
 20
1.0
 30
0.0
  9
$PUCSORTHOREF
  2

  9
$PUCSORTHOVIEW
 70
     0
  9
$PUCSORGTOP
 10
0.0
 20
0.0
 30
0.0
  9
$PUCSORGBOTTOM
 10
0.0
 20
0.0
 30
0.0
  9
$PUCSORGLEFT
 10
0.0
 20
0.0
 30
0.0
  9
$PUCSORGRIGHT
 10
0.0
 20
0.0
 30
0.0
  9
$PUCSORGFRONT
 10
0.0
 20
0.0
 30
0.0
  9
$PUCSORGBACK
 10
0.0
 20
0.0
 30
0.0
  9
$USERI1
 70
     0
  9
$USERI2
 70
     0
  9
$USERI3
 70
     0
  9
$USERI4
 70
     0
  9
$USERI5
 70
     0
  9
$USERR1
 40
0.0
  9
$USERR2
 40
0.0
  9
$USERR3
 40
0.0
  9
$USERR4
 40
0.0
  9
$USERR5
 40
0.0
  9
$WORLDVIEW
 70
     1
  9
$SHADEDGE
 70
     3
  9
$SHADEDIF
 70
    70
  9
$TILEMODE
 70
     1
  9
$MAXACTVP
 70
    64
  9
$PINSBASE
 10
0.0
 20
0.0
 30
0.0
  9
$PLIMCHECK
 70
     0
  9
$PEXTMIN
 10
1.0000000000E+20
 20
1.0000000000E+20
 30
1.0000000000E+20
  9
$PEXTMAX
 10
-1.0000000000E+20
 20
-1.0000000000E+20
 30
-1.0000000000E+20
  9
$PLIMMIN
 10
0.0
 20
0.0
  9
$PLIMMAX
 10
420.0
 20
297.0
  9
$UNITMODE
 70
     0
  9
$VISRETAIN
 70
     1
  9
$PLINEGEN
 70
     0
  9
$PSLTSCALE
 70
     1
  9
$TREEDEPTH
 70
  3020
  9
$CMLSTYLE
  2
Standard
  9
$CMLJUST
 70
     0
  9
$CMLSCALE
 40
20.0
  9
$PROXYGRAPHICS
 70
     1
  9
$MEASUREMENT
 70
     1
  9
$CELWEIGHT
370
    -1
  9
$ENDCAPS
280
     0
  9
$JOINSTYLE
280
     0
  9
$LWDISPLAY
290
     1
  9
$INSUNITS
 70
     4
  9
$HYPERLINKBASE
  1

  9
$STYLESHEET
  1

  9
$XEDIT
290
     1
  9
$CEPSNTYPE
380
     0
  9
$PSTYLEMODE
290
     1
  9
$FINGERPRINTGUID
  2
{ABC574F6-32F3-4AFC-9BBA-60E084AEBB19}
  9
$VERSIONGUID
  2
{FAEB1C32-E019-11D5-929B-00C0DF256EC4}
  9
$EXTNAMES
290
     1
  9
$PSVPSCALE
 40
0.0
  9
$OLESTARTUP
290
     0
  0
ENDSEC
  0
SECTION
  2
CLASSES
  0
CLASS
  1
ACDBDICTIONARYWDFLT
  2
AcDbDictionaryWithDefault
  3
ObjectDBX Classes
 90
        0
280
     0
281
     0
  0
CLASS
  1
ACDBPLACEHOLDER
  2
AcDbPlaceHolder
  3
ObjectDBX Classes
 90
        0
280
     0
281
     0
  0
CLASS
  1
LAYOUT
  2
AcDbLayout
  3
ObjectDBX Classes
 90
        0
280
     0
281
     0
  0
ENDSEC
  0
SECTION
  2
TABLES
  0
TABLE
  2
VPORT
  5
8
330
0
100
AcDbSymbolTable
 70
     1
  0
VPORT
  5
29
330
8
100
AcDbSymbolTableRecord
100
AcDbViewportTableRecord
  2
*Active
 70
     0
 10
0.0
 20
0.0
 11
1.0
 21
1.0
 12
105.0
 22
148.5
 13
0.0
 23
0.0
 14
10.0
 24
10.0
 15
10.0
 25
10.0
 16
0.0
 26
0.0
 36
1.0
 17
0.0
 27
0.0
 37
0.0
 40
297.0
 41
1.9729729729
 42
50.0
 43
0.0
 44
0.0
 50
0.0
 51
0.0
 71
     0
 72
  2000
 73
     1
 74
     3
 75
     0
 76
     0
 77
     0
 78
     0
281
     0
 65
     1
110
0.0
120
0.0
130
0.0
111
1.0
121
0.0
131
0.0
112
0.0
122
1.0
132
0.0
 79
     0
146
0.0
  0
ENDTAB
  0
TABLE
  2
LTYPE
  5
5
330
0
100
AcDbSymbolTable
 70
     6
  0
LTYPE
  5
14
330
5
100
AcDbSymbolTableRecord
100
AcDbLinetypeTableRecord
  2
ByBlock
 70
     0
  3

 72
    65
 73
     0
 40
0.0
  0
LTYPE
  5
15
330
5
100
AcDbSymbolTableRecord
100
AcDbLinetypeTableRecord
  2
ByLayer
 70
     0
  3

 72
    65
 73
     0
 40
0.0
  0
LTYPE
  5
16
330
5
100
AcDbSymbolTableRecord
100
AcDbLinetypeTableRecord
  2
Continuous
 70
     0
  3
Solid line
 72
    65
 73
     0
 40
0.0
  0
LTYPE
  5
2A
330
5
100
AcDbSymbolTableRecord
100
AcDbLinetypeTableRecord
  2
HIDDEN
 70
     0
  3
Hidden __ __ __ __ __ __ __ __ __ __ __ __ __ __
 72
    65
 73
     2
 40
1.905
 49
1.27
 74
     0
 49
-0.635
 74
     0
  0
LTYPE
  5
2B
330
5
100
AcDbSymbolTableRecord
100
AcDbLinetypeTableRecord
  2
PHANTOM
 70
     0
  3
Phantom ______  __  __  ______  __  __  ______
 72
    65
 73
     6
 40
12.7
 49
6.35
 74
     0
 49
-1.27
 74
     0
 49
1.27
 74
     0
 49
-1.27
 74
     0
 49
1.27
 74
     0
 49
-1.27
 74
     0
  0
LTYPE
  5
2C
330
5
100
AcDbSymbolTableRecord
100
AcDbLinetypeTableRecord
  2
CENTER
 70
     0
  3
Center ____ _ ____ _ ____ _ ____ _ ____ _ ____
 72
    65
 73
     4
 40
10.16
 49
6.35
 74
     0
 49
-1.27
 74
     0
 49
1.27
 74
     0
 49
-1.27
 74
     0
  0
LTYPE
  5
2D
330
5
100
AcDbSymbolTableRecord
100
AcDbLinetypeTableRecord
  2
CENTERX2
 70
     0
  3
Center (2x) ________  __  ________  __  _____
 72
    65
 73
     4
 40
20.32
 49
12.7
 74
     0
 49
-2.54
 74
     0
 49
2.54
 74
     0
 49
-2.54
 74
     0
  0
LTYPE
  5
2E
330
5
100
AcDbSymbolTableRecord
100
AcDbLinetypeTableRecord
  2
DOT2
 70
     0
  3
Dot (.5x) ........................................
 72
    65
 73
     2
 40
0.635
 49
0.0
 74
     0
 49
-0.635
 74
     0
  0
ENDTAB
  0
TABLE
  2
LAYER
  5
2
330
0
100
AcDbSymbolTable
 70
     4
  0
LAYER
  5
10
330
2
100
AcDbSymbolTableRecord
100
AcDbLayerTableRecord
  2
0
 70
     0
 62
     7
  6
Continuous
370
    -3
390
F
  0
LAYER
  5
2F
330
2
100
AcDbSymbolTableRecord
100
AcDbLayerTableRecord
  2
SLD-0
 70
     0
 62
     7
  6
Continuous
370
     0
390
F
  0
LAYER
  5
30
330
2
100
AcDbSymbolTableRecord
100
AcDbLayerTableRecord
  2
SLD-DEFPOINTS
 70
     0
 62
     7
  6
Continuous
370
     0
390
F
  0
LAYER
  5
83
330
2
100
AcDbSymbolTableRecord
100
AcDbLayerTableRecord
  2
Defpoints
 70
     0
 62
     7
  6
Continuous
290
     0
370
    -3
390
F
  0
ENDTAB
  0
TABLE
  2
STYLE
  5
3
330
0
100
AcDbSymbolTable
 70
     4
  0
STYLE
  5
11
330
3
100
AcDbSymbolTableRecord
100
AcDbTextStyleTableRecord
  2
Standard
 70
     0
 40
0.0
 41
1.0
 50
0.0
 71
     0
 42
2.5
  3
txt
  4
bigfont
  0
STYLE
  5
34
330
3
100
AcDbSymbolTableRecord
100
AcDbTextStyleTableRecord
  2
SLDTEXTSTYLE0
 70
     0
 40
0.0
 41
0.7
 50
0.0
 71
     0
 42
0.2
  3
TXT
  4
bigfont
  0
STYLE
  5
90
330
3
100
AcDbSymbolTableRecord
100
AcDbTextStyleTableRecord
  2
SLDTEXTSTYLE1
 70
     0
 40
0.0
 41
0.75
 50
0.0
 71
     0
 42
0.2
  3
TXT
  4
bigfont
  0
STYLE
  5
9E
330
3
100
AcDbSymbolTableRecord
100
AcDbTextStyleTableRecord
  2
SLDTEXTSTYLE2
 70
     0
 40
0.0
 41
0.96
 50
0.0
 71
     0
 42
0.2
  3
TXT
  4
bigfont
  0
ENDTAB
  0
TABLE
  2
VIEW
  5
6
330
0
100
AcDbSymbolTable
 70
     0
  0
ENDTAB
  0
TABLE
  2
UCS
  5
7
330
0
100
AcDbSymbolTable
 70
     0
  0
ENDTAB
  0
TABLE
  2
APPID
  5
9
330
0
100
AcDbSymbolTable
 70
     1
  0
APPID
  5
12
330
9
100
AcDbSymbolTableRecord
100
AcDbRegAppTableRecord
  2
ACAD
 70
     0
  0
ENDTAB
  0
TABLE
  2
DIMSTYLE
  5
A
330
0
100
AcDbSymbolTable
 70
     5
100
AcDbDimStyleTable
  0
DIMSTYLE
105
27
330
A
100
AcDbSymbolTableRecord
100
AcDbDimStyleTableRecord
  2
ISO-25
 70
     0
 41
2.5
 42
0.625
 43
3.75
 44
1.25
 73
     0
 74
     0
 77
     1
 78
     8
140
2.5
141
2.5
143
0.0393700787
147
0.625
171
     3
172
     1
271
     2
272
     2
274
     3
278
    44
283
     0
284
     8
340
11
  0
DIMSTYLE
105
91
102
{ACAD_REACTORS
330
82
330
A0
330
B8
330
D0
330
E9
330
100
330
15D
102
}
330
A
100
AcDbSymbolTableRecord
100
AcDbDimStyleTableRecord
  2
SLDDIMSTYLE0
 70
     0
 41
3.0
 44
0.0
 73
     0
 74
     0
 77
     3
 78
    12
140
3.5
147
0.875
173
     1
271
     0
272
     3
284
    12
340
90
341
92
343
92
344
92
  0
DIMSTYLE
105
12A
102
{ACAD_REACTORS
330
11C
102
}
330
A
100
AcDbSymbolTableRecord
100
AcDbDimStyleTableRecord
  2
SLDDIMSTYLE1
 70
     0
 41
3.0
 44
0.0
 73
     0
 74
     0
 77
     3
 78
    12
140
3.5
147
0.875
173
     1
271
     1
272
     3
284
    12
340
90
341
92
343
92
344
92
  0
DIMSTYLE
105
141
102
{ACAD_REACTORS
330
137
102
}
330
A
100
AcDbSymbolTableRecord
100
AcDbDimStyleTableRecord
  2
SLDDIMSTYLE2
 70
     0
 41
3.0
 44
0.0
 78
    12
140
3.5
147
0.875
172
     1
173
     1
271
     0
272
     3
284
    12
340
90
341
92
343
92
344
92
  0
DIMSTYLE
105
154
102
{ACAD_REACTORS
330
14A
102
}
330
A
100
AcDbSymbolTableRecord
100
AcDbDimStyleTableRecord
  2
SLDDIMSTYLE3
 70
     0
 41
3.0
 44
0.0
 78
    12
140
3.5
147
0.875
172
     1
173
     1
271
     1
272
     3
284
    12
340
90
341
92
343
92
344
92
  0
ENDTAB
  0
TABLE
  2
BLOCK_RECORD
  5
1
330
0
100
AcDbSymbolTable
 70
    18
  0
BLOCK_RECORD
  5
1F
330
1
100
AcDbSymbolTableRecord
100
AcDbBlockTableRecord
  2
*Model_Space
340
22
  0
BLOCK_RECORD
  5
1B
330
1
100
AcDbSymbolTableRecord
100
AcDbBlockTableRecord
  2
*Paper_Space
340
1E
  0
BLOCK_RECORD
  5
23
330
1
100
AcDbSymbolTableRecord
100
AcDbBlockTableRecord
  2
*Paper_Space0
340
26
  0
BLOCK_RECORD
  5
31
330
1
100
AcDbSymbolTableRecord
100
AcDbBlockTableRecord
  2
注記
340
0
  0
BLOCK_RECORD
  5
37
330
1
100
AcDbSymbolTableRecord
100
AcDbBlockTableRecord
  2
_OPEN30
340
0
102
{BLKREFS
331
185
331
186
102
}
  0
BLOCK_RECORD
  5
3D
330
1
100
AcDbSymbolTableRecord
100
AcDbBlockTableRecord
  2
SW_CENTERMARK0
340
0
102
{BLKREFS
331
187
102
}
  0
BLOCK_RECORD
  5
48
330
1
100
AcDbSymbolTableRecord
100
AcDbBlockTableRecord
  2
SW_CENTERMARK1
340
0
102
{BLKREFS
331
188
102
}
  0
BLOCK_RECORD
  5
53
330
1
100
AcDbSymbolTableRecord
100
AcDbBlockTableRecord
  2
SW_CENTERMARK2
340
0
102
{BLKREFS
331
189
102
}
  0
BLOCK_RECORD
  5
84
330
1
100
AcDbSymbolTableRecord
100
AcDbBlockTableRecord
  2
*D6
340
0
  0
BLOCK_RECORD
  5
92
330
1
100
AcDbSymbolTableRecord
100
AcDbBlockTableRecord
  2
_None
340
0
102
{BLKREFS
331
89
331
88
331
A6
331
A5
331
BE
331
BD
331
D6
331
D5
331
EF
331
EE
331
107
331
106
331
122
331
121
331
13C
331
14F
331
163
331
162
102
}
  0
BLOCK_RECORD
  5
A1
330
1
100
AcDbSymbolTableRecord
100
AcDbBlockTableRecord
  2
*D8
340
0
  0
BLOCK_RECORD
  5
B9
330
1
100
AcDbSymbolTableRecord
100
AcDbBlockTableRecord
  2
*D9
340
0
  0
BLOCK_RECORD
  5
D1
330
1
100
AcDbSymbolTableRecord
100
AcDbBlockTableRecord
  2
*D10
340
0
  0
BLOCK_RECORD
  5
EA
330
1
100
AcDbSymbolTableRecord
100
AcDbBlockTableRecord
  2
*D11
340
0
  0
BLOCK_RECORD
  5
101
330
1
100
AcDbSymbolTableRecord
100
AcDbBlockTableRecord
  2
*D12
340
0
  0
BLOCK_RECORD
  5
11D
330
1
100
AcDbSymbolTableRecord
100
AcDbBlockTableRecord
  2
*D13
340
0
  0
BLOCK_RECORD
  5
138
330
1
100
AcDbSymbolTableRecord
100
AcDbBlockTableRecord
  2
*D14
340
0
  0
BLOCK_RECORD
  5
14B
330
1
100
AcDbSymbolTableRecord
100
AcDbBlockTableRecord
  2
*D15
340
0
  0
BLOCK_RECORD
  5
15E
330
1
100
AcDbSymbolTableRecord
100
AcDbBlockTableRecord
  2
*D16
340
0
  0
BLOCK_RECORD
  5
17E
330
1
100
AcDbSymbolTableRecord
100
AcDbBlockTableRecord
  2
SW_NOTE_0
340
0
102
{BLKREFS
331
183
102
}
  0
ENDTAB
  0
ENDSEC
  0
SECTION
  2
BLOCKS
  0
BLOCK
  5
20
330
1F
100
AcDbEntity
  8
0
100
AcDbBlockBegin
  2
*Model_Space
 70
     0
 71
     0
 10
0.0
 20
0.0
 30
0.0
  3
*Model_Space
  1

  0
ENDBLK
  5
21
330
1F
100
AcDbEntity
  8
0
100
AcDbBlockEnd
  0
BLOCK
  5
1C
330
1B
100
AcDbEntity
 67
     1
  8
0
100
AcDbBlockBegin
  2
*Paper_Space
 70
     0
 71
     0
 10
0.0
 20
0.0
 30
0.0
  3
*Paper_Space
  1

  0
ENDBLK
  5
1D
330
1B
100
AcDbEntity
 67
     1
  8
0
100
AcDbBlockEnd
  0
BLOCK
  5
24
330
23
100
AcDbEntity
  8
0
100
AcDbBlockBegin
  2
*Paper_Space0
 70
     0
 71
     0
 10
0.0
 20
0.0
 30
0.0
  3
*Paper_Space0
  1

  0
ENDBLK
  5
25
330
23
100
AcDbEntity
  8
0
100
AcDbBlockEnd
  0
BLOCK
  5
32
330
31
100
AcDbEntity
  8
0
100
AcDbBlockBegin
  2
注記
 70
     0
 71
     0
 10
0.0
 20
0.0
 30
0.0
  3
注記
  1

  0
MTEXT
  5
35
330
31
100
AcDbEntity
  8
0
  6
Continuous
 62
     7
370
     0
100
AcDbMText
 10
0.2636785918
 20
9.0739778448
 30
0.0
 40
3.5
 41
0.0
 71
     1
 72
     1
  1
１．特記ナキ角部ハ、バリ　カエリノ無キコト。
  7
SLDTEXTSTYLE0
 73
     1
 44
1.0
  0
MTEXT
  5
36
330
31
100
AcDbEntity
  8
0
  6
Continuous
 62
     7
370
     0
100
AcDbMText
 10
0.2636785918
 20
3.5759549983
 30
0.0
 40
3.5
 41
0.0
 71
     1
 72
     1
  1
２．特記ナキ隅部ハ、Ｒ０．４ＭＡＸトスル。
  7
SLDTEXTSTYLE0
 73
     1
 44
1.0
  0
ENDBLK
  5
33
330
31
100
AcDbEntity
  8
0
100
AcDbBlockEnd
  0
BLOCK
  5
38
330
37
100
AcDbEntity
  8
0
100
AcDbBlockBegin
  2
_OPEN30
 70
     0
 71
     0
 10
0.0
 20
0.0
 30
0.0
  3
_OPEN30
  1

  0
LINE
  5
3A
330
37
100
AcDbEntity
  8
SLD-0
  6
Continuous
100
AcDbLine
 10
-1.0
 20
0.267949
 30
0.0
 11
0.0
 21
0.0
 31
0.0
  0
LINE
  5
3B
330
37
100
AcDbEntity
  8
SLD-0
  6
Continuous
100
AcDbLine
 10
0.0
 20
0.0
 30
0.0
 11
-1.0
 21
-0.267949
 31
0.0
  0
LINE
  5
3C
330
37
100
AcDbEntity
  8
SLD-0
  6
Continuous
100
AcDbLine
 10
0.0
 20
0.0
 30
0.0
 11
-1.0
 21
0.0
 31
0.0
  0
ENDBLK
  5
39
330
37
100
AcDbEntity
  8
0
100
AcDbBlockEnd
  0
BLOCK
  5
3E
330
3D
100
AcDbEntity
  8
0
100
AcDbBlockBegin
  2
SW_CENTERMARK0
 70
     0
 71
     0
 10
0.0
 20
0.0
 30
0.0
  3
SW_CENTERMARK0
  1

  0
LINE
  5
40
330
3D
100
AcDbEntity
  8
SLD-0
  6
Continuous
 62
     7
100
AcDbLine
 10
101.6683589259
 20
179.8284745681
 30
0.0
 11
101.6683589259
 21
182.3284745681
 31
0.0
  0
LINE
  5
41
330
3D
100
AcDbEntity
  8
SLD-0
  6
Continuous
 62
     7
100
AcDbLine
 10
101.6683589259
 20
179.8284745681
 30
0.0
 11
99.1683589259
 21
179.8284745681
 31
0.0
  0
LINE
  5
42
330
3D
100
AcDbEntity
  8
SLD-0
  6
Continuous
 62
     7
100
AcDbLine
 10
101.6683589259
 20
179.8284745681
 30
0.0
 11
101.6683589259
 21
177.3284745681
 31
0.0
  0
LINE
  5
43
330
3D
100
AcDbEntity
  8
SLD-0
  6
Continuous
 62
     7
100
AcDbLine
 10
101.6683589259
 20
179.8284745681
 30
0.0
 11
104.1683589259
 21
179.8284745681
 31
0.0
  0
LINE
  5
44
330
3D
100
AcDbEntity
  8
SLD-0
  6
Continuous
 62
     7
100
AcDbLine
 10
101.6683589259
 20
184.8284745681
 30
0.0
 11
101.6683589259
 21
187.5784745681
 31
0.0
  0
LINE
  5
45
330
3D
100
AcDbEntity
  8
SLD-0
  6
Continuous
 62
     7
100
AcDbLine
 10
96.6683589259
 20
179.8284745681
 30
0.0
 11
93.9183589259
 21
179.8284745681
 31
0.0
  0
LINE
  5
46
330
3D
100
AcDbEntity
  8
SLD-0
  6
Continuous
 62
     7
100
AcDbLine
 10
101.6683589259
 20
174.8284745681
 30
0.0
 11
101.6683589259
 21
172.0784745681
 31
0.0
  0
LINE
  5
47
330
3D
100
AcDbEntity
  8
SLD-0
  6
Continuous
 62
     7
100
AcDbLine
 10
106.6683589259
 20
179.8284745681
 30
0.0
 11
109.4183589259
 21
179.8284745681
 31
0.0
  0
ENDBLK
  5
3F
330
3D
100
AcDbEntity
  8
0
100
AcDbBlockEnd
  0
BLOCK
  5
49
330
48
100
AcDbEntity
  8
0
100
AcDbBlockBegin
  2
SW_CENTERMARK1
 70
     0
 71
     0
 10
0.0
 20
0.0
 30
0.0
  3
SW_CENTERMARK1
  1

  0
LINE
  5
4B
330
48
100
AcDbEntity
  8
SLD-0
  6
Continuous
 62
     7
100
AcDbLine
 10
95.6683589259
 20
153.3284745681
 30
0.0
 11
95.6683589259
 21
155.8284745681
 31
0.0
  0
LINE
  5
4C
330
48
100
AcDbEntity
  8
SLD-0
  6
Continuous
 62
     7
100
AcDbLine
 10
95.6683589259
 20
153.3284745681
 30
0.0
 11
93.1683589259
 21
153.3284745681
 31
0.0
  0
LINE
  5
4D
330
48
100
AcDbEntity
  8
SLD-0
  6
Continuous
 62
     7
100
AcDbLine
 10
95.6683589259
 20
153.3284745681
 30
0.0
 11
95.6683589259
 21
150.8284745681
 31
0.0
  0
LINE
  5
4E
330
48
100
AcDbEntity
  8
SLD-0
  6
Continuous
 62
     7
100
AcDbLine
 10
95.6683589259
 20
153.3284745681
 30
0.0
 11
98.1683589259
 21
153.3284745681
 31
0.0
  0
LINE
  5
4F
330
48
100
AcDbEntity
  8
SLD-0
  6
Continuous
 62
     7
100
AcDbLine
 10
95.6683589259
 20
155.8284745681
 30
0.0
 11
95.6683589259
 21
157.5784745681
 31
0.0
  0
LINE
  5
50
330
48
100
AcDbEntity
  8
SLD-0
  6
Continuous
 62
     7
100
AcDbLine
 10
93.1683589259
 20
153.3284745681
 30
0.0
 11
91.4183589259
 21
153.3284745681
 31
0.0
  0
LINE
  5
51
330
48
100
AcDbEntity
  8
SLD-0
  6
Continuous
 62
     7
100
AcDbLine
 10
95.6683589259
 20
150.8284745681
 30
0.0
 11
95.6683589259
 21
149.0784745681
 31
0.0
  0
LINE
  5
52
330
48
100
AcDbEntity
  8
SLD-0
  6
Continuous
 62
     7
100
AcDbLine
 10
98.1683589259
 20
153.3284745681
 30
0.0
 11
99.9183589259
 21
153.3284745681
 31
0.0
  0
ENDBLK
  5
4A
330
48
100
AcDbEntity
  8
0
100
AcDbBlockEnd
  0
BLOCK
  5
54
330
53
100
AcDbEntity
  8
0
100
AcDbBlockBegin
  2
SW_CENTERMARK2
 70
     0
 71
     0
 10
0.0
 20
0.0
 30
0.0
  3
SW_CENTERMARK2
  1

  0
LINE
  5
56
330
53
100
AcDbEntity
  8
SLD-0
  6
Continuous
 62
     7
100
AcDbLine
 10
107.6683589259
 20
153.3284745681
 30
0.0
 11
107.6683589259
 21
155.8284745681
 31
0.0
  0
LINE
  5
57
330
53
100
AcDbEntity
  8
SLD-0
  6
Continuous
 62
     7
100
AcDbLine
 10
107.6683589259
 20
153.3284745681
 30
0.0
 11
105.1683589259
 21
153.3284745681
 31
0.0
  0
LINE
  5
58
330
53
100
AcDbEntity
  8
SLD-0
  6
Continuous
 62
     7
100
AcDbLine
 10
107.6683589259
 20
153.3284745681
 30
0.0
 11
107.6683589259
 21
150.8284745681
 31
0.0
  0
LINE
  5
59
330
53
100
AcDbEntity
  8
SLD-0
  6
Continuous
 62
     7
100
AcDbLine
 10
107.6683589259
 20
153.3284745681
 30
0.0
 11
110.1683589259
 21
153.3284745681
 31
0.0
  0
LINE
  5
5A
330
53
100
AcDbEntity
  8
SLD-0
  6
Continuous
 62
     7
100
AcDbLine
 10
107.6683589259
 20
155.8284745681
 30
0.0
 11
107.6683589259
 21
157.5784745681
 31
0.0
  0
LINE
  5
5B
330
53
100
AcDbEntity
  8
SLD-0
  6
Continuous
 62
     7
100
AcDbLine
 10
105.1683589259
 20
153.3284745681
 30
0.0
 11
103.4183589259
 21
153.3284745681
 31
0.0
  0
LINE
  5
5C
330
53
100
AcDbEntity
  8
SLD-0
  6
Continuous
 62
     7
100
AcDbLine
 10
107.6683589259
 20
150.8284745681
 30
0.0
 11
107.6683589259
 21
149.0784745681
 31
0.0
  0
LINE
  5
5D
330
53
100
AcDbEntity
  8
SLD-0
  6
Continuous
 62
     7
100
AcDbLine
 10
110.1683589259
 20
153.3284745681
 30
0.0
 11
111.9183589259
 21
153.3284745681
 31
0.0
  0
ENDBLK
  5
55
330
53
100
AcDbEntity
  8
0
100
AcDbBlockEnd
  0
BLOCK
  5
8E
330
84
100
AcDbEntity
  8
0
100
AcDbBlockBegin
  2
*D6
 70
     1
 71
     0
 10
0.0
 20
0.0
 30
0.0
  3
*D6
  1

  0
LINE
  5
95
330
84
100
AcDbEntity
  8
SLD-0
 62
     7
100
AcDbLine
 10
111.6683589259
 20
185.8284745681
 30
0.0
 11
111.6683589259
 21
213.3854266711
 31
0.0
  0
LINE
  5
96
330
84
100
AcDbEntity
  8
SLD-0
 62
     7
100
AcDbLine
 10
91.6683589259
 20
185.8284745681
 30
0.0
 11
91.6683589259
 21
213.3854266711
 31
0.0
  0
LINE
  5
97
330
84
100
AcDbEntity
  8
SLD-0
 62
     7
100
AcDbLine
 10
111.6683589259
 20
212.3854266711
 30
0.0
 11
91.6683589259
 21
212.3854266711
 31
0.0
  0
LINE
  5
98
330
84
100
AcDbEntity
  8
SLD-0
 62
     7
100
AcDbLine
 10
108.6683589259
 20
213.1892736711
 30
0.0
 11
111.6683589259
 21
212.3854266711
 31
0.0
  0
LINE
  5
99
330
84
100
AcDbEntity
  8
SLD-0
 62
     7
100
AcDbLine
 10
111.6683589259
 20
212.3854266711
 30
0.0
 11
108.6683589259
 21
211.5815796711
 31
0.0
  0
LINE
  5
9A
330
84
100
AcDbEntity
  8
SLD-0
 62
     7
100
AcDbLine
 10
111.6683589259
 20
212.3854266711
 30
0.0
 11
108.6683589259
 21
212.3854266711
 31
0.0
  0
LINE
  5
9B
330
84
100
AcDbEntity
  8
SLD-0
 62
     7
100
AcDbLine
 10
94.6683589259
 20
211.5815796711
 30
0.0
 11
91.6683589259
 21
212.3854266711
 31
0.0
  0
LINE
  5
9C
330
84
100
AcDbEntity
  8
SLD-0
 62
     7
100
AcDbLine
 10
91.6683589259
 20
212.3854266711
 30
0.0
 11
94.6683589259
 21
213.1892736711
 31
0.0
  0
LINE
  5
9D
330
84
100
AcDbEntity
  8
SLD-0
 62
     7
100
AcDbLine
 10
91.6683589259
 20
212.3854266711
 30
0.0
 11
94.6683589259
 21
212.3854266711
 31
0.0
  0
MTEXT
  5
9F
330
84
100
AcDbEntity
  8
SLD-0
 62
     7
100
AcDbMText
 10
99.6319088663
 20
216.9121204834
 30
0.1
 40
3.5
 41
0.0
 71
     1
 72
     1
  1
20
  7
SLDTEXTSTYLE2
 73
     1
 44
1.0
  0
ENDBLK
  5
8F
330
84
100
AcDbEntity
  8
0
100
AcDbBlockEnd
  0
BLOCK
  5
93
330
92
100
AcDbEntity
  8
0
100
AcDbBlockBegin
  2
_None
 70
     0
 71
     0
 10
0.0
 20
0.0
 30
0.0
  3
_None
  1

  0
ENDBLK
  5
94
330
92
100
AcDbEntity
  8
0
100
AcDbBlockEnd
  0
BLOCK
  5
AC
330
A1
100
AcDbEntity
  8
0
100
AcDbBlockBegin
  2
*D8
 70
     1
 71
     0
 10
0.0
 20
0.0
 30
0.0
  3
*D8
  1

  0
LINE
  5
AE
330
A1
100
AcDbEntity
  8
SLD-0
 62
     7
100
AcDbLine
 10
95.6683589259
 20
189.8284745681
 30
0.0
 11
73.5501435319
 21
189.8284745681
 31
0.0
  0
LINE
  5
AF
330
A1
100
AcDbEntity
  8
SLD-0
 62
     7
100
AcDbLine
 10
90.6683589259
 20
144.8284745681
 30
0.0
 11
73.5501435319
 21
144.8284745681
 31
0.0
  0
LINE
  5
B0
330
A1
100
AcDbEntity
  8
SLD-0
 62
     7
100
AcDbLine
 10
74.5501435319
 20
189.8284745681
 30
0.0
 11
74.5501435319
 21
144.8284745681
 31
0.0
  0
LINE
  5
B1
330
A1
100
AcDbEntity
  8
SLD-0
 62
     7
100
AcDbLine
 10
73.7462965319
 20
186.8284745681
 30
0.0
 11
74.5501435319
 21
189.8284745681
 31
0.0
  0
LINE
  5
B2
330
A1
100
AcDbEntity
  8
SLD-0
 62
     7
100
AcDbLine
 10
74.5501435319
 20
189.8284745681
 30
0.0
 11
75.3539905319
 21
186.8284745681
 31
0.0
  0
LINE
  5
B3
330
A1
100
AcDbEntity
  8
SLD-0
 62
     7
100
AcDbLine
 10
74.5501435319
 20
189.8284745681
 30
0.0
 11
74.5501435319
 21
186.8284745681
 31
0.0
  0
LINE
  5
B4
330
A1
100
AcDbEntity
  8
SLD-0
 62
     7
100
AcDbLine
 10
75.3539905319
 20
147.8284745681
 30
0.0
 11
74.5501435319
 21
144.8284745681
 31
0.0
  0
LINE
  5
B5
330
A1
100
AcDbEntity
  8
SLD-0
 62
     7
100
AcDbLine
 10
74.5501435319
 20
144.8284745681
 30
0.0
 11
73.7462965319
 21
147.8284745681
 31
0.0
  0
LINE
  5
B6
330
A1
100
AcDbEntity
  8
SLD-0
 62
     7
100
AcDbLine
 10
74.5501435319
 20
144.8284745681
 30
0.0
 11
74.5501435319
 21
147.8284745681
 31
0.0
  0
MTEXT
  5
B7
330
A1
100
AcDbEntity
  8
SLD-0
 62
     7
100
AcDbMText
 10
70.0234497196
 20
165.2920245085
 30
0.1
 40
3.5
 41
0.0
 71
     1
 72
     1
  1
45
  7
SLDTEXTSTYLE2
 11
6.123031769111886E-17
 21
1.0
 31
0.0
 73
     1
 44
1.0
  0
ENDBLK
  5
AD
330
A1
100
AcDbEntity
  8
0
100
AcDbBlockEnd
  0
BLOCK
  5
C4
330
B9
100
AcDbEntity
  8
0
100
AcDbBlockBegin
  2
*D9
 70
     1
 71
     0
 10
0.0
 20
0.0
 30
0.0
  3
*D9
  1

  0
LINE
  5
C6
330
B9
100
AcDbEntity
  8
SLD-0
 62
     7
100
AcDbLine
 10
109.7418589259
 20
179.8284745681
 30
0.0
 11
79.6755635971
 21
179.8284745681
 31
0.0
  0
LINE
  5
C7
330
B9
100
AcDbEntity
  8
SLD-0
 62
     7
100
AcDbLine
 10
90.6683589259
 20
144.8284745681
 30
0.0
 11
79.6755635971
 21
144.8284745681
 31
0.0
  0
LINE
  5
C8
330
B9
100
AcDbEntity
  8
SLD-0
 62
     7
100
AcDbLine
 10
80.6755635971
 20
179.8284745681
 30
0.0
 11
80.6755635971
 21
144.8284745681
 31
0.0
  0
LINE
  5
C9
330
B9
100
AcDbEntity
  8
SLD-0
 62
     7
100
AcDbLine
 10
79.8717165971
 20
176.8284745681
 30
0.0
 11
80.6755635971
 21
179.8284745681
 31
0.0
  0
LINE
  5
CA
330
B9
100
AcDbEntity
  8
SLD-0
 62
     7
100
AcDbLine
 10
80.6755635971
 20
179.8284745681
 30
0.0
 11
81.4794105971
 21
176.8284745681
 31
0.0
  0
LINE
  5
CB
330
B9
100
AcDbEntity
  8
SLD-0
 62
     7
100
AcDbLine
 10
80.6755635971
 20
179.8284745681
 30
0.0
 11
80.6755635971
 21
176.8284745681
 31
0.0
  0
LINE
  5
CC
330
B9
100
AcDbEntity
  8
SLD-0
 62
     7
100
AcDbLine
 10
81.4794105971
 20
147.8284745681
 30
0.0
 11
80.6755635971
 21
144.8284745681
 31
0.0
  0
LINE
  5
CD
330
B9
100
AcDbEntity
  8
SLD-0
 62
     7
100
AcDbLine
 10
80.6755635971
 20
144.8284745681
 30
0.0
 11
79.8717165971
 21
147.8284745681
 31
0.0
  0
LINE
  5
CE
330
B9
100
AcDbEntity
  8
SLD-0
 62
     7
100
AcDbLine
 10
80.6755635971
 20
144.8284745681
 30
0.0
 11
80.6755635971
 21
147.8284745681
 31
0.0
  0
MTEXT
  5
CF
330
B9
100
AcDbEntity
  8
SLD-0
 62
     7
100
AcDbMText
 10
76.1488697847
 20
160.2920245085
 30
0.1
 40
3.5
 41
0.0
 71
     1
 72
     1
  1
35
  7
SLDTEXTSTYLE2
 11
6.123031769111886E-17
 21
1.0
 31
0.0
 73
     1
 44
1.0
  0
ENDBLK
  5
C5
330
B9
100
AcDbEntity
  8
0
100
AcDbBlockEnd
  0
BLOCK
  5
DB
330
D1
100
AcDbEntity
  8
0
100
AcDbBlockBegin
  2
*D10
 70
     1
 71
     0
 10
0.0
 20
0.0
 30
0.0
  3
*D10
  1

  0
LINE
  5
DD
330
D1
100
AcDbEntity
  8
SLD-0
 62
     7
100
AcDbLine
 10
101.6683589259
 20
187.9019745681
 30
0.0
 11
101.6683589259
 21
202.9092628926
 31
0.0
  0
LINE
  5
DE
330
D1
100
AcDbEntity
  8
SLD-0
 62
     7
100
AcDbLine
 10
111.6683589259
 20
185.8284745681
 30
0.0
 11
111.6683589259
 21
202.9092628926
 31
0.0
  0
LINE
  5
DF
330
D1
100
AcDbEntity
  8
SLD-0
 62
     7
100
AcDbLine
 10
101.6683589259
 20
201.9092628926
 30
0.0
 11
96.6683589259
 21
201.9092628926
 31
0.0
  0
LINE
  5
E0
330
D1
100
AcDbEntity
  8
SLD-0
 62
     7
100
AcDbLine
 10
101.6683589259
 20
201.9092628926
 30
0.0
 11
111.6683589259
 21
201.9092628926
 31
0.0
  0
LINE
  5
E1
330
D1
100
AcDbEntity
  8
SLD-0
 62
     7
100
AcDbLine
 10
111.6683589259
 20
201.9092628926
 30
0.0
 11
116.6683589259
 21
201.9092628926
 31
0.0
  0
LINE
  5
E2
330
D1
100
AcDbEntity
  8
SLD-0
 62
     7
100
AcDbLine
 10
98.6683589259
 20
202.7131098926
 30
0.0
 11
101.6683589259
 21
201.9092628926
 31
0.0
  0
LINE
  5
E3
330
D1
100
AcDbEntity
  8
SLD-0
 62
     7
100
AcDbLine
 10
101.6683589259
 20
201.9092628926
 30
0.0
 11
98.6683589259
 21
201.1054158926
 31
0.0
  0
LINE
  5
E4
330
D1
100
AcDbEntity
  8
SLD-0
 62
     7
100
AcDbLine
 10
101.6683589259
 20
201.9092628926
 30
0.0
 11
98.6683589259
 21
201.9092628926
 31
0.0
  0
LINE
  5
E5
330
D1
100
AcDbEntity
  8
SLD-0
 62
     7
100
AcDbLine
 10
114.6683589259
 20
201.1054158926
 30
0.0
 11
111.6683589259
 21
201.9092628926
 31
0.0
  0
LINE
  5
E6
330
D1
100
AcDbEntity
  8
SLD-0
 62
     7
100
AcDbLine
 10
111.6683589259
 20
201.9092628926
 30
0.0
 11
114.6683589259
 21
202.7131098926
 31
0.0
  0
LINE
  5
E7
330
D1
100
AcDbEntity
  8
SLD-0
 62
     7
100
AcDbLine
 10
111.6683589259
 20
201.9092628926
 30
0.0
 11
114.6683589259
 21
201.9092628926
 31
0.0
  0
MTEXT
  5
E8
330
D1
100
AcDbEntity
  8
SLD-0
 62
     7
100
AcDbMText
 10
104.6319088663
 20
206.4359567049
 30
0.1
 40
3.5
 41
0.0
 71
     1
 72
     1
  1
10
  7
SLDTEXTSTYLE2
 73
     1
 44
1.0
  0
ENDBLK
  5
DC
330
D1
100
AcDbEntity
  8
0
100
AcDbBlockEnd
  0
BLOCK
  5
F4
330
EA
100
AcDbEntity
  8
0
100
AcDbBlockBegin
  2
*D11
 70
     1
 71
     0
 10
0.0
 20
0.0
 30
0.0
  3
*D11
  1

  0
LINE
  5
F6
330
EA
100
AcDbEntity
  8
SLD-0
 62
     7
100
AcDbLine
 10
95.6683589259
 20
152.3284745681
 30
0.0
 11
95.6683589259
 21
130.1938868449
 31
0.0
  0
LINE
  5
F7
330
EA
100
AcDbEntity
  8
SLD-0
 62
     7
100
AcDbLine
 10
107.6683589259
 20
152.3284745681
 30
0.0
 11
107.6683589259
 21
130.1938868449
 31
0.0
  0
LINE
  5
F8
330
EA
100
AcDbEntity
  8
SLD-0
 62
     7
100
AcDbLine
 10
95.6683589259
 20
131.1938868449
 30
0.0
 11
107.6683589259
 21
131.1938868449
 31
0.0
  0
LINE
  5
F9
330
EA
100
AcDbEntity
  8
SLD-0
 62
     7
100
AcDbLine
 10
98.6683589259
 20
130.3900398449
 30
0.0
 11
95.6683589259
 21
131.1938868449
 31
0.0
  0
LINE
  5
FA
330
EA
100
AcDbEntity
  8
SLD-0
 62
     7
100
AcDbLine
 10
95.6683589259
 20
131.1938868449
 30
0.0
 11
98.6683589259
 21
131.9977338449
 31
0.0
  0
LINE
  5
FB
330
EA
100
AcDbEntity
  8
SLD-0
 62
     7
100
AcDbLine
 10
95.6683589259
 20
131.1938868449
 30
0.0
 11
98.6683589259
 21
131.1938868449
 31
0.0
  0
LINE
  5
FC
330
EA
100
AcDbEntity
  8
SLD-0
 62
     7
100
AcDbLine
 10
104.6683589259
 20
131.9977338449
 30
0.0
 11
107.6683589259
 21
131.1938868449
 31
0.0
  0
LINE
  5
FD
330
EA
100
AcDbEntity
  8
SLD-0
 62
     7
100
AcDbLine
 10
107.6683589259
 20
131.1938868449
 30
0.0
 11
104.6683589259
 21
130.3900398449
 31
0.0
  0
LINE
  5
FE
330
EA
100
AcDbEntity
  8
SLD-0
 62
     7
100
AcDbLine
 10
107.6683589259
 20
131.1938868449
 30
0.0
 11
104.6683589259
 21
131.1938868449
 31
0.0
  0
MTEXT
  5
FF
330
EA
100
AcDbEntity
  8
SLD-0
 62
     7
100
AcDbMText
 10
99.6319088663
 20
135.7205806573
 30
0.1
 40
3.5
 41
0.0
 71
     1
 72
     1
  1
12
  7
SLDTEXTSTYLE2
 73
     1
 44
1.0
  0
ENDBLK
  5
F5
330
EA
100
AcDbEntity
  8
0
100
AcDbBlockEnd
  0
BLOCK
  5
10E
330
101
100
AcDbEntity
  8
0
100
AcDbBlockBegin
  2
*D12
 70
     1
 71
     0
 10
0.0
 20
0.0
 30
0.0
  3
*D12
  1

  0
LINE
  5
110
330
101
100
AcDbEntity
  8
SLD-0
 62
     7
100
AcDbLine
 10
107.6683589259
 20
152.3284745681
 30
0.0
 11
107.6683589259
 21
130.1938868449
 31
0.0
  0
LINE
  5
111
330
101
100
AcDbEntity
  8
SLD-0
 62
     7
100
AcDbLine
 10
111.6683589259
 20
143.8284745681
 30
0.0
 11
111.6683589259
 21
130.1938868449
 31
0.0
  0
LINE
  5
112
330
101
100
AcDbEntity
  8
SLD-0
 62
     7
100
AcDbLine
 10
107.6683589259
 20
131.1938868449
 30
0.0
 11
102.6683589259
 21
131.1938868449
 31
0.0
  0
LINE
  5
113
330
101
100
AcDbEntity
  8
SLD-0
 62
     7
100
AcDbLine
 10
107.6683589259
 20
131.1938868449
 30
0.0
 11
111.6683589259
 21
131.1938868449
 31
0.0
  0
LINE
  5
114
330
101
100
AcDbEntity
  8
SLD-0
 62
     7
100
AcDbLine
 10
111.6683589259
 20
131.1938868449
 30
0.0
 11
121.3809678786
 21
131.1938868449
 31
0.0
  0
LINE
  5
115
330
101
100
AcDbEntity
  8
SLD-0
 62
     7
100
AcDbLine
 10
104.6683589259
 20
131.9977338449
 30
0.0
 11
107.6683589259
 21
131.1938868449
 31
0.0
  0
LINE
  5
116
330
101
100
AcDbEntity
  8
SLD-0
 62
     7
100
AcDbLine
 10
107.6683589259
 20
131.1938868449
 30
0.0
 11
104.6683589259
 21
130.3900398449
 31
0.0
  0
LINE
  5
117
330
101
100
AcDbEntity
  8
SLD-0
 62
     7
100
AcDbLine
 10
107.6683589259
 20
131.1938868449
 30
0.0
 11
104.6683589259
 21
131.1938868449
 31
0.0
  0
LINE
  5
118
330
101
100
AcDbEntity
  8
SLD-0
 62
     7
100
AcDbLine
 10
114.6683589259
 20
130.3900398449
 30
0.0
 11
111.6683589259
 21
131.1938868449
 31
0.0
  0
LINE
  5
119
330
101
100
AcDbEntity
  8
SLD-0
 62
     7
100
AcDbLine
 10
111.6683589259
 20
131.1938868449
 30
0.0
 11
114.6683589259
 21
131.9977338449
 31
0.0
  0
LINE
  5
11A
330
101
100
AcDbEntity
  8
SLD-0
 62
     7
100
AcDbLine
 10
111.6683589259
 20
131.1938868449
 30
0.0
 11
114.6683589259
 21
131.1938868449
 31
0.0
  0
MTEXT
  5
11B
330
101
100
AcDbEntity
  8
SLD-0
 62
     7
100
AcDbMText
 10
117.757017819
 20
135.7205806573
 30
0.1
 40
3.5
 41
0.0
 71
     1
 72
     1
  1
4
  7
SLDTEXTSTYLE2
 73
     1
 44
1.0
  0
ENDBLK
  5
10F
330
101
100
AcDbEntity
  8
0
100
AcDbBlockEnd
  0
BLOCK
  5
128
330
11D
100
AcDbEntity
  8
0
100
AcDbBlockBegin
  2
*D13
 70
     1
 71
     0
 10
0.0
 20
0.0
 30
0.0
  3
*D13
  1

  0
LINE
  5
12B
330
11D
100
AcDbEntity
  8
SLD-0
 62
     7
100
AcDbLine
 10
114.4183589259
 20
153.3284745681
 30
0.0
 11
128.789180336
 21
153.3284745681
 31
0.0
  0
LINE
  5
12C
330
11D
100
AcDbEntity
  8
SLD-0
 62
     7
100
AcDbLine
 10
112.6683589259
 20
144.8284745681
 30
0.0
 11
128.789180336
 21
144.8284745681
 31
0.0
  0
LINE
  5
12D
330
11D
100
AcDbEntity
  8
SLD-0
 62
     7
100
AcDbLine
 10
127.789180336
 20
153.3284745681
 30
0.0
 11
127.789180336
 21
158.3284745681
 31
0.0
  0
LINE
  5
12E
330
11D
100
AcDbEntity
  8
SLD-0
 62
     7
100
AcDbLine
 10
127.789180336
 20
153.3284745681
 30
0.0
 11
127.789180336
 21
144.8284745681
 31
0.0
  0
LINE
  5
12F
330
11D
100
AcDbEntity
  8
SLD-0
 62
     7
100
AcDbLine
 10
127.789180336
 20
144.8284745681
 30
0.0
 11
127.789180336
 21
139.8284745681
 31
0.0
  0
LINE
  5
130
330
11D
100
AcDbEntity
  8
SLD-0
 62
     7
100
AcDbLine
 10
128.593027336
 20
156.3284745681
 30
0.0
 11
127.789180336
 21
153.3284745681
 31
0.0
  0
LINE
  5
131
330
11D
100
AcDbEntity
  8
SLD-0
 62
     7
100
AcDbLine
 10
127.789180336
 20
153.3284745681
 30
0.0
 11
126.985333336
 21
156.3284745681
 31
0.0
  0
LINE
  5
132
330
11D
100
AcDbEntity
  8
SLD-0
 62
     7
100
AcDbLine
 10
127.789180336
 20
153.3284745681
 30
0.0
 11
127.789180336
 21
156.3284745681
 31
0.0
  0
LINE
  5
133
330
11D
100
AcDbEntity
  8
SLD-0
 62
     7
100
AcDbLine
 10
126.985333336
 20
141.8284745681
 30
0.0
 11
127.789180336
 21
144.8284745681
 31
0.0
  0
LINE
  5
134
330
11D
100
AcDbEntity
  8
SLD-0
 62
     7
100
AcDbLine
 10
127.789180336
 20
144.8284745681
 30
0.0
 11
128.593027336
 21
141.8284745681
 31
0.0
  0
LINE
  5
135
330
11D
100
AcDbEntity
  8
SLD-0
 62
     7
100
AcDbLine
 10
127.789180336
 20
144.8284745681
 30
0.0
 11
127.789180336
 21
141.8284745681
 31
0.0
  0
MTEXT
  5
136
330
11D
100
AcDbEntity
  8
SLD-0
 62
     7
100
AcDbMText
 10
123.2624865237
 20
146.0237994787
 30
0.1
 40
3.5
 41
0.0
 71
     1
 72
     1
  1
8.5
  7
SLDTEXTSTYLE2
 11
6.123031769111886E-17
 21
1.0
 31
0.0
 73
     1
 44
1.0
  0
ENDBLK
  5
129
330
11D
100
AcDbEntity
  8
0
100
AcDbBlockEnd
  0
BLOCK
  5
13F
330
138
100
AcDbEntity
  8
0
100
AcDbBlockBegin
  2
*D14
 70
     1
 71
     0
 10
0.0
 20
0.0
 30
0.0
  3
*D14
  1

  0
LINE
  5
142
330
138
100
AcDbEntity
  8
SLD-0
 62
     7
100
AcDbLine
 10
105.6266555981
 20
184.3375639944
 30
0.0
 11
117.4866051274
 21
197.847812833
 31
0.0
  0
LINE
  5
143
330
138
100
AcDbEntity
  8
SLD-0
 62
     7
100
AcDbLine
 10
117.4866051274
 20
197.847812833
 30
0.0
 11
136.5042555446
 21
197.847812833
 31
0.0
  0
LINE
  5
144
330
138
100
AcDbEntity
  8
SLD-0
 62
     7
100
AcDbLine
 10
108.2099069356
 20
186.06179789
 30
0.0
 11
105.6266555981
 21
184.3375639944
 31
0.0
  0
LINE
  5
145
330
138
100
AcDbEntity
  8
SLD-0
 62
     7
100
AcDbLine
 10
105.6266555981
 20
184.3375639944
 30
0.0
 11
107.0017009329
 21
187.1224195251
 31
0.0
  0
LINE
  5
146
330
138
100
AcDbEntity
  8
SLD-0
 62
     7
100
AcDbLine
 10
105.6266555981
 20
184.3375639944
 30
0.0
 11
107.6058039342
 21
186.5921087075
 31
0.0
  0
MTEXT
  5
147
330
138
100
AcDbEntity
  8
SLD-0
 62
     7
100
AcDbMText
 10
120.6616051274
 20
202.3745066453
 30
0.1
 40
3.5
 41
0.0
 71
     1
 72
     1
  1
M
  7
SLDTEXTSTYLE2
 73
     1
 44
1.0
  0
MTEXT
  5
148
330
138
100
AcDbEntity
  8
SLD-0
 62
     7
100
AcDbMText
 10
122.698055187
 20
202.3745066453
 30
0.1
 40
3.5
 41
0.0
 71
     1
 72
     1
  1
12
  7
SLDTEXTSTYLE2
 73
     1
 44
1.0
  0
MTEXT
  5
149
330
138
100
AcDbEntity
  8
SLD-0
 62
     7
100
AcDbMText
 10
126.7709553062
 20
202.3745066453
 30
0.1
 40
3.5
 41
0.0
 71
     1
 72
     1
  1
 P=1
  7
SLDTEXTSTYLE2
 73
     1
 44
1.0
  0
ENDBLK
  5
140
330
138
100
AcDbEntity
  8
0
100
AcDbBlockEnd
  0
BLOCK
  5
152
330
14B
100
AcDbEntity
  8
0
100
AcDbBlockBegin
  2
*D15
 70
     1
 71
     0
 10
0.0
 20
0.0
 30
0.0
  3
*D15
  1

  0
LINE
  5
155
330
14B
100
AcDbEntity
  8
SLD-0
 62
     7
100
AcDbLine
 10
108.7174158423
 20
154.7291813847
 30
0.0
 11
115.6084769625
 21
163.9301657481
 31
0.0
  0
LINE
  5
156
330
14B
100
AcDbEntity
  8
SLD-0
 62
     7
100
AcDbLine
 10
115.6084769625
 20
163.9301657481
 30
0.0
 11
134.4203159374
 21
163.9301657481
 31
0.0
  0
LINE
  5
157
330
14B
100
AcDbEntity
  8
SLD-0
 62
     7
100
AcDbLine
 10
111.1592013976
 20
156.6485180674
 30
0.0
 11
108.7174158423
 21
154.7291813847
 31
0.0
  0
LINE
  5
158
330
14B
100
AcDbEntity
  8
SLD-0
 62
     7
100
AcDbLine
 10
108.7174158423
 20
154.7291813847
 30
0.0
 11
109.8723968577
 21
157.6122680732
 31
0.0
  0
LINE
  5
159
330
14B
100
AcDbEntity
  8
SLD-0
 62
     7
100
AcDbLine
 10
108.7174158423
 20
154.7291813847
 30
0.0
 11
110.5157991276
 21
157.1303930703
 31
0.0
  0
MTEXT
  5
15A
330
14B
100
AcDbEntity
  8
SLD-0
 62
     7
100
AcDbMText
 10
118.7834769625
 20
168.4568595605
 30
0.1
 40
3.5
 41
0.0
 71
     1
 72
     1
  1
2-
  7
SLDTEXTSTYLE2
 73
     1
 44
1.0
  0
MTEXT
  5
15B
330
14B
100
AcDbEntity
  8
SLD-0
 62
     7
100
AcDbMText
 10
121.1070879574
 20
168.4568595605
 30
0.1
 40
3.5
 41
0.0
 71
     1
 72
     1
  1
%%c
  7
SLDTEXTSTYLE2
 73
     1
 44
1.0
  0
MTEXT
  5
15C
330
14B
100
AcDbEntity
  8
SLD-0
 62
     7
100
AcDbMText
 10
126.7234657586
 20
168.4568595605
 30
0.1
 40
3.5
 41
0.0
 71
     1
 72
     1
  1
3.5
  7
SLDTEXTSTYLE2
 73
     1
 44
1.0
  0
ENDBLK
  5
153
330
14B
100
AcDbEntity
  8
0
100
AcDbBlockEnd
  0
BLOCK
  5
169
330
15E
100
AcDbEntity
  8
0
100
AcDbBlockBegin
  2
*D16
 70
     1
 71
     0
 10
0.0
 20
0.0
 30
0.0
  3
*D16
  1

  0
LINE
  5
16B
330
15E
100
AcDbEntity
  8
SLD-0
 62
     7
100
AcDbLine
 10
151.6165485089
 20
143.8284745681
 30
0.0
 11
151.6165485089
 21
129.7572975467
 31
0.0
  0
LINE
  5
16C
330
15E
100
AcDbEntity
  8
SLD-0
 62
     7
100
AcDbLine
 10
156.6165485089
 20
143.8284745681
 30
0.0
 11
156.6165485089
 21
129.7572975467
 31
0.0
  0
LINE
  5
16D
330
15E
100
AcDbEntity
  8
SLD-0
 62
     7
100
AcDbLine
 10
151.6165485089
 20
130.7572975467
 30
0.0
 11
146.6165485089
 21
130.7572975467
 31
0.0
  0
LINE
  5
16E
330
15E
100
AcDbEntity
  8
SLD-0
 62
     7
100
AcDbLine
 10
151.6165485089
 20
130.7572975467
 30
0.0
 11
156.6165485089
 21
130.7572975467
 31
0.0
  0
LINE
  5
16F
330
15E
100
AcDbEntity
  8
SLD-0
 62
     7
100
AcDbLine
 10
156.6165485089
 20
130.7572975467
 30
0.0
 11
161.6165485089
 21
130.7572975467
 31
0.0
  0
LINE
  5
170
330
15E
100
AcDbEntity
  8
SLD-0
 62
     7
100
AcDbLine
 10
148.6165485089
 20
131.5611445467
 30
0.0
 11
151.6165485089
 21
130.7572975467
 31
0.0
  0
LINE
  5
171
330
15E
100
AcDbEntity
  8
SLD-0
 62
     7
100
AcDbLine
 10
151.6165485089
 20
130.7572975467
 30
0.0
 11
148.6165485089
 21
129.9534505467
 31
0.0
  0
LINE
  5
172
330
15E
100
AcDbEntity
  8
SLD-0
 62
     7
100
AcDbLine
 10
151.6165485089
 20
130.7572975467
 30
0.0
 11
148.6165485089
 21
130.7572975467
 31
0.0
  0
LINE
  5
173
330
15E
100
AcDbEntity
  8
SLD-0
 62
     7
100
AcDbLine
 10
159.6165485089
 20
129.9534505467
 30
0.0
 11
156.6165485089
 21
130.7572975467
 31
0.0
  0
LINE
  5
174
330
15E
100
AcDbEntity
  8
SLD-0
 62
     7
100
AcDbLine
 10
156.6165485089
 20
130.7572975467
 30
0.0
 11
159.6165485089
 21
131.5611445467
 31
0.0
  0
LINE
  5
175
330
15E
100
AcDbEntity
  8
SLD-0
 62
     7
100
AcDbLine
 10
156.6165485089
 20
130.7572975467
 30
0.0
 11
159.6165485089
 21
130.7572975467
 31
0.0
  0
MTEXT
  5
176
330
15E
100
AcDbEntity
  8
SLD-0
 62
     7
100
AcDbMText
 10
153.0983234791
 20
135.2839913591
 30
0.1
 40
3.5
 41
0.0
 71
     1
 72
     1
  1
5
  7
SLDTEXTSTYLE2
 73
     1
 44
1.0
  0
ENDBLK
  5
16A
330
15E
100
AcDbEntity
  8
0
100
AcDbBlockEnd
  0
BLOCK
  5
17F
330
17E
100
AcDbEntity
  8
0
100
AcDbBlockBegin
  2
SW_NOTE_0
 70
     0
 71
     0
 10
0.0
 20
0.0
 30
0.0
  3
SW_NOTE_0
  1

  0
MTEXT
  5
181
330
17E
100
AcDbEntity
  8
0
  6
Continuous
 62
     7
370
     0
100
AcDbMText
 10
0.0
 20
4.9260606061
 30
0.0
 40
4.2333333333
 41
0.0
 71
     1
 72
     1
  1
サクション　リンク
  7
SLDTEXTSTYLE0
 73
     1
 44
1.0
  0
MTEXT
  5
182
330
17E
100
AcDbEntity
  8
0
  6
Continuous
 62
     7
370
     0
100
AcDbMText
 10
1.936847344
 20
-0.7183837702
 30
0.0
 40
4.2333333333
 41
0.0
 71
     1
 72
     1
  1
ブラケット　Ｍ12
  7
SLDTEXTSTYLE0
 73
     1
 44
1.0
  0
ENDBLK
  5
180
330
17E
100
AcDbEntity
  8
0
100
AcDbBlockEnd
  0
ENDSEC
  0
SECTION
  2
ENTITIES
  0
LINE
  5
5E
330
1F
100
AcDbEntity
  8
SLD-0
  6
Continuous
 62
     7
100
AcDbLine
 10
91.6683591494
 20
145.8284746156
 30
0.0
 11
92.6683593133
 21
144.8284745681
 31
0.0
  0
LINE
  5
5F
330
1F
100
AcDbEntity
  8
SLD-0
  6
Continuous
 62
     7
100
AcDbLine
 10
110.6683585384
 20
144.8284745681
 30
0.0
 11
111.6683587024
 21
145.8284746156
 31
0.0
  0
LINE
  5
60
330
1F
100
AcDbEntity
  8
SLD-0
  6
Continuous
 62
     7
100
AcDbLine
 10
110.6683585384
 20
144.8284745681
 30
0.0
 11
92.6683593133
 21
144.8284745681
 31
0.0
  0
LINE
  5
61
330
1F
100
AcDbEntity
  8
SLD-0
  6
Continuous
 62
     7
100
AcDbLine
 10
111.6683587024
 20
184.8284736741
 30
0.0
 11
111.6683587024
 21
145.8284746156
 31
0.0
  0
LINE
  5
62
330
1F
100
AcDbEntity
  8
SLD-0
  6
Continuous
 62
     7
100
AcDbLine
 10
106.6683588141
 20
189.8284763563
 30
0.0
 11
111.6683587024
 21
184.8284736741
 31
0.0
  0
LINE
  5
63
330
1F
100
AcDbEntity
  8
SLD-0
  6
Continuous
 62
     7
100
AcDbLine
 10
96.6683590376
 20
189.8284763563
 30
0.0
 11
106.6683588141
 21
189.8284763563
 31
0.0
  0
LINE
  5
64
330
1F
100
AcDbEntity
  8
SLD-0
  6
Continuous
 62
     7
100
AcDbLine
 10
91.6683591494
 20
184.8284736741
 30
0.0
 11
96.6683590376
 21
189.8284763563
 31
0.0
  0
LINE
  5
65
330
1F
100
AcDbEntity
  8
SLD-0
  6
Continuous
 62
     7
100
AcDbLine
 10
91.6683591494
 20
145.8284746156
 30
0.0
 11
91.6683591494
 21
184.8284736741
 31
0.0
  0
LINE
  5
66
330
1F
100
AcDbEntity
  8
SLD-0
 62
     7
100
AcDbLine
 10
94.1683589259
 20
187.3284745681
 30
0.0
 11
81.4667426238
 21
198.3136347634
 31
0.0
  0
LINE
  5
67
330
1F
100
AcDbEntity
  8
SLD-0
 62
     7
100
AcDbLine
 10
81.4667426238
 20
198.3136347634
 30
0.0
 11
90.015161158
 21
190.891703842
 31
0.0
  0
LINE
  5
68
330
1F
100
AcDbEntity
  8
SLD-0
 62
     7
100
AcDbLine
 10
92.1683589259
 20
145.3284745681
 30
0.0
 11
80.9758708753
 21
129.2925503036
 31
0.0
  0
LINE
  5
69
330
1F
100
AcDbEntity
  8
SLD-0
 62
     7
100
AcDbLine
 10
80.9758708753
 20
129.2925503036
 30
0.0
 11
87.4652354567
 21
138.5687922888
 31
0.0
  0
LINE
  5
6A
330
1F
100
AcDbEntity
  8
SLD-0
  6
Continuous
 62
     7
100
AcDbLine
 10
156.6165483971
 20
144.8284745681
 30
0.0
 11
151.6165485089
 21
144.8284745681
 31
0.0
  0
LINE
  5
6B
330
1F
100
AcDbEntity
  8
SLD-0
  6
Continuous
 62
     7
100
AcDbLine
 10
151.6165485089
 20
144.8284745681
 30
0.0
 11
151.6165485089
 21
145.8284746156
 31
0.0
  0
LINE
  5
6C
330
1F
100
AcDbEntity
  8
SLD-0
  6
Continuous
 62
     7
100
AcDbLine
 10
151.6165485089
 20
145.8284746156
 30
0.0
 11
156.6165483971
 21
145.8284746156
 31
0.0
  0
LINE
  5
6D
330
1F
100
AcDbEntity
  8
SLD-0
  6
Continuous
 62
     7
100
AcDbLine
 10
156.6165483971
 20
145.8284746156
 30
0.0
 11
156.6165483971
 21
144.8284745681
 31
0.0
  0
LINE
  5
6E
330
1F
100
AcDbEntity
  8
SLD-0
  6
Continuous
 62
     7
100
AcDbLine
 10
156.6165483971
 20
184.8284736741
 30
0.0
 11
151.6165485089
 21
184.8284736741
 31
0.0
  0
LINE
  5
6F
330
1F
100
AcDbEntity
  8
SLD-0
  6
Continuous
 62
     7
100
AcDbLine
 10
156.6165483971
 20
184.8284736741
 30
0.0
 11
156.6165483971
 21
145.8284746156
 31
0.0
  0
LINE
  5
70
330
1F
100
AcDbEntity
  8
SLD-0
  6
Continuous
 62
     7
100
AcDbLine
 10
151.6165485089
 20
184.8284736741
 30
0.0
 11
151.6165485089
 21
145.8284746156
 31
0.0
  0
LINE
  5
71
330
1F
100
AcDbEntity
  8
SLD-0
  6
Continuous
 62
     7
100
AcDbLine
 10
156.6165483971
 20
189.8284763563
 30
0.0
 11
151.6165485089
 21
189.8284763563
 31
0.0
  0
LINE
  5
72
330
1F
100
AcDbEntity
  8
SLD-0
  6
Continuous
 62
     7
100
AcDbLine
 10
151.6165485089
 20
189.8284763563
 30
0.0
 11
151.6165485089
 21
184.8284736741
 31
0.0
  0
LINE
  5
73
330
1F
100
AcDbEntity
  8
SLD-0
  6
Continuous
 62
     7
100
AcDbLine
 10
156.6165483971
 20
189.8284763563
 30
0.0
 11
156.6165483971
 21
184.8284736741
 31
0.0
  0
LINE
  5
74
330
1F
100
AcDbEntity
  8
SLD-0
  6
CENTERX2
 62
     7
100
AcDbLine
 10
158.6165485089
 20
179.8284745681
 30
0.0
 11
149.6165485089
 21
179.8284745681
 31
0.0
  0
LINE
  5
75
330
1F
100
AcDbEntity
  8
SLD-0
  6
CENTERX2
 62
     7
100
AcDbLine
 10
158.6165485089
 20
153.3284745681
 30
0.0
 11
149.6165485089
 21
153.3284745681
 31
0.0
  0
LINE
  5
76
330
1F
100
AcDbEntity
  8
0
  6
Continuous
 62
     7
370
     0
100
AcDbLine
 10
20.2604743903
 20
285.0
 30
0.0
 11
196.7604743903
 21
285.0
 31
0.0
  0
LINE
  5
77
330
1F
100
AcDbEntity
  8
0
  6
Continuous
 62
     7
370
     0
100
AcDbLine
 10
20.2604743903
 20
285.0
 30
0.0
 11
20.2604743903
 21
10.0
 31
0.0
  0
LINE
  5
78
330
1F
100
AcDbEntity
  8
0
  6
Continuous
 62
     7
370
     0
100
AcDbLine
 10
20.2604743903
 20
10.0
 30
0.0
 11
196.7604743903
 21
10.0
 31
0.0
  0
LINE
  5
79
330
1F
100
AcDbEntity
  8
0
  6
Continuous
 62
     7
370
     0
100
AcDbLine
 10
196.7604743903
 20
285.0
 30
0.0
 11
196.7604743903
 21
10.0
 31
0.0
  0
LINE
  5
7A
330
1F
100
AcDbEntity
  8
0
  6
Continuous
 62
     7
370
     0
100
AcDbLine
 10
127.0104743903
 20
50.75
 30
0.0
 11
196.7604743903
 21
50.75
 31
0.0
  0
LINE
  5
7B
330
1F
100
AcDbEntity
  8
0
  6
Continuous
 62
     7
370
     0
100
AcDbLine
 10
127.0104743903
 20
50.75
 30
0.0
 11
127.0104743903
 21
10.0
 31
0.0
  0
LINE
  5
7C
330
1F
100
AcDbEntity
  8
0
  6
Continuous
 62
     7
370
     0
100
AcDbLine
 10
127.0104743903
 20
22.75
 30
0.0
 11
196.7604743903
 21
22.75
 31
0.0
  0
LINE
  5
7D
330
1F
100
AcDbEntity
  8
0
  6
Continuous
 62
     7
370
     0
100
AcDbLine
 10
127.0104743903
 20
36.75
 30
0.0
 11
196.7604743903
 21
36.75
 31
0.0
  0
CIRCLE
  5
7E
330
1F
100
AcDbEntity
  8
SLD-0
  6
Continuous
 62
     7
100
AcDbCircle
 10
101.6683589259
 20
179.8284745681
 30
0.0
 40
5.25
  0
CIRCLE
  5
7F
330
1F
100
AcDbEntity
  8
SLD-0
  6
Continuous
 62
     7
100
AcDbCircle
 10
107.6683589259
 20
153.3284745681
 30
0.0
 40
1.750000000000014
  0
CIRCLE
  5
80
330
1F
100
AcDbEntity
  8
SLD-0
  6
Continuous
 62
     7
100
AcDbCircle
 10
95.6683589259
 20
153.3284745681
 30
0.0
 40
1.75
  0
CIRCLE
  5
81
330
1F
100
AcDbEntity
  8
SLD-0
 62
     7
100
AcDbCircle
 10
101.6683589259
 20
179.8284745681
 30
0.0
 40
6.000000052200008
  0
DIMENSION
  5
82
330
1F
100
AcDbEntity
  8
SLD-0
 62
     7
100
AcDbDimension
  2
*D6
 10
111.6683589259
 20
212.3854266711
 30
0.0
 11
101.6683589259
 21
212.3854266711
 31
0.0
 70
   160
 71
     1
 42
20.0
  3
SLDDIMSTYLE0
100
AcDbAlignedDimension
 13
91.6683589259
 23
184.8284745681
 33
0.0
 14
111.6683589259
 24
184.8284745681
 34
0.0
100
AcDbRotatedDimension
1001
ACAD
1000
DSTYLE
1002
{
1070
    77
1070
     3
1070
   143
1040
0.0393700787
1070
    41
1040
3.0
1070
    44
1040
1.0
1070
    42
1040
1.0
1070
   147
1040
1.524
1070
    73
1070
     0
1070
    74
1070
     0
1070
   140
1040
3.5
1070
   284
1070
    12
1070
    78
1070
    12
1002
}
  0
DIMENSION
  5
A0
330
1F
100
AcDbEntity
  8
SLD-0
 62
     7
100
AcDbDimension
  2
*D8
 10
74.5501435319
 20
189.8284745681
 30
0.0
 11
74.5501435319
 21
167.3284745681
 31
0.0
 70
   160
 71
     1
 42
45.0
  3
SLDDIMSTYLE0
100
AcDbAlignedDimension
 13
91.6683589259
 23
144.8284745681
 33
0.0
 14
96.6683589259
 24
189.8284745681
 34
0.0
 50
90.0
100
AcDbRotatedDimension
1001
ACAD
1000
DSTYLE
1002
{
1070
    77
1070
     3
1070
   143
1040
0.0393700787
1070
    41
1040
3.0
1070
    44
1040
1.0
1070
    42
1040
1.0
1070
   147
1040
1.524
1070
    73
1070
     0
1070
    74
1070
     0
1070
   140
1040
3.5
1070
   284
1070
    12
1070
    78
1070
    12
1002
}
  0
DIMENSION
  5
B8
330
1F
100
AcDbEntity
  8
SLD-0
 62
     7
100
AcDbDimension
  2
*D9
 10
80.6755635971
 20
179.8284745681
 30
0.0
 11
80.6755635971
 21
162.3284745681
 31
0.0
 70
   160
 71
     1
 42
35.0
  3
SLDDIMSTYLE0
100
AcDbAlignedDimension
 13
91.6683589259
 23
144.8284745681
 33
0.0
 14
101.6683589259
 24
179.8284745681
 34
0.0
 50
90.0
100
AcDbRotatedDimension
1001
ACAD
1000
DSTYLE
1002
{
1070
    77
1070
     3
1070
   143
1040
0.0393700787
1070
    41
1040
3.0
1070
    44
1040
1.0
1070
    42
1040
1.0
1070
   147
1040
1.524
1070
    73
1070
     0
1070
    74
1070
     0
1070
   140
1040
3.5
1070
   284
1070
    12
1070
    78
1070
    12
1002
}
  0
DIMENSION
  5
D0
330
1F
100
AcDbEntity
  8
SLD-0
 62
     7
100
AcDbDimension
  2
*D10
 10
101.6683589259
 20
201.9092628926
 30
0.0
 11
106.6683589259
 21
201.9092628926
 31
0.0
 70
   160
 71
     1
 42
10.0
  3
SLDDIMSTYLE0
100
AcDbAlignedDimension
 13
111.6683589259
 23
184.8284745681
 33
0.0
 14
101.6683589259
 24
179.8284745681
 34
0.0
100
AcDbRotatedDimension
1001
ACAD
1000
DSTYLE
1002
{
1070
    77
1070
     3
1070
   143
1040
0.0393700787
1070
    41
1040
3.0
1070
    44
1040
1.0
1070
    42
1040
1.0
1070
   147
1040
1.524
1070
    73
1070
     0
1070
    74
1070
     0
1070
   140
1040
3.5
1070
   284
1070
    12
1070
    78
1070
    12
1002
}
  0
DIMENSION
  5
E9
330
1F
100
AcDbEntity
  8
SLD-0
 62
     7
100
AcDbDimension
  2
*D11
 10
95.6683589259
 20
131.1938868449
 30
0.0
 11
101.6683589259
 21
131.1938868449
 31
0.0
 70
   160
 71
     1
 42
12.0
  3
SLDDIMSTYLE0
100
AcDbAlignedDimension
 13
107.6683589259
 23
153.3284745681
 33
0.0
 14
95.6683589259
 24
153.3284745681
 34
0.0
100
AcDbRotatedDimension
1001
ACAD
1000
DSTYLE
1002
{
1070
    77
1070
     3
1070
   143
1040
0.0393700787
1070
    41
1040
3.0
1070
    44
1040
1.0
1070
    42
1040
1.0
1070
   147
1040
1.524
1070
    73
1070
     0
1070
    74
1070
     0
1070
   140
1040
3.5
1070
   284
1070
    12
1070
    78
1070
    12
1002
}
  0
DIMENSION
  5
100
330
1F
100
AcDbEntity
  8
SLD-0
 62
     7
100
AcDbDimension
  2
*D12
 10
107.6683589259
 20
131.1938868449
 30
0.0
 11
118.7752428488
 21
131.1938868449
 31
0.0
 70
   160
 71
     1
 42
4.0
  3
SLDDIMSTYLE0
100
AcDbAlignedDimension
 13
111.6683589259
 23
144.8284745681
 33
0.0
 14
107.6683589259
 24
153.3284745681
 34
0.0
100
AcDbRotatedDimension
1001
ACAD
1000
DSTYLE
1002
{
1070
    77
1070
     3
1070
   143
1040
0.0393700787
1070
    41
1040
3.0
1070
    44
1040
1.0
1070
    42
1040
1.0
1070
   147
1040
1.524
1070
    73
1070
     0
1070
    74
1070
     0
1070
   140
1040
3.5
1070
   284
1070
    12
1070
    78
1070
    12
1002
}
  0
DIMENSION
  5
11C
330
1F
100
AcDbEntity
  8
SLD-0
 62
     7
100
AcDbDimension
  2
*D13
 10
127.789180336
 20
153.3284745681
 30
0.0
 11
127.789180336
 21
149.0784745681
 31
0.0
 70
   160
 71
     1
 42
8.5
  3
SLDDIMSTYLE1
100
AcDbAlignedDimension
 13
111.6683589259
 23
144.8284745681
 33
0.0
 14
107.6683589259
 24
153.3284745681
 34
0.0
 50
90.0
100
AcDbRotatedDimension
1001
ACAD
1000
DSTYLE
1002
{
1070
    77
1070
     3
1070
   143
1040
0.0393700787
1070
    41
1040
3.0
1070
    44
1040
1.0
1070
    42
1040
1.0
1070
   147
1040
1.524
1070
    73
1070
     0
1070
    74
1070
     0
1070
   140
1040
3.5
1070
   284
1070
    12
1070
    78
1070
    12
1002
}
  0
DIMENSION
  5
137
330
1F
100
AcDbEntity
  8
SLD-0
 62
     7
100
AcDbDimension
  2
*D14
 10
5.9058388144
 20
10.4461013854
 30
0.0
 11
127.789180336
 21
-5.2230513047
 31
0.0
 70
   163
  1
M<> P=1<>
 71
     1
 42
11.999998594
  3
SLDDIMSTYLE2
100
AcDbDiametricDimension
 15
0.0
 25
0.0
 35
0.0
 40
0.0
1001
ACAD
1000
DSTYLE
1002
{
1070
    77
1070
     0
1070
   143
1040
0.0393700787
1070
    41
1040
3.0
1070
    44
1040
1.0
1070
    42
1040
1.0
1070
   147
1040
1.524
1070
    73
1070
     1
1070
    74
1070
     1
1070
   140
1040
3.5
1070
   284
1070
    12
1070
    78
1070
    12
1002
}
  0
DIMENSION
  5
14A
330
1F
100
AcDbEntity
  8
SLD-0
 62
     7
100
AcDbDimension
  2
*D15
 10
2.0113587883
 20
2.8643380274
 30
0.0
 11
125.8081464499
 21
-4.9102944606
 31
0.0
 70
   163
  1
2-<>
 71
     1
 42
3.4999995015
  3
SLDDIMSTYLE3
100
AcDbDiametricDimension
 15
0.0
 25
0.0
 35
0.0
 40
0.0
1001
ACAD
1000
DSTYLE
1002
{
1070
    77
1070
     0
1070
   143
1040
0.0393700787
1070
    41
1040
3.0
1070
    44
1040
1.0
1070
    42
1040
1.0
1070
   147
1040
1.524
1070
    73
1070
     1
1070
    74
1070
     1
1070
   140
1040
3.5
1070
   284
1070
    12
1070
    78
1070
    12
1002
}
  0
DIMENSION
  5
15D
330
1F
100
AcDbEntity
  8
SLD-0
 62
     7
100
AcDbDimension
  2
*D16
 10
151.6165485089
 20
130.7572975467
 30
0.0
 11
154.1165485089
 21
130.7572975467
 31
0.0
 70
   160
 71
     1
 42
5.0
  3
SLDDIMSTYLE0
100
AcDbAlignedDimension
 13
156.6165485089
 23
144.8284745681
 33
0.0
 14
151.6165485089
 24
144.8284745681
 34
0.0
100
AcDbRotatedDimension
1001
ACAD
1000
DSTYLE
1002
{
1070
    77
1070
     3
1070
   143
1040
0.0393700787
1070
    41
1040
3.0
1070
    44
1040
1.0
1070
    42
1040
1.0
1070
   147
1040
1.524
1070
    73
1070
     0
1070
    74
1070
     0
1070
   140
1040
3.5
1070
   284
1070
    12
1070
    78
1070
    12
1002
}
  0
MTEXT
  5
177
330
1F
100
AcDbEntity
  8
SLD-0
 62
     7
100
AcDbMText
 10
85.633502514
 20
200.6913767933
 30
0.0
 40
3.5
 41
0.0
 71
     1
 72
     1
  1
2-
  7
SLDTEXTSTYLE1
 11
0.7551072675358509
 21
-0.6556012618311079
 31
0.0
 73
     1
 44
1.0
  0
MTEXT
  5
178
330
1F
100
AcDbEntity
  8
SLD-0
 62
     7
100
AcDbMText
 10
88.708978994
 20
198.0211783358
 30
0.0
 40
3.5
 41
0.0
 71
     1
 72
     1
  1
C
  7
SLDTEXTSTYLE1
 11
0.7551072675358509
 21
-0.6556012618311079
 31
0.0
 73
     1
 44
1.0
  0
MTEXT
  5
179
330
1F
100
AcDbEntity
  8
SLD-0
 62
     7
100
AcDbMText
 10
90.2467172339
 20
196.686079107
 30
0.0
 40
3.5
 41
0.0
 71
     1
 72
     1
  1
5
  7
SLDTEXTSTYLE1
 11
0.7551072675358509
 21
-0.6556012618311079
 31
0.0
 73
     1
 44
1.0
  0
MTEXT
  5
17A
330
1F
100
AcDbEntity
  8
SLD-0
 62
     7
100
AcDbMText
 10
78.1763000737
 20
133.1884389662
 30
0.0
 40
3.5
 41
0.0
 71
     1
 72
     1
  1
2-
  7
SLDTEXTSTYLE1
 11
0.573224899710559
 21
0.8193980805150934
 31
0.0
 73
     1
 44
1.0
  0
MTEXT
  5
17B
330
1F
100
AcDbEntity
  8
SLD-0
 62
     7
100
AcDbMText
 10
80.5109878361
 20
136.525765506
 30
0.0
 40
3.5
 41
0.0
 71
     1
 72
     1
  1
C
  7
SLDTEXTSTYLE1
 11
0.573224899710559
 21
0.8193980805150934
 31
0.0
 73
     1
 44
1.0
  0
MTEXT
  5
17C
330
1F
100
AcDbEntity
  8
SLD-0
 62
     7
100
AcDbMText
 10
81.6783317173
 20
138.1944287758
 30
0.0
 40
3.5
 41
0.0
 71
     1
 72
     1
  1
1
  7
SLDTEXTSTYLE1
 11
0.573224899710559
 21
0.8193980805150934
 31
0.0
 73
     1
 44
1.0
  0
MTEXT
  5
17D
330
1F
100
AcDbEntity
  8
0
  6
Continuous
 62
     7
370
     0
100
AcDbMText
 10
150.0973035116
 20
29.8861652342
 30
0.0
 40
4.2333333333
 41
0.0
 71
     1
 72
     1
  1
N01918-201
  7
SLDTEXTSTYLE0
 73
     1
 44
1.0
  0
INSERT
  5
183
330
1F
100
AcDbEntity
  8
0
  6
Continuous
 62
     7
370
     0
100
AcDbBlockReference
  2
SW_NOTE_0
 10
143.6029560292
 20
43.4201818724
 30
0.0
  0
MTEXT
  5
184
330
1F
100
AcDbEntity
  8
0
  6
Continuous
 62
     7
370
     0
100
AcDbMText
 10
155.4979918741
 20
16.2918259049
 30
0.0
 40
4.2333333333
 41
0.0
 71
     1
 72
     1
  1
131090
  7
SLDTEXTSTYLE0
 73
     1
 44
1.0
  0
INSERT
  5
185
330
1F
100
AcDbEntity
  8
0
  6
Continuous
 62
     7
370
     0
100
AcDbBlockReference
  2
_OPEN30
 10
94.1683589259
 20
187.3284745681
 30
0.0
 41
3.0
 42
3.0
 43
3.0
 50
-40.8553208492
  0
INSERT
  5
186
330
1F
100
AcDbEntity
  8
0
  6
Continuous
 62
     7
370
     0
100
AcDbBlockReference
  2
_OPEN30
 10
92.1683589259
 20
145.3284745681
 30
0.0
 41
3.0
 42
3.0
 43
3.0
 50
55.0863696527
  0
INSERT
  5
187
330
1F
100
AcDbEntity
  8
0
  6
Continuous
 62
     7
370
     0
100
AcDbBlockReference
  2
SW_CENTERMARK0
 10
0.0
 20
0.0
 30
0.0
  0
INSERT
  5
188
330
1F
100
AcDbEntity
  8
0
  6
Continuous
 62
     7
370
     0
100
AcDbBlockReference
  2
SW_CENTERMARK1
 10
0.0
 20
0.0
 30
0.0
  0
INSERT
  5
189
330
1F
100
AcDbEntity
  8
0
  6
Continuous
 62
     7
370
     0
100
AcDbBlockReference
  2
SW_CENTERMARK2
 10
0.0
 20
0.0
 30
0.0
  0
ENDSEC
  0
SECTION
  2
OBJECTS
  0
DICTIONARY
  5
C
330
0
100
AcDbDictionary
281
     1
  3
ACAD_GROUP
350
D
  3
ACAD_LAYOUT
350
1A
  3
ACAD_MLINESTYLE
350
17
  3
ACAD_PLOTSETTINGS
350
19
  3
ACAD_PLOTSTYLENAME
350
E
  0
DICTIONARY
  5
D
102
{ACAD_REACTORS
330
C
102
}
330
C
100
AcDbDictionary
281
     1
  0
DICTIONARY
  5
1A
102
{ACAD_REACTORS
330
C
102
}
330
C
100
AcDbDictionary
281
     1
  3
Layout1
350
1E
  3
Layout2
350
26
  3
Model
350
22
  0
DICTIONARY
  5
17
102
{ACAD_REACTORS
330
C
102
}
330
C
100
AcDbDictionary
281
     1
  3
Standard
350
18
  0
DICTIONARY
  5
19
102
{ACAD_REACTORS
330
C
102
}
330
C
100
AcDbDictionary
281
     1
  0
ACDBDICTIONARYWDFLT
  5
E
102
{ACAD_REACTORS
330
C
102
}
330
C
100
AcDbDictionary
281
     1
  3
Normal
350
F
100
AcDbDictionaryWithDefault
340
F
  0
LAYOUT
  5
1E
102
{ACAD_REACTORS
330
1A
102
}
330
1A
100
AcDbPlotSettings
  1

  2

  4

  6

 40
0.0
 41
0.0
 42
0.0
 43
0.0
 44
0.0
 45
0.0
 46
0.0
 47
0.0
 48
0.0
 49
0.0
140
0.0
141
0.0
142
1.0
143
1.0
 70
   688
 72
     0
 73
     0
 74
     5
  7

 75
    16
147
1.0
148
0.0
149
0.0
100
AcDbLayout
  1
Layout1
 70
     1
 71
     1
 10
0.0
 20
0.0
 11
0.0
 21
0.0
 12
0.0
 22
0.0
 32
0.0
 14
0.0
 24
0.0
 34
0.0
 15
0.0
 25
0.0
 35
0.0
146
0.0
 13
0.0
 23
0.0
 33
0.0
 16
1.0
 26
0.0
 36
0.0
 17
0.0
 27
1.0
 37
0.0
 76
     0
330
1B
  0
LAYOUT
  5
26
102
{ACAD_REACTORS
330
1A
102
}
330
1A
100
AcDbPlotSettings
  1

  2

  4

  6

 40
0.0
 41
0.0
 42
0.0
 43
0.0
 44
0.0
 45
0.0
 46
0.0
 47
0.0
 48
0.0
 49
0.0
140
0.0
141
0.0
142
1.0
143
1.0
 70
   688
 72
     0
 73
     0
 74
     5
  7

 75
    16
147
1.0
148
0.0
149
0.0
100
AcDbLayout
  1
Layout2
 70
     1
 71
     2
 10
0.0
 20
0.0
 11
0.0
 21
0.0
 12
0.0
 22
0.0
 32
0.0
 14
0.0
 24
0.0
 34
0.0
 15
0.0
 25
0.0
 35
0.0
146
0.0
 13
0.0
 23
0.0
 33
0.0
 16
1.0
 26
0.0
 36
0.0
 17
0.0
 27
1.0
 37
0.0
 76
     0
330
23
  0
LAYOUT
  5
22
102
{ACAD_REACTORS
330
1A
102
}
330
1A
100
AcDbPlotSettings
  1

  2

  4

  6

 40
0.0
 41
0.0
 42
0.0
 43
0.0
 44
0.0
 45
0.0
 46
0.0
 47
0.0
 48
0.0
 49
0.0
140
0.0
141
0.0
142
1.0
143
1.0
 70
  1712
 72
     0
 73
     0
 74
     0
  7

 75
     0
147
1.0
148
0.0
149
0.0
100
AcDbLayout
  1
Model
 70
     1
 71
     0
 10
0.0
 20
0.0
 11
0.0
 21
0.0
 12
0.0
 22
0.0
 32
0.0
 14
0.0
 24
0.0
 34
0.0
 15
210.0
 25
297.0
 35
0.0
146
0.0
 13
0.0
 23
0.0
 33
0.0
 16
1.0
 26
0.0
 36
0.0
 17
0.0
 27
1.0
 37
0.0
 76
     0
330
1F
  0
MLINESTYLE
  5
18
102
{ACAD_REACTORS
330
17
102
}
330
17
100
AcDbMlineStyle
  2
Standard
 70
     0
  3

 62
   256
 51
90.0
 52
90.0
 71
     2
 49
0.5
 62
   256
  6
BYLAYER
 49
-0.5
 62
   256
  6
BYLAYER
  0
ACDBPLACEHOLDER
  5
F
102
{ACAD_REACTORS
330
E
102
}
330
E
  0
ENDSEC
  0
EOF
