  0
SECTION
  2
HEADER
  9
$ACADVER
  1
AC1015
  9
$ACADMAINTVER
 70
     6
  9
$DWGCODEPAGE
  3
DOS932
  9
$INSBASE
 10
0.0
 20
0.0
 30
0.0
  9
$EXTMIN
 10
0.0
 20
0.0
 30
0.0
  9
$EXTMAX
 10
210.0
 20
297.0
 30
0.0
  9
$LIMMIN
 10
0.0
 20
0.0
  9
$LIMMAX
 10
0.0
 20
0.0
  9
$ORTHOMODE
 70
     0
  9
$REGENMODE
 70
     1
  9
$FILLMODE
 70
     1
  9
$QTEXTMODE
 70
     0
  9
$MIRRTEXT
 70
     1
  9
$LTSCALE
 40
1.0
  9
$ATTMODE
 70
     1
  9
$TEXTSIZE
 40
3.5
  9
$TRACEWID
 40
1.0
  9
$TEXTSTYLE
  7
Standard
  9
$CLAYER
  8
0
  9
$CELTYPE
  6
ByLayer
  9
$CECOLOR
 62
   256
  9
$CELTSCALE
 40
1.0
  9
$DISPSILH
 70
     0
  9
$DIMSCALE
 40
1.0
  9
$DIMASZ
 40
3.0
  9
$DIMEXO
 40
1.0
  9
$DIMDLI
 40
3.75
  9
$DIMRND
 40
0.0
  9
$DIMDLE
 40
0.0
  9
$DIMEXE
 40
1.0
  9
$DIMTP
 40
0.0
  9
$DIMTM
 40
0.0
  9
$DIMTXT
 40
3.5
  9
$DIMCEN
 40
2.5
  9
$DIMTSZ
 40
0.0
  9
$DIMTOL
 70
     0
  9
$DIMLIM
 70
     0
  9
$DIMTIH
 70
     1
  9
$DIMTOH
 70
     1
  9
$DIMSE1
 70
     0
  9
$DIMSE2
 70
     0
  9
$DIMTAD
 70
     1
  9
$DIMZIN
 70
     1
  9
$DIMBLK
  1

  9
$DIMASO
 70
     1
  9
$DIMSHO
 70
     1
  9
$DIMPOST
  1

  9
$DIMAPOST
  1

  9
$DIMALT
 70
     0
  9
$DIMALTD
 70
     3
  9
$DIMALTF
 40
0.0393700787
  9
$DIMLFAC
 40
1.0
  9
$DIMTOFL
 70
     1
  9
$DIMTVP
 40
0.0
  9
$DIMTIX
 70
     0
  9
$DIMSOXD
 70
     0
  9
$DIMSAH
 70
     0
  9
$DIMBLK1
  1

  9
$DIMBLK2
  1

  9
$DIMSTYLE
  2
ISO-25
  9
$DIMCLRD
 70
     0
  9
$DIMCLRE
 70
     0
  9
$DIMCLRT
 70
     0
  9
$DIMTFAC
 40
1.0
  9
$DIMGAP
 40
1.524
  9
$DIMJUST
 70
     0
  9
$DIMSD1
 70
     0
  9
$DIMSD2
 70
     0
  9
$DIMTOLJ
 70
     0
  9
$DIMTZIN
 70
     1
  9
$DIMALTZ
 70
     0
  9
$DIMALTTZ
 70
     0
  9
$DIMUPT
 70
     0
  9
$DIMDEC
 70
     2
  9
$DIMTDEC
 70
     2
  9
$DIMALTU
 70
     2
  9
$DIMALTTD
 70
     3
  9
$DIMTXSTY
  7
Standard
  9
$DIMAUNIT
 70
     0
  9
$DIMADEC
 70
     0
  9
$DIMALTRND
 40
0.0
  9
$DIMAZIN
 70
     0
  9
$DIMDSEP
 70
    44
  9
$DIMATFIT
 70
     3
  9
$DIMFRAC
 70
     0
  9
$DIMLDRBLK
  1

  9
$DIMLUNIT
 70
     2
  9
$DIMLWD
 70
    -2
  9
$DIMLWE
 70
    -2
  9
$DIMTMOVE
 70
     0
  9
$LUNITS
 70
     2
  9
$LUPREC
 70
     1
  9
$SKETCHINC
 40
1.0
  9
$FILLETRAD
 40
10.0
  9
$AUNITS
 70
     0
  9
$AUPREC
 70
     0
  9
$MENU
  1
.
  9
$ELEVATION
 40
0.0
  9
$PELEVATION
 40
0.0
  9
$THICKNESS
 40
0.0
  9
$LIMCHECK
 70
     0
  9
$CHAMFERA
 40
10.0
  9
$CHAMFERB
 40
10.0
  9
$CHAMFERC
 40
20.0
  9
$CHAMFERD
 40
0.0
  9
$SKPOLY
 70
     0
  9
$TDCREATE
 40
2454322.482164711
  9
$TDUCREATE
 40
2454322.107164711
  9
$TDUPDATE
 40
2454322.482164722
  9
$TDUUPDATE
 40
2454322.107164722
  9
$TDINDWG
 40
0.0000000116
  9
$TDUSRTIMER
 40
0.0000000116
  9
$USRTIMER
 70
     1
  9
$ANGBASE
 50
0.0
  9
$ANGDIR
 70
     0
  9
$PDMODE
 70
     0
  9
$PDSIZE
 40
-1.0
  9
$PLINEWID
 40
0.0
  9
$SPLFRAME
 70
     0
  9
$SPLINETYPE
 70
     6
  9
$SPLINESEGS
 70
     8
  9
$HANDSEED
  5
203
  9
$SURFTAB1
 70
     6
  9
$SURFTAB2
 70
     6
  9
$SURFTYPE
 70
     6
  9
$SURFU
 70
     6
  9
$SURFV
 70
     6
  9
$UCSBASE
  2

  9
$UCSNAME
  2

  9
$UCSORG
 10
0.0
 20
0.0
 30
0.0
  9
$UCSXDIR
 10
1.0
 20
0.0
 30
0.0
  9
$UCSYDIR
 10
0.0
 20
1.0
 30
0.0
  9
$UCSORTHOREF
  2

  9
$UCSORTHOVIEW
 70
     0
  9
$UCSORGTOP
 10
0.0
 20
0.0
 30
0.0
  9
$UCSORGBOTTOM
 10
0.0
 20
0.0
 30
0.0
  9
$UCSORGLEFT
 10
0.0
 20
0.0
 30
0.0
  9
$UCSORGRIGHT
 10
0.0
 20
0.0
 30
0.0
  9
$UCSORGFRONT
 10
0.0
 20
0.0
 30
0.0
  9
$UCSORGBACK
 10
0.0
 20
0.0
 30
0.0
  9
$PUCSBASE
  2

  9
$PUCSNAME
  2

  9
$PUCSORG
 10
0.0
 20
0.0
 30
0.0
  9
$PUCSXDIR
 10
1.0
 20
0.0
 30
0.0
  9
$PUCSYDIR
 10
0.0
 20
1.0
 30
0.0
  9
$PUCSORTHOREF
  2

  9
$PUCSORTHOVIEW
 70
     0
  9
$PUCSORGTOP
 10
0.0
 20
0.0
 30
0.0
  9
$PUCSORGBOTTOM
 10
0.0
 20
0.0
 30
0.0
  9
$PUCSORGLEFT
 10
0.0
 20
0.0
 30
0.0
  9
$PUCSORGRIGHT
 10
0.0
 20
0.0
 30
0.0
  9
$PUCSORGFRONT
 10
0.0
 20
0.0
 30
0.0
  9
$PUCSORGBACK
 10
0.0
 20
0.0
 30
0.0
  9
$USERI1
 70
     0
  9
$USERI2
 70
     0
  9
$USERI3
 70
     0
  9
$USERI4
 70
     0
  9
$USERI5
 70
     0
  9
$USERR1
 40
0.0
  9
$USERR2
 40
0.0
  9
$USERR3
 40
0.0
  9
$USERR4
 40
0.0
  9
$USERR5
 40
0.0
  9
$WORLDVIEW
 70
     1
  9
$SHADEDGE
 70
     3
  9
$SHADEDIF
 70
    70
  9
$TILEMODE
 70
     1
  9
$MAXACTVP
 70
    64
  9
$PINSBASE
 10
0.0
 20
0.0
 30
0.0
  9
$PLIMCHECK
 70
     0
  9
$PEXTMIN
 10
1.0000000000E+20
 20
1.0000000000E+20
 30
1.0000000000E+20
  9
$PEXTMAX
 10
-1.0000000000E+20
 20
-1.0000000000E+20
 30
-1.0000000000E+20
  9
$PLIMMIN
 10
0.0
 20
0.0
  9
$PLIMMAX
 10
420.0
 20
297.0
  9
$UNITMODE
 70
     0
  9
$VISRETAIN
 70
     1
  9
$PLINEGEN
 70
     0
  9
$PSLTSCALE
 70
     1
  9
$TREEDEPTH
 70
  3020
  9
$CMLSTYLE
  2
Standard
  9
$CMLJUST
 70
     0
  9
$CMLSCALE
 40
20.0
  9
$PROXYGRAPHICS
 70
     1
  9
$MEASUREMENT
 70
     1
  9
$CELWEIGHT
370
    -1
  9
$ENDCAPS
280
     0
  9
$JOINSTYLE
280
     0
  9
$LWDISPLAY
290
     1
  9
$INSUNITS
 70
     4
  9
$HYPERLINKBASE
  1

  9
$STYLESHEET
  1

  9
$XEDIT
290
     1
  9
$CEPSNTYPE
380
     0
  9
$PSTYLEMODE
290
     1
  9
$FINGERPRINTGUID
  2
{4DDE0B2E-397C-4EC4-A6A4-4CAFE2946FAC}
  9
$VERSIONGUID
  2
{FAEB1C32-E019-11D5-929B-00C0DF256EC4}
  9
$EXTNAMES
290
     1
  9
$PSVPSCALE
 40
0.0
  9
$OLESTARTUP
290
     0
  0
ENDSEC
  0
SECTION
  2
CLASSES
  0
CLASS
  1
ACDBDICTIONARYWDFLT
  2
AcDbDictionaryWithDefault
  3
ObjectDBX Classes
 90
        0
280
     0
281
     0
  0
CLASS
  1
ACDBPLACEHOLDER
  2
AcDbPlaceHolder
  3
ObjectDBX Classes
 90
        0
280
     0
281
     0
  0
CLASS
  1
LAYOUT
  2
AcDbLayout
  3
ObjectDBX Classes
 90
        0
280
     0
281
     0
  0
ENDSEC
  0
SECTION
  2
TABLES
  0
TABLE
  2
VPORT
  5
8
330
0
100
AcDbSymbolTable
 70
     1
  0
VPORT
  5
29
330
8
100
AcDbSymbolTableRecord
100
AcDbViewportTableRecord
  2
*Active
 70
     0
 10
0.0
 20
0.0
 11
1.0
 21
1.0
 12
105.0
 22
148.5
 13
0.0
 23
0.0
 14
10.0
 24
10.0
 15
10.0
 25
10.0
 16
0.0
 26
0.0
 36
1.0
 17
0.0
 27
0.0
 37
0.0
 40
297.0
 41
1.9729729729
 42
50.0
 43
0.0
 44
0.0
 50
0.0
 51
0.0
 71
     0
 72
  2000
 73
     1
 74
     3
 75
     0
 76
     0
 77
     0
 78
     0
281
     0
 65
     1
110
0.0
120
0.0
130
0.0
111
1.0
121
0.0
131
0.0
112
0.0
122
1.0
132
0.0
 79
     0
146
0.0
  0
ENDTAB
  0
TABLE
  2
LTYPE
  5
5
330
0
100
AcDbSymbolTable
 70
     6
  0
LTYPE
  5
14
330
5
100
AcDbSymbolTableRecord
100
AcDbLinetypeTableRecord
  2
ByBlock
 70
     0
  3

 72
    65
 73
     0
 40
0.0
  0
LTYPE
  5
15
330
5
100
AcDbSymbolTableRecord
100
AcDbLinetypeTableRecord
  2
ByLayer
 70
     0
  3

 72
    65
 73
     0
 40
0.0
  0
LTYPE
  5
16
330
5
100
AcDbSymbolTableRecord
100
AcDbLinetypeTableRecord
  2
Continuous
 70
     0
  3
Solid line
 72
    65
 73
     0
 40
0.0
  0
LTYPE
  5
2A
330
5
100
AcDbSymbolTableRecord
100
AcDbLinetypeTableRecord
  2
HIDDEN
 70
     0
  3
Hidden __ __ __ __ __ __ __ __ __ __ __ __ __ __
 72
    65
 73
     2
 40
1.905
 49
1.27
 74
     0
 49
-0.635
 74
     0
  0
LTYPE
  5
2B
330
5
100
AcDbSymbolTableRecord
100
AcDbLinetypeTableRecord
  2
PHANTOM
 70
     0
  3
Phantom ______  __  __  ______  __  __  ______
 72
    65
 73
     6
 40
12.7
 49
6.35
 74
     0
 49
-1.27
 74
     0
 49
1.27
 74
     0
 49
-1.27
 74
     0
 49
1.27
 74
     0
 49
-1.27
 74
     0
  0
LTYPE
  5
2C
330
5
100
AcDbSymbolTableRecord
100
AcDbLinetypeTableRecord
  2
CENTER
 70
     0
  3
Center ____ _ ____ _ ____ _ ____ _ ____ _ ____
 72
    65
 73
     4
 40
10.16
 49
6.35
 74
     0
 49
-1.27
 74
     0
 49
1.27
 74
     0
 49
-1.27
 74
     0
  0
LTYPE
  5
2D
330
5
100
AcDbSymbolTableRecord
100
AcDbLinetypeTableRecord
  2
CENTERX2
 70
     0
  3
Center (2x) ________  __  ________  __  _____
 72
    65
 73
     4
 40
20.32
 49
12.7
 74
     0
 49
-2.54
 74
     0
 49
2.54
 74
     0
 49
-2.54
 74
     0
  0
LTYPE
  5
2E
330
5
100
AcDbSymbolTableRecord
100
AcDbLinetypeTableRecord
  2
DOT2
 70
     0
  3
Dot (.5x) ........................................
 72
    65
 73
     2
 40
0.635
 49
0.0
 74
     0
 49
-0.635
 74
     0
  0
ENDTAB
  0
TABLE
  2
LAYER
  5
2
330
0
100
AcDbSymbolTable
 70
     4
  0
LAYER
  5
10
330
2
100
AcDbSymbolTableRecord
100
AcDbLayerTableRecord
  2
0
 70
     0
 62
     7
  6
Continuous
370
    -3
390
F
  0
LAYER
  5
2F
330
2
100
AcDbSymbolTableRecord
100
AcDbLayerTableRecord
  2
SLD-0
 70
     0
 62
   179
  6
Continuous
370
     0
390
F
  0
LAYER
  5
30
330
2
100
AcDbSymbolTableRecord
100
AcDbLayerTableRecord
  2
SLD-DEFPOINTS
 70
     0
 62
   179
  6
Continuous
370
     0
390
F
  0
LAYER
  5
E5
330
2
100
AcDbSymbolTableRecord
100
AcDbLayerTableRecord
  2
Defpoints
 70
     0
 62
     7
  6
Continuous
290
     0
370
    -3
390
F
  0
ENDTAB
  0
TABLE
  2
STYLE
  5
3
330
0
100
AcDbSymbolTable
 70
     4
  0
STYLE
  5
11
330
3
100
AcDbSymbolTableRecord
100
AcDbTextStyleTableRecord
  2
Standard
 70
     0
 40
0.0
 41
1.0
 50
0.0
 71
     0
 42
2.5
  3
txt
  4
bigfont
  0
STYLE
  5
34
330
3
100
AcDbSymbolTableRecord
100
AcDbTextStyleTableRecord
  2
SLDTEXTSTYLE0
 70
     0
 40
0.0
 41
0.7
 50
0.0
 71
     0
 42
0.2
  3
TXT
  4
bigfont
  0
STYLE
  5
F2
330
3
100
AcDbSymbolTableRecord
100
AcDbTextStyleTableRecord
  2
SLDTEXTSTYLE1
 70
     0
 40
0.0
 41
0.5526315789
 50
0.0
 71
     0
 42
0.2
  3
TXT
  4
bigfont
  0
STYLE
  5
1F7
330
3
100
AcDbSymbolTableRecord
100
AcDbTextStyleTableRecord
  2
SLDTEXTSTYLE2
 70
     0
 40
0.0
 41
0.510667521
 50
0.0
 71
     0
 42
0.2
  3
TXT
  4
bigfont
  0
ENDTAB
  0
TABLE
  2
VIEW
  5
6
330
0
100
AcDbSymbolTable
 70
     0
  0
ENDTAB
  0
TABLE
  2
UCS
  5
7
330
0
100
AcDbSymbolTable
 70
     0
  0
ENDTAB
  0
TABLE
  2
APPID
  5
9
330
0
100
AcDbSymbolTable
 70
     1
  0
APPID
  5
12
330
9
100
AcDbSymbolTableRecord
100
AcDbRegAppTableRecord
  2
ACAD
 70
     0
  0
ENDTAB
  0
TABLE
  2
DIMSTYLE
  5
A
330
0
100
AcDbSymbolTable
 70
     4
100
AcDbDimStyleTable
  0
DIMSTYLE
105
27
330
A
100
AcDbSymbolTableRecord
100
AcDbDimStyleTableRecord
  2
ISO-25
 70
     0
 41
2.5
 42
0.625
 43
3.75
 44
1.25
 73
     0
 74
     0
 77
     1
 78
     8
140
2.5
141
2.5
143
0.0393700787
147
0.625
171
     3
172
     1
271
     2
272
     2
274
     3
278
    44
283
     0
284
     8
340
11
  0
DIMSTYLE
105
F3
102
{ACAD_REACTORS
330
E4
330
101
330
118
330
14E
330
166
330
17D
330
1AA
102
}
330
A
100
AcDbSymbolTableRecord
100
AcDbDimStyleTableRecord
  2
SLDDIMSTYLE0
 70
     0
 41
3.0
 44
0.0
 73
     0
 74
     0
 77
     3
 78
    12
140
3.5
147
0.875
173
     1
271
     0
272
     3
284
    12
340
F2
341
F4
343
F4
344
F4
  0
DIMSTYLE
105
141
102
{ACAD_REACTORS
330
133
330
1C2
330
1DC
102
}
330
A
100
AcDbSymbolTableRecord
100
AcDbDimStyleTableRecord
  2
SLDDIMSTYLE1
 70
     0
 41
3.0
 44
0.0
 73
     0
 74
     0
 77
     3
 78
    12
140
3.5
147
0.875
173
     1
271
     1
272
     3
284
    12
340
F2
341
F4
343
F4
344
F4
  0
DIMSTYLE
105
19E
102
{ACAD_REACTORS
330
194
102
}
330
A
100
AcDbSymbolTableRecord
100
AcDbDimStyleTableRecord
  2
SLDDIMSTYLE2
 70
     0
 41
3.0
 44
0.0
 78
    12
140
3.5
147
0.875
172
     1
173
     1
271
     1
272
     3
284
    12
340
F2
341
F4
343
F4
344
F4
  0
ENDTAB
  0
TABLE
  2
BLOCK_RECORD
  5
1
330
0
100
AcDbSymbolTable
 70
    19
  0
BLOCK_RECORD
  5
1F
330
1
100
AcDbSymbolTableRecord
100
AcDbBlockTableRecord
  2
*Model_Space
340
22
  0
BLOCK_RECORD
  5
1B
330
1
100
AcDbSymbolTableRecord
100
AcDbBlockTableRecord
  2
*Paper_Space
340
1E
  0
BLOCK_RECORD
  5
23
330
1
100
AcDbSymbolTableRecord
100
AcDbBlockTableRecord
  2
*Paper_Space0
340
26
  0
BLOCK_RECORD
  5
31
330
1
100
AcDbSymbolTableRecord
100
AcDbBlockTableRecord
  2
注記
340
0
  0
BLOCK_RECORD
  5
37
330
1
100
AcDbSymbolTableRecord
100
AcDbBlockTableRecord
  2
_OPEN30
340
0
102
{BLKREFS
331
1FE
102
}
  0
BLOCK_RECORD
  5
3D
330
1
100
AcDbSymbolTableRecord
100
AcDbBlockTableRecord
  2
SW_CENTERMARK0
340
0
102
{BLKREFS
331
1FF
102
}
  0
BLOCK_RECORD
  5
48
330
1
100
AcDbSymbolTableRecord
100
AcDbBlockTableRecord
  2
SW_CENTERMARK1
340
0
102
{BLKREFS
331
200
102
}
  0
BLOCK_RECORD
  5
53
330
1
100
AcDbSymbolTableRecord
100
AcDbBlockTableRecord
  2
SW_CENTERMARK2
340
0
102
{BLKREFS
331
201
102
}
  0
BLOCK_RECORD
  5
5E
330
1
100
AcDbSymbolTableRecord
100
AcDbBlockTableRecord
  2
SW_CENTERMARK3
340
0
102
{BLKREFS
331
202
102
}
  0
BLOCK_RECORD
  5
E6
330
1
100
AcDbSymbolTableRecord
100
AcDbBlockTableRecord
  2
*D7
340
0
  0
BLOCK_RECORD
  5
F4
330
1
100
AcDbSymbolTableRecord
100
AcDbBlockTableRecord
  2
_None
340
0
102
{BLKREFS
331
EB
331
EA
331
107
331
106
331
11F
331
11E
331
139
331
138
331
154
331
153
331
16C
331
16B
331
183
331
182
331
199
331
1B0
331
1AF
331
1C8
331
1C7
331
1E2
331
1E1
102
}
  0
BLOCK_RECORD
  5
102
330
1
100
AcDbSymbolTableRecord
100
AcDbBlockTableRecord
  2
*D9
340
0
  0
BLOCK_RECORD
  5
119
330
1
100
AcDbSymbolTableRecord
100
AcDbBlockTableRecord
  2
*D10
340
0
  0
BLOCK_RECORD
  5
134
330
1
100
AcDbSymbolTableRecord
100
AcDbBlockTableRecord
  2
*D11
340
0
  0
BLOCK_RECORD
  5
14F
330
1
100
AcDbSymbolTableRecord
100
AcDbBlockTableRecord
  2
*D12
340
0
  0
BLOCK_RECORD
  5
167
330
1
100
AcDbSymbolTableRecord
100
AcDbBlockTableRecord
  2
*D13
340
0
  0
BLOCK_RECORD
  5
17E
330
1
100
AcDbSymbolTableRecord
100
AcDbBlockTableRecord
  2
*D14
340
0
  0
BLOCK_RECORD
  5
195
330
1
100
AcDbSymbolTableRecord
100
AcDbBlockTableRecord
  2
*D15
340
0
  0
BLOCK_RECORD
  5
1AB
330
1
100
AcDbSymbolTableRecord
100
AcDbBlockTableRecord
  2
*D16
340
0
  0
BLOCK_RECORD
  5
1C3
330
1
100
AcDbSymbolTableRecord
100
AcDbBlockTableRecord
  2
*D17
340
0
  0
BLOCK_RECORD
  5
1DD
330
1
100
AcDbSymbolTableRecord
100
AcDbBlockTableRecord
  2
*D18
340
0
  0
ENDTAB
  0
ENDSEC
  0
SECTION
  2
BLOCKS
  0
BLOCK
  5
20
330
1F
100
AcDbEntity
  8
0
100
AcDbBlockBegin
  2
*Model_Space
 70
     0
 71
     0
 10
0.0
 20
0.0
 30
0.0
  3
*Model_Space
  1

  0
ENDBLK
  5
21
330
1F
100
AcDbEntity
  8
0
100
AcDbBlockEnd
  0
BLOCK
  5
1C
330
1B
100
AcDbEntity
 67
     1
  8
0
100
AcDbBlockBegin
  2
*Paper_Space
 70
     0
 71
     0
 10
0.0
 20
0.0
 30
0.0
  3
*Paper_Space
  1

  0
ENDBLK
  5
1D
330
1B
100
AcDbEntity
 67
     1
  8
0
100
AcDbBlockEnd
  0
BLOCK
  5
24
330
23
100
AcDbEntity
  8
0
100
AcDbBlockBegin
  2
*Paper_Space0
 70
     0
 71
     0
 10
0.0
 20
0.0
 30
0.0
  3
*Paper_Space0
  1

  0
ENDBLK
  5
25
330
23
100
AcDbEntity
  8
0
100
AcDbBlockEnd
  0
BLOCK
  5
32
330
31
100
AcDbEntity
  8
0
100
AcDbBlockBegin
  2
注記
 70
     0
 71
     0
 10
0.0
 20
0.0
 30
0.0
  3
注記
  1

  0
MTEXT
  5
35
330
31
100
AcDbEntity
  8
0
  6
Continuous
 62
     7
370
     0
100
AcDbMText
 10
0.2636785918
 20
9.0739778448
 30
0.0
 40
3.5
 41
0.0
 71
     1
 72
     1
  1
１．特記ナキ角部ハ、バリ　カエリノ無キコト。
  7
SLDTEXTSTYLE0
 73
     1
 44
1.0
  0
MTEXT
  5
36
330
31
100
AcDbEntity
  8
0
  6
Continuous
 62
     7
370
     0
100
AcDbMText
 10
0.2636785918
 20
3.5759549983
 30
0.0
 40
3.5
 41
0.0
 71
     1
 72
     1
  1
２．特記ナキ隅部ハ、Ｒ０．４ＭＡＸトスル。
  7
SLDTEXTSTYLE0
 73
     1
 44
1.0
  0
ENDBLK
  5
33
330
31
100
AcDbEntity
  8
0
100
AcDbBlockEnd
  0
BLOCK
  5
38
330
37
100
AcDbEntity
  8
0
100
AcDbBlockBegin
  2
_OPEN30
 70
     0
 71
     0
 10
0.0
 20
0.0
 30
0.0
  3
_OPEN30
  1

  0
LINE
  5
3A
330
37
100
AcDbEntity
  8
SLD-0
  6
Continuous
100
AcDbLine
 10
-1.0
 20
0.267949
 30
0.0
 11
0.0
 21
0.0
 31
0.0
  0
LINE
  5
3B
330
37
100
AcDbEntity
  8
SLD-0
  6
Continuous
100
AcDbLine
 10
0.0
 20
0.0
 30
0.0
 11
-1.0
 21
-0.267949
 31
0.0
  0
LINE
  5
3C
330
37
100
AcDbEntity
  8
SLD-0
  6
Continuous
100
AcDbLine
 10
0.0
 20
0.0
 30
0.0
 11
-1.0
 21
0.0
 31
0.0
  0
ENDBLK
  5
39
330
37
100
AcDbEntity
  8
0
100
AcDbBlockEnd
  0
BLOCK
  5
3E
330
3D
100
AcDbEntity
  8
0
100
AcDbBlockBegin
  2
SW_CENTERMARK0
 70
     0
 71
     0
 10
0.0
 20
0.0
 30
0.0
  3
SW_CENTERMARK0
  1

  0
LINE
  5
40
330
3D
100
AcDbEntity
  8
SLD-0
  6
Continuous
 62
   179
100
AcDbLine
 10
66.3273796218
 20
125.7640077308
 30
0.0
 11
66.3273796218
 21
128.2640077308
 31
0.0
  0
LINE
  5
41
330
3D
100
AcDbEntity
  8
SLD-0
  6
Continuous
 62
   179
100
AcDbLine
 10
66.3273796218
 20
125.7640077308
 30
0.0
 11
63.8273796218
 21
125.7640077308
 31
0.0
  0
LINE
  5
42
330
3D
100
AcDbEntity
  8
SLD-0
  6
Continuous
 62
   179
100
AcDbLine
 10
66.3273796218
 20
125.7640077308
 30
0.0
 11
66.3273796218
 21
123.2640077308
 31
0.0
  0
LINE
  5
43
330
3D
100
AcDbEntity
  8
SLD-0
  6
Continuous
 62
   179
100
AcDbLine
 10
66.3273796218
 20
125.7640077308
 30
0.0
 11
68.8273796218
 21
125.7640077308
 31
0.0
  0
LINE
  5
44
330
3D
100
AcDbEntity
  8
SLD-0
  6
Continuous
 62
   179
100
AcDbLine
 10
66.3273796218
 20
130.7640077308
 30
0.0
 11
66.3273796218
 21
138.2640077308
 31
0.0
  0
LINE
  5
45
330
3D
100
AcDbEntity
  8
SLD-0
  6
Continuous
 62
   179
100
AcDbLine
 10
61.3273796218
 20
125.7640077308
 30
0.0
 11
53.8273796218
 21
125.7640077308
 31
0.0
  0
LINE
  5
46
330
3D
100
AcDbEntity
  8
SLD-0
  6
Continuous
 62
   179
100
AcDbLine
 10
66.3273796218
 20
120.7640077308
 30
0.0
 11
66.3273796218
 21
113.2640077308
 31
0.0
  0
LINE
  5
47
330
3D
100
AcDbEntity
  8
SLD-0
  6
Continuous
 62
   179
100
AcDbLine
 10
71.3273796218
 20
125.7640077308
 30
0.0
 11
78.8273796218
 21
125.7640077308
 31
0.0
  0
ENDBLK
  5
3F
330
3D
100
AcDbEntity
  8
0
100
AcDbBlockEnd
  0
BLOCK
  5
49
330
48
100
AcDbEntity
  8
0
100
AcDbBlockBegin
  2
SW_CENTERMARK1
 70
     0
 71
     0
 10
0.0
 20
0.0
 30
0.0
  3
SW_CENTERMARK1
  1

  0
LINE
  5
4B
330
48
100
AcDbEntity
  8
SLD-0
  6
Continuous
 62
   179
100
AcDbLine
 10
84.3273796218
 20
125.7640077308
 30
0.0
 11
84.3273796218
 21
128.2640077308
 31
0.0
  0
LINE
  5
4C
330
48
100
AcDbEntity
  8
SLD-0
  6
Continuous
 62
   179
100
AcDbLine
 10
84.3273796218
 20
125.7640077308
 30
0.0
 11
81.8273796218
 21
125.7640077308
 31
0.0
  0
LINE
  5
4D
330
48
100
AcDbEntity
  8
SLD-0
  6
Continuous
 62
   179
100
AcDbLine
 10
84.3273796218
 20
125.7640077308
 30
0.0
 11
84.3273796218
 21
123.2640077308
 31
0.0
  0
LINE
  5
4E
330
48
100
AcDbEntity
  8
SLD-0
  6
Continuous
 62
   179
100
AcDbLine
 10
84.3273796218
 20
125.7640077308
 30
0.0
 11
86.8273796218
 21
125.7640077308
 31
0.0
  0
LINE
  5
4F
330
48
100
AcDbEntity
  8
SLD-0
  6
Continuous
 62
   179
100
AcDbLine
 10
84.3273796218
 20
130.7640077308
 30
0.0
 11
84.3273796218
 21
134.2640077308
 31
0.0
  0
LINE
  5
50
330
48
100
AcDbEntity
  8
SLD-0
  6
Continuous
 62
   179
100
AcDbLine
 10
79.3273796218
 20
125.7640077308
 30
0.0
 11
75.8273796218
 21
125.7640077308
 31
0.0
  0
LINE
  5
51
330
48
100
AcDbEntity
  8
SLD-0
  6
Continuous
 62
   179
100
AcDbLine
 10
84.3273796218
 20
120.7640077308
 30
0.0
 11
84.3273796218
 21
117.2640077308
 31
0.0
  0
LINE
  5
52
330
48
100
AcDbEntity
  8
SLD-0
  6
Continuous
 62
   179
100
AcDbLine
 10
89.3273796218
 20
125.7640077308
 30
0.0
 11
92.8273796218
 21
125.7640077308
 31
0.0
  0
ENDBLK
  5
4A
330
48
100
AcDbEntity
  8
0
100
AcDbBlockEnd
  0
BLOCK
  5
54
330
53
100
AcDbEntity
  8
0
100
AcDbBlockBegin
  2
SW_CENTERMARK2
 70
     0
 71
     0
 10
0.0
 20
0.0
 30
0.0
  3
SW_CENTERMARK2
  1

  0
LINE
  5
56
330
53
100
AcDbEntity
  8
SLD-0
  6
Continuous
 62
   179
100
AcDbLine
 10
96.8273796218
 20
198.2782062739
 30
0.0
 11
96.8273796218
 21
200.7782062739
 31
0.0
  0
LINE
  5
57
330
53
100
AcDbEntity
  8
SLD-0
  6
Continuous
 62
   179
100
AcDbLine
 10
96.8273796218
 20
198.2782062739
 30
0.0
 11
94.3273796218
 21
198.2782062739
 31
0.0
  0
LINE
  5
58
330
53
100
AcDbEntity
  8
SLD-0
  6
Continuous
 62
   179
100
AcDbLine
 10
96.8273796218
 20
198.2782062739
 30
0.0
 11
96.8273796218
 21
195.7782062739
 31
0.0
  0
LINE
  5
59
330
53
100
AcDbEntity
  8
SLD-0
  6
Continuous
 62
   179
100
AcDbLine
 10
96.8273796218
 20
198.2782062739
 30
0.0
 11
99.3273796218
 21
198.2782062739
 31
0.0
  0
LINE
  5
5A
330
53
100
AcDbEntity
  8
SLD-0
  6
Continuous
 62
   179
100
AcDbLine
 10
96.8273796218
 20
203.2782062739
 30
0.0
 11
96.8273796218
 21
206.2782062739
 31
0.0
  0
LINE
  5
5B
330
53
100
AcDbEntity
  8
SLD-0
  6
Continuous
 62
   179
100
AcDbLine
 10
91.8273796218
 20
198.2782062739
 30
0.0
 11
88.8273796218
 21
198.2782062739
 31
0.0
  0
LINE
  5
5C
330
53
100
AcDbEntity
  8
SLD-0
  6
Continuous
 62
   179
100
AcDbLine
 10
96.8273796218
 20
193.2782062739
 30
0.0
 11
96.8273796218
 21
190.2782062739
 31
0.0
  0
LINE
  5
5D
330
53
100
AcDbEntity
  8
SLD-0
  6
Continuous
 62
   179
100
AcDbLine
 10
101.8273796218
 20
198.2782062739
 30
0.0
 11
104.8273796218
 21
198.2782062739
 31
0.0
  0
ENDBLK
  5
55
330
53
100
AcDbEntity
  8
0
100
AcDbBlockEnd
  0
BLOCK
  5
5F
330
5E
100
AcDbEntity
  8
0
100
AcDbBlockBegin
  2
SW_CENTERMARK3
 70
     0
 71
     0
 10
0.0
 20
0.0
 30
0.0
  3
SW_CENTERMARK3
  1

  0
LINE
  5
61
330
5E
100
AcDbEntity
  8
SLD-0
  6
Continuous
 62
   179
100
AcDbLine
 10
51.8273796218
 20
198.2782062739
 30
0.0
 11
51.8273796218
 21
200.7782062739
 31
0.0
  0
LINE
  5
62
330
5E
100
AcDbEntity
  8
SLD-0
  6
Continuous
 62
   179
100
AcDbLine
 10
51.8273796218
 20
198.2782062739
 30
0.0
 11
49.3273796218
 21
198.2782062739
 31
0.0
  0
LINE
  5
63
330
5E
100
AcDbEntity
  8
SLD-0
  6
Continuous
 62
   179
100
AcDbLine
 10
51.8273796218
 20
198.2782062739
 30
0.0
 11
51.8273796218
 21
195.7782062739
 31
0.0
  0
LINE
  5
64
330
5E
100
AcDbEntity
  8
SLD-0
  6
Continuous
 62
   179
100
AcDbLine
 10
51.8273796218
 20
198.2782062739
 30
0.0
 11
54.3273796218
 21
198.2782062739
 31
0.0
  0
LINE
  5
65
330
5E
100
AcDbEntity
  8
SLD-0
  6
Continuous
 62
   179
100
AcDbLine
 10
51.8273796218
 20
203.2782062739
 30
0.0
 11
51.8273796218
 21
206.2782062739
 31
0.0
  0
LINE
  5
66
330
5E
100
AcDbEntity
  8
SLD-0
  6
Continuous
 62
   179
100
AcDbLine
 10
46.8273796218
 20
198.2782062739
 30
0.0
 11
43.8273796218
 21
198.2782062739
 31
0.0
  0
LINE
  5
67
330
5E
100
AcDbEntity
  8
SLD-0
  6
Continuous
 62
   179
100
AcDbLine
 10
51.8273796218
 20
193.2782062739
 30
0.0
 11
51.8273796218
 21
190.2782062739
 31
0.0
  0
LINE
  5
68
330
5E
100
AcDbEntity
  8
SLD-0
  6
Continuous
 62
   179
100
AcDbLine
 10
56.8273796218
 20
198.2782062739
 30
0.0
 11
59.8273796218
 21
198.2782062739
 31
0.0
  0
ENDBLK
  5
60
330
5E
100
AcDbEntity
  8
0
100
AcDbBlockEnd
  0
BLOCK
  5
F0
330
E6
100
AcDbEntity
  8
0
100
AcDbBlockBegin
  2
*D7
 70
     1
 71
     0
 10
0.0
 20
0.0
 30
0.0
  3
*D7
  1

  0
LINE
  5
F7
330
E6
100
AcDbEntity
  8
SLD-0
 62
     7
100
AcDbLine
 10
84.3273796218
 20
135.2640077308
 30
0.0
 11
84.3273796218
 21
148.7700811488
 31
0.0
  0
LINE
  5
F8
330
E6
100
AcDbEntity
  8
SLD-0
 62
     7
100
AcDbLine
 10
104.3273796218
 20
139.2640077308
 30
0.0
 11
104.3273796218
 21
148.7700811488
 31
0.0
  0
LINE
  5
F9
330
E6
100
AcDbEntity
  8
SLD-0
 62
     7
100
AcDbLine
 10
84.3273796218
 20
147.7700811488
 30
0.0
 11
104.3273796218
 21
147.7700811488
 31
0.0
  0
LINE
  5
FA
330
E6
100
AcDbEntity
  8
SLD-0
 62
     7
100
AcDbLine
 10
87.3273796218
 20
146.9662341488
 30
0.0
 11
84.3273796218
 21
147.7700811488
 31
0.0
  0
LINE
  5
FB
330
E6
100
AcDbEntity
  8
SLD-0
 62
     7
100
AcDbLine
 10
84.3273796218
 20
147.7700811488
 30
0.0
 11
87.3273796218
 21
148.5739281488
 31
0.0
  0
LINE
  5
FC
330
E6
100
AcDbEntity
  8
SLD-0
 62
     7
100
AcDbLine
 10
84.3273796218
 20
147.7700811488
 30
0.0
 11
87.3273796218
 21
147.7700811488
 31
0.0
  0
LINE
  5
FD
330
E6
100
AcDbEntity
  8
SLD-0
 62
     7
100
AcDbLine
 10
101.3273796218
 20
148.5739281488
 30
0.0
 11
104.3273796218
 21
147.7700811488
 31
0.0
  0
LINE
  5
FE
330
E6
100
AcDbEntity
  8
SLD-0
 62
     7
100
AcDbLine
 10
104.3273796218
 20
147.7700811488
 30
0.0
 11
101.3273796218
 21
146.9662341488
 31
0.0
  0
LINE
  5
FF
330
E6
100
AcDbEntity
  8
SLD-0
 62
     7
100
AcDbLine
 10
104.3273796218
 20
147.7700811488
 30
0.0
 11
101.3273796218
 21
147.7700811488
 31
0.0
  0
MTEXT
  5
100
330
E6
100
AcDbEntity
  8
SLD-0
 62
     7
100
AcDbMText
 10
92.2913410171
 20
152.2967748448
 30
0.1
 40
3.5
 41
0.0
 71
     1
 72
     1
  1
20
  7
SLDTEXTSTYLE0
 73
     1
 44
1.0
  0
ENDBLK
  5
F1
330
E6
100
AcDbEntity
  8
0
100
AcDbBlockEnd
  0
BLOCK
  5
F5
330
F4
100
AcDbEntity
  8
0
100
AcDbBlockBegin
  2
_None
 70
     0
 71
     0
 10
0.0
 20
0.0
 30
0.0
  3
_None
  1

  0
ENDBLK
  5
F6
330
F4
100
AcDbEntity
  8
0
100
AcDbBlockEnd
  0
BLOCK
  5
10C
330
102
100
AcDbEntity
  8
0
100
AcDbBlockBegin
  2
*D9
 70
     1
 71
     0
 10
0.0
 20
0.0
 30
0.0
  3
*D9
  1

  0
LINE
  5
10E
330
102
100
AcDbEntity
  8
SLD-0
 62
     7
100
AcDbLine
 10
84.3273796218
 20
135.2640077308
 30
0.0
 11
84.3273796218
 21
148.7700811488
 31
0.0
  0
LINE
  5
10F
330
102
100
AcDbEntity
  8
SLD-0
 62
     7
100
AcDbLine
 10
66.3273796218
 20
136.2640077308
 30
0.0
 11
66.3273796218
 21
148.7700811488
 31
0.0
  0
LINE
  5
110
330
102
100
AcDbEntity
  8
SLD-0
 62
     7
100
AcDbLine
 10
84.3273796218
 20
147.7700811488
 30
0.0
 11
66.3273796218
 21
147.7700811488
 31
0.0
  0
LINE
  5
111
330
102
100
AcDbEntity
  8
SLD-0
 62
     7
100
AcDbLine
 10
81.3273796218
 20
148.5739281488
 30
0.0
 11
84.3273796218
 21
147.7700811488
 31
0.0
  0
LINE
  5
112
330
102
100
AcDbEntity
  8
SLD-0
 62
     7
100
AcDbLine
 10
84.3273796218
 20
147.7700811488
 30
0.0
 11
81.3273796218
 21
146.9662341488
 31
0.0
  0
LINE
  5
113
330
102
100
AcDbEntity
  8
SLD-0
 62
     7
100
AcDbLine
 10
84.3273796218
 20
147.7700811488
 30
0.0
 11
81.3273796218
 21
147.7700811488
 31
0.0
  0
LINE
  5
114
330
102
100
AcDbEntity
  8
SLD-0
 62
     7
100
AcDbLine
 10
69.3273796218
 20
146.9662341488
 30
0.0
 11
66.3273796218
 21
147.7700811488
 31
0.0
  0
LINE
  5
115
330
102
100
AcDbEntity
  8
SLD-0
 62
     7
100
AcDbLine
 10
66.3273796218
 20
147.7700811488
 30
0.0
 11
69.3273796218
 21
148.5739281488
 31
0.0
  0
LINE
  5
116
330
102
100
AcDbEntity
  8
SLD-0
 62
     7
100
AcDbLine
 10
66.3273796218
 20
147.7700811488
 30
0.0
 11
69.3273796218
 21
147.7700811488
 31
0.0
  0
MTEXT
  5
117
330
102
100
AcDbEntity
  8
SLD-0
 62
     7
100
AcDbMText
 10
73.2913410171
 20
152.2967748448
 30
0.1
 40
3.5
 41
0.0
 71
     1
 72
     1
  1
18
  7
SLDTEXTSTYLE0
 73
     1
 44
1.0
  0
ENDBLK
  5
10D
330
102
100
AcDbEntity
  8
0
100
AcDbBlockEnd
  0
BLOCK
  5
125
330
119
100
AcDbEntity
  8
0
100
AcDbBlockBegin
  2
*D10
 70
     1
 71
     0
 10
0.0
 20
0.0
 30
0.0
  3
*D10
  1

  0
LINE
  5
127
330
119
100
AcDbEntity
  8
SLD-0
 62
     7
100
AcDbLine
 10
57.339887444
 20
126.2640077308
 30
0.0
 11
114.3314243134
 21
126.2640077308
 31
0.0
  0
LINE
  5
128
330
119
100
AcDbEntity
  8
SLD-0
 62
     7
100
AcDbLine
 10
57.339887444
 20
125.2640077308
 30
0.0
 11
114.3314243134
 21
125.2640077308
 31
0.0
  0
LINE
  5
129
330
119
100
AcDbEntity
  8
SLD-0
 62
     7
100
AcDbLine
 10
113.3314243134
 20
126.2640077308
 30
0.0
 11
113.3314243134
 21
131.2640077308
 31
0.0
  0
LINE
  5
12A
330
119
100
AcDbEntity
  8
SLD-0
 62
     7
100
AcDbLine
 10
113.3314243134
 20
126.2640077308
 30
0.0
 11
113.3314243134
 21
125.2640077308
 31
0.0
  0
LINE
  5
12B
330
119
100
AcDbEntity
  8
SLD-0
 62
     7
100
AcDbLine
 10
113.3314243134
 20
125.2640077308
 30
0.0
 11
113.3314243134
 21
116.0872908372
 31
0.0
  0
LINE
  5
12C
330
119
100
AcDbEntity
  8
SLD-0
 62
     7
100
AcDbLine
 10
114.1352713134
 20
129.2640077308
 30
0.0
 11
113.3314243134
 21
126.2640077308
 31
0.0
  0
LINE
  5
12D
330
119
100
AcDbEntity
  8
SLD-0
 62
     7
100
AcDbLine
 10
113.3314243134
 20
126.2640077308
 30
0.0
 11
112.5275773134
 21
129.2640077308
 31
0.0
  0
LINE
  5
12E
330
119
100
AcDbEntity
  8
SLD-0
 62
     7
100
AcDbLine
 10
113.3314243134
 20
126.2640077308
 30
0.0
 11
113.3314243134
 21
129.2640077308
 31
0.0
  0
LINE
  5
12F
330
119
100
AcDbEntity
  8
SLD-0
 62
     7
100
AcDbLine
 10
112.5275773134
 20
122.2640077308
 30
0.0
 11
113.3314243134
 21
125.2640077308
 31
0.0
  0
LINE
  5
130
330
119
100
AcDbEntity
  8
SLD-0
 62
     7
100
AcDbLine
 10
113.3314243134
 20
125.2640077308
 30
0.0
 11
114.1352713134
 21
122.2640077308
 31
0.0
  0
LINE
  5
131
330
119
100
AcDbEntity
  8
SLD-0
 62
     7
100
AcDbLine
 10
113.3314243134
 20
125.2640077308
 30
0.0
 11
113.3314243134
 21
122.2640077308
 31
0.0
  0
MTEXT
  5
132
330
119
100
AcDbEntity
  8
SLD-0
 62
     7
100
AcDbMText
 10
108.8047306175
 20
117.6747908372
 30
0.1
 40
3.5
 41
0.0
 71
     1
 72
     1
  1
1
  7
SLDTEXTSTYLE0
 11
6.123031769111886E-17
 21
1.0
 31
0.0
 73
     1
 44
1.0
  0
ENDBLK
  5
126
330
119
100
AcDbEntity
  8
0
100
AcDbBlockEnd
  0
BLOCK
  5
13F
330
134
100
AcDbEntity
  8
0
100
AcDbBlockBegin
  2
*D11
 70
     1
 71
     0
 10
0.0
 20
0.0
 30
0.0
  3
*D11
  1

  0
LINE
  5
142
330
134
100
AcDbEntity
  8
SLD-0
100
AcDbLine
 10
103.8273796218
 20
138.2640077308
 30
0.0
 11
120.3363357141
 21
138.2640077308
 31
0.0
  0
LINE
  5
143
330
134
100
AcDbEntity
  8
SLD-0
100
AcDbLine
 10
93.8273796218
 20
125.7640077308
 30
0.0
 11
120.3363357141
 21
125.7640077308
 31
0.0
  0
LINE
  5
144
330
134
100
AcDbEntity
  8
SLD-0
100
AcDbLine
 10
119.3363357141
 20
138.2640077308
 30
0.0
 11
119.3363357141
 21
143.2640077308
 31
0.0
  0
LINE
  5
145
330
134
100
AcDbEntity
  8
SLD-0
100
AcDbLine
 10
119.3363357141
 20
138.2640077308
 30
0.0
 11
119.3363357141
 21
125.7640077308
 31
0.0
  0
LINE
  5
146
330
134
100
AcDbEntity
  8
SLD-0
100
AcDbLine
 10
119.3363357141
 20
125.7640077308
 30
0.0
 11
119.3363357141
 21
120.7640077308
 31
0.0
  0
LINE
  5
147
330
134
100
AcDbEntity
  8
SLD-0
100
AcDbLine
 10
120.1401827141
 20
141.2640077308
 30
0.0
 11
119.3363357141
 21
138.2640077308
 31
0.0
  0
LINE
  5
148
330
134
100
AcDbEntity
  8
SLD-0
100
AcDbLine
 10
119.3363357141
 20
138.2640077308
 30
0.0
 11
118.5324887141
 21
141.2640077308
 31
0.0
  0
LINE
  5
149
330
134
100
AcDbEntity
  8
SLD-0
100
AcDbLine
 10
119.3363357141
 20
138.2640077308
 30
0.0
 11
119.3363357141
 21
141.2640077308
 31
0.0
  0
LINE
  5
14A
330
134
100
AcDbEntity
  8
SLD-0
100
AcDbLine
 10
118.5324887141
 20
122.7640077308
 30
0.0
 11
119.3363357141
 21
125.7640077308
 31
0.0
  0
LINE
  5
14B
330
134
100
AcDbEntity
  8
SLD-0
100
AcDbLine
 10
119.3363357141
 20
125.7640077308
 30
0.0
 11
120.1401827141
 21
122.7640077308
 31
0.0
  0
LINE
  5
14C
330
134
100
AcDbEntity
  8
SLD-0
100
AcDbLine
 10
119.3363357141
 20
125.7640077308
 30
0.0
 11
119.3363357141
 21
122.7640077308
 31
0.0
  0
MTEXT
  5
14D
330
134
100
AcDbEntity
  8
SLD-0
100
AcDbMText
 10
114.8096420182
 20
127.9419305215
 30
0.1
 40
3.5
 41
0.0
 71
     1
 72
     1
  1
12.5
  7
SLDTEXTSTYLE0
 11
6.123031769111886E-17
 21
1.0
 31
0.0
 73
     1
 44
1.0
  0
ENDBLK
  5
140
330
134
100
AcDbEntity
  8
0
100
AcDbBlockEnd
  0
BLOCK
  5
15A
330
14F
100
AcDbEntity
  8
0
100
AcDbBlockBegin
  2
*D12
 70
     1
 71
     0
 10
0.0
 20
0.0
 30
0.0
  3
*D12
  1

  0
LINE
  5
15C
330
14F
100
AcDbEntity
  8
SLD-0
 62
     7
100
AcDbLine
 10
168.0057324129
 20
138.2640077308
 30
0.0
 11
182.3254304782
 21
138.2640077308
 31
0.0
  0
LINE
  5
15D
330
14F
100
AcDbEntity
  8
SLD-0
 62
     7
100
AcDbLine
 10
168.0057324129
 20
113.2640077308
 30
0.0
 11
182.3254304782
 21
113.2640077308
 31
0.0
  0
LINE
  5
15E
330
14F
100
AcDbEntity
  8
SLD-0
 62
     7
100
AcDbLine
 10
181.3254304782
 20
138.2640077308
 30
0.0
 11
181.3254304782
 21
113.2640077308
 31
0.0
  0
LINE
  5
15F
330
14F
100
AcDbEntity
  8
SLD-0
 62
     7
100
AcDbLine
 10
180.5215834782
 20
135.2640077308
 30
0.0
 11
181.3254304782
 21
138.2640077308
 31
0.0
  0
LINE
  5
160
330
14F
100
AcDbEntity
  8
SLD-0
 62
     7
100
AcDbLine
 10
181.3254304782
 20
138.2640077308
 30
0.0
 11
182.1292774782
 21
135.2640077308
 31
0.0
  0
LINE
  5
161
330
14F
100
AcDbEntity
  8
SLD-0
 62
     7
100
AcDbLine
 10
181.3254304782
 20
138.2640077308
 30
0.0
 11
181.3254304782
 21
135.2640077308
 31
0.0
  0
LINE
  5
162
330
14F
100
AcDbEntity
  8
SLD-0
 62
     7
100
AcDbLine
 10
182.1292774782
 20
116.2640077308
 30
0.0
 11
181.3254304782
 21
113.2640077308
 31
0.0
  0
LINE
  5
163
330
14F
100
AcDbEntity
  8
SLD-0
 62
     7
100
AcDbLine
 10
181.3254304782
 20
113.2640077308
 30
0.0
 11
180.5215834782
 21
116.2640077308
 31
0.0
  0
LINE
  5
164
330
14F
100
AcDbEntity
  8
SLD-0
 62
     7
100
AcDbLine
 10
181.3254304782
 20
113.2640077308
 30
0.0
 11
181.3254304782
 21
116.2640077308
 31
0.0
  0
MTEXT
  5
165
330
14F
100
AcDbEntity
  8
SLD-0
 62
     7
100
AcDbMText
 10
176.7987367822
 20
123.7279691261
 30
0.1
 40
3.5
 41
0.0
 71
     1
 72
     1
  1
25
  7
SLDTEXTSTYLE0
 11
6.123031769111886E-17
 21
1.0
 31
0.0
 73
     1
 44
1.0
  0
ENDBLK
  5
15B
330
14F
100
AcDbEntity
  8
0
100
AcDbBlockEnd
  0
BLOCK
  5
171
330
167
100
AcDbEntity
  8
0
100
AcDbBlockBegin
  2
*D13
 70
     1
 71
     0
 10
0.0
 20
0.0
 30
0.0
  3
*D13
  1

  0
LINE
  5
173
330
167
100
AcDbEntity
  8
SLD-0
 62
     7
100
AcDbLine
 10
44.3273796218
 20
211.7782062739
 30
0.0
 11
44.3273796218
 21
234.6108369078
 31
0.0
  0
LINE
  5
174
330
167
100
AcDbEntity
  8
SLD-0
 62
     7
100
AcDbLine
 10
104.3273796218
 20
211.7782062739
 30
0.0
 11
104.3273796218
 21
234.6108369078
 31
0.0
  0
LINE
  5
175
330
167
100
AcDbEntity
  8
SLD-0
 62
     7
100
AcDbLine
 10
44.3273796218
 20
233.6108369078
 30
0.0
 11
104.3273796218
 21
233.6108369078
 31
0.0
  0
LINE
  5
176
330
167
100
AcDbEntity
  8
SLD-0
 62
     7
100
AcDbLine
 10
47.3273796218
 20
232.8069899078
 30
0.0
 11
44.3273796218
 21
233.6108369078
 31
0.0
  0
LINE
  5
177
330
167
100
AcDbEntity
  8
SLD-0
 62
     7
100
AcDbLine
 10
44.3273796218
 20
233.6108369078
 30
0.0
 11
47.3273796218
 21
234.4146839078
 31
0.0
  0
LINE
  5
178
330
167
100
AcDbEntity
  8
SLD-0
 62
     7
100
AcDbLine
 10
44.3273796218
 20
233.6108369078
 30
0.0
 11
47.3273796218
 21
233.6108369078
 31
0.0
  0
LINE
  5
179
330
167
100
AcDbEntity
  8
SLD-0
 62
     7
100
AcDbLine
 10
101.3273796218
 20
234.4146839078
 30
0.0
 11
104.3273796218
 21
233.6108369078
 31
0.0
  0
LINE
  5
17A
330
167
100
AcDbEntity
  8
SLD-0
 62
     7
100
AcDbLine
 10
104.3273796218
 20
233.6108369078
 30
0.0
 11
101.3273796218
 21
232.8069899078
 31
0.0
  0
LINE
  5
17B
330
167
100
AcDbEntity
  8
SLD-0
 62
     7
100
AcDbLine
 10
104.3273796218
 20
233.6108369078
 30
0.0
 11
101.3273796218
 21
233.6108369078
 31
0.0
  0
MTEXT
  5
17C
330
167
100
AcDbEntity
  8
SLD-0
 62
     7
100
AcDbMText
 10
72.2913410171
 20
238.1375306037
 30
0.1
 40
3.5
 41
0.0
 71
     1
 72
     1
  1
60
  7
SLDTEXTSTYLE0
 73
     1
 44
1.0
  0
ENDBLK
  5
172
330
167
100
AcDbEntity
  8
0
100
AcDbBlockEnd
  0
BLOCK
  5
188
330
17E
100
AcDbEntity
  8
0
100
AcDbBlockBegin
  2
*D14
 70
     1
 71
     0
 10
0.0
 20
0.0
 30
0.0
  3
*D14
  1

  0
LINE
  5
18A
330
17E
100
AcDbEntity
  8
SLD-0
100
AcDbLine
 10
96.8273796218
 20
207.2782062739
 30
0.0
 11
96.8273796218
 21
225.9561138627
 31
0.0
  0
LINE
  5
18B
330
17E
100
AcDbEntity
  8
SLD-0
100
AcDbLine
 10
51.8273796218
 20
207.2782062739
 30
0.0
 11
51.8273796218
 21
225.9561138627
 31
0.0
  0
LINE
  5
18C
330
17E
100
AcDbEntity
  8
SLD-0
100
AcDbLine
 10
96.8273796218
 20
224.9561138627
 30
0.0
 11
51.8273796218
 21
224.9561138627
 31
0.0
  0
LINE
  5
18D
330
17E
100
AcDbEntity
  8
SLD-0
100
AcDbLine
 10
93.8273796218
 20
225.7599608627
 30
0.0
 11
96.8273796218
 21
224.9561138627
 31
0.0
  0
LINE
  5
18E
330
17E
100
AcDbEntity
  8
SLD-0
100
AcDbLine
 10
96.8273796218
 20
224.9561138627
 30
0.0
 11
93.8273796218
 21
224.1522668627
 31
0.0
  0
LINE
  5
18F
330
17E
100
AcDbEntity
  8
SLD-0
100
AcDbLine
 10
96.8273796218
 20
224.9561138627
 30
0.0
 11
93.8273796218
 21
224.9561138627
 31
0.0
  0
LINE
  5
190
330
17E
100
AcDbEntity
  8
SLD-0
100
AcDbLine
 10
54.8273796218
 20
224.1522668627
 30
0.0
 11
51.8273796218
 21
224.9561138627
 31
0.0
  0
LINE
  5
191
330
17E
100
AcDbEntity
  8
SLD-0
100
AcDbLine
 10
51.8273796218
 20
224.9561138627
 30
0.0
 11
54.8273796218
 21
225.7599608627
 31
0.0
  0
LINE
  5
192
330
17E
100
AcDbEntity
  8
SLD-0
100
AcDbLine
 10
51.8273796218
 20
224.9561138627
 30
0.0
 11
54.8273796218
 21
224.9561138627
 31
0.0
  0
MTEXT
  5
193
330
17E
100
AcDbEntity
  8
SLD-0
100
AcDbMText
 10
72.2913410171
 20
229.4828075586
 30
0.1
 40
3.5
 41
0.0
 71
     1
 72
     1
  1
45
  7
SLDTEXTSTYLE0
 73
     1
 44
1.0
  0
ENDBLK
  5
189
330
17E
100
AcDbEntity
  8
0
100
AcDbBlockEnd
  0
BLOCK
  5
19C
330
195
100
AcDbEntity
  8
0
100
AcDbBlockBegin
  2
*D15
 70
     1
 71
     0
 10
0.0
 20
0.0
 30
0.0
  3
*D15
  1

  0
LINE
  5
19F
330
195
100
AcDbEntity
  8
SLD-0
 62
     7
100
AcDbLine
 10
98.531053525
 20
201.045875913
 30
0.0
 11
111.9959924227
 21
222.920075258
 31
0.0
  0
LINE
  5
1A0
330
195
100
AcDbEntity
  8
SLD-0
 62
     7
100
AcDbLine
 10
111.9959924227
 20
222.920075258
 30
0.0
 11
161.1568152134
 21
222.920075258
 31
0.0
  0
LINE
  5
1A1
330
195
100
AcDbEntity
  8
SLD-0
 62
     7
100
AcDbLine
 10
100.7882241854
 20
203.179265378
 30
0.0
 11
98.531053525
 21
201.045875913
 31
0.0
  0
LINE
  5
1A2
330
195
100
AcDbEntity
  8
SLD-0
 62
     7
100
AcDbLine
 10
98.531053525
 20
201.045875913
 30
0.0
 11
99.4191269938
 21
204.0220303971
 31
0.0
  0
LINE
  5
1A3
330
195
100
AcDbEntity
  8
SLD-0
 62
     7
100
AcDbLine
 10
98.531053525
 20
201.045875913
 30
0.0
 11
100.1036755896
 21
203.6006478876
 31
0.0
  0
MTEXT
  5
1A4
330
195
100
AcDbEntity
  8
SLD-0
 62
     7
100
AcDbMText
 10
115.1709924227
 20
227.446768954
 30
0.1
 40
3.5
 41
0.0
 71
     1
 72
     1
  1
2-
  7
SLDTEXTSTYLE0
 73
     1
 44
1.0
  0
MTEXT
  5
1A5
330
195
100
AcDbEntity
  8
SLD-0
 62
     7
100
AcDbMText
 10
117.4946034176
 20
227.4467687212
 30
0.1
 40
3.5
 41
0.0
 71
     1
 72
     1
  1
%%c
  7
SLDTEXTSTYLE0
 73
     1
 44
1.0
  0
MTEXT
  5
1A6
330
195
100
AcDbEntity
  8
SLD-0
 62
     7
100
AcDbMText
 10
123.1143610273
 20
227.446768954
 30
0.1
 40
3.5
 41
0.0
 71
     1
 72
     1
  1
6.5
  7
SLDTEXTSTYLE0
 73
     1
 44
1.0
  0
MTEXT
  5
1A7
330
195
100
AcDbEntity
  8
SLD-0
 62
     7
100
AcDbMText
 10
129.2224768413
 20
227.446768954
 30
0.1
 40
3.5
 41
0.0
 71
     1
 72
     1
  1
,
  7
SLDTEXTSTYLE0
 73
     1
 44
1.0
  0
MTEXT
  5
1A8
330
195
100
AcDbEntity
  8
SLD-0
 62
     7
100
AcDbMText
 10
129.5092823388
 20
227.4467687212
 30
0.1
 40
3.5
 41
0.0
 71
     1
 72
     1
  1
%%c
  7
SLDTEXTSTYLE0
 73
     1
 44
1.0
  0
MTEXT
  5
1A9
330
195
100
AcDbEntity
  8
SLD-0
 62
     7
100
AcDbMText
 10
135.1292128538
 20
227.446768954
 30
0.1
 40
3.5
 41
0.0
 71
     1
 72
     1
  1
11ｻﾞｸﾞﾘ深6.5
  7
SLDTEXTSTYLE0
 73
     1
 44
1.0
  0
ENDBLK
  5
19D
330
195
100
AcDbEntity
  8
0
100
AcDbBlockEnd
  0
BLOCK
  5
1B6
330
1AB
100
AcDbEntity
  8
0
100
AcDbBlockBegin
  2
*D16
 70
     1
 71
     0
 10
0.0
 20
0.0
 30
0.0
  3
*D16
  1

  0
LINE
  5
1B8
330
1AB
100
AcDbEntity
  8
SLD-0
 62
     7
100
AcDbLine
 10
103.8273796218
 20
210.7782062739
 30
0.0
 11
130.6594354561
 21
210.7782062739
 31
0.0
  0
LINE
  5
1B9
330
1AB
100
AcDbEntity
  8
SLD-0
 62
     7
100
AcDbLine
 10
103.8273796218
 20
185.7782062739
 30
0.0
 11
130.6594354561
 21
185.7782062739
 31
0.0
  0
LINE
  5
1BA
330
1AB
100
AcDbEntity
  8
SLD-0
 62
     7
100
AcDbLine
 10
129.6594354561
 20
210.7782062739
 30
0.0
 11
129.6594354561
 21
185.7782062739
 31
0.0
  0
LINE
  5
1BB
330
1AB
100
AcDbEntity
  8
SLD-0
 62
     7
100
AcDbLine
 10
128.8555884561
 20
207.7782062739
 30
0.0
 11
129.6594354561
 21
210.7782062739
 31
0.0
  0
LINE
  5
1BC
330
1AB
100
AcDbEntity
  8
SLD-0
 62
     7
100
AcDbLine
 10
129.6594354561
 20
210.7782062739
 30
0.0
 11
130.4632824561
 21
207.7782062739
 31
0.0
  0
LINE
  5
1BD
330
1AB
100
AcDbEntity
  8
SLD-0
 62
     7
100
AcDbLine
 10
129.6594354561
 20
210.7782062739
 30
0.0
 11
129.6594354561
 21
207.7782062739
 31
0.0
  0
LINE
  5
1BE
330
1AB
100
AcDbEntity
  8
SLD-0
 62
     7
100
AcDbLine
 10
130.4632824561
 20
188.7782062739
 30
0.0
 11
129.6594354561
 21
185.7782062739
 31
0.0
  0
LINE
  5
1BF
330
1AB
100
AcDbEntity
  8
SLD-0
 62
     7
100
AcDbLine
 10
129.6594354561
 20
185.7782062739
 30
0.0
 11
128.8555884561
 21
188.7782062739
 31
0.0
  0
LINE
  5
1C0
330
1AB
100
AcDbEntity
  8
SLD-0
 62
     7
100
AcDbLine
 10
129.6594354561
 20
185.7782062739
 30
0.0
 11
129.6594354561
 21
188.7782062739
 31
0.0
  0
MTEXT
  5
1C1
330
1AB
100
AcDbEntity
  8
SLD-0
 62
     7
100
AcDbMText
 10
125.1327417602
 20
196.2421676692
 30
0.1
 40
3.5
 41
0.0
 71
     1
 72
     1
  1
25
  7
SLDTEXTSTYLE0
 11
6.123031769111886E-17
 21
1.0
 31
0.0
 73
     1
 44
1.0
  0
ENDBLK
  5
1B7
330
1AB
100
AcDbEntity
  8
0
100
AcDbBlockEnd
  0
BLOCK
  5
1CE
330
1C3
100
AcDbEntity
  8
0
100
AcDbBlockBegin
  2
*D17
 70
     1
 71
     0
 10
0.0
 20
0.0
 30
0.0
  3
*D17
  1

  0
LINE
  5
1D0
330
1C3
100
AcDbEntity
  8
SLD-0
 62
     7
100
AcDbLine
 10
103.8273796218
 20
210.7782062739
 30
0.0
 11
121.6043060687
 21
210.7782062739
 31
0.0
  0
LINE
  5
1D1
330
1C3
100
AcDbEntity
  8
SLD-0
 62
     7
100
AcDbLine
 10
105.8273796218
 20
198.2782062739
 30
0.0
 11
121.6043060687
 21
198.2782062739
 31
0.0
  0
LINE
  5
1D2
330
1C3
100
AcDbEntity
  8
SLD-0
 62
     7
100
AcDbLine
 10
120.6043060687
 20
210.7782062739
 30
0.0
 11
120.6043060687
 21
215.7782062739
 31
0.0
  0
LINE
  5
1D3
330
1C3
100
AcDbEntity
  8
SLD-0
 62
     7
100
AcDbLine
 10
120.6043060687
 20
210.7782062739
 30
0.0
 11
120.6043060687
 21
198.2782062739
 31
0.0
  0
LINE
  5
1D4
330
1C3
100
AcDbEntity
  8
SLD-0
 62
     7
100
AcDbLine
 10
120.6043060687
 20
198.2782062739
 30
0.0
 11
120.6043060687
 21
193.2782062739
 31
0.0
  0
LINE
  5
1D5
330
1C3
100
AcDbEntity
  8
SLD-0
 62
     7
100
AcDbLine
 10
121.4081530687
 20
213.7782062739
 30
0.0
 11
120.6043060687
 21
210.7782062739
 31
0.0
  0
LINE
  5
1D6
330
1C3
100
AcDbEntity
  8
SLD-0
 62
     7
100
AcDbLine
 10
120.6043060687
 20
210.7782062739
 30
0.0
 11
119.8004590687
 21
213.7782062739
 31
0.0
  0
LINE
  5
1D7
330
1C3
100
AcDbEntity
  8
SLD-0
 62
     7
100
AcDbLine
 10
120.6043060687
 20
210.7782062739
 30
0.0
 11
120.6043060687
 21
213.7782062739
 31
0.0
  0
LINE
  5
1D8
330
1C3
100
AcDbEntity
  8
SLD-0
 62
     7
100
AcDbLine
 10
119.8004590687
 20
195.2782062739
 30
0.0
 11
120.6043060687
 21
198.2782062739
 31
0.0
  0
LINE
  5
1D9
330
1C3
100
AcDbEntity
  8
SLD-0
 62
     7
100
AcDbLine
 10
120.6043060687
 20
198.2782062739
 30
0.0
 11
121.4081530687
 21
195.2782062739
 31
0.0
  0
LINE
  5
1DA
330
1C3
100
AcDbEntity
  8
SLD-0
 62
     7
100
AcDbLine
 10
120.6043060687
 20
198.2782062739
 30
0.0
 11
120.6043060687
 21
195.2782062739
 31
0.0
  0
MTEXT
  5
1DB
330
1C3
100
AcDbEntity
  8
SLD-0
 62
     7
100
AcDbMText
 10
116.0776123727
 20
200.4561290646
 30
0.1
 40
3.5
 41
0.0
 71
     1
 72
     1
  1
12.5
  7
SLDTEXTSTYLE0
 11
6.123031769111886E-17
 21
1.0
 31
0.0
 73
     1
 44
1.0
  0
ENDBLK
  5
1CF
330
1C3
100
AcDbEntity
  8
0
100
AcDbBlockEnd
  0
BLOCK
  5
1E8
330
1DD
100
AcDbEntity
  8
0
100
AcDbBlockBegin
  2
*D18
 70
     1
 71
     0
 10
0.0
 20
0.0
 30
0.0
  3
*D18
  1

  0
LINE
  5
1EA
330
1DD
100
AcDbEntity
  8
SLD-0
 62
     7
100
AcDbLine
 10
96.8273796218
 20
207.2782062739
 30
0.0
 11
96.8273796218
 21
225.9561138627
 31
0.0
  0
LINE
  5
1EB
330
1DD
100
AcDbEntity
  8
SLD-0
 62
     7
100
AcDbLine
 10
104.3273796218
 20
211.7782062739
 30
0.0
 11
104.3273796218
 21
225.9561138627
 31
0.0
  0
LINE
  5
1EC
330
1DD
100
AcDbEntity
  8
SLD-0
 62
     7
100
AcDbLine
 10
96.8273796218
 20
224.9561138627
 30
0.0
 11
91.8273796218
 21
224.9561138627
 31
0.0
  0
LINE
  5
1ED
330
1DD
100
AcDbEntity
  8
SLD-0
 62
     7
100
AcDbLine
 10
96.8273796218
 20
224.9561138627
 30
0.0
 11
104.3273796218
 21
224.9561138627
 31
0.0
  0
LINE
  5
1EE
330
1DD
100
AcDbEntity
  8
SLD-0
 62
     7
100
AcDbLine
 10
104.3273796218
 20
224.9561138627
 30
0.0
 11
109.3273796218
 21
224.9561138627
 31
0.0
  0
LINE
  5
1EF
330
1DD
100
AcDbEntity
  8
SLD-0
 62
     7
100
AcDbLine
 10
93.8273796218
 20
225.7599608627
 30
0.0
 11
96.8273796218
 21
224.9561138627
 31
0.0
  0
LINE
  5
1F0
330
1DD
100
AcDbEntity
  8
SLD-0
 62
     7
100
AcDbLine
 10
96.8273796218
 20
224.9561138627
 30
0.0
 11
93.8273796218
 21
224.1522668627
 31
0.0
  0
LINE
  5
1F1
330
1DD
100
AcDbEntity
  8
SLD-0
 62
     7
100
AcDbLine
 10
96.8273796218
 20
224.9561138627
 30
0.0
 11
93.8273796218
 21
224.9561138627
 31
0.0
  0
LINE
  5
1F2
330
1DD
100
AcDbEntity
  8
SLD-0
 62
     7
100
AcDbLine
 10
107.3273796218
 20
224.1522668627
 30
0.0
 11
104.3273796218
 21
224.9561138627
 31
0.0
  0
LINE
  5
1F3
330
1DD
100
AcDbEntity
  8
SLD-0
 62
     7
100
AcDbLine
 10
104.3273796218
 20
224.9561138627
 30
0.0
 11
107.3273796218
 21
225.7599608627
 31
0.0
  0
LINE
  5
1F4
330
1DD
100
AcDbEntity
  8
SLD-0
 62
     7
100
AcDbLine
 10
104.3273796218
 20
224.9561138627
 30
0.0
 11
107.3273796218
 21
224.9561138627
 31
0.0
  0
MTEXT
  5
1F5
330
1DD
100
AcDbEntity
  8
SLD-0
 62
     7
100
AcDbMText
 10
97.5233217148
 20
229.4828075586
 30
0.1
 40
3.5
 41
0.0
 71
     1
 72
     1
  1
7.5
  7
SLDTEXTSTYLE0
 73
     1
 44
1.0
  0
ENDBLK
  5
1E9
330
1DD
100
AcDbEntity
  8
0
100
AcDbBlockEnd
  0
ENDSEC
  0
SECTION
  2
ENTITIES
  0
LINE
  5
69
330
1F
100
AcDbEntity
  8
SLD-0
  6
Continuous
 62
   179
100
AcDbLine
 10
20.2604743903
 20
285.0
 30
0.0
 11
196.7604743903
 21
285.0
 31
0.0
  0
LINE
  5
6A
330
1F
100
AcDbEntity
  8
SLD-0
  6
Continuous
 62
   179
100
AcDbLine
 10
20.2604743903
 20
285.0
 30
0.0
 11
20.2604743903
 21
10.0
 31
0.0
  0
LINE
  5
6B
330
1F
100
AcDbEntity
  8
SLD-0
  6
Continuous
 62
   179
100
AcDbLine
 10
20.2604743903
 20
10.0
 30
0.0
 11
196.7604743903
 21
10.0
 31
0.0
  0
LINE
  5
6C
330
1F
100
AcDbEntity
  8
SLD-0
  6
Continuous
 62
   179
100
AcDbLine
 10
196.7604743903
 20
285.0
 30
0.0
 11
196.7604743903
 21
10.0
 31
0.0
  0
LINE
  5
6D
330
1F
100
AcDbEntity
  8
SLD-0
  6
Continuous
 62
   179
100
AcDbLine
 10
127.0104743903
 20
50.75
 30
0.0
 11
196.7604743903
 21
50.75
 31
0.0
  0
LINE
  5
6E
330
1F
100
AcDbEntity
  8
SLD-0
  6
Continuous
 62
   179
100
AcDbLine
 10
127.0104743903
 20
50.75
 30
0.0
 11
127.0104743903
 21
22.75
 31
0.0
  0
LINE
  5
6F
330
1F
100
AcDbEntity
  8
SLD-0
  6
Continuous
 62
   179
100
AcDbLine
 10
127.0104743903
 20
22.75
 30
0.0
 11
196.7604743903
 21
22.75
 31
0.0
  0
LINE
  5
70
330
1F
100
AcDbEntity
  8
SLD-0
  6
Continuous
 62
   179
100
AcDbLine
 10
127.0104743903
 20
36.75
 30
0.0
 11
196.7604743903
 21
36.75
 31
0.0
  0
LINE
  5
71
330
1F
100
AcDbEntity
  8
SLD-0
100
AcDbLine
 10
98.8723529376
 20
110.7379530066
 30
0.0
 11
97.1785266389
 21
113.2640077308
 31
0.0
  0
LINE
  5
72
330
1F
100
AcDbEntity
  8
SLD-0
100
AcDbLine
 10
97.1785266389
 20
113.2640077308
 30
0.0
 11
99.6000557509
 21
111.423845575
 31
0.0
  0
LINE
  5
73
330
1F
100
AcDbEntity
  8
SLD-0
100
AcDbLine
 10
99.6000557509
 20
111.423845575
 30
0.0
 11
98.8723529376
 21
110.7379530066
 31
0.0
  0
LINE
  5
74
330
1F
100
AcDbEntity
  8
SLD-0
  6
Continuous
 62
   179
100
AcDbLine
 10
44.3273802923
 20
114.7640077904
 30
0.0
 11
45.8273796069
 21
113.2640075445
 31
0.0
  0
LINE
  5
75
330
1F
100
AcDbEntity
  8
SLD-0
  6
Continuous
 62
   179
100
AcDbLine
 10
44.3273802923
 20
125.264007707
 30
0.0
 11
44.3273802923
 21
114.7640077904
 31
0.0
  0
LINE
  5
76
330
1F
100
AcDbEntity
  8
SLD-0
  6
Continuous
 62
   179
100
AcDbLine
 10
44.3273802923
 20
125.264007707
 30
0.0
 11
56.339887444
 21
125.2640077308
 31
0.0
  0
LINE
  5
77
330
1F
100
AcDbEntity
  8
SLD-0
  6
Continuous
 62
   179
100
AcDbLine
 10
56.339887444
 20
126.2640077308
 30
0.0
 11
44.3273802923
 21
126.2640077545
 31
0.0
  0
LINE
  5
78
330
1F
100
AcDbEntity
  8
SLD-0
  6
Continuous
 62
   179
100
AcDbLine
 10
45.8273796069
 20
138.264007917
 30
0.0
 11
44.3273802923
 21
136.7640076712
 31
0.0
  0
LINE
  5
79
330
1F
100
AcDbEntity
  8
SLD-0
  6
Continuous
 62
   179
100
AcDbLine
 10
104.3273789512
 20
136.7640076712
 30
0.0
 11
102.8273796367
 21
138.264007917
 31
0.0
  0
LINE
  5
7A
330
1F
100
AcDbEntity
  8
SLD-0
  6
Continuous
 62
   179
100
AcDbLine
 10
104.3273789512
 20
136.7640076712
 30
0.0
 11
104.3273789512
 21
126.2640077545
 31
0.0
  0
LINE
  5
7B
330
1F
100
AcDbEntity
  8
SLD-0
  6
Continuous
 62
   179
100
AcDbLine
 10
104.3273789512
 20
126.2640077545
 30
0.0
 11
90.3065099933
 21
126.2640077308
 31
0.0
  0
LINE
  5
7C
330
1F
100
AcDbEntity
  8
SLD-0
  6
Continuous
 62
   179
100
AcDbLine
 10
90.3065099934
 20
125.2640077308
 30
0.0
 11
104.3273789512
 21
125.264007707
 31
0.0
  0
LINE
  5
7D
330
1F
100
AcDbEntity
  8
SLD-0
  6
Continuous
 62
   179
100
AcDbLine
 10
102.8273796367
 20
113.2640075445
 30
0.0
 11
104.3273789512
 21
114.7640077904
 31
0.0
  0
LINE
  5
7E
330
1F
100
AcDbEntity
  8
SLD-0
  6
Continuous
 62
   179
100
AcDbLine
 10
102.8273796367
 20
113.2640075445
 30
0.0
 11
45.8273796069
 21
113.2640075445
 31
0.0
  0
LINE
  5
7F
330
1F
100
AcDbEntity
  8
SLD-0
  6
Continuous
 62
   179
100
AcDbLine
 10
102.8273796367
 20
138.264007917
 30
0.0
 11
45.8273796069
 21
138.264007917
 31
0.0
  0
LINE
  5
80
330
1F
100
AcDbEntity
  8
SLD-0
  6
Continuous
 62
   179
100
AcDbLine
 10
44.3273802923
 20
136.7640076712
 30
0.0
 11
44.3273802923
 21
126.2640077545
 31
0.0
  0
LINE
  5
81
330
1F
100
AcDbEntity
  8
SLD-0
  6
Continuous
 62
   179
100
AcDbLine
 10
104.3273789512
 20
125.264007707
 30
0.0
 11
104.3273789512
 21
114.7640077904
 31
0.0
  0
LINE
  5
82
330
1F
100
AcDbEntity
  8
SLD-0
  6
HIDDEN
 62
     8
100
AcDbLine
 10
96.8273796218
 20
131.7640077308
 30
0.0
 11
102.3273796218
 21
131.7640077308
 31
0.0
  0
LINE
  5
83
330
1F
100
AcDbEntity
  8
SLD-0
  6
HIDDEN
 62
     8
100
AcDbLine
 10
91.3273796218
 20
131.7640077308
 30
0.0
 11
96.8273796218
 21
131.7640077308
 31
0.0
  0
LINE
  5
84
330
1F
100
AcDbEntity
  8
SLD-0
  6
HIDDEN
 62
     8
100
AcDbLine
 10
51.8273796218
 20
131.7640077308
 30
0.0
 11
57.3273796218
 21
131.7640077308
 31
0.0
  0
LINE
  5
85
330
1F
100
AcDbEntity
  8
SLD-0
  6
HIDDEN
 62
     8
100
AcDbLine
 10
46.3273796218
 20
131.7640077308
 30
0.0
 11
51.8273796218
 21
131.7640077308
 31
0.0
  0
LINE
  5
86
330
1F
100
AcDbEntity
  8
SLD-0
  6
HIDDEN
 62
     8
100
AcDbLine
 10
91.3273805456
 20
138.264007917
 30
0.0
 11
91.3273796218
 21
131.7640077308
 31
0.0
  0
LINE
  5
87
330
1F
100
AcDbEntity
  8
SLD-0
  6
HIDDEN
 62
     8
100
AcDbLine
 10
102.3273796218
 20
131.7640077308
 30
0.0
 11
102.327380486
 21
138.264007917
 31
0.0
  0
LINE
  5
88
330
1F
100
AcDbEntity
  8
SLD-0
  6
HIDDEN
 62
     8
100
AcDbLine
 10
46.3273787575
 20
138.264007917
 30
0.0
 11
46.3273796218
 21
131.7640077308
 31
0.0
  0
LINE
  5
89
330
1F
100
AcDbEntity
  8
SLD-0
  6
HIDDEN
 62
     8
100
AcDbLine
 10
57.3273796218
 20
131.7640077308
 30
0.0
 11
57.3273786979
 21
138.264007917
 31
0.0
  0
LINE
  5
8A
330
1F
100
AcDbEntity
  8
SLD-0
  6
HIDDEN
 62
     8
100
AcDbLine
 10
93.5773795175
 20
131.7640077829
 30
0.0
 11
93.5773795175
 21
126.2640077545
 31
0.0
  0
LINE
  5
8B
330
1F
100
AcDbEntity
  8
SLD-0
  6
HIDDEN
 62
     8
100
AcDbLine
 10
100.0773796516
 20
126.2640077545
 30
0.0
 11
100.0773796516
 21
131.7640077829
 31
0.0
  0
LINE
  5
8C
330
1F
100
AcDbEntity
  8
SLD-0
  6
HIDDEN
 62
     8
100
AcDbLine
 10
48.577379592
 20
131.7640077829
 30
0.0
 11
48.577379592
 21
126.2640077545
 31
0.0
  0
LINE
  5
8D
330
1F
100
AcDbEntity
  8
SLD-0
  6
HIDDEN
 62
     8
100
AcDbLine
 10
55.0773797261
 20
126.2640077545
 30
0.0
 11
55.0773797261
 21
131.7640077829
 31
0.0
  0
LINE
  5
8E
330
1F
100
AcDbEntity
  8
SLD-0
  6
HIDDEN
 62
     8
100
AcDbLine
 10
49.3273792492
 20
125.264007707
 30
0.0
 11
49.3273792492
 21
113.2640075445
 31
0.0
  0
LINE
  5
8F
330
1F
100
AcDbEntity
  8
SLD-0
  6
HIDDEN
 62
     8
100
AcDbLine
 10
54.3273800688
 20
113.2640075445
 30
0.0
 11
54.3273800688
 21
125.264007707
 31
0.0
  0
LINE
  5
90
330
1F
100
AcDbEntity
  8
SLD-0
  6
HIDDEN
 62
     8
100
AcDbLine
 10
94.3273791747
 20
125.264007707
 30
0.0
 11
94.3273791747
 21
113.2640075445
 31
0.0
  0
LINE
  5
91
330
1F
100
AcDbEntity
  8
SLD-0
  6
HIDDEN
 62
     8
100
AcDbLine
 10
99.3273799943
 20
113.2640075445
 30
0.0
 11
99.3273799943
 21
125.264007707
 31
0.0
  0
LINE
  5
92
330
1F
100
AcDbEntity
  8
SLD-0
 62
   179
100
AcDbLine
 10
45.0773796218
 20
114.0140077308
 30
0.0
 11
32.0453832578
 21
102.7954427956
 31
0.0
  0
LINE
  5
93
330
1F
100
AcDbEntity
  8
SLD-0
 62
   179
100
AcDbLine
 10
32.0453832578
 20
102.7954427956
 30
0.0
 11
43.7351828964
 21
112.8073654598
 31
0.0
  0
LINE
  5
94
330
1F
100
AcDbEntity
  8
SLD-0
100
AcDbLine
 10
99.2362043443
 20
111.0808992908
 30
0.0
 11
106.1696925581
 21
103.7247634884
 31
0.0
  0
LINE
  5
95
330
1F
100
AcDbEntity
  8
SLD-0
100
AcDbLine
 10
106.1696925581
 20
103.7247634884
 30
0.0
 11
114.8173695349
 21
103.7247634884
 31
0.0
  0
LINE
  5
96
330
1F
100
AcDbEntity
  8
SLD-0
  6
HIDDEN
 62
   179
100
AcDbLine
 10
99.8273791449
 20
113.2640075445
 30
0.0
 11
99.8273791449
 21
125.264007707
 31
0.0
  0
LINE
  5
97
330
1F
100
AcDbEntity
  8
SLD-0
  6
HIDDEN
 62
   179
100
AcDbLine
 10
93.8273800241
 20
125.264007707
 30
0.0
 11
93.8273800241
 21
113.2640075445
 31
0.0
  0
LINE
  5
98
330
1F
100
AcDbEntity
  8
SLD-0
  6
HIDDEN
 62
   179
100
AcDbLine
 10
54.8273792194
 20
113.2640075445
 30
0.0
 11
54.8273792194
 21
125.264007707
 31
0.0
  0
LINE
  5
99
330
1F
100
AcDbEntity
  8
SLD-0
  6
HIDDEN
 62
   179
100
AcDbLine
 10
48.8273800986
 20
125.264007707
 30
0.0
 11
48.8273800986
 21
113.2640075445
 31
0.0
  0
LINE
  5
9A
330
1F
100
AcDbEntity
  8
SLD-0
  6
CENTERX2
 62
   179
100
AcDbLine
 10
96.8273796218
 20
111.2640077308
 30
0.0
 11
96.8273796218
 21
140.2640077308
 31
0.0
  0
LINE
  5
9B
330
1F
100
AcDbEntity
  8
SLD-0
  6
CENTERX2
 62
   179
100
AcDbLine
 10
51.8273796218
 20
111.2640077308
 30
0.0
 11
51.8273796218
 21
140.2640077308
 31
0.0
  0
LINE
  5
9C
330
1F
100
AcDbEntity
  8
SLD-0
  6
Continuous
 62
   179
100
AcDbLine
 10
167.0057324129
 20
125.2640077308
 30
0.0
 11
142.0057324129
 21
125.2640077308
 31
0.0
  0
LINE
  5
9D
330
1F
100
AcDbEntity
  8
SLD-0
  6
Continuous
 62
   179
100
AcDbLine
 10
167.0057325991
 20
114.7640077904
 30
0.0
 11
167.0057324129
 21
125.2640077308
 31
0.0
  0
LINE
  5
9E
330
1F
100
AcDbEntity
  8
SLD-0
  6
Continuous
 62
   179
100
AcDbLine
 10
142.0057322266
 20
114.7640077904
 30
0.0
 11
167.0057325991
 21
114.7640077904
 31
0.0
  0
LINE
  5
9F
330
1F
100
AcDbEntity
  8
SLD-0
  6
Continuous
 62
   179
100
AcDbLine
 10
142.0057324129
 20
125.2640077308
 30
0.0
 11
142.0057322266
 21
114.7640077904
 31
0.0
  0
LINE
  5
A0
330
1F
100
AcDbEntity
  8
SLD-0
  6
Continuous
 62
   179
100
AcDbLine
 10
167.0057325991
 20
113.2640075445
 30
0.0
 11
142.0057322266
 21
113.2640075445
 31
0.0
  0
LINE
  5
A1
330
1F
100
AcDbEntity
  8
SLD-0
  6
Continuous
 62
   179
100
AcDbLine
 10
142.0057322266
 20
113.2640075445
 30
0.0
 11
142.0057322266
 21
114.7640077904
 31
0.0
  0
LINE
  5
A2
330
1F
100
AcDbEntity
  8
SLD-0
  6
Continuous
 62
   179
100
AcDbLine
 10
167.0057325991
 20
114.7640077904
 30
0.0
 11
167.0057325991
 21
113.2640075445
 31
0.0
  0
LINE
  5
A3
330
1F
100
AcDbEntity
  8
SLD-0
  6
Continuous
 62
   179
100
AcDbLine
 10
167.0057325991
 20
136.7640076712
 30
0.0
 11
142.0057322266
 21
136.7640076712
 31
0.0
  0
LINE
  5
A4
330
1F
100
AcDbEntity
  8
SLD-0
  6
Continuous
 62
   179
100
AcDbLine
 10
142.0057322266
 20
136.7640076712
 30
0.0
 11
142.0057322266
 21
138.264007917
 31
0.0
  0
LINE
  5
A5
330
1F
100
AcDbEntity
  8
SLD-0
  6
Continuous
 62
   179
100
AcDbLine
 10
142.0057322266
 20
138.264007917
 30
0.0
 11
167.0057325991
 21
138.264007917
 31
0.0
  0
LINE
  5
A6
330
1F
100
AcDbEntity
  8
SLD-0
  6
Continuous
 62
   179
100
AcDbLine
 10
167.0057325991
 20
138.264007917
 30
0.0
 11
167.0057325991
 21
136.7640076712
 31
0.0
  0
LINE
  5
A7
330
1F
100
AcDbEntity
  8
SLD-0
  6
Continuous
 62
   179
100
AcDbLine
 10
167.0057324129
 20
126.2640077308
 30
0.0
 11
142.0057324129
 21
126.2640077308
 31
0.0
  0
LINE
  5
A8
330
1F
100
AcDbEntity
  8
SLD-0
  6
Continuous
 62
   179
100
AcDbLine
 10
142.0057322266
 20
136.7640076712
 30
0.0
 11
142.0057324129
 21
126.2640077308
 31
0.0
  0
LINE
  5
A9
330
1F
100
AcDbEntity
  8
SLD-0
  6
Continuous
 62
   179
100
AcDbLine
 10
167.0057324129
 20
126.2640077308
 30
0.0
 11
167.0057325991
 21
136.7640076712
 31
0.0
  0
LINE
  5
AA
330
1F
100
AcDbEntity
  8
SLD-0
  6
Continuous
 62
   179
100
AcDbLine
 10
142.0057324129
 20
126.2640077308
 30
0.0
 11
142.0057324129
 21
125.2640077308
 31
0.0
  0
LINE
  5
AB
330
1F
100
AcDbEntity
  8
SLD-0
  6
Continuous
 62
   179
100
AcDbLine
 10
167.0057324129
 20
126.2640077308
 30
0.0
 11
167.0057324129
 21
125.2640077308
 31
0.0
  0
LINE
  5
AC
330
1F
100
AcDbEntity
  8
SLD-0
  6
HIDDEN
 62
     8
100
AcDbLine
 10
160.0057323831
 20
131.7640077829
 30
0.0
 11
149.0057324129
 21
131.7640077308
 31
0.0
  0
LINE
  5
AD
330
1F
100
AcDbEntity
  8
SLD-0
  6
HIDDEN
 62
     8
100
AcDbLine
 10
149.0057324129
 20
138.2640077308
 30
0.0
 11
159.9967623497
 21
138.264007917
 31
0.0
  0
LINE
  5
AE
330
1F
100
AcDbEntity
  8
SLD-0
  6
HIDDEN
 62
     8
100
AcDbLine
 10
151.2557324129
 20
131.7640077308
 30
0.0
 11
157.7557324799
 21
131.7640077829
 31
0.0
  0
LINE
  5
AF
330
1F
100
AcDbEntity
  8
SLD-0
  6
HIDDEN
 62
     8
100
AcDbLine
 10
151.2557324129
 20
126.2640077308
 30
0.0
 11
157.7557324799
 21
126.2640077545
 31
0.0
  0
LINE
  5
B0
330
1F
100
AcDbEntity
  8
SLD-0
  6
HIDDEN
 62
     8
100
AcDbLine
 10
152.0057324129
 20
113.2640077308
 30
0.0
 11
156.9967262349
 21
113.2640075445
 31
0.0
  0
LINE
  5
B1
330
1F
100
AcDbEntity
  8
SLD-0
  6
HIDDEN
 62
     8
100
AcDbLine
 10
152.0057324129
 20
125.2640077308
 30
0.0
 11
156.9967262349
 21
125.264007707
 31
0.0
  0
LINE
  5
B2
330
1F
100
AcDbEntity
  8
SLD-0
  6
HIDDEN
 62
     8
100
AcDbLine
 10
149.0057324129
 20
131.7640077308
 30
0.0
 11
159.9967623497
 21
131.7640077829
 31
0.0
  0
LINE
  5
B3
330
1F
100
AcDbEntity
  8
SLD-0
  6
HIDDEN
 62
     8
100
AcDbLine
 10
149.0057324129
 20
138.2640077308
 30
0.0
 11
159.9967623497
 21
138.264007917
 31
0.0
  0
LINE
  5
B4
330
1F
100
AcDbEntity
  8
SLD-0
  6
HIDDEN
 62
     8
100
AcDbLine
 10
151.2557324129
 20
126.2640077308
 30
0.0
 11
157.7557324799
 21
126.2640077545
 31
0.0
  0
LINE
  5
B5
330
1F
100
AcDbEntity
  8
SLD-0
  6
HIDDEN
 62
     8
100
AcDbLine
 10
151.2557324129
 20
131.7640077308
 30
0.0
 11
157.7557324799
 21
131.7640077829
 31
0.0
  0
LINE
  5
B6
330
1F
100
AcDbEntity
  8
SLD-0
  6
HIDDEN
 62
     8
100
AcDbLine
 10
152.0057324129
 20
125.2640077308
 30
0.0
 11
156.9967262349
 21
125.264007707
 31
0.0
  0
LINE
  5
B7
330
1F
100
AcDbEntity
  8
SLD-0
  6
HIDDEN
 62
     8
100
AcDbLine
 10
152.0057324129
 20
113.2640077308
 30
0.0
 11
156.9967262349
 21
113.2640075445
 31
0.0
  0
LINE
  5
B8
330
1F
100
AcDbEntity
  8
SLD-0
  6
HIDDEN
 62
     8
100
AcDbLine
 10
149.0057324129
 20
138.2640077308
 30
0.0
 11
149.0057324129
 21
131.7640077308
 31
0.0
  0
LINE
  5
B9
330
1F
100
AcDbEntity
  8
SLD-0
  6
HIDDEN
 62
     8
100
AcDbLine
 10
160.0057323831
 20
131.7640077829
 30
0.0
 11
160.0057323831
 21
138.264007917
 31
0.0
  0
LINE
  5
BA
330
1F
100
AcDbEntity
  8
SLD-0
  6
HIDDEN
 62
     8
100
AcDbLine
 10
151.2557324129
 20
131.7640077308
 30
0.0
 11
151.2557324129
 21
126.2640077308
 31
0.0
  0
LINE
  5
BB
330
1F
100
AcDbEntity
  8
SLD-0
  6
HIDDEN
 62
     8
100
AcDbLine
 10
157.7557324799
 20
126.2640077545
 30
0.0
 11
157.7557324799
 21
131.7640077829
 31
0.0
  0
LINE
  5
BC
330
1F
100
AcDbEntity
  8
SLD-0
  6
HIDDEN
 62
     8
100
AcDbLine
 10
152.0057324129
 20
125.2640077308
 30
0.0
 11
152.0057324129
 21
113.2640077308
 31
0.0
  0
LINE
  5
BD
330
1F
100
AcDbEntity
  8
SLD-0
  6
HIDDEN
 62
     8
100
AcDbLine
 10
157.005732357
 20
113.2640075445
 30
0.0
 11
157.005732357
 21
125.264007707
 31
0.0
  0
LINE
  5
BE
330
1F
100
AcDbEntity
  8
SLD-0
  6
HIDDEN
 62
     8
100
AcDbLine
 10
149.0057324129
 20
138.2640077308
 30
0.0
 11
149.0057324129
 21
131.7640077308
 31
0.0
  0
LINE
  5
BF
330
1F
100
AcDbEntity
  8
SLD-0
  6
HIDDEN
 62
     8
100
AcDbLine
 10
160.0057323831
 20
131.7640077829
 30
0.0
 11
160.0057323831
 21
138.264007917
 31
0.0
  0
LINE
  5
C0
330
1F
100
AcDbEntity
  8
SLD-0
  6
HIDDEN
 62
     8
100
AcDbLine
 10
151.2557324129
 20
131.7640077308
 30
0.0
 11
151.2557324129
 21
126.2640077308
 31
0.0
  0
LINE
  5
C1
330
1F
100
AcDbEntity
  8
SLD-0
  6
HIDDEN
 62
     8
100
AcDbLine
 10
157.7557324799
 20
126.2640077545
 30
0.0
 11
157.7557324799
 21
131.7640077829
 31
0.0
  0
LINE
  5
C2
330
1F
100
AcDbEntity
  8
SLD-0
  6
HIDDEN
 62
     8
100
AcDbLine
 10
152.0057324129
 20
125.2640077308
 30
0.0
 11
152.0057324129
 21
113.2640077308
 31
0.0
  0
LINE
  5
C3
330
1F
100
AcDbEntity
  8
SLD-0
  6
HIDDEN
 62
     8
100
AcDbLine
 10
157.005732357
 20
113.2640075445
 30
0.0
 11
157.005732357
 21
125.264007707
 31
0.0
  0
LINE
  5
C4
330
1F
100
AcDbEntity
  8
SLD-0
  6
HIDDEN
 62
   179
100
AcDbLine
 10
157.505732439
 20
113.2640075445
 30
0.0
 11
157.505732439
 21
125.264007707
 31
0.0
  0
LINE
  5
C5
330
1F
100
AcDbEntity
  8
SLD-0
  6
HIDDEN
 62
   179
100
AcDbLine
 10
151.5057323868
 20
125.264007707
 30
0.0
 11
151.5057323868
 21
113.2640075445
 31
0.0
  0
LINE
  5
C6
330
1F
100
AcDbEntity
  8
SLD-0
  6
CENTERX2
 62
   179
100
AcDbLine
 10
169.0057324129
 20
125.7640077308
 30
0.0
 11
140.0057324129
 21
125.7640077308
 31
0.0
  0
LINE
  5
C7
330
1F
100
AcDbEntity
  8
SLD-0
  6
CENTERX2
 62
   179
100
AcDbLine
 10
154.5057324129
 20
116.1681191557
 30
0.0
 11
154.5057324129
 21
131.7640077308
 31
0.0
  0
LINE
  5
C8
330
1F
100
AcDbEntity
  8
SLD-0
  6
CENTERX2
 62
   179
100
AcDbLine
 10
154.5057324129
 20
131.7640077308
 30
0.0
 11
154.5057324129
 21
140.2640077308
 31
0.0
  0
LINE
  5
C9
330
1F
100
AcDbEntity
  8
SLD-0
  6
Continuous
 62
   179
100
AcDbLine
 10
45.8273796069
 20
210.7782064601
 30
0.0
 11
45.8273796069
 21
185.7782060876
 31
0.0
  0
LINE
  5
CA
330
1F
100
AcDbEntity
  8
SLD-0
  6
Continuous
 62
   179
100
AcDbLine
 10
102.8273796367
 20
210.7782064601
 30
0.0
 11
45.8273796069
 21
210.7782064601
 31
0.0
  0
LINE
  5
CB
330
1F
100
AcDbEntity
  8
SLD-0
  6
Continuous
 62
   179
100
AcDbLine
 10
102.8273796367
 20
185.7782060876
 30
0.0
 11
102.8273796367
 21
210.7782064601
 31
0.0
  0
LINE
  5
CC
330
1F
100
AcDbEntity
  8
SLD-0
  6
Continuous
 62
   179
100
AcDbLine
 10
102.8273796367
 20
185.7782060876
 30
0.0
 11
45.8273796069
 21
185.7782060876
 31
0.0
  0
LINE
  5
CD
330
1F
100
AcDbEntity
  8
SLD-0
  6
Continuous
 62
   179
100
AcDbLine
 10
104.3273789512
 20
210.7782064601
 30
0.0
 11
104.3273789512
 21
185.7782060876
 31
0.0
  0
LINE
  5
CE
330
1F
100
AcDbEntity
  8
SLD-0
  6
Continuous
 62
   179
100
AcDbLine
 10
104.3273789512
 20
185.7782060876
 30
0.0
 11
102.8273796367
 21
185.7782060876
 31
0.0
  0
LINE
  5
CF
330
1F
100
AcDbEntity
  8
SLD-0
  6
Continuous
 62
   179
100
AcDbLine
 10
102.8273796367
 20
210.7782064601
 30
0.0
 11
104.3273789512
 21
210.7782064601
 31
0.0
  0
LINE
  5
D0
330
1F
100
AcDbEntity
  8
SLD-0
  6
Continuous
 62
   179
100
AcDbLine
 10
45.8273796069
 20
185.7782060876
 30
0.0
 11
44.3273802923
 21
185.7782060876
 31
0.0
  0
LINE
  5
D1
330
1F
100
AcDbEntity
  8
SLD-0
  6
Continuous
 62
   179
100
AcDbLine
 10
44.3273802923
 20
185.7782060876
 30
0.0
 11
44.3273802923
 21
210.7782064601
 31
0.0
  0
LINE
  5
D2
330
1F
100
AcDbEntity
  8
SLD-0
  6
Continuous
 62
   179
100
AcDbLine
 10
44.3273802923
 20
210.7782064601
 30
0.0
 11
45.8273796069
 21
210.7782064601
 31
0.0
  0
LINE
  5
D3
330
1F
100
AcDbEntity
  8
SLD-0
  6
HIDDEN
 62
     8
100
AcDbLine
 10
56.3398880588
 20
210.7782064601
 30
0.0
 11
56.3398880588
 21
185.7782060876
 31
0.0
  0
LINE
  5
D4
330
1F
100
AcDbEntity
  8
SLD-0
  6
HIDDEN
 62
     8
100
AcDbLine
 10
56.3398880588
 20
210.7782064601
 30
0.0
 11
56.3398880588
 21
185.7782060876
 31
0.0
  0
LINE
  5
D5
330
1F
100
AcDbEntity
  8
SLD-0
  6
HIDDEN
 62
     8
100
AcDbLine
 10
90.3065094428
 20
210.7782064601
 30
0.0
 11
90.3065094428
 21
185.7782060876
 31
0.0
  0
LINE
  5
D6
330
1F
100
AcDbEntity
  8
SLD-0
  6
HIDDEN
 62
     8
100
AcDbLine
 10
76.3273797168
 20
185.7782060876
 30
0.0
 11
76.3273797168
 21
210.7782064601
 31
0.0
  0
LINE
  5
D7
330
1F
100
AcDbEntity
  8
SLD-0
  6
HIDDEN
 62
     8
100
AcDbLine
 10
78.3273798118
 20
210.7782064601
 30
0.0
 11
78.3273798118
 21
185.7782060876
 31
0.0
  0
LINE
  5
D8
330
1F
100
AcDbEntity
  8
SLD-0
  6
CENTERX2
 62
   179
100
AcDbLine
 10
66.3273796218
 20
212.7782062739
 30
0.0
 11
66.3273796218
 21
183.7782062739
 31
0.0
  0
LINE
  5
D9
330
1F
100
AcDbEntity
  8
SLD-0
  6
CENTERX2
 62
   179
100
AcDbLine
 10
84.3273796218
 20
212.7782062739
 30
0.0
 11
84.3273796218
 21
183.7782062739
 31
0.0
  0
ARC
  5
DA
330
1F
100
AcDbEntity
  8
SLD-0
  6
Continuous
 62
   179
100
AcDbCircle
 10
84.3273796218
 20
125.7640077308
 30
0.0
 40
6.000000000000004
100
AcDbArc
 50
4.780191853
 51
355.2198081528
  0
ARC
  5
DB
330
1F
100
AcDbEntity
  8
SLD-0
  6
Continuous
 62
   179
100
AcDbCircle
 10
66.3273796218
 20
125.7640077308
 30
0.0
 40
10.00000000008082
100
AcDbArc
 50
182.8659839826
 51
177.1340160174
  0
CIRCLE
  5
DC
330
1F
100
AcDbEntity
  8
SLD-0
  6
Continuous
 62
   179
100
AcDbCircle
 10
96.8273796218
 20
198.2782062739
 30
0.0
 40
5.5
  0
CIRCLE
  5
DD
330
1F
100
AcDbEntity
  8
SLD-0
  6
Continuous
 62
   179
100
AcDbCircle
 10
51.8273796218
 20
198.2782062739
 30
0.0
 40
5.5
  0
CIRCLE
  5
DE
330
1F
100
AcDbEntity
  8
SLD-0
  6
Continuous
 62
   179
100
AcDbCircle
 10
51.8273796218
 20
198.2782062739
 30
0.0
 40
3.250000000000007
  0
CIRCLE
  5
DF
330
1F
100
AcDbEntity
  8
SLD-0
  6
Continuous
 62
   179
100
AcDbCircle
 10
96.8273796218
 20
198.2782062739
 30
0.0
 40
3.25
  0
CIRCLE
  5
E0
330
1F
100
AcDbEntity
  8
SLD-0
  6
Continuous
 62
   179
100
AcDbCircle
 10
51.8273796218
 20
198.2782062739
 30
0.0
 40
2.500000000000007
  0
CIRCLE
  5
E1
330
1F
100
AcDbEntity
  8
SLD-0
  6
Continuous
 62
   179
100
AcDbCircle
 10
96.8273796218
 20
198.2782062739
 30
0.0
 40
2.5
  0
CIRCLE
  5
E2
330
1F
100
AcDbEntity
  8
SLD-0
 62
   179
100
AcDbCircle
 10
96.8273796218
 20
198.2782062739
 30
0.0
 40
2.999999523200003
  0
CIRCLE
  5
E3
330
1F
100
AcDbEntity
  8
SLD-0
 62
   179
100
AcDbCircle
 10
51.8273796218
 20
198.2782062739
 30
0.0
 40
2.999999597699997
  0
DIMENSION
  5
E4
330
1F
100
AcDbEntity
  8
SLD-0
 62
     7
100
AcDbDimension
  2
*D7
 10
84.3273796218
 20
147.7700811488
 30
0.0
 11
94.3273796218
 21
147.7700811488
 31
0.0
 70
   160
 71
     1
 42
20.0
  3
SLDDIMSTYLE0
100
AcDbAlignedDimension
 13
104.3273796218
 23
138.2640077308
 33
0.0
 14
84.3273796218
 24
125.7640077308
 34
0.0
100
AcDbRotatedDimension
1001
ACAD
1000
DSTYLE
1002
{
1070
    77
1070
     3
1070
   143
1040
0.0393700787
1070
    41
1040
3.0
1070
    44
1040
1.0
1070
    42
1040
1.0
1070
   147
1040
1.524
1070
    73
1070
     0
1070
    74
1070
     0
1070
   140
1040
3.5
1070
   284
1070
    12
1070
    78
1070
    12
1002
}
  0
DIMENSION
  5
101
330
1F
100
AcDbEntity
  8
SLD-0
 62
     7
100
AcDbDimension
  2
*D9
 10
84.3273796218
 20
147.7700811488
 30
0.0
 11
75.3273796218
 21
147.7700811488
 31
0.0
 70
   160
 71
     1
 42
18.0
  3
SLDDIMSTYLE0
100
AcDbAlignedDimension
 13
66.3273796218
 23
125.7640077308
 33
0.0
 14
84.3273796218
 24
125.7640077308
 34
0.0
100
AcDbRotatedDimension
1001
ACAD
1000
DSTYLE
1002
{
1070
    77
1070
     3
1070
   143
1040
0.0393700787
1070
    41
1040
3.0
1070
    44
1040
1.0
1070
    42
1040
1.0
1070
   147
1040
1.524
1070
    73
1070
     0
1070
    74
1070
     0
1070
   140
1040
3.5
1070
   284
1070
    12
1070
    78
1070
    12
1002
}
  0
DIMENSION
  5
118
330
1F
100
AcDbEntity
  8
SLD-0
 62
     7
100
AcDbDimension
  2
*D10
 10
113.3314243134
 20
126.2640077308
 30
0.0
 11
113.3314243134
 21
118.6928101395
 31
0.0
 70
   160
 71
     1
 42
1.0
  3
SLDDIMSTYLE0
100
AcDbAlignedDimension
 13
56.339887444
 23
125.2640077308
 33
0.0
 14
56.339887444
 24
126.2640077308
 34
0.0
 50
90.0
100
AcDbRotatedDimension
1001
ACAD
1000
DSTYLE
1002
{
1070
    77
1070
     3
1070
   143
1040
0.0393700787
1070
    41
1040
3.0
1070
    44
1040
1.0
1070
    42
1040
1.0
1070
   147
1040
1.524
1070
    73
1070
     0
1070
    74
1070
     0
1070
   140
1040
3.5
1070
   284
1070
    12
1070
    78
1070
    12
1002
}
  0
DIMENSION
  5
133
330
1F
100
AcDbEntity
  8
SLD-0
100
AcDbDimension
  2
*D11
 10
119.3363357141
 20
138.2640077308
 30
0.0
 11
119.3363357141
 21
132.0140077308
 31
0.0
 70
   160
 71
     1
 42
12.5
  3
SLDDIMSTYLE1
100
AcDbAlignedDimension
 13
92.8273796218
 23
125.7640077308
 33
0.0
 14
102.8273796218
 24
138.2640077308
 34
0.0
 50
90.0
100
AcDbRotatedDimension
1001
ACAD
1000
DSTYLE
1002
{
1070
    77
1070
     3
1070
   143
1040
0.0393700787
1070
    41
1040
3.0
1070
    44
1040
1.0
1070
    42
1040
1.0
1070
   147
1040
1.524
1070
    73
1070
     0
1070
    74
1070
     0
1070
   140
1040
3.5
1070
   284
1070
    12
1070
    78
1070
    12
1002
}
  0
DIMENSION
  5
14E
330
1F
100
AcDbEntity
  8
SLD-0
 62
     7
100
AcDbDimension
  2
*D12
 10
181.3254304782
 20
138.2640077308
 30
0.0
 11
181.3254304782
 21
125.7640077308
 31
0.0
 70
   160
 71
     1
 42
25.0
  3
SLDDIMSTYLE0
100
AcDbAlignedDimension
 13
167.0057324129
 23
113.2640077308
 33
0.0
 14
167.0057324129
 24
138.2640077308
 34
0.0
 50
90.0
100
AcDbRotatedDimension
1001
ACAD
1000
DSTYLE
1002
{
1070
    77
1070
     3
1070
   143
1040
0.0393700787
1070
    41
1040
3.0
1070
    44
1040
1.0
1070
    42
1040
1.0
1070
   147
1040
1.524
1070
    73
1070
     0
1070
    74
1070
     0
1070
   140
1040
3.5
1070
   284
1070
    12
1070
    78
1070
    12
1002
}
  0
DIMENSION
  5
166
330
1F
100
AcDbEntity
  8
SLD-0
 62
     7
100
AcDbDimension
  2
*D13
 10
44.3273796218
 20
233.6108369078
 30
0.0
 11
74.3273796218
 21
233.6108369078
 31
0.0
 70
   160
 71
     1
 42
60.0
  3
SLDDIMSTYLE0
100
AcDbAlignedDimension
 13
104.3273796218
 23
210.7782062739
 33
0.0
 14
44.3273796218
 24
210.7782062739
 34
0.0
100
AcDbRotatedDimension
1001
ACAD
1000
DSTYLE
1002
{
1070
    77
1070
     3
1070
   143
1040
0.0393700787
1070
    41
1040
3.0
1070
    44
1040
1.0
1070
    42
1040
1.0
1070
   147
1040
1.524
1070
    73
1070
     0
1070
    74
1070
     0
1070
   140
1040
3.5
1070
   284
1070
    12
1070
    78
1070
    12
1002
}
  0
DIMENSION
  5
17D
330
1F
100
AcDbEntity
  8
SLD-0
100
AcDbDimension
  2
*D14
 10
96.8273796218
 20
224.9561138627
 30
0.0
 11
74.3273796218
 21
224.9561138627
 31
0.0
 70
   160
 71
     1
 42
45.0
  3
SLDDIMSTYLE0
100
AcDbAlignedDimension
 13
51.8273796218
 23
206.2782062739
 33
0.0
 14
96.8273796218
 24
206.2782062739
 34
0.0
100
AcDbRotatedDimension
1001
ACAD
1000
DSTYLE
1002
{
1070
    77
1070
     3
1070
   143
1040
0.0393700787
1070
    41
1040
3.0
1070
    44
1040
1.0
1070
    42
1040
1.0
1070
   147
1040
1.524
1070
    73
1070
     0
1070
    74
1070
     0
1070
   140
1040
3.5
1070
   284
1070
    12
1070
    78
1070
    12
1002
}
  0
DIMENSION
  5
194
330
1F
100
AcDbEntity
  8
SLD-0
 62
     7
100
AcDbDimension
  2
*D15
 10
2.8522825625
 20
5.8407598397
 30
0.0
 11
137.370153818
 21
-5.391471175
 31
0.0
 70
   163
  1
2-<>,%%c11ｻﾞｸﾞﾘ深6.5
 71
     1
 42
6.4999993325
  3
SLDDIMSTYLE2
100
AcDbDiametricDimension
 15
0.0
 25
0.0
 35
0.0
 40
0.0
1001
ACAD
1000
DSTYLE
1002
{
1070
    77
1070
     0
1070
   143
1040
0.0393700787
1070
    41
1040
3.0
1070
    44
1040
1.0
1070
    42
1040
1.0
1070
   147
1040
1.524
1070
    73
1070
     1
1070
    74
1070
     1
1070
   140
1040
3.5
1070
   284
1070
    12
1070
    78
1070
    12
1002
}
  0
DIMENSION
  5
1AA
330
1F
100
AcDbEntity
  8
SLD-0
 62
     7
100
AcDbDimension
  2
*D16
 10
129.6594354561
 20
210.7782062739
 30
0.0
 11
129.6594354561
 21
198.2782062739
 31
0.0
 70
   160
 71
     1
 42
25.0
  3
SLDDIMSTYLE0
100
AcDbAlignedDimension
 13
102.8273796218
 23
185.7782062739
 33
0.0
 14
102.8273796218
 24
210.7782062739
 34
0.0
 50
90.0
100
AcDbRotatedDimension
1001
ACAD
1000
DSTYLE
1002
{
1070
    77
1070
     3
1070
   143
1040
0.0393700787
1070
    41
1040
3.0
1070
    44
1040
1.0
1070
    42
1040
1.0
1070
   147
1040
1.524
1070
    73
1070
     0
1070
    74
1070
     0
1070
   140
1040
3.5
1070
   284
1070
    12
1070
    78
1070
    12
1002
}
  0
DIMENSION
  5
1C2
330
1F
100
AcDbEntity
  8
SLD-0
 62
     7
100
AcDbDimension
  2
*D17
 10
120.6043060687
 20
210.7782062739
 30
0.0
 11
120.6043060687
 21
204.5282062739
 31
0.0
 70
   160
 71
     1
 42
12.5
  3
SLDDIMSTYLE1
100
AcDbAlignedDimension
 13
104.8273796218
 23
198.2782062739
 33
0.0
 14
102.8273796218
 24
210.7782062739
 34
0.0
 50
90.0
100
AcDbRotatedDimension
1001
ACAD
1000
DSTYLE
1002
{
1070
    77
1070
     3
1070
   143
1040
0.0393700787
1070
    41
1040
3.0
1070
    44
1040
1.0
1070
    42
1040
1.0
1070
   147
1040
1.524
1070
    73
1070
     0
1070
    74
1070
     0
1070
   140
1040
3.5
1070
   284
1070
    12
1070
    78
1070
    12
1002
}
  0
DIMENSION
  5
1DC
330
1F
100
AcDbEntity
  8
SLD-0
 62
     7
100
AcDbDimension
  2
*D18
 10
96.8273796218
 20
224.9561138627
 30
0.0
 11
100.5773796218
 21
224.9561138627
 31
0.0
 70
   160
 71
     1
 42
7.5
  3
SLDDIMSTYLE1
100
AcDbAlignedDimension
 13
104.3273796218
 23
210.7782062739
 33
0.0
 14
96.8273796218
 24
206.2782062739
 34
0.0
100
AcDbRotatedDimension
1001
ACAD
1000
DSTYLE
1002
{
1070
    77
1070
     3
1070
   143
1040
0.0393700787
1070
    41
1040
3.0
1070
    44
1040
1.0
1070
    42
1040
1.0
1070
   147
1040
1.524
1070
    73
1070
     0
1070
    74
1070
     0
1070
   140
1040
3.5
1070
   284
1070
    12
1070
    78
1070
    12
1002
}
  0
MTEXT
  5
1F6
330
1F
100
AcDbEntity
  8
SLD-0
 62
     7
100
AcDbMText
 10
147.3843459505
 20
29.7138882404
 30
0.0
 40
4.2333333333
 41
0.0
 71
     1
 72
     1
  1
N01861-104-1
  7
SLDTEXTSTYLE1
 73
     1
 44
1.0
  0
MTEXT
  5
1F8
330
1F
100
AcDbEntity
  8
SLD-0
 62
     7
100
AcDbMText
 10
134.6633794367
 20
43.2377018572
 30
0.0
 40
4.2333333333
 41
0.0
 71
     1
 72
     1
  1
20-12 Parallel Connecter
  7
SLDTEXTSTYLE2
 73
     1
 44
1.0
  0
MTEXT
  5
1F9
330
1F
100
AcDbEntity
  8
SLD-0
 62
     7
100
AcDbMText
 10
30.6944690881
 20
106.8132021742
 30
0.0
 40
3.5
 41
0.0
 71
     1
 72
     1
  1
4-
  7
SLDTEXTSTYLE1
 11
0.7595103446912564
 21
0.6504952238925116
 31
0.0
 73
     1
 44
1.0
  0
MTEXT
  5
1FA
330
1F
100
AcDbEntity
  8
SLD-0
 62
     7
100
AcDbMText
 10
33.7872538529
 20
109.4620689503
 30
0.0
 40
3.5
 41
0.0
 71
     1
 72
     1
  1
C
  7
SLDTEXTSTYLE1
 11
0.7595103446912564
 21
0.6504952238925116
 31
0.0
 73
     1
 44
1.0
  0
MTEXT
  5
1FB
330
1F
100
AcDbEntity
  8
SLD-0
 62
     7
100
AcDbMText
 10
35.3336462352
 20
110.7865023384
 30
0.0
 40
3.5
 41
0.0
 71
     1
 72
     1
  1
1.5
  7
SLDTEXTSTYLE1
 11
0.7595103446912564
 21
0.6504952238925116
 31
0.0
 73
     1
 44
1.0
  0
MTEXT
  5
1FC
330
1F
100
AcDbEntity
  8
SLD-0
 62
     7
100
AcDbMText
 10
106.6722905557
 20
107.6554907194
 30
0.0
 40
3.5
 41
0.0
 71
     1
 72
     1
  1
2-M6
  7
SLDTEXTSTYLE1
 73
     1
 44
1.0
  0
HATCH
  5
1FD
330
1F
100
AcDbEntity
  8
0
  6
Continuous
 62
   179
100
AcDbHatch
 10
0.0
 20
0.0
 30
0.0
210
0.0
220
0.0
230
1.0
  2
ANSI31
 70
     0
 71
     0
 91
        1
 92
        0
 93
        3
 72
     1
 10
99.60005575093896
 20
111.4238455750247
 11
98.87235293760432
 21
110.7379530065675
 72
     1
 10
98.87235293760432
 20
110.7379530065675
 11
97.17852663890001
 21
113.2640077308
 72
     1
 10
97.17852663890001
 20
113.2640077308
 11
99.60005575093896
 21
111.4238455750247
 97
        0
 75
     0
 76
     1
 52
0.0
 41
1.0
 77
     0
 78
     1
 53
45.00000209717174
 43
0.0
 44
0.0
 45
-2.245064112442359
 46
2.245063948092215
 79
     0
 98
        1
 10
0.0
 20
0.0
  0
INSERT
  5
1FE
330
1F
100
AcDbEntity
  8
0
  6
Continuous
 62
     7
370
     0
100
AcDbBlockReference
  2
_OPEN30
 10
45.0773796218
 20
114.0140077308
 30
0.0
 41
3.0
 42
3.0
 43
3.0
 50
40.72344146
  0
INSERT
  5
1FF
330
1F
100
AcDbEntity
  8
0
  6
Continuous
 62
     7
370
     0
100
AcDbBlockReference
  2
SW_CENTERMARK0
 10
0.0
 20
0.0
 30
0.0
  0
INSERT
  5
200
330
1F
100
AcDbEntity
  8
0
  6
Continuous
 62
     7
370
     0
100
AcDbBlockReference
  2
SW_CENTERMARK1
 10
0.0
 20
0.0
 30
0.0
  0
INSERT
  5
201
330
1F
100
AcDbEntity
  8
0
  6
Continuous
 62
     7
370
     0
100
AcDbBlockReference
  2
SW_CENTERMARK2
 10
0.0
 20
0.0
 30
0.0
  0
INSERT
  5
202
330
1F
100
AcDbEntity
  8
0
  6
Continuous
 62
     7
370
     0
100
AcDbBlockReference
  2
SW_CENTERMARK3
 10
0.0
 20
0.0
 30
0.0
  0
ENDSEC
  0
SECTION
  2
OBJECTS
  0
DICTIONARY
  5
C
330
0
100
AcDbDictionary
281
     1
  3
ACAD_GROUP
350
D
  3
ACAD_LAYOUT
350
1A
  3
ACAD_MLINESTYLE
350
17
  3
ACAD_PLOTSETTINGS
350
19
  3
ACAD_PLOTSTYLENAME
350
E
  0
DICTIONARY
  5
D
102
{ACAD_REACTORS
330
C
102
}
330
C
100
AcDbDictionary
281
     1
  0
DICTIONARY
  5
1A
102
{ACAD_REACTORS
330
C
102
}
330
C
100
AcDbDictionary
281
     1
  3
Layout1
350
1E
  3
Layout2
350
26
  3
Model
350
22
  0
DICTIONARY
  5
17
102
{ACAD_REACTORS
330
C
102
}
330
C
100
AcDbDictionary
281
     1
  3
Standard
350
18
  0
DICTIONARY
  5
19
102
{ACAD_REACTORS
330
C
102
}
330
C
100
AcDbDictionary
281
     1
  0
ACDBDICTIONARYWDFLT
  5
E
102
{ACAD_REACTORS
330
C
102
}
330
C
100
AcDbDictionary
281
     1
  3
Normal
350
F
100
AcDbDictionaryWithDefault
340
F
  0
LAYOUT
  5
1E
102
{ACAD_REACTORS
330
1A
102
}
330
1A
100
AcDbPlotSettings
  1

  2

  4

  6

 40
0.0
 41
0.0
 42
0.0
 43
0.0
 44
0.0
 45
0.0
 46
0.0
 47
0.0
 48
0.0
 49
0.0
140
0.0
141
0.0
142
1.0
143
1.0
 70
   688
 72
     0
 73
     0
 74
     5
  7

 75
    16
147
1.0
148
0.0
149
0.0
100
AcDbLayout
  1
Layout1
 70
     1
 71
     1
 10
0.0
 20
0.0
 11
0.0
 21
0.0
 12
0.0
 22
0.0
 32
0.0
 14
0.0
 24
0.0
 34
0.0
 15
0.0
 25
0.0
 35
0.0
146
0.0
 13
0.0
 23
0.0
 33
0.0
 16
1.0
 26
0.0
 36
0.0
 17
0.0
 27
1.0
 37
0.0
 76
     0
330
1B
  0
LAYOUT
  5
26
102
{ACAD_REACTORS
330
1A
102
}
330
1A
100
AcDbPlotSettings
  1

  2

  4

  6

 40
0.0
 41
0.0
 42
0.0
 43
0.0
 44
0.0
 45
0.0
 46
0.0
 47
0.0
 48
0.0
 49
0.0
140
0.0
141
0.0
142
1.0
143
1.0
 70
   688
 72
     0
 73
     0
 74
     5
  7

 75
    16
147
1.0
148
0.0
149
0.0
100
AcDbLayout
  1
Layout2
 70
     1
 71
     2
 10
0.0
 20
0.0
 11
0.0
 21
0.0
 12
0.0
 22
0.0
 32
0.0
 14
0.0
 24
0.0
 34
0.0
 15
0.0
 25
0.0
 35
0.0
146
0.0
 13
0.0
 23
0.0
 33
0.0
 16
1.0
 26
0.0
 36
0.0
 17
0.0
 27
1.0
 37
0.0
 76
     0
330
23
  0
LAYOUT
  5
22
102
{ACAD_REACTORS
330
1A
102
}
330
1A
100
AcDbPlotSettings
  1

  2

  4

  6

 40
0.0
 41
0.0
 42
0.0
 43
0.0
 44
0.0
 45
0.0
 46
0.0
 47
0.0
 48
0.0
 49
0.0
140
0.0
141
0.0
142
1.0
143
1.0
 70
  1712
 72
     0
 73
     0
 74
     0
  7

 75
     0
147
1.0
148
0.0
149
0.0
100
AcDbLayout
  1
Model
 70
     1
 71
     0
 10
0.0
 20
0.0
 11
0.0
 21
0.0
 12
0.0
 22
0.0
 32
0.0
 14
0.0
 24
0.0
 34
0.0
 15
210.0
 25
297.0
 35
0.0
146
0.0
 13
0.0
 23
0.0
 33
0.0
 16
1.0
 26
0.0
 36
0.0
 17
0.0
 27
1.0
 37
0.0
 76
     0
330
1F
  0
MLINESTYLE
  5
18
102
{ACAD_REACTORS
330
17
102
}
330
17
100
AcDbMlineStyle
  2
Standard
 70
     0
  3

 62
   256
 51
90.0
 52
90.0
 71
     2
 49
0.5
 62
   256
  6
BYLAYER
 49
-0.5
 62
   256
  6
BYLAYER
  0
ACDBPLACEHOLDER
  5
F
102
{ACAD_REACTORS
330
E
102
}
330
E
  0
ENDSEC
  0
EOF
