  0
SECTION
  2
HEADER
  9
$ACADVER
  1
AC1015
  9
$ACADMAINTVER
 70
     6
  9
$DWGCODEPAGE
  3
DOS932
  9
$INSBASE
 10
0.0
 20
0.0
 30
0.0
  9
$EXTMIN
 10
0.0
 20
0.0
 30
0.0
  9
$EXTMAX
 10
210.0
 20
297.0
 30
0.0
  9
$LIMMIN
 10
0.0
 20
0.0
  9
$LIMMAX
 10
0.0
 20
0.0
  9
$ORTHOMODE
 70
     0
  9
$REGENMODE
 70
     1
  9
$FILLMODE
 70
     1
  9
$QTEXTMODE
 70
     0
  9
$MIRRTEXT
 70
     1
  9
$LTSCALE
 40
1.0
  9
$ATTMODE
 70
     1
  9
$TEXTSIZE
 40
3.5
  9
$TRACEWID
 40
1.0
  9
$TEXTSTYLE
  7
Standard
  9
$CLAYER
  8
0
  9
$CELTYPE
  6
ByLayer
  9
$CECOLOR
 62
   256
  9
$CELTSCALE
 40
1.0
  9
$DISPSILH
 70
     0
  9
$DIMSCALE
 40
1.0
  9
$DIMASZ
 40
3.0
  9
$DIMEXO
 40
1.0
  9
$DIMDLI
 40
3.75
  9
$DIMRND
 40
0.0
  9
$DIMDLE
 40
0.0
  9
$DIMEXE
 40
1.0
  9
$DIMTP
 40
0.0
  9
$DIMTM
 40
0.0
  9
$DIMTXT
 40
3.5
  9
$DIMCEN
 40
2.5
  9
$DIMTSZ
 40
0.0
  9
$DIMTOL
 70
     0
  9
$DIMLIM
 70
     0
  9
$DIMTIH
 70
     1
  9
$DIMTOH
 70
     1
  9
$DIMSE1
 70
     0
  9
$DIMSE2
 70
     0
  9
$DIMTAD
 70
     1
  9
$DIMZIN
 70
     1
  9
$DIMBLK
  1

  9
$DIMASO
 70
     1
  9
$DIMSHO
 70
     1
  9
$DIMPOST
  1

  9
$DIMAPOST
  1

  9
$DIMALT
 70
     0
  9
$DIMALTD
 70
     3
  9
$DIMALTF
 40
0.0393700787
  9
$DIMLFAC
 40
1.0
  9
$DIMTOFL
 70
     1
  9
$DIMTVP
 40
0.0
  9
$DIMTIX
 70
     0
  9
$DIMSOXD
 70
     0
  9
$DIMSAH
 70
     0
  9
$DIMBLK1
  1

  9
$DIMBLK2
  1

  9
$DIMSTYLE
  2
ISO-25
  9
$DIMCLRD
 70
     0
  9
$DIMCLRE
 70
     0
  9
$DIMCLRT
 70
     0
  9
$DIMTFAC
 40
1.0
  9
$DIMGAP
 40
1.524
  9
$DIMJUST
 70
     0
  9
$DIMSD1
 70
     0
  9
$DIMSD2
 70
     0
  9
$DIMTOLJ
 70
     0
  9
$DIMTZIN
 70
     1
  9
$DIMALTZ
 70
     0
  9
$DIMALTTZ
 70
     0
  9
$DIMUPT
 70
     0
  9
$DIMDEC
 70
     2
  9
$DIMTDEC
 70
     2
  9
$DIMALTU
 70
     2
  9
$DIMALTTD
 70
     3
  9
$DIMTXSTY
  7
Standard
  9
$DIMAUNIT
 70
     0
  9
$DIMADEC
 70
     0
  9
$DIMALTRND
 40
0.0
  9
$DIMAZIN
 70
     0
  9
$DIMDSEP
 70
    44
  9
$DIMATFIT
 70
     3
  9
$DIMFRAC
 70
     0
  9
$DIMLDRBLK
  1

  9
$DIMLUNIT
 70
     2
  9
$DIMLWD
 70
    -2
  9
$DIMLWE
 70
    -2
  9
$DIMTMOVE
 70
     0
  9
$LUNITS
 70
     2
  9
$LUPREC
 70
     1
  9
$SKETCHINC
 40
1.0
  9
$FILLETRAD
 40
10.0
  9
$AUNITS
 70
     0
  9
$AUPREC
 70
     0
  9
$MENU
  1
.
  9
$ELEVATION
 40
0.0
  9
$PELEVATION
 40
0.0
  9
$THICKNESS
 40
0.0
  9
$LIMCHECK
 70
     0
  9
$CHAMFERA
 40
10.0
  9
$CHAMFERB
 40
10.0
  9
$CHAMFERC
 40
20.0
  9
$CHAMFERD
 40
0.0
  9
$SKPOLY
 70
     0
  9
$TDCREATE
 40
2454322.486483461
  9
$TDUCREATE
 40
2454322.111483461
  9
$TDUPDATE
 40
2454322.486483472
  9
$TDUUPDATE
 40
2454322.111483472
  9
$TDINDWG
 40
0.0000000116
  9
$TDUSRTIMER
 40
0.0000000116
  9
$USRTIMER
 70
     1
  9
$ANGBASE
 50
0.0
  9
$ANGDIR
 70
     0
  9
$PDMODE
 70
     0
  9
$PDSIZE
 40
-1.0
  9
$PLINEWID
 40
0.0
  9
$SPLFRAME
 70
     0
  9
$SPLINETYPE
 70
     6
  9
$SPLINESEGS
 70
     8
  9
$HANDSEED
  5
1ED
  9
$SURFTAB1
 70
     6
  9
$SURFTAB2
 70
     6
  9
$SURFTYPE
 70
     6
  9
$SURFU
 70
     6
  9
$SURFV
 70
     6
  9
$UCSBASE
  2

  9
$UCSNAME
  2

  9
$UCSORG
 10
0.0
 20
0.0
 30
0.0
  9
$UCSXDIR
 10
1.0
 20
0.0
 30
0.0
  9
$UCSYDIR
 10
0.0
 20
1.0
 30
0.0
  9
$UCSORTHOREF
  2

  9
$UCSORTHOVIEW
 70
     0
  9
$UCSORGTOP
 10
0.0
 20
0.0
 30
0.0
  9
$UCSORGBOTTOM
 10
0.0
 20
0.0
 30
0.0
  9
$UCSORGLEFT
 10
0.0
 20
0.0
 30
0.0
  9
$UCSORGRIGHT
 10
0.0
 20
0.0
 30
0.0
  9
$UCSORGFRONT
 10
0.0
 20
0.0
 30
0.0
  9
$UCSORGBACK
 10
0.0
 20
0.0
 30
0.0
  9
$PUCSBASE
  2

  9
$PUCSNAME
  2

  9
$PUCSORG
 10
0.0
 20
0.0
 30
0.0
  9
$PUCSXDIR
 10
1.0
 20
0.0
 30
0.0
  9
$PUCSYDIR
 10
0.0
 20
1.0
 30
0.0
  9
$PUCSORTHOREF
  2

  9
$PUCSORTHOVIEW
 70
     0
  9
$PUCSORGTOP
 10
0.0
 20
0.0
 30
0.0
  9
$PUCSORGBOTTOM
 10
0.0
 20
0.0
 30
0.0
  9
$PUCSORGLEFT
 10
0.0
 20
0.0
 30
0.0
  9
$PUCSORGRIGHT
 10
0.0
 20
0.0
 30
0.0
  9
$PUCSORGFRONT
 10
0.0
 20
0.0
 30
0.0
  9
$PUCSORGBACK
 10
0.0
 20
0.0
 30
0.0
  9
$USERI1
 70
     0
  9
$USERI2
 70
     0
  9
$USERI3
 70
     0
  9
$USERI4
 70
     0
  9
$USERI5
 70
     0
  9
$USERR1
 40
0.0
  9
$USERR2
 40
0.0
  9
$USERR3
 40
0.0
  9
$USERR4
 40
0.0
  9
$USERR5
 40
0.0
  9
$WORLDVIEW
 70
     1
  9
$SHADEDGE
 70
     3
  9
$SHADEDIF
 70
    70
  9
$TILEMODE
 70
     1
  9
$MAXACTVP
 70
    64
  9
$PINSBASE
 10
0.0
 20
0.0
 30
0.0
  9
$PLIMCHECK
 70
     0
  9
$PEXTMIN
 10
1.0000000000E+20
 20
1.0000000000E+20
 30
1.0000000000E+20
  9
$PEXTMAX
 10
-1.0000000000E+20
 20
-1.0000000000E+20
 30
-1.0000000000E+20
  9
$PLIMMIN
 10
0.0
 20
0.0
  9
$PLIMMAX
 10
420.0
 20
297.0
  9
$UNITMODE
 70
     0
  9
$VISRETAIN
 70
     1
  9
$PLINEGEN
 70
     0
  9
$PSLTSCALE
 70
     1
  9
$TREEDEPTH
 70
  3020
  9
$CMLSTYLE
  2
Standard
  9
$CMLJUST
 70
     0
  9
$CMLSCALE
 40
20.0
  9
$PROXYGRAPHICS
 70
     1
  9
$MEASUREMENT
 70
     1
  9
$CELWEIGHT
370
    -1
  9
$ENDCAPS
280
     0
  9
$JOINSTYLE
280
     0
  9
$LWDISPLAY
290
     1
  9
$INSUNITS
 70
     4
  9
$HYPERLINKBASE
  1

  9
$STYLESHEET
  1

  9
$XEDIT
290
     1
  9
$CEPSNTYPE
380
     0
  9
$PSTYLEMODE
290
     1
  9
$FINGERPRINTGUID
  2
{33BF403A-B1B6-4B3D-A58A-A74E042743A7}
  9
$VERSIONGUID
  2
{FAEB1C32-E019-11D5-929B-00C0DF256EC4}
  9
$EXTNAMES
290
     1
  9
$PSVPSCALE
 40
0.0
  9
$OLESTARTUP
290
     0
  0
ENDSEC
  0
SECTION
  2
CLASSES
  0
CLASS
  1
ACDBDICTIONARYWDFLT
  2
AcDbDictionaryWithDefault
  3
ObjectDBX Classes
 90
        0
280
     0
281
     0
  0
CLASS
  1
ACDBPLACEHOLDER
  2
AcDbPlaceHolder
  3
ObjectDBX Classes
 90
        0
280
     0
281
     0
  0
CLASS
  1
LAYOUT
  2
AcDbLayout
  3
ObjectDBX Classes
 90
        0
280
     0
281
     0
  0
ENDSEC
  0
SECTION
  2
TABLES
  0
TABLE
  2
VPORT
  5
8
330
0
100
AcDbSymbolTable
 70
     1
  0
VPORT
  5
29
330
8
100
AcDbSymbolTableRecord
100
AcDbViewportTableRecord
  2
*Active
 70
     0
 10
0.0
 20
0.0
 11
1.0
 21
1.0
 12
105.0
 22
148.5
 13
0.0
 23
0.0
 14
10.0
 24
10.0
 15
10.0
 25
10.0
 16
0.0
 26
0.0
 36
1.0
 17
0.0
 27
0.0
 37
0.0
 40
297.0
 41
1.9729729729
 42
50.0
 43
0.0
 44
0.0
 50
0.0
 51
0.0
 71
     0
 72
  2000
 73
     1
 74
     3
 75
     0
 76
     0
 77
     0
 78
     0
281
     0
 65
     1
110
0.0
120
0.0
130
0.0
111
1.0
121
0.0
131
0.0
112
0.0
122
1.0
132
0.0
 79
     0
146
0.0
  0
ENDTAB
  0
TABLE
  2
LTYPE
  5
5
330
0
100
AcDbSymbolTable
 70
     6
  0
LTYPE
  5
14
330
5
100
AcDbSymbolTableRecord
100
AcDbLinetypeTableRecord
  2
ByBlock
 70
     0
  3

 72
    65
 73
     0
 40
0.0
  0
LTYPE
  5
15
330
5
100
AcDbSymbolTableRecord
100
AcDbLinetypeTableRecord
  2
ByLayer
 70
     0
  3

 72
    65
 73
     0
 40
0.0
  0
LTYPE
  5
16
330
5
100
AcDbSymbolTableRecord
100
AcDbLinetypeTableRecord
  2
Continuous
 70
     0
  3
Solid line
 72
    65
 73
     0
 40
0.0
  0
LTYPE
  5
2A
330
5
100
AcDbSymbolTableRecord
100
AcDbLinetypeTableRecord
  2
HIDDEN
 70
     0
  3
Hidden __ __ __ __ __ __ __ __ __ __ __ __ __ __
 72
    65
 73
     2
 40
1.905
 49
1.27
 74
     0
 49
-0.635
 74
     0
  0
LTYPE
  5
2B
330
5
100
AcDbSymbolTableRecord
100
AcDbLinetypeTableRecord
  2
PHANTOM
 70
     0
  3
Phantom ______  __  __  ______  __  __  ______
 72
    65
 73
     6
 40
12.7
 49
6.35
 74
     0
 49
-1.27
 74
     0
 49
1.27
 74
     0
 49
-1.27
 74
     0
 49
1.27
 74
     0
 49
-1.27
 74
     0
  0
LTYPE
  5
2C
330
5
100
AcDbSymbolTableRecord
100
AcDbLinetypeTableRecord
  2
CENTER
 70
     0
  3
Center ____ _ ____ _ ____ _ ____ _ ____ _ ____
 72
    65
 73
     4
 40
10.16
 49
6.35
 74
     0
 49
-1.27
 74
     0
 49
1.27
 74
     0
 49
-1.27
 74
     0
  0
LTYPE
  5
2D
330
5
100
AcDbSymbolTableRecord
100
AcDbLinetypeTableRecord
  2
CENTERX2
 70
     0
  3
Center (2x) ________  __  ________  __  _____
 72
    65
 73
     4
 40
20.32
 49
12.7
 74
     0
 49
-2.54
 74
     0
 49
2.54
 74
     0
 49
-2.54
 74
     0
  0
LTYPE
  5
2E
330
5
100
AcDbSymbolTableRecord
100
AcDbLinetypeTableRecord
  2
DOT2
 70
     0
  3
Dot (.5x) ........................................
 72
    65
 73
     2
 40
0.635
 49
0.0
 74
     0
 49
-0.635
 74
     0
  0
ENDTAB
  0
TABLE
  2
LAYER
  5
2
330
0
100
AcDbSymbolTable
 70
     4
  0
LAYER
  5
10
330
2
100
AcDbSymbolTableRecord
100
AcDbLayerTableRecord
  2
0
 70
     0
 62
     7
  6
Continuous
370
    -3
390
F
  0
LAYER
  5
2F
330
2
100
AcDbSymbolTableRecord
100
AcDbLayerTableRecord
  2
SLD-0
 70
     0
 62
   179
  6
Continuous
370
     0
390
F
  0
LAYER
  5
30
330
2
100
AcDbSymbolTableRecord
100
AcDbLayerTableRecord
  2
SLD-DEFPOINTS
 70
     0
 62
   179
  6
Continuous
370
     0
390
F
  0
LAYER
  5
EA
330
2
100
AcDbSymbolTableRecord
100
AcDbLayerTableRecord
  2
Defpoints
 70
     0
 62
     7
  6
Continuous
290
     0
370
    -3
390
F
  0
ENDTAB
  0
TABLE
  2
STYLE
  5
3
330
0
100
AcDbSymbolTable
 70
     4
  0
STYLE
  5
11
330
3
100
AcDbSymbolTableRecord
100
AcDbTextStyleTableRecord
  2
Standard
 70
     0
 40
0.0
 41
1.0
 50
0.0
 71
     0
 42
2.5
  3
txt
  4
bigfont
  0
STYLE
  5
34
330
3
100
AcDbSymbolTableRecord
100
AcDbTextStyleTableRecord
  2
SLDTEXTSTYLE0
 70
     0
 40
0.0
 41
0.7
 50
0.0
 71
     0
 42
0.2
  3
TXT
  4
bigfont
  0
STYLE
  5
40
330
3
100
AcDbSymbolTableRecord
100
AcDbTextStyleTableRecord
  2
SLDTEXTSTYLE1
 70
     0
 40
0.0
 41
0.5526315789
 50
0.0
 71
     0
 42
0.2
  3
TXT
  4
bigfont
  0
STYLE
  5
1E1
330
3
100
AcDbSymbolTableRecord
100
AcDbTextStyleTableRecord
  2
SLDTEXTSTYLE2
 70
     0
 40
0.0
 41
0.5081271293
 50
0.0
 71
     0
 42
0.2
  3
TXT
  4
bigfont
  0
ENDTAB
  0
TABLE
  2
VIEW
  5
6
330
0
100
AcDbSymbolTable
 70
     0
  0
ENDTAB
  0
TABLE
  2
UCS
  5
7
330
0
100
AcDbSymbolTable
 70
     0
  0
ENDTAB
  0
TABLE
  2
APPID
  5
9
330
0
100
AcDbSymbolTable
 70
     1
  0
APPID
  5
12
330
9
100
AcDbSymbolTableRecord
100
AcDbRegAppTableRecord
  2
ACAD
 70
     0
  0
ENDTAB
  0
TABLE
  2
DIMSTYLE
  5
A
330
0
100
AcDbSymbolTable
 70
     5
100
AcDbDimStyleTable
  0
DIMSTYLE
105
27
330
A
100
AcDbSymbolTableRecord
100
AcDbDimStyleTableRecord
  2
ISO-25
 70
     0
 41
2.5
 42
0.625
 43
3.75
 44
1.25
 73
     0
 74
     0
 77
     1
 78
     8
140
2.5
141
2.5
143
0.0393700787
147
0.625
171
     3
172
     1
271
     2
272
     2
274
     3
278
    44
283
     0
284
     8
340
11
  0
DIMSTYLE
105
F7
102
{ACAD_REACTORS
330
E9
102
}
330
A
100
AcDbSymbolTableRecord
100
AcDbDimStyleTableRecord
  2
SLDDIMSTYLE0
 70
     0
 41
3.0
 44
0.0
 73
     0
 74
     0
 77
     3
 78
    12
140
3.5
147
0.875
173
     1
271
     1
272
     3
284
    12
340
40
341
F8
343
F8
344
F8
  0
DIMSTYLE
105
112
102
{ACAD_REACTORS
330
105
330
139
330
153
330
16A
330
182
330
199
330
1C6
102
}
330
A
100
AcDbSymbolTableRecord
100
AcDbDimStyleTableRecord
  2
SLDDIMSTYLE1
 70
     0
 41
3.0
 44
0.0
 73
     0
 74
     0
 77
     3
 78
    12
140
3.5
147
0.875
173
     1
271
     0
272
     3
284
    12
340
40
341
F8
343
F8
344
F8
  0
DIMSTYLE
105
12C
102
{ACAD_REACTORS
330
11D
102
}
330
A
100
AcDbSymbolTableRecord
100
AcDbDimStyleTableRecord
  2
SLDDIMSTYLE2
 70
     0
 41
3.0
 44
0.0
 73
     0
 74
     0
 77
     3
 78
     8
140
3.5
147
0.875
173
     1
271
     1
272
     3
284
    12
340
40
341
F8
343
F8
344
F8
  0
DIMSTYLE
105
1BA
102
{ACAD_REACTORS
330
1B0
102
}
330
A
100
AcDbSymbolTableRecord
100
AcDbDimStyleTableRecord
  2
SLDDIMSTYLE3
 70
     0
 41
3.0
 44
0.0
 78
    12
140
3.5
147
0.875
172
     1
173
     1
271
     1
272
     3
284
    12
340
40
341
F8
343
F8
344
F8
  0
ENDTAB
  0
TABLE
  2
BLOCK_RECORD
  5
1
330
0
100
AcDbSymbolTable
 70
    19
  0
BLOCK_RECORD
  5
1F
330
1
100
AcDbSymbolTableRecord
100
AcDbBlockTableRecord
  2
*Model_Space
340
22
  0
BLOCK_RECORD
  5
1B
330
1
100
AcDbSymbolTableRecord
100
AcDbBlockTableRecord
  2
*Paper_Space
340
1E
  0
BLOCK_RECORD
  5
23
330
1
100
AcDbSymbolTableRecord
100
AcDbBlockTableRecord
  2
*Paper_Space0
340
26
  0
BLOCK_RECORD
  5
31
330
1
100
AcDbSymbolTableRecord
100
AcDbBlockTableRecord
  2
注記
340
0
  0
BLOCK_RECORD
  5
37
330
1
100
AcDbSymbolTableRecord
100
AcDbBlockTableRecord
  2
_OPEN30
340
0
102
{BLKREFS
331
1E7
102
}
  0
BLOCK_RECORD
  5
3D
330
1
100
AcDbSymbolTableRecord
100
AcDbBlockTableRecord
  2
NOTE48
340
0
102
{BLKREFS
331
1E8
102
}
  0
BLOCK_RECORD
  5
42
330
1
100
AcDbSymbolTableRecord
100
AcDbBlockTableRecord
  2
SW_CENTERMARK0
340
0
102
{BLKREFS
331
1E9
102
}
  0
BLOCK_RECORD
  5
4D
330
1
100
AcDbSymbolTableRecord
100
AcDbBlockTableRecord
  2
SW_CENTERMARK1
340
0
102
{BLKREFS
331
1EA
102
}
  0
BLOCK_RECORD
  5
58
330
1
100
AcDbSymbolTableRecord
100
AcDbBlockTableRecord
  2
SW_CENTERMARK2
340
0
102
{BLKREFS
331
1EB
102
}
  0
BLOCK_RECORD
  5
63
330
1
100
AcDbSymbolTableRecord
100
AcDbBlockTableRecord
  2
SW_CENTERMARK3
340
0
102
{BLKREFS
331
1EC
102
}
  0
BLOCK_RECORD
  5
EB
330
1
100
AcDbSymbolTableRecord
100
AcDbBlockTableRecord
  2
*D8
340
0
  0
BLOCK_RECORD
  5
F8
330
1
100
AcDbSymbolTableRecord
100
AcDbBlockTableRecord
  2
_None
340
0
102
{BLKREFS
331
F0
331
EF
331
10B
331
10A
331
124
331
123
331
13F
331
13E
331
159
331
158
331
170
331
16F
331
188
331
187
331
19F
331
19E
331
1B5
331
1CC
331
1CB
102
}
  0
BLOCK_RECORD
  5
106
330
1
100
AcDbSymbolTableRecord
100
AcDbBlockTableRecord
  2
*D10
340
0
  0
BLOCK_RECORD
  5
11E
330
1
100
AcDbSymbolTableRecord
100
AcDbBlockTableRecord
  2
*D11
340
0
  0
BLOCK_RECORD
  5
13A
330
1
100
AcDbSymbolTableRecord
100
AcDbBlockTableRecord
  2
*D12
340
0
  0
BLOCK_RECORD
  5
154
330
1
100
AcDbSymbolTableRecord
100
AcDbBlockTableRecord
  2
*D13
340
0
  0
BLOCK_RECORD
  5
16B
330
1
100
AcDbSymbolTableRecord
100
AcDbBlockTableRecord
  2
*D14
340
0
  0
BLOCK_RECORD
  5
183
330
1
100
AcDbSymbolTableRecord
100
AcDbBlockTableRecord
  2
*D15
340
0
  0
BLOCK_RECORD
  5
19A
330
1
100
AcDbSymbolTableRecord
100
AcDbBlockTableRecord
  2
*D16
340
0
  0
BLOCK_RECORD
  5
1B1
330
1
100
AcDbSymbolTableRecord
100
AcDbBlockTableRecord
  2
*D17
340
0
  0
BLOCK_RECORD
  5
1C7
330
1
100
AcDbSymbolTableRecord
100
AcDbBlockTableRecord
  2
*D18
340
0
  0
ENDTAB
  0
ENDSEC
  0
SECTION
  2
BLOCKS
  0
BLOCK
  5
20
330
1F
100
AcDbEntity
  8
0
100
AcDbBlockBegin
  2
*Model_Space
 70
     0
 71
     0
 10
0.0
 20
0.0
 30
0.0
  3
*Model_Space
  1

  0
ENDBLK
  5
21
330
1F
100
AcDbEntity
  8
0
100
AcDbBlockEnd
  0
BLOCK
  5
1C
330
1B
100
AcDbEntity
 67
     1
  8
0
100
AcDbBlockBegin
  2
*Paper_Space
 70
     0
 71
     0
 10
0.0
 20
0.0
 30
0.0
  3
*Paper_Space
  1

  0
ENDBLK
  5
1D
330
1B
100
AcDbEntity
 67
     1
  8
0
100
AcDbBlockEnd
  0
BLOCK
  5
24
330
23
100
AcDbEntity
  8
0
100
AcDbBlockBegin
  2
*Paper_Space0
 70
     0
 71
     0
 10
0.0
 20
0.0
 30
0.0
  3
*Paper_Space0
  1

  0
ENDBLK
  5
25
330
23
100
AcDbEntity
  8
0
100
AcDbBlockEnd
  0
BLOCK
  5
32
330
31
100
AcDbEntity
  8
0
100
AcDbBlockBegin
  2
注記
 70
     0
 71
     0
 10
0.0
 20
0.0
 30
0.0
  3
注記
  1

  0
MTEXT
  5
35
330
31
100
AcDbEntity
  8
0
  6
Continuous
 62
     7
370
     0
100
AcDbMText
 10
0.2636785918
 20
9.0739778448
 30
0.0
 40
3.5
 41
0.0
 71
     1
 72
     1
  1
１．特記ナキ角部ハ、バリ　カエリノ無キコト。
  7
SLDTEXTSTYLE0
 73
     1
 44
1.0
  0
MTEXT
  5
36
330
31
100
AcDbEntity
  8
0
  6
Continuous
 62
     7
370
     0
100
AcDbMText
 10
0.2636785918
 20
3.5759549983
 30
0.0
 40
3.5
 41
0.0
 71
     1
 72
     1
  1
２．特記ナキ隅部ハ、Ｒ０．４ＭＡＸトスル。
  7
SLDTEXTSTYLE0
 73
     1
 44
1.0
  0
ENDBLK
  5
33
330
31
100
AcDbEntity
  8
0
100
AcDbBlockEnd
  0
BLOCK
  5
38
330
37
100
AcDbEntity
  8
0
100
AcDbBlockBegin
  2
_OPEN30
 70
     0
 71
     0
 10
0.0
 20
0.0
 30
0.0
  3
_OPEN30
  1

  0
LINE
  5
3A
330
37
100
AcDbEntity
  8
SLD-0
  6
Continuous
100
AcDbLine
 10
-1.0
 20
0.267949
 30
0.0
 11
0.0
 21
0.0
 31
0.0
  0
LINE
  5
3B
330
37
100
AcDbEntity
  8
SLD-0
  6
Continuous
100
AcDbLine
 10
0.0
 20
0.0
 30
0.0
 11
-1.0
 21
-0.267949
 31
0.0
  0
LINE
  5
3C
330
37
100
AcDbEntity
  8
SLD-0
  6
Continuous
100
AcDbLine
 10
0.0
 20
0.0
 30
0.0
 11
-1.0
 21
0.0
 31
0.0
  0
ENDBLK
  5
39
330
37
100
AcDbEntity
  8
0
100
AcDbBlockEnd
  0
BLOCK
  5
3E
330
3D
100
AcDbEntity
  8
0
100
AcDbBlockBegin
  2
NOTE48
 70
     0
 71
     0
 10
0.0
 20
0.0
 30
0.0
  3
NOTE48
  1

  0
MTEXT
  5
41
330
3D
100
AcDbEntity
  8
SLD-0
100
AcDbMText
 10
0.0007330227
 20
3.9331313517
 30
0.0
 40
3.5
 41
0.0
 71
     1
 72
     1
  1
2-M4
  7
SLDTEXTSTYLE1
 73
     1
 44
1.0
  0
ENDBLK
  5
3F
330
3D
100
AcDbEntity
  8
0
100
AcDbBlockEnd
  0
BLOCK
  5
43
330
42
100
AcDbEntity
  8
0
100
AcDbBlockBegin
  2
SW_CENTERMARK0
 70
     0
 71
     0
 10
0.0
 20
0.0
 30
0.0
  3
SW_CENTERMARK0
  1

  0
LINE
  5
45
330
42
100
AcDbEntity
  8
SLD-0
  6
Continuous
 62
   179
100
AcDbLine
 10
76.7892273987
 20
143.2130673043
 30
0.0
 11
76.7892273987
 21
145.7130673043
 31
0.0
  0
LINE
  5
46
330
42
100
AcDbEntity
  8
SLD-0
  6
Continuous
 62
   179
100
AcDbLine
 10
76.7892273987
 20
143.2130673043
 30
0.0
 11
74.2892273987
 21
143.2130673043
 31
0.0
  0
LINE
  5
47
330
42
100
AcDbEntity
  8
SLD-0
  6
Continuous
 62
   179
100
AcDbLine
 10
76.7892273987
 20
143.2130673043
 30
0.0
 11
76.7892273987
 21
140.7130673043
 31
0.0
  0
LINE
  5
48
330
42
100
AcDbEntity
  8
SLD-0
  6
Continuous
 62
   179
100
AcDbLine
 10
76.7892273987
 20
143.2130673043
 30
0.0
 11
79.2892273987
 21
143.2130673043
 31
0.0
  0
LINE
  5
49
330
42
100
AcDbEntity
  8
SLD-0
  6
Continuous
 62
   179
100
AcDbLine
 10
76.7892273987
 20
148.2130673043
 30
0.0
 11
76.7892273987
 21
149.7130673043
 31
0.0
  0
LINE
  5
4A
330
42
100
AcDbEntity
  8
SLD-0
  6
Continuous
 62
   179
100
AcDbLine
 10
71.7892273987
 20
143.2130673043
 30
0.0
 11
70.2892273987
 21
143.2130673043
 31
0.0
  0
LINE
  5
4B
330
42
100
AcDbEntity
  8
SLD-0
  6
Continuous
 62
   179
100
AcDbLine
 10
76.7892273987
 20
138.2130673043
 30
0.0
 11
76.7892273987
 21
136.7130673043
 31
0.0
  0
LINE
  5
4C
330
42
100
AcDbEntity
  8
SLD-0
  6
Continuous
 62
   179
100
AcDbLine
 10
81.7892273987
 20
143.2130673043
 30
0.0
 11
83.2892273987
 21
143.2130673043
 31
0.0
  0
ENDBLK
  5
44
330
42
100
AcDbEntity
  8
0
100
AcDbBlockEnd
  0
BLOCK
  5
4E
330
4D
100
AcDbEntity
  8
0
100
AcDbBlockBegin
  2
SW_CENTERMARK1
 70
     0
 71
     0
 10
0.0
 20
0.0
 30
0.0
  3
SW_CENTERMARK1
  1

  0
LINE
  5
50
330
4D
100
AcDbEntity
  8
SLD-0
  6
Continuous
 62
   179
100
AcDbLine
 10
86.7892273987
 20
143.2130673043
 30
0.0
 11
86.7892273987
 21
145.7130673043
 31
0.0
  0
LINE
  5
51
330
4D
100
AcDbEntity
  8
SLD-0
  6
Continuous
 62
   179
100
AcDbLine
 10
86.7892273987
 20
143.2130673043
 30
0.0
 11
84.2892273987
 21
143.2130673043
 31
0.0
  0
LINE
  5
52
330
4D
100
AcDbEntity
  8
SLD-0
  6
Continuous
 62
   179
100
AcDbLine
 10
86.7892273987
 20
143.2130673043
 30
0.0
 11
86.7892273987
 21
140.7130673043
 31
0.0
  0
LINE
  5
53
330
4D
100
AcDbEntity
  8
SLD-0
  6
Continuous
 62
   179
100
AcDbLine
 10
86.7892273987
 20
143.2130673043
 30
0.0
 11
89.2892273987
 21
143.2130673043
 31
0.0
  0
LINE
  5
54
330
4D
100
AcDbEntity
  8
SLD-0
  6
Continuous
 62
   179
100
AcDbLine
 10
86.7892273987
 20
148.2130673043
 30
0.0
 11
86.7892273987
 21
149.7130673043
 31
0.0
  0
LINE
  5
55
330
4D
100
AcDbEntity
  8
SLD-0
  6
Continuous
 62
   179
100
AcDbLine
 10
81.7892273987
 20
143.2130673043
 30
0.0
 11
80.2892273987
 21
143.2130673043
 31
0.0
  0
LINE
  5
56
330
4D
100
AcDbEntity
  8
SLD-0
  6
Continuous
 62
   179
100
AcDbLine
 10
86.7892273987
 20
138.2130673043
 30
0.0
 11
86.7892273987
 21
136.7130673043
 31
0.0
  0
LINE
  5
57
330
4D
100
AcDbEntity
  8
SLD-0
  6
Continuous
 62
   179
100
AcDbLine
 10
91.7892273987
 20
143.2130673043
 30
0.0
 11
93.2892273987
 21
143.2130673043
 31
0.0
  0
ENDBLK
  5
4F
330
4D
100
AcDbEntity
  8
0
100
AcDbBlockEnd
  0
BLOCK
  5
59
330
58
100
AcDbEntity
  8
0
100
AcDbBlockBegin
  2
SW_CENTERMARK2
 70
     0
 71
     0
 10
0.0
 20
0.0
 30
0.0
  3
SW_CENTERMARK2
  1

  0
LINE
  5
5B
330
58
100
AcDbEntity
  8
SLD-0
  6
Continuous
 62
   179
100
AcDbLine
 10
94.2892273987
 20
198.2782062739
 30
0.0
 11
94.2892273987
 21
200.7782062739
 31
0.0
  0
LINE
  5
5C
330
58
100
AcDbEntity
  8
SLD-0
  6
Continuous
 62
   179
100
AcDbLine
 10
94.2892273987
 20
198.2782062739
 30
0.0
 11
91.7892273987
 21
198.2782062739
 31
0.0
  0
LINE
  5
5D
330
58
100
AcDbEntity
  8
SLD-0
  6
Continuous
 62
   179
100
AcDbLine
 10
94.2892273987
 20
198.2782062739
 30
0.0
 11
94.2892273987
 21
195.7782062739
 31
0.0
  0
LINE
  5
5E
330
58
100
AcDbEntity
  8
SLD-0
  6
Continuous
 62
   179
100
AcDbLine
 10
94.2892273987
 20
198.2782062739
 30
0.0
 11
96.7892273987
 21
198.2782062739
 31
0.0
  0
LINE
  5
5F
330
58
100
AcDbEntity
  8
SLD-0
  6
Continuous
 62
   179
100
AcDbLine
 10
94.2892273987
 20
203.2782062739
 30
0.0
 11
94.2892273987
 21
204.7782062739
 31
0.0
  0
LINE
  5
60
330
58
100
AcDbEntity
  8
SLD-0
  6
Continuous
 62
   179
100
AcDbLine
 10
89.2892273987
 20
198.2782062739
 30
0.0
 11
87.7892273987
 21
198.2782062739
 31
0.0
  0
LINE
  5
61
330
58
100
AcDbEntity
  8
SLD-0
  6
Continuous
 62
   179
100
AcDbLine
 10
94.2892273987
 20
193.2782062739
 30
0.0
 11
94.2892273987
 21
191.7782062739
 31
0.0
  0
LINE
  5
62
330
58
100
AcDbEntity
  8
SLD-0
  6
Continuous
 62
   179
100
AcDbLine
 10
99.2892273987
 20
198.2782062739
 30
0.0
 11
100.7892273987
 21
198.2782062739
 31
0.0
  0
ENDBLK
  5
5A
330
58
100
AcDbEntity
  8
0
100
AcDbBlockEnd
  0
BLOCK
  5
64
330
63
100
AcDbEntity
  8
0
100
AcDbBlockBegin
  2
SW_CENTERMARK3
 70
     0
 71
     0
 10
0.0
 20
0.0
 30
0.0
  3
SW_CENTERMARK3
  1

  0
LINE
  5
66
330
63
100
AcDbEntity
  8
SLD-0
  6
Continuous
 62
   179
100
AcDbLine
 10
69.2892273987
 20
198.2782062739
 30
0.0
 11
69.2892273987
 21
200.7782062739
 31
0.0
  0
LINE
  5
67
330
63
100
AcDbEntity
  8
SLD-0
  6
Continuous
 62
   179
100
AcDbLine
 10
69.2892273987
 20
198.2782062739
 30
0.0
 11
66.7892273987
 21
198.2782062739
 31
0.0
  0
LINE
  5
68
330
63
100
AcDbEntity
  8
SLD-0
  6
Continuous
 62
   179
100
AcDbLine
 10
69.2892273987
 20
198.2782062739
 30
0.0
 11
69.2892273987
 21
195.7782062739
 31
0.0
  0
LINE
  5
69
330
63
100
AcDbEntity
  8
SLD-0
  6
Continuous
 62
   179
100
AcDbLine
 10
69.2892273987
 20
198.2782062739
 30
0.0
 11
71.7892273987
 21
198.2782062739
 31
0.0
  0
LINE
  5
6A
330
63
100
AcDbEntity
  8
SLD-0
  6
Continuous
 62
   179
100
AcDbLine
 10
69.2892273987
 20
203.2782062739
 30
0.0
 11
69.2892273987
 21
204.7782062739
 31
0.0
  0
LINE
  5
6B
330
63
100
AcDbEntity
  8
SLD-0
  6
Continuous
 62
   179
100
AcDbLine
 10
64.2892273987
 20
198.2782062739
 30
0.0
 11
62.7892273987
 21
198.2782062739
 31
0.0
  0
LINE
  5
6C
330
63
100
AcDbEntity
  8
SLD-0
  6
Continuous
 62
   179
100
AcDbLine
 10
69.2892273987
 20
193.2782062739
 30
0.0
 11
69.2892273987
 21
191.7782062739
 31
0.0
  0
LINE
  5
6D
330
63
100
AcDbEntity
  8
SLD-0
  6
Continuous
 62
   179
100
AcDbLine
 10
74.2892273987
 20
198.2782062739
 30
0.0
 11
75.7892273987
 21
198.2782062739
 31
0.0
  0
ENDBLK
  5
65
330
63
100
AcDbEntity
  8
0
100
AcDbBlockEnd
  0
BLOCK
  5
F5
330
EB
100
AcDbEntity
  8
0
100
AcDbBlockBegin
  2
*D8
 70
     1
 71
     0
 10
0.0
 20
0.0
 30
0.0
  3
*D8
  1

  0
LINE
  5
FB
330
EB
100
AcDbEntity
  8
SLD-0
 62
     7
100
AcDbLine
 10
86.7892273987
 20
152.7130673043
 30
0.0
 11
86.7892273987
 21
164.3321468251
 31
0.0
  0
LINE
  5
FC
330
EB
100
AcDbEntity
  8
SLD-0
 62
     7
100
AcDbLine
 10
99.2892273987
 20
150.2130673043
 30
0.0
 11
99.2892273987
 21
164.3321468251
 31
0.0
  0
LINE
  5
FD
330
EB
100
AcDbEntity
  8
SLD-0
 62
     7
100
AcDbLine
 10
86.7892273987
 20
163.3321468251
 30
0.0
 11
99.2892273987
 21
163.3321468251
 31
0.0
  0
LINE
  5
FE
330
EB
100
AcDbEntity
  8
SLD-0
 62
     7
100
AcDbLine
 10
89.7892273987
 20
162.5282998251
 30
0.0
 11
86.7892273987
 21
163.3321468251
 31
0.0
  0
LINE
  5
FF
330
EB
100
AcDbEntity
  8
SLD-0
 62
     7
100
AcDbLine
 10
86.7892273987
 20
163.3321468251
 30
0.0
 11
89.7892273987
 21
164.1359938251
 31
0.0
  0
LINE
  5
100
330
EB
100
AcDbEntity
  8
SLD-0
 62
     7
100
AcDbLine
 10
86.7892273987
 20
163.3321468251
 30
0.0
 11
89.7892273987
 21
163.3321468251
 31
0.0
  0
LINE
  5
101
330
EB
100
AcDbEntity
  8
SLD-0
 62
     7
100
AcDbLine
 10
96.2892273987
 20
164.1359938251
 30
0.0
 11
99.2892273987
 21
163.3321468251
 31
0.0
  0
LINE
  5
102
330
EB
100
AcDbEntity
  8
SLD-0
 62
     7
100
AcDbLine
 10
99.2892273987
 20
163.3321468251
 30
0.0
 11
96.2892273987
 21
162.5282998251
 31
0.0
  0
LINE
  5
103
330
EB
100
AcDbEntity
  8
SLD-0
 62
     7
100
AcDbLine
 10
99.2892273987
 20
163.3321468251
 30
0.0
 11
96.2892273987
 21
163.3321468251
 31
0.0
  0
MTEXT
  5
104
330
EB
100
AcDbEntity
  8
SLD-0
 62
     7
100
AcDbMText
 10
88.9671501894
 20
167.8588405211
 30
0.1
 40
3.5
 41
0.0
 71
     1
 72
     1
  1
12.5
  7
SLDTEXTSTYLE0
 73
     1
 44
1.0
  0
ENDBLK
  5
F6
330
EB
100
AcDbEntity
  8
0
100
AcDbBlockEnd
  0
BLOCK
  5
F9
330
F8
100
AcDbEntity
  8
0
100
AcDbBlockBegin
  2
_None
 70
     0
 71
     0
 10
0.0
 20
0.0
 30
0.0
  3
_None
  1

  0
ENDBLK
  5
FA
330
F8
100
AcDbEntity
  8
0
100
AcDbBlockEnd
  0
BLOCK
  5
110
330
106
100
AcDbEntity
  8
0
100
AcDbBlockBegin
  2
*D10
 70
     1
 71
     0
 10
0.0
 20
0.0
 30
0.0
  3
*D10
  1

  0
LINE
  5
113
330
106
100
AcDbEntity
  8
SLD-0
 62
     7
100
AcDbLine
 10
86.7892273987
 20
152.7130673043
 30
0.0
 11
86.7892273987
 21
164.3321468251
 31
0.0
  0
LINE
  5
114
330
106
100
AcDbEntity
  8
SLD-0
 62
     7
100
AcDbLine
 10
76.7892273987
 20
153.7130673043
 30
0.0
 11
76.7892273987
 21
164.3321468251
 31
0.0
  0
LINE
  5
115
330
106
100
AcDbEntity
  8
SLD-0
 62
     7
100
AcDbLine
 10
86.7892273987
 20
163.3321468251
 30
0.0
 11
76.7892273987
 21
163.3321468251
 31
0.0
  0
LINE
  5
116
330
106
100
AcDbEntity
  8
SLD-0
 62
     7
100
AcDbLine
 10
83.7892273987
 20
164.1359938251
 30
0.0
 11
86.7892273987
 21
163.3321468251
 31
0.0
  0
LINE
  5
117
330
106
100
AcDbEntity
  8
SLD-0
 62
     7
100
AcDbLine
 10
86.7892273987
 20
163.3321468251
 30
0.0
 11
83.7892273987
 21
162.5282998251
 31
0.0
  0
LINE
  5
118
330
106
100
AcDbEntity
  8
SLD-0
 62
     7
100
AcDbLine
 10
86.7892273987
 20
163.3321468251
 30
0.0
 11
83.7892273987
 21
163.3321468251
 31
0.0
  0
LINE
  5
119
330
106
100
AcDbEntity
  8
SLD-0
 62
     7
100
AcDbLine
 10
79.7892273987
 20
162.5282998251
 30
0.0
 11
76.7892273987
 21
163.3321468251
 31
0.0
  0
LINE
  5
11A
330
106
100
AcDbEntity
  8
SLD-0
 62
     7
100
AcDbLine
 10
76.7892273987
 20
163.3321468251
 30
0.0
 11
79.7892273987
 21
164.1359938251
 31
0.0
  0
LINE
  5
11B
330
106
100
AcDbEntity
  8
SLD-0
 62
     7
100
AcDbLine
 10
76.7892273987
 20
163.3321468251
 30
0.0
 11
79.7892273987
 21
163.3321468251
 31
0.0
  0
MTEXT
  5
11C
330
106
100
AcDbEntity
  8
SLD-0
 62
     7
100
AcDbMText
 10
79.7531887941
 20
167.8588405211
 30
0.1
 40
3.5
 41
0.0
 71
     1
 72
     1
  1
10
  7
SLDTEXTSTYLE0
 73
     1
 44
1.0
  0
ENDBLK
  5
111
330
106
100
AcDbEntity
  8
0
100
AcDbBlockEnd
  0
BLOCK
  5
12A
330
11E
100
AcDbEntity
  8
0
100
AcDbBlockBegin
  2
*D11
 70
     1
 71
     0
 10
0.0
 20
0.0
 30
0.0
  3
*D11
  1

  0
LINE
  5
12D
330
11E
100
AcDbEntity
  8
SLD-0
 62
     7
100
AcDbLine
 10
73.8004932637
 20
143.5130673043
 30
0.0
 11
116.9219168767
 21
143.5130673043
 31
0.0
  0
LINE
  5
12E
330
11E
100
AcDbEntity
  8
SLD-0
 62
     7
100
AcDbLine
 10
73.8004932637
 20
142.9130673043
 30
0.0
 11
116.9219168767
 21
142.9130673043
 31
0.0
  0
LINE
  5
12F
330
11E
100
AcDbEntity
  8
SLD-0
 62
     7
100
AcDbLine
 10
115.9219168767
 20
143.5130673043
 30
0.0
 11
115.9219168767
 21
148.5130673043
 31
0.0
  0
LINE
  5
130
330
11E
100
AcDbEntity
  8
SLD-0
 62
     7
100
AcDbLine
 10
115.9219168767
 20
143.5130673043
 30
0.0
 11
115.9219168767
 21
142.9130673043
 31
0.0
  0
LINE
  5
131
330
11E
100
AcDbEntity
  8
SLD-0
 62
     7
100
AcDbLine
 10
115.9219168767
 20
142.9130673043
 30
0.0
 11
115.9219168767
 21
130.9817305188
 31
0.0
  0
LINE
  5
132
330
11E
100
AcDbEntity
  8
SLD-0
 62
     7
100
AcDbLine
 10
116.7257638767
 20
146.5130673043
 30
0.0
 11
115.9219168767
 21
143.5130673043
 31
0.0
  0
LINE
  5
133
330
11E
100
AcDbEntity
  8
SLD-0
 62
     7
100
AcDbLine
 10
115.9219168767
 20
143.5130673043
 30
0.0
 11
115.1180698767
 21
146.5130673043
 31
0.0
  0
LINE
  5
134
330
11E
100
AcDbEntity
  8
SLD-0
 62
     7
100
AcDbLine
 10
115.9219168767
 20
143.5130673043
 30
0.0
 11
115.9219168767
 21
146.5130673043
 31
0.0
  0
LINE
  5
135
330
11E
100
AcDbEntity
  8
SLD-0
 62
     7
100
AcDbLine
 10
115.1180698767
 20
139.9130673043
 30
0.0
 11
115.9219168767
 21
142.9130673043
 31
0.0
  0
LINE
  5
136
330
11E
100
AcDbEntity
  8
SLD-0
 62
     7
100
AcDbLine
 10
115.9219168767
 20
142.9130673043
 30
0.0
 11
116.7257638767
 21
139.9130673043
 31
0.0
  0
LINE
  5
137
330
11E
100
AcDbEntity
  8
SLD-0
 62
     7
100
AcDbLine
 10
115.9219168767
 20
142.9130673043
 30
0.0
 11
115.9219168767
 21
139.9130673043
 31
0.0
  0
MTEXT
  5
138
330
11E
100
AcDbEntity
  8
SLD-0
 62
     7
100
AcDbMText
 10
111.3952231808
 20
132.5692305188
 30
0.1
 40
3.5
 41
0.0
 71
     1
 72
     1
  1
0.6
  7
SLDTEXTSTYLE0
 11
6.123031769111886E-17
 21
1.0
 31
0.0
 73
     1
 44
1.0
  0
ENDBLK
  5
12B
330
11E
100
AcDbEntity
  8
0
100
AcDbBlockEnd
  0
BLOCK
  5
145
330
13A
100
AcDbEntity
  8
0
100
AcDbBlockBegin
  2
*D12
 70
     1
 71
     0
 10
0.0
 20
0.0
 30
0.0
  3
*D12
  1

  0
LINE
  5
147
330
13A
100
AcDbEntity
  8
SLD-0
100
AcDbLine
 10
99.7892273987
 20
149.2130673043
 30
0.0
 11
123.5142192161
 21
149.2130673043
 31
0.0
  0
LINE
  5
148
330
13A
100
AcDbEntity
  8
SLD-0
100
AcDbLine
 10
94.2892273987
 20
143.2130673043
 30
0.0
 11
123.5142192161
 21
143.2130673043
 31
0.0
  0
LINE
  5
149
330
13A
100
AcDbEntity
  8
SLD-0
100
AcDbLine
 10
122.5142192161
 20
149.2130673043
 30
0.0
 11
122.5142192161
 21
154.2130673043
 31
0.0
  0
LINE
  5
14A
330
13A
100
AcDbEntity
  8
SLD-0
100
AcDbLine
 10
122.5142192161
 20
149.2130673043
 30
0.0
 11
122.5142192161
 21
143.2130673043
 31
0.0
  0
LINE
  5
14B
330
13A
100
AcDbEntity
  8
SLD-0
100
AcDbLine
 10
122.5142192161
 20
143.2130673043
 30
0.0
 11
122.5142192161
 21
138.2130673043
 31
0.0
  0
LINE
  5
14C
330
13A
100
AcDbEntity
  8
SLD-0
100
AcDbLine
 10
123.3180662161
 20
152.2130673043
 30
0.0
 11
122.5142192161
 21
149.2130673043
 31
0.0
  0
LINE
  5
14D
330
13A
100
AcDbEntity
  8
SLD-0
100
AcDbLine
 10
122.5142192161
 20
149.2130673043
 30
0.0
 11
121.7103722161
 21
152.2130673043
 31
0.0
  0
LINE
  5
14E
330
13A
100
AcDbEntity
  8
SLD-0
100
AcDbLine
 10
122.5142192161
 20
149.2130673043
 30
0.0
 11
122.5142192161
 21
152.2130673043
 31
0.0
  0
LINE
  5
14F
330
13A
100
AcDbEntity
  8
SLD-0
100
AcDbLine
 10
121.7103722161
 20
140.2130673043
 30
0.0
 11
122.5142192161
 21
143.2130673043
 31
0.0
  0
LINE
  5
150
330
13A
100
AcDbEntity
  8
SLD-0
100
AcDbLine
 10
122.5142192161
 20
143.2130673043
 30
0.0
 11
123.3180662161
 21
140.2130673043
 31
0.0
  0
LINE
  5
151
330
13A
100
AcDbEntity
  8
SLD-0
100
AcDbLine
 10
122.5142192161
 20
143.2130673043
 30
0.0
 11
122.5142192161
 21
140.2130673043
 31
0.0
  0
MTEXT
  5
152
330
13A
100
AcDbEntity
  8
SLD-0
100
AcDbMText
 10
117.9875255201
 20
145.195048002
 30
0.1
 40
3.5
 41
0.0
 71
     1
 72
     1
  1
6
  7
SLDTEXTSTYLE0
 11
6.123031769111886E-17
 21
1.0
 31
0.0
 73
     1
 44
1.0
  0
ENDBLK
  5
146
330
13A
100
AcDbEntity
  8
0
100
AcDbBlockEnd
  0
BLOCK
  5
15E
330
154
100
AcDbEntity
  8
0
100
AcDbBlockBegin
  2
*D13
 70
     1
 71
     0
 10
0.0
 20
0.0
 30
0.0
  3
*D13
  1

  0
LINE
  5
160
330
154
100
AcDbEntity
  8
SLD-0
 62
     7
100
AcDbLine
 10
160.5057324129
 20
150.2130673043
 30
0.0
 11
160.5057324129
 21
160.5314711573
 31
0.0
  0
LINE
  5
161
330
154
100
AcDbEntity
  8
SLD-0
 62
     7
100
AcDbLine
 10
148.5057324129
 20
150.2130673043
 30
0.0
 11
148.5057324129
 21
160.5314711573
 31
0.0
  0
LINE
  5
162
330
154
100
AcDbEntity
  8
SLD-0
 62
     7
100
AcDbLine
 10
160.5057324129
 20
159.5314711573
 30
0.0
 11
148.5057324129
 21
159.5314711573
 31
0.0
  0
LINE
  5
163
330
154
100
AcDbEntity
  8
SLD-0
 62
     7
100
AcDbLine
 10
157.5057324129
 20
160.3353181573
 30
0.0
 11
160.5057324129
 21
159.5314711573
 31
0.0
  0
LINE
  5
164
330
154
100
AcDbEntity
  8
SLD-0
 62
     7
100
AcDbLine
 10
160.5057324129
 20
159.5314711573
 30
0.0
 11
157.5057324129
 21
158.7276241573
 31
0.0
  0
LINE
  5
165
330
154
100
AcDbEntity
  8
SLD-0
 62
     7
100
AcDbLine
 10
160.5057324129
 20
159.5314711573
 30
0.0
 11
157.5057324129
 21
159.5314711573
 31
0.0
  0
LINE
  5
166
330
154
100
AcDbEntity
  8
SLD-0
 62
     7
100
AcDbLine
 10
151.5057324129
 20
158.7276241573
 30
0.0
 11
148.5057324129
 21
159.5314711573
 31
0.0
  0
LINE
  5
167
330
154
100
AcDbEntity
  8
SLD-0
 62
     7
100
AcDbLine
 10
148.5057324129
 20
159.5314711573
 30
0.0
 11
151.5057324129
 21
160.3353181573
 31
0.0
  0
LINE
  5
168
330
154
100
AcDbEntity
  8
SLD-0
 62
     7
100
AcDbLine
 10
148.5057324129
 20
159.5314711573
 30
0.0
 11
151.5057324129
 21
159.5314711573
 31
0.0
  0
MTEXT
  5
169
330
154
100
AcDbEntity
  8
SLD-0
 62
     7
100
AcDbMText
 10
152.4696938082
 20
164.0581648532
 30
0.1
 40
3.5
 41
0.0
 71
     1
 72
     1
  1
12
  7
SLDTEXTSTYLE0
 73
     1
 44
1.0
  0
ENDBLK
  5
15F
330
154
100
AcDbEntity
  8
0
100
AcDbBlockEnd
  0
BLOCK
  5
176
330
16B
100
AcDbEntity
  8
0
100
AcDbBlockBegin
  2
*D14
 70
     1
 71
     0
 10
0.0
 20
0.0
 30
0.0
  3
*D14
  1

  0
LINE
  5
178
330
16B
100
AcDbEntity
  8
SLD-0
 62
     7
100
AcDbLine
 10
161.5057324129
 20
149.2130673043
 30
0.0
 11
170.9647344102
 21
149.2130673043
 31
0.0
  0
LINE
  5
179
330
16B
100
AcDbEntity
  8
SLD-0
 62
     7
100
AcDbLine
 10
161.5057324129
 20
137.2130673043
 30
0.0
 11
170.9647344102
 21
137.2130673043
 31
0.0
  0
LINE
  5
17A
330
16B
100
AcDbEntity
  8
SLD-0
 62
     7
100
AcDbLine
 10
169.9647344102
 20
149.2130673043
 30
0.0
 11
169.9647344102
 21
137.2130673043
 31
0.0
  0
LINE
  5
17B
330
16B
100
AcDbEntity
  8
SLD-0
 62
     7
100
AcDbLine
 10
169.1608874102
 20
146.2130673043
 30
0.0
 11
169.9647344102
 21
149.2130673043
 31
0.0
  0
LINE
  5
17C
330
16B
100
AcDbEntity
  8
SLD-0
 62
     7
100
AcDbLine
 10
169.9647344102
 20
149.2130673043
 30
0.0
 11
170.7685814102
 21
146.2130673043
 31
0.0
  0
LINE
  5
17D
330
16B
100
AcDbEntity
  8
SLD-0
 62
     7
100
AcDbLine
 10
169.9647344102
 20
149.2130673043
 30
0.0
 11
169.9647344102
 21
146.2130673043
 31
0.0
  0
LINE
  5
17E
330
16B
100
AcDbEntity
  8
SLD-0
 62
     7
100
AcDbLine
 10
170.7685814102
 20
140.2130673043
 30
0.0
 11
169.9647344102
 21
137.2130673043
 31
0.0
  0
LINE
  5
17F
330
16B
100
AcDbEntity
  8
SLD-0
 62
     7
100
AcDbLine
 10
169.9647344102
 20
137.2130673043
 30
0.0
 11
169.1608874102
 21
140.2130673043
 31
0.0
  0
LINE
  5
180
330
16B
100
AcDbEntity
  8
SLD-0
 62
     7
100
AcDbLine
 10
169.9647344102
 20
137.2130673043
 30
0.0
 11
169.9647344102
 21
140.2130673043
 31
0.0
  0
MTEXT
  5
181
330
16B
100
AcDbEntity
  8
SLD-0
 62
     7
100
AcDbMText
 10
165.4380407143
 20
141.1770286997
 30
0.1
 40
3.5
 41
0.0
 71
     1
 72
     1
  1
12
  7
SLDTEXTSTYLE0
 11
6.123031769111886E-17
 21
1.0
 31
0.0
 73
     1
 44
1.0
  0
ENDBLK
  5
177
330
16B
100
AcDbEntity
  8
0
100
AcDbBlockEnd
  0
BLOCK
  5
18D
330
183
100
AcDbEntity
  8
0
100
AcDbBlockBegin
  2
*D15
 70
     1
 71
     0
 10
0.0
 20
0.0
 30
0.0
  3
*D15
  1

  0
LINE
  5
18F
330
183
100
AcDbEntity
  8
SLD-0
 62
     7
100
AcDbLine
 10
64.2892273987
 20
205.2782062739
 30
0.0
 11
64.2892273987
 21
228.1108369078
 31
0.0
  0
LINE
  5
190
330
183
100
AcDbEntity
  8
SLD-0
 62
     7
100
AcDbLine
 10
99.2892273987
 20
205.2782062739
 30
0.0
 11
99.2892273987
 21
228.1108369078
 31
0.0
  0
LINE
  5
191
330
183
100
AcDbEntity
  8
SLD-0
 62
     7
100
AcDbLine
 10
64.2892273987
 20
227.1108369078
 30
0.0
 11
99.2892273987
 21
227.1108369078
 31
0.0
  0
LINE
  5
192
330
183
100
AcDbEntity
  8
SLD-0
 62
     7
100
AcDbLine
 10
67.2892273987
 20
226.3069899078
 30
0.0
 11
64.2892273987
 21
227.1108369078
 31
0.0
  0
LINE
  5
193
330
183
100
AcDbEntity
  8
SLD-0
 62
     7
100
AcDbLine
 10
64.2892273987
 20
227.1108369078
 30
0.0
 11
67.2892273987
 21
227.9146839078
 31
0.0
  0
LINE
  5
194
330
183
100
AcDbEntity
  8
SLD-0
 62
     7
100
AcDbLine
 10
64.2892273987
 20
227.1108369078
 30
0.0
 11
67.2892273987
 21
227.1108369078
 31
0.0
  0
LINE
  5
195
330
183
100
AcDbEntity
  8
SLD-0
 62
     7
100
AcDbLine
 10
96.2892273987
 20
227.9146839078
 30
0.0
 11
99.2892273987
 21
227.1108369078
 31
0.0
  0
LINE
  5
196
330
183
100
AcDbEntity
  8
SLD-0
 62
     7
100
AcDbLine
 10
99.2892273987
 20
227.1108369078
 30
0.0
 11
96.2892273987
 21
226.3069899078
 31
0.0
  0
LINE
  5
197
330
183
100
AcDbEntity
  8
SLD-0
 62
     7
100
AcDbLine
 10
99.2892273987
 20
227.1108369078
 30
0.0
 11
96.2892273987
 21
227.1108369078
 31
0.0
  0
MTEXT
  5
198
330
183
100
AcDbEntity
  8
SLD-0
 62
     7
100
AcDbMText
 10
79.7531887941
 20
231.6375306037
 30
0.1
 40
3.5
 41
0.0
 71
     1
 72
     1
  1
35
  7
SLDTEXTSTYLE0
 73
     1
 44
1.0
  0
ENDBLK
  5
18E
330
183
100
AcDbEntity
  8
0
100
AcDbBlockEnd
  0
BLOCK
  5
1A4
330
19A
100
AcDbEntity
  8
0
100
AcDbBlockBegin
  2
*D16
 70
     1
 71
     0
 10
0.0
 20
0.0
 30
0.0
  3
*D16
  1

  0
LINE
  5
1A6
330
19A
100
AcDbEntity
  8
SLD-0
100
AcDbLine
 10
94.2892273987
 20
205.7782062739
 30
0.0
 11
94.2892273987
 21
219.9702028196
 31
0.0
  0
LINE
  5
1A7
330
19A
100
AcDbEntity
  8
SLD-0
100
AcDbLine
 10
69.2892273987
 20
205.7782062739
 30
0.0
 11
69.2892273987
 21
219.9702028196
 31
0.0
  0
LINE
  5
1A8
330
19A
100
AcDbEntity
  8
SLD-0
100
AcDbLine
 10
94.2892273987
 20
218.9702028196
 30
0.0
 11
69.2892273987
 21
218.9702028196
 31
0.0
  0
LINE
  5
1A9
330
19A
100
AcDbEntity
  8
SLD-0
100
AcDbLine
 10
91.2892273987
 20
219.7740498196
 30
0.0
 11
94.2892273987
 21
218.9702028196
 31
0.0
  0
LINE
  5
1AA
330
19A
100
AcDbEntity
  8
SLD-0
100
AcDbLine
 10
94.2892273987
 20
218.9702028196
 30
0.0
 11
91.2892273987
 21
218.1663558196
 31
0.0
  0
LINE
  5
1AB
330
19A
100
AcDbEntity
  8
SLD-0
100
AcDbLine
 10
94.2892273987
 20
218.9702028196
 30
0.0
 11
91.2892273987
 21
218.9702028196
 31
0.0
  0
LINE
  5
1AC
330
19A
100
AcDbEntity
  8
SLD-0
100
AcDbLine
 10
72.2892273987
 20
218.1663558196
 30
0.0
 11
69.2892273987
 21
218.9702028196
 31
0.0
  0
LINE
  5
1AD
330
19A
100
AcDbEntity
  8
SLD-0
100
AcDbLine
 10
69.2892273987
 20
218.9702028196
 30
0.0
 11
72.2892273987
 21
219.7740498196
 31
0.0
  0
LINE
  5
1AE
330
19A
100
AcDbEntity
  8
SLD-0
100
AcDbLine
 10
69.2892273987
 20
218.9702028196
 30
0.0
 11
72.2892273987
 21
218.9702028196
 31
0.0
  0
MTEXT
  5
1AF
330
19A
100
AcDbEntity
  8
SLD-0
100
AcDbMText
 10
79.7531887941
 20
223.4968965156
 30
0.1
 40
3.5
 41
0.0
 71
     1
 72
     1
  1
25
  7
SLDTEXTSTYLE0
 73
     1
 44
1.0
  0
ENDBLK
  5
1A5
330
19A
100
AcDbEntity
  8
0
100
AcDbBlockEnd
  0
BLOCK
  5
1B8
330
1B1
100
AcDbEntity
  8
0
100
AcDbBlockBegin
  2
*D17
 70
     1
 71
     0
 10
0.0
 20
0.0
 30
0.0
  3
*D17
  1

  0
LINE
  5
1BB
330
1B1
100
AcDbEntity
  8
SLD-0
 62
     7
100
AcDbLine
 10
95.1813609723
 20
196.2126318533
 30
0.0
 11
102.7243983489
 21
178.7480889638
 31
0.0
  0
LINE
  5
1BC
330
1B1
100
AcDbEntity
  8
SLD-0
 62
     7
100
AcDbLine
 10
102.7243983489
 20
178.7480889638
 30
0.0
 11
145.7735827675
 21
178.7480889638
 31
0.0
  0
LINE
  5
1BD
330
1B1
100
AcDbEntity
  8
SLD-0
 62
     7
100
AcDbLine
 10
95.6329142698
 20
193.1398042273
 30
0.0
 11
95.1813609723
 21
196.2126318533
 31
0.0
  0
LINE
  5
1BE
330
1B1
100
AcDbEntity
  8
SLD-0
 62
     7
100
AcDbLine
 10
95.1813609723
 20
196.2126318533
 30
0.0
 11
97.1088305376
 21
193.7772610244
 31
0.0
  0
LINE
  5
1BF
330
1B1
100
AcDbEntity
  8
SLD-0
 62
     7
100
AcDbLine
 10
95.1813609723
 20
196.2126318533
 30
0.0
 11
96.3708724037
 21
193.4585326259
 31
0.0
  0
MTEXT
  5
1C0
330
1B1
100
AcDbEntity
  8
SLD-0
 62
     7
100
AcDbMText
 10
105.8993983489
 20
183.2747826597
 30
0.1
 40
3.5
 41
0.0
 71
     1
 72
     1
  1
2-
  7
SLDTEXTSTYLE0
 73
     1
 44
1.0
  0
MTEXT
  5
1C1
330
1B1
100
AcDbEntity
  8
SLD-0
 62
     7
100
AcDbMText
 10
108.2230093438
 20
183.2747824269
 30
0.1
 40
3.5
 41
0.0
 71
     1
 72
     1
  1
%%c
  7
SLDTEXTSTYLE0
 73
     1
 44
1.0
  0
MTEXT
  5
1C2
330
1B1
100
AcDbEntity
  8
SLD-0
 62
     7
100
AcDbMText
 10
113.8427669535
 20
183.2747826597
 30
0.1
 40
3.5
 41
0.0
 71
     1
 72
     1
  1
4.5
  7
SLDTEXTSTYLE0
 73
     1
 44
1.0
  0
MTEXT
  5
1C3
330
1B1
100
AcDbEntity
  8
SLD-0
 62
     7
100
AcDbMText
 10
119.9508827675
 20
183.2747826597
 30
0.1
 40
3.5
 41
0.0
 71
     1
 72
     1
  1
,
  7
SLDTEXTSTYLE0
 73
     1
 44
1.0
  0
MTEXT
  5
1C4
330
1B1
100
AcDbEntity
  8
SLD-0
 62
     7
100
AcDbMText
 10
120.237688265
 20
183.2747824269
 30
0.1
 40
3.5
 41
0.0
 71
     1
 72
     1
  1
%%c
  7
SLDTEXTSTYLE0
 73
     1
 44
1.0
  0
MTEXT
  5
1C5
330
1B1
100
AcDbEntity
  8
SLD-0
 62
     7
100
AcDbMText
 10
125.85761878
 20
183.2747826597
 30
0.1
 40
3.5
 41
0.0
 71
     1
 72
     1
  1
8ｻﾞｸﾞﾘ深3
  7
SLDTEXTSTYLE0
 73
     1
 44
1.0
  0
ENDBLK
  5
1B9
330
1B1
100
AcDbEntity
  8
0
100
AcDbBlockEnd
  0
BLOCK
  5
1D2
330
1C7
100
AcDbEntity
  8
0
100
AcDbBlockBegin
  2
*D18
 70
     1
 71
     0
 10
0.0
 20
0.0
 30
0.0
  3
*D18
  1

  0
LINE
  5
1D4
330
1C7
100
AcDbEntity
  8
SLD-0
 62
     7
100
AcDbLine
 10
94.2892273987
 20
205.7782062739
 30
0.0
 11
94.2892273987
 21
219.9702028196
 31
0.0
  0
LINE
  5
1D5
330
1C7
100
AcDbEntity
  8
SLD-0
 62
     7
100
AcDbLine
 10
99.2892273987
 20
205.2782062739
 30
0.0
 11
99.2892273987
 21
219.9702028196
 31
0.0
  0
LINE
  5
1D6
330
1C7
100
AcDbEntity
  8
SLD-0
 62
     7
100
AcDbLine
 10
94.2892273987
 20
218.9702028196
 30
0.0
 11
89.2892273987
 21
218.9702028196
 31
0.0
  0
LINE
  5
1D7
330
1C7
100
AcDbEntity
  8
SLD-0
 62
     7
100
AcDbLine
 10
94.2892273987
 20
218.9702028196
 30
0.0
 11
99.2892273987
 21
218.9702028196
 31
0.0
  0
LINE
  5
1D8
330
1C7
100
AcDbEntity
  8
SLD-0
 62
     7
100
AcDbLine
 10
99.2892273987
 20
218.9702028196
 30
0.0
 11
104.2892273987
 21
218.9702028196
 31
0.0
  0
LINE
  5
1D9
330
1C7
100
AcDbEntity
  8
SLD-0
 62
     7
100
AcDbLine
 10
91.2892273987
 20
219.7740498196
 30
0.0
 11
94.2892273987
 21
218.9702028196
 31
0.0
  0
LINE
  5
1DA
330
1C7
100
AcDbEntity
  8
SLD-0
 62
     7
100
AcDbLine
 10
94.2892273987
 20
218.9702028196
 30
0.0
 11
91.2892273987
 21
218.1663558196
 31
0.0
  0
LINE
  5
1DB
330
1C7
100
AcDbEntity
  8
SLD-0
 62
     7
100
AcDbLine
 10
94.2892273987
 20
218.9702028196
 30
0.0
 11
91.2892273987
 21
218.9702028196
 31
0.0
  0
LINE
  5
1DC
330
1C7
100
AcDbEntity
  8
SLD-0
 62
     7
100
AcDbLine
 10
102.2892273987
 20
218.1663558196
 30
0.0
 11
99.2892273987
 21
218.9702028196
 31
0.0
  0
LINE
  5
1DD
330
1C7
100
AcDbEntity
  8
SLD-0
 62
     7
100
AcDbLine
 10
99.2892273987
 20
218.9702028196
 30
0.0
 11
102.2892273987
 21
219.7740498196
 31
0.0
  0
LINE
  5
1DE
330
1C7
100
AcDbEntity
  8
SLD-0
 62
     7
100
AcDbLine
 10
99.2892273987
 20
218.9702028196
 30
0.0
 11
102.2892273987
 21
218.9702028196
 31
0.0
  0
MTEXT
  5
1DF
330
1C7
100
AcDbEntity
  8
SLD-0
 62
     7
100
AcDbMText
 10
95.7712080964
 20
223.4968965156
 30
0.1
 40
3.5
 41
0.0
 71
     1
 72
     1
  1
5
  7
SLDTEXTSTYLE0
 73
     1
 44
1.0
  0
ENDBLK
  5
1D3
330
1C7
100
AcDbEntity
  8
0
100
AcDbBlockEnd
  0
ENDSEC
  0
SECTION
  2
ENTITIES
  0
LINE
  5
6E
330
1F
100
AcDbEntity
  8
SLD-0
  6
Continuous
 62
   179
100
AcDbLine
 10
20.2604743903
 20
285.0
 30
0.0
 11
196.7604743903
 21
285.0
 31
0.0
  0
LINE
  5
6F
330
1F
100
AcDbEntity
  8
SLD-0
  6
Continuous
 62
   179
100
AcDbLine
 10
20.2604743903
 20
285.0
 30
0.0
 11
20.2604743903
 21
10.0
 31
0.0
  0
LINE
  5
70
330
1F
100
AcDbEntity
  8
SLD-0
  6
Continuous
 62
   179
100
AcDbLine
 10
20.2604743903
 20
10.0
 30
0.0
 11
196.7604743903
 21
10.0
 31
0.0
  0
LINE
  5
71
330
1F
100
AcDbEntity
  8
SLD-0
  6
Continuous
 62
   179
100
AcDbLine
 10
196.7604743903
 20
285.0
 30
0.0
 11
196.7604743903
 21
10.0
 31
0.0
  0
LINE
  5
72
330
1F
100
AcDbEntity
  8
SLD-0
  6
Continuous
 62
   179
100
AcDbLine
 10
127.0104743903
 20
50.75
 30
0.0
 11
196.7604743903
 21
50.75
 31
0.0
  0
LINE
  5
73
330
1F
100
AcDbEntity
  8
SLD-0
  6
Continuous
 62
   179
100
AcDbLine
 10
127.0104743903
 20
50.75
 30
0.0
 11
127.0104743903
 21
22.75
 31
0.0
  0
LINE
  5
74
330
1F
100
AcDbEntity
  8
SLD-0
  6
Continuous
 62
   179
100
AcDbLine
 10
127.0104743903
 20
22.75
 30
0.0
 11
196.7604743903
 21
22.75
 31
0.0
  0
LINE
  5
75
330
1F
100
AcDbEntity
  8
SLD-0
  6
Continuous
 62
   179
100
AcDbLine
 10
127.0104743903
 20
36.75
 30
0.0
 11
196.7604743903
 21
36.75
 31
0.0
  0
LINE
  5
76
330
1F
100
AcDbEntity
  8
SLD-0
100
AcDbLine
 10
66.9491510072
 20
134.7823046726
 30
0.0
 11
68.7770987714
 21
137.2130673043
 31
0.0
  0
LINE
  5
77
330
1F
100
AcDbEntity
  8
SLD-0
100
AcDbLine
 10
68.7770987714
 20
137.2130673043
 30
0.0
 11
67.8363144426
 21
134.3208493238
 31
0.0
  0
LINE
  5
78
330
1F
100
AcDbEntity
  8
SLD-0
100
AcDbLine
 10
67.8363144426
 20
134.3208493238
 30
0.0
 11
66.9491510072
 21
134.7823046726
 31
0.0
  0
LINE
  5
79
330
1F
100
AcDbEntity
  8
SLD-0
  6
Continuous
 62
   179
100
AcDbLine
 10
64.2892273242
 20
142.9130672901
 30
0.0
 11
72.8004932637
 21
142.9130673043
 31
0.0
  0
LINE
  5
7A
330
1F
100
AcDbEntity
  8
SLD-0
  6
Continuous
 62
   179
100
AcDbLine
 10
72.8004932637
 20
143.5130673043
 30
0.0
 11
64.2892273242
 21
143.5130673186
 31
0.0
  0
LINE
  5
7B
330
1F
100
AcDbEntity
  8
SLD-0
  6
Continuous
 62
   179
100
AcDbLine
 10
64.7892264748
 20
149.2130673565
 30
0.0
 11
64.2892273242
 21
148.7130672745
 31
0.0
  0
LINE
  5
7C
330
1F
100
AcDbEntity
  8
SLD-0
  6
Continuous
 62
   179
100
AcDbLine
 10
99.2892274732
 20
148.7130672745
 30
0.0
 11
98.7892283226
 21
149.2130673565
 31
0.0
  0
LINE
  5
7D
330
1F
100
AcDbEntity
  8
SLD-0
  6
Continuous
 62
   179
100
AcDbLine
 10
99.2892274732
 20
148.7130672745
 30
0.0
 11
99.2892274732
 21
143.5130673186
 31
0.0
  0
LINE
  5
7E
330
1F
100
AcDbEntity
  8
SLD-0
  6
Continuous
 62
   179
100
AcDbLine
 10
99.2892274732
 20
143.5130673186
 30
0.0
 11
90.7779615337
 21
143.5130673043
 31
0.0
  0
LINE
  5
7F
330
1F
100
AcDbEntity
  8
SLD-0
  6
Continuous
 62
   179
100
AcDbLine
 10
90.7779615337
 20
142.9130673043
 30
0.0
 11
99.2892274732
 21
142.9130672901
 31
0.0
  0
LINE
  5
80
330
1F
100
AcDbEntity
  8
SLD-0
  6
Continuous
 62
   179
100
AcDbLine
 10
98.7892283226
 20
137.2130672522
 30
0.0
 11
99.2892274732
 21
137.7130673341
 31
0.0
  0
LINE
  5
81
330
1F
100
AcDbEntity
  8
SLD-0
  6
Continuous
 62
   179
100
AcDbLine
 10
98.7892283226
 20
137.2130672522
 30
0.0
 11
64.7892264748
 21
137.2130672522
 31
0.0
  0
LINE
  5
82
330
1F
100
AcDbEntity
  8
SLD-0
  6
Continuous
 62
   179
100
AcDbLine
 10
64.2892273242
 20
137.7130673341
 30
0.0
 11
64.7892264748
 21
137.2130672522
 31
0.0
  0
LINE
  5
83
330
1F
100
AcDbEntity
  8
SLD-0
  6
Continuous
 62
   179
100
AcDbLine
 10
64.2892273242
 20
142.9130672901
 30
0.0
 11
64.2892273242
 21
137.7130673341
 31
0.0
  0
LINE
  5
84
330
1F
100
AcDbEntity
  8
SLD-0
  6
Continuous
 62
   179
100
AcDbLine
 10
98.7892283226
 20
149.2130673565
 30
0.0
 11
64.7892264748
 21
149.2130673565
 31
0.0
  0
LINE
  5
85
330
1F
100
AcDbEntity
  8
SLD-0
  6
Continuous
 62
   179
100
AcDbLine
 10
64.2892273242
 20
148.7130672745
 30
0.0
 11
64.2892273242
 21
143.5130673186
 31
0.0
  0
LINE
  5
86
330
1F
100
AcDbEntity
  8
SLD-0
  6
Continuous
 62
   179
100
AcDbLine
 10
99.2892274732
 20
142.9130672901
 30
0.0
 11
99.2892274732
 21
137.7130673341
 31
0.0
  0
LINE
  5
87
330
1F
100
AcDbEntity
  8
SLD-0
  6
HIDDEN
 62
     8
100
AcDbLine
 10
94.2892273987
 20
146.2130673043
 30
0.0
 11
98.2892273987
 21
146.2130673043
 31
0.0
  0
LINE
  5
88
330
1F
100
AcDbEntity
  8
SLD-0
  6
HIDDEN
 62
     8
100
AcDbLine
 10
90.2892273987
 20
146.2130673043
 30
0.0
 11
94.2892273987
 21
146.2130673043
 31
0.0
  0
LINE
  5
89
330
1F
100
AcDbEntity
  8
SLD-0
  6
HIDDEN
 62
     8
100
AcDbLine
 10
69.2892273987
 20
146.2130673043
 30
0.0
 11
73.2892273987
 21
146.2130673043
 31
0.0
  0
LINE
  5
8A
330
1F
100
AcDbEntity
  8
SLD-0
  6
HIDDEN
 62
     8
100
AcDbLine
 10
65.2892273987
 20
146.2130673043
 30
0.0
 11
69.2892273987
 21
146.2130673043
 31
0.0
  0
LINE
  5
8B
330
1F
100
AcDbEntity
  8
SLD-0
  6
HIDDEN
 62
     8
100
AcDbLine
 10
90.2892278606
 20
149.2130673565
 30
0.0
 11
90.2892273987
 21
146.2130673043
 31
0.0
  0
LINE
  5
8C
330
1F
100
AcDbEntity
  8
SLD-0
  6
HIDDEN
 62
     8
100
AcDbLine
 10
98.2892273987
 20
146.2130673043
 30
0.0
 11
98.2892273093
 21
149.2130673565
 31
0.0
  0
LINE
  5
8D
330
1F
100
AcDbEntity
  8
SLD-0
  6
HIDDEN
 62
     8
100
AcDbLine
 10
65.2892274881
 20
149.2130673565
 30
0.0
 11
65.2892273987
 21
146.2130673043
 31
0.0
  0
LINE
  5
8E
330
1F
100
AcDbEntity
  8
SLD-0
  6
HIDDEN
 62
     8
100
AcDbLine
 10
73.2892273987
 20
146.2130673043
 30
0.0
 11
73.2892269368
 21
149.2130673565
 31
0.0
  0
LINE
  5
8F
330
1F
100
AcDbEntity
  8
SLD-0
  6
HIDDEN
 62
     8
100
AcDbLine
 10
92.0392276818
 20
146.2130673304
 30
0.0
 11
92.0392276818
 21
143.5130673186
 31
0.0
  0
LINE
  5
90
330
1F
100
AcDbEntity
  8
SLD-0
  6
HIDDEN
 62
     8
100
AcDbLine
 10
96.5392274881
 20
143.5130673186
 30
0.0
 11
96.5392274881
 21
146.2130673304
 31
0.0
  0
LINE
  5
91
330
1F
100
AcDbEntity
  8
SLD-0
  6
HIDDEN
 62
     8
100
AcDbLine
 10
67.0392273093
 20
146.2130673304
 30
0.0
 11
67.0392273093
 21
143.5130673186
 31
0.0
  0
LINE
  5
92
330
1F
100
AcDbEntity
  8
SLD-0
  6
HIDDEN
 62
     8
100
AcDbLine
 10
71.5392271156
 20
143.5130673186
 30
0.0
 11
71.5392271156
 21
146.2130673304
 31
0.0
  0
LINE
  5
93
330
1F
100
AcDbEntity
  8
SLD-0
  6
HIDDEN
 62
     8
100
AcDbLine
 10
67.6392272214
 20
142.9130672901
 30
0.0
 11
67.6392272214
 21
137.2130672522
 31
0.0
  0
LINE
  5
94
330
1F
100
AcDbEntity
  8
SLD-0
  6
HIDDEN
 62
     8
100
AcDbLine
 10
70.9392272035
 20
137.2130672522
 30
0.0
 11
70.9392272035
 21
142.9130672901
 31
0.0
  0
LINE
  5
95
330
1F
100
AcDbEntity
  8
SLD-0
  6
HIDDEN
 62
     8
100
AcDbLine
 10
92.6392275939
 20
142.9130672901
 30
0.0
 11
92.6392275939
 21
137.2130672522
 31
0.0
  0
LINE
  5
96
330
1F
100
AcDbEntity
  8
SLD-0
  6
HIDDEN
 62
     8
100
AcDbLine
 10
95.939227576
 20
137.2130672522
 30
0.0
 11
95.939227576
 21
142.9130672901
 31
0.0
  0
LINE
  5
97
330
1F
100
AcDbEntity
  8
SLD-0
 62
   179
100
AcDbLine
 10
64.5392273987
 20
137.4630673043
 30
0.0
 11
48.2094625467
 21
131.2779765428
 31
0.0
  0
LINE
  5
98
330
1F
100
AcDbEntity
  8
SLD-0
 62
   179
100
AcDbLine
 10
48.2094625467
 20
131.2779765428
 30
0.0
 11
62.6156621643
 21
136.6956719572
 31
0.0
  0
LINE
  5
99
330
1F
100
AcDbEntity
  8
SLD-0
100
AcDbLine
 10
67.3927327249
 20
134.5515769982
 30
0.0
 11
61.9083430233
 21
124.0076532558
 31
0.0
  0
LINE
  5
9A
330
1F
100
AcDbEntity
  8
SLD-0
100
AcDbLine
 10
61.9083430233
 20
124.0076532558
 30
0.0
 11
53.2606660465
 21
124.0076532558
 31
0.0
  0
LINE
  5
9B
330
1F
100
AcDbEntity
  8
SLD-0
  6
HIDDEN
 62
   179
100
AcDbLine
 10
96.2892269815
 20
137.2130672522
 30
0.0
 11
96.2892269815
 21
142.9130672901
 31
0.0
  0
LINE
  5
9C
330
1F
100
AcDbEntity
  8
SLD-0
  6
HIDDEN
 62
   179
100
AcDbLine
 10
92.2892272572
 20
142.9130672901
 30
0.0
 11
92.2892272572
 21
137.2130672522
 31
0.0
  0
LINE
  5
9D
330
1F
100
AcDbEntity
  8
SLD-0
  6
HIDDEN
 62
   179
100
AcDbLine
 10
71.2892275403
 20
137.2130672522
 30
0.0
 11
71.2892275403
 21
142.9130672901
 31
0.0
  0
LINE
  5
9E
330
1F
100
AcDbEntity
  8
SLD-0
  6
HIDDEN
 62
   179
100
AcDbLine
 10
67.2892278159
 20
142.9130672901
 30
0.0
 11
67.2892278159
 21
137.2130672522
 31
0.0
  0
LINE
  5
9F
330
1F
100
AcDbEntity
  8
SLD-0
  6
CENTERX2
 62
   179
100
AcDbLine
 10
94.2892273987
 20
135.2130673043
 30
0.0
 11
94.2892273987
 21
151.2130673043
 31
0.0
  0
LINE
  5
A0
330
1F
100
AcDbEntity
  8
SLD-0
  6
CENTERX2
 62
   179
100
AcDbLine
 10
69.2892273987
 20
135.2130673043
 30
0.0
 11
69.2892273987
 21
151.2130673043
 31
0.0
  0
LINE
  5
A1
330
1F
100
AcDbEntity
  8
SLD-0
  6
Continuous
 62
   179
100
AcDbLine
 10
160.5057324129
 20
142.9130673043
 30
0.0
 11
148.5057324129
 21
142.9130673043
 31
0.0
  0
LINE
  5
A2
330
1F
100
AcDbEntity
  8
SLD-0
  6
Continuous
 62
   179
100
AcDbLine
 10
160.505732465
 20
137.7130673341
 30
0.0
 11
160.5057324129
 21
142.9130673043
 31
0.0
  0
LINE
  5
A3
330
1F
100
AcDbEntity
  8
SLD-0
  6
Continuous
 62
   179
100
AcDbLine
 10
148.5057323607
 20
137.7130673341
 30
0.0
 11
160.505732465
 21
137.7130673341
 31
0.0
  0
LINE
  5
A4
330
1F
100
AcDbEntity
  8
SLD-0
  6
Continuous
 62
   179
100
AcDbLine
 10
148.5057324129
 20
142.9130673043
 30
0.0
 11
148.5057323607
 21
137.7130673341
 31
0.0
  0
LINE
  5
A5
330
1F
100
AcDbEntity
  8
SLD-0
  6
Continuous
 62
   179
100
AcDbLine
 10
160.5057324129
 20
143.5130673043
 30
0.0
 11
148.5057324129
 21
143.5130673043
 31
0.0
  0
LINE
  5
A6
330
1F
100
AcDbEntity
  8
SLD-0
  6
Continuous
 62
   179
100
AcDbLine
 10
148.5057323607
 20
148.7130672745
 30
0.0
 11
148.5057324129
 21
143.5130673043
 31
0.0
  0
LINE
  5
A7
330
1F
100
AcDbEntity
  8
SLD-0
  6
Continuous
 62
   179
100
AcDbLine
 10
160.505732465
 20
148.7130672745
 30
0.0
 11
148.5057323607
 21
148.7130672745
 31
0.0
  0
LINE
  5
A8
330
1F
100
AcDbEntity
  8
SLD-0
  6
Continuous
 62
   179
100
AcDbLine
 10
160.5057324129
 20
143.5130673043
 30
0.0
 11
160.505732465
 21
148.7130672745
 31
0.0
  0
LINE
  5
A9
330
1F
100
AcDbEntity
  8
SLD-0
  6
Continuous
 62
   179
100
AcDbLine
 10
160.505732465
 20
137.2130672522
 30
0.0
 11
148.5057323607
 21
137.2130672522
 31
0.0
  0
LINE
  5
AA
330
1F
100
AcDbEntity
  8
SLD-0
  6
Continuous
 62
   179
100
AcDbLine
 10
148.5057323607
 20
137.2130672522
 30
0.0
 11
148.5057323607
 21
137.7130673341
 31
0.0
  0
LINE
  5
AB
330
1F
100
AcDbEntity
  8
SLD-0
  6
Continuous
 62
   179
100
AcDbLine
 10
160.505732465
 20
137.7130673341
 30
0.0
 11
160.505732465
 21
137.2130672522
 31
0.0
  0
LINE
  5
AC
330
1F
100
AcDbEntity
  8
SLD-0
  6
Continuous
 62
   179
100
AcDbLine
 10
148.5057323607
 20
148.7130672745
 30
0.0
 11
148.5057323607
 21
149.2130673565
 31
0.0
  0
LINE
  5
AD
330
1F
100
AcDbEntity
  8
SLD-0
  6
Continuous
 62
   179
100
AcDbLine
 10
148.5057323607
 20
149.2130673565
 30
0.0
 11
160.505732465
 21
149.2130673565
 31
0.0
  0
LINE
  5
AE
330
1F
100
AcDbEntity
  8
SLD-0
  6
Continuous
 62
   179
100
AcDbLine
 10
160.505732465
 20
149.2130673565
 30
0.0
 11
160.505732465
 21
148.7130672745
 31
0.0
  0
LINE
  5
AF
330
1F
100
AcDbEntity
  8
SLD-0
  6
Continuous
 62
   179
100
AcDbLine
 10
148.5057324129
 20
143.5130673043
 30
0.0
 11
148.5057324129
 21
142.9130673043
 31
0.0
  0
LINE
  5
B0
330
1F
100
AcDbEntity
  8
SLD-0
  6
Continuous
 62
   179
100
AcDbLine
 10
160.5057324129
 20
143.5130673043
 30
0.0
 11
160.5057324129
 21
142.9130673043
 31
0.0
  0
LINE
  5
B1
330
1F
100
AcDbEntity
  8
SLD-0
  6
HIDDEN
 62
     8
100
AcDbLine
 10
158.5057326029
 20
146.2130673304
 30
0.0
 11
150.5057324129
 21
146.2130673043
 31
0.0
  0
LINE
  5
B2
330
1F
100
AcDbEntity
  8
SLD-0
  6
HIDDEN
 62
     8
100
AcDbLine
 10
150.5057324129
 20
149.2130673043
 30
0.0
 11
158.5007602716
 21
149.2130673565
 31
0.0
  0
LINE
  5
B3
330
1F
100
AcDbEntity
  8
SLD-0
  6
HIDDEN
 62
     8
100
AcDbLine
 10
152.2557324129
 20
146.2130673043
 30
0.0
 11
156.7507078307
 21
146.2130673304
 31
0.0
  0
LINE
  5
B4
330
1F
100
AcDbEntity
  8
SLD-0
  6
HIDDEN
 62
     8
100
AcDbLine
 10
156.7544759619
 20
143.5130673186
 30
0.0
 11
152.2569888639
 21
143.5130673186
 31
0.0
  0
LINE
  5
B5
330
1F
100
AcDbEntity
  8
SLD-0
  6
HIDDEN
 62
     8
100
AcDbLine
 10
152.8557324129
 20
137.2130673043
 30
0.0
 11
156.1557324039
 21
137.2130672522
 31
0.0
  0
LINE
  5
B6
330
1F
100
AcDbEntity
  8
SLD-0
  6
HIDDEN
 62
     8
100
AcDbLine
 10
152.8557324129
 20
142.9130673043
 30
0.0
 11
156.1557324039
 21
142.9130672901
 31
0.0
  0
LINE
  5
B7
330
1F
100
AcDbEntity
  8
SLD-0
  6
HIDDEN
 62
     8
100
AcDbLine
 10
150.5057324129
 20
146.2130673043
 30
0.0
 11
158.5007602716
 21
146.2130673304
 31
0.0
  0
LINE
  5
B8
330
1F
100
AcDbEntity
  8
SLD-0
  6
HIDDEN
 62
     8
100
AcDbLine
 10
150.5057324129
 20
149.2130673043
 30
0.0
 11
158.5007602716
 21
149.2130673565
 31
0.0
  0
LINE
  5
B9
330
1F
100
AcDbEntity
  8
SLD-0
  6
HIDDEN
 62
     8
100
AcDbLine
 10
156.7544759619
 20
143.5130673186
 30
0.0
 11
152.2569888639
 21
143.5130673186
 31
0.0
  0
LINE
  5
BA
330
1F
100
AcDbEntity
  8
SLD-0
  6
HIDDEN
 62
     8
100
AcDbLine
 10
152.2557324129
 20
146.2130673043
 30
0.0
 11
156.7507078307
 21
146.2130673304
 31
0.0
  0
LINE
  5
BB
330
1F
100
AcDbEntity
  8
SLD-0
  6
HIDDEN
 62
     8
100
AcDbLine
 10
152.8557324129
 20
142.9130673043
 30
0.0
 11
156.1557324039
 21
142.9130672901
 31
0.0
  0
LINE
  5
BC
330
1F
100
AcDbEntity
  8
SLD-0
  6
HIDDEN
 62
     8
100
AcDbLine
 10
152.8557324129
 20
137.2130673043
 30
0.0
 11
156.1557324039
 21
137.2130672522
 31
0.0
  0
LINE
  5
BD
330
1F
100
AcDbEntity
  8
SLD-0
  6
HIDDEN
 62
     8
100
AcDbLine
 10
150.5057324129
 20
149.2130673043
 30
0.0
 11
150.5057324129
 21
146.2130673043
 31
0.0
  0
LINE
  5
BE
330
1F
100
AcDbEntity
  8
SLD-0
  6
HIDDEN
 62
     8
100
AcDbLine
 10
158.5057326029
 20
146.2130673304
 30
0.0
 11
158.5057326029
 21
149.2130673565
 31
0.0
  0
LINE
  5
BF
330
1F
100
AcDbEntity
  8
SLD-0
  6
HIDDEN
 62
     8
100
AcDbLine
 10
152.2557324129
 20
146.2130673043
 30
0.0
 11
152.2557325097
 21
143.5130673186
 31
0.0
  0
LINE
  5
C0
330
1F
100
AcDbEntity
  8
SLD-0
  6
HIDDEN
 62
     8
100
AcDbLine
 10
156.755732316
 20
143.5130673186
 30
0.0
 11
156.755732316
 21
146.2130673304
 31
0.0
  0
LINE
  5
C1
330
1F
100
AcDbEntity
  8
SLD-0
  6
HIDDEN
 62
     8
100
AcDbLine
 10
152.8557324129
 20
142.9130673043
 30
0.0
 11
152.8557324129
 21
137.2130673043
 31
0.0
  0
LINE
  5
C2
330
1F
100
AcDbEntity
  8
SLD-0
  6
HIDDEN
 62
     8
100
AcDbLine
 10
156.1557324039
 20
137.2130672522
 30
0.0
 11
156.1557324039
 21
142.9130672901
 31
0.0
  0
LINE
  5
C3
330
1F
100
AcDbEntity
  8
SLD-0
  6
HIDDEN
 62
     8
100
AcDbLine
 10
150.5057324129
 20
149.2130673043
 30
0.0
 11
150.5057324129
 21
146.2130673043
 31
0.0
  0
LINE
  5
C4
330
1F
100
AcDbEntity
  8
SLD-0
  6
HIDDEN
 62
     8
100
AcDbLine
 10
158.5057326029
 20
146.2130673304
 30
0.0
 11
158.5057326029
 21
149.2130673565
 31
0.0
  0
LINE
  5
C5
330
1F
100
AcDbEntity
  8
SLD-0
  6
HIDDEN
 62
     8
100
AcDbLine
 10
152.2557324129
 20
146.2130673043
 30
0.0
 11
152.2557325097
 21
143.5130673186
 31
0.0
  0
LINE
  5
C6
330
1F
100
AcDbEntity
  8
SLD-0
  6
HIDDEN
 62
     8
100
AcDbLine
 10
156.755732316
 20
143.5130673186
 30
0.0
 11
156.755732316
 21
146.2130673304
 31
0.0
  0
LINE
  5
C7
330
1F
100
AcDbEntity
  8
SLD-0
  6
HIDDEN
 62
     8
100
AcDbLine
 10
152.8557324129
 20
142.9130673043
 30
0.0
 11
152.8557324129
 21
137.2130673043
 31
0.0
  0
LINE
  5
C8
330
1F
100
AcDbEntity
  8
SLD-0
  6
HIDDEN
 62
     8
100
AcDbLine
 10
156.1557324039
 20
137.2130672522
 30
0.0
 11
156.1557324039
 21
142.9130672901
 31
0.0
  0
LINE
  5
C9
330
1F
100
AcDbEntity
  8
SLD-0
  6
HIDDEN
 62
   179
100
AcDbLine
 10
156.5057325079
 20
137.2130672522
 30
0.0
 11
156.5057325079
 21
142.9130672901
 31
0.0
  0
LINE
  5
CA
330
1F
100
AcDbEntity
  8
SLD-0
  6
HIDDEN
 62
   179
100
AcDbLine
 10
152.5057323179
 20
142.9130672901
 30
0.0
 11
152.5057323179
 21
137.2130672522
 31
0.0
  0
LINE
  5
CB
330
1F
100
AcDbEntity
  8
SLD-0
  6
CENTERX2
 62
   179
100
AcDbLine
 10
162.5057324129
 20
143.2130673043
 30
0.0
 11
146.5057324129
 21
143.2130673043
 31
0.0
  0
LINE
  5
CC
330
1F
100
AcDbEntity
  8
SLD-0
  6
CENTERX2
 62
   179
100
AcDbLine
 10
154.5057324129
 20
133.6171787293
 30
0.0
 11
154.5057324129
 21
146.2130673043
 31
0.0
  0
LINE
  5
CD
330
1F
100
AcDbEntity
  8
SLD-0
  6
CENTERX2
 62
   179
100
AcDbLine
 10
154.5057324129
 20
146.2130673043
 30
0.0
 11
154.5057324129
 21
151.2130673043
 31
0.0
  0
LINE
  5
CE
330
1F
100
AcDbEntity
  8
SLD-0
  6
Continuous
 62
   179
100
AcDbLine
 10
64.7892264748
 20
204.278206326
 30
0.0
 11
64.7892264748
 21
192.2782062217
 31
0.0
  0
LINE
  5
CF
330
1F
100
AcDbEntity
  8
SLD-0
  6
Continuous
 62
   179
100
AcDbLine
 10
64.7892264748
 20
192.2782062217
 30
0.0
 11
64.2892273242
 21
192.2782062217
 31
0.0
  0
LINE
  5
D0
330
1F
100
AcDbEntity
  8
SLD-0
  6
Continuous
 62
   179
100
AcDbLine
 10
64.2892273242
 20
192.2782062217
 30
0.0
 11
64.2892273242
 21
204.278206326
 31
0.0
  0
LINE
  5
D1
330
1F
100
AcDbEntity
  8
SLD-0
  6
Continuous
 62
   179
100
AcDbLine
 10
64.2892273242
 20
204.278206326
 30
0.0
 11
64.7892264748
 21
204.278206326
 31
0.0
  0
LINE
  5
D2
330
1F
100
AcDbEntity
  8
SLD-0
  6
Continuous
 62
   179
100
AcDbLine
 10
98.7892283226
 20
192.2782062217
 30
0.0
 11
98.7892283226
 21
204.278206326
 31
0.0
  0
LINE
  5
D3
330
1F
100
AcDbEntity
  8
SLD-0
  6
Continuous
 62
   179
100
AcDbLine
 10
98.7892283226
 20
192.2782062217
 30
0.0
 11
64.7892264748
 21
192.2782062217
 31
0.0
  0
LINE
  5
D4
330
1F
100
AcDbEntity
  8
SLD-0
  6
Continuous
 62
   179
100
AcDbLine
 10
98.7892283226
 20
204.278206326
 30
0.0
 11
64.7892264748
 21
204.278206326
 31
0.0
  0
LINE
  5
D5
330
1F
100
AcDbEntity
  8
SLD-0
  6
Continuous
 62
   179
100
AcDbLine
 10
99.2892274732
 20
204.278206326
 30
0.0
 11
99.2892274732
 21
192.2782062217
 31
0.0
  0
LINE
  5
D6
330
1F
100
AcDbEntity
  8
SLD-0
  6
Continuous
 62
   179
100
AcDbLine
 10
99.2892274732
 20
192.2782062217
 30
0.0
 11
98.7892283226
 21
192.2782062217
 31
0.0
  0
LINE
  5
D7
330
1F
100
AcDbEntity
  8
SLD-0
  6
Continuous
 62
   179
100
AcDbLine
 10
98.7892283226
 20
204.278206326
 30
0.0
 11
99.2892274732
 21
204.278206326
 31
0.0
  0
LINE
  5
D8
330
1F
100
AcDbEntity
  8
SLD-0
  6
HIDDEN
 62
     8
100
AcDbLine
 10
90.7779617334
 20
204.278206326
 30
0.0
 11
90.7779617334
 21
192.2782062217
 31
0.0
  0
LINE
  5
D9
330
1F
100
AcDbEntity
  8
SLD-0
  6
HIDDEN
 62
     8
100
AcDbLine
 10
72.800493064
 20
204.278206326
 30
0.0
 11
72.800493064
 21
192.2782062217
 31
0.0
  0
LINE
  5
DA
330
1F
100
AcDbEntity
  8
SLD-0
  6
HIDDEN
 62
     8
100
AcDbLine
 10
72.800493064
 20
204.278206326
 30
0.0
 11
72.800493064
 21
192.2782062217
 31
0.0
  0
LINE
  5
DB
330
1F
100
AcDbEntity
  8
SLD-0
  6
HIDDEN
 62
     8
100
AcDbLine
 10
82.7892274462
 20
204.278206326
 30
0.0
 11
82.7892274462
 21
192.2782062217
 31
0.0
  0
LINE
  5
DC
330
1F
100
AcDbEntity
  8
SLD-0
  6
HIDDEN
 62
     8
100
AcDbLine
 10
80.7892273512
 20
192.2782062217
 30
0.0
 11
80.7892273512
 21
204.278206326
 31
0.0
  0
LINE
  5
DD
330
1F
100
AcDbEntity
  8
SLD-0
  6
CENTERX2
 62
   179
100
AcDbLine
 10
76.7892273987
 20
206.2782062739
 30
0.0
 11
76.7892273987
 21
190.2782062739
 31
0.0
  0
LINE
  5
DE
330
1F
100
AcDbEntity
  8
SLD-0
  6
CENTERX2
 62
   179
100
AcDbLine
 10
86.7892273987
 20
206.2782062739
 30
0.0
 11
86.7892273987
 21
190.2782062739
 31
0.0
  0
ARC
  5
DF
330
1F
100
AcDbEntity
  8
SLD-0
  6
Continuous
 62
   179
100
AcDbCircle
 10
86.7892273987
 20
143.2130673043
 30
0.0
 40
3.999999999999999
100
AcDbArc
 50
4.3012223115
 51
355.6987776953
  0
ARC
  5
E0
330
1F
100
AcDbEntity
  8
SLD-0
  6
Continuous
 62
   179
100
AcDbCircle
 10
76.7892273987
 20
143.2130673043
 30
0.0
 40
3.999999999964277
100
AcDbArc
 50
184.3012223047
 51
175.6987776953
  0
CIRCLE
  5
E1
330
1F
100
AcDbEntity
  8
SLD-0
  6
Continuous
 62
   179
100
AcDbCircle
 10
94.2892273987
 20
198.2782062739
 30
0.0
 40
4.0
  0
CIRCLE
  5
E2
330
1F
100
AcDbEntity
  8
SLD-0
  6
Continuous
 62
   179
100
AcDbCircle
 10
69.2892273987
 20
198.2782062739
 30
0.0
 40
4.000000000000014
  0
CIRCLE
  5
E3
330
1F
100
AcDbEntity
  8
SLD-0
  6
Continuous
 62
   179
100
AcDbCircle
 10
69.2892273987
 20
198.2782062739
 30
0.0
 40
2.250000000000014
  0
CIRCLE
  5
E4
330
1F
100
AcDbEntity
  8
SLD-0
  6
Continuous
 62
   179
100
AcDbCircle
 10
94.2892273987
 20
198.2782062739
 30
0.0
 40
2.25
  0
CIRCLE
  5
E5
330
1F
100
AcDbEntity
  8
SLD-0
  6
Continuous
 62
   179
100
AcDbCircle
 10
69.2892273987
 20
198.2782062739
 30
0.0
 40
1.650000000000006
  0
CIRCLE
  5
E6
330
1F
100
AcDbEntity
  8
SLD-0
  6
Continuous
 62
   179
100
AcDbCircle
 10
94.2892273987
 20
198.2782062739
 30
0.0
 40
1.650000000000006
  0
CIRCLE
  5
E7
330
1F
100
AcDbEntity
  8
SLD-0
 62
   179
100
AcDbCircle
 10
94.2892273987
 20
198.2782062739
 30
0.0
 40
1.999999582800001
  0
CIRCLE
  5
E8
330
1F
100
AcDbEntity
  8
SLD-0
 62
   179
100
AcDbCircle
 10
69.2892273987
 20
198.2782062739
 30
0.0
 40
2.000000141599998
  0
DIMENSION
  5
E9
330
1F
100
AcDbEntity
  8
SLD-0
 62
     7
100
AcDbDimension
  2
*D8
 10
86.7892273987
 20
163.3321468251
 30
0.0
 11
93.0392273987
 21
163.3321468251
 31
0.0
 70
   160
 71
     1
 42
12.5
  3
SLDDIMSTYLE0
100
AcDbAlignedDimension
 13
99.2892273987
 23
149.2130673043
 33
0.0
 14
86.7892273987
 24
143.2130673043
 34
0.0
100
AcDbRotatedDimension
1001
ACAD
1000
DSTYLE
1002
{
1070
    77
1070
     3
1070
   143
1040
0.0393700787
1070
    41
1040
3.0
1070
    44
1040
1.0
1070
    42
1040
1.0
1070
   147
1040
1.524
1070
    73
1070
     0
1070
    74
1070
     0
1070
   140
1040
3.5
1070
   284
1070
    12
1070
    78
1070
    12
1002
}
  0
DIMENSION
  5
105
330
1F
100
AcDbEntity
  8
SLD-0
 62
     7
100
AcDbDimension
  2
*D10
 10
86.7892273987
 20
163.3321468251
 30
0.0
 11
81.7892273987
 21
163.3321468251
 31
0.0
 70
   160
 71
     1
 42
10.0
  3
SLDDIMSTYLE1
100
AcDbAlignedDimension
 13
76.7892273987
 23
143.2130673043
 33
0.0
 14
86.7892273987
 24
143.2130673043
 34
0.0
100
AcDbRotatedDimension
1001
ACAD
1000
DSTYLE
1002
{
1070
    77
1070
     3
1070
   143
1040
0.0393700787
1070
    41
1040
3.0
1070
    44
1040
1.0
1070
    42
1040
1.0
1070
   147
1040
1.524
1070
    73
1070
     0
1070
    74
1070
     0
1070
   140
1040
3.5
1070
   284
1070
    12
1070
    78
1070
    12
1002
}
  0
DIMENSION
  5
11D
330
1F
100
AcDbEntity
  8
SLD-0
 62
     7
100
AcDbDimension
  2
*D11
 10
115.9219168767
 20
143.5130673043
 30
0.0
 11
115.9219168767
 21
135.6232884257
 31
0.0
 70
   160
 71
     1
 42
0.6
  3
SLDDIMSTYLE2
100
AcDbAlignedDimension
 13
72.8004932637
 23
142.9130673043
 33
0.0
 14
72.8004932637
 24
143.5130673043
 34
0.0
 50
90.0
100
AcDbRotatedDimension
1001
ACAD
1000
DSTYLE
1002
{
1070
    77
1070
     3
1070
   143
1040
0.0393700787
1070
    41
1040
3.0
1070
    44
1040
1.0
1070
    42
1040
1.0
1070
   147
1040
1.524
1070
    73
1070
     0
1070
    74
1070
     0
1070
   140
1040
3.5
1070
   284
1070
    12
1070
    78
1070
     8
1002
}
  0
DIMENSION
  5
139
330
1F
100
AcDbEntity
  8
SLD-0
100
AcDbDimension
  2
*D12
 10
122.5142192161
 20
149.2130673043
 30
0.0
 11
122.5142192161
 21
146.2130673043
 31
0.0
 70
   160
 71
     1
 42
6.0
  3
SLDDIMSTYLE1
100
AcDbAlignedDimension
 13
93.2892273987
 23
143.2130673043
 33
0.0
 14
98.7892273987
 24
149.2130673043
 34
0.0
 50
90.0
100
AcDbRotatedDimension
1001
ACAD
1000
DSTYLE
1002
{
1070
    77
1070
     3
1070
   143
1040
0.0393700787
1070
    41
1040
3.0
1070
    44
1040
1.0
1070
    42
1040
1.0
1070
   147
1040
1.524
1070
    73
1070
     0
1070
    74
1070
     0
1070
   140
1040
3.5
1070
   284
1070
    12
1070
    78
1070
    12
1002
}
  0
DIMENSION
  5
153
330
1F
100
AcDbEntity
  8
SLD-0
 62
     7
100
AcDbDimension
  2
*D13
 10
160.5057324129
 20
159.5314711573
 30
0.0
 11
154.5057324129
 21
159.5314711573
 31
0.0
 70
   160
 71
     1
 42
12.0
  3
SLDDIMSTYLE1
100
AcDbAlignedDimension
 13
148.5057324129
 23
149.2130673043
 33
0.0
 14
160.5057324129
 24
149.2130673043
 34
0.0
100
AcDbRotatedDimension
1001
ACAD
1000
DSTYLE
1002
{
1070
    77
1070
     3
1070
   143
1040
0.0393700787
1070
    41
1040
3.0
1070
    44
1040
1.0
1070
    42
1040
1.0
1070
   147
1040
1.524
1070
    73
1070
     0
1070
    74
1070
     0
1070
   140
1040
3.5
1070
   284
1070
    12
1070
    78
1070
    12
1002
}
  0
DIMENSION
  5
16A
330
1F
100
AcDbEntity
  8
SLD-0
 62
     7
100
AcDbDimension
  2
*D14
 10
169.9647344102
 20
149.2130673043
 30
0.0
 11
169.9647344102
 21
143.2130673043
 31
0.0
 70
   160
 71
     1
 42
12.0
  3
SLDDIMSTYLE1
100
AcDbAlignedDimension
 13
160.5057324129
 23
137.2130673043
 33
0.0
 14
160.5057324129
 24
149.2130673043
 34
0.0
 50
90.0
100
AcDbRotatedDimension
1001
ACAD
1000
DSTYLE
1002
{
1070
    77
1070
     3
1070
   143
1040
0.0393700787
1070
    41
1040
3.0
1070
    44
1040
1.0
1070
    42
1040
1.0
1070
   147
1040
1.524
1070
    73
1070
     0
1070
    74
1070
     0
1070
   140
1040
3.5
1070
   284
1070
    12
1070
    78
1070
    12
1002
}
  0
DIMENSION
  5
182
330
1F
100
AcDbEntity
  8
SLD-0
 62
     7
100
AcDbDimension
  2
*D15
 10
64.2892273987
 20
227.1108369078
 30
0.0
 11
81.7892273987
 21
227.1108369078
 31
0.0
 70
   160
 71
     1
 42
35.0
  3
SLDDIMSTYLE1
100
AcDbAlignedDimension
 13
99.2892273987
 23
204.2782062739
 33
0.0
 14
64.2892273987
 24
204.2782062739
 34
0.0
100
AcDbRotatedDimension
1001
ACAD
1000
DSTYLE
1002
{
1070
    77
1070
     3
1070
   143
1040
0.0393700787
1070
    41
1040
3.0
1070
    44
1040
1.0
1070
    42
1040
1.0
1070
   147
1040
1.524
1070
    73
1070
     0
1070
    74
1070
     0
1070
   140
1040
3.5
1070
   284
1070
    12
1070
    78
1070
    12
1002
}
  0
DIMENSION
  5
199
330
1F
100
AcDbEntity
  8
SLD-0
100
AcDbDimension
  2
*D16
 10
94.2892273987
 20
218.9702028196
 30
0.0
 11
81.7892273987
 21
218.9702028196
 31
0.0
 70
   160
 71
     1
 42
25.0
  3
SLDDIMSTYLE1
100
AcDbAlignedDimension
 13
69.2892273987
 23
204.7782062739
 33
0.0
 14
94.2892273987
 24
204.7782062739
 34
0.0
100
AcDbRotatedDimension
1001
ACAD
1000
DSTYLE
1002
{
1070
    77
1070
     3
1070
   143
1040
0.0393700787
1070
    41
1040
3.0
1070
    44
1040
1.0
1070
    42
1040
1.0
1070
   147
1040
1.524
1070
    73
1070
     0
1070
    74
1070
     0
1070
   140
1040
3.5
1070
   284
1070
    12
1070
    78
1070
    12
1002
}
  0
DIMENSION
  5
1B0
330
1F
100
AcDbEntity
  8
SLD-0
 62
     7
100
AcDbDimension
  2
*D17
 10
1.9325459503
 20
4.0638973841
 30
0.0
 11
125.0427405582
 21
-5.4185304076
 31
0.0
 70
   163
  1
2-<>,%%c8ｻﾞｸﾞﾘ深3
 71
     1
 42
4.4999995332
  3
SLDDIMSTYLE3
100
AcDbDiametricDimension
 15
0.0
 25
0.0
 35
0.0
 40
0.0
1001
ACAD
1000
DSTYLE
1002
{
1070
    77
1070
     0
1070
   143
1040
0.0393700787
1070
    41
1040
3.0
1070
    44
1040
1.0
1070
    42
1040
1.0
1070
   147
1040
1.524
1070
    73
1070
     1
1070
    74
1070
     1
1070
   140
1040
3.5
1070
   284
1070
    12
1070
    78
1070
    12
1002
}
  0
DIMENSION
  5
1C6
330
1F
100
AcDbEntity
  8
SLD-0
 62
     7
100
AcDbDimension
  2
*D18
 10
94.2892273987
 20
218.9702028196
 30
0.0
 11
96.7892273987
 21
218.9702028196
 31
0.0
 70
   160
 71
     1
 42
5.0
  3
SLDDIMSTYLE1
100
AcDbAlignedDimension
 13
99.2892273987
 23
204.2782062739
 33
0.0
 14
94.2892273987
 24
204.7782062739
 34
0.0
100
AcDbRotatedDimension
1001
ACAD
1000
DSTYLE
1002
{
1070
    77
1070
     3
1070
   143
1040
0.0393700787
1070
    41
1040
3.0
1070
    44
1040
1.0
1070
    42
1040
1.0
1070
   147
1040
1.524
1070
    73
1070
     0
1070
    74
1070
     0
1070
   140
1040
3.5
1070
   284
1070
    12
1070
    78
1070
    12
1002
}
  0
MTEXT
  5
1E0
330
1F
100
AcDbEntity
  8
SLD-0
 62
     7
100
AcDbMText
 10
147.4068839569
 20
29.7138882404
 30
0.0
 40
4.2333333333
 41
0.0
 71
     1
 72
     1
  1
N01861-107-1
  7
SLDTEXTSTYLE1
 73
     1
 44
1.0
  0
MTEXT
  5
1E2
330
1F
100
AcDbEntity
  8
SLD-0
 62
     7
100
AcDbMText
 10
137.3518394887
 20
43.2377018572
 30
0.0
 40
4.2333333333
 41
0.0
 71
     1
 72
     1
  1
8-8 Parallel Connecter
  7
SLDTEXTSTYLE2
 73
     1
 44
1.0
  0
MTEXT
  5
1E3
330
1F
100
AcDbEntity
  8
SLD-0
 62
     7
100
AcDbMText
 10
48.3119047313
 20
135.5155306861
 30
0.0
 40
3.5
 41
0.0
 71
     1
 72
     1
  1
4-
  7
SLDTEXTSTYLE1
 11
0.9360004427059989
 21
0.351998822802256
 31
0.0
 73
     1
 44
1.0
  0
MTEXT
  5
1E4
330
1F
100
AcDbEntity
  8
SLD-0
 62
     7
100
AcDbMText
 10
52.1233708019
 20
136.9488970701
 30
0.0
 40
3.5
 41
0.0
 71
     1
 72
     1
  1
C
  7
SLDTEXTSTYLE1
 11
0.9360004427059989
 21
0.351998822802256
 31
0.0
 73
     1
 44
1.0
  0
MTEXT
  5
1E5
330
1F
100
AcDbEntity
  8
SLD-0
 62
     7
100
AcDbMText
 10
54.0291038373
 20
137.6655802621
 30
0.0
 40
3.5
 41
0.0
 71
     1
 72
     1
  1
0.5
  7
SLDTEXTSTYLE1
 11
0.9360004427059989
 21
0.351998822802256
 31
0.0
 73
     1
 44
1.0
  0
HATCH
  5
1E6
330
1F
100
AcDbEntity
  8
0
  6
Continuous
 62
   179
100
AcDbHatch
 10
0.0
 20
0.0
 30
0.0
210
0.0
220
0.0
230
1.0
  2
ANSI31
 70
     0
 71
     0
 91
        1
 92
        0
 93
        3
 72
     1
 10
67.83631444260374
 20
134.3208493238063
 11
66.9491510072434
 21
134.7823046726317
 72
     1
 10
66.9491510072434
 20
134.7823046726317
 11
68.77709877140001
 21
137.2130673043
 72
     1
 10
68.77709877140001
 20
137.2130673043
 11
67.83631444260374
 21
134.3208493238063
 97
        0
 75
     0
 76
     1
 52
0.0
 41
1.0
 77
     0
 78
     1
 53
45.00000209717174
 43
0.0
 44
0.0
 45
-2.245064112442359
 46
2.245063948092215
 79
     0
 98
        1
 10
0.0
 20
0.0
  0
INSERT
  5
1E7
330
1F
100
AcDbEntity
  8
0
  6
Continuous
 62
     7
370
     0
100
AcDbBlockReference
  2
_OPEN30
 10
64.5392273987
 20
137.4630673043
 30
0.0
 41
3.0
 42
3.0
 43
3.0
 50
20.7447724205
  0
INSERT
  5
1E8
330
1F
100
AcDbEntity
  8
0
  6
Continuous
 62
     7
370
     0
100
AcDbBlockReference
  2
NOTE48
 10
53.2606660465
 20
124.0076532558
 30
0.0
  0
INSERT
  5
1E9
330
1F
100
AcDbEntity
  8
0
  6
Continuous
 62
     7
370
     0
100
AcDbBlockReference
  2
SW_CENTERMARK0
 10
0.0
 20
0.0
 30
0.0
  0
INSERT
  5
1EA
330
1F
100
AcDbEntity
  8
0
  6
Continuous
 62
     7
370
     0
100
AcDbBlockReference
  2
SW_CENTERMARK1
 10
0.0
 20
0.0
 30
0.0
  0
INSERT
  5
1EB
330
1F
100
AcDbEntity
  8
0
  6
Continuous
 62
     7
370
     0
100
AcDbBlockReference
  2
SW_CENTERMARK2
 10
0.0
 20
0.0
 30
0.0
  0
INSERT
  5
1EC
330
1F
100
AcDbEntity
  8
0
  6
Continuous
 62
     7
370
     0
100
AcDbBlockReference
  2
SW_CENTERMARK3
 10
0.0
 20
0.0
 30
0.0
  0
ENDSEC
  0
SECTION
  2
OBJECTS
  0
DICTIONARY
  5
C
330
0
100
AcDbDictionary
281
     1
  3
ACAD_GROUP
350
D
  3
ACAD_LAYOUT
350
1A
  3
ACAD_MLINESTYLE
350
17
  3
ACAD_PLOTSETTINGS
350
19
  3
ACAD_PLOTSTYLENAME
350
E
  0
DICTIONARY
  5
D
102
{ACAD_REACTORS
330
C
102
}
330
C
100
AcDbDictionary
281
     1
  0
DICTIONARY
  5
1A
102
{ACAD_REACTORS
330
C
102
}
330
C
100
AcDbDictionary
281
     1
  3
Layout1
350
1E
  3
Layout2
350
26
  3
Model
350
22
  0
DICTIONARY
  5
17
102
{ACAD_REACTORS
330
C
102
}
330
C
100
AcDbDictionary
281
     1
  3
Standard
350
18
  0
DICTIONARY
  5
19
102
{ACAD_REACTORS
330
C
102
}
330
C
100
AcDbDictionary
281
     1
  0
ACDBDICTIONARYWDFLT
  5
E
102
{ACAD_REACTORS
330
C
102
}
330
C
100
AcDbDictionary
281
     1
  3
Normal
350
F
100
AcDbDictionaryWithDefault
340
F
  0
LAYOUT
  5
1E
102
{ACAD_REACTORS
330
1A
102
}
330
1A
100
AcDbPlotSettings
  1

  2

  4

  6

 40
0.0
 41
0.0
 42
0.0
 43
0.0
 44
0.0
 45
0.0
 46
0.0
 47
0.0
 48
0.0
 49
0.0
140
0.0
141
0.0
142
1.0
143
1.0
 70
   688
 72
     0
 73
     0
 74
     5
  7

 75
    16
147
1.0
148
0.0
149
0.0
100
AcDbLayout
  1
Layout1
 70
     1
 71
     1
 10
0.0
 20
0.0
 11
0.0
 21
0.0
 12
0.0
 22
0.0
 32
0.0
 14
0.0
 24
0.0
 34
0.0
 15
0.0
 25
0.0
 35
0.0
146
0.0
 13
0.0
 23
0.0
 33
0.0
 16
1.0
 26
0.0
 36
0.0
 17
0.0
 27
1.0
 37
0.0
 76
     0
330
1B
  0
LAYOUT
  5
26
102
{ACAD_REACTORS
330
1A
102
}
330
1A
100
AcDbPlotSettings
  1

  2

  4

  6

 40
0.0
 41
0.0
 42
0.0
 43
0.0
 44
0.0
 45
0.0
 46
0.0
 47
0.0
 48
0.0
 49
0.0
140
0.0
141
0.0
142
1.0
143
1.0
 70
   688
 72
     0
 73
     0
 74
     5
  7

 75
    16
147
1.0
148
0.0
149
0.0
100
AcDbLayout
  1
Layout2
 70
     1
 71
     2
 10
0.0
 20
0.0
 11
0.0
 21
0.0
 12
0.0
 22
0.0
 32
0.0
 14
0.0
 24
0.0
 34
0.0
 15
0.0
 25
0.0
 35
0.0
146
0.0
 13
0.0
 23
0.0
 33
0.0
 16
1.0
 26
0.0
 36
0.0
 17
0.0
 27
1.0
 37
0.0
 76
     0
330
23
  0
LAYOUT
  5
22
102
{ACAD_REACTORS
330
1A
102
}
330
1A
100
AcDbPlotSettings
  1

  2

  4

  6

 40
0.0
 41
0.0
 42
0.0
 43
0.0
 44
0.0
 45
0.0
 46
0.0
 47
0.0
 48
0.0
 49
0.0
140
0.0
141
0.0
142
1.0
143
1.0
 70
  1712
 72
     0
 73
     0
 74
     0
  7

 75
     0
147
1.0
148
0.0
149
0.0
100
AcDbLayout
  1
Model
 70
     1
 71
     0
 10
0.0
 20
0.0
 11
0.0
 21
0.0
 12
0.0
 22
0.0
 32
0.0
 14
0.0
 24
0.0
 34
0.0
 15
210.0
 25
297.0
 35
0.0
146
0.0
 13
0.0
 23
0.0
 33
0.0
 16
1.0
 26
0.0
 36
0.0
 17
0.0
 27
1.0
 37
0.0
 76
     0
330
1F
  0
MLINESTYLE
  5
18
102
{ACAD_REACTORS
330
17
102
}
330
17
100
AcDbMlineStyle
  2
Standard
 70
     0
  3

 62
   256
 51
90.0
 52
90.0
 71
     2
 49
0.5
 62
   256
  6
BYLAYER
 49
-0.5
 62
   256
  6
BYLAYER
  0
ACDBPLACEHOLDER
  5
F
102
{ACAD_REACTORS
330
E
102
}
330
E
  0
ENDSEC
  0
EOF
