  0
SECTION
  2
HEADER
  9
$ACADVER
  1
AC1015
  9
$ACADMAINTVER
 70
     6
  9
$DWGCODEPAGE
  3
DOS932
  9
$INSBASE
 10
0.0
 20
0.0
 30
0.0
  9
$EXTMIN
 10
0.0
 20
0.0
 30
0.0
  9
$EXTMAX
 10
210.0
 20
297.0
 30
0.0
  9
$LIMMIN
 10
0.0
 20
0.0
  9
$LIMMAX
 10
0.0
 20
0.0
  9
$ORTHOMODE
 70
     0
  9
$REGENMODE
 70
     1
  9
$FILLMODE
 70
     1
  9
$QTEXTMODE
 70
     0
  9
$MIRRTEXT
 70
     1
  9
$LTSCALE
 40
1.0
  9
$ATTMODE
 70
     1
  9
$TEXTSIZE
 40
3.5
  9
$TRACEWID
 40
1.0
  9
$TEXTSTYLE
  7
Standard
  9
$CLAYER
  8
0
  9
$CELTYPE
  6
ByLayer
  9
$CECOLOR
 62
   256
  9
$CELTSCALE
 40
1.0
  9
$DISPSILH
 70
     0
  9
$DIMSCALE
 40
1.0
  9
$DIMASZ
 40
3.0
  9
$DIMEXO
 40
1.0
  9
$DIMDLI
 40
3.75
  9
$DIMRND
 40
0.0
  9
$DIMDLE
 40
0.0
  9
$DIMEXE
 40
1.0
  9
$DIMTP
 40
0.0
  9
$DIMTM
 40
0.0
  9
$DIMTXT
 40
3.5
  9
$DIMCEN
 40
2.5
  9
$DIMTSZ
 40
0.0
  9
$DIMTOL
 70
     0
  9
$DIMLIM
 70
     0
  9
$DIMTIH
 70
     1
  9
$DIMTOH
 70
     1
  9
$DIMSE1
 70
     0
  9
$DIMSE2
 70
     0
  9
$DIMTAD
 70
     1
  9
$DIMZIN
 70
     1
  9
$DIMBLK
  1

  9
$DIMASO
 70
     1
  9
$DIMSHO
 70
     1
  9
$DIMPOST
  1

  9
$DIMAPOST
  1

  9
$DIMALT
 70
     0
  9
$DIMALTD
 70
     3
  9
$DIMALTF
 40
0.0393700787
  9
$DIMLFAC
 40
1.0
  9
$DIMTOFL
 70
     1
  9
$DIMTVP
 40
0.0
  9
$DIMTIX
 70
     0
  9
$DIMSOXD
 70
     0
  9
$DIMSAH
 70
     0
  9
$DIMBLK1
  1

  9
$DIMBLK2
  1

  9
$DIMSTYLE
  2
ISO-25
  9
$DIMCLRD
 70
     0
  9
$DIMCLRE
 70
     0
  9
$DIMCLRT
 70
     0
  9
$DIMTFAC
 40
1.0
  9
$DIMGAP
 40
1.524
  9
$DIMJUST
 70
     0
  9
$DIMSD1
 70
     0
  9
$DIMSD2
 70
     0
  9
$DIMTOLJ
 70
     0
  9
$DIMTZIN
 70
     1
  9
$DIMALTZ
 70
     0
  9
$DIMALTTZ
 70
     0
  9
$DIMUPT
 70
     0
  9
$DIMDEC
 70
     2
  9
$DIMTDEC
 70
     2
  9
$DIMALTU
 70
     2
  9
$DIMALTTD
 70
     3
  9
$DIMTXSTY
  7
Standard
  9
$DIMAUNIT
 70
     0
  9
$DIMADEC
 70
     0
  9
$DIMALTRND
 40
0.0
  9
$DIMAZIN
 70
     0
  9
$DIMDSEP
 70
    44
  9
$DIMATFIT
 70
     3
  9
$DIMFRAC
 70
     0
  9
$DIMLDRBLK
  1

  9
$DIMLUNIT
 70
     2
  9
$DIMLWD
 70
    -2
  9
$DIMLWE
 70
    -2
  9
$DIMTMOVE
 70
     0
  9
$LUNITS
 70
     2
  9
$LUPREC
 70
     1
  9
$SKETCHINC
 40
1.0
  9
$FILLETRAD
 40
10.0
  9
$AUNITS
 70
     0
  9
$AUPREC
 70
     0
  9
$MENU
  1
.
  9
$ELEVATION
 40
0.0
  9
$PELEVATION
 40
0.0
  9
$THICKNESS
 40
0.0
  9
$LIMCHECK
 70
     0
  9
$CHAMFERA
 40
10.0
  9
$CHAMFERB
 40
10.0
  9
$CHAMFERC
 40
20.0
  9
$CHAMFERD
 40
0.0
  9
$SKPOLY
 70
     0
  9
$TDCREATE
 40
2454359.439050197
  9
$TDUCREATE
 40
2454359.064050197
  9
$TDUPDATE
 40
2454359.439050208
  9
$TDUUPDATE
 40
2454359.064050208
  9
$TDINDWG
 40
0.0000000116
  9
$TDUSRTIMER
 40
0.0000000116
  9
$USRTIMER
 70
     1
  9
$ANGBASE
 50
0.0
  9
$ANGDIR
 70
     0
  9
$PDMODE
 70
     0
  9
$PDSIZE
 40
-1.0
  9
$PLINEWID
 40
0.0
  9
$SPLFRAME
 70
     0
  9
$SPLINETYPE
 70
     6
  9
$SPLINESEGS
 70
     8
  9
$HANDSEED
  5
23E
  9
$SURFTAB1
 70
     6
  9
$SURFTAB2
 70
     6
  9
$SURFTYPE
 70
     6
  9
$SURFU
 70
     6
  9
$SURFV
 70
     6
  9
$UCSBASE
  2

  9
$UCSNAME
  2

  9
$UCSORG
 10
0.0
 20
0.0
 30
0.0
  9
$UCSXDIR
 10
1.0
 20
0.0
 30
0.0
  9
$UCSYDIR
 10
0.0
 20
1.0
 30
0.0
  9
$UCSORTHOREF
  2

  9
$UCSORTHOVIEW
 70
     0
  9
$UCSORGTOP
 10
0.0
 20
0.0
 30
0.0
  9
$UCSORGBOTTOM
 10
0.0
 20
0.0
 30
0.0
  9
$UCSORGLEFT
 10
0.0
 20
0.0
 30
0.0
  9
$UCSORGRIGHT
 10
0.0
 20
0.0
 30
0.0
  9
$UCSORGFRONT
 10
0.0
 20
0.0
 30
0.0
  9
$UCSORGBACK
 10
0.0
 20
0.0
 30
0.0
  9
$PUCSBASE
  2

  9
$PUCSNAME
  2

  9
$PUCSORG
 10
0.0
 20
0.0
 30
0.0
  9
$PUCSXDIR
 10
1.0
 20
0.0
 30
0.0
  9
$PUCSYDIR
 10
0.0
 20
1.0
 30
0.0
  9
$PUCSORTHOREF
  2

  9
$PUCSORTHOVIEW
 70
     0
  9
$PUCSORGTOP
 10
0.0
 20
0.0
 30
0.0
  9
$PUCSORGBOTTOM
 10
0.0
 20
0.0
 30
0.0
  9
$PUCSORGLEFT
 10
0.0
 20
0.0
 30
0.0
  9
$PUCSORGRIGHT
 10
0.0
 20
0.0
 30
0.0
  9
$PUCSORGFRONT
 10
0.0
 20
0.0
 30
0.0
  9
$PUCSORGBACK
 10
0.0
 20
0.0
 30
0.0
  9
$USERI1
 70
     0
  9
$USERI2
 70
     0
  9
$USERI3
 70
     0
  9
$USERI4
 70
     0
  9
$USERI5
 70
     0
  9
$USERR1
 40
0.0
  9
$USERR2
 40
0.0
  9
$USERR3
 40
0.0
  9
$USERR4
 40
0.0
  9
$USERR5
 40
0.0
  9
$WORLDVIEW
 70
     1
  9
$SHADEDGE
 70
     3
  9
$SHADEDIF
 70
    70
  9
$TILEMODE
 70
     1
  9
$MAXACTVP
 70
    64
  9
$PINSBASE
 10
0.0
 20
0.0
 30
0.0
  9
$PLIMCHECK
 70
     0
  9
$PEXTMIN
 10
1.0000000000E+20
 20
1.0000000000E+20
 30
1.0000000000E+20
  9
$PEXTMAX
 10
-1.0000000000E+20
 20
-1.0000000000E+20
 30
-1.0000000000E+20
  9
$PLIMMIN
 10
0.0
 20
0.0
  9
$PLIMMAX
 10
420.0
 20
297.0
  9
$UNITMODE
 70
     0
  9
$VISRETAIN
 70
     1
  9
$PLINEGEN
 70
     0
  9
$PSLTSCALE
 70
     1
  9
$TREEDEPTH
 70
  3020
  9
$CMLSTYLE
  2
Standard
  9
$CMLJUST
 70
     0
  9
$CMLSCALE
 40
20.0
  9
$PROXYGRAPHICS
 70
     1
  9
$MEASUREMENT
 70
     1
  9
$CELWEIGHT
370
    -1
  9
$ENDCAPS
280
     0
  9
$JOINSTYLE
280
     0
  9
$LWDISPLAY
290
     1
  9
$INSUNITS
 70
     4
  9
$HYPERLINKBASE
  1

  9
$STYLESHEET
  1

  9
$XEDIT
290
     1
  9
$CEPSNTYPE
380
     0
  9
$PSTYLEMODE
290
     1
  9
$FINGERPRINTGUID
  2
{EC1F3FB4-CB81-41A2-AE6A-AED61D53EF51}
  9
$VERSIONGUID
  2
{FAEB1C32-E019-11D5-929B-00C0DF256EC4}
  9
$EXTNAMES
290
     1
  9
$PSVPSCALE
 40
0.0
  9
$OLESTARTUP
290
     0
  0
ENDSEC
  0
SECTION
  2
CLASSES
  0
CLASS
  1
ACDBDICTIONARYWDFLT
  2
AcDbDictionaryWithDefault
  3
ObjectDBX Classes
 90
        0
280
     0
281
     0
  0
CLASS
  1
ACDBPLACEHOLDER
  2
AcDbPlaceHolder
  3
ObjectDBX Classes
 90
        0
280
     0
281
     0
  0
CLASS
  1
LAYOUT
  2
AcDbLayout
  3
ObjectDBX Classes
 90
        0
280
     0
281
     0
  0
ENDSEC
  0
SECTION
  2
TABLES
  0
TABLE
  2
VPORT
  5
8
330
0
100
AcDbSymbolTable
 70
     1
  0
VPORT
  5
29
330
8
100
AcDbSymbolTableRecord
100
AcDbViewportTableRecord
  2
*Active
 70
     0
 10
0.0
 20
0.0
 11
1.0
 21
1.0
 12
105.0
 22
148.5
 13
0.0
 23
0.0
 14
10.0
 24
10.0
 15
10.0
 25
10.0
 16
0.0
 26
0.0
 36
1.0
 17
0.0
 27
0.0
 37
0.0
 40
297.0
 41
1.9729729729
 42
50.0
 43
0.0
 44
0.0
 50
0.0
 51
0.0
 71
     0
 72
  2000
 73
     1
 74
     3
 75
     0
 76
     0
 77
     0
 78
     0
281
     0
 65
     1
110
0.0
120
0.0
130
0.0
111
1.0
121
0.0
131
0.0
112
0.0
122
1.0
132
0.0
 79
     0
146
0.0
  0
ENDTAB
  0
TABLE
  2
LTYPE
  5
5
330
0
100
AcDbSymbolTable
 70
     6
  0
LTYPE
  5
14
330
5
100
AcDbSymbolTableRecord
100
AcDbLinetypeTableRecord
  2
ByBlock
 70
     0
  3

 72
    65
 73
     0
 40
0.0
  0
LTYPE
  5
15
330
5
100
AcDbSymbolTableRecord
100
AcDbLinetypeTableRecord
  2
ByLayer
 70
     0
  3

 72
    65
 73
     0
 40
0.0
  0
LTYPE
  5
16
330
5
100
AcDbSymbolTableRecord
100
AcDbLinetypeTableRecord
  2
Continuous
 70
     0
  3
Solid line
 72
    65
 73
     0
 40
0.0
  0
LTYPE
  5
2A
330
5
100
AcDbSymbolTableRecord
100
AcDbLinetypeTableRecord
  2
HIDDEN
 70
     0
  3
Hidden __ __ __ __ __ __ __ __ __ __ __ __ __ __
 72
    65
 73
     2
 40
1.905
 49
1.27
 74
     0
 49
-0.635
 74
     0
  0
LTYPE
  5
2B
330
5
100
AcDbSymbolTableRecord
100
AcDbLinetypeTableRecord
  2
PHANTOM
 70
     0
  3
Phantom ______  __  __  ______  __  __  ______
 72
    65
 73
     6
 40
12.7
 49
6.35
 74
     0
 49
-1.27
 74
     0
 49
1.27
 74
     0
 49
-1.27
 74
     0
 49
1.27
 74
     0
 49
-1.27
 74
     0
  0
LTYPE
  5
2C
330
5
100
AcDbSymbolTableRecord
100
AcDbLinetypeTableRecord
  2
CENTER
 70
     0
  3
Center ____ _ ____ _ ____ _ ____ _ ____ _ ____
 72
    65
 73
     4
 40
10.16
 49
6.35
 74
     0
 49
-1.27
 74
     0
 49
1.27
 74
     0
 49
-1.27
 74
     0
  0
LTYPE
  5
2D
330
5
100
AcDbSymbolTableRecord
100
AcDbLinetypeTableRecord
  2
CENTERX2
 70
     0
  3
Center (2x) ________  __  ________  __  _____
 72
    65
 73
     4
 40
20.32
 49
12.7
 74
     0
 49
-2.54
 74
     0
 49
2.54
 74
     0
 49
-2.54
 74
     0
  0
LTYPE
  5
2E
330
5
100
AcDbSymbolTableRecord
100
AcDbLinetypeTableRecord
  2
DOT2
 70
     0
  3
Dot (.5x) ........................................
 72
    65
 73
     2
 40
0.635
 49
0.0
 74
     0
 49
-0.635
 74
     0
  0
ENDTAB
  0
TABLE
  2
LAYER
  5
2
330
0
100
AcDbSymbolTable
 70
     4
  0
LAYER
  5
10
330
2
100
AcDbSymbolTableRecord
100
AcDbLayerTableRecord
  2
0
 70
     0
 62
     7
  6
Continuous
370
    -3
390
F
  0
LAYER
  5
2F
330
2
100
AcDbSymbolTableRecord
100
AcDbLayerTableRecord
  2
SLD-0
 70
     0
 62
     7
  6
Continuous
370
     0
390
F
  0
LAYER
  5
30
330
2
100
AcDbSymbolTableRecord
100
AcDbLayerTableRecord
  2
SLD-DEFPOINTS
 70
     0
 62
     7
  6
Continuous
370
     0
390
F
  0
LAYER
  5
C7
330
2
100
AcDbSymbolTableRecord
100
AcDbLayerTableRecord
  2
Defpoints
 70
     0
 62
     7
  6
Continuous
290
     0
370
    -3
390
F
  0
ENDTAB
  0
TABLE
  2
STYLE
  5
3
330
0
100
AcDbSymbolTable
 70
     4
  0
STYLE
  5
11
330
3
100
AcDbSymbolTableRecord
100
AcDbTextStyleTableRecord
  2
Standard
 70
     0
 40
0.0
 41
1.0
 50
0.0
 71
     0
 42
2.5
  3
txt
  4
bigfont
  0
STYLE
  5
34
330
3
100
AcDbSymbolTableRecord
100
AcDbTextStyleTableRecord
  2
SLDTEXTSTYLE0
 70
     0
 40
0.0
 41
0.7
 50
0.0
 71
     0
 42
0.2
  3
TXT
  4
bigfont
  0
STYLE
  5
D4
330
3
100
AcDbSymbolTableRecord
100
AcDbTextStyleTableRecord
  2
SLDTEXTSTYLE1
 70
     0
 40
0.0
 41
0.75
 50
0.0
 71
     0
 42
0.2
  3
TXT
  4
bigfont
  0
STYLE
  5
E2
330
3
100
AcDbSymbolTableRecord
100
AcDbTextStyleTableRecord
  2
SLDTEXTSTYLE2
 70
     0
 40
0.0
 41
0.96
 50
0.0
 71
     0
 42
0.2
  3
TXT
  4
bigfont
  0
ENDTAB
  0
TABLE
  2
VIEW
  5
6
330
0
100
AcDbSymbolTable
 70
     0
  0
ENDTAB
  0
TABLE
  2
UCS
  5
7
330
0
100
AcDbSymbolTable
 70
     0
  0
ENDTAB
  0
TABLE
  2
APPID
  5
9
330
0
100
AcDbSymbolTable
 70
     1
  0
APPID
  5
12
330
9
100
AcDbSymbolTableRecord
100
AcDbRegAppTableRecord
  2
ACAD
 70
     0
  0
ENDTAB
  0
TABLE
  2
DIMSTYLE
  5
A
330
0
100
AcDbSymbolTable
 70
     4
100
AcDbDimStyleTable
  0
DIMSTYLE
105
27
330
A
100
AcDbSymbolTableRecord
100
AcDbDimStyleTableRecord
  2
ISO-25
 70
     0
 41
2.5
 42
0.625
 43
3.75
 44
1.25
 73
     0
 74
     0
 77
     1
 78
     8
140
2.5
141
2.5
143
0.0393700787
147
0.625
171
     3
172
     1
271
     2
272
     2
274
     3
278
    44
283
     0
284
     8
340
11
  0
DIMSTYLE
105
D5
102
{ACAD_REACTORS
330
C6
330
E4
330
126
330
13D
330
154
330
16F
330
186
330
19D
330
1B7
330
1CE
330
1E8
330
200
330
21A
102
}
330
A
100
AcDbSymbolTableRecord
100
AcDbDimStyleTableRecord
  2
SLDDIMSTYLE0
 70
     0
 41
3.0
 44
0.0
 73
     0
 74
     0
 77
     3
 78
    12
140
3.5
147
0.875
173
     1
271
     0
272
     3
284
    12
340
D4
341
D6
343
D6
344
D6
  0
DIMSTYLE
105
10B
102
{ACAD_REACTORS
330
FE
102
}
330
A
100
AcDbSymbolTableRecord
100
AcDbDimStyleTableRecord
  2
SLDDIMSTYLE1
 70
     0
 41
3.0
 44
0.0
 78
    12
140
3.5
147
0.875
172
     1
173
     1
271
     0
272
     3
284
    12
340
D4
341
37
343
37
344
37
  0
DIMSTYLE
105
11D
102
{ACAD_REACTORS
330
113
102
}
330
A
100
AcDbSymbolTableRecord
100
AcDbDimStyleTableRecord
  2
SLDDIMSTYLE2
 70
     0
 41
3.0
 44
0.0
 78
    12
140
3.5
147
0.875
172
     1
173
     1
271
     0
272
     3
284
    12
340
D4
341
D6
343
D6
344
D6
  0
ENDTAB
  0
TABLE
  2
BLOCK_RECORD
  5
1
330
0
100
AcDbSymbolTable
 70
    22
  0
BLOCK_RECORD
  5
1F
330
1
100
AcDbSymbolTableRecord
100
AcDbBlockTableRecord
  2
*Model_Space
340
22
  0
BLOCK_RECORD
  5
1B
330
1
100
AcDbSymbolTableRecord
100
AcDbBlockTableRecord
  2
*Paper_Space
340
1E
  0
BLOCK_RECORD
  5
23
330
1
100
AcDbSymbolTableRecord
100
AcDbBlockTableRecord
  2
*Paper_Space0
340
26
  0
BLOCK_RECORD
  5
31
330
1
100
AcDbSymbolTableRecord
100
AcDbBlockTableRecord
  2
注記
340
0
  0
BLOCK_RECORD
  5
37
330
1
100
AcDbSymbolTableRecord
100
AcDbBlockTableRecord
  2
_OPEN30
340
0
102
{BLKREFS
331
105
331
104
331
10C
331
23A
102
}
  0
BLOCK_RECORD
  5
3D
330
1
100
AcDbSymbolTableRecord
100
AcDbBlockTableRecord
  2
SW_CENTERMARK0
340
0
102
{BLKREFS
331
23B
102
}
  0
BLOCK_RECORD
  5
48
330
1
100
AcDbSymbolTableRecord
100
AcDbBlockTableRecord
  2
SW_CENTERMARK1
340
0
102
{BLKREFS
331
23C
102
}
  0
BLOCK_RECORD
  5
53
330
1
100
AcDbSymbolTableRecord
100
AcDbBlockTableRecord
  2
SW_CENTERMARK2
340
0
102
{BLKREFS
331
23D
102
}
  0
BLOCK_RECORD
  5
C8
330
1
100
AcDbSymbolTableRecord
100
AcDbBlockTableRecord
  2
*D6
340
0
  0
BLOCK_RECORD
  5
D6
330
1
100
AcDbSymbolTableRecord
100
AcDbBlockTableRecord
  2
_None
340
0
102
{BLKREFS
331
CD
331
CC
331
EA
331
E9
331
118
331
12C
331
12B
331
143
331
142
331
15B
331
15A
331
175
331
174
331
18C
331
18B
331
1A3
331
1A2
331
1BD
331
1BC
331
1D4
331
1D3
331
1EE
331
1ED
331
206
331
205
331
220
331
21F
102
}
  0
BLOCK_RECORD
  5
E5
330
1
100
AcDbSymbolTableRecord
100
AcDbBlockTableRecord
  2
*D8
340
0
  0
BLOCK_RECORD
  5
FF
330
1
100
AcDbSymbolTableRecord
100
AcDbBlockTableRecord
  2
*D9
340
0
  0
BLOCK_RECORD
  5
114
330
1
100
AcDbSymbolTableRecord
100
AcDbBlockTableRecord
  2
*D10
340
0
  0
BLOCK_RECORD
  5
127
330
1
100
AcDbSymbolTableRecord
100
AcDbBlockTableRecord
  2
*D11
340
0
  0
BLOCK_RECORD
  5
13E
330
1
100
AcDbSymbolTableRecord
100
AcDbBlockTableRecord
  2
*D12
340
0
  0
BLOCK_RECORD
  5
155
330
1
100
AcDbSymbolTableRecord
100
AcDbBlockTableRecord
  2
*D13
340
0
  0
BLOCK_RECORD
  5
170
330
1
100
AcDbSymbolTableRecord
100
AcDbBlockTableRecord
  2
*D14
340
0
  0
BLOCK_RECORD
  5
187
330
1
100
AcDbSymbolTableRecord
100
AcDbBlockTableRecord
  2
*D15
340
0
  0
BLOCK_RECORD
  5
19E
330
1
100
AcDbSymbolTableRecord
100
AcDbBlockTableRecord
  2
*D16
340
0
  0
BLOCK_RECORD
  5
1B8
330
1
100
AcDbSymbolTableRecord
100
AcDbBlockTableRecord
  2
*D17
340
0
  0
BLOCK_RECORD
  5
1CF
330
1
100
AcDbSymbolTableRecord
100
AcDbBlockTableRecord
  2
*D18
340
0
  0
BLOCK_RECORD
  5
1E9
330
1
100
AcDbSymbolTableRecord
100
AcDbBlockTableRecord
  2
*D19
340
0
  0
BLOCK_RECORD
  5
201
330
1
100
AcDbSymbolTableRecord
100
AcDbBlockTableRecord
  2
*D20
340
0
  0
BLOCK_RECORD
  5
21B
330
1
100
AcDbSymbolTableRecord
100
AcDbBlockTableRecord
  2
*D21
340
0
  0
ENDTAB
  0
ENDSEC
  0
SECTION
  2
BLOCKS
  0
BLOCK
  5
20
330
1F
100
AcDbEntity
  8
0
100
AcDbBlockBegin
  2
*Model_Space
 70
     0
 71
     0
 10
0.0
 20
0.0
 30
0.0
  3
*Model_Space
  1

  0
ENDBLK
  5
21
330
1F
100
AcDbEntity
  8
0
100
AcDbBlockEnd
  0
BLOCK
  5
1C
330
1B
100
AcDbEntity
 67
     1
  8
0
100
AcDbBlockBegin
  2
*Paper_Space
 70
     0
 71
     0
 10
0.0
 20
0.0
 30
0.0
  3
*Paper_Space
  1

  0
ENDBLK
  5
1D
330
1B
100
AcDbEntity
 67
     1
  8
0
100
AcDbBlockEnd
  0
BLOCK
  5
24
330
23
100
AcDbEntity
  8
0
100
AcDbBlockBegin
  2
*Paper_Space0
 70
     0
 71
     0
 10
0.0
 20
0.0
 30
0.0
  3
*Paper_Space0
  1

  0
ENDBLK
  5
25
330
23
100
AcDbEntity
  8
0
100
AcDbBlockEnd
  0
BLOCK
  5
32
330
31
100
AcDbEntity
  8
0
100
AcDbBlockBegin
  2
注記
 70
     0
 71
     0
 10
0.0
 20
0.0
 30
0.0
  3
注記
  1

  0
MTEXT
  5
35
330
31
100
AcDbEntity
  8
0
  6
Continuous
 62
     7
370
     0
100
AcDbMText
 10
0.2636785918
 20
9.0739778448
 30
0.0
 40
3.5
 41
0.0
 71
     1
 72
     1
  1
１．特記ナキ角部ハ、バリ　カエリノ無キコト。
  7
SLDTEXTSTYLE0
 73
     1
 44
1.0
  0
MTEXT
  5
36
330
31
100
AcDbEntity
  8
0
  6
Continuous
 62
     7
370
     0
100
AcDbMText
 10
0.2636785918
 20
3.5759549983
 30
0.0
 40
3.5
 41
0.0
 71
     1
 72
     1
  1
２．特記ナキ隅部ハ、Ｒ０．４ＭＡＸトスル。
  7
SLDTEXTSTYLE0
 73
     1
 44
1.0
  0
ENDBLK
  5
33
330
31
100
AcDbEntity
  8
0
100
AcDbBlockEnd
  0
BLOCK
  5
38
330
37
100
AcDbEntity
  8
0
100
AcDbBlockBegin
  2
_OPEN30
 70
     0
 71
     0
 10
0.0
 20
0.0
 30
0.0
  3
_OPEN30
  1

  0
LINE
  5
3A
330
37
100
AcDbEntity
  8
SLD-0
  6
Continuous
100
AcDbLine
 10
-1.0
 20
0.267949
 30
0.0
 11
0.0
 21
0.0
 31
0.0
  0
LINE
  5
3B
330
37
100
AcDbEntity
  8
SLD-0
  6
Continuous
100
AcDbLine
 10
0.0
 20
0.0
 30
0.0
 11
-1.0
 21
-0.267949
 31
0.0
  0
LINE
  5
3C
330
37
100
AcDbEntity
  8
SLD-0
  6
Continuous
100
AcDbLine
 10
0.0
 20
0.0
 30
0.0
 11
-1.0
 21
0.0
 31
0.0
  0
ENDBLK
  5
39
330
37
100
AcDbEntity
  8
0
100
AcDbBlockEnd
  0
BLOCK
  5
3E
330
3D
100
AcDbEntity
  8
0
100
AcDbBlockBegin
  2
SW_CENTERMARK0
 70
     0
 71
     0
 10
0.0
 20
0.0
 30
0.0
  3
SW_CENTERMARK0
  1

  0
LINE
  5
40
330
3D
100
AcDbEntity
  8
SLD-0
  6
Continuous
 62
     7
100
AcDbLine
 10
83.1356706667
 20
130.809816684
 30
0.0
 11
83.1356706667
 21
133.309816684
 31
0.0
  0
LINE
  5
41
330
3D
100
AcDbEntity
  8
SLD-0
  6
Continuous
 62
     7
100
AcDbLine
 10
83.1356706667
 20
130.809816684
 30
0.0
 11
80.6356706667
 21
130.809816684
 31
0.0
  0
LINE
  5
42
330
3D
100
AcDbEntity
  8
SLD-0
  6
Continuous
 62
     7
100
AcDbLine
 10
83.1356706667
 20
130.809816684
 30
0.0
 11
83.1356706667
 21
128.309816684
 31
0.0
  0
LINE
  5
43
330
3D
100
AcDbEntity
  8
SLD-0
  6
Continuous
 62
     7
100
AcDbLine
 10
83.1356706667
 20
130.809816684
 30
0.0
 11
85.6356706667
 21
130.809816684
 31
0.0
  0
LINE
  5
44
330
3D
100
AcDbEntity
  8
SLD-0
  6
Continuous
 62
     7
100
AcDbLine
 10
83.1356706667
 20
135.809816684
 30
0.0
 11
83.1356706667
 21
139.309816684
 31
0.0
  0
LINE
  5
45
330
3D
100
AcDbEntity
  8
SLD-0
  6
Continuous
 62
     7
100
AcDbLine
 10
78.1356706667
 20
130.809816684
 30
0.0
 11
74.6356706667
 21
130.809816684
 31
0.0
  0
LINE
  5
46
330
3D
100
AcDbEntity
  8
SLD-0
  6
Continuous
 62
     7
100
AcDbLine
 10
83.1356706667
 20
125.809816684
 30
0.0
 11
83.1356706667
 21
122.309816684
 31
0.0
  0
LINE
  5
47
330
3D
100
AcDbEntity
  8
SLD-0
  6
Continuous
 62
     7
100
AcDbLine
 10
88.1356706667
 20
130.809816684
 30
0.0
 11
91.6356706667
 21
130.809816684
 31
0.0
  0
ENDBLK
  5
3F
330
3D
100
AcDbEntity
  8
0
100
AcDbBlockEnd
  0
BLOCK
  5
49
330
48
100
AcDbEntity
  8
0
100
AcDbBlockBegin
  2
SW_CENTERMARK1
 70
     0
 71
     0
 10
0.0
 20
0.0
 30
0.0
  3
SW_CENTERMARK1
  1

  0
LINE
  5
4B
330
48
100
AcDbEntity
  8
SLD-0
  6
Continuous
 62
     7
100
AcDbLine
 10
63.1356706667
 20
130.809816684
 30
0.0
 11
63.1356706667
 21
133.309816684
 31
0.0
  0
LINE
  5
4C
330
48
100
AcDbEntity
  8
SLD-0
  6
Continuous
 62
     7
100
AcDbLine
 10
63.1356706667
 20
130.809816684
 30
0.0
 11
60.6356706667
 21
130.809816684
 31
0.0
  0
LINE
  5
4D
330
48
100
AcDbEntity
  8
SLD-0
  6
Continuous
 62
     7
100
AcDbLine
 10
63.1356706667
 20
130.809816684
 30
0.0
 11
63.1356706667
 21
128.309816684
 31
0.0
  0
LINE
  5
4E
330
48
100
AcDbEntity
  8
SLD-0
  6
Continuous
 62
     7
100
AcDbLine
 10
63.1356706667
 20
130.809816684
 30
0.0
 11
65.6356706667
 21
130.809816684
 31
0.0
  0
LINE
  5
4F
330
48
100
AcDbEntity
  8
SLD-0
  6
Continuous
 62
     7
100
AcDbLine
 10
63.1356706667
 20
135.809816684
 30
0.0
 11
63.1356706667
 21
139.809816684
 31
0.0
  0
LINE
  5
50
330
48
100
AcDbEntity
  8
SLD-0
  6
Continuous
 62
     7
100
AcDbLine
 10
58.1356706667
 20
130.809816684
 30
0.0
 11
54.1356706667
 21
130.809816684
 31
0.0
  0
LINE
  5
51
330
48
100
AcDbEntity
  8
SLD-0
  6
Continuous
 62
     7
100
AcDbLine
 10
63.1356706667
 20
125.809816684
 30
0.0
 11
63.1356706667
 21
121.809816684
 31
0.0
  0
LINE
  5
52
330
48
100
AcDbEntity
  8
SLD-0
  6
Continuous
 62
     7
100
AcDbLine
 10
68.1356706667
 20
130.809816684
 30
0.0
 11
72.1356706667
 21
130.809816684
 31
0.0
  0
ENDBLK
  5
4A
330
48
100
AcDbEntity
  8
0
100
AcDbBlockEnd
  0
BLOCK
  5
54
330
53
100
AcDbEntity
  8
0
100
AcDbBlockBegin
  2
SW_CENTERMARK2
 70
     0
 71
     0
 10
0.0
 20
0.0
 30
0.0
  3
SW_CENTERMARK2
  1

  0
LINE
  5
56
330
53
100
AcDbEntity
  8
SLD-0
  6
Continuous
 62
     7
100
AcDbLine
 10
92.1356706667
 20
198.2782062739
 30
0.0
 11
92.1356706667
 21
200.7782062739
 31
0.0
  0
LINE
  5
57
330
53
100
AcDbEntity
  8
SLD-0
  6
Continuous
 62
     7
100
AcDbLine
 10
92.1356706667
 20
198.2782062739
 30
0.0
 11
89.6356706667
 21
198.2782062739
 31
0.0
  0
LINE
  5
58
330
53
100
AcDbEntity
  8
SLD-0
  6
Continuous
 62
     7
100
AcDbLine
 10
92.1356706667
 20
198.2782062739
 30
0.0
 11
92.1356706667
 21
195.7782062739
 31
0.0
  0
LINE
  5
59
330
53
100
AcDbEntity
  8
SLD-0
  6
Continuous
 62
     7
100
AcDbLine
 10
92.1356706667
 20
198.2782062739
 30
0.0
 11
94.6356706667
 21
198.2782062739
 31
0.0
  0
LINE
  5
5A
330
53
100
AcDbEntity
  8
SLD-0
  6
Continuous
 62
     7
100
AcDbLine
 10
92.1356706667
 20
203.2782062739
 30
0.0
 11
92.1356706667
 21
204.7782062739
 31
0.0
  0
LINE
  5
5B
330
53
100
AcDbEntity
  8
SLD-0
  6
Continuous
 62
     7
100
AcDbLine
 10
87.1356706667
 20
198.2782062739
 30
0.0
 11
85.6356706667
 21
198.2782062739
 31
0.0
  0
LINE
  5
5C
330
53
100
AcDbEntity
  8
SLD-0
  6
Continuous
 62
     7
100
AcDbLine
 10
92.1356706667
 20
193.2782062739
 30
0.0
 11
92.1356706667
 21
191.7782062739
 31
0.0
  0
LINE
  5
5D
330
53
100
AcDbEntity
  8
SLD-0
  6
Continuous
 62
     7
100
AcDbLine
 10
97.1356706667
 20
198.2782062739
 30
0.0
 11
98.6356706667
 21
198.2782062739
 31
0.0
  0
ENDBLK
  5
55
330
53
100
AcDbEntity
  8
0
100
AcDbBlockEnd
  0
BLOCK
  5
D2
330
C8
100
AcDbEntity
  8
0
100
AcDbBlockBegin
  2
*D6
 70
     1
 71
     0
 10
0.0
 20
0.0
 30
0.0
  3
*D6
  1

  0
LINE
  5
D9
330
C8
100
AcDbEntity
  8
SLD-0
 62
     7
100
AcDbLine
 10
83.1356706667
 20
140.309816684
 30
0.0
 11
83.1356706667
 21
156.0935436707
 31
0.0
  0
LINE
  5
DA
330
C8
100
AcDbEntity
  8
SLD-0
 62
     7
100
AcDbLine
 10
98.1356706667
 20
139.809816684
 30
0.0
 11
98.1356706667
 21
156.0935436707
 31
0.0
  0
LINE
  5
DB
330
C8
100
AcDbEntity
  8
SLD-0
 62
     7
100
AcDbLine
 10
83.1356706667
 20
155.0935436707
 30
0.0
 11
98.1356706667
 21
155.0935436707
 31
0.0
  0
LINE
  5
DC
330
C8
100
AcDbEntity
  8
SLD-0
 62
     7
100
AcDbLine
 10
86.1356706667
 20
154.2896966707
 30
0.0
 11
83.1356706667
 21
155.0935436707
 31
0.0
  0
LINE
  5
DD
330
C8
100
AcDbEntity
  8
SLD-0
 62
     7
100
AcDbLine
 10
83.1356706667
 20
155.0935436707
 30
0.0
 11
86.1356706667
 21
155.8973906707
 31
0.0
  0
LINE
  5
DE
330
C8
100
AcDbEntity
  8
SLD-0
 62
     7
100
AcDbLine
 10
83.1356706667
 20
155.0935436707
 30
0.0
 11
86.1356706667
 21
155.0935436707
 31
0.0
  0
LINE
  5
DF
330
C8
100
AcDbEntity
  8
SLD-0
 62
     7
100
AcDbLine
 10
95.1356706667
 20
155.8973906707
 30
0.0
 11
98.1356706667
 21
155.0935436707
 31
0.0
  0
LINE
  5
E0
330
C8
100
AcDbEntity
  8
SLD-0
 62
     7
100
AcDbLine
 10
98.1356706667
 20
155.0935436707
 30
0.0
 11
95.1356706667
 21
154.2896966707
 31
0.0
  0
LINE
  5
E1
330
C8
100
AcDbEntity
  8
SLD-0
 62
     7
100
AcDbLine
 10
98.1356706667
 20
155.0935436707
 30
0.0
 11
95.1356706667
 21
155.0935436707
 31
0.0
  0
MTEXT
  5
E3
330
C8
100
AcDbEntity
  8
SLD-0
 62
     7
100
AcDbMText
 10
88.5992206071
 20
159.620237483
 30
0.1
 40
3.5
 41
0.0
 71
     1
 72
     1
  1
15
  7
SLDTEXTSTYLE2
 73
     1
 44
1.0
  0
ENDBLK
  5
D3
330
C8
100
AcDbEntity
  8
0
100
AcDbBlockEnd
  0
BLOCK
  5
D7
330
D6
100
AcDbEntity
  8
0
100
AcDbBlockBegin
  2
_None
 70
     0
 71
     0
 10
0.0
 20
0.0
 30
0.0
  3
_None
  1

  0
ENDBLK
  5
D8
330
D6
100
AcDbEntity
  8
0
100
AcDbBlockEnd
  0
BLOCK
  5
F0
330
E5
100
AcDbEntity
  8
0
100
AcDbBlockBegin
  2
*D8
 70
     1
 71
     0
 10
0.0
 20
0.0
 30
0.0
  3
*D8
  1

  0
LINE
  5
F2
330
E5
100
AcDbEntity
  8
SLD-0
100
AcDbLine
 10
97.6356706667
 20
138.809816684
 30
0.0
 11
116.278303936
 21
138.809816684
 31
0.0
  0
LINE
  5
F3
330
E5
100
AcDbEntity
  8
SLD-0
100
AcDbLine
 10
92.6356706667
 20
130.809816684
 30
0.0
 11
116.278303936
 21
130.809816684
 31
0.0
  0
LINE
  5
F4
330
E5
100
AcDbEntity
  8
SLD-0
100
AcDbLine
 10
115.278303936
 20
138.809816684
 30
0.0
 11
115.278303936
 21
143.809816684
 31
0.0
  0
LINE
  5
F5
330
E5
100
AcDbEntity
  8
SLD-0
100
AcDbLine
 10
115.278303936
 20
138.809816684
 30
0.0
 11
115.278303936
 21
130.809816684
 31
0.0
  0
LINE
  5
F6
330
E5
100
AcDbEntity
  8
SLD-0
100
AcDbLine
 10
115.278303936
 20
130.809816684
 30
0.0
 11
115.278303936
 21
125.809816684
 31
0.0
  0
LINE
  5
F7
330
E5
100
AcDbEntity
  8
SLD-0
100
AcDbLine
 10
116.082150936
 20
141.809816684
 30
0.0
 11
115.278303936
 21
138.809816684
 31
0.0
  0
LINE
  5
F8
330
E5
100
AcDbEntity
  8
SLD-0
100
AcDbLine
 10
115.278303936
 20
138.809816684
 30
0.0
 11
114.474456936
 21
141.809816684
 31
0.0
  0
LINE
  5
F9
330
E5
100
AcDbEntity
  8
SLD-0
100
AcDbLine
 10
115.278303936
 20
138.809816684
 30
0.0
 11
115.278303936
 21
141.809816684
 31
0.0
  0
LINE
  5
FA
330
E5
100
AcDbEntity
  8
SLD-0
100
AcDbLine
 10
114.474456936
 20
127.809816684
 30
0.0
 11
115.278303936
 21
130.809816684
 31
0.0
  0
LINE
  5
FB
330
E5
100
AcDbEntity
  8
SLD-0
100
AcDbLine
 10
115.278303936
 20
130.809816684
 30
0.0
 11
116.082150936
 21
127.809816684
 31
0.0
  0
LINE
  5
FC
330
E5
100
AcDbEntity
  8
SLD-0
100
AcDbLine
 10
115.278303936
 20
130.809816684
 30
0.0
 11
115.278303936
 21
127.809816684
 31
0.0
  0
MTEXT
  5
FD
330
E5
100
AcDbEntity
  8
SLD-0
100
AcDbMText
 10
110.7516101237
 20
133.7915916542
 30
0.1
 40
3.5
 41
0.0
 71
     1
 72
     1
  1
8
  7
SLDTEXTSTYLE2
 11
6.123031769111886E-17
 21
1.0
 31
0.0
 73
     1
 44
1.0
  0
ENDBLK
  5
F1
330
E5
100
AcDbEntity
  8
0
100
AcDbBlockEnd
  0
BLOCK
  5
109
330
FF
100
AcDbEntity
  8
0
100
AcDbBlockBegin
  2
*D9
 70
     1
 71
     0
 10
0.0
 20
0.0
 30
0.0
  3
*D9
  1

  0
INSERT
  5
10C
330
FF
100
AcDbEntity
  8
SLD-0
 62
     7
100
AcDbBlockReference
  2
_OPEN30
 10
86.3763631423
 20
135.8593624336
 30
0.1
 41
3.0
 42
3.0
 50
237.3085041728
  0
LINE
  5
10D
330
FF
100
AcDbEntity
  8
SLD-0
 62
     7
100
AcDbLine
 10
86.3763631423
 20
135.8593624336
 30
0.0
 11
103.4339357497
 21
162.4379390521
 31
0.0
  0
LINE
  5
10E
330
FF
100
AcDbEntity
  8
SLD-0
 62
     7
100
AcDbLine
 10
79.8949781911
 20
125.7602709343
 30
0.0
 11
86.3763631423
 21
135.8593624336
 31
0.0
  0
LINE
  5
10F
330
FF
100
AcDbEntity
  8
SLD-0
 62
     7
100
AcDbLine
 10
103.4339357497
 20
162.4379390521
 30
0.0
 11
125.5351721223
 21
162.4379390521
 31
0.0
  0
MTEXT
  5
110
330
FF
100
AcDbEntity
  8
SLD-0
 62
     7
100
AcDbMText
 10
106.6089357497
 20
167.2120397715
 30
0.0
 40
3.5
 41
0.0
 71
     1
 72
     1
  1
%%c
  7
SLDTEXTSTYLE2
 73
     1
 44
1.0
  0
MTEXT
  5
111
330
FF
100
AcDbEntity
  8
SLD-0
 62
     7
100
AcDbMText
 10
111.2446082968
 20
167.2120397715
 30
0.0
 40
3.5
 41
0.0
 71
     1
 72
     1
  1
12
  7
SLDTEXTSTYLE2
 73
     1
 44
1.0
  0
MTEXT
  5
112
330
FF
100
AcDbEntity
  8
SLD-0
 62
     7
100
AcDbMText
 10
115.7932118646
 20
167.2120397715
 30
0.0
 40
3.5
 41
0.0
 71
     1
 72
     1
  1
　　
  7
SLDTEXTSTYLE2
 73
     1
 44
1.0
  0
ENDBLK
  5
10A
330
FF
100
AcDbEntity
  8
0
100
AcDbBlockEnd
  0
BLOCK
  5
11B
330
114
100
AcDbEntity
  8
0
100
AcDbBlockBegin
  2
*D10
 70
     1
 71
     0
 10
0.0
 20
0.0
 30
0.0
  3
*D10
  1

  0
LINE
  5
11E
330
114
100
AcDbEntity
  8
SLD-0
 62
     7
100
AcDbLine
 10
59.9116351259
 20
137.0231567545
 30
0.0
 11
54.0164507681
 21
148.3843172407
 31
0.0
  0
LINE
  5
11F
330
114
100
AcDbEntity
  8
SLD-0
 62
     7
100
AcDbLine
 10
54.0164507681
 20
148.3843172407
 30
0.0
 11
32.9623502914
 21
148.3843172407
 31
0.0
  0
LINE
  5
120
330
114
100
AcDbEntity
  8
SLD-0
 62
     7
100
AcDbLine
 10
59.2434162906
 20
140.0562498272
 30
0.0
 11
59.9116351259
 21
137.0231567545
 31
0.0
  0
LINE
  5
121
330
114
100
AcDbEntity
  8
SLD-0
 62
     7
100
AcDbLine
 10
59.9116351259
 20
137.0231567545
 30
0.0
 11
57.8163949262
 21
139.3157837422
 31
0.0
  0
LINE
  5
122
330
114
100
AcDbEntity
  8
SLD-0
 62
     7
100
AcDbLine
 10
59.9116351259
 20
137.0231567545
 30
0.0
 11
58.5299056084
 21
139.6860167847
 31
0.0
  0
MTEXT
  5
123
330
114
100
AcDbEntity
  8
SLD-0
 62
     7
100
AcDbMText
 10
34.5498502914
 20
152.9110110531
 30
0.1
 40
3.5
 41
0.0
 71
     1
 72
     1
  1
M
  7
SLDTEXTSTYLE2
 73
     1
 44
1.0
  0
MTEXT
  5
124
330
114
100
AcDbEntity
  8
SLD-0
 62
     7
100
AcDbMText
 10
36.586300351
 20
152.9110110531
 30
0.1
 40
3.5
 41
0.0
 71
     1
 72
     1
  1
14
  7
SLDTEXTSTYLE2
 73
     1
 44
1.0
  0
MTEXT
  5
125
330
114
100
AcDbEntity
  8
SLD-0
 62
     7
100
AcDbMText
 10
40.6592004702
 20
152.9110110531
 30
0.1
 40
3.5
 41
0.0
 71
     1
 72
     1
  1
xP1.0
  7
SLDTEXTSTYLE2
 73
     1
 44
1.0
  0
ENDBLK
  5
11C
330
114
100
AcDbEntity
  8
0
100
AcDbBlockEnd
  0
BLOCK
  5
131
330
127
100
AcDbEntity
  8
0
100
AcDbBlockBegin
  2
*D11
 70
     1
 71
     0
 10
0.0
 20
0.0
 30
0.0
  3
*D11
  1

  0
LINE
  5
133
330
127
100
AcDbEntity
  8
SLD-0
 62
     7
100
AcDbLine
 10
63.1356706667
 20
140.809816684
 30
0.0
 11
63.1356706667
 21
156.0935436707
 31
0.0
  0
LINE
  5
134
330
127
100
AcDbEntity
  8
SLD-0
 62
     7
100
AcDbLine
 10
83.1356706667
 20
140.309816684
 30
0.0
 11
83.1356706667
 21
156.0935436707
 31
0.0
  0
LINE
  5
135
330
127
100
AcDbEntity
  8
SLD-0
 62
     7
100
AcDbLine
 10
63.1356706667
 20
155.0935436707
 30
0.0
 11
83.1356706667
 21
155.0935436707
 31
0.0
  0
LINE
  5
136
330
127
100
AcDbEntity
  8
SLD-0
 62
     7
100
AcDbLine
 10
66.1356706667
 20
154.2896966707
 30
0.0
 11
63.1356706667
 21
155.0935436707
 31
0.0
  0
LINE
  5
137
330
127
100
AcDbEntity
  8
SLD-0
 62
     7
100
AcDbLine
 10
63.1356706667
 20
155.0935436707
 30
0.0
 11
66.1356706667
 21
155.8973906707
 31
0.0
  0
LINE
  5
138
330
127
100
AcDbEntity
  8
SLD-0
 62
     7
100
AcDbLine
 10
63.1356706667
 20
155.0935436707
 30
0.0
 11
66.1356706667
 21
155.0935436707
 31
0.0
  0
LINE
  5
139
330
127
100
AcDbEntity
  8
SLD-0
 62
     7
100
AcDbLine
 10
80.1356706667
 20
155.8973906707
 30
0.0
 11
83.1356706667
 21
155.0935436707
 31
0.0
  0
LINE
  5
13A
330
127
100
AcDbEntity
  8
SLD-0
 62
     7
100
AcDbLine
 10
83.1356706667
 20
155.0935436707
 30
0.0
 11
80.1356706667
 21
154.2896966707
 31
0.0
  0
LINE
  5
13B
330
127
100
AcDbEntity
  8
SLD-0
 62
     7
100
AcDbLine
 10
83.1356706667
 20
155.0935436707
 30
0.0
 11
80.1356706667
 21
155.0935436707
 31
0.0
  0
MTEXT
  5
13C
330
127
100
AcDbEntity
  8
SLD-0
 62
     7
100
AcDbMText
 10
71.0992206071
 20
159.620237483
 30
0.1
 40
3.5
 41
0.0
 71
     1
 72
     1
  1
20
  7
SLDTEXTSTYLE2
 73
     1
 44
1.0
  0
ENDBLK
  5
132
330
127
100
AcDbEntity
  8
0
100
AcDbBlockEnd
  0
BLOCK
  5
148
330
13E
100
AcDbEntity
  8
0
100
AcDbBlockBegin
  2
*D12
 70
     1
 71
     0
 10
0.0
 20
0.0
 30
0.0
  3
*D12
  1

  0
LINE
  5
14A
330
13E
100
AcDbEntity
  8
SLD-0
 62
     7
100
AcDbLine
 10
75.1356706667
 20
129.309816684
 30
0.0
 11
75.1356706667
 21
109.4410361063
 31
0.0
  0
LINE
  5
14B
330
13E
100
AcDbEntity
  8
SLD-0
 62
     7
100
AcDbLine
 10
98.1356706667
 20
123.309816684
 30
0.0
 11
98.1356706667
 21
109.4410361063
 31
0.0
  0
LINE
  5
14C
330
13E
100
AcDbEntity
  8
SLD-0
 62
     7
100
AcDbLine
 10
75.1356706667
 20
110.4410361063
 30
0.0
 11
98.1356706667
 21
110.4410361063
 31
0.0
  0
LINE
  5
14D
330
13E
100
AcDbEntity
  8
SLD-0
 62
     7
100
AcDbLine
 10
78.1356706667
 20
109.6371891063
 30
0.0
 11
75.1356706667
 21
110.4410361063
 31
0.0
  0
LINE
  5
14E
330
13E
100
AcDbEntity
  8
SLD-0
 62
     7
100
AcDbLine
 10
75.1356706667
 20
110.4410361063
 30
0.0
 11
78.1356706667
 21
111.2448831063
 31
0.0
  0
LINE
  5
14F
330
13E
100
AcDbEntity
  8
SLD-0
 62
     7
100
AcDbLine
 10
75.1356706667
 20
110.4410361063
 30
0.0
 11
78.1356706667
 21
110.4410361063
 31
0.0
  0
LINE
  5
150
330
13E
100
AcDbEntity
  8
SLD-0
 62
     7
100
AcDbLine
 10
95.1356706667
 20
111.2448831063
 30
0.0
 11
98.1356706667
 21
110.4410361063
 31
0.0
  0
LINE
  5
151
330
13E
100
AcDbEntity
  8
SLD-0
 62
     7
100
AcDbLine
 10
98.1356706667
 20
110.4410361063
 30
0.0
 11
95.1356706667
 21
109.6371891063
 31
0.0
  0
LINE
  5
152
330
13E
100
AcDbEntity
  8
SLD-0
 62
     7
100
AcDbLine
 10
98.1356706667
 20
110.4410361063
 30
0.0
 11
95.1356706667
 21
110.4410361063
 31
0.0
  0
MTEXT
  5
153
330
13E
100
AcDbEntity
  8
SLD-0
 62
     7
100
AcDbMText
 10
84.5992206071
 20
114.9677299186
 30
0.1
 40
3.5
 41
0.0
 71
     1
 72
     1
  1
23
  7
SLDTEXTSTYLE2
 73
     1
 44
1.0
  0
ENDBLK
  5
149
330
13E
100
AcDbEntity
  8
0
100
AcDbBlockEnd
  0
BLOCK
  5
161
330
155
100
AcDbEntity
  8
0
100
AcDbBlockBegin
  2
*D13
 70
     1
 71
     0
 10
0.0
 20
0.0
 30
0.0
  3
*D13
  1

  0
LINE
  5
163
330
155
100
AcDbEntity
  8
SLD-0
 62
     7
100
AcDbLine
 10
99.1356706667
 20
131.309816684
 30
0.0
 11
107.7668364312
 21
131.309816684
 31
0.0
  0
LINE
  5
164
330
155
100
AcDbEntity
  8
SLD-0
 62
     7
100
AcDbLine
 10
99.1356706667
 20
130.309816684
 30
0.0
 11
107.7668364312
 21
130.309816684
 31
0.0
  0
LINE
  5
165
330
155
100
AcDbEntity
  8
SLD-0
 62
     7
100
AcDbLine
 10
106.7668364312
 20
131.309816684
 30
0.0
 11
106.7668364312
 21
136.309816684
 31
0.0
  0
LINE
  5
166
330
155
100
AcDbEntity
  8
SLD-0
 62
     7
100
AcDbLine
 10
106.7668364312
 20
131.309816684
 30
0.0
 11
106.7668364312
 21
130.309816684
 31
0.0
  0
LINE
  5
167
330
155
100
AcDbEntity
  8
SLD-0
 62
     7
100
AcDbLine
 10
106.7668364312
 20
130.309816684
 30
0.0
 11
106.7668364312
 21
123.2995449932
 31
0.0
  0
LINE
  5
168
330
155
100
AcDbEntity
  8
SLD-0
 62
     7
100
AcDbLine
 10
107.5706834312
 20
134.309816684
 30
0.0
 11
106.7668364312
 21
131.309816684
 31
0.0
  0
LINE
  5
169
330
155
100
AcDbEntity
  8
SLD-0
 62
     7
100
AcDbLine
 10
106.7668364312
 20
131.309816684
 30
0.0
 11
105.9629894312
 21
134.309816684
 31
0.0
  0
LINE
  5
16A
330
155
100
AcDbEntity
  8
SLD-0
 62
     7
100
AcDbLine
 10
106.7668364312
 20
131.309816684
 30
0.0
 11
106.7668364312
 21
134.309816684
 31
0.0
  0
LINE
  5
16B
330
155
100
AcDbEntity
  8
SLD-0
 62
     7
100
AcDbLine
 10
105.9629894312
 20
127.309816684
 30
0.0
 11
106.7668364312
 21
130.309816684
 31
0.0
  0
LINE
  5
16C
330
155
100
AcDbEntity
  8
SLD-0
 62
     7
100
AcDbLine
 10
106.7668364312
 20
130.309816684
 30
0.0
 11
107.5706834312
 21
127.309816684
 31
0.0
  0
LINE
  5
16D
330
155
100
AcDbEntity
  8
SLD-0
 62
     7
100
AcDbLine
 10
106.7668364312
 20
130.309816684
 30
0.0
 11
106.7668364312
 21
127.309816684
 31
0.0
  0
MTEXT
  5
16E
330
155
100
AcDbEntity
  8
SLD-0
 62
     7
100
AcDbMText
 10
102.2401426188
 20
124.8870449932
 30
0.1
 40
3.5
 41
0.0
 71
     1
 72
     1
  1
1
  7
SLDTEXTSTYLE2
 11
6.123031769111886E-17
 21
1.0
 31
0.0
 73
     1
 44
1.0
  0
ENDBLK
  5
162
330
155
100
AcDbEntity
  8
0
100
AcDbBlockEnd
  0
BLOCK
  5
17A
330
170
100
AcDbEntity
  8
0
100
AcDbBlockBegin
  2
*D14
 70
     1
 71
     0
 10
0.0
 20
0.0
 30
0.0
  3
*D14
  1

  0
LINE
  5
17C
330
170
100
AcDbEntity
  8
SLD-0
100
AcDbLine
 10
92.1356706667
 20
205.7782062739
 30
0.0
 11
92.1356706667
 21
221.9850891277
 31
0.0
  0
LINE
  5
17D
330
170
100
AcDbEntity
  8
SLD-0
100
AcDbLine
 10
58.1356706667
 20
205.7782062739
 30
0.0
 11
58.1356706667
 21
221.9850891277
 31
0.0
  0
LINE
  5
17E
330
170
100
AcDbEntity
  8
SLD-0
100
AcDbLine
 10
92.1356706667
 20
220.9850891277
 30
0.0
 11
58.1356706667
 21
220.9850891277
 31
0.0
  0
LINE
  5
17F
330
170
100
AcDbEntity
  8
SLD-0
100
AcDbLine
 10
89.1356706667
 20
221.7889361277
 30
0.0
 11
92.1356706667
 21
220.9850891277
 31
0.0
  0
LINE
  5
180
330
170
100
AcDbEntity
  8
SLD-0
100
AcDbLine
 10
92.1356706667
 20
220.9850891277
 30
0.0
 11
89.1356706667
 21
220.1812421277
 31
0.0
  0
LINE
  5
181
330
170
100
AcDbEntity
  8
SLD-0
100
AcDbLine
 10
92.1356706667
 20
220.9850891277
 30
0.0
 11
89.1356706667
 21
220.9850891277
 31
0.0
  0
LINE
  5
182
330
170
100
AcDbEntity
  8
SLD-0
100
AcDbLine
 10
61.1356706667
 20
220.1812421277
 30
0.0
 11
58.1356706667
 21
220.9850891277
 31
0.0
  0
LINE
  5
183
330
170
100
AcDbEntity
  8
SLD-0
100
AcDbLine
 10
58.1356706667
 20
220.9850891277
 30
0.0
 11
61.1356706667
 21
221.7889361277
 31
0.0
  0
LINE
  5
184
330
170
100
AcDbEntity
  8
SLD-0
100
AcDbLine
 10
58.1356706667
 20
220.9850891277
 30
0.0
 11
61.1356706667
 21
220.9850891277
 31
0.0
  0
MTEXT
  5
185
330
170
100
AcDbEntity
  8
SLD-0
100
AcDbMText
 10
73.0992206071
 20
225.51178294
 30
0.1
 40
3.5
 41
0.0
 71
     1
 72
     1
  1
34
  7
SLDTEXTSTYLE2
 73
     1
 44
1.0
  0
ENDBLK
  5
17B
330
170
100
AcDbEntity
  8
0
100
AcDbBlockEnd
  0
BLOCK
  5
191
330
187
100
AcDbEntity
  8
0
100
AcDbBlockBegin
  2
*D15
 70
     1
 71
     0
 10
0.0
 20
0.0
 30
0.0
  3
*D15
  1

  0
LINE
  5
193
330
187
100
AcDbEntity
  8
SLD-0
 62
     7
100
AcDbLine
 10
53.1356706667
 20
207.2782062739
 30
0.0
 11
53.1356706667
 21
230.1108369078
 31
0.0
  0
LINE
  5
194
330
187
100
AcDbEntity
  8
SLD-0
 62
     7
100
AcDbLine
 10
98.1356706667
 20
207.2782062739
 30
0.0
 11
98.1356706667
 21
230.1108369078
 31
0.0
  0
LINE
  5
195
330
187
100
AcDbEntity
  8
SLD-0
 62
     7
100
AcDbLine
 10
53.1356706667
 20
229.1108369078
 30
0.0
 11
98.1356706667
 21
229.1108369078
 31
0.0
  0
LINE
  5
196
330
187
100
AcDbEntity
  8
SLD-0
 62
     7
100
AcDbLine
 10
56.1356706667
 20
228.3069899078
 30
0.0
 11
53.1356706667
 21
229.1108369078
 31
0.0
  0
LINE
  5
197
330
187
100
AcDbEntity
  8
SLD-0
 62
     7
100
AcDbLine
 10
53.1356706667
 20
229.1108369078
 30
0.0
 11
56.1356706667
 21
229.9146839078
 31
0.0
  0
LINE
  5
198
330
187
100
AcDbEntity
  8
SLD-0
 62
     7
100
AcDbLine
 10
53.1356706667
 20
229.1108369078
 30
0.0
 11
56.1356706667
 21
229.1108369078
 31
0.0
  0
LINE
  5
199
330
187
100
AcDbEntity
  8
SLD-0
 62
     7
100
AcDbLine
 10
95.1356706667
 20
229.9146839078
 30
0.0
 11
98.1356706667
 21
229.1108369078
 31
0.0
  0
LINE
  5
19A
330
187
100
AcDbEntity
  8
SLD-0
 62
     7
100
AcDbLine
 10
98.1356706667
 20
229.1108369078
 30
0.0
 11
95.1356706667
 21
228.3069899078
 31
0.0
  0
LINE
  5
19B
330
187
100
AcDbEntity
  8
SLD-0
 62
     7
100
AcDbLine
 10
98.1356706667
 20
229.1108369078
 30
0.0
 11
95.1356706667
 21
229.1108369078
 31
0.0
  0
MTEXT
  5
19C
330
187
100
AcDbEntity
  8
SLD-0
 62
     7
100
AcDbMText
 10
73.5992206071
 20
233.6375307201
 30
0.1
 40
3.5
 41
0.0
 71
     1
 72
     1
  1
45
  7
SLDTEXTSTYLE2
 73
     1
 44
1.0
  0
ENDBLK
  5
192
330
187
100
AcDbEntity
  8
0
100
AcDbBlockEnd
  0
BLOCK
  5
1A9
330
19E
100
AcDbEntity
  8
0
100
AcDbBlockBegin
  2
*D16
 70
     1
 71
     0
 10
0.0
 20
0.0
 30
0.0
  3
*D16
  1

  0
LINE
  5
1AB
330
19E
100
AcDbEntity
  8
SLD-0
 62
     7
100
AcDbLine
 10
98.1356706667
 20
207.2782062739
 30
0.0
 11
98.1356706667
 21
221.9850891277
 31
0.0
  0
LINE
  5
1AC
330
19E
100
AcDbEntity
  8
SLD-0
 62
     7
100
AcDbLine
 10
92.1356706667
 20
205.7782062739
 30
0.0
 11
92.1356706667
 21
221.9850891277
 31
0.0
  0
LINE
  5
1AD
330
19E
100
AcDbEntity
  8
SLD-0
 62
     7
100
AcDbLine
 10
98.1356706667
 20
220.9850891277
 30
0.0
 11
103.1356706667
 21
220.9850891277
 31
0.0
  0
LINE
  5
1AE
330
19E
100
AcDbEntity
  8
SLD-0
 62
     7
100
AcDbLine
 10
98.1356706667
 20
220.9850891277
 30
0.0
 11
92.1356706667
 21
220.9850891277
 31
0.0
  0
LINE
  5
1AF
330
19E
100
AcDbEntity
  8
SLD-0
 62
     7
100
AcDbLine
 10
92.1356706667
 20
220.9850891277
 30
0.0
 11
87.1356706667
 21
220.9850891277
 31
0.0
  0
LINE
  5
1B0
330
19E
100
AcDbEntity
  8
SLD-0
 62
     7
100
AcDbLine
 10
101.1356706667
 20
220.1812421277
 30
0.0
 11
98.1356706667
 21
220.9850891277
 31
0.0
  0
LINE
  5
1B1
330
19E
100
AcDbEntity
  8
SLD-0
 62
     7
100
AcDbLine
 10
98.1356706667
 20
220.9850891277
 30
0.0
 11
101.1356706667
 21
221.7889361277
 31
0.0
  0
LINE
  5
1B2
330
19E
100
AcDbEntity
  8
SLD-0
 62
     7
100
AcDbLine
 10
98.1356706667
 20
220.9850891277
 30
0.0
 11
101.1356706667
 21
220.9850891277
 31
0.0
  0
LINE
  5
1B3
330
19E
100
AcDbEntity
  8
SLD-0
 62
     7
100
AcDbLine
 10
89.1356706667
 20
221.7889361277
 30
0.0
 11
92.1356706667
 21
220.9850891277
 31
0.0
  0
LINE
  5
1B4
330
19E
100
AcDbEntity
  8
SLD-0
 62
     7
100
AcDbLine
 10
92.1356706667
 20
220.9850891277
 30
0.0
 11
89.1356706667
 21
220.1812421277
 31
0.0
  0
LINE
  5
1B5
330
19E
100
AcDbEntity
  8
SLD-0
 62
     7
100
AcDbLine
 10
92.1356706667
 20
220.9850891277
 30
0.0
 11
89.1356706667
 21
220.9850891277
 31
0.0
  0
MTEXT
  5
1B6
330
19E
100
AcDbEntity
  8
SLD-0
 62
     7
100
AcDbMText
 10
94.1174456369
 20
225.51178294
 30
0.1
 40
3.5
 41
0.0
 71
     1
 72
     1
  1
6
  7
SLDTEXTSTYLE2
 73
     1
 44
1.0
  0
ENDBLK
  5
1AA
330
19E
100
AcDbEntity
  8
0
100
AcDbBlockEnd
  0
BLOCK
  5
1C2
330
1B8
100
AcDbEntity
  8
0
100
AcDbBlockBegin
  2
*D17
 70
     1
 71
     0
 10
0.0
 20
0.0
 30
0.0
  3
*D17
  1

  0
LINE
  5
1C4
330
1B8
100
AcDbEntity
  8
SLD-0
 62
     7
100
AcDbLine
 10
73.1356706667
 20
189.2782062739
 30
0.0
 11
73.1356706667
 21
181.5856184033
 31
0.0
  0
LINE
  5
1C5
330
1B8
100
AcDbEntity
  8
SLD-0
 62
     7
100
AcDbLine
 10
98.1356706667
 20
189.2782062739
 30
0.0
 11
98.1356706667
 21
181.5856184033
 31
0.0
  0
LINE
  5
1C6
330
1B8
100
AcDbEntity
  8
SLD-0
 62
     7
100
AcDbLine
 10
73.1356706667
 20
182.5856184033
 30
0.0
 11
98.1356706667
 21
182.5856184033
 31
0.0
  0
LINE
  5
1C7
330
1B8
100
AcDbEntity
  8
SLD-0
 62
     7
100
AcDbLine
 10
76.1356706667
 20
181.7817714033
 30
0.0
 11
73.1356706667
 21
182.5856184033
 31
0.0
  0
LINE
  5
1C8
330
1B8
100
AcDbEntity
  8
SLD-0
 62
     7
100
AcDbLine
 10
73.1356706667
 20
182.5856184033
 30
0.0
 11
76.1356706667
 21
183.3894654033
 31
0.0
  0
LINE
  5
1C9
330
1B8
100
AcDbEntity
  8
SLD-0
 62
     7
100
AcDbLine
 10
73.1356706667
 20
182.5856184033
 30
0.0
 11
76.1356706667
 21
182.5856184033
 31
0.0
  0
LINE
  5
1CA
330
1B8
100
AcDbEntity
  8
SLD-0
 62
     7
100
AcDbLine
 10
95.1356706667
 20
183.3894654033
 30
0.0
 11
98.1356706667
 21
182.5856184033
 31
0.0
  0
LINE
  5
1CB
330
1B8
100
AcDbEntity
  8
SLD-0
 62
     7
100
AcDbLine
 10
98.1356706667
 20
182.5856184033
 30
0.0
 11
95.1356706667
 21
181.7817714033
 31
0.0
  0
LINE
  5
1CC
330
1B8
100
AcDbEntity
  8
SLD-0
 62
     7
100
AcDbLine
 10
98.1356706667
 20
182.5856184033
 30
0.0
 11
95.1356706667
 21
182.5856184033
 31
0.0
  0
MTEXT
  5
1CD
330
1B8
100
AcDbEntity
  8
SLD-0
 62
     7
100
AcDbMText
 10
83.5992206071
 20
187.1123122156
 30
0.1
 40
3.5
 41
0.0
 71
     1
 72
     1
  1
25
  7
SLDTEXTSTYLE2
 73
     1
 44
1.0
  0
ENDBLK
  5
1C3
330
1B8
100
AcDbEntity
  8
0
100
AcDbBlockEnd
  0
BLOCK
  5
1DA
330
1CF
100
AcDbEntity
  8
0
100
AcDbBlockBegin
  2
*D18
 70
     1
 71
     0
 10
0.0
 20
0.0
 30
0.0
  3
*D18
  1

  0
LINE
  5
1DC
330
1CF
100
AcDbEntity
  8
SLD-0
 62
     7
100
AcDbLine
 10
99.1356706667
 20
206.2782062739
 30
0.0
 11
111.8102232996
 21
206.2782062739
 31
0.0
  0
LINE
  5
1DD
330
1CF
100
AcDbEntity
  8
SLD-0
 62
     7
100
AcDbLine
 10
99.6356706667
 20
198.2782062739
 30
0.0
 11
111.8102232996
 21
198.2782062739
 31
0.0
  0
LINE
  5
1DE
330
1CF
100
AcDbEntity
  8
SLD-0
 62
     7
100
AcDbLine
 10
110.8102232996
 20
206.2782062739
 30
0.0
 11
110.8102232996
 21
211.2782062739
 31
0.0
  0
LINE
  5
1DF
330
1CF
100
AcDbEntity
  8
SLD-0
 62
     7
100
AcDbLine
 10
110.8102232996
 20
206.2782062739
 30
0.0
 11
110.8102232996
 21
198.2782062739
 31
0.0
  0
LINE
  5
1E0
330
1CF
100
AcDbEntity
  8
SLD-0
 62
     7
100
AcDbLine
 10
110.8102232996
 20
198.2782062739
 30
0.0
 11
110.8102232996
 21
193.2782062739
 31
0.0
  0
LINE
  5
1E1
330
1CF
100
AcDbEntity
  8
SLD-0
 62
     7
100
AcDbLine
 10
111.6140702996
 20
209.2782062739
 30
0.0
 11
110.8102232996
 21
206.2782062739
 31
0.0
  0
LINE
  5
1E2
330
1CF
100
AcDbEntity
  8
SLD-0
 62
     7
100
AcDbLine
 10
110.8102232996
 20
206.2782062739
 30
0.0
 11
110.0063762996
 21
209.2782062739
 31
0.0
  0
LINE
  5
1E3
330
1CF
100
AcDbEntity
  8
SLD-0
 62
     7
100
AcDbLine
 10
110.8102232996
 20
206.2782062739
 30
0.0
 11
110.8102232996
 21
209.2782062739
 31
0.0
  0
LINE
  5
1E4
330
1CF
100
AcDbEntity
  8
SLD-0
 62
     7
100
AcDbLine
 10
110.0063762996
 20
195.2782062739
 30
0.0
 11
110.8102232996
 21
198.2782062739
 31
0.0
  0
LINE
  5
1E5
330
1CF
100
AcDbEntity
  8
SLD-0
 62
     7
100
AcDbLine
 10
110.8102232996
 20
198.2782062739
 30
0.0
 11
111.6140702996
 21
195.2782062739
 31
0.0
  0
LINE
  5
1E6
330
1CF
100
AcDbEntity
  8
SLD-0
 62
     7
100
AcDbLine
 10
110.8102232996
 20
198.2782062739
 30
0.0
 11
110.8102232996
 21
195.2782062739
 31
0.0
  0
MTEXT
  5
1E7
330
1CF
100
AcDbEntity
  8
SLD-0
 62
     7
100
AcDbMText
 10
106.2835294873
 20
201.2599812441
 30
0.1
 40
3.5
 41
0.0
 71
     1
 72
     1
  1
8
  7
SLDTEXTSTYLE2
 11
6.123031769111886E-17
 21
1.0
 31
0.0
 73
     1
 44
1.0
  0
ENDBLK
  5
1DB
330
1CF
100
AcDbEntity
  8
0
100
AcDbBlockEnd
  0
BLOCK
  5
1F4
330
1E9
100
AcDbEntity
  8
0
100
AcDbBlockBegin
  2
*D19
 70
     1
 71
     0
 10
0.0
 20
0.0
 30
0.0
  3
*D19
  1

  0
LINE
  5
1F6
330
1E9
100
AcDbEntity
  8
SLD-0
 62
     7
100
AcDbLine
 10
99.1356706667
 20
206.2782062739
 30
0.0
 11
124.0707326571
 21
206.2782062739
 31
0.0
  0
LINE
  5
1F7
330
1E9
100
AcDbEntity
  8
SLD-0
 62
     7
100
AcDbLine
 10
99.1356706667
 20
190.2782062739
 30
0.0
 11
124.0707326571
 21
190.2782062739
 31
0.0
  0
LINE
  5
1F8
330
1E9
100
AcDbEntity
  8
SLD-0
 62
     7
100
AcDbLine
 10
123.0707326571
 20
206.2782062739
 30
0.0
 11
123.0707326571
 21
190.2782062739
 31
0.0
  0
LINE
  5
1F9
330
1E9
100
AcDbEntity
  8
SLD-0
 62
     7
100
AcDbLine
 10
122.2668856571
 20
203.2782062739
 30
0.0
 11
123.0707326571
 21
206.2782062739
 31
0.0
  0
LINE
  5
1FA
330
1E9
100
AcDbEntity
  8
SLD-0
 62
     7
100
AcDbLine
 10
123.0707326571
 20
206.2782062739
 30
0.0
 11
123.8745796571
 21
203.2782062739
 31
0.0
  0
LINE
  5
1FB
330
1E9
100
AcDbEntity
  8
SLD-0
 62
     7
100
AcDbLine
 10
123.0707326571
 20
206.2782062739
 30
0.0
 11
123.0707326571
 21
203.2782062739
 31
0.0
  0
LINE
  5
1FC
330
1E9
100
AcDbEntity
  8
SLD-0
 62
     7
100
AcDbLine
 10
123.8745796571
 20
193.2782062739
 30
0.0
 11
123.0707326571
 21
190.2782062739
 31
0.0
  0
LINE
  5
1FD
330
1E9
100
AcDbEntity
  8
SLD-0
 62
     7
100
AcDbLine
 10
123.0707326571
 20
190.2782062739
 30
0.0
 11
122.2668856571
 21
193.2782062739
 31
0.0
  0
LINE
  5
1FE
330
1E9
100
AcDbEntity
  8
SLD-0
 62
     7
100
AcDbLine
 10
123.0707326571
 20
190.2782062739
 30
0.0
 11
123.0707326571
 21
193.2782062739
 31
0.0
  0
MTEXT
  5
1FF
330
1E9
100
AcDbEntity
  8
SLD-0
 62
     7
100
AcDbMText
 10
118.5440388448
 20
196.2417562143
 30
0.1
 40
3.5
 41
0.0
 71
     1
 72
     1
  1
16
  7
SLDTEXTSTYLE2
 11
6.123031769111886E-17
 21
1.0
 31
0.0
 73
     1
 44
1.0
  0
ENDBLK
  5
1F5
330
1E9
100
AcDbEntity
  8
0
100
AcDbBlockEnd
  0
BLOCK
  5
20C
330
201
100
AcDbEntity
  8
0
100
AcDbBlockBegin
  2
*D20
 70
     1
 71
     0
 10
0.0
 20
0.0
 30
0.0
  3
*D20
  1

  0
LINE
  5
20E
330
201
100
AcDbEntity
  8
SLD-0
 62
     7
100
AcDbLine
 10
52.1356706667
 20
206.2782062739
 30
0.0
 11
45.3161049334
 21
206.2782062739
 31
0.0
  0
LINE
  5
20F
330
201
100
AcDbEntity
  8
SLD-0
 62
     7
100
AcDbLine
 10
52.1356706667
 20
198.2782062739
 30
0.0
 11
45.3161049334
 21
198.2782062739
 31
0.0
  0
LINE
  5
210
330
201
100
AcDbEntity
  8
SLD-0
 62
     7
100
AcDbLine
 10
46.3161049334
 20
206.2782062739
 30
0.0
 11
46.3161049334
 21
211.2782062739
 31
0.0
  0
LINE
  5
211
330
201
100
AcDbEntity
  8
SLD-0
 62
     7
100
AcDbLine
 10
46.3161049334
 20
206.2782062739
 30
0.0
 11
46.3161049334
 21
198.2782062739
 31
0.0
  0
LINE
  5
212
330
201
100
AcDbEntity
  8
SLD-0
 62
     7
100
AcDbLine
 10
46.3161049334
 20
198.2782062739
 30
0.0
 11
46.3161049334
 21
193.2782062739
 31
0.0
  0
LINE
  5
213
330
201
100
AcDbEntity
  8
SLD-0
 62
     7
100
AcDbLine
 10
47.1199519334
 20
209.2782062739
 30
0.0
 11
46.3161049334
 21
206.2782062739
 31
0.0
  0
LINE
  5
214
330
201
100
AcDbEntity
  8
SLD-0
 62
     7
100
AcDbLine
 10
46.3161049334
 20
206.2782062739
 30
0.0
 11
45.5122579334
 21
209.2782062739
 31
0.0
  0
LINE
  5
215
330
201
100
AcDbEntity
  8
SLD-0
 62
     7
100
AcDbLine
 10
46.3161049334
 20
206.2782062739
 30
0.0
 11
46.3161049334
 21
209.2782062739
 31
0.0
  0
LINE
  5
216
330
201
100
AcDbEntity
  8
SLD-0
 62
     7
100
AcDbLine
 10
45.5122579334
 20
195.2782062739
 30
0.0
 11
46.3161049334
 21
198.2782062739
 31
0.0
  0
LINE
  5
217
330
201
100
AcDbEntity
  8
SLD-0
 62
     7
100
AcDbLine
 10
46.3161049334
 20
198.2782062739
 30
0.0
 11
47.1199519334
 21
195.2782062739
 31
0.0
  0
LINE
  5
218
330
201
100
AcDbEntity
  8
SLD-0
 62
     7
100
AcDbLine
 10
46.3161049334
 20
198.2782062739
 30
0.0
 11
46.3161049334
 21
195.2782062739
 31
0.0
  0
MTEXT
  5
219
330
201
100
AcDbEntity
  8
SLD-0
 62
     7
100
AcDbMText
 10
41.789411121
 20
201.2599812441
 30
0.1
 40
3.5
 41
0.0
 71
     1
 72
     1
  1
8
  7
SLDTEXTSTYLE2
 11
6.123031769111886E-17
 21
1.0
 31
0.0
 73
     1
 44
1.0
  0
ENDBLK
  5
20D
330
201
100
AcDbEntity
  8
0
100
AcDbBlockEnd
  0
BLOCK
  5
226
330
21B
100
AcDbEntity
  8
0
100
AcDbBlockBegin
  2
*D21
 70
     1
 71
     0
 10
0.0
 20
0.0
 30
0.0
  3
*D21
  1

  0
LINE
  5
228
330
21B
100
AcDbEntity
  8
SLD-0
 62
     7
100
AcDbLine
 10
163.8953366604
 20
138.809816684
 30
0.0
 11
175.6552674976
 21
138.809816684
 31
0.0
  0
LINE
  5
229
330
21B
100
AcDbEntity
  8
SLD-0
 62
     7
100
AcDbLine
 10
163.8953366604
 20
122.809816684
 30
0.0
 11
175.6552674976
 21
122.809816684
 31
0.0
  0
LINE
  5
22A
330
21B
100
AcDbEntity
  8
SLD-0
 62
     7
100
AcDbLine
 10
174.6552674976
 20
138.809816684
 30
0.0
 11
174.6552674976
 21
122.809816684
 31
0.0
  0
LINE
  5
22B
330
21B
100
AcDbEntity
  8
SLD-0
 62
     7
100
AcDbLine
 10
173.8514204976
 20
135.809816684
 30
0.0
 11
174.6552674976
 21
138.809816684
 31
0.0
  0
LINE
  5
22C
330
21B
100
AcDbEntity
  8
SLD-0
 62
     7
100
AcDbLine
 10
174.6552674976
 20
138.809816684
 30
0.0
 11
175.4591144976
 21
135.809816684
 31
0.0
  0
LINE
  5
22D
330
21B
100
AcDbEntity
  8
SLD-0
 62
     7
100
AcDbLine
 10
174.6552674976
 20
138.809816684
 30
0.0
 11
174.6552674976
 21
135.809816684
 31
0.0
  0
LINE
  5
22E
330
21B
100
AcDbEntity
  8
SLD-0
 62
     7
100
AcDbLine
 10
175.4591144976
 20
125.809816684
 30
0.0
 11
174.6552674976
 21
122.809816684
 31
0.0
  0
LINE
  5
22F
330
21B
100
AcDbEntity
  8
SLD-0
 62
     7
100
AcDbLine
 10
174.6552674976
 20
122.809816684
 30
0.0
 11
173.8514204976
 21
125.809816684
 31
0.0
  0
LINE
  5
230
330
21B
100
AcDbEntity
  8
SLD-0
 62
     7
100
AcDbLine
 10
174.6552674976
 20
122.809816684
 30
0.0
 11
174.6552674976
 21
125.809816684
 31
0.0
  0
MTEXT
  5
231
330
21B
100
AcDbEntity
  8
SLD-0
 62
     7
100
AcDbMText
 10
170.1285736852
 20
128.7733666244
 30
0.1
 40
3.5
 41
0.0
 71
     1
 72
     1
  1
16
  7
SLDTEXTSTYLE2
 11
6.123031769111886E-17
 21
1.0
 31
0.0
 73
     1
 44
1.0
  0
ENDBLK
  5
227
330
21B
100
AcDbEntity
  8
0
100
AcDbBlockEnd
  0
ENDSEC
  0
SECTION
  2
ENTITIES
  0
LINE
  5
5E
330
1F
100
AcDbEntity
  8
SLD-0
100
AcDbLine
 10
94.174695781
 20
120.3268045728
 30
0.0
 11
92.4183783678
 21
122.809816684
 31
0.0
  0
LINE
  5
5F
330
1F
100
AcDbEntity
  8
SLD-0
100
AcDbLine
 10
92.4183783678
 20
122.809816684
 30
0.0
 11
94.8850609298
 21
121.030637902
 31
0.0
  0
LINE
  5
60
330
1F
100
AcDbEntity
  8
SLD-0
100
AcDbLine
 10
94.8850609298
 20
121.030637902
 30
0.0
 11
94.174695781
 21
120.3268045728
 31
0.0
  0
LINE
  5
61
330
1F
100
AcDbEntity
  8
SLD-0
  6
Continuous
 62
     7
100
AcDbLine
 10
73.1356707226
 20
122.809816304
 30
0.0
 11
73.1356707226
 21
138.809817064
 31
0.0
  0
LINE
  5
62
330
1F
100
AcDbEntity
  8
SLD-0
  6
Continuous
 62
     7
100
AcDbLine
 10
98.1356715608
 20
137.3098168181
 30
0.0
 11
96.6356703836
 21
138.809817064
 31
0.0
  0
LINE
  5
63
330
1F
100
AcDbEntity
  8
SLD-0
  6
Continuous
 62
     7
100
AcDbLine
 10
98.1356715608
 20
137.3098168181
 30
0.0
 11
98.1356715608
 21
131.309816684
 31
0.0
  0
LINE
  5
64
330
1F
100
AcDbEntity
  8
SLD-0
  6
Continuous
 62
     7
100
AcDbLine
 10
98.1356715608
 20
131.309816684
 30
0.0
 11
89.1148010383
 21
131.309816684
 31
0.0
  0
LINE
  5
65
330
1F
100
AcDbEntity
  8
SLD-0
  6
Continuous
 62
     7
100
AcDbLine
 10
77.1565402952
 20
131.309816684
 30
0.0
 11
75.135670643
 21
131.3098167077
 31
0.0
  0
LINE
  5
66
330
1F
100
AcDbEntity
  8
SLD-0
  6
Continuous
 62
     7
100
AcDbLine
 10
75.135670643
 20
131.3098167077
 30
0.0
 11
75.135670643
 21
130.3098166602
 31
0.0
  0
LINE
  5
67
330
1F
100
AcDbEntity
  8
SLD-0
  6
Continuous
 62
     7
100
AcDbLine
 10
75.135670643
 20
130.3098166602
 30
0.0
 11
77.1565402952
 21
130.309816684
 31
0.0
  0
LINE
  5
68
330
1F
100
AcDbEntity
  8
SLD-0
  6
Continuous
 62
     7
100
AcDbLine
 10
89.1148010383
 20
130.309816684
 30
0.0
 11
98.1356715608
 21
130.309816684
 31
0.0
  0
LINE
  5
69
330
1F
100
AcDbEntity
  8
SLD-0
  6
Continuous
 62
     7
100
AcDbLine
 10
96.6356703836
 20
122.809816304
 30
0.0
 11
98.1356715608
 21
124.3098165499
 31
0.0
  0
LINE
  5
6A
330
1F
100
AcDbEntity
  8
SLD-0
  6
Continuous
 62
     7
100
AcDbLine
 10
96.6356703836
 20
122.809816304
 30
0.0
 11
73.1356707226
 21
122.809816304
 31
0.0
  0
LINE
  5
6B
330
1F
100
AcDbEntity
  8
SLD-0
  6
Continuous
 62
     7
100
AcDbLine
 10
96.6356703836
 20
138.809817064
 30
0.0
 11
73.1356707226
 21
138.809817064
 31
0.0
  0
LINE
  5
6C
330
1F
100
AcDbEntity
  8
SLD-0
  6
Continuous
 62
     7
100
AcDbLine
 10
98.1356715608
 20
130.309816684
 30
0.0
 11
98.1356715608
 21
124.3098165499
 31
0.0
  0
LINE
  5
6D
330
1F
100
AcDbEntity
  8
SLD-0
  6
Continuous
 62
     7
100
AcDbLine
 10
53.1356697726
 20
124.3098165499
 30
0.0
 11
54.6356709498
 21
122.809816304
 31
0.0
  0
LINE
  5
6E
330
1F
100
AcDbEntity
  8
SLD-0
  6
Continuous
 62
     7
100
AcDbLine
 10
53.1356697726
 20
124.3098165499
 30
0.0
 11
53.1356697726
 21
137.3098168181
 31
0.0
  0
LINE
  5
6F
330
1F
100
AcDbEntity
  8
SLD-0
  6
Continuous
 62
     7
100
AcDbLine
 10
54.6356709498
 20
138.809817064
 30
0.0
 11
53.1356697726
 21
137.3098168181
 31
0.0
  0
LINE
  5
70
330
1F
100
AcDbEntity
  8
SLD-0
  6
Continuous
 62
     7
100
AcDbLine
 10
73.1356707226
 20
122.809816304
 30
0.0
 11
54.6356709498
 21
122.809816304
 31
0.0
  0
LINE
  5
71
330
1F
100
AcDbEntity
  8
SLD-0
  6
Continuous
 62
     7
100
AcDbLine
 10
73.1356707226
 20
138.809817064
 30
0.0
 11
54.6356709498
 21
138.809817064
 31
0.0
  0
LINE
  5
72
330
1F
100
AcDbEntity
  8
SLD-0
  6
HIDDEN
 62
     7
100
AcDbLine
 10
92.1356706667
 20
134.809816684
 30
0.0
 11
96.1356706667
 21
134.809816684
 31
0.0
  0
LINE
  5
73
330
1F
100
AcDbEntity
  8
SLD-0
  6
HIDDEN
 62
     7
100
AcDbLine
 10
88.1356706667
 20
134.809816684
 30
0.0
 11
92.1356706667
 21
134.809816684
 31
0.0
  0
LINE
  5
74
330
1F
100
AcDbEntity
  8
SLD-0
  6
HIDDEN
 62
     7
100
AcDbLine
 10
88.135670853
 20
138.809817064
 30
0.0
 11
88.1356706667
 21
134.809816684
 31
0.0
  0
LINE
  5
75
330
1F
100
AcDbEntity
  8
SLD-0
  6
HIDDEN
 62
     7
100
AcDbLine
 10
96.1356706667
 20
134.809816684
 30
0.0
 11
96.135671233
 21
138.809817064
 31
0.0
  0
LINE
  5
76
330
1F
100
AcDbEntity
  8
SLD-0
  6
HIDDEN
 62
     7
100
AcDbLine
 10
89.8856706742
 20
134.809816874
 30
0.0
 11
89.8856706742
 21
131.3098167077
 31
0.0
  0
LINE
  5
77
330
1F
100
AcDbEntity
  8
SLD-0
  6
HIDDEN
 62
     7
100
AcDbLine
 10
94.3856714118
 20
131.3098167077
 30
0.0
 11
94.3856714118
 21
134.809816874
 31
0.0
  0
LINE
  5
78
330
1F
100
AcDbEntity
  8
SLD-0
  6
HIDDEN
 62
     7
100
AcDbLine
 10
90.4856705862
 20
130.3098166602
 30
0.0
 11
90.4856705862
 21
122.809816304
 31
0.0
  0
LINE
  5
79
330
1F
100
AcDbEntity
  8
SLD-0
  6
HIDDEN
 62
     7
100
AcDbLine
 10
93.7856705684
 20
122.809816304
 30
0.0
 11
93.7856705684
 21
130.3098166602
 31
0.0
  0
LINE
  5
7A
330
1F
100
AcDbEntity
  8
SLD-0
 62
     7
100
AcDbLine
 10
53.8856706667
 20
123.559816684
 30
0.0
 11
40.7567519268
 21
109.6593814716
 31
0.0
  0
LINE
  5
7B
330
1F
100
AcDbEntity
  8
SLD-0
 62
     7
100
AcDbLine
 10
40.7567519268
 20
109.6593814716
 30
0.0
 11
51.3446846112
 21
120.8335343329
 31
0.0
  0
LINE
  5
7C
330
1F
100
AcDbEntity
  8
SLD-0
100
AcDbLine
 10
94.5298783554
 20
120.6787212374
 30
0.0
 11
100.0064501788
 21
115.1513249106
 31
0.0
  0
LINE
  5
7D
330
1F
100
AcDbEntity
  8
SLD-0
100
AcDbLine
 10
100.0064501788
 20
115.1513249106
 30
0.0
 11
104.582961025
 21
115.1513249106
 31
0.0
  0
LINE
  5
7E
330
1F
100
AcDbEntity
  8
SLD-0
  6
HIDDEN
 62
     7
100
AcDbLine
 10
94.1356709051
 20
122.809816304
 30
0.0
 11
94.1356709051
 21
130.3098166602
 31
0.0
  0
LINE
  5
7F
330
1F
100
AcDbEntity
  8
SLD-0
  6
HIDDEN
 62
     7
100
AcDbLine
 10
90.1356702495
 20
130.3098166602
 30
0.0
 11
90.1356702495
 21
122.809816304
 31
0.0
  0
LINE
  5
80
330
1F
100
AcDbEntity
  8
SLD-0
  6
CENTERX2
 62
     7
100
AcDbLine
 10
92.1356706667
 20
120.809816684
 30
0.0
 11
92.1356706667
 21
140.809816684
 31
0.0
  0
LINE
  5
81
330
1F
100
AcDbEntity
  8
SLD-0
  6
Continuous
 62
     7
100
AcDbLine
 10
54.6356709498
 20
206.2782066538
 30
0.0
 11
54.6356709498
 21
198.2782062739
 31
0.0
  0
LINE
  5
82
330
1F
100
AcDbEntity
  8
SLD-0
  6
Continuous
 62
     7
100
AcDbLine
 10
54.6356709498
 20
198.2782062739
 30
0.0
 11
53.1356697726
 21
198.2782062739
 31
0.0
  0
LINE
  5
83
330
1F
100
AcDbEntity
  8
SLD-0
  6
Continuous
 62
     7
100
AcDbLine
 10
53.1356697726
 20
198.2782062739
 30
0.0
 11
53.1356697726
 21
206.2782066538
 31
0.0
  0
LINE
  5
84
330
1F
100
AcDbEntity
  8
SLD-0
  6
Continuous
 62
     7
100
AcDbLine
 10
53.1356697726
 20
206.2782066538
 30
0.0
 11
54.6356709498
 21
206.2782066538
 31
0.0
  0
LINE
  5
85
330
1F
100
AcDbEntity
  8
SLD-0
  6
Continuous
 62
     7
100
AcDbLine
 10
73.1356707226
 20
190.2782058939
 30
0.0
 11
73.1356707226
 21
198.2782062739
 31
0.0
  0
LINE
  5
86
330
1F
100
AcDbEntity
  8
SLD-0
  6
Continuous
 62
     7
100
AcDbLine
 10
73.1356707226
 20
198.2782062739
 30
0.0
 11
54.6356709498
 21
198.2782062739
 31
0.0
  0
LINE
  5
87
330
1F
100
AcDbEntity
  8
SLD-0
  6
Continuous
 62
     7
100
AcDbLine
 10
96.6356703836
 20
206.2782066538
 30
0.0
 11
54.6356709498
 21
206.2782066538
 31
0.0
  0
LINE
  5
88
330
1F
100
AcDbEntity
  8
SLD-0
  6
Continuous
 62
     7
100
AcDbLine
 10
96.6356703836
 20
190.2782058939
 30
0.0
 11
96.6356703836
 21
206.2782066538
 31
0.0
  0
LINE
  5
89
330
1F
100
AcDbEntity
  8
SLD-0
  6
Continuous
 62
     7
100
AcDbLine
 10
96.6356703836
 20
190.2782058939
 30
0.0
 11
73.1356707226
 21
190.2782058939
 31
0.0
  0
LINE
  5
8A
330
1F
100
AcDbEntity
  8
SLD-0
  6
Continuous
 62
     7
100
AcDbLine
 10
98.1356715608
 20
206.2782066538
 30
0.0
 11
98.1356715608
 21
190.2782058939
 31
0.0
  0
LINE
  5
8B
330
1F
100
AcDbEntity
  8
SLD-0
  6
Continuous
 62
     7
100
AcDbLine
 10
98.1356715608
 20
190.2782058939
 30
0.0
 11
96.6356703836
 21
190.2782058939
 31
0.0
  0
LINE
  5
8C
330
1F
100
AcDbEntity
  8
SLD-0
  6
Continuous
 62
     7
100
AcDbLine
 10
96.6356703836
 20
206.2782066538
 30
0.0
 11
98.1356715608
 21
206.2782066538
 31
0.0
  0
LINE
  5
8D
330
1F
100
AcDbEntity
  8
SLD-0
  6
HIDDEN
 62
     7
100
AcDbLine
 10
89.1148010093
 20
206.2782066538
 30
0.0
 11
89.1148010093
 21
190.2782058939
 31
0.0
  0
LINE
  5
8E
330
1F
100
AcDbEntity
  8
SLD-0
  6
HIDDEN
 62
     7
100
AcDbLine
 10
75.135670643
 20
206.2782066538
 30
0.0
 11
75.135670643
 21
190.2782058939
 31
0.0
  0
LINE
  5
8F
330
1F
100
AcDbEntity
  8
SLD-0
  6
HIDDEN
 62
     7
100
AcDbLine
 10
77.1565403381
 20
190.2782058939
 30
0.0
 11
77.1565403381
 21
206.2782066538
 31
0.0
  0
LINE
  5
90
330
1F
100
AcDbEntity
  8
SLD-0
  6
HIDDEN
 62
     7
100
AcDbLine
 10
69.6356706146
 20
198.2782062739
 30
0.0
 11
69.6356706146
 21
206.2782066538
 31
0.0
  0
LINE
  5
91
330
1F
100
AcDbEntity
  8
SLD-0
  6
HIDDEN
 62
     7
100
AcDbLine
 10
56.6356712777
 20
206.2782066538
 30
0.0
 11
56.6356712777
 21
198.2782062739
 31
0.0
  0
LINE
  5
92
330
1F
100
AcDbEntity
  8
SLD-0
  6
HIDDEN
 62
     7
100
AcDbLine
 10
56.1356702644
 20
206.2782066538
 30
0.0
 11
56.1356702644
 21
198.2782062739
 31
0.0
  0
LINE
  5
93
330
1F
100
AcDbEntity
  8
SLD-0
  6
HIDDEN
 62
     7
100
AcDbLine
 10
70.1356706965
 20
198.2782062739
 30
0.0
 11
70.1356706965
 21
206.2782066538
 31
0.0
  0
LINE
  5
94
330
1F
100
AcDbEntity
  8
SLD-0
  6
CENTERX2
 62
     7
100
AcDbLine
 10
83.1356706667
 20
208.2782062739
 30
0.0
 11
83.1356706667
 21
188.2782062739
 31
0.0
  0
LINE
  5
95
330
1F
100
AcDbEntity
  8
SLD-0
  6
CENTERX2
 62
     7
100
AcDbLine
 10
63.1356706667
 20
208.2782062739
 30
0.0
 11
63.1356706667
 21
196.2782062739
 31
0.0
  0
LINE
  5
96
330
1F
100
AcDbEntity
  8
SLD-0
  6
Continuous
 62
     7
100
AcDbLine
 10
162.8953370404
 20
130.3098166602
 30
0.0
 11
146.8953362805
 21
130.3098166602
 31
0.0
  0
LINE
  5
97
330
1F
100
AcDbEntity
  8
SLD-0
  6
Continuous
 62
     7
100
AcDbLine
 10
162.8953370404
 20
124.3098165499
 30
0.0
 11
162.8953370404
 21
130.3098166602
 31
0.0
  0
LINE
  5
98
330
1F
100
AcDbEntity
  8
SLD-0
  6
Continuous
 62
     7
100
AcDbLine
 10
146.8953362805
 20
124.3098165499
 30
0.0
 11
162.8953370404
 21
124.3098165499
 31
0.0
  0
LINE
  5
99
330
1F
100
AcDbEntity
  8
SLD-0
  6
Continuous
 62
     7
100
AcDbLine
 10
146.8953362805
 20
130.3098166602
 30
0.0
 11
146.8953362805
 21
124.3098165499
 31
0.0
  0
LINE
  5
9A
330
1F
100
AcDbEntity
  8
SLD-0
  6
Continuous
 62
     7
100
AcDbLine
 10
162.8953370404
 20
137.3098168181
 30
0.0
 11
146.8953362805
 21
137.3098168181
 31
0.0
  0
LINE
  5
9B
330
1F
100
AcDbEntity
  8
SLD-0
  6
Continuous
 62
     7
100
AcDbLine
 10
146.8953362805
 20
137.3098168181
 30
0.0
 11
146.8953362805
 21
138.809817064
 31
0.0
  0
LINE
  5
9C
330
1F
100
AcDbEntity
  8
SLD-0
  6
Continuous
 62
     7
100
AcDbLine
 10
146.8953362805
 20
138.809817064
 30
0.0
 11
162.8953370404
 21
138.809817064
 31
0.0
  0
LINE
  5
9D
330
1F
100
AcDbEntity
  8
SLD-0
  6
Continuous
 62
     7
100
AcDbLine
 10
162.8953370404
 20
138.809817064
 30
0.0
 11
162.8953370404
 21
137.3098168181
 31
0.0
  0
LINE
  5
9E
330
1F
100
AcDbEntity
  8
SLD-0
  6
Continuous
 62
     7
100
AcDbLine
 10
146.8953362805
 20
137.3098168181
 30
0.0
 11
146.8953362805
 21
131.3098167077
 31
0.0
  0
LINE
  5
9F
330
1F
100
AcDbEntity
  8
SLD-0
  6
Continuous
 62
     7
100
AcDbLine
 10
162.8953370404
 20
131.3098167077
 30
0.0
 11
146.8953362805
 21
131.3098167077
 31
0.0
  0
LINE
  5
A0
330
1F
100
AcDbEntity
  8
SLD-0
  6
Continuous
 62
     7
100
AcDbLine
 10
162.8953370404
 20
131.3098167077
 30
0.0
 11
162.8953370404
 21
137.3098168181
 31
0.0
  0
LINE
  5
A1
330
1F
100
AcDbEntity
  8
SLD-0
  6
Continuous
 62
     7
100
AcDbLine
 10
162.8953370404
 20
122.809816304
 30
0.0
 11
146.8953362805
 21
122.809816304
 31
0.0
  0
LINE
  5
A2
330
1F
100
AcDbEntity
  8
SLD-0
  6
Continuous
 62
     7
100
AcDbLine
 10
146.8953362805
 20
122.809816304
 30
0.0
 11
146.8953362805
 21
124.3098165499
 31
0.0
  0
LINE
  5
A3
330
1F
100
AcDbEntity
  8
SLD-0
  6
Continuous
 62
     7
100
AcDbLine
 10
162.8953370404
 20
124.3098165499
 30
0.0
 11
162.8953370404
 21
122.809816304
 31
0.0
  0
LINE
  5
A4
330
1F
100
AcDbEntity
  8
SLD-0
  6
Continuous
 62
     7
100
AcDbLine
 10
146.8953362805
 20
131.3098167077
 30
0.0
 11
146.8953362805
 21
130.3098166602
 31
0.0
  0
LINE
  5
A5
330
1F
100
AcDbEntity
  8
SLD-0
  6
Continuous
 62
     7
100
AcDbLine
 10
162.8953370404
 20
131.3098167077
 30
0.0
 11
162.8953370404
 21
130.3098166602
 31
0.0
  0
LINE
  5
A6
330
1F
100
AcDbEntity
  8
SLD-0
  6
HIDDEN
 62
     7
100
AcDbLine
 10
158.8953368504
 20
134.809816874
 30
0.0
 11
150.8953366604
 21
134.809816684
 31
0.0
  0
LINE
  5
A7
330
1F
100
AcDbEntity
  8
SLD-0
  6
HIDDEN
 62
     7
100
AcDbLine
 10
150.8953366604
 20
138.809816684
 30
0.0
 11
158.8888129358
 21
138.809817064
 31
0.0
  0
LINE
  5
A8
330
1F
100
AcDbEntity
  8
SLD-0
  6
HIDDEN
 62
     7
100
AcDbLine
 10
152.6453366604
 20
134.809816684
 30
0.0
 11
157.1387346507
 21
134.809816874
 31
0.0
  0
LINE
  5
A9
330
1F
100
AcDbEntity
  8
SLD-0
  6
HIDDEN
 62
     7
100
AcDbLine
 10
152.6453366604
 20
131.309816684
 30
0.0
 11
157.1387346507
 21
131.309816684
 31
0.0
  0
LINE
  5
AA
330
1F
100
AcDbEntity
  8
SLD-0
  6
HIDDEN
 62
     7
100
AcDbLine
 10
153.2453366604
 20
122.809816684
 30
0.0
 11
156.5386942261
 21
122.809816304
 31
0.0
  0
LINE
  5
AB
330
1F
100
AcDbEntity
  8
SLD-0
  6
HIDDEN
 62
     7
100
AcDbLine
 10
153.2453366604
 20
130.309816684
 30
0.0
 11
156.5386942261
 21
130.309816684
 31
0.0
  0
LINE
  5
AC
330
1F
100
AcDbEntity
  8
SLD-0
  6
HIDDEN
 62
     7
100
AcDbLine
 10
150.8953366604
 20
138.809816684
 30
0.0
 11
150.8953366604
 21
134.809816684
 31
0.0
  0
LINE
  5
AD
330
1F
100
AcDbEntity
  8
SLD-0
  6
HIDDEN
 62
     7
100
AcDbLine
 10
158.8953368504
 20
134.809816874
 30
0.0
 11
158.8953368504
 21
138.809817064
 31
0.0
  0
LINE
  5
AE
330
1F
100
AcDbEntity
  8
SLD-0
  6
HIDDEN
 62
     7
100
AcDbLine
 10
152.6453366604
 20
134.809816684
 30
0.0
 11
152.6453366604
 21
131.309816684
 31
0.0
  0
LINE
  5
AF
330
1F
100
AcDbEntity
  8
SLD-0
  6
HIDDEN
 62
     7
100
AcDbLine
 10
157.1453365636
 20
131.3098167077
 30
0.0
 11
157.1453365636
 21
134.809816874
 31
0.0
  0
LINE
  5
B0
330
1F
100
AcDbEntity
  8
SLD-0
  6
HIDDEN
 62
     7
100
AcDbLine
 10
153.2453366604
 20
130.309816684
 30
0.0
 11
153.2453366604
 21
122.809816684
 31
0.0
  0
LINE
  5
B1
330
1F
100
AcDbEntity
  8
SLD-0
  6
HIDDEN
 62
     7
100
AcDbLine
 10
156.5453366515
 20
122.809816304
 30
0.0
 11
156.5453366515
 21
130.3098166602
 31
0.0
  0
LINE
  5
B2
330
1F
100
AcDbEntity
  8
SLD-0
  6
HIDDEN
 62
     7
100
AcDbLine
 10
156.8953367554
 20
122.809816304
 30
0.0
 11
156.8953367554
 21
130.3098166602
 31
0.0
  0
LINE
  5
B3
330
1F
100
AcDbEntity
  8
SLD-0
  6
HIDDEN
 62
     7
100
AcDbLine
 10
152.8953365654
 20
130.3098166602
 30
0.0
 11
152.8953365654
 21
122.809816304
 31
0.0
  0
LINE
  5
B4
330
1F
100
AcDbEntity
  8
SLD-0
  6
CENTERX2
 62
     7
100
AcDbLine
 10
154.8953366604
 20
119.4578903152
 30
0.0
 11
154.8953366604
 21
134.809816684
 31
0.0
  0
LINE
  5
B5
330
1F
100
AcDbEntity
  8
SLD-0
  6
CENTERX2
 62
     7
100
AcDbLine
 10
154.8953366604
 20
134.809816684
 30
0.0
 11
154.8953366604
 21
140.809816684
 31
0.0
  0
LINE
  5
B6
330
1F
100
AcDbEntity
  8
0
  6
Continuous
 62
     7
370
     0
100
AcDbLine
 10
20.2604743903
 20
285.0
 30
0.0
 11
196.7604743903
 21
285.0
 31
0.0
  0
LINE
  5
B7
330
1F
100
AcDbEntity
  8
0
  6
Continuous
 62
     7
370
     0
100
AcDbLine
 10
20.2604743903
 20
285.0
 30
0.0
 11
20.2604743903
 21
10.0
 31
0.0
  0
LINE
  5
B8
330
1F
100
AcDbEntity
  8
0
  6
Continuous
 62
     7
370
     0
100
AcDbLine
 10
20.2604743903
 20
10.0
 30
0.0
 11
196.7604743903
 21
10.0
 31
0.0
  0
LINE
  5
B9
330
1F
100
AcDbEntity
  8
0
  6
Continuous
 62
     7
370
     0
100
AcDbLine
 10
196.7604743903
 20
285.0
 30
0.0
 11
196.7604743903
 21
10.0
 31
0.0
  0
LINE
  5
BA
330
1F
100
AcDbEntity
  8
0
  6
Continuous
 62
     7
370
     0
100
AcDbLine
 10
127.0104743903
 20
50.75
 30
0.0
 11
196.7604743903
 21
50.75
 31
0.0
  0
LINE
  5
BB
330
1F
100
AcDbEntity
  8
0
  6
Continuous
 62
     7
370
     0
100
AcDbLine
 10
127.0104743903
 20
50.75
 30
0.0
 11
127.0104743903
 21
10.0
 31
0.0
  0
LINE
  5
BC
330
1F
100
AcDbEntity
  8
0
  6
Continuous
 62
     7
370
     0
100
AcDbLine
 10
127.0104743903
 20
22.75
 30
0.0
 11
196.7604743903
 21
22.75
 31
0.0
  0
LINE
  5
BD
330
1F
100
AcDbEntity
  8
0
  6
Continuous
 62
     7
370
     0
100
AcDbLine
 10
127.0104743903
 20
36.75
 30
0.0
 11
196.7604743903
 21
36.75
 31
0.0
  0
ARC
  5
BE
330
1F
100
AcDbEntity
  8
SLD-0
  6
Continuous
 62
     7
100
AcDbCircle
 10
83.1356706667
 20
130.809816684
 30
0.0
 40
5.999999999999325
100
AcDbArc
 50
4.7801918472
 51
175.2198081528
  0
ARC
  5
BF
330
1F
100
AcDbEntity
  8
SLD-0
  6
Continuous
 62
     7
100
AcDbCircle
 10
83.1356706667
 20
130.809816684
 30
0.0
 40
5.999999999999311
100
AcDbArc
 50
184.7801918472
 51
355.2198081528
  0
CIRCLE
  5
C0
330
1F
100
AcDbEntity
  8
SLD-0
  6
Continuous
 62
     7
100
AcDbCircle
 10
63.1356706667
 20
130.809816684
 30
0.0
 40
6.5
  0
CIRCLE
  5
C1
330
1F
100
AcDbEntity
  8
SLD-0
 62
     7
100
AcDbCircle
 10
63.1356706667
 20
130.809816684
 30
0.0
 40
7.000000029800006
  0
CIRCLE
  5
C2
330
1F
100
AcDbEntity
  8
SLD-0
  6
Continuous
 62
     7
100
AcDbCircle
 10
92.1356706667
 20
198.2782062739
 30
0.0
 40
4.0
  0
CIRCLE
  5
C3
330
1F
100
AcDbEntity
  8
SLD-0
  6
Continuous
 62
     7
100
AcDbCircle
 10
92.1356706667
 20
198.2782062739
 30
0.0
 40
2.25
  0
CIRCLE
  5
C4
330
1F
100
AcDbEntity
  8
SLD-0
  6
Continuous
 62
     7
100
AcDbCircle
 10
92.1356706667
 20
198.2782062739
 30
0.0
 40
1.649999999999992
  0
CIRCLE
  5
C5
330
1F
100
AcDbEntity
  8
SLD-0
 62
     7
100
AcDbCircle
 10
92.1356706667
 20
198.2782062739
 30
0.0
 40
2.000000238399991
  0
DIMENSION
  5
C6
330
1F
100
AcDbEntity
  8
SLD-0
 62
     7
100
AcDbDimension
  2
*D6
 10
83.1356706667
 20
155.0935436707
 30
0.0
 11
90.6356706667
 21
155.0935436707
 31
0.0
 70
   160
 71
     1
 42
15.0
  3
SLDDIMSTYLE0
100
AcDbAlignedDimension
 13
98.1356706667
 23
138.809816684
 33
0.0
 14
83.1356706667
 24
130.809816684
 34
0.0
100
AcDbRotatedDimension
1001
ACAD
1000
DSTYLE
1002
{
1070
    77
1070
     3
1070
   143
1040
0.0393700787
1070
    41
1040
3.0
1070
    44
1040
1.0
1070
    42
1040
1.0
1070
   147
1040
1.524
1070
    73
1070
     0
1070
    74
1070
     0
1070
   140
1040
3.5
1070
   284
1070
    12
1070
    78
1070
    12
1002
}
  0
DIMENSION
  5
E4
330
1F
100
AcDbEntity
  8
SLD-0
100
AcDbDimension
  2
*D8
 10
115.278303936
 20
138.809816684
 30
0.0
 11
115.278303936
 21
134.809816684
 31
0.0
 70
   160
 71
     1
 42
8.0
  3
SLDDIMSTYLE0
100
AcDbAlignedDimension
 13
91.6356706667
 23
130.809816684
 33
0.0
 14
96.6356706667
 24
138.809816684
 34
0.0
 50
90.0
100
AcDbRotatedDimension
1001
ACAD
1000
DSTYLE
1002
{
1070
    77
1070
     3
1070
   143
1040
0.0393700787
1070
    41
1040
3.0
1070
    44
1040
1.0
1070
    42
1040
1.0
1070
   147
1040
1.524
1070
    73
1070
     0
1070
    74
1070
     0
1070
   140
1040
3.5
1070
   284
1070
    12
1070
    78
1070
    12
1002
}
  0
DIMENSION
  5
FE
330
1F
100
AcDbEntity
  8
SLD-0
 62
     7
100
AcDbDimension
  2
*D9
 10
79.8949781911
 20
125.7602709343
 30
0.0
 11
115.278303936
 21
164.8773716586
 31
0.0
 70
   163
  1
<>　　
 71
     1
 42
12.0
  3
SLDDIMSTYLE1
100
AcDbDiametricDimension
 15
86.3763631423
 25
135.8593624336
 35
0.0
 40
0.0
1001
ACAD
1000
DSTYLE
1002
{
1070
    77
1070
     0
1070
   143
1040
0.0393700787
1070
    41
1040
3.0
1070
    44
1040
1.0
1070
    42
1040
1.0
1070
   147
1040
1.524
1070
    73
1070
     1
1070
    74
1070
     1
1070
   140
1040
3.5
1070
   284
1070
    12
1070
    78
1070
    12
1002
}
  0
DIMENSION
  5
113
330
1F
100
AcDbEntity
  8
SLD-0
 62
     7
100
AcDbDimension
  2
*D10
 10
6.0853992271
 20
12.608244261
 30
0.0
 11
42.6956505298
 21
-5.4035345353
 31
0.0
 70
   163
  1
M<>xP1.0<>
 71
     1
 42
13.999996682
  3
SLDDIMSTYLE2
100
AcDbDiametricDimension
 15
0.0
 25
0.0
 35
0.0
 40
0.0
1001
ACAD
1000
DSTYLE
1002
{
1070
    77
1070
     0
1070
   143
1040
0.0393700787
1070
    41
1040
3.0
1070
    44
1040
1.0
1070
    42
1040
1.0
1070
   147
1040
1.524
1070
    73
1070
     1
1070
    74
1070
     1
1070
   140
1040
3.5
1070
   284
1070
    12
1070
    78
1070
    12
1002
}
  0
DIMENSION
  5
126
330
1F
100
AcDbEntity
  8
SLD-0
 62
     7
100
AcDbDimension
  2
*D11
 10
63.1356706667
 20
155.0935436707
 30
0.0
 11
73.1356706667
 21
155.0935436707
 31
0.0
 70
   160
 71
     1
 42
20.0
  3
SLDDIMSTYLE0
100
AcDbAlignedDimension
 13
83.1356706667
 23
139.309816684
 33
0.0
 14
63.1356706667
 24
139.809816684
 34
0.0
100
AcDbRotatedDimension
1001
ACAD
1000
DSTYLE
1002
{
1070
    77
1070
     3
1070
   143
1040
0.0393700787
1070
    41
1040
3.0
1070
    44
1040
1.0
1070
    42
1040
1.0
1070
   147
1040
1.524
1070
    73
1070
     0
1070
    74
1070
     0
1070
   140
1040
3.5
1070
   284
1070
    12
1070
    78
1070
    12
1002
}
  0
DIMENSION
  5
13D
330
1F
100
AcDbEntity
  8
SLD-0
 62
     7
100
AcDbDimension
  2
*D12
 10
75.1356706667
 20
110.4410361063
 30
0.0
 11
86.6356706667
 21
110.4410361063
 31
0.0
 70
   160
 71
     1
 42
23.0
  3
SLDDIMSTYLE0
100
AcDbAlignedDimension
 13
98.1356706667
 23
124.309816684
 33
0.0
 14
75.1356706667
 24
130.309816684
 34
0.0
100
AcDbRotatedDimension
1001
ACAD
1000
DSTYLE
1002
{
1070
    77
1070
     3
1070
   143
1040
0.0393700787
1070
    41
1040
3.0
1070
    44
1040
1.0
1070
    42
1040
1.0
1070
   147
1040
1.524
1070
    73
1070
     0
1070
    74
1070
     0
1070
   140
1040
3.5
1070
   284
1070
    12
1070
    78
1070
    12
1002
}
  0
DIMENSION
  5
154
330
1F
100
AcDbEntity
  8
SLD-0
 62
     7
100
AcDbDimension
  2
*D13
 10
106.7668364312
 20
131.309816684
 30
0.0
 11
106.7668364312
 21
125.905270023
 31
0.0
 70
   160
 71
     1
 42
1.0
  3
SLDDIMSTYLE0
100
AcDbAlignedDimension
 13
98.1356706667
 23
130.309816684
 33
0.0
 14
98.1356706667
 24
131.309816684
 34
0.0
 50
90.0
100
AcDbRotatedDimension
1001
ACAD
1000
DSTYLE
1002
{
1070
    77
1070
     3
1070
   143
1040
0.0393700787
1070
    41
1040
3.0
1070
    44
1040
1.0
1070
    42
1040
1.0
1070
   147
1040
1.524
1070
    73
1070
     0
1070
    74
1070
     0
1070
   140
1040
3.5
1070
   284
1070
    12
1070
    78
1070
    12
1002
}
  0
DIMENSION
  5
16F
330
1F
100
AcDbEntity
  8
SLD-0
100
AcDbDimension
  2
*D14
 10
92.1356706667
 20
220.9850891277
 30
0.0
 11
75.1356706667
 21
220.9850891277
 31
0.0
 70
   160
 71
     1
 42
34.0
  3
SLDDIMSTYLE0
100
AcDbAlignedDimension
 13
58.1356706667
 23
204.7782062739
 33
0.0
 14
92.1356706667
 24
204.7782062739
 34
0.0
100
AcDbRotatedDimension
1001
ACAD
1000
DSTYLE
1002
{
1070
    77
1070
     3
1070
   143
1040
0.0393700787
1070
    41
1040
3.0
1070
    44
1040
1.0
1070
    42
1040
1.0
1070
   147
1040
1.524
1070
    73
1070
     0
1070
    74
1070
     0
1070
   140
1040
3.5
1070
   284
1070
    12
1070
    78
1070
    12
1002
}
  0
DIMENSION
  5
186
330
1F
100
AcDbEntity
  8
SLD-0
 62
     7
100
AcDbDimension
  2
*D15
 10
53.1356706667
 20
229.1108369078
 30
0.0
 11
75.6356706667
 21
229.1108369078
 31
0.0
 70
   160
 71
     1
 42
45.0
  3
SLDDIMSTYLE0
100
AcDbAlignedDimension
 13
98.1356706667
 23
206.2782062739
 33
0.0
 14
53.1356706667
 24
206.2782062739
 34
0.0
100
AcDbRotatedDimension
1001
ACAD
1000
DSTYLE
1002
{
1070
    77
1070
     3
1070
   143
1040
0.0393700787
1070
    41
1040
3.0
1070
    44
1040
1.0
1070
    42
1040
1.0
1070
   147
1040
1.524
1070
    73
1070
     0
1070
    74
1070
     0
1070
   140
1040
3.5
1070
   284
1070
    12
1070
    78
1070
    12
1002
}
  0
DIMENSION
  5
19D
330
1F
100
AcDbEntity
  8
SLD-0
 62
     7
100
AcDbDimension
  2
*D16
 10
98.1356706667
 20
220.9850891277
 30
0.0
 11
95.1356706667
 21
220.9850891277
 31
0.0
 70
   160
 71
     1
 42
6.0
  3
SLDDIMSTYLE0
100
AcDbAlignedDimension
 13
92.1356706667
 23
204.7782062739
 33
0.0
 14
98.1356706667
 24
206.2782062739
 34
0.0
100
AcDbRotatedDimension
1001
ACAD
1000
DSTYLE
1002
{
1070
    77
1070
     3
1070
   143
1040
0.0393700787
1070
    41
1040
3.0
1070
    44
1040
1.0
1070
    42
1040
1.0
1070
   147
1040
1.524
1070
    73
1070
     0
1070
    74
1070
     0
1070
   140
1040
3.5
1070
   284
1070
    12
1070
    78
1070
    12
1002
}
  0
DIMENSION
  5
1B7
330
1F
100
AcDbEntity
  8
SLD-0
 62
     7
100
AcDbDimension
  2
*D17
 10
73.1356706667
 20
182.5856184033
 30
0.0
 11
85.6356706667
 21
182.5856184033
 31
0.0
 70
   160
 71
     1
 42
25.0
  3
SLDDIMSTYLE0
100
AcDbAlignedDimension
 13
98.1356706667
 23
190.2782062739
 33
0.0
 14
73.1356706667
 24
190.2782062739
 34
0.0
100
AcDbRotatedDimension
1001
ACAD
1000
DSTYLE
1002
{
1070
    77
1070
     3
1070
   143
1040
0.0393700787
1070
    41
1040
3.0
1070
    44
1040
1.0
1070
    42
1040
1.0
1070
   147
1040
1.524
1070
    73
1070
     0
1070
    74
1070
     0
1070
   140
1040
3.5
1070
   284
1070
    12
1070
    78
1070
    12
1002
}
  0
DIMENSION
  5
1CE
330
1F
100
AcDbEntity
  8
SLD-0
 62
     7
100
AcDbDimension
  2
*D18
 10
110.8102232996
 20
206.2782062739
 30
0.0
 11
110.8102232996
 21
202.2782062739
 31
0.0
 70
   160
 71
     1
 42
8.0
  3
SLDDIMSTYLE0
100
AcDbAlignedDimension
 13
98.6356706667
 23
198.2782062739
 33
0.0
 14
98.1356706667
 24
206.2782062739
 34
0.0
 50
90.0
100
AcDbRotatedDimension
1001
ACAD
1000
DSTYLE
1002
{
1070
    77
1070
     3
1070
   143
1040
0.0393700787
1070
    41
1040
3.0
1070
    44
1040
1.0
1070
    42
1040
1.0
1070
   147
1040
1.524
1070
    73
1070
     0
1070
    74
1070
     0
1070
   140
1040
3.5
1070
   284
1070
    12
1070
    78
1070
    12
1002
}
  0
DIMENSION
  5
1E8
330
1F
100
AcDbEntity
  8
SLD-0
 62
     7
100
AcDbDimension
  2
*D19
 10
123.0707326571
 20
206.2782062739
 30
0.0
 11
123.0707326571
 21
198.2782062739
 31
0.0
 70
   160
 71
     1
 42
16.0
  3
SLDDIMSTYLE0
100
AcDbAlignedDimension
 13
98.1356706667
 23
190.2782062739
 33
0.0
 14
98.1356706667
 24
206.2782062739
 34
0.0
 50
90.0
100
AcDbRotatedDimension
1001
ACAD
1000
DSTYLE
1002
{
1070
    77
1070
     3
1070
   143
1040
0.0393700787
1070
    41
1040
3.0
1070
    44
1040
1.0
1070
    42
1040
1.0
1070
   147
1040
1.524
1070
    73
1070
     0
1070
    74
1070
     0
1070
   140
1040
3.5
1070
   284
1070
    12
1070
    78
1070
    12
1002
}
  0
DIMENSION
  5
200
330
1F
100
AcDbEntity
  8
SLD-0
 62
     7
100
AcDbDimension
  2
*D20
 10
46.3161049334
 20
206.2782062739
 30
0.0
 11
46.3161049334
 21
202.2782062739
 31
0.0
 70
   160
 71
     1
 42
8.0
  3
SLDDIMSTYLE0
100
AcDbAlignedDimension
 13
53.1356706667
 23
198.2782062739
 33
0.0
 14
53.1356706667
 24
206.2782062739
 34
0.0
 50
90.0
100
AcDbRotatedDimension
1001
ACAD
1000
DSTYLE
1002
{
1070
    77
1070
     3
1070
   143
1040
0.0393700787
1070
    41
1040
3.0
1070
    44
1040
1.0
1070
    42
1040
1.0
1070
   147
1040
1.524
1070
    73
1070
     0
1070
    74
1070
     0
1070
   140
1040
3.5
1070
   284
1070
    12
1070
    78
1070
    12
1002
}
  0
DIMENSION
  5
21A
330
1F
100
AcDbEntity
  8
SLD-0
 62
     7
100
AcDbDimension
  2
*D21
 10
174.6552674976
 20
138.809816684
 30
0.0
 11
174.6552674976
 21
130.809816684
 31
0.0
 70
   160
 71
     1
 42
16.0
  3
SLDDIMSTYLE0
100
AcDbAlignedDimension
 13
162.8953366604
 23
122.809816684
 33
0.0
 14
162.8953366604
 24
138.809816684
 34
0.0
 50
90.0
100
AcDbRotatedDimension
1001
ACAD
1000
DSTYLE
1002
{
1070
    77
1070
     3
1070
   143
1040
0.0393700787
1070
    41
1040
3.0
1070
    44
1040
1.0
1070
    42
1040
1.0
1070
   147
1040
1.524
1070
    73
1070
     0
1070
    74
1070
     0
1070
   140
1040
3.5
1070
   284
1070
    12
1070
    78
1070
    12
1002
}
  0
MTEXT
  5
232
330
1F
100
AcDbEntity
  8
SLD-0
 62
     7
100
AcDbMText
 10
38.562406537
 20
113.9255733864
 30
0.0
 40
3.5
 41
0.0
 71
     1
 72
     1
  1
4-
  7
SLDTEXTSTYLE1
 11
0.687809457015748
 21
0.7258912803166201
 31
0.0
 73
     1
 44
1.0
  0
MTEXT
  5
233
330
1F
100
AcDbEntity
  8
SLD-0
 62
     7
100
AcDbMText
 10
41.3637857564
 20
116.8820560685
 30
0.0
 40
3.5
 41
0.0
 71
     1
 72
     1
  1
C
  7
SLDTEXTSTYLE1
 11
0.687809457015748
 21
0.7258912803166201
 31
0.0
 73
     1
 44
1.0
  0
MTEXT
  5
234
330
1F
100
AcDbEntity
  8
SLD-0
 62
     7
100
AcDbMText
 10
42.7644753662
 20
118.3602974096
 30
0.0
 40
3.5
 41
0.0
 71
     1
 72
     1
  1
1.5
  7
SLDTEXTSTYLE1
 11
0.687809457015748
 21
0.7258912803166201
 31
0.0
 73
     1
 44
1.0
  0
MTEXT
  5
235
330
1F
100
AcDbEntity
  8
SLD-0
 62
     7
100
AcDbMText
 10
100.5094152684
 20
119.6809507738
 30
0.0
 40
3.5
 41
0.0
 71
     1
 72
     1
  1
M4
  7
SLDTEXTSTYLE1
 73
     1
 44
1.0
  0
MTEXT
  5
236
330
1F
100
AcDbEntity
  8
0
  6
Continuous
 62
     7
370
     0
100
AcDbMText
 10
148.795945989
 20
29.8861652342
 30
0.0
 40
4.2333333333
 41
0.0
 71
     1
 72
     1
  1
Ｎ01861-108
  7
SLDTEXTSTYLE0
 73
     1
 44
1.0
  0
MTEXT
  5
237
330
1F
100
AcDbEntity
  8
0
  6
Continuous
 62
     7
370
     0
100
AcDbMText
 10
145.7391275674
 20
43.4099788511
 30
0.0
 40
4.2333333333
 41
0.0
 71
     1
 72
     1
  1
ＳＳＷ　コネクタ
  7
SLDTEXTSTYLE0
 73
     1
 44
1.0
  0
MTEXT
  5
238
330
1F
100
AcDbEntity
  8
0
  6
Continuous
 62
     7
370
     0
100
AcDbMText
 10
155.5190602534
 20
16.2918259049
 30
0.0
 40
4.2333333333
 41
0.0
 71
     1
 72
     1
  1
131097
  7
SLDTEXTSTYLE0
 73
     1
 44
1.0
  0
HATCH
  5
239
330
1F
100
AcDbEntity
  8
0
  6
Continuous
 62
     7
100
AcDbHatch
 10
0.0
 20
0.0
 30
0.0
210
0.0
220
0.0
230
1.0
  2
ANSI31
 70
     0
 71
     0
 91
        1
 92
        0
 93
        3
 72
     1
 10
94.88506092983022
 20
121.0306379020402
 11
94.17469578097675
 21
120.326804572839
 72
     1
 10
94.17469578097675
 20
120.326804572839
 11
92.4183783678
 21
122.809816684
 72
     1
 10
92.4183783678
 20
122.809816684
 11
94.88506092983022
 21
121.0306379020402
 97
        0
 75
     0
 76
     1
 52
0.0
 41
1.0
 77
     0
 78
     1
 53
45.00000209717174
 43
0.0
 44
0.0
 45
-2.245064112442359
 46
2.245063948092215
 79
     0
 98
        1
 10
0.0
 20
0.0
  0
INSERT
  5
23A
330
1F
100
AcDbEntity
  8
0
  6
Continuous
 62
     7
370
     0
100
AcDbBlockReference
  2
_OPEN30
 10
53.8856706667
 20
123.559816684
 30
0.0
 41
3.0
 42
3.0
 43
3.0
 50
46.6349868569
  0
INSERT
  5
23B
330
1F
100
AcDbEntity
  8
0
  6
Continuous
 62
     7
370
     0
100
AcDbBlockReference
  2
SW_CENTERMARK0
 10
0.0
 20
0.0
 30
0.0
  0
INSERT
  5
23C
330
1F
100
AcDbEntity
  8
0
  6
Continuous
 62
     7
370
     0
100
AcDbBlockReference
  2
SW_CENTERMARK1
 10
0.0
 20
0.0
 30
0.0
  0
INSERT
  5
23D
330
1F
100
AcDbEntity
  8
0
  6
Continuous
 62
     7
370
     0
100
AcDbBlockReference
  2
SW_CENTERMARK2
 10
0.0
 20
0.0
 30
0.0
  0
ENDSEC
  0
SECTION
  2
OBJECTS
  0
DICTIONARY
  5
C
330
0
100
AcDbDictionary
281
     1
  3
ACAD_GROUP
350
D
  3
ACAD_LAYOUT
350
1A
  3
ACAD_MLINESTYLE
350
17
  3
ACAD_PLOTSETTINGS
350
19
  3
ACAD_PLOTSTYLENAME
350
E
  0
DICTIONARY
  5
D
102
{ACAD_REACTORS
330
C
102
}
330
C
100
AcDbDictionary
281
     1
  0
DICTIONARY
  5
1A
102
{ACAD_REACTORS
330
C
102
}
330
C
100
AcDbDictionary
281
     1
  3
Layout1
350
1E
  3
Layout2
350
26
  3
Model
350
22
  0
DICTIONARY
  5
17
102
{ACAD_REACTORS
330
C
102
}
330
C
100
AcDbDictionary
281
     1
  3
Standard
350
18
  0
DICTIONARY
  5
19
102
{ACAD_REACTORS
330
C
102
}
330
C
100
AcDbDictionary
281
     1
  0
ACDBDICTIONARYWDFLT
  5
E
102
{ACAD_REACTORS
330
C
102
}
330
C
100
AcDbDictionary
281
     1
  3
Normal
350
F
100
AcDbDictionaryWithDefault
340
F
  0
LAYOUT
  5
1E
102
{ACAD_REACTORS
330
1A
102
}
330
1A
100
AcDbPlotSettings
  1

  2

  4

  6

 40
0.0
 41
0.0
 42
0.0
 43
0.0
 44
0.0
 45
0.0
 46
0.0
 47
0.0
 48
0.0
 49
0.0
140
0.0
141
0.0
142
1.0
143
1.0
 70
   688
 72
     0
 73
     0
 74
     5
  7

 75
    16
147
1.0
148
0.0
149
0.0
100
AcDbLayout
  1
Layout1
 70
     1
 71
     1
 10
0.0
 20
0.0
 11
0.0
 21
0.0
 12
0.0
 22
0.0
 32
0.0
 14
0.0
 24
0.0
 34
0.0
 15
0.0
 25
0.0
 35
0.0
146
0.0
 13
0.0
 23
0.0
 33
0.0
 16
1.0
 26
0.0
 36
0.0
 17
0.0
 27
1.0
 37
0.0
 76
     0
330
1B
  0
LAYOUT
  5
26
102
{ACAD_REACTORS
330
1A
102
}
330
1A
100
AcDbPlotSettings
  1

  2

  4

  6

 40
0.0
 41
0.0
 42
0.0
 43
0.0
 44
0.0
 45
0.0
 46
0.0
 47
0.0
 48
0.0
 49
0.0
140
0.0
141
0.0
142
1.0
143
1.0
 70
   688
 72
     0
 73
     0
 74
     5
  7

 75
    16
147
1.0
148
0.0
149
0.0
100
AcDbLayout
  1
Layout2
 70
     1
 71
     2
 10
0.0
 20
0.0
 11
0.0
 21
0.0
 12
0.0
 22
0.0
 32
0.0
 14
0.0
 24
0.0
 34
0.0
 15
0.0
 25
0.0
 35
0.0
146
0.0
 13
0.0
 23
0.0
 33
0.0
 16
1.0
 26
0.0
 36
0.0
 17
0.0
 27
1.0
 37
0.0
 76
     0
330
23
  0
LAYOUT
  5
22
102
{ACAD_REACTORS
330
1A
102
}
330
1A
100
AcDbPlotSettings
  1

  2

  4

  6

 40
0.0
 41
0.0
 42
0.0
 43
0.0
 44
0.0
 45
0.0
 46
0.0
 47
0.0
 48
0.0
 49
0.0
140
0.0
141
0.0
142
1.0
143
1.0
 70
  1712
 72
     0
 73
     0
 74
     0
  7

 75
     0
147
1.0
148
0.0
149
0.0
100
AcDbLayout
  1
Model
 70
     1
 71
     0
 10
0.0
 20
0.0
 11
0.0
 21
0.0
 12
0.0
 22
0.0
 32
0.0
 14
0.0
 24
0.0
 34
0.0
 15
210.0
 25
297.0
 35
0.0
146
0.0
 13
0.0
 23
0.0
 33
0.0
 16
1.0
 26
0.0
 36
0.0
 17
0.0
 27
1.0
 37
0.0
 76
     0
330
1F
  0
MLINESTYLE
  5
18
102
{ACAD_REACTORS
330
17
102
}
330
17
100
AcDbMlineStyle
  2
Standard
 70
     0
  3

 62
   256
 51
90.0
 52
90.0
 71
     2
 49
0.5
 62
   256
  6
BYLAYER
 49
-0.5
 62
   256
  6
BYLAYER
  0
ACDBPLACEHOLDER
  5
F
102
{ACAD_REACTORS
330
E
102
}
330
E
  0
ENDSEC
  0
EOF
