  0
SECTION
  2
HEADER
  9
$ACADVER
  1
AC1015
  9
$ACADMAINTVER
 70
     6
  9
$DWGCODEPAGE
  3
DOS932
  9
$INSBASE
 10
0.0
 20
0.0
 30
0.0
  9
$EXTMIN
 10
0.0
 20
0.0
 30
0.0
  9
$EXTMAX
 10
210.0
 20
297.0
 30
0.0
  9
$LIMMIN
 10
0.0
 20
0.0
  9
$LIMMAX
 10
0.0
 20
0.0
  9
$ORTHOMODE
 70
     0
  9
$REGENMODE
 70
     1
  9
$FILLMODE
 70
     1
  9
$QTEXTMODE
 70
     0
  9
$MIRRTEXT
 70
     1
  9
$LTSCALE
 40
1.0
  9
$ATTMODE
 70
     1
  9
$TEXTSIZE
 40
3.5
  9
$TRACEWID
 40
1.0
  9
$TEXTSTYLE
  7
Standard
  9
$CLAYER
  8
0
  9
$CELTYPE
  6
ByLayer
  9
$CECOLOR
 62
   256
  9
$CELTSCALE
 40
1.0
  9
$DISPSILH
 70
     0
  9
$DIMSCALE
 40
1.0
  9
$DIMASZ
 40
3.0
  9
$DIMEXO
 40
1.0
  9
$DIMDLI
 40
3.75
  9
$DIMRND
 40
0.0
  9
$DIMDLE
 40
0.0
  9
$DIMEXE
 40
1.0
  9
$DIMTP
 40
0.0
  9
$DIMTM
 40
0.0
  9
$DIMTXT
 40
3.5
  9
$DIMCEN
 40
2.5
  9
$DIMTSZ
 40
0.0
  9
$DIMTOL
 70
     0
  9
$DIMLIM
 70
     0
  9
$DIMTIH
 70
     1
  9
$DIMTOH
 70
     1
  9
$DIMSE1
 70
     0
  9
$DIMSE2
 70
     0
  9
$DIMTAD
 70
     1
  9
$DIMZIN
 70
     1
  9
$DIMBLK
  1

  9
$DIMASO
 70
     1
  9
$DIMSHO
 70
     1
  9
$DIMPOST
  1

  9
$DIMAPOST
  1

  9
$DIMALT
 70
     0
  9
$DIMALTD
 70
     3
  9
$DIMALTF
 40
0.0393700787
  9
$DIMLFAC
 40
1.0
  9
$DIMTOFL
 70
     1
  9
$DIMTVP
 40
0.0
  9
$DIMTIX
 70
     0
  9
$DIMSOXD
 70
     0
  9
$DIMSAH
 70
     0
  9
$DIMBLK1
  1

  9
$DIMBLK2
  1

  9
$DIMSTYLE
  2
ISO-25
  9
$DIMCLRD
 70
     0
  9
$DIMCLRE
 70
     0
  9
$DIMCLRT
 70
     0
  9
$DIMTFAC
 40
1.0
  9
$DIMGAP
 40
1.524
  9
$DIMJUST
 70
     0
  9
$DIMSD1
 70
     0
  9
$DIMSD2
 70
     0
  9
$DIMTOLJ
 70
     0
  9
$DIMTZIN
 70
     1
  9
$DIMALTZ
 70
     0
  9
$DIMALTTZ
 70
     0
  9
$DIMUPT
 70
     0
  9
$DIMDEC
 70
     2
  9
$DIMTDEC
 70
     2
  9
$DIMALTU
 70
     2
  9
$DIMALTTD
 70
     3
  9
$DIMTXSTY
  7
Standard
  9
$DIMAUNIT
 70
     0
  9
$DIMADEC
 70
     0
  9
$DIMALTRND
 40
0.0
  9
$DIMAZIN
 70
     0
  9
$DIMDSEP
 70
    44
  9
$DIMATFIT
 70
     3
  9
$DIMFRAC
 70
     0
  9
$DIMLDRBLK
  1

  9
$DIMLUNIT
 70
     2
  9
$DIMLWD
 70
    -2
  9
$DIMLWE
 70
    -2
  9
$DIMTMOVE
 70
     0
  9
$LUNITS
 70
     2
  9
$LUPREC
 70
     1
  9
$SKETCHINC
 40
1.0
  9
$FILLETRAD
 40
10.0
  9
$AUNITS
 70
     0
  9
$AUPREC
 70
     0
  9
$MENU
  1
.
  9
$ELEVATION
 40
0.0
  9
$PELEVATION
 40
0.0
  9
$THICKNESS
 40
0.0
  9
$LIMCHECK
 70
     0
  9
$CHAMFERA
 40
10.0
  9
$CHAMFERB
 40
10.0
  9
$CHAMFERC
 40
20.0
  9
$CHAMFERD
 40
0.0
  9
$SKPOLY
 70
     0
  9
$TDCREATE
 40
2454322.489412789
  9
$TDUCREATE
 40
2454322.114412789
  9
$TDUPDATE
 40
2454322.489412801
  9
$TDUUPDATE
 40
2454322.114412801
  9
$TDINDWG
 40
0.0000000116
  9
$TDUSRTIMER
 40
0.0000000116
  9
$USRTIMER
 70
     1
  9
$ANGBASE
 50
0.0
  9
$ANGDIR
 70
     0
  9
$PDMODE
 70
     0
  9
$PDSIZE
 40
-1.0
  9
$PLINEWID
 40
0.0
  9
$SPLFRAME
 70
     0
  9
$SPLINETYPE
 70
     6
  9
$SPLINESEGS
 70
     8
  9
$HANDSEED
  5
27A
  9
$SURFTAB1
 70
     6
  9
$SURFTAB2
 70
     6
  9
$SURFTYPE
 70
     6
  9
$SURFU
 70
     6
  9
$SURFV
 70
     6
  9
$UCSBASE
  2

  9
$UCSNAME
  2

  9
$UCSORG
 10
0.0
 20
0.0
 30
0.0
  9
$UCSXDIR
 10
1.0
 20
0.0
 30
0.0
  9
$UCSYDIR
 10
0.0
 20
1.0
 30
0.0
  9
$UCSORTHOREF
  2

  9
$UCSORTHOVIEW
 70
     0
  9
$UCSORGTOP
 10
0.0
 20
0.0
 30
0.0
  9
$UCSORGBOTTOM
 10
0.0
 20
0.0
 30
0.0
  9
$UCSORGLEFT
 10
0.0
 20
0.0
 30
0.0
  9
$UCSORGRIGHT
 10
0.0
 20
0.0
 30
0.0
  9
$UCSORGFRONT
 10
0.0
 20
0.0
 30
0.0
  9
$UCSORGBACK
 10
0.0
 20
0.0
 30
0.0
  9
$PUCSBASE
  2

  9
$PUCSNAME
  2

  9
$PUCSORG
 10
0.0
 20
0.0
 30
0.0
  9
$PUCSXDIR
 10
1.0
 20
0.0
 30
0.0
  9
$PUCSYDIR
 10
0.0
 20
1.0
 30
0.0
  9
$PUCSORTHOREF
  2

  9
$PUCSORTHOVIEW
 70
     0
  9
$PUCSORGTOP
 10
0.0
 20
0.0
 30
0.0
  9
$PUCSORGBOTTOM
 10
0.0
 20
0.0
 30
0.0
  9
$PUCSORGLEFT
 10
0.0
 20
0.0
 30
0.0
  9
$PUCSORGRIGHT
 10
0.0
 20
0.0
 30
0.0
  9
$PUCSORGFRONT
 10
0.0
 20
0.0
 30
0.0
  9
$PUCSORGBACK
 10
0.0
 20
0.0
 30
0.0
  9
$USERI1
 70
     0
  9
$USERI2
 70
     0
  9
$USERI3
 70
     0
  9
$USERI4
 70
     0
  9
$USERI5
 70
     0
  9
$USERR1
 40
0.0
  9
$USERR2
 40
0.0
  9
$USERR3
 40
0.0
  9
$USERR4
 40
0.0
  9
$USERR5
 40
0.0
  9
$WORLDVIEW
 70
     1
  9
$SHADEDGE
 70
     3
  9
$SHADEDIF
 70
    70
  9
$TILEMODE
 70
     1
  9
$MAXACTVP
 70
    64
  9
$PINSBASE
 10
0.0
 20
0.0
 30
0.0
  9
$PLIMCHECK
 70
     0
  9
$PEXTMIN
 10
1.0000000000E+20
 20
1.0000000000E+20
 30
1.0000000000E+20
  9
$PEXTMAX
 10
-1.0000000000E+20
 20
-1.0000000000E+20
 30
-1.0000000000E+20
  9
$PLIMMIN
 10
0.0
 20
0.0
  9
$PLIMMAX
 10
420.0
 20
297.0
  9
$UNITMODE
 70
     0
  9
$VISRETAIN
 70
     1
  9
$PLINEGEN
 70
     0
  9
$PSLTSCALE
 70
     1
  9
$TREEDEPTH
 70
  3020
  9
$CMLSTYLE
  2
Standard
  9
$CMLJUST
 70
     0
  9
$CMLSCALE
 40
20.0
  9
$PROXYGRAPHICS
 70
     1
  9
$MEASUREMENT
 70
     1
  9
$CELWEIGHT
370
    -1
  9
$ENDCAPS
280
     0
  9
$JOINSTYLE
280
     0
  9
$LWDISPLAY
290
     1
  9
$INSUNITS
 70
     4
  9
$HYPERLINKBASE
  1

  9
$STYLESHEET
  1

  9
$XEDIT
290
     1
  9
$CEPSNTYPE
380
     0
  9
$PSTYLEMODE
290
     1
  9
$FINGERPRINTGUID
  2
{A3A15BAB-3EAD-4E9F-874D-36CAF8CE3B07}
  9
$VERSIONGUID
  2
{FAEB1C32-E019-11D5-929B-00C0DF256EC4}
  9
$EXTNAMES
290
     1
  9
$PSVPSCALE
 40
0.0
  9
$OLESTARTUP
290
     0
  0
ENDSEC
  0
SECTION
  2
CLASSES
  0
CLASS
  1
ACDBDICTIONARYWDFLT
  2
AcDbDictionaryWithDefault
  3
ObjectDBX Classes
 90
        0
280
     0
281
     0
  0
CLASS
  1
ACDBPLACEHOLDER
  2
AcDbPlaceHolder
  3
ObjectDBX Classes
 90
        0
280
     0
281
     0
  0
CLASS
  1
LAYOUT
  2
AcDbLayout
  3
ObjectDBX Classes
 90
        0
280
     0
281
     0
  0
ENDSEC
  0
SECTION
  2
TABLES
  0
TABLE
  2
VPORT
  5
8
330
0
100
AcDbSymbolTable
 70
     1
  0
VPORT
  5
29
330
8
100
AcDbSymbolTableRecord
100
AcDbViewportTableRecord
  2
*Active
 70
     0
 10
0.0
 20
0.0
 11
1.0
 21
1.0
 12
105.0
 22
148.5
 13
0.0
 23
0.0
 14
10.0
 24
10.0
 15
10.0
 25
10.0
 16
0.0
 26
0.0
 36
1.0
 17
0.0
 27
0.0
 37
0.0
 40
297.0
 41
1.9729729729
 42
50.0
 43
0.0
 44
0.0
 50
0.0
 51
0.0
 71
     0
 72
  2000
 73
     1
 74
     3
 75
     0
 76
     0
 77
     0
 78
     0
281
     0
 65
     1
110
0.0
120
0.0
130
0.0
111
1.0
121
0.0
131
0.0
112
0.0
122
1.0
132
0.0
 79
     0
146
0.0
  0
ENDTAB
  0
TABLE
  2
LTYPE
  5
5
330
0
100
AcDbSymbolTable
 70
     6
  0
LTYPE
  5
14
330
5
100
AcDbSymbolTableRecord
100
AcDbLinetypeTableRecord
  2
ByBlock
 70
     0
  3

 72
    65
 73
     0
 40
0.0
  0
LTYPE
  5
15
330
5
100
AcDbSymbolTableRecord
100
AcDbLinetypeTableRecord
  2
ByLayer
 70
     0
  3

 72
    65
 73
     0
 40
0.0
  0
LTYPE
  5
16
330
5
100
AcDbSymbolTableRecord
100
AcDbLinetypeTableRecord
  2
Continuous
 70
     0
  3
Solid line
 72
    65
 73
     0
 40
0.0
  0
LTYPE
  5
2A
330
5
100
AcDbSymbolTableRecord
100
AcDbLinetypeTableRecord
  2
HIDDEN
 70
     0
  3
Hidden __ __ __ __ __ __ __ __ __ __ __ __ __ __
 72
    65
 73
     2
 40
1.905
 49
1.27
 74
     0
 49
-0.635
 74
     0
  0
LTYPE
  5
2B
330
5
100
AcDbSymbolTableRecord
100
AcDbLinetypeTableRecord
  2
PHANTOM
 70
     0
  3
Phantom ______  __  __  ______  __  __  ______
 72
    65
 73
     6
 40
12.7
 49
6.35
 74
     0
 49
-1.27
 74
     0
 49
1.27
 74
     0
 49
-1.27
 74
     0
 49
1.27
 74
     0
 49
-1.27
 74
     0
  0
LTYPE
  5
2C
330
5
100
AcDbSymbolTableRecord
100
AcDbLinetypeTableRecord
  2
CENTER
 70
     0
  3
Center ____ _ ____ _ ____ _ ____ _ ____ _ ____
 72
    65
 73
     4
 40
10.16
 49
6.35
 74
     0
 49
-1.27
 74
     0
 49
1.27
 74
     0
 49
-1.27
 74
     0
  0
LTYPE
  5
2D
330
5
100
AcDbSymbolTableRecord
100
AcDbLinetypeTableRecord
  2
CENTERX2
 70
     0
  3
Center (2x) ________  __  ________  __  _____
 72
    65
 73
     4
 40
20.32
 49
12.7
 74
     0
 49
-2.54
 74
     0
 49
2.54
 74
     0
 49
-2.54
 74
     0
  0
LTYPE
  5
2E
330
5
100
AcDbSymbolTableRecord
100
AcDbLinetypeTableRecord
  2
DOT2
 70
     0
  3
Dot (.5x) ........................................
 72
    65
 73
     2
 40
0.635
 49
0.0
 74
     0
 49
-0.635
 74
     0
  0
ENDTAB
  0
TABLE
  2
LAYER
  5
2
330
0
100
AcDbSymbolTable
 70
     4
  0
LAYER
  5
10
330
2
100
AcDbSymbolTableRecord
100
AcDbLayerTableRecord
  2
0
 70
     0
 62
     7
  6
Continuous
370
    -3
390
F
  0
LAYER
  5
2F
330
2
100
AcDbSymbolTableRecord
100
AcDbLayerTableRecord
  2
SLD-0
 70
     0
 62
   179
  6
Continuous
370
     0
390
F
  0
LAYER
  5
30
330
2
100
AcDbSymbolTableRecord
100
AcDbLayerTableRecord
  2
SLD-DEFPOINTS
 70
     0
 62
   179
  6
Continuous
370
     0
390
F
  0
LAYER
  5
C5
330
2
100
AcDbSymbolTableRecord
100
AcDbLayerTableRecord
  2
Defpoints
 70
     0
 62
     7
  6
Continuous
290
     0
370
    -3
390
F
  0
ENDTAB
  0
TABLE
  2
STYLE
  5
3
330
0
100
AcDbSymbolTable
 70
     4
  0
STYLE
  5
11
330
3
100
AcDbSymbolTableRecord
100
AcDbTextStyleTableRecord
  2
Standard
 70
     0
 40
0.0
 41
1.0
 50
0.0
 71
     0
 42
2.5
  3
txt
  4
bigfont
  0
STYLE
  5
34
330
3
100
AcDbSymbolTableRecord
100
AcDbTextStyleTableRecord
  2
SLDTEXTSTYLE0
 70
     0
 40
0.0
 41
0.7
 50
0.0
 71
     0
 42
0.2
  3
TXT
  4
bigfont
  0
STYLE
  5
D4
330
3
100
AcDbSymbolTableRecord
100
AcDbTextStyleTableRecord
  2
SLDTEXTSTYLE1
 70
     0
 40
0.0
 41
0.5526315789
 50
0.0
 71
     0
 42
0.2
  3
TXT
  4
bigfont
  0
STYLE
  5
271
330
3
100
AcDbSymbolTableRecord
100
AcDbTextStyleTableRecord
  2
SLDTEXTSTYLE2
 70
     0
 40
0.0
 41
0.5033634973
 50
0.0
 71
     0
 42
0.2
  3
TXT
  4
bigfont
  0
ENDTAB
  0
TABLE
  2
VIEW
  5
6
330
0
100
AcDbSymbolTable
 70
     0
  0
ENDTAB
  0
TABLE
  2
UCS
  5
7
330
0
100
AcDbSymbolTable
 70
     0
  0
ENDTAB
  0
TABLE
  2
APPID
  5
9
330
0
100
AcDbSymbolTable
 70
     1
  0
APPID
  5
12
330
9
100
AcDbSymbolTableRecord
100
AcDbRegAppTableRecord
  2
ACAD
 70
     0
  0
ENDTAB
  0
TABLE
  2
DIMSTYLE
  5
A
330
0
100
AcDbSymbolTable
 70
     4
100
AcDbDimStyleTable
  0
DIMSTYLE
105
27
330
A
100
AcDbSymbolTableRecord
100
AcDbDimStyleTableRecord
  2
ISO-25
 70
     0
 41
2.5
 42
0.625
 43
3.75
 44
1.25
 73
     0
 74
     0
 77
     1
 78
     8
140
2.5
141
2.5
143
0.0393700787
147
0.625
171
     3
172
     1
271
     2
272
     2
274
     3
278
    44
283
     0
284
     8
340
11
  0
DIMSTYLE
105
D5
102
{ACAD_REACTORS
330
C4
330
E1
102
}
330
A
100
AcDbSymbolTableRecord
100
AcDbDimStyleTableRecord
  2
SLDDIMSTYLE0
 70
     0
 41
3.0
 44
0.0
 73
     0
 74
     0
 77
     3
 78
     4
140
3.5
147
0.875
173
     1
272
     2
284
    12
340
D4
341
D6
343
D6
344
D6
  0
DIMSTYLE
105
104
102
{ACAD_REACTORS
330
F7
330
112
330
129
330
15F
330
177
330
191
330
1A8
330
1C2
330
1DC
330
1F4
330
20E
330
229
330
240
330
259
102
}
330
A
100
AcDbSymbolTableRecord
100
AcDbDimStyleTableRecord
  2
SLDDIMSTYLE1
 70
     0
 41
3.0
 44
0.0
 73
     0
 74
     0
 77
     3
 78
    12
140
3.5
147
0.875
173
     1
271
     0
272
     2
284
    12
340
D4
341
105
343
105
344
105
  0
DIMSTYLE
105
152
102
{ACAD_REACTORS
330
143
102
}
330
A
100
AcDbSymbolTableRecord
100
AcDbDimStyleTableRecord
  2
SLDDIMSTYLE2
 70
     0
 41
3.0
 44
0.0
 73
     0
 74
     0
 77
     3
 78
     8
140
3.5
147
0.875
173
     1
271
     1
272
     2
284
    12
340
D4
341
105
343
105
344
105
  0
ENDTAB
  0
TABLE
  2
BLOCK_RECORD
  5
1
330
0
100
AcDbSymbolTable
 70
    28
  0
BLOCK_RECORD
  5
1F
330
1
100
AcDbSymbolTableRecord
100
AcDbBlockTableRecord
  2
*Model_Space
340
22
  0
BLOCK_RECORD
  5
1B
330
1
100
AcDbSymbolTableRecord
100
AcDbBlockTableRecord
  2
*Paper_Space
340
1E
  0
BLOCK_RECORD
  5
23
330
1
100
AcDbSymbolTableRecord
100
AcDbBlockTableRecord
  2
*Paper_Space0
340
26
  0
BLOCK_RECORD
  5
31
330
1
100
AcDbSymbolTableRecord
100
AcDbBlockTableRecord
  2
注記
340
0
  0
BLOCK_RECORD
  5
37
330
1
100
AcDbSymbolTableRecord
100
AcDbBlockTableRecord
  2
Dim0
340
0
102
{BLKREFS
331
273
102
}
  0
BLOCK_RECORD
  5
3C
330
1
100
AcDbSymbolTableRecord
100
AcDbBlockTableRecord
  2
SW_CENTERMARK0
340
0
102
{BLKREFS
331
274
102
}
  0
BLOCK_RECORD
  5
47
330
1
100
AcDbSymbolTableRecord
100
AcDbBlockTableRecord
  2
SW_CENTERMARK1
340
0
102
{BLKREFS
331
275
102
}
  0
BLOCK_RECORD
  5
52
330
1
100
AcDbSymbolTableRecord
100
AcDbBlockTableRecord
  2
Dim1
340
0
102
{BLKREFS
331
276
102
}
  0
BLOCK_RECORD
  5
57
330
1
100
AcDbSymbolTableRecord
100
AcDbBlockTableRecord
  2
Dim2
340
0
102
{BLKREFS
331
277
102
}
  0
BLOCK_RECORD
  5
5C
330
1
100
AcDbSymbolTableRecord
100
AcDbBlockTableRecord
  2
SW_CENTERMARK2
340
0
102
{BLKREFS
331
278
102
}
  0
BLOCK_RECORD
  5
67
330
1
100
AcDbSymbolTableRecord
100
AcDbBlockTableRecord
  2
SW_CENTERMARK3
340
0
102
{BLKREFS
331
279
102
}
  0
BLOCK_RECORD
  5
C6
330
1
100
AcDbSymbolTableRecord
100
AcDbBlockTableRecord
  2
*D9
340
0
  0
BLOCK_RECORD
  5
D6
330
1
100
AcDbSymbolTableRecord
100
AcDbBlockTableRecord
  2
_Open30
340
0
102
{BLKREFS
331
CC
331
CB
331
DC
331
DD
331
E8
331
E7
331
F1
331
F2
102
}
  0
BLOCK_RECORD
  5
E2
330
1
100
AcDbSymbolTableRecord
100
AcDbBlockTableRecord
  2
*D11
340
0
  0
BLOCK_RECORD
  5
F8
330
1
100
AcDbSymbolTableRecord
100
AcDbBlockTableRecord
  2
*D12
340
0
  0
BLOCK_RECORD
  5
105
330
1
100
AcDbSymbolTableRecord
100
AcDbBlockTableRecord
  2
_None
340
0
102
{BLKREFS
331
FD
331
FC
331
118
331
117
331
12F
331
12E
331
14A
331
149
331
165
331
164
331
17D
331
17C
331
197
331
196
331
1AE
331
1AD
331
1C8
331
1C7
331
1E2
331
1E1
331
1FA
331
1F9
331
215
331
214
331
22F
331
22E
331
246
331
245
331
25F
331
25E
102
}
  0
BLOCK_RECORD
  5
113
330
1
100
AcDbSymbolTableRecord
100
AcDbBlockTableRecord
  2
*D14
340
0
  0
BLOCK_RECORD
  5
12A
330
1
100
AcDbSymbolTableRecord
100
AcDbBlockTableRecord
  2
*D15
340
0
  0
BLOCK_RECORD
  5
144
330
1
100
AcDbSymbolTableRecord
100
AcDbBlockTableRecord
  2
*D16
340
0
  0
BLOCK_RECORD
  5
160
330
1
100
AcDbSymbolTableRecord
100
AcDbBlockTableRecord
  2
*D17
340
0
  0
BLOCK_RECORD
  5
178
330
1
100
AcDbSymbolTableRecord
100
AcDbBlockTableRecord
  2
*D18
340
0
  0
BLOCK_RECORD
  5
192
330
1
100
AcDbSymbolTableRecord
100
AcDbBlockTableRecord
  2
*D19
340
0
  0
BLOCK_RECORD
  5
1A9
330
1
100
AcDbSymbolTableRecord
100
AcDbBlockTableRecord
  2
*D20
340
0
  0
BLOCK_RECORD
  5
1C3
330
1
100
AcDbSymbolTableRecord
100
AcDbBlockTableRecord
  2
*D21
340
0
  0
BLOCK_RECORD
  5
1DD
330
1
100
AcDbSymbolTableRecord
100
AcDbBlockTableRecord
  2
*D22
340
0
  0
BLOCK_RECORD
  5
1F5
330
1
100
AcDbSymbolTableRecord
100
AcDbBlockTableRecord
  2
*D23
340
0
  0
BLOCK_RECORD
  5
20F
330
1
100
AcDbSymbolTableRecord
100
AcDbBlockTableRecord
  2
*D24
340
0
  0
BLOCK_RECORD
  5
22A
330
1
100
AcDbSymbolTableRecord
100
AcDbBlockTableRecord
  2
*D25
340
0
  0
BLOCK_RECORD
  5
241
330
1
100
AcDbSymbolTableRecord
100
AcDbBlockTableRecord
  2
*D26
340
0
  0
BLOCK_RECORD
  5
25A
330
1
100
AcDbSymbolTableRecord
100
AcDbBlockTableRecord
  2
*D27
340
0
  0
ENDTAB
  0
ENDSEC
  0
SECTION
  2
BLOCKS
  0
BLOCK
  5
20
330
1F
100
AcDbEntity
  8
0
100
AcDbBlockBegin
  2
*Model_Space
 70
     0
 71
     0
 10
0.0
 20
0.0
 30
0.0
  3
*Model_Space
  1

  0
ENDBLK
  5
21
330
1F
100
AcDbEntity
  8
0
100
AcDbBlockEnd
  0
BLOCK
  5
1C
330
1B
100
AcDbEntity
 67
     1
  8
0
100
AcDbBlockBegin
  2
*Paper_Space
 70
     0
 71
     0
 10
0.0
 20
0.0
 30
0.0
  3
*Paper_Space
  1

  0
ENDBLK
  5
1D
330
1B
100
AcDbEntity
 67
     1
  8
0
100
AcDbBlockEnd
  0
BLOCK
  5
24
330
23
100
AcDbEntity
  8
0
100
AcDbBlockBegin
  2
*Paper_Space0
 70
     0
 71
     0
 10
0.0
 20
0.0
 30
0.0
  3
*Paper_Space0
  1

  0
ENDBLK
  5
25
330
23
100
AcDbEntity
  8
0
100
AcDbBlockEnd
  0
BLOCK
  5
32
330
31
100
AcDbEntity
  8
0
100
AcDbBlockBegin
  2
注記
 70
     0
 71
     0
 10
0.0
 20
0.0
 30
0.0
  3
注記
  1

  0
MTEXT
  5
35
330
31
100
AcDbEntity
  8
0
  6
Continuous
 62
     7
370
     0
100
AcDbMText
 10
0.2636785918
 20
9.0739778448
 30
0.0
 40
3.5
 41
0.0
 71
     1
 72
     1
  1
１．特記ナキ角部ハ、バリ　カエリノ無キコト。
  7
SLDTEXTSTYLE0
 73
     1
 44
1.0
  0
MTEXT
  5
36
330
31
100
AcDbEntity
  8
0
  6
Continuous
 62
     7
370
     0
100
AcDbMText
 10
0.2636785918
 20
3.5759549983
 30
0.0
 40
3.5
 41
0.0
 71
     1
 72
     1
  1
２．特記ナキ隅部ハ、Ｒ０．４ＭＡＸトスル。
  7
SLDTEXTSTYLE0
 73
     1
 44
1.0
  0
ENDBLK
  5
33
330
31
100
AcDbEntity
  8
0
100
AcDbBlockEnd
  0
BLOCK
  5
38
330
37
100
AcDbEntity
  8
0
100
AcDbBlockBegin
  2
Dim0
 70
     0
 71
     0
 10
0.0
 20
0.0
 30
0.0
  3
Dim0
  1

  0
POINT
  5
3A
330
37
100
AcDbEntity
  8
SLD-DEFPOINTS
100
AcDbPoint
 10
80.298181615
 20
134.7466287005
 30
0.0
  0
POINT
  5
3B
330
37
100
AcDbEntity
  8
SLD-DEFPOINTS
100
AcDbPoint
 10
80.298181615
 20
134.7466287005
 30
0.0
  0
ENDBLK
  5
39
330
37
100
AcDbEntity
  8
0
100
AcDbBlockEnd
  0
BLOCK
  5
3D
330
3C
100
AcDbEntity
  8
0
100
AcDbBlockBegin
  2
SW_CENTERMARK0
 70
     0
 71
     0
 10
0.0
 20
0.0
 30
0.0
  3
SW_CENTERMARK0
  1

  0
LINE
  5
3F
330
3C
100
AcDbEntity
  8
SLD-0
  6
Continuous
 62
   179
100
AcDbLine
 10
86.298181615
 20
140.7466287005
 30
0.0
 11
86.298181615
 21
143.2466287005
 31
0.0
  0
LINE
  5
40
330
3C
100
AcDbEntity
  8
SLD-0
  6
Continuous
 62
   179
100
AcDbLine
 10
86.298181615
 20
140.7466287005
 30
0.0
 11
83.798181615
 21
140.7466287005
 31
0.0
  0
LINE
  5
41
330
3C
100
AcDbEntity
  8
SLD-0
  6
Continuous
 62
   179
100
AcDbLine
 10
86.298181615
 20
140.7466287005
 30
0.0
 11
86.298181615
 21
138.2466287005
 31
0.0
  0
LINE
  5
42
330
3C
100
AcDbEntity
  8
SLD-0
  6
Continuous
 62
   179
100
AcDbLine
 10
86.298181615
 20
140.7466287005
 30
0.0
 11
88.798181615
 21
140.7466287005
 31
0.0
  0
LINE
  5
43
330
3C
100
AcDbEntity
  8
SLD-0
  6
Continuous
 62
   179
100
AcDbLine
 10
86.298181615
 20
145.7466287005
 30
0.0
 11
86.298181615
 21
147.2466287005
 31
0.0
  0
LINE
  5
44
330
3C
100
AcDbEntity
  8
SLD-0
  6
Continuous
 62
   179
100
AcDbLine
 10
81.298181615
 20
140.7466287005
 30
0.0
 11
79.798181615
 21
140.7466287005
 31
0.0
  0
LINE
  5
45
330
3C
100
AcDbEntity
  8
SLD-0
  6
Continuous
 62
   179
100
AcDbLine
 10
86.298181615
 20
135.7466287005
 30
0.0
 11
86.298181615
 21
134.2466287005
 31
0.0
  0
LINE
  5
46
330
3C
100
AcDbEntity
  8
SLD-0
  6
Continuous
 62
   179
100
AcDbLine
 10
91.298181615
 20
140.7466287005
 30
0.0
 11
92.798181615
 21
140.7466287005
 31
0.0
  0
ENDBLK
  5
3E
330
3C
100
AcDbEntity
  8
0
100
AcDbBlockEnd
  0
BLOCK
  5
48
330
47
100
AcDbEntity
  8
0
100
AcDbBlockBegin
  2
SW_CENTERMARK1
 70
     0
 71
     0
 10
0.0
 20
0.0
 30
0.0
  3
SW_CENTERMARK1
  1

  0
LINE
  5
4A
330
47
100
AcDbEntity
  8
SLD-0
  6
Continuous
 62
   179
100
AcDbLine
 10
109.298181615
 20
140.7466287005
 30
0.0
 11
109.298181615
 21
143.2466287005
 31
0.0
  0
LINE
  5
4B
330
47
100
AcDbEntity
  8
SLD-0
  6
Continuous
 62
   179
100
AcDbLine
 10
109.298181615
 20
140.7466287005
 30
0.0
 11
106.798181615
 21
140.7466287005
 31
0.0
  0
LINE
  5
4C
330
47
100
AcDbEntity
  8
SLD-0
  6
Continuous
 62
   179
100
AcDbLine
 10
109.298181615
 20
140.7466287005
 30
0.0
 11
109.298181615
 21
138.2466287005
 31
0.0
  0
LINE
  5
4D
330
47
100
AcDbEntity
  8
SLD-0
  6
Continuous
 62
   179
100
AcDbLine
 10
109.298181615
 20
140.7466287005
 30
0.0
 11
111.798181615
 21
140.7466287005
 31
0.0
  0
LINE
  5
4E
330
47
100
AcDbEntity
  8
SLD-0
  6
Continuous
 62
   179
100
AcDbLine
 10
109.298181615
 20
145.7466287005
 30
0.0
 11
109.298181615
 21
147.2466287005
 31
0.0
  0
LINE
  5
4F
330
47
100
AcDbEntity
  8
SLD-0
  6
Continuous
 62
   179
100
AcDbLine
 10
104.298181615
 20
140.7466287005
 30
0.0
 11
102.798181615
 21
140.7466287005
 31
0.0
  0
LINE
  5
50
330
47
100
AcDbEntity
  8
SLD-0
  6
Continuous
 62
   179
100
AcDbLine
 10
109.298181615
 20
135.7466287005
 30
0.0
 11
109.298181615
 21
134.2466287005
 31
0.0
  0
LINE
  5
51
330
47
100
AcDbEntity
  8
SLD-0
  6
Continuous
 62
   179
100
AcDbLine
 10
114.298181615
 20
140.7466287005
 30
0.0
 11
115.798181615
 21
140.7466287005
 31
0.0
  0
ENDBLK
  5
49
330
47
100
AcDbEntity
  8
0
100
AcDbBlockEnd
  0
BLOCK
  5
53
330
52
100
AcDbEntity
  8
0
100
AcDbBlockBegin
  2
Dim1
 70
     0
 71
     0
 10
0.0
 20
0.0
 30
0.0
  3
Dim1
  1

  0
POINT
  5
55
330
52
100
AcDbEntity
  8
SLD-DEFPOINTS
100
AcDbPoint
 10
123.298181615
 20
213.1931972057
 30
0.0
  0
POINT
  5
56
330
52
100
AcDbEntity
  8
SLD-DEFPOINTS
100
AcDbPoint
 10
123.298181615
 20
213.1931972057
 30
0.0
  0
ENDBLK
  5
54
330
52
100
AcDbEntity
  8
0
100
AcDbBlockEnd
  0
BLOCK
  5
58
330
57
100
AcDbEntity
  8
0
100
AcDbBlockBegin
  2
Dim2
 70
     0
 71
     0
 10
0.0
 20
0.0
 30
0.0
  3
Dim2
  1

  0
POINT
  5
5A
330
57
100
AcDbEntity
  8
SLD-DEFPOINTS
100
AcDbPoint
 10
107.298181615
 20
197.1931972057
 30
0.0
  0
POINT
  5
5B
330
57
100
AcDbEntity
  8
SLD-DEFPOINTS
100
AcDbPoint
 10
107.298181615
 20
197.1931972057
 30
0.0
  0
ENDBLK
  5
59
330
57
100
AcDbEntity
  8
0
100
AcDbBlockEnd
  0
BLOCK
  5
5D
330
5C
100
AcDbEntity
  8
0
100
AcDbBlockBegin
  2
SW_CENTERMARK2
 70
     0
 71
     0
 10
0.0
 20
0.0
 30
0.0
  3
SW_CENTERMARK2
  1

  0
LINE
  5
5F
330
5C
100
AcDbEntity
  8
SLD-0
  6
Continuous
 62
   179
100
AcDbLine
 10
118.298181615
 20
205.1931972057
 30
0.0
 11
118.298181615
 21
207.6931972057
 31
0.0
  0
LINE
  5
60
330
5C
100
AcDbEntity
  8
SLD-0
  6
Continuous
 62
   179
100
AcDbLine
 10
118.298181615
 20
205.1931972057
 30
0.0
 11
115.798181615
 21
205.1931972057
 31
0.0
  0
LINE
  5
61
330
5C
100
AcDbEntity
  8
SLD-0
  6
Continuous
 62
   179
100
AcDbLine
 10
118.298181615
 20
205.1931972057
 30
0.0
 11
118.298181615
 21
202.6931972057
 31
0.0
  0
LINE
  5
62
330
5C
100
AcDbEntity
  8
SLD-0
  6
Continuous
 62
   179
100
AcDbLine
 10
118.298181615
 20
205.1931972057
 30
0.0
 11
120.798181615
 21
205.1931972057
 31
0.0
  0
LINE
  5
63
330
5C
100
AcDbEntity
  8
SLD-0
  6
Continuous
 62
   179
100
AcDbLine
 10
118.298181615
 20
210.1931972057
 30
0.0
 11
118.298181615
 21
211.6931972057
 31
0.0
  0
LINE
  5
64
330
5C
100
AcDbEntity
  8
SLD-0
  6
Continuous
 62
   179
100
AcDbLine
 10
113.298181615
 20
205.1931972057
 30
0.0
 11
111.798181615
 21
205.1931972057
 31
0.0
  0
LINE
  5
65
330
5C
100
AcDbEntity
  8
SLD-0
  6
Continuous
 62
   179
100
AcDbLine
 10
118.298181615
 20
200.1931972057
 30
0.0
 11
118.298181615
 21
198.6931972057
 31
0.0
  0
LINE
  5
66
330
5C
100
AcDbEntity
  8
SLD-0
  6
Continuous
 62
   179
100
AcDbLine
 10
123.298181615
 20
205.1931972057
 30
0.0
 11
124.798181615
 21
205.1931972057
 31
0.0
  0
ENDBLK
  5
5E
330
5C
100
AcDbEntity
  8
0
100
AcDbBlockEnd
  0
BLOCK
  5
68
330
67
100
AcDbEntity
  8
0
100
AcDbBlockBegin
  2
SW_CENTERMARK3
 70
     0
 71
     0
 10
0.0
 20
0.0
 30
0.0
  3
SW_CENTERMARK3
  1

  0
LINE
  5
6A
330
67
100
AcDbEntity
  8
SLD-0
  6
Continuous
 62
   179
100
AcDbLine
 10
96.298181615
 20
205.1931972057
 30
0.0
 11
96.298181615
 21
207.6931972057
 31
0.0
  0
LINE
  5
6B
330
67
100
AcDbEntity
  8
SLD-0
  6
Continuous
 62
   179
100
AcDbLine
 10
96.298181615
 20
205.1931972057
 30
0.0
 11
93.798181615
 21
205.1931972057
 31
0.0
  0
LINE
  5
6C
330
67
100
AcDbEntity
  8
SLD-0
  6
Continuous
 62
   179
100
AcDbLine
 10
96.298181615
 20
205.1931972057
 30
0.0
 11
96.298181615
 21
202.6931972057
 31
0.0
  0
LINE
  5
6D
330
67
100
AcDbEntity
  8
SLD-0
  6
Continuous
 62
   179
100
AcDbLine
 10
96.298181615
 20
205.1931972057
 30
0.0
 11
98.798181615
 21
205.1931972057
 31
0.0
  0
LINE
  5
6E
330
67
100
AcDbEntity
  8
SLD-0
  6
Continuous
 62
   179
100
AcDbLine
 10
96.298181615
 20
210.1931972057
 30
0.0
 11
96.298181615
 21
213.6931972057
 31
0.0
  0
LINE
  5
6F
330
67
100
AcDbEntity
  8
SLD-0
  6
Continuous
 62
   179
100
AcDbLine
 10
91.298181615
 20
205.1931972057
 30
0.0
 11
87.798181615
 21
205.1931972057
 31
0.0
  0
LINE
  5
70
330
67
100
AcDbEntity
  8
SLD-0
  6
Continuous
 62
   179
100
AcDbLine
 10
96.298181615
 20
200.1931972057
 30
0.0
 11
96.298181615
 21
196.6931972057
 31
0.0
  0
LINE
  5
71
330
67
100
AcDbEntity
  8
SLD-0
  6
Continuous
 62
   179
100
AcDbLine
 10
101.298181615
 20
205.1931972057
 30
0.0
 11
104.798181615
 21
205.1931972057
 31
0.0
  0
ENDBLK
  5
69
330
67
100
AcDbEntity
  8
0
100
AcDbBlockEnd
  0
BLOCK
  5
D2
330
C6
100
AcDbEntity
  8
0
100
AcDbBlockBegin
  2
*D9
 70
     1
 71
     0
 10
0.0
 20
0.0
 30
0.0
  3
*D9
  1

  0
INSERT
  5
DC
330
C6
100
AcDbEntity
  8
SLD-0
 62
     7
100
AcDbBlockReference
  2
_Open30
 10
127.298181615
 20
140.7466287005
 30
0.1
 41
3.0
 42
3.0
 50
360.0
  0
INSERT
  5
DD
330
C6
100
AcDbEntity
  8
SLD-0
 62
     7
100
AcDbBlockReference
  2
_Open30
 10
96.298181615
 20
140.7466287005
 30
0.1
 41
3.0
 42
3.0
 50
180.0
  0
LINE
  5
DE
330
C6
100
AcDbEntity
  8
SLD-0
 62
     7
100
AcDbLine
 10
127.298181615
 20
140.7466287005
 30
0.0
 11
156.0275819481
 21
140.7466287005
 31
0.0
  0
LINE
  5
DF
330
C6
100
AcDbEntity
  8
SLD-0
 62
     7
100
AcDbLine
 10
127.298181615
 20
140.7466287005
 30
0.0
 11
96.298181615
 21
140.7466287005
 31
0.0
  0
MTEXT
  5
E0
330
C6
100
AcDbEntity
  8
SLD-0
 62
     7
100
AcDbMText
 10
139.8581513781
 20
145.439116847
 30
0.0
 40
3.5
 41
0.0
 71
     1
 72
     1
  1
31.0000
  7
SLDTEXTSTYLE0
 73
     1
 44
1.0
  0
ENDBLK
  5
D3
330
C6
100
AcDbEntity
  8
0
100
AcDbBlockEnd
  0
BLOCK
  5
D7
330
D6
100
AcDbEntity
  8
0
100
AcDbBlockBegin
  2
_Open30
 70
     0
 71
     0
 10
0.0
 20
0.0
 30
0.0
  3
_Open30
  1

  0
LINE
  5
D9
330
D6
100
AcDbEntity
  8
0
  6
ByBlock
 62
     0
370
    -2
100
AcDbLine
 10
-1.0
 20
0.267949
 30
0.0
 11
0.0
 21
0.0
 31
0.0
  0
LINE
  5
DA
330
D6
100
AcDbEntity
  8
0
  6
ByBlock
 62
     0
370
    -2
100
AcDbLine
 10
0.0
 20
0.0
 30
0.0
 11
-1.0
 21
-0.267949
 31
0.0
  0
LINE
  5
DB
330
D6
100
AcDbEntity
  8
0
  6
ByBlock
 62
     0
370
    -2
100
AcDbLine
 10
0.0
 20
0.0
 30
0.0
 11
-1.0
 21
0.0
 31
0.0
  0
ENDBLK
  5
D8
330
D6
100
AcDbEntity
  8
0
100
AcDbBlockEnd
  0
BLOCK
  5
EF
330
E2
100
AcDbEntity
  8
0
100
AcDbBlockBegin
  2
*D11
 70
     1
 71
     0
 10
0.0
 20
0.0
 30
0.0
  3
*D11
  1

  0
INSERT
  5
F1
330
E2
100
AcDbEntity
  8
SLD-0
 62
     7
100
AcDbBlockReference
  2
_Open30
 10
126.798181615
 20
134.7466287005
 30
0.1
 41
3.0
 42
3.0
 50
180.0
  0
INSERT
  5
F2
330
E2
100
AcDbEntity
  8
SLD-0
 62
     7
100
AcDbBlockReference
  2
_Open30
 10
122.298181615
 20
134.7466287005
 30
0.1
 41
3.0
 42
3.0
 50
360.0
  0
LINE
  5
F3
330
E2
100
AcDbEntity
  8
SLD-0
 62
     7
100
AcDbLine
 10
126.798181615
 20
134.7466287005
 30
0.0
 11
161.1910988791
 21
134.7466287005
 31
0.0
  0
LINE
  5
F4
330
E2
100
AcDbEntity
  8
SLD-0
 62
     7
100
AcDbLine
 10
126.798181615
 20
134.7466287005
 30
0.0
 11
122.298181615
 21
134.7466287005
 31
0.0
  0
LINE
  5
F5
330
E2
100
AcDbEntity
  8
SLD-0
 62
     7
100
AcDbLine
 10
122.298181615
 20
134.7466287005
 30
0.0
 11
117.298181615
 21
134.7466287005
 31
0.0
  0
MTEXT
  5
F6
330
E2
100
AcDbEntity
  8
SLD-0
 62
     7
100
AcDbMText
 10
146.3935313143
 20
139.439116847
 30
0.0
 40
3.5
 41
0.0
 71
     1
 72
     1
  1
4.5000
  7
SLDTEXTSTYLE0
 73
     1
 44
1.0
  0
ENDBLK
  5
F0
330
E2
100
AcDbEntity
  8
0
100
AcDbBlockEnd
  0
BLOCK
  5
102
330
F8
100
AcDbEntity
  8
0
100
AcDbBlockBegin
  2
*D12
 70
     1
 71
     0
 10
0.0
 20
0.0
 30
0.0
  3
*D12
  1

  0
LINE
  5
108
330
F8
100
AcDbEntity
  8
SLD-0
100
AcDbLine
 10
86.298181615
 20
148.2466287005
 30
0.0
 11
86.298181615
 21
160.1163616152
 31
0.0
  0
LINE
  5
109
330
F8
100
AcDbEntity
  8
SLD-0
100
AcDbLine
 10
123.298181615
 20
147.2466287005
 30
0.0
 11
123.298181615
 21
160.1163616152
 31
0.0
  0
LINE
  5
10A
330
F8
100
AcDbEntity
  8
SLD-0
100
AcDbLine
 10
86.298181615
 20
159.1163616152
 30
0.0
 11
123.298181615
 21
159.1163616152
 31
0.0
  0
LINE
  5
10B
330
F8
100
AcDbEntity
  8
SLD-0
100
AcDbLine
 10
89.298181615
 20
158.3125146152
 30
0.0
 11
86.298181615
 21
159.1163616152
 31
0.0
  0
LINE
  5
10C
330
F8
100
AcDbEntity
  8
SLD-0
100
AcDbLine
 10
86.298181615
 20
159.1163616152
 30
0.0
 11
89.298181615
 21
159.9202086152
 31
0.0
  0
LINE
  5
10D
330
F8
100
AcDbEntity
  8
SLD-0
100
AcDbLine
 10
86.298181615
 20
159.1163616152
 30
0.0
 11
89.298181615
 21
159.1163616152
 31
0.0
  0
LINE
  5
10E
330
F8
100
AcDbEntity
  8
SLD-0
100
AcDbLine
 10
120.298181615
 20
159.9202086152
 30
0.0
 11
123.298181615
 21
159.1163616152
 31
0.0
  0
LINE
  5
10F
330
F8
100
AcDbEntity
  8
SLD-0
100
AcDbLine
 10
123.298181615
 20
159.1163616152
 30
0.0
 11
120.298181615
 21
158.3125146152
 31
0.0
  0
LINE
  5
110
330
F8
100
AcDbEntity
  8
SLD-0
100
AcDbLine
 10
123.298181615
 20
159.1163616152
 30
0.0
 11
120.298181615
 21
159.1163616152
 31
0.0
  0
MTEXT
  5
111
330
F8
100
AcDbEntity
  8
SLD-0
100
AcDbMText
 10
102.7621430104
 20
163.6430553111
 30
0.1
 40
3.5
 41
0.0
 71
     1
 72
     1
  1
37
  7
SLDTEXTSTYLE0
 73
     1
 44
1.0
  0
ENDBLK
  5
103
330
F8
100
AcDbEntity
  8
0
100
AcDbBlockEnd
  0
BLOCK
  5
106
330
105
100
AcDbEntity
  8
0
100
AcDbBlockBegin
  2
_None
 70
     0
 71
     0
 10
0.0
 20
0.0
 30
0.0
  3
_None
  1

  0
ENDBLK
  5
107
330
105
100
AcDbEntity
  8
0
100
AcDbBlockEnd
  0
BLOCK
  5
11D
330
113
100
AcDbEntity
  8
0
100
AcDbBlockBegin
  2
*D14
 70
     1
 71
     0
 10
0.0
 20
0.0
 30
0.0
  3
*D14
  1

  0
LINE
  5
11F
330
113
100
AcDbEntity
  8
SLD-0
100
AcDbLine
 10
123.298181615
 20
134.2466287005
 30
0.0
 11
123.298181615
 21
114.6636738482
 31
0.0
  0
LINE
  5
120
330
113
100
AcDbEntity
  8
SLD-0
100
AcDbLine
 10
109.298181615
 20
133.2466287005
 30
0.0
 11
109.298181615
 21
114.6636738482
 31
0.0
  0
LINE
  5
121
330
113
100
AcDbEntity
  8
SLD-0
100
AcDbLine
 10
123.298181615
 20
115.6636738482
 30
0.0
 11
109.298181615
 21
115.6636738482
 31
0.0
  0
LINE
  5
122
330
113
100
AcDbEntity
  8
SLD-0
100
AcDbLine
 10
120.298181615
 20
116.4675208482
 30
0.0
 11
123.298181615
 21
115.6636738482
 31
0.0
  0
LINE
  5
123
330
113
100
AcDbEntity
  8
SLD-0
100
AcDbLine
 10
123.298181615
 20
115.6636738482
 30
0.0
 11
120.298181615
 21
114.8598268482
 31
0.0
  0
LINE
  5
124
330
113
100
AcDbEntity
  8
SLD-0
100
AcDbLine
 10
123.298181615
 20
115.6636738482
 30
0.0
 11
120.298181615
 21
115.6636738482
 31
0.0
  0
LINE
  5
125
330
113
100
AcDbEntity
  8
SLD-0
100
AcDbLine
 10
112.298181615
 20
114.8598268482
 30
0.0
 11
109.298181615
 21
115.6636738482
 31
0.0
  0
LINE
  5
126
330
113
100
AcDbEntity
  8
SLD-0
100
AcDbLine
 10
109.298181615
 20
115.6636738482
 30
0.0
 11
112.298181615
 21
116.4675208482
 31
0.0
  0
LINE
  5
127
330
113
100
AcDbEntity
  8
SLD-0
100
AcDbLine
 10
109.298181615
 20
115.6636738482
 30
0.0
 11
112.298181615
 21
115.6636738482
 31
0.0
  0
MTEXT
  5
128
330
113
100
AcDbEntity
  8
SLD-0
100
AcDbMText
 10
114.2621430104
 20
120.1903675442
 30
0.1
 40
3.5
 41
0.0
 71
     1
 72
     1
  1
14
  7
SLDTEXTSTYLE0
 73
     1
 44
1.0
  0
ENDBLK
  5
11E
330
113
100
AcDbEntity
  8
0
100
AcDbBlockEnd
  0
BLOCK
  5
135
330
12A
100
AcDbEntity
  8
0
100
AcDbBlockBegin
  2
*D15
 70
     1
 71
     0
 10
0.0
 20
0.0
 30
0.0
  3
*D15
  1

  0
LINE
  5
137
330
12A
100
AcDbEntity
  8
SLD-0
100
AcDbLine
 10
123.798181615
 20
134.7466287005
 30
0.0
 11
145.0112882409
 21
134.7466287005
 31
0.0
  0
LINE
  5
138
330
12A
100
AcDbEntity
  8
SLD-0
100
AcDbLine
 10
126.298181615
 20
140.7466287005
 30
0.0
 11
145.0112882409
 21
140.7466287005
 31
0.0
  0
LINE
  5
139
330
12A
100
AcDbEntity
  8
SLD-0
100
AcDbLine
 10
144.0112882409
 20
134.7466287005
 30
0.0
 11
144.0112882409
 21
129.7466287005
 31
0.0
  0
LINE
  5
13A
330
12A
100
AcDbEntity
  8
SLD-0
100
AcDbLine
 10
144.0112882409
 20
134.7466287005
 30
0.0
 11
144.0112882409
 21
140.7466287005
 31
0.0
  0
LINE
  5
13B
330
12A
100
AcDbEntity
  8
SLD-0
100
AcDbLine
 10
144.0112882409
 20
140.7466287005
 30
0.0
 11
144.0112882409
 21
145.7466287005
 31
0.0
  0
LINE
  5
13C
330
12A
100
AcDbEntity
  8
SLD-0
100
AcDbLine
 10
143.2074412409
 20
131.7466287005
 30
0.0
 11
144.0112882409
 21
134.7466287005
 31
0.0
  0
LINE
  5
13D
330
12A
100
AcDbEntity
  8
SLD-0
100
AcDbLine
 10
144.0112882409
 20
134.7466287005
 30
0.0
 11
144.8151352409
 21
131.7466287005
 31
0.0
  0
LINE
  5
13E
330
12A
100
AcDbEntity
  8
SLD-0
100
AcDbLine
 10
144.0112882409
 20
134.7466287005
 30
0.0
 11
144.0112882409
 21
131.7466287005
 31
0.0
  0
LINE
  5
13F
330
12A
100
AcDbEntity
  8
SLD-0
100
AcDbLine
 10
144.8151352409
 20
143.7466287005
 30
0.0
 11
144.0112882409
 21
140.7466287005
 31
0.0
  0
LINE
  5
140
330
12A
100
AcDbEntity
  8
SLD-0
100
AcDbLine
 10
144.0112882409
 20
140.7466287005
 30
0.0
 11
143.2074412409
 21
143.7466287005
 31
0.0
  0
LINE
  5
141
330
12A
100
AcDbEntity
  8
SLD-0
100
AcDbLine
 10
144.0112882409
 20
140.7466287005
 30
0.0
 11
144.0112882409
 21
143.7466287005
 31
0.0
  0
MTEXT
  5
142
330
12A
100
AcDbEntity
  8
SLD-0
100
AcDbMText
 10
139.484594545
 20
136.7286093982
 30
0.1
 40
3.5
 41
0.0
 71
     1
 72
     1
  1
6
  7
SLDTEXTSTYLE0
 11
6.123031769111886E-17
 21
1.0
 31
0.0
 73
     1
 44
1.0
  0
ENDBLK
  5
136
330
12A
100
AcDbEntity
  8
0
100
AcDbBlockEnd
  0
BLOCK
  5
150
330
144
100
AcDbEntity
  8
0
100
AcDbBlockBegin
  2
*D16
 70
     1
 71
     0
 10
0.0
 20
0.0
 30
0.0
  3
*D16
  1

  0
LINE
  5
153
330
144
100
AcDbEntity
  8
SLD-0
100
AcDbLine
 10
124.298181615
 20
140.4466287005
 30
0.0
 11
134.8660880369
 21
140.4466287005
 31
0.0
  0
LINE
  5
154
330
144
100
AcDbEntity
  8
SLD-0
100
AcDbLine
 10
124.298181615
 20
141.0466287005
 30
0.0
 11
134.8660880369
 21
141.0466287005
 31
0.0
  0
LINE
  5
155
330
144
100
AcDbEntity
  8
SLD-0
100
AcDbLine
 10
133.8660880369
 20
140.4466287005
 30
0.0
 11
133.8660880369
 21
135.4466287005
 31
0.0
  0
LINE
  5
156
330
144
100
AcDbEntity
  8
SLD-0
100
AcDbLine
 10
133.8660880369
 20
140.4466287005
 30
0.0
 11
133.8660880369
 21
141.0466287005
 31
0.0
  0
LINE
  5
157
330
144
100
AcDbEntity
  8
SLD-0
100
AcDbLine
 10
133.8660880369
 20
141.0466287005
 30
0.0
 11
133.8660880369
 21
152.533244654
 31
0.0
  0
LINE
  5
158
330
144
100
AcDbEntity
  8
SLD-0
100
AcDbLine
 10
133.0622410369
 20
137.4466287005
 30
0.0
 11
133.8660880369
 21
140.4466287005
 31
0.0
  0
LINE
  5
159
330
144
100
AcDbEntity
  8
SLD-0
100
AcDbLine
 10
133.8660880369
 20
140.4466287005
 30
0.0
 11
134.6699350369
 21
137.4466287005
 31
0.0
  0
LINE
  5
15A
330
144
100
AcDbEntity
  8
SLD-0
100
AcDbLine
 10
133.8660880369
 20
140.4466287005
 30
0.0
 11
133.8660880369
 21
137.4466287005
 31
0.0
  0
LINE
  5
15B
330
144
100
AcDbEntity
  8
SLD-0
100
AcDbLine
 10
134.6699350369
 20
144.0466287005
 30
0.0
 11
133.8660880369
 21
141.0466287005
 31
0.0
  0
LINE
  5
15C
330
144
100
AcDbEntity
  8
SLD-0
100
AcDbLine
 10
133.8660880369
 20
141.0466287005
 30
0.0
 11
133.0622410369
 21
144.0466287005
 31
0.0
  0
LINE
  5
15D
330
144
100
AcDbEntity
  8
SLD-0
100
AcDbLine
 10
133.8660880369
 20
141.0466287005
 30
0.0
 11
133.8660880369
 21
144.0466287005
 31
0.0
  0
MTEXT
  5
15E
330
144
100
AcDbEntity
  8
SLD-0
100
AcDbMText
 10
129.3393943409
 20
144.83762884
 30
0.1
 40
3.5
 41
0.0
 71
     1
 72
     1
  1
0.6
  7
SLDTEXTSTYLE0
 11
6.123031769111886E-17
 21
1.0
 31
0.0
 73
     1
 44
1.0
  0
ENDBLK
  5
151
330
144
100
AcDbEntity
  8
0
100
AcDbBlockEnd
  0
BLOCK
  5
16B
330
160
100
AcDbEntity
  8
0
100
AcDbBlockBegin
  2
*D17
 70
     1
 71
     0
 10
0.0
 20
0.0
 30
0.0
  3
*D17
  1

  0
LINE
  5
16D
330
160
100
AcDbEntity
  8
SLD-0
100
AcDbLine
 10
79.798181615
 20
146.7466287005
 30
0.0
 11
54.3079655619
 21
146.7466287005
 31
0.0
  0
LINE
  5
16E
330
160
100
AcDbEntity
  8
SLD-0
100
AcDbLine
 10
79.798181615
 20
134.7466287005
 30
0.0
 11
54.3079655619
 21
134.7466287005
 31
0.0
  0
LINE
  5
16F
330
160
100
AcDbEntity
  8
SLD-0
100
AcDbLine
 10
55.3079655619
 20
146.7466287005
 30
0.0
 11
55.3079655619
 21
134.7466287005
 31
0.0
  0
LINE
  5
170
330
160
100
AcDbEntity
  8
SLD-0
100
AcDbLine
 10
54.5041185619
 20
143.7466287005
 30
0.0
 11
55.3079655619
 21
146.7466287005
 31
0.0
  0
LINE
  5
171
330
160
100
AcDbEntity
  8
SLD-0
100
AcDbLine
 10
55.3079655619
 20
146.7466287005
 30
0.0
 11
56.1118125619
 21
143.7466287005
 31
0.0
  0
LINE
  5
172
330
160
100
AcDbEntity
  8
SLD-0
100
AcDbLine
 10
55.3079655619
 20
146.7466287005
 30
0.0
 11
55.3079655619
 21
143.7466287005
 31
0.0
  0
LINE
  5
173
330
160
100
AcDbEntity
  8
SLD-0
100
AcDbLine
 10
56.1118125619
 20
137.7466287005
 30
0.0
 11
55.3079655619
 21
134.7466287005
 31
0.0
  0
LINE
  5
174
330
160
100
AcDbEntity
  8
SLD-0
100
AcDbLine
 10
55.3079655619
 20
134.7466287005
 30
0.0
 11
54.5041185619
 21
137.7466287005
 31
0.0
  0
LINE
  5
175
330
160
100
AcDbEntity
  8
SLD-0
100
AcDbLine
 10
55.3079655619
 20
134.7466287005
 30
0.0
 11
55.3079655619
 21
137.7466287005
 31
0.0
  0
MTEXT
  5
176
330
160
100
AcDbEntity
  8
SLD-0
100
AcDbMText
 10
50.7812718659
 20
138.7105900959
 30
0.1
 40
3.5
 41
0.0
 71
     1
 72
     1
  1
12
  7
SLDTEXTSTYLE0
 11
6.123031769111886E-17
 21
1.0
 31
0.0
 73
     1
 44
1.0
  0
ENDBLK
  5
16C
330
160
100
AcDbEntity
  8
0
100
AcDbBlockEnd
  0
BLOCK
  5
183
330
178
100
AcDbEntity
  8
0
100
AcDbBlockBegin
  2
*D18
 70
     1
 71
     0
 10
0.0
 20
0.0
 30
0.0
  3
*D18
  1

  0
LINE
  5
185
330
178
100
AcDbEntity
  8
SLD-0
100
AcDbLine
 10
79.798181615
 20
134.7466287005
 30
0.0
 11
62.9006626253
 21
134.7466287005
 31
0.0
  0
LINE
  5
186
330
178
100
AcDbEntity
  8
SLD-0
100
AcDbLine
 10
78.798181615
 20
140.7466287005
 30
0.0
 11
62.9006626253
 21
140.7466287005
 31
0.0
  0
LINE
  5
187
330
178
100
AcDbEntity
  8
SLD-0
100
AcDbLine
 10
63.9006626253
 20
134.7466287005
 30
0.0
 11
63.9006626253
 21
129.7466287005
 31
0.0
  0
LINE
  5
188
330
178
100
AcDbEntity
  8
SLD-0
100
AcDbLine
 10
63.9006626253
 20
134.7466287005
 30
0.0
 11
63.9006626253
 21
140.7466287005
 31
0.0
  0
LINE
  5
189
330
178
100
AcDbEntity
  8
SLD-0
100
AcDbLine
 10
63.9006626253
 20
140.7466287005
 30
0.0
 11
63.9006626253
 21
145.7466287005
 31
0.0
  0
LINE
  5
18A
330
178
100
AcDbEntity
  8
SLD-0
100
AcDbLine
 10
63.0968156253
 20
131.7466287005
 30
0.0
 11
63.9006626253
 21
134.7466287005
 31
0.0
  0
LINE
  5
18B
330
178
100
AcDbEntity
  8
SLD-0
100
AcDbLine
 10
63.9006626253
 20
134.7466287005
 30
0.0
 11
64.7045096253
 21
131.7466287005
 31
0.0
  0
LINE
  5
18C
330
178
100
AcDbEntity
  8
SLD-0
100
AcDbLine
 10
63.9006626253
 20
134.7466287005
 30
0.0
 11
63.9006626253
 21
131.7466287005
 31
0.0
  0
LINE
  5
18D
330
178
100
AcDbEntity
  8
SLD-0
100
AcDbLine
 10
64.7045096253
 20
143.7466287005
 30
0.0
 11
63.9006626253
 21
140.7466287005
 31
0.0
  0
LINE
  5
18E
330
178
100
AcDbEntity
  8
SLD-0
100
AcDbLine
 10
63.9006626253
 20
140.7466287005
 30
0.0
 11
63.0968156253
 21
143.7466287005
 31
0.0
  0
LINE
  5
18F
330
178
100
AcDbEntity
  8
SLD-0
100
AcDbLine
 10
63.9006626253
 20
140.7466287005
 30
0.0
 11
63.9006626253
 21
143.7466287005
 31
0.0
  0
MTEXT
  5
190
330
178
100
AcDbEntity
  8
SLD-0
100
AcDbMText
 10
59.3739689294
 20
136.7286093982
 30
0.1
 40
3.5
 41
0.0
 71
     1
 72
     1
  1
6
  7
SLDTEXTSTYLE0
 11
6.123031769111886E-17
 21
1.0
 31
0.0
 73
     1
 44
1.0
  0
ENDBLK
  5
184
330
178
100
AcDbEntity
  8
0
100
AcDbBlockEnd
  0
BLOCK
  5
19C
330
192
100
AcDbEntity
  8
0
100
AcDbBlockBegin
  2
*D19
 70
     1
 71
     0
 10
0.0
 20
0.0
 30
0.0
  3
*D19
  1

  0
LINE
  5
19E
330
192
100
AcDbEntity
  8
SLD-0
100
AcDbLine
 10
123.298181615
 20
213.6931972057
 30
0.0
 11
123.298181615
 21
229.1377796949
 31
0.0
  0
LINE
  5
19F
330
192
100
AcDbEntity
  8
SLD-0
100
AcDbLine
 10
96.298181615
 20
214.6931972057
 30
0.0
 11
96.298181615
 21
229.1377796949
 31
0.0
  0
LINE
  5
1A0
330
192
100
AcDbEntity
  8
SLD-0
100
AcDbLine
 10
123.298181615
 20
228.1377796949
 30
0.0
 11
96.298181615
 21
228.1377796949
 31
0.0
  0
LINE
  5
1A1
330
192
100
AcDbEntity
  8
SLD-0
100
AcDbLine
 10
120.298181615
 20
228.9416266949
 30
0.0
 11
123.298181615
 21
228.1377796949
 31
0.0
  0
LINE
  5
1A2
330
192
100
AcDbEntity
  8
SLD-0
100
AcDbLine
 10
123.298181615
 20
228.1377796949
 30
0.0
 11
120.298181615
 21
227.3339326949
 31
0.0
  0
LINE
  5
1A3
330
192
100
AcDbEntity
  8
SLD-0
100
AcDbLine
 10
123.298181615
 20
228.1377796949
 30
0.0
 11
120.298181615
 21
228.1377796949
 31
0.0
  0
LINE
  5
1A4
330
192
100
AcDbEntity
  8
SLD-0
100
AcDbLine
 10
99.298181615
 20
227.3339326949
 30
0.0
 11
96.298181615
 21
228.1377796949
 31
0.0
  0
LINE
  5
1A5
330
192
100
AcDbEntity
  8
SLD-0
100
AcDbLine
 10
96.298181615
 20
228.1377796949
 30
0.0
 11
99.298181615
 21
228.9416266949
 31
0.0
  0
LINE
  5
1A6
330
192
100
AcDbEntity
  8
SLD-0
100
AcDbLine
 10
96.298181615
 20
228.1377796949
 30
0.0
 11
99.298181615
 21
228.1377796949
 31
0.0
  0
MTEXT
  5
1A7
330
192
100
AcDbEntity
  8
SLD-0
100
AcDbMText
 10
107.7621430104
 20
232.6644733908
 30
0.1
 40
3.5
 41
0.0
 71
     1
 72
     1
  1
27
  7
SLDTEXTSTYLE0
 73
     1
 44
1.0
  0
ENDBLK
  5
19D
330
192
100
AcDbEntity
  8
0
100
AcDbBlockEnd
  0
BLOCK
  5
1B4
330
1A9
100
AcDbEntity
  8
0
100
AcDbBlockBegin
  2
*D20
 70
     1
 71
     0
 10
0.0
 20
0.0
 30
0.0
  3
*D20
  1

  0
LINE
  5
1B6
330
1A9
100
AcDbEntity
  8
SLD-0
100
AcDbLine
 10
123.298181615
 20
213.6931972057
 30
0.0
 11
123.298181615
 21
220.8027533549
 31
0.0
  0
LINE
  5
1B7
330
1A9
100
AcDbEntity
  8
SLD-0
100
AcDbLine
 10
118.298181615
 20
212.6931972057
 30
0.0
 11
118.298181615
 21
220.8027533549
 31
0.0
  0
LINE
  5
1B8
330
1A9
100
AcDbEntity
  8
SLD-0
100
AcDbLine
 10
123.298181615
 20
219.8027533549
 30
0.0
 11
128.298181615
 21
219.8027533549
 31
0.0
  0
LINE
  5
1B9
330
1A9
100
AcDbEntity
  8
SLD-0
100
AcDbLine
 10
123.298181615
 20
219.8027533549
 30
0.0
 11
118.298181615
 21
219.8027533549
 31
0.0
  0
LINE
  5
1BA
330
1A9
100
AcDbEntity
  8
SLD-0
100
AcDbLine
 10
118.298181615
 20
219.8027533549
 30
0.0
 11
113.298181615
 21
219.8027533549
 31
0.0
  0
LINE
  5
1BB
330
1A9
100
AcDbEntity
  8
SLD-0
100
AcDbLine
 10
126.298181615
 20
218.9989063549
 30
0.0
 11
123.298181615
 21
219.8027533549
 31
0.0
  0
LINE
  5
1BC
330
1A9
100
AcDbEntity
  8
SLD-0
100
AcDbLine
 10
123.298181615
 20
219.8027533549
 30
0.0
 11
126.298181615
 21
220.6066003549
 31
0.0
  0
LINE
  5
1BD
330
1A9
100
AcDbEntity
  8
SLD-0
100
AcDbLine
 10
123.298181615
 20
219.8027533549
 30
0.0
 11
126.298181615
 21
219.8027533549
 31
0.0
  0
LINE
  5
1BE
330
1A9
100
AcDbEntity
  8
SLD-0
100
AcDbLine
 10
115.298181615
 20
220.6066003549
 30
0.0
 11
118.298181615
 21
219.8027533549
 31
0.0
  0
LINE
  5
1BF
330
1A9
100
AcDbEntity
  8
SLD-0
100
AcDbLine
 10
118.298181615
 20
219.8027533549
 30
0.0
 11
115.298181615
 21
218.9989063549
 31
0.0
  0
LINE
  5
1C0
330
1A9
100
AcDbEntity
  8
SLD-0
100
AcDbLine
 10
118.298181615
 20
219.8027533549
 30
0.0
 11
115.298181615
 21
219.8027533549
 31
0.0
  0
MTEXT
  5
1C1
330
1A9
100
AcDbEntity
  8
SLD-0
100
AcDbMText
 10
119.7801623127
 20
224.3294470508
 30
0.1
 40
3.5
 41
0.0
 71
     1
 72
     1
  1
5
  7
SLDTEXTSTYLE0
 73
     1
 44
1.0
  0
ENDBLK
  5
1B5
330
1A9
100
AcDbEntity
  8
0
100
AcDbBlockEnd
  0
BLOCK
  5
1CE
330
1C3
100
AcDbEntity
  8
0
100
AcDbBlockBegin
  2
*D21
 70
     1
 71
     0
 10
0.0
 20
0.0
 30
0.0
  3
*D21
  1

  0
LINE
  5
1D0
330
1C3
100
AcDbEntity
  8
SLD-0
100
AcDbLine
 10
105.798181615
 20
205.1931972057
 30
0.0
 11
138.6074670353
 21
205.1931972057
 31
0.0
  0
LINE
  5
1D1
330
1C3
100
AcDbEntity
  8
SLD-0
100
AcDbLine
 10
123.798181615
 20
197.1931972057
 30
0.0
 11
138.6074670353
 21
197.1931972057
 31
0.0
  0
LINE
  5
1D2
330
1C3
100
AcDbEntity
  8
SLD-0
100
AcDbLine
 10
137.6074670353
 20
205.1931972057
 30
0.0
 11
137.6074670353
 21
210.1931972057
 31
0.0
  0
LINE
  5
1D3
330
1C3
100
AcDbEntity
  8
SLD-0
100
AcDbLine
 10
137.6074670353
 20
205.1931972057
 30
0.0
 11
137.6074670353
 21
197.1931972057
 31
0.0
  0
LINE
  5
1D4
330
1C3
100
AcDbEntity
  8
SLD-0
100
AcDbLine
 10
137.6074670353
 20
197.1931972057
 30
0.0
 11
137.6074670353
 21
192.1931972057
 31
0.0
  0
LINE
  5
1D5
330
1C3
100
AcDbEntity
  8
SLD-0
100
AcDbLine
 10
138.4113140353
 20
208.1931972057
 30
0.0
 11
137.6074670353
 21
205.1931972057
 31
0.0
  0
LINE
  5
1D6
330
1C3
100
AcDbEntity
  8
SLD-0
100
AcDbLine
 10
137.6074670353
 20
205.1931972057
 30
0.0
 11
136.8036200353
 21
208.1931972057
 31
0.0
  0
LINE
  5
1D7
330
1C3
100
AcDbEntity
  8
SLD-0
100
AcDbLine
 10
137.6074670353
 20
205.1931972057
 30
0.0
 11
137.6074670353
 21
208.1931972057
 31
0.0
  0
LINE
  5
1D8
330
1C3
100
AcDbEntity
  8
SLD-0
100
AcDbLine
 10
136.8036200353
 20
194.1931972057
 30
0.0
 11
137.6074670353
 21
197.1931972057
 31
0.0
  0
LINE
  5
1D9
330
1C3
100
AcDbEntity
  8
SLD-0
100
AcDbLine
 10
137.6074670353
 20
197.1931972057
 30
0.0
 11
138.4113140353
 21
194.1931972057
 31
0.0
  0
LINE
  5
1DA
330
1C3
100
AcDbEntity
  8
SLD-0
100
AcDbLine
 10
137.6074670353
 20
197.1931972057
 30
0.0
 11
137.6074670353
 21
194.1931972057
 31
0.0
  0
MTEXT
  5
1DB
330
1C3
100
AcDbEntity
  8
SLD-0
100
AcDbMText
 10
133.0807733394
 20
200.1751779033
 30
0.1
 40
3.5
 41
0.0
 71
     1
 72
     1
  1
8
  7
SLDTEXTSTYLE0
 11
6.123031769111886E-17
 21
1.0
 31
0.0
 73
     1
 44
1.0
  0
ENDBLK
  5
1CF
330
1C3
100
AcDbEntity
  8
0
100
AcDbBlockEnd
  0
BLOCK
  5
1E8
330
1DD
100
AcDbEntity
  8
0
100
AcDbBlockBegin
  2
*D22
 70
     1
 71
     0
 10
0.0
 20
0.0
 30
0.0
  3
*D22
  1

  0
LINE
  5
1EA
330
1DD
100
AcDbEntity
  8
SLD-0
100
AcDbLine
 10
123.798181615
 20
213.1931972057
 30
0.0
 11
148.4312034739
 21
213.1931972057
 31
0.0
  0
LINE
  5
1EB
330
1DD
100
AcDbEntity
  8
SLD-0
100
AcDbLine
 10
123.798181615
 20
197.1931972057
 30
0.0
 11
148.4312034739
 21
197.1931972057
 31
0.0
  0
LINE
  5
1EC
330
1DD
100
AcDbEntity
  8
SLD-0
100
AcDbLine
 10
147.4312034739
 20
213.1931972057
 30
0.0
 11
147.4312034739
 21
197.1931972057
 31
0.0
  0
LINE
  5
1ED
330
1DD
100
AcDbEntity
  8
SLD-0
100
AcDbLine
 10
146.6273564739
 20
210.1931972057
 30
0.0
 11
147.4312034739
 21
213.1931972057
 31
0.0
  0
LINE
  5
1EE
330
1DD
100
AcDbEntity
  8
SLD-0
100
AcDbLine
 10
147.4312034739
 20
213.1931972057
 30
0.0
 11
148.2350504739
 21
210.1931972057
 31
0.0
  0
LINE
  5
1EF
330
1DD
100
AcDbEntity
  8
SLD-0
100
AcDbLine
 10
147.4312034739
 20
213.1931972057
 30
0.0
 11
147.4312034739
 21
210.1931972057
 31
0.0
  0
LINE
  5
1F0
330
1DD
100
AcDbEntity
  8
SLD-0
100
AcDbLine
 10
148.2350504739
 20
200.1931972057
 30
0.0
 11
147.4312034739
 21
197.1931972057
 31
0.0
  0
LINE
  5
1F1
330
1DD
100
AcDbEntity
  8
SLD-0
100
AcDbLine
 10
147.4312034739
 20
197.1931972057
 30
0.0
 11
146.6273564739
 21
200.1931972057
 31
0.0
  0
LINE
  5
1F2
330
1DD
100
AcDbEntity
  8
SLD-0
100
AcDbLine
 10
147.4312034739
 20
197.1931972057
 30
0.0
 11
147.4312034739
 21
200.1931972057
 31
0.0
  0
MTEXT
  5
1F3
330
1DD
100
AcDbEntity
  8
SLD-0
100
AcDbMText
 10
142.904509778
 20
203.157158601
 30
0.1
 40
3.5
 41
0.0
 71
     1
 72
     1
  1
16
  7
SLDTEXTSTYLE0
 11
6.123031769111886E-17
 21
1.0
 31
0.0
 73
     1
 44
1.0
  0
ENDBLK
  5
1E9
330
1DD
100
AcDbEntity
  8
0
100
AcDbBlockEnd
  0
BLOCK
  5
200
330
1F5
100
AcDbEntity
  8
0
100
AcDbBlockBegin
  2
*D23
 70
     1
 71
     0
 10
0.0
 20
0.0
 30
0.0
  3
*D23
  1

  0
LINE
  5
202
330
1F5
100
AcDbEntity
  8
SLD-0
100
AcDbLine
 10
79.798181615
 20
197.1931972057
 30
0.0
 11
63.5129666478
 21
197.1931972057
 31
0.0
  0
LINE
  5
203
330
1F5
100
AcDbEntity
  8
SLD-0
100
AcDbLine
 10
86.798181615
 20
205.1931972057
 30
0.0
 11
63.5129666478
 21
205.1931972057
 31
0.0
  0
LINE
  5
204
330
1F5
100
AcDbEntity
  8
SLD-0
100
AcDbLine
 10
64.5129666478
 20
197.1931972057
 30
0.0
 11
64.5129666478
 21
192.1931972057
 31
0.0
  0
LINE
  5
205
330
1F5
100
AcDbEntity
  8
SLD-0
100
AcDbLine
 10
64.5129666478
 20
197.1931972057
 30
0.0
 11
64.5129666478
 21
205.1931972057
 31
0.0
  0
LINE
  5
206
330
1F5
100
AcDbEntity
  8
SLD-0
100
AcDbLine
 10
64.5129666478
 20
205.1931972057
 30
0.0
 11
64.5129666478
 21
210.1931972057
 31
0.0
  0
LINE
  5
207
330
1F5
100
AcDbEntity
  8
SLD-0
100
AcDbLine
 10
63.7091196478
 20
194.1931972057
 30
0.0
 11
64.5129666478
 21
197.1931972057
 31
0.0
  0
LINE
  5
208
330
1F5
100
AcDbEntity
  8
SLD-0
100
AcDbLine
 10
64.5129666478
 20
197.1931972057
 30
0.0
 11
65.3168136478
 21
194.1931972057
 31
0.0
  0
LINE
  5
209
330
1F5
100
AcDbEntity
  8
SLD-0
100
AcDbLine
 10
64.5129666478
 20
197.1931972057
 30
0.0
 11
64.5129666478
 21
194.1931972057
 31
0.0
  0
LINE
  5
20A
330
1F5
100
AcDbEntity
  8
SLD-0
100
AcDbLine
 10
65.3168136478
 20
208.1931972057
 30
0.0
 11
64.5129666478
 21
205.1931972057
 31
0.0
  0
LINE
  5
20B
330
1F5
100
AcDbEntity
  8
SLD-0
100
AcDbLine
 10
64.5129666478
 20
205.1931972057
 30
0.0
 11
63.7091196478
 21
208.1931972057
 31
0.0
  0
LINE
  5
20C
330
1F5
100
AcDbEntity
  8
SLD-0
100
AcDbLine
 10
64.5129666478
 20
205.1931972057
 30
0.0
 11
64.5129666478
 21
208.1931972057
 31
0.0
  0
MTEXT
  5
20D
330
1F5
100
AcDbEntity
  8
SLD-0
100
AcDbMText
 10
59.9862729519
 20
200.1751779033
 30
0.1
 40
3.5
 41
0.0
 71
     1
 72
     1
  1
8
  7
SLDTEXTSTYLE0
 11
6.123031769111886E-17
 21
1.0
 31
0.0
 73
     1
 44
1.0
  0
ENDBLK
  5
201
330
1F5
100
AcDbEntity
  8
0
100
AcDbBlockEnd
  0
BLOCK
  5
21B
330
20F
100
AcDbEntity
  8
0
100
AcDbBlockBegin
  2
*D24
 70
     1
 71
     0
 10
0.0
 20
0.0
 30
0.0
  3
*D24
  1

  0
LINE
  5
21D
330
20F
100
AcDbEntity
  8
SLD-0
100
AcDbLine
 10
79.298181615
 20
204.6931972057
 30
0.0
 11
71.2807461557
 21
204.6931972057
 31
0.0
  0
LINE
  5
21E
330
20F
100
AcDbEntity
  8
SLD-0
100
AcDbLine
 10
79.298181615
 20
205.6931972057
 30
0.0
 11
71.2807461557
 21
205.6931972057
 31
0.0
  0
LINE
  5
21F
330
20F
100
AcDbEntity
  8
SLD-0
100
AcDbLine
 10
72.2807461557
 20
204.6931972057
 30
0.0
 11
72.2807461557
 21
199.6931972057
 31
0.0
  0
LINE
  5
220
330
20F
100
AcDbEntity
  8
SLD-0
100
AcDbLine
 10
72.2807461557
 20
204.6931972057
 30
0.0
 11
72.2807461557
 21
205.6931972057
 31
0.0
  0
LINE
  5
221
330
20F
100
AcDbEntity
  8
SLD-0
100
AcDbLine
 10
72.2807461557
 20
205.6931972057
 30
0.0
 11
72.2807461557
 21
214.5428396188
 31
0.0
  0
LINE
  5
222
330
20F
100
AcDbEntity
  8
SLD-0
100
AcDbLine
 10
71.4768991557
 20
201.6931972057
 30
0.0
 11
72.2807461557
 21
204.6931972057
 31
0.0
  0
LINE
  5
223
330
20F
100
AcDbEntity
  8
SLD-0
100
AcDbLine
 10
72.2807461557
 20
204.6931972057
 30
0.0
 11
73.0845931557
 21
201.6931972057
 31
0.0
  0
LINE
  5
224
330
20F
100
AcDbEntity
  8
SLD-0
100
AcDbLine
 10
72.2807461557
 20
204.6931972057
 30
0.0
 11
72.2807461557
 21
201.6931972057
 31
0.0
  0
LINE
  5
225
330
20F
100
AcDbEntity
  8
SLD-0
100
AcDbLine
 10
73.0845931557
 20
208.6931972057
 30
0.0
 11
72.2807461557
 21
205.6931972057
 31
0.0
  0
LINE
  5
226
330
20F
100
AcDbEntity
  8
SLD-0
100
AcDbLine
 10
72.2807461557
 20
205.6931972057
 30
0.0
 11
71.4768991557
 21
208.6931972057
 31
0.0
  0
LINE
  5
227
330
20F
100
AcDbEntity
  8
SLD-0
100
AcDbLine
 10
72.2807461557
 20
205.6931972057
 30
0.0
 11
72.2807461557
 21
208.6931972057
 31
0.0
  0
MTEXT
  5
228
330
20F
100
AcDbEntity
  8
SLD-0
100
AcDbMText
 10
67.7540524598
 20
210.9193010141
 30
0.1
 40
3.5
 41
0.0
 71
     1
 72
     1
  1
1
  7
SLDTEXTSTYLE0
 11
6.123031769111886E-17
 21
1.0
 31
0.0
 73
     1
 44
1.0
  0
ENDBLK
  5
21C
330
20F
100
AcDbEntity
  8
0
100
AcDbBlockEnd
  0
BLOCK
  5
234
330
22A
100
AcDbEntity
  8
0
100
AcDbBlockBegin
  2
*D25
 70
     1
 71
     0
 10
0.0
 20
0.0
 30
0.0
  3
*D25
  1

  0
LINE
  5
236
330
22A
100
AcDbEntity
  8
SLD-0
100
AcDbLine
 10
123.298181615
 20
196.6931972057
 30
0.0
 11
123.298181615
 21
183.4347890819
 31
0.0
  0
LINE
  5
237
330
22A
100
AcDbEntity
  8
SLD-0
100
AcDbLine
 10
104.298181615
 20
203.6931972057
 30
0.0
 11
104.298181615
 21
183.4347890819
 31
0.0
  0
LINE
  5
238
330
22A
100
AcDbEntity
  8
SLD-0
100
AcDbLine
 10
123.298181615
 20
184.4347890819
 30
0.0
 11
104.298181615
 21
184.4347890819
 31
0.0
  0
LINE
  5
239
330
22A
100
AcDbEntity
  8
SLD-0
100
AcDbLine
 10
120.298181615
 20
185.2386360819
 30
0.0
 11
123.298181615
 21
184.4347890819
 31
0.0
  0
LINE
  5
23A
330
22A
100
AcDbEntity
  8
SLD-0
100
AcDbLine
 10
123.298181615
 20
184.4347890819
 30
0.0
 11
120.298181615
 21
183.6309420819
 31
0.0
  0
LINE
  5
23B
330
22A
100
AcDbEntity
  8
SLD-0
100
AcDbLine
 10
123.298181615
 20
184.4347890819
 30
0.0
 11
120.298181615
 21
184.4347890819
 31
0.0
  0
LINE
  5
23C
330
22A
100
AcDbEntity
  8
SLD-0
100
AcDbLine
 10
107.298181615
 20
183.6309420819
 30
0.0
 11
104.298181615
 21
184.4347890819
 31
0.0
  0
LINE
  5
23D
330
22A
100
AcDbEntity
  8
SLD-0
100
AcDbLine
 10
104.298181615
 20
184.4347890819
 30
0.0
 11
107.298181615
 21
185.2386360819
 31
0.0
  0
LINE
  5
23E
330
22A
100
AcDbEntity
  8
SLD-0
100
AcDbLine
 10
104.298181615
 20
184.4347890819
 30
0.0
 11
107.298181615
 21
184.4347890819
 31
0.0
  0
MTEXT
  5
23F
330
22A
100
AcDbEntity
  8
SLD-0
100
AcDbMText
 10
111.7621430104
 20
188.9614827778
 30
0.1
 40
3.5
 41
0.0
 71
     1
 72
     1
  1
19
  7
SLDTEXTSTYLE0
 73
     1
 44
1.0
  0
ENDBLK
  5
235
330
22A
100
AcDbEntity
  8
0
100
AcDbBlockEnd
  0
BLOCK
  5
24B
330
241
100
AcDbEntity
  8
0
100
AcDbBlockBegin
  2
*D26
 70
     1
 71
     0
 10
0.0
 20
0.0
 30
0.0
  3
*D26
  1

  0
ARC
  5
24D
330
241
100
AcDbEntity
  8
SLD-0
100
AcDbCircle
 10
92.7467202197
 20
186.4708276865
 30
0.0
 40
4.552720724799989
100
AcDbArc
 50
153.4349488229
 51
206.5650511771
  0
ARC
  5
24E
330
241
100
AcDbEntity
  8
SLD-0
100
AcDbCircle
 10
91.8496430104
 20
186.4708276865
 30
0.0
 40
4.552720724799989
100
AcDbArc
 50
333.4349488229
 51
26.5650511771
  0
LINE
  5
24F
330
241
100
AcDbEntity
  8
SLD-0
100
AcDbLine
 10
104.298181615
 20
203.6931972057
 30
0.0
 11
104.298181615
 21
183.4347890819
 31
0.0
  0
LINE
  5
250
330
241
100
AcDbEntity
  8
SLD-0
100
AcDbLine
 10
80.298181615
 20
196.6931972057
 30
0.0
 11
80.298181615
 21
183.4347890819
 31
0.0
  0
LINE
  5
251
330
241
100
AcDbEntity
  8
SLD-0
100
AcDbLine
 10
104.298181615
 20
184.4347890819
 30
0.0
 11
80.298181615
 21
184.4347890819
 31
0.0
  0
LINE
  5
252
330
241
100
AcDbEntity
  8
SLD-0
100
AcDbLine
 10
101.298181615
 20
185.2386360819
 30
0.0
 11
104.298181615
 21
184.4347890819
 31
0.0
  0
LINE
  5
253
330
241
100
AcDbEntity
  8
SLD-0
100
AcDbLine
 10
104.298181615
 20
184.4347890819
 30
0.0
 11
101.298181615
 21
183.6309420819
 31
0.0
  0
LINE
  5
254
330
241
100
AcDbEntity
  8
SLD-0
100
AcDbLine
 10
104.298181615
 20
184.4347890819
 30
0.0
 11
101.298181615
 21
184.4347890819
 31
0.0
  0
LINE
  5
255
330
241
100
AcDbEntity
  8
SLD-0
100
AcDbLine
 10
83.298181615
 20
183.6309420819
 30
0.0
 11
80.298181615
 21
184.4347890819
 31
0.0
  0
LINE
  5
256
330
241
100
AcDbEntity
  8
SLD-0
100
AcDbLine
 10
80.298181615
 20
184.4347890819
 30
0.0
 11
83.298181615
 21
185.2386360819
 31
0.0
  0
LINE
  5
257
330
241
100
AcDbEntity
  8
SLD-0
100
AcDbLine
 10
80.298181615
 20
184.4347890819
 30
0.0
 11
83.298181615
 21
184.4347890819
 31
0.0
  0
MTEXT
  5
258
330
241
100
AcDbEntity
  8
SLD-0
100
AcDbMText
 10
90.2621430104
 20
188.9614827778
 30
0.1
 40
3.5
 41
0.0
 71
     1
 72
     1
  1
24
  7
SLDTEXTSTYLE0
 73
     1
 44
1.0
  0
ENDBLK
  5
24C
330
241
100
AcDbEntity
  8
0
100
AcDbBlockEnd
  0
BLOCK
  5
264
330
25A
100
AcDbEntity
  8
0
100
AcDbBlockBegin
  2
*D27
 70
     1
 71
     0
 10
0.0
 20
0.0
 30
0.0
  3
*D27
  1

  0
LINE
  5
266
330
25A
100
AcDbEntity
  8
SLD-0
 62
     7
100
AcDbLine
 10
123.298181615
 20
196.1931972057
 30
0.0
 11
123.298181615
 21
175.1167925813
 31
0.0
  0
LINE
  5
267
330
25A
100
AcDbEntity
  8
SLD-0
 62
     7
100
AcDbLine
 10
80.298181615
 20
196.1931972057
 30
0.0
 11
80.298181615
 21
175.1167925813
 31
0.0
  0
LINE
  5
268
330
25A
100
AcDbEntity
  8
SLD-0
 62
     7
100
AcDbLine
 10
123.298181615
 20
176.1167925813
 30
0.0
 11
80.298181615
 21
176.1167925813
 31
0.0
  0
LINE
  5
269
330
25A
100
AcDbEntity
  8
SLD-0
 62
     7
100
AcDbLine
 10
120.298181615
 20
176.9206395813
 30
0.0
 11
123.298181615
 21
176.1167925813
 31
0.0
  0
LINE
  5
26A
330
25A
100
AcDbEntity
  8
SLD-0
 62
     7
100
AcDbLine
 10
123.298181615
 20
176.1167925813
 30
0.0
 11
120.298181615
 21
175.3129455813
 31
0.0
  0
LINE
  5
26B
330
25A
100
AcDbEntity
  8
SLD-0
 62
     7
100
AcDbLine
 10
123.298181615
 20
176.1167925813
 30
0.0
 11
120.298181615
 21
176.1167925813
 31
0.0
  0
LINE
  5
26C
330
25A
100
AcDbEntity
  8
SLD-0
 62
     7
100
AcDbLine
 10
83.298181615
 20
175.3129455813
 30
0.0
 11
80.298181615
 21
176.1167925813
 31
0.0
  0
LINE
  5
26D
330
25A
100
AcDbEntity
  8
SLD-0
 62
     7
100
AcDbLine
 10
80.298181615
 20
176.1167925813
 30
0.0
 11
83.298181615
 21
176.9206395813
 31
0.0
  0
LINE
  5
26E
330
25A
100
AcDbEntity
  8
SLD-0
 62
     7
100
AcDbLine
 10
80.298181615
 20
176.1167925813
 30
0.0
 11
83.298181615
 21
176.1167925813
 31
0.0
  0
MTEXT
  5
26F
330
25A
100
AcDbEntity
  8
SLD-0
 62
     7
100
AcDbMText
 10
99.7621430104
 20
180.6434862772
 30
0.1
 40
3.5
 41
0.0
 71
     1
 72
     1
  1
43
  7
SLDTEXTSTYLE0
 73
     1
 44
1.0
  0
ENDBLK
  5
265
330
25A
100
AcDbEntity
  8
0
100
AcDbBlockEnd
  0
ENDSEC
  0
SECTION
  2
ENTITIES
  0
LINE
  5
72
330
1F
100
AcDbEntity
  8
SLD-0
  6
Continuous
 62
   179
100
AcDbLine
 10
20.2604743903
 20
285.0
 30
0.0
 11
196.7604743903
 21
285.0
 31
0.0
  0
LINE
  5
73
330
1F
100
AcDbEntity
  8
SLD-0
  6
Continuous
 62
   179
100
AcDbLine
 10
20.2604743903
 20
285.0
 30
0.0
 11
20.2604743903
 21
10.0
 31
0.0
  0
LINE
  5
74
330
1F
100
AcDbEntity
  8
SLD-0
  6
Continuous
 62
   179
100
AcDbLine
 10
20.2604743903
 20
10.0
 30
0.0
 11
196.7604743903
 21
10.0
 31
0.0
  0
LINE
  5
75
330
1F
100
AcDbEntity
  8
SLD-0
  6
Continuous
 62
   179
100
AcDbLine
 10
196.7604743903
 20
285.0
 30
0.0
 11
196.7604743903
 21
10.0
 31
0.0
  0
LINE
  5
76
330
1F
100
AcDbEntity
  8
SLD-0
  6
Continuous
 62
   179
100
AcDbLine
 10
127.0104743903
 20
50.75
 30
0.0
 11
196.7604743903
 21
50.75
 31
0.0
  0
LINE
  5
77
330
1F
100
AcDbEntity
  8
SLD-0
  6
Continuous
 62
   179
100
AcDbLine
 10
127.0104743903
 20
50.75
 30
0.0
 11
127.0104743903
 21
22.75
 31
0.0
  0
LINE
  5
78
330
1F
100
AcDbEntity
  8
SLD-0
  6
Continuous
 62
   179
100
AcDbLine
 10
127.0104743903
 20
22.75
 30
0.0
 11
196.7604743903
 21
22.75
 31
0.0
  0
LINE
  5
79
330
1F
100
AcDbEntity
  8
SLD-0
  6
Continuous
 62
   179
100
AcDbLine
 10
127.0104743903
 20
36.75
 30
0.0
 11
196.7604743903
 21
36.75
 31
0.0
  0
LINE
  5
7A
330
1F
100
AcDbEntity
  8
SLD-0
  6
Continuous
 62
   179
100
AcDbLine
 10
122.7981813021
 20
141.0466287148
 30
0.0
 11
122.7981813021
 21
146.7466287527
 31
0.0
  0
LINE
  5
7B
330
1F
100
AcDbEntity
  8
SLD-0
  6
Continuous
 62
   179
100
AcDbLine
 10
122.7981813021
 20
146.7466287527
 30
0.0
 11
123.2981823154
 21
146.2466286707
 31
0.0
  0
LINE
  5
7C
330
1F
100
AcDbEntity
  8
SLD-0
  6
Continuous
 62
   179
100
AcDbLine
 10
123.2981823154
 20
146.2466286707
 30
0.0
 11
123.2981823154
 21
141.0466287148
 31
0.0
  0
LINE
  5
7D
330
1F
100
AcDbEntity
  8
SLD-0
  6
Continuous
 62
   179
100
AcDbLine
 10
123.2981823154
 20
141.0466287148
 30
0.0
 11
122.7981813021
 21
141.0466287148
 31
0.0
  0
LINE
  5
7E
330
1F
100
AcDbEntity
  8
SLD-0
  6
Continuous
 62
   179
100
AcDbLine
 10
80.2981808551
 20
135.2466287303
 30
0.0
 11
80.2981808551
 21
146.2466286707
 31
0.0
  0
LINE
  5
7F
330
1F
100
AcDbEntity
  8
SLD-0
  6
Continuous
 62
   179
100
AcDbLine
 10
80.7981818683
 20
146.7466287527
 30
0.0
 11
80.2981808551
 21
146.2466286707
 31
0.0
  0
LINE
  5
80
330
1F
100
AcDbEntity
  8
SLD-0
  6
Continuous
 62
   179
100
AcDbLine
 10
80.7981818683
 20
146.7466287527
 30
0.0
 11
80.7981818683
 21
134.7466286484
 31
0.0
  0
LINE
  5
81
330
1F
100
AcDbEntity
  8
SLD-0
  6
Continuous
 62
   179
100
AcDbLine
 10
80.2981808551
 20
135.2466287303
 30
0.0
 11
80.7981818683
 21
134.7466286484
 31
0.0
  0
LINE
  5
82
330
1F
100
AcDbEntity
  8
SLD-0
  6
Continuous
 62
   179
100
AcDbLine
 10
113.2869157501
 20
140.4466287005
 30
0.0
 11
122.7981813021
 21
140.4466286863
 31
0.0
  0
LINE
  5
83
330
1F
100
AcDbEntity
  8
SLD-0
  6
Continuous
 62
   179
100
AcDbLine
 10
122.7981813021
 20
134.7466286484
 30
0.0
 11
122.7981813021
 21
140.4466286863
 31
0.0
  0
LINE
  5
84
330
1F
100
AcDbEntity
  8
SLD-0
  6
Continuous
 62
   179
100
AcDbLine
 10
122.7981813021
 20
134.7466286484
 30
0.0
 11
80.7981818683
 21
134.7466286484
 31
0.0
  0
LINE
  5
85
330
1F
100
AcDbEntity
  8
SLD-0
  6
Continuous
 62
   179
100
AcDbLine
 10
122.7981813021
 20
141.0466287148
 30
0.0
 11
113.28691575
 21
141.0466287005
 31
0.0
  0
LINE
  5
86
330
1F
100
AcDbEntity
  8
SLD-0
  6
Continuous
 62
   179
100
AcDbLine
 10
122.7981813021
 20
146.7466287527
 30
0.0
 11
80.7981818683
 21
146.7466287527
 31
0.0
  0
LINE
  5
87
330
1F
100
AcDbEntity
  8
SLD-0
  6
Continuous
 62
   179
100
AcDbLine
 10
123.2981823154
 20
140.4466286863
 30
0.0
 11
123.2981823154
 21
135.2466287303
 31
0.0
  0
LINE
  5
88
330
1F
100
AcDbEntity
  8
SLD-0
  6
Continuous
 62
   179
100
AcDbLine
 10
123.2981823154
 20
135.2466287303
 30
0.0
 11
122.7981813021
 21
134.7466286484
 31
0.0
  0
LINE
  5
89
330
1F
100
AcDbEntity
  8
SLD-0
  6
Continuous
 62
   179
100
AcDbLine
 10
122.7981813021
 20
140.4466286863
 30
0.0
 11
123.2981823154
 21
140.4466286863
 31
0.0
  0
LINE
  5
8A
330
1F
100
AcDbEntity
  8
SLD-0
  6
HIDDEN
 62
     8
100
AcDbLine
 10
114.298181615
 20
142.7466287005
 30
0.0
 11
122.298181615
 21
142.7466287005
 31
0.0
  0
LINE
  5
8B
330
1F
100
AcDbEntity
  8
SLD-0
  6
HIDDEN
 62
     8
100
AcDbLine
 10
90.3190511048
 20
146.7466287527
 30
0.0
 11
90.3190511048
 21
134.7466286484
 31
0.0
  0
LINE
  5
8C
330
1F
100
AcDbEntity
  8
SLD-0
  6
HIDDEN
 62
     8
100
AcDbLine
 10
102.2773121253
 20
134.7466286484
 30
0.0
 11
102.2773121253
 21
146.7466287527
 31
0.0
  0
LINE
  5
8D
330
1F
100
AcDbEntity
  8
SLD-0
  6
HIDDEN
 62
     8
100
AcDbLine
 10
104.298181995
 20
146.7466287527
 30
0.0
 11
104.298181995
 21
134.7466286484
 31
0.0
  0
LINE
  5
8E
330
1F
100
AcDbEntity
  8
SLD-0
  6
HIDDEN
 62
     8
100
AcDbLine
 10
114.2981808402
 20
146.7466287527
 30
0.0
 11
114.298181615
 21
142.7466287005
 31
0.0
  0
LINE
  5
8F
330
1F
100
AcDbEntity
  8
SLD-0
  6
HIDDEN
 62
     8
100
AcDbLine
 10
122.298181615
 20
142.7466287005
 30
0.0
 11
122.2981821515
 21
146.7466287527
 31
0.0
  0
LINE
  5
90
330
1F
100
AcDbEntity
  8
SLD-0
  6
HIDDEN
 62
     8
100
AcDbLine
 10
116.048182524
 20
142.7466287955
 30
0.0
 11
116.048182524
 21
141.0466287148
 31
0.0
  0
LINE
  5
91
330
1F
100
AcDbEntity
  8
SLD-0
  6
HIDDEN
 62
     8
100
AcDbLine
 10
120.5481823303
 20
141.0466287148
 30
0.0
 11
120.5481823303
 21
142.7466287955
 31
0.0
  0
LINE
  5
92
330
1F
100
AcDbEntity
  8
SLD-0
  6
HIDDEN
 62
     8
100
AcDbLine
 10
119.9481814869
 20
134.7466286484
 30
0.0
 11
119.9481814869
 21
140.4466286863
 31
0.0
  0
LINE
  5
93
330
1F
100
AcDbEntity
  8
SLD-0
  6
HIDDEN
 62
     8
100
AcDbLine
 10
116.6481815048
 20
140.4466286863
 30
0.0
 11
116.6481815048
 21
134.7466286484
 31
0.0
  0
LINE
  5
94
330
1F
100
AcDbEntity
  8
SLD-0
  6
HIDDEN
 62
   179
100
AcDbLine
 10
116.298181168
 20
140.4466286863
 30
0.0
 11
116.298181168
 21
134.7466286484
 31
0.0
  0
LINE
  5
95
330
1F
100
AcDbEntity
  8
SLD-0
  6
HIDDEN
 62
   179
100
AcDbLine
 10
120.2981818236
 20
134.7466286484
 30
0.0
 11
120.2981818236
 21
140.4466286863
 31
0.0
  0
LINE
  5
96
330
1F
100
AcDbEntity
  8
SLD-0
  6
CENTERX2
 62
   179
100
AcDbLine
 10
96.298181615
 20
132.7466287005
 30
0.0
 11
96.298181615
 21
148.7466287005
 31
0.0
  0
LINE
  5
97
330
1F
100
AcDbEntity
  8
SLD-0
  6
CENTERX2
 62
   179
100
AcDbLine
 10
118.298181615
 20
148.7466287005
 30
0.0
 11
118.298181615
 21
132.7466287005
 31
0.0
  0
LINE
  5
98
330
1F
100
AcDbEntity
  8
SLD-0
  6
CENTERX2
 62
   179
100
AcDbLine
 10
111.2869157501
 20
140.7466287005
 30
0.0
 11
125.298181615
 21
140.7466287005
 31
0.0
  0
LINE
  5
99
330
1F
100
AcDbEntity
  8
SLD-0
  6
Continuous
 62
   179
100
AcDbLine
 10
104.298181995
 20
204.6931971819
 30
0.0
 11
102.2773119866
 21
204.6931972057
 31
0.0
  0
LINE
  5
9A
330
1F
100
AcDbEntity
  8
SLD-0
  6
Continuous
 62
   179
100
AcDbLine
 10
104.298181995
 20
205.6931972294
 30
0.0
 11
104.298181995
 21
204.6931971819
 31
0.0
  0
LINE
  5
9B
330
1F
100
AcDbEntity
  8
SLD-0
  6
Continuous
 62
   179
100
AcDbLine
 10
102.2773119866
 20
205.6931972057
 30
0.0
 11
104.298181995
 21
205.6931972294
 31
0.0
  0
LINE
  5
9C
330
1F
100
AcDbEntity
  8
SLD-0
  6
Continuous
 62
   179
100
AcDbLine
 10
80.7981818683
 20
205.6931972294
 30
0.0
 11
90.3190512434
 21
205.6931972057
 31
0.0
  0
LINE
  5
9D
330
1F
100
AcDbEntity
  8
SLD-0
  6
Continuous
 62
   179
100
AcDbLine
 10
80.7981818683
 20
213.1931975856
 30
0.0
 11
80.7981818683
 21
205.6931972294
 31
0.0
  0
LINE
  5
9E
330
1F
100
AcDbEntity
  8
SLD-0
  6
Continuous
 62
   179
100
AcDbLine
 10
80.7981818683
 20
213.1931975856
 30
0.0
 11
122.7981813021
 21
213.1931975856
 31
0.0
  0
LINE
  5
9F
330
1F
100
AcDbEntity
  8
SLD-0
  6
Continuous
 62
   179
100
AcDbLine
 10
122.7981813021
 20
197.1931968257
 30
0.0
 11
122.7981813021
 21
213.1931975856
 31
0.0
  0
LINE
  5
A0
330
1F
100
AcDbEntity
  8
SLD-0
  6
Continuous
 62
   179
100
AcDbLine
 10
122.7981813021
 20
197.1931968257
 30
0.0
 11
80.7981818683
 21
197.1931968257
 31
0.0
  0
LINE
  5
A1
330
1F
100
AcDbEntity
  8
SLD-0
  6
Continuous
 62
   179
100
AcDbLine
 10
80.7981818683
 20
204.6931971819
 30
0.0
 11
80.7981818683
 21
197.1931968257
 31
0.0
  0
LINE
  5
A2
330
1F
100
AcDbEntity
  8
SLD-0
  6
Continuous
 62
   179
100
AcDbLine
 10
90.3190512435
 20
204.6931972057
 30
0.0
 11
80.7981818683
 21
204.6931971819
 31
0.0
  0
LINE
  5
A3
330
1F
100
AcDbEntity
  8
SLD-0
  6
Continuous
 62
   179
100
AcDbLine
 10
80.2981808551
 20
205.6931972294
 30
0.0
 11
80.2981808551
 21
212.693197038
 31
0.0
  0
LINE
  5
A4
330
1F
100
AcDbEntity
  8
SLD-0
  6
Continuous
 62
   179
100
AcDbLine
 10
80.7981818683
 20
205.6931972294
 30
0.0
 11
80.2981808551
 21
205.6931972294
 31
0.0
  0
LINE
  5
A5
330
1F
100
AcDbEntity
  8
SLD-0
  6
Continuous
 62
   179
100
AcDbLine
 10
80.7981818683
 20
213.1931975856
 30
0.0
 11
80.2981808551
 21
212.693197038
 31
0.0
  0
LINE
  5
A6
330
1F
100
AcDbEntity
  8
SLD-0
  6
Continuous
 62
   179
100
AcDbLine
 10
123.2981823154
 20
212.693197038
 30
0.0
 11
123.2981823154
 21
197.6931973733
 31
0.0
  0
LINE
  5
A7
330
1F
100
AcDbEntity
  8
SLD-0
  6
Continuous
 62
   179
100
AcDbLine
 10
122.7981813021
 20
197.1931968257
 30
0.0
 11
123.2981823154
 21
197.6931973733
 31
0.0
  0
LINE
  5
A8
330
1F
100
AcDbEntity
  8
SLD-0
  6
Continuous
 62
   179
100
AcDbLine
 10
122.7981813021
 20
213.1931975856
 30
0.0
 11
123.2981823154
 21
212.693197038
 31
0.0
  0
LINE
  5
A9
330
1F
100
AcDbEntity
  8
SLD-0
  6
Continuous
 62
   179
100
AcDbLine
 10
80.7981818683
 20
197.1931968257
 30
0.0
 11
80.2981808551
 21
197.6931973733
 31
0.0
  0
LINE
  5
AA
330
1F
100
AcDbEntity
  8
SLD-0
  6
Continuous
 62
   179
100
AcDbLine
 10
80.2981808551
 20
197.6931973733
 30
0.0
 11
80.2981808551
 21
204.6931971819
 31
0.0
  0
LINE
  5
AB
330
1F
100
AcDbEntity
  8
SLD-0
  6
Continuous
 62
   179
100
AcDbLine
 10
80.2981808551
 20
204.6931971819
 30
0.0
 11
80.7981818683
 21
204.6931971819
 31
0.0
  0
LINE
  5
AC
330
1F
100
AcDbEntity
  8
SLD-0
  6
HIDDEN
 62
     8
100
AcDbLine
 10
113.2869153984
 20
213.1931975856
 30
0.0
 11
113.2869153984
 21
197.1931968257
 31
0.0
  0
LINE
  5
AD
330
1F
100
AcDbEntity
  8
SLD-0
  6
HIDDEN
 62
     8
100
AcDbLine
 10
90.298181615
 20
201.6931972057
 30
0.0
 11
82.298181615
 21
201.6931972057
 31
0.0
  0
LINE
  5
AE
330
1F
100
AcDbEntity
  8
SLD-0
  6
HIDDEN
 62
     8
100
AcDbLine
 10
105.2981812276
 20
213.1931975856
 30
0.0
 11
105.2981812276
 21
197.1931968257
 31
0.0
  0
LINE
  5
AF
330
1F
100
AcDbEntity
  8
SLD-0
  6
HIDDEN
 62
     8
100
AcDbLine
 10
90.2981815629
 20
197.1931968257
 30
0.0
 11
90.298181615
 21
201.6931972057
 31
0.0
  0
LINE
  5
B0
330
1F
100
AcDbEntity
  8
SLD-0
  6
HIDDEN
 62
     8
100
AcDbLine
 10
82.298181615
 20
201.6931972057
 30
0.0
 11
82.2981811829
 21
197.1931968257
 31
0.0
  0
LINE
  5
B1
330
1F
100
AcDbEntity
  8
SLD-0
  6
HIDDEN
 62
     8
100
AcDbLine
 10
88.5481817417
 20
201.6931970976
 30
0.0
 11
88.5481817417
 21
204.6931971819
 31
0.0
  0
LINE
  5
B2
330
1F
100
AcDbEntity
  8
SLD-0
  6
HIDDEN
 62
     8
100
AcDbLine
 10
84.0481819354
 20
204.6931971819
 30
0.0
 11
84.0481819354
 21
201.6931970976
 31
0.0
  0
LINE
  5
B3
330
1F
100
AcDbEntity
  8
SLD-0
  6
HIDDEN
 62
     8
100
AcDbLine
 10
87.9481818296
 20
205.6931972294
 30
0.0
 11
87.9481818296
 21
213.1931975856
 31
0.0
  0
LINE
  5
B4
330
1F
100
AcDbEntity
  8
SLD-0
  6
HIDDEN
 62
     8
100
AcDbLine
 10
84.6481818475
 20
213.1931975856
 30
0.0
 11
84.6481818475
 21
205.6931972294
 31
0.0
  0
LINE
  5
B5
330
1F
100
AcDbEntity
  8
SLD-0
  6
HIDDEN
 62
   179
100
AcDbLine
 10
84.2981815107
 20
213.1931975856
 30
0.0
 11
84.2981815107
 21
205.6931972294
 31
0.0
  0
LINE
  5
B6
330
1F
100
AcDbEntity
  8
SLD-0
  6
HIDDEN
 62
   179
100
AcDbLine
 10
88.298181235
 20
205.6931972294
 30
0.0
 11
88.298181235
 21
213.1931975856
 31
0.0
  0
LINE
  5
B7
330
1F
100
AcDbEntity
  8
SLD-0
  6
CENTERX2
 62
   179
100
AcDbLine
 10
109.298181615
 20
215.1931972057
 30
0.0
 11
109.298181615
 21
195.1931972057
 31
0.0
  0
LINE
  5
B8
330
1F
100
AcDbEntity
  8
SLD-0
  6
CENTERX2
 62
   179
100
AcDbLine
 10
86.298181615
 20
215.1931972057
 30
0.0
 11
86.298181615
 21
195.1931972057
 31
0.0
  0
ARC
  5
B9
330
1F
100
AcDbEntity
  8
SLD-0
  6
Continuous
 62
   179
100
AcDbCircle
 10
109.298181615
 20
140.7466287005
 30
0.0
 40
4.000000000063981
100
AcDbArc
 50
4.3012223169
 51
355.6987776954
  0
CIRCLE
  5
BA
330
1F
100
AcDbEntity
  8
SLD-0
  6
Continuous
 62
   179
100
AcDbCircle
 10
86.298181615
 20
140.7466287005
 30
0.0
 40
4.000000000000014
  0
CIRCLE
  5
BB
330
1F
100
AcDbEntity
  8
SLD-0
  6
Continuous
 62
   179
100
AcDbCircle
 10
86.298181615
 20
140.7466287005
 30
0.0
 40
2.250000000000014
  0
CIRCLE
  5
BC
330
1F
100
AcDbEntity
  8
SLD-0
  6
Continuous
 62
   179
100
AcDbCircle
 10
86.298181615
 20
140.7466287005
 30
0.0
 40
1.650000000000006
  0
CIRCLE
  5
BD
330
1F
100
AcDbEntity
  8
SLD-0
 62
   179
100
AcDbCircle
 10
86.298181615
 20
140.7466287005
 30
0.0
 40
1.999999620000011
  0
ARC
  5
BE
330
1F
100
AcDbEntity
  8
SLD-0
  6
Continuous
 62
   179
100
AcDbCircle
 10
96.298181615
 20
205.1931972057
 30
0.0
 40
6.000000000049137
100
AcDbArc
 50
4.7801918472
 51
175.2198081472
  0
ARC
  5
BF
330
1F
100
AcDbEntity
  8
SLD-0
  6
Continuous
 62
   179
100
AcDbCircle
 10
96.298181615
 20
205.1931972057
 30
0.0
 40
6.000000000049135
100
AcDbArc
 50
184.7801918586
 51
355.2198081528
  0
CIRCLE
  5
C0
330
1F
100
AcDbEntity
  8
SLD-0
  6
Continuous
 62
   179
100
AcDbCircle
 10
118.298181615
 20
205.1931972057
 30
0.0
 40
4.0
  0
CIRCLE
  5
C1
330
1F
100
AcDbEntity
  8
SLD-0
  6
Continuous
 62
   179
100
AcDbCircle
 10
118.298181615
 20
205.1931972057
 30
0.0
 40
2.25
  0
CIRCLE
  5
C2
330
1F
100
AcDbEntity
  8
SLD-0
  6
Continuous
 62
   179
100
AcDbCircle
 10
118.298181615
 20
205.1931972057
 30
0.0
 40
1.649999999999992
  0
CIRCLE
  5
C3
330
1F
100
AcDbEntity
  8
SLD-0
 62
   179
100
AcDbCircle
 10
118.298181615
 20
205.1931972057
 30
0.0
 40
2.0000002086
  0
DIMENSION
  5
C4
330
1F
100
AcDbEntity
  8
SLD-0
 62
     7
100
AcDbDimension
  2
*D9
 10
96.298181615
 20
140.7466287005
 30
0.0
 11
147.1491166631
 21
140.7466287005
 31
0.0
 70
   160
 71
     1
 42
31.0
  3
SLDDIMSTYLE0
100
AcDbAlignedDimension
 13
127.298181615
 23
140.7466287005
 33
0.0
 14
96.298181615
 24
140.7466287005
 34
0.0
100
AcDbRotatedDimension
1001
ACAD
1000
DSTYLE
1002
{
1070
    77
1070
     3
1070
   143
1040
0.0393700787
1070
    41
1040
3.0
1070
    44
1040
1.0
1070
    42
1040
1.0
1070
   147
1040
1.524
1070
    73
1070
     0
1070
    74
1070
     0
1070
   140
1040
3.5
1070
   284
1070
    12
1070
    78
1070
     4
1002
}
  0
DIMENSION
  5
E1
330
1F
100
AcDbEntity
  8
SLD-0
 62
     7
100
AcDbDimension
  2
*D11
 10
122.298181615
 20
134.7466287005
 30
0.0
 11
152.9985650967
 21
134.7466287005
 31
0.0
 70
   160
 71
     1
 42
4.5
  3
SLDDIMSTYLE0
100
AcDbAlignedDimension
 13
126.798181615
 23
134.7466287005
 33
0.0
 14
122.298181615
 24
134.7466287005
 34
0.0
100
AcDbRotatedDimension
1001
ACAD
1000
DSTYLE
1002
{
1070
    77
1070
     3
1070
   143
1040
0.0393700787
1070
    41
1040
3.0
1070
    44
1040
1.0
1070
    42
1040
1.0
1070
   147
1040
1.524
1070
    73
1070
     0
1070
    74
1070
     0
1070
   140
1040
3.5
1070
   284
1070
    12
1070
    78
1070
     4
1002
}
  0
DIMENSION
  5
F7
330
1F
100
AcDbEntity
  8
SLD-0
100
AcDbDimension
  2
*D12
 10
86.298181615
 20
159.1163616152
 30
0.0
 11
104.798181615
 21
159.1163616152
 31
0.0
 70
   160
 71
     1
 42
37.0
  3
SLDDIMSTYLE1
100
AcDbAlignedDimension
 13
123.298181615
 23
146.2466287005
 33
0.0
 14
86.298181615
 24
147.2466287005
 34
0.0
100
AcDbRotatedDimension
1001
ACAD
1000
DSTYLE
1002
{
1070
    77
1070
     3
1070
   143
1040
0.0393700787
1070
    41
1040
3.0
1070
    44
1040
1.0
1070
    42
1040
1.0
1070
   147
1040
1.524
1070
    73
1070
     0
1070
    74
1070
     0
1070
   140
1040
3.5
1070
   284
1070
    12
1070
    78
1070
    12
1002
}
  0
DIMENSION
  5
112
330
1F
100
AcDbEntity
  8
SLD-0
100
AcDbDimension
  2
*D14
 10
123.298181615
 20
115.6636738482
 30
0.0
 11
116.298181615
 21
115.6636738482
 31
0.0
 70
   160
 71
     1
 42
14.0
  3
SLDDIMSTYLE1
100
AcDbAlignedDimension
 13
109.298181615
 23
134.2466287005
 33
0.0
 14
123.298181615
 24
135.2466287005
 34
0.0
100
AcDbRotatedDimension
1001
ACAD
1000
DSTYLE
1002
{
1070
    77
1070
     3
1070
   143
1040
0.0393700787
1070
    41
1040
3.0
1070
    44
1040
1.0
1070
    42
1040
1.0
1070
   147
1040
1.524
1070
    73
1070
     0
1070
    74
1070
     0
1070
   140
1040
3.5
1070
   284
1070
    12
1070
    78
1070
    12
1002
}
  0
DIMENSION
  5
129
330
1F
100
AcDbEntity
  8
SLD-0
100
AcDbDimension
  2
*D15
 10
144.0112882409
 20
134.7466287005
 30
0.0
 11
144.0112882409
 21
137.7466287005
 31
0.0
 70
   160
 71
     1
 42
6.0
  3
SLDDIMSTYLE1
100
AcDbAlignedDimension
 13
125.298181615
 23
140.7466287005
 33
0.0
 14
122.798181615
 24
134.7466287005
 34
0.0
 50
90.0
100
AcDbRotatedDimension
1001
ACAD
1000
DSTYLE
1002
{
1070
    77
1070
     3
1070
   143
1040
0.0393700787
1070
    41
1040
3.0
1070
    44
1040
1.0
1070
    42
1040
1.0
1070
   147
1040
1.524
1070
    73
1070
     0
1070
    74
1070
     0
1070
   140
1040
3.5
1070
   284
1070
    12
1070
    78
1070
    12
1002
}
  0
DIMENSION
  5
143
330
1F
100
AcDbEntity
  8
SLD-0
100
AcDbDimension
  2
*D16
 10
133.8660880369
 20
140.4466287005
 30
0.0
 11
133.8660880369
 21
147.891686747
 31
0.0
 70
   160
 71
     1
 42
0.6
  3
SLDDIMSTYLE2
100
AcDbAlignedDimension
 13
123.298181615
 23
141.0466287005
 33
0.0
 14
123.298181615
 24
140.4466287005
 34
0.0
 50
90.0
100
AcDbRotatedDimension
1001
ACAD
1000
DSTYLE
1002
{
1070
    77
1070
     3
1070
   143
1040
0.0393700787
1070
    41
1040
3.0
1070
    44
1040
1.0
1070
    42
1040
1.0
1070
   147
1040
1.524
1070
    73
1070
     0
1070
    74
1070
     0
1070
   140
1040
3.5
1070
   284
1070
    12
1070
    78
1070
     8
1002
}
  0
DIMENSION
  5
15F
330
1F
100
AcDbEntity
  8
SLD-0
100
AcDbDimension
  2
*D17
 10
55.3079655619
 20
146.7466287005
 30
0.0
 11
55.3079655619
 21
140.7466287005
 31
0.0
 70
   160
 71
     1
 42
12.0
  3
SLDDIMSTYLE1
100
AcDbAlignedDimension
 13
80.798181615
 23
134.7466287005
 33
0.0
 14
80.798181615
 24
146.7466287005
 34
0.0
 50
90.0
100
AcDbRotatedDimension
1001
ACAD
1000
DSTYLE
1002
{
1070
    77
1070
     3
1070
   143
1040
0.0393700787
1070
    41
1040
3.0
1070
    44
1040
1.0
1070
    42
1040
1.0
1070
   147
1040
1.524
1070
    73
1070
     0
1070
    74
1070
     0
1070
   140
1040
3.5
1070
   284
1070
    12
1070
    78
1070
    12
1002
}
  0
DIMENSION
  5
177
330
1F
100
AcDbEntity
  8
SLD-0
100
AcDbDimension
  2
*D18
 10
63.9006626253
 20
134.7466287005
 30
0.0
 11
63.9006626253
 21
137.7466287005
 31
0.0
 70
   160
 71
     1
 42
6.0
  3
SLDDIMSTYLE1
100
AcDbAlignedDimension
 13
79.798181615
 23
140.7466287005
 33
0.0
 14
80.798181615
 24
134.7466287005
 34
0.0
 50
90.0
100
AcDbRotatedDimension
1001
ACAD
1000
DSTYLE
1002
{
1070
    77
1070
     3
1070
   143
1040
0.0393700787
1070
    41
1040
3.0
1070
    44
1040
1.0
1070
    42
1040
1.0
1070
   147
1040
1.524
1070
    73
1070
     0
1070
    74
1070
     0
1070
   140
1040
3.5
1070
   284
1070
    12
1070
    78
1070
    12
1002
}
  0
DIMENSION
  5
191
330
1F
100
AcDbEntity
  8
SLD-0
100
AcDbDimension
  2
*D19
 10
123.298181615
 20
228.1377796949
 30
0.0
 11
109.798181615
 21
228.1377796949
 31
0.0
 70
   160
 71
     1
 42
27.0
  3
SLDDIMSTYLE1
100
AcDbAlignedDimension
 13
96.298181615
 23
213.6931972057
 33
0.0
 14
123.298181615
 24
212.6931972057
 34
0.0
100
AcDbRotatedDimension
1001
ACAD
1000
DSTYLE
1002
{
1070
    77
1070
     3
1070
   143
1040
0.0393700787
1070
    41
1040
3.0
1070
    44
1040
1.0
1070
    42
1040
1.0
1070
   147
1040
1.524
1070
    73
1070
     0
1070
    74
1070
     0
1070
   140
1040
3.5
1070
   284
1070
    12
1070
    78
1070
    12
1002
}
  0
DIMENSION
  5
1A8
330
1F
100
AcDbEntity
  8
SLD-0
100
AcDbDimension
  2
*D20
 10
123.298181615
 20
219.8027533549
 30
0.0
 11
120.798181615
 21
219.8027533549
 31
0.0
 70
   160
 71
     1
 42
5.0
  3
SLDDIMSTYLE1
100
AcDbAlignedDimension
 13
118.298181615
 23
211.6931972057
 33
0.0
 14
123.298181615
 24
212.6931972057
 34
0.0
100
AcDbRotatedDimension
1001
ACAD
1000
DSTYLE
1002
{
1070
    77
1070
     3
1070
   143
1040
0.0393700787
1070
    41
1040
3.0
1070
    44
1040
1.0
1070
    42
1040
1.0
1070
   147
1040
1.524
1070
    73
1070
     0
1070
    74
1070
     0
1070
   140
1040
3.5
1070
   284
1070
    12
1070
    78
1070
    12
1002
}
  0
DIMENSION
  5
1C2
330
1F
100
AcDbEntity
  8
SLD-0
100
AcDbDimension
  2
*D21
 10
137.6074670353
 20
205.1931972057
 30
0.0
 11
137.6074670353
 21
201.1931972057
 31
0.0
 70
   160
 71
     1
 42
8.0
  3
SLDDIMSTYLE1
100
AcDbAlignedDimension
 13
122.798181615
 23
197.1931972057
 33
0.0
 14
104.798181615
 24
205.1931972057
 34
0.0
 50
90.0
100
AcDbRotatedDimension
1001
ACAD
1000
DSTYLE
1002
{
1070
    77
1070
     3
1070
   143
1040
0.0393700787
1070
    41
1040
3.0
1070
    44
1040
1.0
1070
    42
1040
1.0
1070
   147
1040
1.524
1070
    73
1070
     0
1070
    74
1070
     0
1070
   140
1040
3.5
1070
   284
1070
    12
1070
    78
1070
    12
1002
}
  0
DIMENSION
  5
1DC
330
1F
100
AcDbEntity
  8
SLD-0
100
AcDbDimension
  2
*D22
 10
147.4312034739
 20
213.1931972057
 30
0.0
 11
147.4312034739
 21
205.1931972057
 31
0.0
 70
   160
 71
     1
 42
16.0
  3
SLDDIMSTYLE1
100
AcDbAlignedDimension
 13
122.798181615
 23
197.1931972057
 33
0.0
 14
122.798181615
 24
213.1931972057
 34
0.0
 50
90.0
100
AcDbRotatedDimension
1001
ACAD
1000
DSTYLE
1002
{
1070
    77
1070
     3
1070
   143
1040
0.0393700787
1070
    41
1040
3.0
1070
    44
1040
1.0
1070
    42
1040
1.0
1070
   147
1040
1.524
1070
    73
1070
     0
1070
    74
1070
     0
1070
   140
1040
3.5
1070
   284
1070
    12
1070
    78
1070
    12
1002
}
  0
DIMENSION
  5
1F4
330
1F
100
AcDbEntity
  8
SLD-0
100
AcDbDimension
  2
*D23
 10
64.5129666478
 20
197.1931972057
 30
0.0
 11
64.5129666478
 21
201.1931972057
 31
0.0
 70
   160
 71
     1
 42
8.0
  3
SLDDIMSTYLE1
100
AcDbAlignedDimension
 13
87.798181615
 23
205.1931972057
 33
0.0
 14
80.798181615
 24
197.1931972057
 34
0.0
 50
90.0
100
AcDbRotatedDimension
1001
ACAD
1000
DSTYLE
1002
{
1070
    77
1070
     3
1070
   143
1040
0.0393700787
1070
    41
1040
3.0
1070
    44
1040
1.0
1070
    42
1040
1.0
1070
   147
1040
1.524
1070
    73
1070
     0
1070
    74
1070
     0
1070
   140
1040
3.5
1070
   284
1070
    12
1070
    78
1070
    12
1002
}
  0
DIMENSION
  5
20E
330
1F
100
AcDbEntity
  8
SLD-0
100
AcDbDimension
  2
*D24
 10
72.2807461557
 20
204.6931972057
 30
0.0
 11
72.2807461557
 21
211.9373203164
 31
0.0
 70
   160
 71
     1
 42
1.0
  3
SLDDIMSTYLE1
100
AcDbAlignedDimension
 13
80.298181615
 23
205.6931972057
 33
0.0
 14
80.298181615
 24
204.6931972057
 34
0.0
 50
90.0
100
AcDbRotatedDimension
1001
ACAD
1000
DSTYLE
1002
{
1070
    77
1070
     3
1070
   143
1040
0.0393700787
1070
    41
1040
3.0
1070
    44
1040
1.0
1070
    42
1040
1.0
1070
   147
1040
1.524
1070
    73
1070
     0
1070
    74
1070
     0
1070
   140
1040
3.5
1070
   284
1070
    12
1070
    78
1070
    12
1002
}
  0
DIMENSION
  5
229
330
1F
100
AcDbEntity
  8
SLD-0
100
AcDbDimension
  2
*D25
 10
123.298181615
 20
184.4347890819
 30
0.0
 11
113.798181615
 21
184.4347890819
 31
0.0
 70
   160
 71
     1
 42
19.0
  3
SLDDIMSTYLE1
100
AcDbAlignedDimension
 13
104.298181615
 23
204.6931972057
 33
0.0
 14
123.298181615
 24
197.6931972057
 34
0.0
100
AcDbRotatedDimension
1001
ACAD
1000
DSTYLE
1002
{
1070
    77
1070
     3
1070
   143
1040
0.0393700787
1070
    41
1040
3.0
1070
    44
1040
1.0
1070
    42
1040
1.0
1070
   147
1040
1.524
1070
    73
1070
     0
1070
    74
1070
     0
1070
   140
1040
3.5
1070
   284
1070
    12
1070
    78
1070
    12
1002
}
  0
DIMENSION
  5
240
330
1F
100
AcDbEntity
  8
SLD-0
100
AcDbDimension
  2
*D26
 10
104.298181615
 20
184.4347890819
 30
0.0
 11
92.298181615
 21
184.4347890819
 31
0.0
 70
   160
  1
(<>)
 71
     1
 42
24.0
  3
SLDDIMSTYLE1
100
AcDbAlignedDimension
 13
80.298181615
 23
197.6931972057
 33
0.0
 14
104.298181615
 24
204.6931972057
 34
0.0
100
AcDbRotatedDimension
1001
ACAD
1000
DSTYLE
1002
{
1070
    77
1070
     3
1070
   143
1040
0.0393700787
1070
    41
1040
3.0
1070
    44
1040
1.0
1070
    42
1040
1.0
1070
   147
1040
1.524
1070
    73
1070
     0
1070
    74
1070
     0
1070
   140
1040
3.5
1070
   284
1070
    12
1070
    78
1070
    12
1002
}
  0
DIMENSION
  5
259
330
1F
100
AcDbEntity
  8
SLD-0
 62
     7
100
AcDbDimension
  2
*D27
 10
123.298181615
 20
176.1167925813
 30
0.0
 11
101.798181615
 21
176.1167925813
 31
0.0
 70
   160
 71
     1
 42
43.0
  3
SLDDIMSTYLE1
100
AcDbAlignedDimension
 13
80.298181615
 23
197.1931972057
 33
0.0
 14
123.298181615
 24
197.1931972057
 34
0.0
100
AcDbRotatedDimension
1001
ACAD
1000
DSTYLE
1002
{
1070
    77
1070
     3
1070
   143
1040
0.0393700787
1070
    41
1040
3.0
1070
    44
1040
1.0
1070
    42
1040
1.0
1070
   147
1040
1.524
1070
    73
1070
     0
1070
    74
1070
     0
1070
   140
1040
3.5
1070
   284
1070
    12
1070
    78
1070
    12
1002
}
  0
MTEXT
  5
270
330
1F
100
AcDbEntity
  8
SLD-0
 62
     7
100
AcDbMText
 10
147.3970845807
 20
29.7138882404
 30
0.0
 40
4.2333333333
 41
0.0
 71
     1
 72
     1
  1
N01861-201-1
  7
SLDTEXTSTYLE1
 73
     1
 44
1.0
  0
MTEXT
  5
272
330
1F
100
AcDbEntity
  8
SLD-0
 62
     7
100
AcDbMText
 10
137.6360195338
 20
43.2377018572
 30
0.0
 40
4.2333333333
 41
0.0
 71
     1
 72
     1
  1
12-8 Cross Connecter
  7
SLDTEXTSTYLE2
 73
     1
 44
1.0
  0
INSERT
  5
273
330
1F
100
AcDbEntity
  8
0
  6
Continuous
 62
     7
370
     0
100
AcDbBlockReference
  2
Dim0
 10
0.0
 20
0.0
 30
0.0
  0
INSERT
  5
274
330
1F
100
AcDbEntity
  8
0
  6
Continuous
 62
     7
370
     0
100
AcDbBlockReference
  2
SW_CENTERMARK0
 10
0.0
 20
0.0
 30
0.0
  0
INSERT
  5
275
330
1F
100
AcDbEntity
  8
0
  6
Continuous
 62
     7
370
     0
100
AcDbBlockReference
  2
SW_CENTERMARK1
 10
0.0
 20
0.0
 30
0.0
  0
INSERT
  5
276
330
1F
100
AcDbEntity
  8
0
  6
Continuous
 62
     7
370
     0
100
AcDbBlockReference
  2
Dim1
 10
0.0
 20
0.0
 30
0.0
  0
INSERT
  5
277
330
1F
100
AcDbEntity
  8
0
  6
Continuous
 62
     7
370
     0
100
AcDbBlockReference
  2
Dim2
 10
0.0
 20
0.0
 30
0.0
  0
INSERT
  5
278
330
1F
100
AcDbEntity
  8
0
  6
Continuous
 62
     7
370
     0
100
AcDbBlockReference
  2
SW_CENTERMARK2
 10
0.0
 20
0.0
 30
0.0
  0
INSERT
  5
279
330
1F
100
AcDbEntity
  8
0
  6
Continuous
 62
     7
370
     0
100
AcDbBlockReference
  2
SW_CENTERMARK3
 10
0.0
 20
0.0
 30
0.0
  0
ENDSEC
  0
SECTION
  2
OBJECTS
  0
DICTIONARY
  5
C
330
0
100
AcDbDictionary
281
     1
  3
ACAD_GROUP
350
D
  3
ACAD_LAYOUT
350
1A
  3
ACAD_MLINESTYLE
350
17
  3
ACAD_PLOTSETTINGS
350
19
  3
ACAD_PLOTSTYLENAME
350
E
  0
DICTIONARY
  5
D
102
{ACAD_REACTORS
330
C
102
}
330
C
100
AcDbDictionary
281
     1
  0
DICTIONARY
  5
1A
102
{ACAD_REACTORS
330
C
102
}
330
C
100
AcDbDictionary
281
     1
  3
Layout1
350
1E
  3
Layout2
350
26
  3
Model
350
22
  0
DICTIONARY
  5
17
102
{ACAD_REACTORS
330
C
102
}
330
C
100
AcDbDictionary
281
     1
  3
Standard
350
18
  0
DICTIONARY
  5
19
102
{ACAD_REACTORS
330
C
102
}
330
C
100
AcDbDictionary
281
     1
  0
ACDBDICTIONARYWDFLT
  5
E
102
{ACAD_REACTORS
330
C
102
}
330
C
100
AcDbDictionary
281
     1
  3
Normal
350
F
100
AcDbDictionaryWithDefault
340
F
  0
LAYOUT
  5
1E
102
{ACAD_REACTORS
330
1A
102
}
330
1A
100
AcDbPlotSettings
  1

  2

  4

  6

 40
0.0
 41
0.0
 42
0.0
 43
0.0
 44
0.0
 45
0.0
 46
0.0
 47
0.0
 48
0.0
 49
0.0
140
0.0
141
0.0
142
1.0
143
1.0
 70
   688
 72
     0
 73
     0
 74
     5
  7

 75
    16
147
1.0
148
0.0
149
0.0
100
AcDbLayout
  1
Layout1
 70
     1
 71
     1
 10
0.0
 20
0.0
 11
0.0
 21
0.0
 12
0.0
 22
0.0
 32
0.0
 14
0.0
 24
0.0
 34
0.0
 15
0.0
 25
0.0
 35
0.0
146
0.0
 13
0.0
 23
0.0
 33
0.0
 16
1.0
 26
0.0
 36
0.0
 17
0.0
 27
1.0
 37
0.0
 76
     0
330
1B
  0
LAYOUT
  5
26
102
{ACAD_REACTORS
330
1A
102
}
330
1A
100
AcDbPlotSettings
  1

  2

  4

  6

 40
0.0
 41
0.0
 42
0.0
 43
0.0
 44
0.0
 45
0.0
 46
0.0
 47
0.0
 48
0.0
 49
0.0
140
0.0
141
0.0
142
1.0
143
1.0
 70
   688
 72
     0
 73
     0
 74
     5
  7

 75
    16
147
1.0
148
0.0
149
0.0
100
AcDbLayout
  1
Layout2
 70
     1
 71
     2
 10
0.0
 20
0.0
 11
0.0
 21
0.0
 12
0.0
 22
0.0
 32
0.0
 14
0.0
 24
0.0
 34
0.0
 15
0.0
 25
0.0
 35
0.0
146
0.0
 13
0.0
 23
0.0
 33
0.0
 16
1.0
 26
0.0
 36
0.0
 17
0.0
 27
1.0
 37
0.0
 76
     0
330
23
  0
LAYOUT
  5
22
102
{ACAD_REACTORS
330
1A
102
}
330
1A
100
AcDbPlotSettings
  1

  2

  4

  6

 40
0.0
 41
0.0
 42
0.0
 43
0.0
 44
0.0
 45
0.0
 46
0.0
 47
0.0
 48
0.0
 49
0.0
140
0.0
141
0.0
142
1.0
143
1.0
 70
  1712
 72
     0
 73
     0
 74
     0
  7

 75
     0
147
1.0
148
0.0
149
0.0
100
AcDbLayout
  1
Model
 70
     1
 71
     0
 10
0.0
 20
0.0
 11
0.0
 21
0.0
 12
0.0
 22
0.0
 32
0.0
 14
0.0
 24
0.0
 34
0.0
 15
210.0
 25
297.0
 35
0.0
146
0.0
 13
0.0
 23
0.0
 33
0.0
 16
1.0
 26
0.0
 36
0.0
 17
0.0
 27
1.0
 37
0.0
 76
     0
330
1F
  0
MLINESTYLE
  5
18
102
{ACAD_REACTORS
330
17
102
}
330
17
100
AcDbMlineStyle
  2
Standard
 70
     0
  3

 62
   256
 51
90.0
 52
90.0
 71
     2
 49
0.5
 62
   256
  6
BYLAYER
 49
-0.5
 62
   256
  6
BYLAYER
  0
ACDBPLACEHOLDER
  5
F
102
{ACAD_REACTORS
330
E
102
}
330
E
  0
ENDSEC
  0
EOF
