  0
SECTION
  2
HEADER
  9
$ACADVER
  1
AC1015
  9
$ACADMAINTVER
 70
     6
  9
$DWGCODEPAGE
  3
DOS932
  9
$INSBASE
 10
0.0
 20
0.0
 30
0.0
  9
$EXTMIN
 10
0.0
 20
0.0
 30
0.0
  9
$EXTMAX
 10
210.0
 20
297.0
 30
0.0
  9
$LIMMIN
 10
0.0
 20
0.0
  9
$LIMMAX
 10
0.0
 20
0.0
  9
$ORTHOMODE
 70
     0
  9
$REGENMODE
 70
     1
  9
$FILLMODE
 70
     1
  9
$QTEXTMODE
 70
     0
  9
$MIRRTEXT
 70
     1
  9
$LTSCALE
 40
1.0
  9
$ATTMODE
 70
     1
  9
$TEXTSIZE
 40
3.5
  9
$TRACEWID
 40
1.0
  9
$TEXTSTYLE
  7
Standard
  9
$CLAYER
  8
0
  9
$CELTYPE
  6
ByLayer
  9
$CECOLOR
 62
   256
  9
$CELTSCALE
 40
1.0
  9
$DISPSILH
 70
     0
  9
$DIMSCALE
 40
1.0
  9
$DIMASZ
 40
3.0
  9
$DIMEXO
 40
1.0
  9
$DIMDLI
 40
3.75
  9
$DIMRND
 40
0.0
  9
$DIMDLE
 40
0.0
  9
$DIMEXE
 40
1.0
  9
$DIMTP
 40
0.0
  9
$DIMTM
 40
0.0
  9
$DIMTXT
 40
3.5
  9
$DIMCEN
 40
2.5
  9
$DIMTSZ
 40
0.0
  9
$DIMTOL
 70
     0
  9
$DIMLIM
 70
     0
  9
$DIMTIH
 70
     1
  9
$DIMTOH
 70
     1
  9
$DIMSE1
 70
     0
  9
$DIMSE2
 70
     0
  9
$DIMTAD
 70
     1
  9
$DIMZIN
 70
     0
  9
$DIMBLK
  1

  9
$DIMASO
 70
     1
  9
$DIMSHO
 70
     1
  9
$DIMPOST
  1

  9
$DIMAPOST
  1

  9
$DIMALT
 70
     0
  9
$DIMALTD
 70
     3
  9
$DIMALTF
 40
0.0393700787
  9
$DIMLFAC
 40
1.0
  9
$DIMTOFL
 70
     1
  9
$DIMTVP
 40
0.0
  9
$DIMTIX
 70
     0
  9
$DIMSOXD
 70
     0
  9
$DIMSAH
 70
     0
  9
$DIMBLK1
  1

  9
$DIMBLK2
  1

  9
$DIMSTYLE
  2
ISO-25
  9
$DIMCLRD
 70
     0
  9
$DIMCLRE
 70
     0
  9
$DIMCLRT
 70
     0
  9
$DIMTFAC
 40
1.0
  9
$DIMGAP
 40
1.524
  9
$DIMJUST
 70
     0
  9
$DIMSD1
 70
     0
  9
$DIMSD2
 70
     0
  9
$DIMTOLJ
 70
     0
  9
$DIMTZIN
 70
     0
  9
$DIMALTZ
 70
     0
  9
$DIMALTTZ
 70
     0
  9
$DIMUPT
 70
     0
  9
$DIMDEC
 70
     2
  9
$DIMTDEC
 70
     2
  9
$DIMALTU
 70
     2
  9
$DIMALTTD
 70
     3
  9
$DIMTXSTY
  7
Standard
  9
$DIMAUNIT
 70
     0
  9
$DIMADEC
 70
     0
  9
$DIMALTRND
 40
0.0
  9
$DIMAZIN
 70
     0
  9
$DIMDSEP
 70
    44
  9
$DIMATFIT
 70
     3
  9
$DIMFRAC
 70
     0
  9
$DIMLDRBLK
  1

  9
$DIMLUNIT
 70
     2
  9
$DIMLWD
 70
    -2
  9
$DIMLWE
 70
    -2
  9
$DIMTMOVE
 70
     0
  9
$LUNITS
 70
     2
  9
$LUPREC
 70
     1
  9
$SKETCHINC
 40
1.0
  9
$FILLETRAD
 40
10.0
  9
$AUNITS
 70
     0
  9
$AUPREC
 70
     0
  9
$MENU
  1
.
  9
$ELEVATION
 40
0.0
  9
$PELEVATION
 40
0.0
  9
$THICKNESS
 40
0.0
  9
$LIMCHECK
 70
     0
  9
$CHAMFERA
 40
10.0
  9
$CHAMFERB
 40
10.0
  9
$CHAMFERC
 40
20.0
  9
$CHAMFERD
 40
0.0
  9
$SKPOLY
 70
     0
  9
$TDCREATE
 40
2454391.375559896
  9
$TDUCREATE
 40
2454391.000559896
  9
$TDUPDATE
 40
2454391.375559907
  9
$TDUUPDATE
 40
2454391.000559907
  9
$TDINDWG
 40
0.0000000116
  9
$TDUSRTIMER
 40
0.0000000116
  9
$USRTIMER
 70
     1
  9
$ANGBASE
 50
0.0
  9
$ANGDIR
 70
     0
  9
$PDMODE
 70
     0
  9
$PDSIZE
 40
-1.0
  9
$PLINEWID
 40
0.0
  9
$SPLFRAME
 70
     0
  9
$SPLINETYPE
 70
     6
  9
$SPLINESEGS
 70
     8
  9
$HANDSEED
  5
276
  9
$SURFTAB1
 70
     6
  9
$SURFTAB2
 70
     6
  9
$SURFTYPE
 70
     6
  9
$SURFU
 70
     6
  9
$SURFV
 70
     6
  9
$UCSBASE
  2

  9
$UCSNAME
  2

  9
$UCSORG
 10
0.0
 20
0.0
 30
0.0
  9
$UCSXDIR
 10
1.0
 20
0.0
 30
0.0
  9
$UCSYDIR
 10
0.0
 20
1.0
 30
0.0
  9
$UCSORTHOREF
  2

  9
$UCSORTHOVIEW
 70
     0
  9
$UCSORGTOP
 10
0.0
 20
0.0
 30
0.0
  9
$UCSORGBOTTOM
 10
0.0
 20
0.0
 30
0.0
  9
$UCSORGLEFT
 10
0.0
 20
0.0
 30
0.0
  9
$UCSORGRIGHT
 10
0.0
 20
0.0
 30
0.0
  9
$UCSORGFRONT
 10
0.0
 20
0.0
 30
0.0
  9
$UCSORGBACK
 10
0.0
 20
0.0
 30
0.0
  9
$PUCSBASE
  2

  9
$PUCSNAME
  2

  9
$PUCSORG
 10
0.0
 20
0.0
 30
0.0
  9
$PUCSXDIR
 10
1.0
 20
0.0
 30
0.0
  9
$PUCSYDIR
 10
0.0
 20
1.0
 30
0.0
  9
$PUCSORTHOREF
  2

  9
$PUCSORTHOVIEW
 70
     0
  9
$PUCSORGTOP
 10
0.0
 20
0.0
 30
0.0
  9
$PUCSORGBOTTOM
 10
0.0
 20
0.0
 30
0.0
  9
$PUCSORGLEFT
 10
0.0
 20
0.0
 30
0.0
  9
$PUCSORGRIGHT
 10
0.0
 20
0.0
 30
0.0
  9
$PUCSORGFRONT
 10
0.0
 20
0.0
 30
0.0
  9
$PUCSORGBACK
 10
0.0
 20
0.0
 30
0.0
  9
$USERI1
 70
     0
  9
$USERI2
 70
     0
  9
$USERI3
 70
     0
  9
$USERI4
 70
     0
  9
$USERI5
 70
     0
  9
$USERR1
 40
0.0
  9
$USERR2
 40
0.0
  9
$USERR3
 40
0.0
  9
$USERR4
 40
0.0
  9
$USERR5
 40
0.0
  9
$WORLDVIEW
 70
     1
  9
$SHADEDGE
 70
     3
  9
$SHADEDIF
 70
    70
  9
$TILEMODE
 70
     1
  9
$MAXACTVP
 70
    64
  9
$PINSBASE
 10
0.0
 20
0.0
 30
0.0
  9
$PLIMCHECK
 70
     0
  9
$PEXTMIN
 10
1.0000000000E+20
 20
1.0000000000E+20
 30
1.0000000000E+20
  9
$PEXTMAX
 10
-1.0000000000E+20
 20
-1.0000000000E+20
 30
-1.0000000000E+20
  9
$PLIMMIN
 10
0.0
 20
0.0
  9
$PLIMMAX
 10
420.0
 20
297.0
  9
$UNITMODE
 70
     0
  9
$VISRETAIN
 70
     1
  9
$PLINEGEN
 70
     0
  9
$PSLTSCALE
 70
     1
  9
$TREEDEPTH
 70
  3020
  9
$CMLSTYLE
  2
Standard
  9
$CMLJUST
 70
     0
  9
$CMLSCALE
 40
20.0
  9
$PROXYGRAPHICS
 70
     1
  9
$MEASUREMENT
 70
     1
  9
$CELWEIGHT
370
    -1
  9
$ENDCAPS
280
     0
  9
$JOINSTYLE
280
     0
  9
$LWDISPLAY
290
     1
  9
$INSUNITS
 70
     4
  9
$HYPERLINKBASE
  1

  9
$STYLESHEET
  1

  9
$XEDIT
290
     1
  9
$CEPSNTYPE
380
     0
  9
$PSTYLEMODE
290
     1
  9
$FINGERPRINTGUID
  2
{8D7C9175-505B-4739-9D0A-CA4F30AA2384}
  9
$VERSIONGUID
  2
{FAEB1C32-E019-11D5-929B-00C0DF256EC4}
  9
$EXTNAMES
290
     1
  9
$PSVPSCALE
 40
0.0
  9
$OLESTARTUP
290
     0
  0
ENDSEC
  0
SECTION
  2
CLASSES
  0
CLASS
  1
ACDBDICTIONARYWDFLT
  2
AcDbDictionaryWithDefault
  3
ObjectDBX Classes
 90
        0
280
     0
281
     0
  0
CLASS
  1
ACDBPLACEHOLDER
  2
AcDbPlaceHolder
  3
ObjectDBX Classes
 90
        0
280
     0
281
     0
  0
CLASS
  1
LAYOUT
  2
AcDbLayout
  3
ObjectDBX Classes
 90
        0
280
     0
281
     0
  0
ENDSEC
  0
SECTION
  2
TABLES
  0
TABLE
  2
VPORT
  5
8
330
0
100
AcDbSymbolTable
 70
     1
  0
VPORT
  5
29
330
8
100
AcDbSymbolTableRecord
100
AcDbViewportTableRecord
  2
*Active
 70
     0
 10
0.0
 20
0.0
 11
1.0
 21
1.0
 12
105.0
 22
148.5
 13
0.0
 23
0.0
 14
10.0
 24
10.0
 15
10.0
 25
10.0
 16
0.0
 26
0.0
 36
1.0
 17
0.0
 27
0.0
 37
0.0
 40
297.0
 41
1.9729729729
 42
50.0
 43
0.0
 44
0.0
 50
0.0
 51
0.0
 71
     0
 72
  2000
 73
     1
 74
     3
 75
     0
 76
     0
 77
     0
 78
     0
281
     0
 65
     1
110
0.0
120
0.0
130
0.0
111
1.0
121
0.0
131
0.0
112
0.0
122
1.0
132
0.0
 79
     0
146
0.0
  0
ENDTAB
  0
TABLE
  2
LTYPE
  5
5
330
0
100
AcDbSymbolTable
 70
     6
  0
LTYPE
  5
14
330
5
100
AcDbSymbolTableRecord
100
AcDbLinetypeTableRecord
  2
ByBlock
 70
     0
  3

 72
    65
 73
     0
 40
0.0
  0
LTYPE
  5
15
330
5
100
AcDbSymbolTableRecord
100
AcDbLinetypeTableRecord
  2
ByLayer
 70
     0
  3

 72
    65
 73
     0
 40
0.0
  0
LTYPE
  5
16
330
5
100
AcDbSymbolTableRecord
100
AcDbLinetypeTableRecord
  2
Continuous
 70
     0
  3
Solid line
 72
    65
 73
     0
 40
0.0
  0
LTYPE
  5
2A
330
5
100
AcDbSymbolTableRecord
100
AcDbLinetypeTableRecord
  2
HIDDEN
 70
     0
  3
Hidden __ __ __ __ __ __ __ __ __ __ __ __ __ __
 72
    65
 73
     2
 40
1.905
 49
1.27
 74
     0
 49
-0.635
 74
     0
  0
LTYPE
  5
2B
330
5
100
AcDbSymbolTableRecord
100
AcDbLinetypeTableRecord
  2
PHANTOM
 70
     0
  3
Phantom ______  __  __  ______  __  __  ______
 72
    65
 73
     6
 40
12.7
 49
6.35
 74
     0
 49
-1.27
 74
     0
 49
1.27
 74
     0
 49
-1.27
 74
     0
 49
1.27
 74
     0
 49
-1.27
 74
     0
  0
LTYPE
  5
2C
330
5
100
AcDbSymbolTableRecord
100
AcDbLinetypeTableRecord
  2
CENTER
 70
     0
  3
Center ____ _ ____ _ ____ _ ____ _ ____ _ ____
 72
    65
 73
     4
 40
10.16
 49
6.35
 74
     0
 49
-1.27
 74
     0
 49
1.27
 74
     0
 49
-1.27
 74
     0
  0
LTYPE
  5
2D
330
5
100
AcDbSymbolTableRecord
100
AcDbLinetypeTableRecord
  2
CENTERX2
 70
     0
  3
Center (2x) ________  __  ________  __  _____
 72
    65
 73
     4
 40
20.32
 49
12.7
 74
     0
 49
-2.54
 74
     0
 49
2.54
 74
     0
 49
-2.54
 74
     0
  0
LTYPE
  5
2E
330
5
100
AcDbSymbolTableRecord
100
AcDbLinetypeTableRecord
  2
DOT2
 70
     0
  3
Dot (.5x) ........................................
 72
    65
 73
     2
 40
0.635
 49
0.0
 74
     0
 49
-0.635
 74
     0
  0
ENDTAB
  0
TABLE
  2
LAYER
  5
2
330
0
100
AcDbSymbolTable
 70
     2
  0
LAYER
  5
10
330
2
100
AcDbSymbolTableRecord
100
AcDbLayerTableRecord
  2
0
 70
     0
 62
     7
  6
Continuous
370
    -3
390
F
  0
LAYER
  5
5A
330
2
100
AcDbSymbolTableRecord
100
AcDbLayerTableRecord
  2
Defpoints
 70
     0
 62
     7
  6
Continuous
290
     0
370
    -3
390
F
  0
ENDTAB
  0
TABLE
  2
STYLE
  5
3
330
0
100
AcDbSymbolTable
 70
     4
  0
STYLE
  5
11
330
3
100
AcDbSymbolTableRecord
100
AcDbTextStyleTableRecord
  2
Standard
 70
     0
 40
0.0
 41
1.0
 50
0.0
 71
     0
 42
2.5
  3
txt
  4
bigfont
  0
STYLE
  5
37
330
3
100
AcDbSymbolTableRecord
100
AcDbTextStyleTableRecord
  2
SLDTEXTSTYLE0
 70
     0
 40
0.0
 41
0.7
 50
0.0
 71
     0
 42
0.2
  3
TXT
  4
bigfont
  0
STYLE
  5
39
330
3
100
AcDbSymbolTableRecord
100
AcDbTextStyleTableRecord
  2
SLDTEXTSTYLE1
 70
     0
 40
0.0
 41
0.6416666667
 50
0.0
 71
     0
 42
0.2
  3
TXT
  4
bigfont
  0
STYLE
  5
DB
330
3
100
AcDbSymbolTableRecord
100
AcDbTextStyleTableRecord
  2
SLDTEXTSTYLE2
 70
     0
 40
0.0
 41
0.5833333333
 50
0.0
 71
     0
 42
0.2
  3
TXT
  4
bigfont
  0
ENDTAB
  0
TABLE
  2
VIEW
  5
6
330
0
100
AcDbSymbolTable
 70
     0
  0
ENDTAB
  0
TABLE
  2
UCS
  5
7
330
0
100
AcDbSymbolTable
 70
     0
  0
ENDTAB
  0
TABLE
  2
APPID
  5
9
330
0
100
AcDbSymbolTable
 70
     1
  0
APPID
  5
12
330
9
100
AcDbSymbolTableRecord
100
AcDbRegAppTableRecord
  2
ACAD
 70
     0
  0
ENDTAB
  0
TABLE
  2
DIMSTYLE
  5
A
330
0
100
AcDbSymbolTable
 70
     6
100
AcDbDimStyleTable
  0
DIMSTYLE
105
27
330
A
100
AcDbSymbolTableRecord
100
AcDbDimStyleTableRecord
  2
ISO-25
 70
     0
 41
2.5
 42
0.625
 43
3.75
 44
1.25
 73
     0
 74
     0
 77
     1
 78
     8
140
2.5
141
2.5
143
0.0393700787
147
0.625
171
     3
172
     1
271
     2
272
     2
274
     3
278
    44
283
     0
284
     8
340
11
  0
DIMSTYLE
105
68
102
{ACAD_REACTORS
330
59
330
75
330
89
330
A0
330
B7
330
14A
330
15E
330
184
330
19B
330
1AE
330
211
330
225
330
239
102
}
330
A
100
AcDbSymbolTableRecord
100
AcDbDimStyleTableRecord
  2
SLDDIMSTYLE0
 70
     0
 41
3.0
 44
0.0
 73
     0
 74
     0
 77
     3
 78
    12
140
3.5
147
0.875
173
     1
271
     1
272
     3
284
    12
340
37
341
69
343
69
344
69
  0
DIMSTYLE
105
D7
102
{ACAD_REACTORS
330
CA
102
}
330
A
100
AcDbSymbolTableRecord
100
AcDbDimStyleTableRecord
  2
SLDDIMSTYLE1
 70
     0
  3
<>
 41
3.0
 44
0.0
 78
    12
140
3.5
147
0.875
173
     1
271
     1
272
     3
284
    12
340
37
341
69
343
69
344
69
  0
DIMSTYLE
105
17E
102
{ACAD_REACTORS
330
171
102
}
330
A
100
AcDbSymbolTableRecord
100
AcDbDimStyleTableRecord
  2
SLDDIMSTYLE2
 70
     0
 41
3.0
 44
0.0
 78
    12
140
3.5
147
0.875
173
     1
271
     1
272
     2
284
    12
340
37
341
69
343
69
344
69
  0
DIMSTYLE
105
1C5
330
A
100
AcDbSymbolTableRecord
100
AcDbDimStyleTableRecord
  2
SLDDIMSTYLE3
 70
     0
 41
3.0
 44
0.0
140
3.0
147
0.75
173
     1
271
     0
272
     0
340
11
341
69
343
69
344
69
  0
DIMSTYLE
105
209
102
{ACAD_REACTORS
330
1FF
102
}
330
A
100
AcDbSymbolTableRecord
100
AcDbDimStyleTableRecord
  2
SLDDIMSTYLE4
 70
     0
 41
3.0
 44
0.0
 78
    12
140
3.5
147
0.875
172
     1
173
     1
271
     1
272
     3
284
    12
340
37
341
69
343
69
344
69
  0
ENDTAB
  0
TABLE
  2
BLOCK_RECORD
  5
1
330
0
100
AcDbSymbolTable
 70
    26
  0
BLOCK_RECORD
  5
1F
330
1
100
AcDbSymbolTableRecord
100
AcDbBlockTableRecord
  2
*Model_Space
340
22
  0
BLOCK_RECORD
  5
1B
330
1
100
AcDbSymbolTableRecord
100
AcDbBlockTableRecord
  2
*Paper_Space
340
1E
  0
BLOCK_RECORD
  5
23
330
1
100
AcDbSymbolTableRecord
100
AcDbBlockTableRecord
  2
*Paper_Space0
340
26
  0
BLOCK_RECORD
  5
5B
330
1
100
AcDbSymbolTableRecord
100
AcDbBlockTableRecord
  2
*D1
340
0
  0
BLOCK_RECORD
  5
69
330
1
100
AcDbSymbolTableRecord
100
AcDbBlockTableRecord
  2
_Open30
340
0
102
{BLKREFS
331
60
331
5F
331
6F
331
70
331
7B
331
7A
331
83
331
84
331
90
331
8F
331
98
331
99
331
A8
331
A7
331
AF
331
B0
331
BD
331
BC
331
C4
331
C5
331
CF
331
D8
331
10F
331
111
331
150
331
14F
331
158
331
159
331
164
331
163
331
16B
331
16C
331
176
331
17F
331
18B
331
18A
331
193
331
194
331
1A1
331
1A0
331
1A8
331
1A9
331
1B4
331
1B3
331
1BC
331
1BD
331
204
331
20A
331
20B
331
217
331
216
331
21F
331
220
331
22B
331
22A
331
233
331
234
331
23F
331
23E
331
247
331
248
331
250
331
25A
102
}
  0
BLOCK_RECORD
  5
76
330
1
100
AcDbSymbolTableRecord
100
AcDbBlockTableRecord
  2
*D3
340
0
  0
BLOCK_RECORD
  5
8A
330
1
100
AcDbSymbolTableRecord
100
AcDbBlockTableRecord
  2
*D4
340
0
  0
BLOCK_RECORD
  5
A1
330
1
100
AcDbSymbolTableRecord
100
AcDbBlockTableRecord
  2
*D5
340
0
  0
BLOCK_RECORD
  5
B8
330
1
100
AcDbSymbolTableRecord
100
AcDbBlockTableRecord
  2
*D6
340
0
  0
BLOCK_RECORD
  5
CB
330
1
100
AcDbSymbolTableRecord
100
AcDbBlockTableRecord
  2
*D7
340
0
  0
BLOCK_RECORD
  5
DD
330
1
100
AcDbSymbolTableRecord
100
AcDbBlockTableRecord
  2
SW_CENTERMARKSYMBOL_0
340
0
102
{BLKREFS
331
E8
102
}
  0
BLOCK_RECORD
  5
E9
330
1
100
AcDbSymbolTableRecord
100
AcDbBlockTableRecord
  2
SW_CENTERMARKSYMBOL_1
340
0
102
{BLKREFS
331
F4
102
}
  0
BLOCK_RECORD
  5
F5
330
1
100
AcDbSymbolTableRecord
100
AcDbBlockTableRecord
  2
SW_CENTERMARKSYMBOL_2
340
0
102
{BLKREFS
331
100
102
}
  0
BLOCK_RECORD
  5
101
330
1
100
AcDbSymbolTableRecord
100
AcDbBlockTableRecord
  2
SW_CENTERMARKSYMBOL_3
340
0
102
{BLKREFS
331
10C
102
}
  0
BLOCK_RECORD
  5
14B
330
1
100
AcDbSymbolTableRecord
100
AcDbBlockTableRecord
  2
*D12
340
0
  0
BLOCK_RECORD
  5
15F
330
1
100
AcDbSymbolTableRecord
100
AcDbBlockTableRecord
  2
*D13
340
0
  0
BLOCK_RECORD
  5
172
330
1
100
AcDbSymbolTableRecord
100
AcDbBlockTableRecord
  2
*D14
340
0
  0
BLOCK_RECORD
  5
185
330
1
100
AcDbSymbolTableRecord
100
AcDbBlockTableRecord
  2
*D15
340
0
  0
BLOCK_RECORD
  5
19C
330
1
100
AcDbSymbolTableRecord
100
AcDbBlockTableRecord
  2
*D16
340
0
  0
BLOCK_RECORD
  5
1AF
330
1
100
AcDbSymbolTableRecord
100
AcDbBlockTableRecord
  2
*D17
340
0
  0
BLOCK_RECORD
  5
1C7
330
1
100
AcDbSymbolTableRecord
100
AcDbBlockTableRecord
  2
SW_CENTERMARKSYMBOL_4
340
0
102
{BLKREFS
331
1D2
102
}
  0
BLOCK_RECORD
  5
200
330
1
100
AcDbSymbolTableRecord
100
AcDbBlockTableRecord
  2
*D19
340
0
  0
BLOCK_RECORD
  5
212
330
1
100
AcDbSymbolTableRecord
100
AcDbBlockTableRecord
  2
*D20
340
0
  0
BLOCK_RECORD
  5
226
330
1
100
AcDbSymbolTableRecord
100
AcDbBlockTableRecord
  2
*D21
340
0
  0
BLOCK_RECORD
  5
23A
330
1
100
AcDbSymbolTableRecord
100
AcDbBlockTableRecord
  2
*D22
340
0
  0
BLOCK_RECORD
  5
24D
330
1
100
AcDbSymbolTableRecord
100
AcDbBlockTableRecord
  2
SW_CHAMFER_DIMENSION_0
340
0
102
{BLKREFS
331
256
102
}
  0
BLOCK_RECORD
  5
257
330
1
100
AcDbSymbolTableRecord
100
AcDbBlockTableRecord
  2
SW_CHAMFER_DIMENSION_1
340
0
102
{BLKREFS
331
260
102
}
  0
BLOCK_RECORD
  5
262
330
1
100
AcDbSymbolTableRecord
100
AcDbBlockTableRecord
  2
SW_CENTERMARKSYMBOL_5
340
0
102
{BLKREFS
331
26D
102
}
  0
ENDTAB
  0
ENDSEC
  0
SECTION
  2
BLOCKS
  0
BLOCK
  5
20
330
1F
100
AcDbEntity
  8
0
100
AcDbBlockBegin
  2
*Model_Space
 70
     0
 71
     0
 10
0.0
 20
0.0
 30
0.0
  3
*Model_Space
  1

  0
ENDBLK
  5
21
330
1F
100
AcDbEntity
  8
0
100
AcDbBlockEnd
  0
BLOCK
  5
1C
330
1B
100
AcDbEntity
 67
     1
  8
0
100
AcDbBlockBegin
  2
*Paper_Space
 70
     0
 71
     0
 10
0.0
 20
0.0
 30
0.0
  3
*Paper_Space
  1

  0
ENDBLK
  5
1D
330
1B
100
AcDbEntity
 67
     1
  8
0
100
AcDbBlockEnd
  0
BLOCK
  5
24
330
23
100
AcDbEntity
  8
0
100
AcDbBlockBegin
  2
*Paper_Space0
 70
     0
 71
     0
 10
0.0
 20
0.0
 30
0.0
  3
*Paper_Space0
  1

  0
ENDBLK
  5
25
330
23
100
AcDbEntity
  8
0
100
AcDbBlockEnd
  0
BLOCK
  5
66
330
5B
100
AcDbEntity
  8
0
100
AcDbBlockBegin
  2
*D1
 70
     1
 71
     0
 10
0.0
 20
0.0
 30
0.0
  3
*D1
  1

  0
INSERT
  5
6F
330
5B
100
AcDbEntity
  8
0
  6
Continuous
 62
     7
370
     0
100
AcDbBlockReference
  2
_Open30
 10
38.4594841258
 20
102.4611455252
 30
12.6
 41
3.0
 42
3.0
 50
270.0
  0
INSERT
  5
70
330
5B
100
AcDbEntity
  8
0
  6
Continuous
 62
     7
370
     0
100
AcDbBlockReference
  2
_Open30
 10
38.4594841258
 20
146.4611455252
 30
12.6
 41
3.0
 42
3.0
 50
90.0
  0
LINE
  5
71
330
5B
100
AcDbEntity
  8
0
  6
Continuous
 62
     7
370
     0
100
AcDbLine
 10
102.1863729912
 20
102.4611455252
 30
0.0
 11
37.4594841258
 21
102.4611455252
 31
0.0
  0
LINE
  5
72
330
5B
100
AcDbEntity
  8
0
  6
Continuous
 62
     7
370
     0
100
AcDbLine
 10
102.1863729912
 20
146.4611455252
 30
0.0
 11
37.4594841258
 21
146.4611455252
 31
0.0
  0
LINE
  5
73
330
5B
100
AcDbEntity
  8
0
  6
Continuous
 62
     7
370
     0
100
AcDbLine
 10
38.4594841258
 20
102.4611455252
 30
0.0
 11
38.4594841258
 21
146.4611455252
 31
0.0
  0
MTEXT
  5
74
330
5B
100
AcDbEntity
  8
0
  6
Continuous
 62
     7
370
     0
100
AcDbMText
 10
34.3867570859
 20
122.4255328394
 30
0.0
 40
3.5
 41
0.0
 71
     1
 72
     1
  1
44
  7
SLDTEXTSTYLE0
 11
6.123031769111886E-17
 21
1.0
 31
0.0
 73
     1
 44
1.0
  0
ENDBLK
  5
67
330
5B
100
AcDbEntity
  8
0
100
AcDbBlockEnd
  0
BLOCK
  5
6A
330
69
100
AcDbEntity
  8
0
100
AcDbBlockBegin
  2
_Open30
 70
     0
 71
     0
 10
0.0
 20
0.0
 30
0.0
  3
_Open30
  1

  0
LINE
  5
6C
330
69
100
AcDbEntity
  8
0
  6
ByBlock
 62
     0
370
    -2
100
AcDbLine
 10
-1.0
 20
0.267949
 30
0.0
 11
0.0
 21
0.0
 31
0.0
  0
LINE
  5
6D
330
69
100
AcDbEntity
  8
0
  6
ByBlock
 62
     0
370
    -2
100
AcDbLine
 10
0.0
 20
0.0
 30
0.0
 11
-1.0
 21
-0.267949
 31
0.0
  0
LINE
  5
6E
330
69
100
AcDbEntity
  8
0
  6
ByBlock
 62
     0
370
    -2
100
AcDbLine
 10
0.0
 20
0.0
 30
0.0
 11
-1.0
 21
0.0
 31
0.0
  0
ENDBLK
  5
6B
330
69
100
AcDbEntity
  8
0
100
AcDbBlockEnd
  0
BLOCK
  5
81
330
76
100
AcDbEntity
  8
0
100
AcDbBlockBegin
  2
*D3
 70
     1
 71
     0
 10
0.0
 20
0.0
 30
0.0
  3
*D3
  1

  0
INSERT
  5
83
330
76
100
AcDbEntity
  8
0
  6
Continuous
 62
     7
370
     0
100
AcDbBlockReference
  2
_Open30
 10
48.6676201534
 20
138.9611455252
 30
12.6
 41
3.0
 42
3.0
 50
90.0
  0
INSERT
  5
84
330
76
100
AcDbEntity
  8
0
  6
Continuous
 62
     7
370
     0
100
AcDbBlockReference
  2
_Open30
 10
48.6676201534
 20
123.9611455252
 30
12.6
 41
3.0
 42
3.0
 50
270.0
  0
LINE
  5
85
330
76
100
AcDbEntity
  8
0
  6
Continuous
 62
     7
370
     0
100
AcDbLine
 10
89.6863729912
 20
138.9611455252
 30
0.0
 11
47.6676201534
 21
138.9611455252
 31
0.0
  0
LINE
  5
86
330
76
100
AcDbEntity
  8
0
  6
Continuous
 62
     7
370
     0
100
AcDbLine
 10
89.6863729912
 20
123.9611455252
 30
0.0
 11
47.6676201534
 21
123.9611455252
 31
0.0
  0
LINE
  5
87
330
76
100
AcDbEntity
  8
0
  6
Continuous
 62
     7
370
     0
100
AcDbLine
 10
48.6676201534
 20
138.9611455252
 30
0.0
 11
48.6676201534
 21
123.9611455252
 31
0.0
  0
MTEXT
  5
88
330
76
100
AcDbEntity
  8
0
  6
Continuous
 62
     7
370
     0
100
AcDbMText
 10
44.5948931135
 20
129.4255328394
 30
0.0
 40
3.5
 41
0.0
 71
     1
 72
     1
  1
15
  7
SLDTEXTSTYLE0
 11
-7.044197039909883E-15
 21
1.0
 31
0.0
 73
     1
 44
1.0
  0
ENDBLK
  5
82
330
76
100
AcDbEntity
  8
0
100
AcDbBlockEnd
  0
BLOCK
  5
96
330
8A
100
AcDbEntity
  8
0
100
AcDbBlockBegin
  2
*D4
 70
     1
 71
     0
 10
0.0
 20
0.0
 30
0.0
  3
*D4
  1

  0
INSERT
  5
98
330
8A
100
AcDbEntity
  8
0
  6
Continuous
 62
     7
370
     0
100
AcDbBlockReference
  2
_Open30
 10
48.6676201534
 20
146.4611455252
 30
0.1
 41
3.0
 42
3.0
 50
270.0
  0
INSERT
  5
99
330
8A
100
AcDbEntity
  8
0
  6
Continuous
 62
     7
370
     0
100
AcDbBlockReference
  2
_Open30
 10
48.6676201534
 20
138.9611455252
 30
0.1
 41
3.0
 42
3.0
 50
90.0
  0
LINE
  5
9A
330
8A
100
AcDbEntity
  8
0
  6
Continuous
 62
     7
370
     0
100
AcDbLine
 10
57.1863729912
 20
146.4611455252
 30
0.0
 11
47.6676201534
 21
146.4611455252
 31
0.0
  0
LINE
  5
9B
330
8A
100
AcDbEntity
  8
0
  6
Continuous
 62
     7
370
     0
100
AcDbLine
 10
88.1863729912
 20
138.9611455252
 30
0.0
 11
47.6676201534
 21
138.9611455252
 31
0.0
  0
LINE
  5
9C
330
8A
100
AcDbEntity
  8
0
  6
Continuous
 62
     7
370
     0
100
AcDbLine
 10
48.6676201534
 20
146.4611455252
 30
0.0
 11
48.6676201534
 21
159.991891934
 31
0.0
  0
LINE
  5
9D
330
8A
100
AcDbEntity
  8
0
  6
Continuous
 62
     7
370
     0
100
AcDbLine
 10
48.6676201534
 20
146.4611455252
 30
0.0
 11
48.6676201534
 21
138.9611455252
 31
0.0
  0
LINE
  5
9E
330
8A
100
AcDbEntity
  8
0
  6
Continuous
 62
     7
370
     0
100
AcDbLine
 10
48.6676201534
 20
138.9611455252
 30
0.0
 11
48.6676201534
 21
133.9611455252
 31
0.0
  0
MTEXT
  5
9F
330
8A
100
AcDbEntity
  8
0
  6
Continuous
 62
     7
370
     0
100
AcDbMText
 10
44.5948931135
 20
152.2945514979
 30
0.0
 40
3.5
 41
0.0
 71
     1
 72
     1
  1
7.5
  7
SLDTEXTSTYLE0
 11
-7.044197039909883E-15
 21
1.0
 31
0.0
 73
     1
 44
1.0
  0
ENDBLK
  5
97
330
8A
100
AcDbEntity
  8
0
100
AcDbBlockEnd
  0
BLOCK
  5
AC
330
A1
100
AcDbEntity
  8
0
100
AcDbBlockBegin
  2
*D5
 70
     1
 71
     0
 10
0.0
 20
0.0
 30
0.0
  3
*D5
  1

  0
INSERT
  5
AF
330
A1
100
AcDbEntity
  8
0
  6
Continuous
 62
     7
370
     0
100
AcDbBlockReference
  2
_Open30
 10
103.1863729912
 20
162.5611845795
 30
0.1
 41
3.0
 42
3.0
 50
180.0
  0
INSERT
  5
B0
330
A1
100
AcDbEntity
  8
0
  6
Continuous
 62
     7
370
     0
100
AcDbBlockReference
  2
_Open30
 10
97.1863729912
 20
162.5611845795
 30
0.1
 41
3.0
 42
3.0
 50
360.0
  0
LINE
  5
B1
330
A1
100
AcDbEntity
  8
0
  6
Continuous
 62
     7
370
     0
100
AcDbLine
 10
103.1863729912
 20
145.9611455252
 30
0.0
 11
103.1863729912
 21
163.5611845795
 31
0.0
  0
LINE
  5
B2
330
A1
100
AcDbEntity
  8
0
  6
Continuous
 62
     7
370
     0
100
AcDbLine
 10
97.1863729912
 20
147.9611455252
 30
0.0
 11
97.1863729912
 21
163.5611845795
 31
0.0
  0
LINE
  5
B3
330
A1
100
AcDbEntity
  8
0
  6
Continuous
 62
     7
370
     0
100
AcDbLine
 10
103.1863729912
 20
162.5611845795
 30
0.0
 11
108.1863729912
 21
162.5611845795
 31
0.0
  0
LINE
  5
B4
330
A1
100
AcDbEntity
  8
0
  6
Continuous
 62
     7
370
     0
100
AcDbLine
 10
103.1863729912
 20
162.5611845795
 30
0.0
 11
97.1863729912
 21
162.5611845795
 31
0.0
  0
LINE
  5
B5
330
A1
100
AcDbEntity
  8
0
  6
Continuous
 62
     7
370
     0
100
AcDbLine
 10
97.1863729912
 20
162.5611845795
 30
0.0
 11
92.1863729912
 21
162.5611845795
 31
0.0
  0
MTEXT
  5
B6
330
A1
100
AcDbEntity
  8
0
  6
Continuous
 62
     7
370
     0
100
AcDbMText
 10
99.1685666483
 20
166.6339116194
 30
0.0
 40
3.5
 41
0.0
 71
     1
 72
     1
  1
6
  7
SLDTEXTSTYLE0
 73
     1
 44
1.0
  0
ENDBLK
  5
AD
330
A1
100
AcDbEntity
  8
0
100
AcDbBlockEnd
  0
BLOCK
  5
C2
330
B8
100
AcDbEntity
  8
0
100
AcDbBlockBegin
  2
*D6
 70
     1
 71
     0
 10
0.0
 20
0.0
 30
0.0
  3
*D6
  1

  0
INSERT
  5
C4
330
B8
100
AcDbEntity
  8
0
  6
Continuous
 62
     7
370
     0
100
AcDbBlockReference
  2
_Open30
 10
97.1863729912
 20
162.5611845795
 30
0.1
 41
3.0
 42
3.0
 50
360.0
  0
INSERT
  5
C5
330
B8
100
AcDbEntity
  8
0
  6
Continuous
 62
     7
370
     0
100
AcDbBlockReference
  2
_Open30
 10
64.1863729912
 20
162.5611845795
 30
0.1
 41
3.0
 42
3.0
 50
180.0
  0
LINE
  5
C6
330
B8
100
AcDbEntity
  8
0
  6
Continuous
 62
     7
370
     0
100
AcDbLine
 10
97.1863729912
 20
147.9611455252
 30
0.0
 11
97.1863729912
 21
163.5611845795
 31
0.0
  0
LINE
  5
C7
330
B8
100
AcDbEntity
  8
0
  6
Continuous
 62
     7
370
     0
100
AcDbLine
 10
64.1863729912
 20
147.9611455252
 30
0.0
 11
64.1863729912
 21
163.5611845795
 31
0.0
  0
LINE
  5
C8
330
B8
100
AcDbEntity
  8
0
  6
Continuous
 62
     7
370
     0
100
AcDbLine
 10
97.1863729912
 20
162.5611845795
 30
0.0
 11
64.1863729912
 21
162.5611845795
 31
0.0
  0
MTEXT
  5
C9
330
B8
100
AcDbEntity
  8
0
  6
Continuous
 62
     7
370
     0
100
AcDbMText
 10
78.6507603054
 20
166.6339116194
 30
0.0
 40
3.5
 41
0.0
 71
     1
 72
     1
  1
33
  7
SLDTEXTSTYLE0
 73
     1
 44
1.0
  0
ENDBLK
  5
C3
330
B8
100
AcDbEntity
  8
0
100
AcDbBlockEnd
  0
BLOCK
  5
D5
330
CB
100
AcDbEntity
  8
0
100
AcDbBlockBegin
  2
*D7
 70
     1
 71
     0
 10
0.0
 20
0.0
 30
0.0
  3
*D7
  1

  0
INSERT
  5
D8
330
CB
100
AcDbEntity
  8
0
  6
Continuous
 62
     7
370
     0
100
AcDbBlockReference
  2
_Open30
 10
79.6138652301
 20
113.207260721
 30
0.1
 41
3.0
 42
3.0
 50
49.458043485
  0
LINE
  5
D9
330
CB
100
AcDbEntity
  8
0
  6
Continuous
 62
     7
370
     0
100
AcDbLine
 10
79.6138652301
 20
113.207260721
 30
0.0
 11
58.1426130487
 21
88.1048998678
 31
0.0
  0
LINE
  5
DA
330
CB
100
AcDbEntity
  8
0
  6
Continuous
 62
     7
370
     0
100
AcDbLine
 10
58.1426130487
 20
88.1048998678
 30
0.0
 11
33.0149790547
 21
88.1048998678
 31
0.0
  0
MTEXT
  5
DC
330
CB
100
AcDbEntity
  8
0
  6
Continuous
 62
     7
370
     0
100
AcDbMText
 10
34.6024790547
 20
92.1776269077
 30
0.0
 40
3.5
 41
0.0
 71
     1
 72
     1
  1
2-M4  両側
  7
SLDTEXTSTYLE2
 73
     1
 44
1.0
  0
ENDBLK
  5
D6
330
CB
100
AcDbEntity
  8
0
100
AcDbBlockEnd
  0
BLOCK
  5
DE
330
DD
100
AcDbEntity
  8
0
100
AcDbBlockBegin
  2
SW_CENTERMARKSYMBOL_0
 70
     0
 71
     0
 10
0.0
 20
0.0
 30
0.0
  3
SW_CENTERMARKSYMBOL_0
  1

  0
LINE
  5
E0
330
DD
100
AcDbEntity
  8
0
  6
Continuous
 62
     7
370
     0
100
AcDbLine
 10
0.0
 20
0.0
 30
0.0
 11
0.0
 21
2.5
 31
0.0
  0
LINE
  5
E1
330
DD
100
AcDbEntity
  8
0
  6
Continuous
 62
     7
370
     0
100
AcDbLine
 10
0.0
 20
0.0
 30
0.0
 11
-2.5
 21
0.0
 31
0.0
  0
LINE
  5
E2
330
DD
100
AcDbEntity
  8
0
  6
Continuous
 62
     7
370
     0
100
AcDbLine
 10
0.0
 20
0.0
 30
0.0
 11
0.0
 21
-2.5
 31
0.0
  0
LINE
  5
E3
330
DD
100
AcDbEntity
  8
0
  6
Continuous
 62
     7
370
     0
100
AcDbLine
 10
0.0
 20
0.0
 30
0.0
 11
2.5
 21
0.0
 31
0.0
  0
LINE
  5
E4
330
DD
100
AcDbEntity
  8
0
  6
Continuous
 62
     7
370
     0
100
AcDbLine
 10
0.0
 20
5.0
 30
0.0
 11
0.0
 21
8.0
 31
0.0
  0
LINE
  5
E5
330
DD
100
AcDbEntity
  8
0
  6
Continuous
 62
     7
370
     0
100
AcDbLine
 10
-5.0
 20
0.0
 30
0.0
 11
-8.0
 21
0.0
 31
0.0
  0
LINE
  5
E6
330
DD
100
AcDbEntity
  8
0
  6
Continuous
 62
     7
370
     0
100
AcDbLine
 10
0.0
 20
-5.0
 30
0.0
 11
0.0
 21
-8.0
 31
0.0
  0
LINE
  5
E7
330
DD
100
AcDbEntity
  8
0
  6
Continuous
 62
     7
370
     0
100
AcDbLine
 10
5.0
 20
0.0
 30
0.0
 11
8.0
 21
0.0
 31
0.0
  0
ENDBLK
  5
DF
330
DD
100
AcDbEntity
  8
0
100
AcDbBlockEnd
  0
BLOCK
  5
EA
330
E9
100
AcDbEntity
  8
0
100
AcDbBlockBegin
  2
SW_CENTERMARKSYMBOL_1
 70
     0
 71
     0
 10
0.0
 20
0.0
 30
0.0
  3
SW_CENTERMARKSYMBOL_1
  1

  0
LINE
  5
EC
330
E9
100
AcDbEntity
  8
0
  6
Continuous
 62
     7
370
     0
100
AcDbLine
 10
0.0
 20
0.0
 30
0.0
 11
0.0
 21
2.5
 31
0.0
  0
LINE
  5
ED
330
E9
100
AcDbEntity
  8
0
  6
Continuous
 62
     7
370
     0
100
AcDbLine
 10
0.0
 20
0.0
 30
0.0
 11
-2.5
 21
0.0
 31
0.0
  0
LINE
  5
EE
330
E9
100
AcDbEntity
  8
0
  6
Continuous
 62
     7
370
     0
100
AcDbLine
 10
0.0
 20
0.0
 30
0.0
 11
0.0
 21
-2.5
 31
0.0
  0
LINE
  5
EF
330
E9
100
AcDbEntity
  8
0
  6
Continuous
 62
     7
370
     0
100
AcDbLine
 10
0.0
 20
0.0
 30
0.0
 11
2.5
 21
0.0
 31
0.0
  0
LINE
  5
F0
330
E9
100
AcDbEntity
  8
0
  6
Continuous
 62
     7
370
     0
100
AcDbLine
 10
0.0
 20
5.0
 30
0.0
 11
0.0
 21
8.0
 31
0.0
  0
LINE
  5
F1
330
E9
100
AcDbEntity
  8
0
  6
Continuous
 62
     7
370
     0
100
AcDbLine
 10
-5.0
 20
0.0
 30
0.0
 11
-8.0
 21
0.0
 31
0.0
  0
LINE
  5
F2
330
E9
100
AcDbEntity
  8
0
  6
Continuous
 62
     7
370
     0
100
AcDbLine
 10
0.0
 20
-5.0
 30
0.0
 11
0.0
 21
-8.0
 31
0.0
  0
LINE
  5
F3
330
E9
100
AcDbEntity
  8
0
  6
Continuous
 62
     7
370
     0
100
AcDbLine
 10
5.0
 20
0.0
 30
0.0
 11
8.0
 21
0.0
 31
0.0
  0
ENDBLK
  5
EB
330
E9
100
AcDbEntity
  8
0
100
AcDbBlockEnd
  0
BLOCK
  5
F6
330
F5
100
AcDbEntity
  8
0
100
AcDbBlockBegin
  2
SW_CENTERMARKSYMBOL_2
 70
     0
 71
     0
 10
0.0
 20
0.0
 30
0.0
  3
SW_CENTERMARKSYMBOL_2
  1

  0
LINE
  5
F8
330
F5
100
AcDbEntity
  8
0
  6
Continuous
 62
     7
370
     0
100
AcDbLine
 10
0.0
 20
0.0
 30
0.0
 11
0.0
 21
2.5
 31
0.0
  0
LINE
  5
F9
330
F5
100
AcDbEntity
  8
0
  6
Continuous
 62
     7
370
     0
100
AcDbLine
 10
0.0
 20
0.0
 30
0.0
 11
-2.5
 21
0.0
 31
0.0
  0
LINE
  5
FA
330
F5
100
AcDbEntity
  8
0
  6
Continuous
 62
     7
370
     0
100
AcDbLine
 10
0.0
 20
0.0
 30
0.0
 11
0.0
 21
-2.5
 31
0.0
  0
LINE
  5
FB
330
F5
100
AcDbEntity
  8
0
  6
Continuous
 62
     7
370
     0
100
AcDbLine
 10
0.0
 20
0.0
 30
0.0
 11
2.5
 21
0.0
 31
0.0
  0
LINE
  5
FC
330
F5
100
AcDbEntity
  8
0
  6
Continuous
 62
     7
370
     0
100
AcDbLine
 10
0.0
 20
5.0
 30
0.0
 11
0.0
 21
8.0
 31
0.0
  0
LINE
  5
FD
330
F5
100
AcDbEntity
  8
0
  6
Continuous
 62
     7
370
     0
100
AcDbLine
 10
-5.0
 20
0.0
 30
0.0
 11
-8.0
 21
0.0
 31
0.0
  0
LINE
  5
FE
330
F5
100
AcDbEntity
  8
0
  6
Continuous
 62
     7
370
     0
100
AcDbLine
 10
0.0
 20
-5.0
 30
0.0
 11
0.0
 21
-8.0
 31
0.0
  0
LINE
  5
FF
330
F5
100
AcDbEntity
  8
0
  6
Continuous
 62
     7
370
     0
100
AcDbLine
 10
5.0
 20
0.0
 30
0.0
 11
8.0
 21
0.0
 31
0.0
  0
ENDBLK
  5
F7
330
F5
100
AcDbEntity
  8
0
100
AcDbBlockEnd
  0
BLOCK
  5
102
330
101
100
AcDbEntity
  8
0
100
AcDbBlockBegin
  2
SW_CENTERMARKSYMBOL_3
 70
     0
 71
     0
 10
0.0
 20
0.0
 30
0.0
  3
SW_CENTERMARKSYMBOL_3
  1

  0
LINE
  5
104
330
101
100
AcDbEntity
  8
0
  6
Continuous
 62
     7
370
     0
100
AcDbLine
 10
0.0
 20
0.0
 30
0.0
 11
0.0
 21
2.5
 31
0.0
  0
LINE
  5
105
330
101
100
AcDbEntity
  8
0
  6
Continuous
 62
     7
370
     0
100
AcDbLine
 10
0.0
 20
0.0
 30
0.0
 11
-2.5
 21
0.0
 31
0.0
  0
LINE
  5
106
330
101
100
AcDbEntity
  8
0
  6
Continuous
 62
     7
370
     0
100
AcDbLine
 10
0.0
 20
0.0
 30
0.0
 11
0.0
 21
-2.5
 31
0.0
  0
LINE
  5
107
330
101
100
AcDbEntity
  8
0
  6
Continuous
 62
     7
370
     0
100
AcDbLine
 10
0.0
 20
0.0
 30
0.0
 11
2.5
 21
0.0
 31
0.0
  0
LINE
  5
108
330
101
100
AcDbEntity
  8
0
  6
Continuous
 62
     7
370
     0
100
AcDbLine
 10
0.0
 20
5.0
 30
0.0
 11
0.0
 21
8.0
 31
0.0
  0
LINE
  5
109
330
101
100
AcDbEntity
  8
0
  6
Continuous
 62
     7
370
     0
100
AcDbLine
 10
-5.0
 20
0.0
 30
0.0
 11
-8.0
 21
0.0
 31
0.0
  0
LINE
  5
10A
330
101
100
AcDbEntity
  8
0
  6
Continuous
 62
     7
370
     0
100
AcDbLine
 10
0.0
 20
-5.0
 30
0.0
 11
0.0
 21
-8.0
 31
0.0
  0
LINE
  5
10B
330
101
100
AcDbEntity
  8
0
  6
Continuous
 62
     7
370
     0
100
AcDbLine
 10
5.0
 20
0.0
 30
0.0
 11
8.0
 21
0.0
 31
0.0
  0
ENDBLK
  5
103
330
101
100
AcDbEntity
  8
0
100
AcDbBlockEnd
  0
BLOCK
  5
156
330
14B
100
AcDbEntity
  8
0
100
AcDbBlockBegin
  2
*D12
 70
     1
 71
     0
 10
0.0
 20
0.0
 30
0.0
  3
*D12
  1

  0
INSERT
  5
158
330
14B
100
AcDbEntity
  8
0
  6
Continuous
 62
     7
370
     0
100
AcDbBlockReference
  2
_Open30
 10
42.9983887499
 20
226.5564920273
 30
-17.4
 41
3.0
 42
3.0
 50
90.0
  0
INSERT
  5
159
330
14B
100
AcDbEntity
  8
0
  6
Continuous
 62
     7
370
     0
100
AcDbBlockReference
  2
_Open30
 10
42.9983887499
 20
201.5564920273
 30
-17.4
 41
3.0
 42
3.0
 50
270.0
  0
LINE
  5
15A
330
14B
100
AcDbEntity
  8
0
  6
Continuous
 62
     7
370
     0
100
AcDbLine
 10
57.1863729912
 20
226.5564920273
 30
0.0
 11
41.9983887499
 21
226.5564920273
 31
0.0
  0
LINE
  5
15B
330
14B
100
AcDbEntity
  8
0
  6
Continuous
 62
     7
370
     0
100
AcDbLine
 10
57.1863729912
 20
201.5564920273
 30
0.0
 11
41.9983887499
 21
201.5564920273
 31
0.0
  0
LINE
  5
15C
330
14B
100
AcDbEntity
  8
0
  6
Continuous
 62
     7
370
     0
100
AcDbLine
 10
42.9983887499
 20
226.5564920273
 30
0.0
 11
42.9983887499
 21
201.5564920273
 31
0.0
  0
MTEXT
  5
15D
330
14B
100
AcDbEntity
  8
0
  6
Continuous
 62
     7
370
     0
100
AcDbMText
 10
38.92566171
 20
212.0208793415
 30
0.0
 40
3.5
 41
0.0
 71
     1
 72
     1
  1
25
  7
SLDTEXTSTYLE0
 11
-7.044197039909883E-15
 21
1.0
 31
0.0
 73
     1
 44
1.0
  0
ENDBLK
  5
157
330
14B
100
AcDbEntity
  8
0
100
AcDbBlockEnd
  0
BLOCK
  5
169
330
15F
100
AcDbEntity
  8
0
100
AcDbBlockBegin
  2
*D13
 70
     1
 71
     0
 10
0.0
 20
0.0
 30
0.0
  3
*D13
  1

  0
INSERT
  5
16B
330
15F
100
AcDbEntity
  8
0
  6
Continuous
 62
     7
370
     0
100
AcDbBlockReference
  2
_Open30
 10
103.1863729912
 20
247.0381117878
 30
-17.4
 41
3.0
 42
3.0
 50
360.0
  0
INSERT
  5
16C
330
15F
100
AcDbEntity
  8
0
  6
Continuous
 62
     7
370
     0
100
AcDbBlockReference
  2
_Open30
 10
58.1863729912
 20
247.0381117878
 30
-17.4
 41
3.0
 42
3.0
 50
180.0
  0
LINE
  5
16D
330
15F
100
AcDbEntity
  8
0
  6
Continuous
 62
     7
370
     0
100
AcDbLine
 10
103.1863729912
 20
227.5564920273
 30
0.0
 11
103.1863729912
 21
248.0381117878
 31
0.0
  0
LINE
  5
16E
330
15F
100
AcDbEntity
  8
0
  6
Continuous
 62
     7
370
     0
100
AcDbLine
 10
58.1863729912
 20
227.5564920273
 30
0.0
 11
58.1863729912
 21
248.0381117878
 31
0.0
  0
LINE
  5
16F
330
15F
100
AcDbEntity
  8
0
  6
Continuous
 62
     7
370
     0
100
AcDbLine
 10
103.1863729912
 20
247.0381117878
 30
0.0
 11
58.1863729912
 21
247.0381117878
 31
0.0
  0
MTEXT
  5
170
330
15F
100
AcDbEntity
  8
0
  6
Continuous
 62
     7
370
     0
100
AcDbMText
 10
78.6507603054
 20
251.1108388277
 30
0.0
 40
3.5
 41
0.0
 71
     1
 72
     1
  1
45
  7
SLDTEXTSTYLE0
 73
     1
 44
1.0
  0
ENDBLK
  5
16A
330
15F
100
AcDbEntity
  8
0
100
AcDbBlockEnd
  0
BLOCK
  5
17C
330
172
100
AcDbEntity
  8
0
100
AcDbBlockBegin
  2
*D14
 70
     1
 71
     0
 10
0.0
 20
0.0
 30
0.0
  3
*D14
  1

  0
INSERT
  5
17F
330
172
100
AcDbEntity
  8
0
  6
Continuous
 62
     7
370
     0
100
AcDbBlockReference
  2
_Open30
 10
73.8527549988
 20
206.7556930893
 30
26.6
 41
3.0
 42
3.0
 50
46.893092251
  0
LINE
  5
180
330
172
100
AcDbEntity
  8
0
  6
Continuous
 62
     7
370
     0
100
AcDbLine
 10
73.8527549988
 20
206.7556930893
 30
0.0
 11
58.440877698
 21
190.2901813274
 31
0.0
  0
LINE
  5
181
330
172
100
AcDbEntity
  8
0
  6
Continuous
 62
     7
370
     0
100
AcDbLine
 10
58.440877698
 20
190.2901813274
 30
0.0
 11
45.740088699
 21
190.2901813274
 31
0.0
  0
MTEXT
  5
182
330
172
100
AcDbEntity
  8
0
  6
Continuous
 62
     7
370
     0
100
AcDbMText
 10
47.327588699
 20
194.3629083673
 30
0.0
 40
3.5
 41
0.0
 71
     1
 72
     1
  1
%%c
  7
SLDTEXTSTYLE0
 73
     1
 44
1.0
  0
MTEXT
  5
183
330
172
100
AcDbEntity
  8
0
  6
Continuous
 62
     7
370
     0
100
AcDbMText
 10
51.1946523264
 20
194.3629083673
 30
0.0
 40
3.5
 41
0.0
 71
     1
 72
     1
  1
20
  7
SLDTEXTSTYLE0
 73
     1
 44
1.0
  0
ENDBLK
  5
17D
330
172
100
AcDbEntity
  8
0
100
AcDbBlockEnd
  0
BLOCK
  5
191
330
185
100
AcDbEntity
  8
0
100
AcDbBlockBegin
  2
*D15
 70
     1
 71
     0
 10
0.0
 20
0.0
 30
0.0
  3
*D15
  1

  0
INSERT
  5
193
330
185
100
AcDbEntity
  8
0
  6
Continuous
 62
     7
370
     0
100
AcDbBlockReference
  2
_Open30
 10
113.7388474291
 20
214.5564920273
 30
26.6
 41
3.0
 42
3.0
 50
270.0
  0
INSERT
  5
194
330
185
100
AcDbEntity
  8
0
  6
Continuous
 62
     7
370
     0
100
AcDbBlockReference
  2
_Open30
 10
113.7388474291
 20
213.5564920273
 30
26.6
 41
3.0
 42
3.0
 50
90.0
  0
LINE
  5
195
330
185
100
AcDbEntity
  8
0
  6
Continuous
 62
     7
370
     0
100
AcDbLine
 10
104.1863729912
 20
214.5564920273
 30
0.0
 11
114.7388474291
 21
214.5564920273
 31
0.0
  0
LINE
  5
196
330
185
100
AcDbEntity
  8
0
  6
Continuous
 62
     7
370
     0
100
AcDbLine
 10
104.1863729912
 20
213.5564920273
 30
0.0
 11
114.7388474291
 21
213.5564920273
 31
0.0
  0
LINE
  5
197
330
185
100
AcDbEntity
  8
0
  6
Continuous
 62
     7
370
     0
100
AcDbLine
 10
113.7388474291
 20
214.5564920273
 30
0.0
 11
113.7388474291
 21
219.5564920273
 31
0.0
  0
LINE
  5
198
330
185
100
AcDbEntity
  8
0
  6
Continuous
 62
     7
370
     0
100
AcDbLine
 10
113.7388474291
 20
214.5564920273
 30
0.0
 11
113.7388474291
 21
213.5564920273
 31
0.0
  0
LINE
  5
199
330
185
100
AcDbEntity
  8
0
  6
Continuous
 62
     7
370
     0
100
AcDbLine
 10
113.7388474291
 20
213.5564920273
 30
0.0
 11
113.7388474291
 21
205.110802832
 31
0.0
  0
MTEXT
  5
19A
330
185
100
AcDbEntity
  8
0
  6
Continuous
 62
     7
370
     0
100
AcDbMText
 10
109.6661203892
 20
206.698302832
 30
0.0
 40
3.5
 41
0.0
 71
     1
 72
     1
  1
1
  7
SLDTEXTSTYLE0
 11
-7.044197039909883E-15
 21
1.0
 31
0.0
 73
     1
 44
1.0
  0
ENDBLK
  5
192
330
185
100
AcDbEntity
  8
0
100
AcDbBlockEnd
  0
BLOCK
  5
1A6
330
19C
100
AcDbEntity
  8
0
100
AcDbBlockBegin
  2
*D16
 70
     1
 71
     0
 10
0.0
 20
0.0
 30
0.0
  3
*D16
  1

  0
INSERT
  5
1A8
330
19C
100
AcDbEntity
  8
0
  6
Continuous
 62
     7
370
     0
100
AcDbBlockReference
  2
_Open30
 10
103.1863729912
 20
239.3097766749
 30
-17.4
 41
3.0
 42
3.0
 50
360.0
  0
INSERT
  5
1A9
330
19C
100
AcDbEntity
  8
0
  6
Continuous
 62
     7
370
     0
100
AcDbBlockReference
  2
_Open30
 10
80.6863729912
 20
239.3097766749
 30
-17.4
 41
3.0
 42
3.0
 50
180.0
  0
LINE
  5
1AA
330
19C
100
AcDbEntity
  8
0
  6
Continuous
 62
     7
370
     0
100
AcDbLine
 10
103.1863729912
 20
227.5564920273
 30
0.0
 11
103.1863729912
 21
240.3097766749
 31
0.0
  0
LINE
  5
1AB
330
19C
100
AcDbEntity
  8
0
  6
Continuous
 62
     7
370
     0
100
AcDbLine
 10
80.6863729912
 20
227.5564920273
 30
0.0
 11
80.6863729912
 21
240.3097766749
 31
0.0
  0
LINE
  5
1AC
330
19C
100
AcDbEntity
  8
0
  6
Continuous
 62
     7
370
     0
100
AcDbLine
 10
103.1863729912
 20
239.3097766749
 30
0.0
 11
80.6863729912
 21
239.3097766749
 31
0.0
  0
MTEXT
  5
1AD
330
19C
100
AcDbEntity
  8
0
  6
Continuous
 62
     7
370
     0
100
AcDbMText
 10
87.8636464303
 20
243.3825037148
 30
0.0
 40
3.5
 41
0.0
 71
     1
 72
     1
  1
22.5
  7
SLDTEXTSTYLE0
 73
     1
 44
1.0
  0
ENDBLK
  5
1A7
330
19C
100
AcDbEntity
  8
0
100
AcDbBlockEnd
  0
BLOCK
  5
1BA
330
1AF
100
AcDbEntity
  8
0
100
AcDbBlockBegin
  2
*D17
 70
     1
 71
     0
 10
0.0
 20
0.0
 30
0.0
  3
*D17
  1

  0
INSERT
  5
1BC
330
1AF
100
AcDbEntity
  8
0
  6
Continuous
 62
     7
370
     0
100
AcDbBlockReference
  2
_Open30
 10
123.1571520454
 20
226.5564920273
 30
-17.4
 41
3.0
 42
3.0
 50
270.0
  0
INSERT
  5
1BD
330
1AF
100
AcDbEntity
  8
0
  6
Continuous
 62
     7
370
     0
100
AcDbBlockReference
  2
_Open30
 10
123.1571520454
 20
214.0564920273
 30
-17.4
 41
3.0
 42
3.0
 50
90.0
  0
LINE
  5
1BE
330
1AF
100
AcDbEntity
  8
0
  6
Continuous
 62
     7
370
     0
100
AcDbLine
 10
104.1863729912
 20
226.5564920273
 30
0.0
 11
124.1571520454
 21
226.5564920273
 31
0.0
  0
LINE
  5
1BF
330
1AF
100
AcDbEntity
  8
0
  6
Continuous
 62
     7
370
     0
100
AcDbLine
 10
106.1863729912
 20
214.0564920273
 30
0.0
 11
124.1571520454
 21
214.0564920273
 31
0.0
  0
LINE
  5
1C0
330
1AF
100
AcDbEntity
  8
0
  6
Continuous
 62
     7
370
     0
100
AcDbLine
 10
123.1571520454
 20
226.5564920273
 30
0.0
 11
123.1571520454
 21
231.5564920273
 31
0.0
  0
LINE
  5
1C1
330
1AF
100
AcDbEntity
  8
0
  6
Continuous
 62
     7
370
     0
100
AcDbLine
 10
123.1571520454
 20
226.5564920273
 30
0.0
 11
123.1571520454
 21
214.0564920273
 31
0.0
  0
LINE
  5
1C2
330
1AF
100
AcDbEntity
  8
0
  6
Continuous
 62
     7
370
     0
100
AcDbLine
 10
123.1571520454
 20
214.0564920273
 30
0.0
 11
123.1571520454
 21
209.0564920273
 31
0.0
  0
MTEXT
  5
1C3
330
1AF
100
AcDbEntity
  8
0
  6
Continuous
 62
     7
370
     0
100
AcDbMText
 10
119.0844250055
 20
216.2337654664
 30
0.0
 40
3.5
 41
0.0
 71
     1
 72
     1
  1
12.5
  7
SLDTEXTSTYLE0
 11
-7.044197039909883E-15
 21
1.0
 31
0.0
 73
     1
 44
1.0
  0
ENDBLK
  5
1BB
330
1AF
100
AcDbEntity
  8
0
100
AcDbBlockEnd
  0
BLOCK
  5
1C8
330
1C7
100
AcDbEntity
  8
0
100
AcDbBlockBegin
  2
SW_CENTERMARKSYMBOL_4
 70
     0
 71
     0
 10
0.0
 20
0.0
 30
0.0
  3
SW_CENTERMARKSYMBOL_4
  1

  0
LINE
  5
1CA
330
1C7
100
AcDbEntity
  8
0
  6
Continuous
 62
     7
370
     0
100
AcDbLine
 10
0.0
 20
0.0
 30
0.0
 11
0.0
 21
2.5
 31
0.0
  0
LINE
  5
1CB
330
1C7
100
AcDbEntity
  8
0
  6
Continuous
 62
     7
370
     0
100
AcDbLine
 10
0.0
 20
0.0
 30
0.0
 11
-2.5
 21
0.0
 31
0.0
  0
LINE
  5
1CC
330
1C7
100
AcDbEntity
  8
0
  6
Continuous
 62
     7
370
     0
100
AcDbLine
 10
0.0
 20
0.0
 30
0.0
 11
0.0
 21
-2.5
 31
0.0
  0
LINE
  5
1CD
330
1C7
100
AcDbEntity
  8
0
  6
Continuous
 62
     7
370
     0
100
AcDbLine
 10
0.0
 20
0.0
 30
0.0
 11
2.5
 21
0.0
 31
0.0
  0
LINE
  5
1CE
330
1C7
100
AcDbEntity
  8
0
  6
Continuous
 62
     7
370
     0
100
AcDbLine
 10
0.0
 20
5.0
 30
0.0
 11
0.0
 21
12.5
 31
0.0
  0
LINE
  5
1CF
330
1C7
100
AcDbEntity
  8
0
  6
Continuous
 62
     7
370
     0
100
AcDbLine
 10
-5.0
 20
0.0
 30
0.0
 11
-12.5
 21
0.0
 31
0.0
  0
LINE
  5
1D0
330
1C7
100
AcDbEntity
  8
0
  6
Continuous
 62
     7
370
     0
100
AcDbLine
 10
0.0
 20
-5.0
 30
0.0
 11
0.0
 21
-12.5
 31
0.0
  0
LINE
  5
1D1
330
1C7
100
AcDbEntity
  8
0
  6
Continuous
 62
     7
370
     0
100
AcDbLine
 10
5.0
 20
0.0
 30
0.0
 11
12.5
 21
0.0
 31
0.0
  0
ENDBLK
  5
1C9
330
1C7
100
AcDbEntity
  8
0
100
AcDbBlockEnd
  0
BLOCK
  5
207
330
200
100
AcDbEntity
  8
0
100
AcDbBlockBegin
  2
*D19
 70
     1
 71
     0
 10
0.0
 20
0.0
 30
0.0
  3
*D19
  1

  0
INSERT
  5
20A
330
200
100
AcDbEntity
  8
0
  6
Continuous
 62
     7
370
     0
100
AcDbBlockReference
  2
_Open30
 10
155.1625054781
 20
116.4875500627
 30
30.1
 41
3.0
 42
3.0
 50
42.1495025602
  0
INSERT
  5
20B
330
200
100
AcDbEntity
  8
0
  6
Continuous
 62
     7
370
     0
100
AcDbBlockReference
  2
_Open30
 10
146.2657495524
 20
108.4347409877
 30
30.1
 41
3.0
 42
3.0
 50
222.1495025602
  0
LINE
  5
20C
330
200
100
AcDbEntity
  8
0
  6
Continuous
 62
     7
370
     0
100
AcDbLine
 10
146.2657495524
 20
108.4347409877
 30
0.0
 11
128.160260987
 21
92.0467402553
 31
0.0
  0
LINE
  5
20D
330
200
100
AcDbEntity
  8
0
  6
Continuous
 62
     7
370
     0
100
AcDbLine
 10
155.1625054781
 20
116.4875500627
 30
0.0
 11
146.2657495524
 21
108.4347409877
 31
0.0
  0
LINE
  5
20E
330
200
100
AcDbEntity
  8
0
  6
Continuous
 62
     7
370
     0
100
AcDbLine
 10
128.160260987
 20
92.0467402553
 30
0.0
 11
115.459471988
 21
92.0467402553
 31
0.0
  0
MTEXT
  5
20F
330
200
100
AcDbEntity
  8
0
  6
Continuous
 62
     7
370
     0
100
AcDbMText
 10
117.046971988
 20
96.1194672952
 30
0.0
 40
3.5
 41
0.0
 71
     1
 72
     1
  1
%%c
  7
SLDTEXTSTYLE0
 73
     1
 44
1.0
  0
MTEXT
  5
210
330
200
100
AcDbEntity
  8
0
  6
Continuous
 62
     7
370
     0
100
AcDbMText
 10
120.9140356154
 20
96.1194672952
 30
0.0
 40
3.5
 41
0.0
 71
     1
 72
     1
  1
12
  7
SLDTEXTSTYLE0
 73
     1
 44
1.0
  0
ENDBLK
  5
208
330
200
100
AcDbEntity
  8
0
100
AcDbBlockEnd
  0
BLOCK
  5
21D
330
212
100
AcDbEntity
  8
0
100
AcDbBlockBegin
  2
*D20
 70
     1
 71
     0
 10
0.0
 20
0.0
 30
0.0
  3
*D20
  1

  0
INSERT
  5
21F
330
212
100
AcDbEntity
  8
0
  6
Continuous
 62
     7
370
     0
100
AcDbBlockReference
  2
_Open30
 10
127.6918418742
 20
146.4611455252
 30
-2.6
 41
3.0
 42
3.0
 50
90.0
  0
INSERT
  5
220
330
212
100
AcDbEntity
  8
0
  6
Continuous
 62
     7
370
     0
100
AcDbBlockReference
  2
_Open30
 10
127.6918418742
 20
120.4611455252
 30
-2.6
 41
3.0
 42
3.0
 50
270.0
  0
LINE
  5
221
330
212
100
AcDbEntity
  8
0
  6
Continuous
 62
     7
370
     0
100
AcDbLine
 10
149.7141275152
 20
146.4611455252
 30
0.0
 11
126.6918418742
 21
146.4611455252
 31
0.0
  0
LINE
  5
222
330
212
100
AcDbEntity
  8
0
  6
Continuous
 62
     7
370
     0
100
AcDbLine
 10
149.7141275152
 20
120.4611455252
 30
0.0
 11
126.6918418742
 21
120.4611455252
 31
0.0
  0
LINE
  5
223
330
212
100
AcDbEntity
  8
0
  6
Continuous
 62
     7
370
     0
100
AcDbLine
 10
127.6918418742
 20
146.4611455252
 30
0.0
 11
127.6918418742
 21
120.4611455252
 31
0.0
  0
MTEXT
  5
224
330
212
100
AcDbEntity
  8
0
  6
Continuous
 62
     7
370
     0
100
AcDbMText
 10
123.6191148343
 20
131.4255328394
 30
0.0
 40
3.5
 41
0.0
 71
     1
 72
     1
  1
26
  7
SLDTEXTSTYLE0
 11
-7.044197039909883E-15
 21
1.0
 31
0.0
 73
     1
 44
1.0
  0
ENDBLK
  5
21E
330
212
100
AcDbEntity
  8
0
100
AcDbBlockEnd
  0
BLOCK
  5
231
330
226
100
AcDbEntity
  8
0
100
AcDbBlockBegin
  2
*D21
 70
     1
 71
     0
 10
0.0
 20
0.0
 30
0.0
  3
*D21
  1

  0
INSERT
  5
233
330
226
100
AcDbEntity
  8
0
  6
Continuous
 62
     7
370
     0
100
AcDbBlockReference
  2
_Open30
 10
181.0703225806
 20
146.4611455252
 30
-15.1
 41
3.0
 42
3.0
 50
90.0
  0
INSERT
  5
234
330
226
100
AcDbEntity
  8
0
  6
Continuous
 62
     7
370
     0
100
AcDbBlockReference
  2
_Open30
 10
181.0703225806
 20
104.4611455252
 30
-15.1
 41
3.0
 42
3.0
 50
270.0
  0
LINE
  5
235
330
226
100
AcDbEntity
  8
0
  6
Continuous
 62
     7
370
     0
100
AcDbLine
 10
152.2141275152
 20
146.4611455252
 30
0.0
 11
182.0703225806
 21
146.4611455252
 31
0.0
  0
LINE
  5
236
330
226
100
AcDbEntity
  8
0
  6
Continuous
 62
     7
370
     0
100
AcDbLine
 10
152.2141275152
 20
104.4611455252
 30
0.0
 11
182.0703225806
 21
104.4611455252
 31
0.0
  0
LINE
  5
237
330
226
100
AcDbEntity
  8
0
  6
Continuous
 62
     7
370
     0
100
AcDbLine
 10
181.0703225806
 20
146.4611455252
 30
0.0
 11
181.0703225806
 21
104.4611455252
 31
0.0
  0
MTEXT
  5
238
330
226
100
AcDbEntity
  8
0
  6
Continuous
 62
     7
370
     0
100
AcDbMText
 10
176.9975955407
 20
123.4255328394
 30
0.0
 40
3.5
 41
0.0
 71
     1
 72
     1
  1
42
  7
SLDTEXTSTYLE0
 11
-7.044197039909883E-15
 21
1.0
 31
0.0
 73
     1
 44
1.0
  0
ENDBLK
  5
232
330
226
100
AcDbEntity
  8
0
100
AcDbBlockEnd
  0
BLOCK
  5
245
330
23A
100
AcDbEntity
  8
0
100
AcDbBlockBegin
  2
*D22
 70
     1
 71
     0
 10
0.0
 20
0.0
 30
0.0
  3
*D22
  1

  0
INSERT
  5
247
330
23A
100
AcDbEntity
  8
0
  6
Continuous
 62
     7
370
     0
100
AcDbBlockReference
  2
_Open30
 10
172.6928225833
 20
146.4611455252
 30
7.6
 41
3.0
 42
3.0
 50
90.0
  0
INSERT
  5
248
330
23A
100
AcDbEntity
  8
0
  6
Continuous
 62
     7
370
     0
100
AcDbBlockReference
  2
_Open30
 10
172.6928225833
 20
112.4611455252
 30
7.6
 41
3.0
 42
3.0
 50
270.0
  0
LINE
  5
249
330
23A
100
AcDbEntity
  8
0
  6
Continuous
 62
     7
370
     0
100
AcDbLine
 10
162.7141275152
 20
146.4611455252
 30
0.0
 11
173.6928225833
 21
146.4611455252
 31
0.0
  0
LINE
  5
24A
330
23A
100
AcDbEntity
  8
0
  6
Continuous
 62
     7
370
     0
100
AcDbLine
 10
160.2141275152
 20
112.4611455252
 30
0.0
 11
173.6928225833
 21
112.4611455252
 31
0.0
  0
LINE
  5
24B
330
23A
100
AcDbEntity
  8
0
  6
Continuous
 62
     7
370
     0
100
AcDbLine
 10
172.6928225833
 20
146.4611455252
 30
0.0
 11
172.6928225833
 21
112.4611455252
 31
0.0
  0
MTEXT
  5
24C
330
23A
100
AcDbEntity
  8
0
  6
Continuous
 62
     7
370
     0
100
AcDbMText
 10
168.6200955434
 20
127.4255328394
 30
0.0
 40
3.5
 41
0.0
 71
     1
 72
     1
  1
34
  7
SLDTEXTSTYLE0
 11
-7.044197039909883E-15
 21
1.0
 31
0.0
 73
     1
 44
1.0
  0
ENDBLK
  5
246
330
23A
100
AcDbEntity
  8
0
100
AcDbBlockEnd
  0
BLOCK
  5
24E
330
24D
100
AcDbEntity
  8
0
100
AcDbBlockBegin
  2
SW_CHAMFER_DIMENSION_0
 70
     0
 71
     0
 10
0.0
 20
0.0
 30
0.0
  3
SW_CHAMFER_DIMENSION_0
  1

  0
INSERT
  5
250
330
24D
100
AcDbEntity
  8
0
  6
Continuous
 62
     7
370
     0
100
AcDbBlockReference
  2
_Open30
 10
15.045057631
 20
-13.8320091777
 30
7.6
 41
3.0
 42
3.0
 50
317.4014169139
  0
LINE
  5
251
330
24D
100
AcDbEntity
  8
0
  6
Continuous
 62
     7
370
     0
100
AcDbLine
 10
15.045057631
 20
-13.8320091777
 30
0.0
 11
-1.1676117077
 21
1.0755645727
 31
0.0
  0
LINE
  5
252
330
24D
100
AcDbEntity
  8
0
  6
Continuous
 62
     7
370
     0
100
AcDbLine
 10
-1.1676117077
 20
1.0755645727
 30
0.0
 11
10.1530222694
 21
-9.3526190278
 31
0.0
  0
MTEXT
  5
253
330
24D
100
AcDbEntity
  8
0
  6
Continuous
 62
     7
370
     0
100
AcDbMText
 10
2.7593577772
 20
2.9955053156
 30
0.0
 40
3.5
 41
0.0
 71
     1
 72
     1
  1
2-
  7
SLDTEXTSTYLE0
 11
0.7355035373058477
 21
-0.677520882785605
 31
0.0
 73
     1
 44
1.0
  0
MTEXT
  5
254
330
24D
100
AcDbEntity
  8
0
  6
Continuous
 62
     7
370
     0
100
AcDbMText
 10
5.7537584392
 20
0.2371651077
 30
0.0
 40
3.5
 41
0.0
 71
     1
 72
     1
  1
C
  7
SLDTEXTSTYLE0
 11
0.7355035373058477
 21
-0.677520882785605
 31
0.0
 73
     1
 44
1.0
  0
MTEXT
  5
255
330
24D
100
AcDbEntity
  8
0
  6
Continuous
 62
     7
370
     0
100
AcDbMText
 10
7.2509587702
 20
-1.1420049962
 30
0.0
 40
3.5
 41
0.0
 71
     1
 72
     1
  1
1.5
  7
SLDTEXTSTYLE0
 11
0.7355035373058477
 21
-0.677520882785605
 31
0.0
 73
     1
 44
1.0
  0
ENDBLK
  5
24F
330
24D
100
AcDbEntity
  8
0
100
AcDbBlockEnd
  0
BLOCK
  5
258
330
257
100
AcDbEntity
  8
0
100
AcDbBlockBegin
  2
SW_CHAMFER_DIMENSION_1
 70
     0
 71
     0
 10
0.0
 20
0.0
 30
0.0
  3
SW_CHAMFER_DIMENSION_1
  1

  0
INSERT
  5
25A
330
257
100
AcDbEntity
  8
0
  6
Continuous
 62
     7
370
     0
100
AcDbBlockReference
  2
_Open30
 10
-8.2220455738
 20
9.2596995232
 30
7.6
 41
3.0
 42
3.0
 50
131.5927894064
  0
LINE
  5
25B
330
257
100
AcDbEntity
  8
0
  6
Continuous
 62
     7
370
     0
100
AcDbLine
 10
-8.2220455738
 20
9.2596995232
 30
0.0
 11
-1.0555010554
 21
1.185779816
 31
0.0
  0
LINE
  5
25C
330
257
100
AcDbEntity
  8
0
  6
Continuous
 62
     7
370
     0
100
AcDbLine
 10
-1.0555010554
 20
1.185779816
 30
0.0
 11
6.4692757458
 21
-7.2677653231
 31
0.0
  0
MTEXT
  5
25D
330
257
100
AcDbEntity
  8
0
  6
Continuous
 62
     7
370
     0
100
AcDbMText
 10
3.0421147501
 20
2.7078857593
 30
0.0
 40
3.5
 41
0.0
 71
     1
 72
     1
  1
2-
  7
SLDTEXTSTYLE0
 11
0.6648826641126434
 21
-0.7469478180987437
 31
0.0
 73
     1
 44
1.0
  0
MTEXT
  5
25E
330
257
100
AcDbEntity
  8
0
  6
Continuous
 62
     7
370
     0
100
AcDbMText
 10
5.7490019214
 20
-0.3331071491
 30
0.0
 40
3.5
 41
0.0
 71
     1
 72
     1
  1
C
  7
SLDTEXTSTYLE0
 11
0.6648826641126434
 21
-0.7469478180987437
 31
0.0
 73
     1
 44
1.0
  0
MTEXT
  5
25F
330
257
100
AcDbEntity
  8
0
  6
Continuous
 62
     7
370
     0
100
AcDbMText
 10
7.102445507
 20
-1.8536036032
 30
0.0
 40
3.5
 41
0.0
 71
     1
 72
     1
  1
6
  7
SLDTEXTSTYLE0
 11
0.6648826641126434
 21
-0.7469478180987437
 31
0.0
 73
     1
 44
1.0
  0
ENDBLK
  5
259
330
257
100
AcDbEntity
  8
0
100
AcDbBlockEnd
  0
BLOCK
  5
263
330
262
100
AcDbEntity
  8
0
100
AcDbBlockBegin
  2
SW_CENTERMARKSYMBOL_5
 70
     0
 71
     0
 10
0.0
 20
0.0
 30
0.0
  3
SW_CENTERMARKSYMBOL_5
  1

  0
LINE
  5
265
330
262
100
AcDbEntity
  8
0
  6
Continuous
 62
     7
370
     0
100
AcDbLine
 10
0.0
 20
0.0
 30
0.0
 11
0.0
 21
2.5
 31
0.0
  0
LINE
  5
266
330
262
100
AcDbEntity
  8
0
  6
Continuous
 62
     7
370
     0
100
AcDbLine
 10
0.0
 20
0.0
 30
0.0
 11
-2.5
 21
0.0
 31
0.0
  0
LINE
  5
267
330
262
100
AcDbEntity
  8
0
  6
Continuous
 62
     7
370
     0
100
AcDbLine
 10
0.0
 20
0.0
 30
0.0
 11
0.0
 21
-2.5
 31
0.0
  0
LINE
  5
268
330
262
100
AcDbEntity
  8
0
  6
Continuous
 62
     7
370
     0
100
AcDbLine
 10
0.0
 20
0.0
 30
0.0
 11
2.5
 21
0.0
 31
0.0
  0
LINE
  5
269
330
262
100
AcDbEntity
  8
0
  6
Continuous
 62
     7
370
     0
100
AcDbLine
 10
0.0
 20
5.0
 30
0.0
 11
0.0
 21
8.5
 31
0.0
  0
LINE
  5
26A
330
262
100
AcDbEntity
  8
0
  6
Continuous
 62
     7
370
     0
100
AcDbLine
 10
-5.0
 20
0.0
 30
0.0
 11
-8.5
 21
0.0
 31
0.0
  0
LINE
  5
26B
330
262
100
AcDbEntity
  8
0
  6
Continuous
 62
     7
370
     0
100
AcDbLine
 10
0.0
 20
-5.0
 30
0.0
 11
0.0
 21
-8.5
 31
0.0
  0
LINE
  5
26C
330
262
100
AcDbEntity
  8
0
  6
Continuous
 62
     7
370
     0
100
AcDbLine
 10
5.0
 20
0.0
 30
0.0
 11
8.5
 21
0.0
 31
0.0
  0
ENDBLK
  5
264
330
262
100
AcDbEntity
  8
0
100
AcDbBlockEnd
  0
ENDSEC
  0
SECTION
  2
ENTITIES
  0
LINE
  5
2F
330
1F
100
AcDbEntity
  8
0
  6
Continuous
 62
     7
370
     0
100
AcDbLine
 10
20.2604743903
 20
285.0
 30
0.0
 11
196.7604743903
 21
285.0
 31
0.0
  0
LINE
  5
30
330
1F
100
AcDbEntity
  8
0
  6
Continuous
 62
     7
370
     0
100
AcDbLine
 10
20.2604743903
 20
285.0
 30
0.0
 11
20.2604743903
 21
10.0
 31
0.0
  0
LINE
  5
31
330
1F
100
AcDbEntity
  8
0
  6
Continuous
 62
     7
370
     0
100
AcDbLine
 10
20.2604743903
 20
10.0
 30
0.0
 11
196.7604743903
 21
10.0
 31
0.0
  0
LINE
  5
32
330
1F
100
AcDbEntity
  8
0
  6
Continuous
 62
     7
370
     0
100
AcDbLine
 10
196.7604743903
 20
285.0
 30
0.0
 11
196.7604743903
 21
10.0
 31
0.0
  0
LINE
  5
33
330
1F
100
AcDbEntity
  8
0
  6
Continuous
 62
     7
370
     0
100
AcDbLine
 10
127.0104743903
 20
50.75
 30
0.0
 11
196.7604743903
 21
50.75
 31
0.0
  0
LINE
  5
34
330
1F
100
AcDbEntity
  8
0
  6
Continuous
 62
     7
370
     0
100
AcDbLine
 10
127.0104743903
 20
50.75
 30
0.0
 11
127.0104743903
 21
10.0
 31
0.0
  0
LINE
  5
35
330
1F
100
AcDbEntity
  8
0
  6
Continuous
 62
     7
370
     0
100
AcDbLine
 10
127.0104743903
 20
22.75
 30
0.0
 11
196.7604743903
 21
22.75
 31
0.0
  0
LINE
  5
36
330
1F
100
AcDbEntity
  8
0
  6
Continuous
 62
     7
370
     0
100
AcDbLine
 10
127.0104743903
 20
36.75
 30
0.0
 11
196.7604743903
 21
36.75
 31
0.0
  0
MTEXT
  5
38
330
1F
100
AcDbEntity
  8
0
  6
Continuous
 62
     7
370
     0
100
AcDbMText
 10
150.0262585003
 20
29.8861652342
 30
0.0
 40
4.2333333333
 41
0.0
 71
     1
 72
     1
  1
N01861-407
  7
SLDTEXTSTYLE0
 73
     1
 44
1.0
  0
MTEXT
  5
3A
330
1F
100
AcDbEntity
  8
0
  6
Continuous
 62
     7
370
     0
100
AcDbMText
 10
137.7168639212
 20
43.4099790257
 30
0.0
 40
4.2333333333
 41
0.0
 71
     1
 72
     1
  1
12-20 T Connecter #2
  7
SLDTEXTSTYLE1
 73
     1
 44
1.0
  0
MTEXT
  5
3B
330
1F
100
AcDbEntity
  8
0
  6
Continuous
 62
     7
370
     0
100
AcDbMText
 10
155.6552708366
 20
16.2918260795
 30
0.0
 40
4.2333333333
 41
0.0
 71
     1
 72
     1
  1
131116
  7
SLDTEXTSTYLE0
 73
     1
 44
1.0
  0
LINE
  5
3C
330
1F
100
AcDbEntity
  8
0
  6
Continuous
 62
     7
370
    30
100
AcDbLine
 10
103.1863738853
 20
144.9611459723
 30
0.0
 11
58.1863720972
 21
144.9611459723
 31
0.0
  0
LINE
  5
3D
330
1F
100
AcDbEntity
  8
0
  6
Continuous
 62
     7
370
    30
100
AcDbLine
 10
103.1863738853
 20
144.9611459723
 30
0.0
 11
103.1863738853
 21
108.4611455774
 31
0.0
  0
LINE
  5
3E
330
1F
100
AcDbEntity
  8
0
  6
Continuous
 62
     7
370
    30
100
AcDbLine
 10
58.1863720972
 20
108.4611455774
 30
0.0
 11
103.1863738853
 21
108.4611455774
 31
0.0
  0
LINE
  5
3F
330
1F
100
AcDbEntity
  8
0
  6
Continuous
 62
     7
370
    30
100
AcDbLine
 10
58.1863720972
 20
144.9611459723
 30
0.0
 11
58.1863720972
 21
108.4611455774
 31
0.0
  0
CIRCLE
  5
40
330
1F
100
AcDbEntity
  8
0
  6
Continuous
 62
     7
370
    30
100
AcDbCircle
 10
97.1863729912
 20
138.9611455252
 30
0.0
 40
5.5
  0
CIRCLE
  5
41
330
1F
100
AcDbEntity
  8
0
  6
Continuous
 62
     7
370
    30
100
AcDbCircle
 10
64.1863729912
 20
138.9611455252
 30
0.0
 40
5.500000000000014
  0
CIRCLE
  5
42
330
1F
100
AcDbEntity
  8
0
  6
Continuous
 62
     7
370
    30
100
AcDbCircle
 10
97.1863729912
 20
123.9611455252
 30
0.0
 40
5.5
  0
CIRCLE
  5
43
330
1F
100
AcDbEntity
  8
0
  6
Continuous
 62
     7
370
    30
100
AcDbCircle
 10
64.1863729912
 20
123.9611455252
 30
0.0
 40
5.500000000000014
  0
CIRCLE
  5
44
330
1F
100
AcDbEntity
  8
0
  6
Continuous
 62
     7
370
    30
100
AcDbCircle
 10
80.6863729912
 20
114.4611455252
 30
0.0
 40
1.649999999999992
  0
LINE
  5
45
330
1F
100
AcDbEntity
  8
0
  6
Continuous
 62
     7
370
    30
100
AcDbLine
 10
103.1863738853
 20
108.4611455774
 30
0.0
 11
103.1863738853
 21
102.4611455252
 31
0.0
  0
LINE
  5
46
330
1F
100
AcDbEntity
  8
0
  6
Continuous
 62
     7
370
    30
100
AcDbLine
 10
103.1863738853
 20
102.4611455252
 30
0.0
 11
58.1863720972
 21
102.4611455252
 31
0.0
  0
LINE
  5
47
330
1F
100
AcDbEntity
  8
0
  6
Continuous
 62
     7
370
    30
100
AcDbLine
 10
58.1863720972
 20
102.4611455252
 30
0.0
 11
58.1863720972
 21
108.4611455774
 31
0.0
  0
LINE
  5
48
330
1F
100
AcDbEntity
  8
0
  6
Continuous
 62
     7
370
    30
100
AcDbLine
 10
58.1863720972
 20
146.4611452868
 30
0.0
 11
103.1863738853
 21
146.4611452868
 31
0.0
  0
LINE
  5
49
330
1F
100
AcDbEntity
  8
0
  6
Continuous
 62
     7
370
    30
100
AcDbLine
 10
103.1863738853
 20
146.4611452868
 30
0.0
 11
103.1863738853
 21
144.9611459723
 31
0.0
  0
LINE
  5
4A
330
1F
100
AcDbEntity
  8
0
  6
Continuous
 62
     7
370
    30
100
AcDbLine
 10
58.1863720972
 20
144.9611459723
 30
0.0
 11
58.1863720972
 21
146.4611452868
 31
0.0
  0
CIRCLE
  5
4B
330
1F
100
AcDbEntity
  8
0
  6
Continuous
 62
     7
370
    30
100
AcDbCircle
 10
64.1863729912
 20
138.9611455252
 30
0.0
 40
3.25
  0
CIRCLE
  5
4C
330
1F
100
AcDbEntity
  8
0
  6
Continuous
 62
     7
370
    30
100
AcDbCircle
 10
64.1863729912
 20
123.9611455252
 30
0.0
 40
3.25
  0
CIRCLE
  5
4D
330
1F
100
AcDbEntity
  8
0
  6
Continuous
 62
     7
370
    30
100
AcDbCircle
 10
97.1863729912
 20
123.9611455252
 30
0.0
 40
3.250000000000014
  0
CIRCLE
  5
4E
330
1F
100
AcDbEntity
  8
0
  6
Continuous
 62
     7
370
    30
100
AcDbCircle
 10
97.1863729912
 20
138.9611455252
 30
0.0
 40
3.250000000000014
  0
CIRCLE
  5
4F
330
1F
100
AcDbEntity
  8
0
  6
Continuous
 62
     7
370
    30
100
AcDbCircle
 10
97.1863729912
 20
138.9611455252
 30
0.0
 40
2.5
  0
CIRCLE
  5
50
330
1F
100
AcDbEntity
  8
0
  6
Continuous
 62
     7
370
    30
100
AcDbCircle
 10
64.1863729912
 20
138.9611455252
 30
0.0
 40
2.5
  0
CIRCLE
  5
51
330
1F
100
AcDbEntity
  8
0
  6
Continuous
 62
     7
370
    30
100
AcDbCircle
 10
97.1863729912
 20
123.9611455252
 30
0.0
 40
2.5
  0
CIRCLE
  5
52
330
1F
100
AcDbEntity
  8
0
  6
Continuous
 62
     7
370
    30
100
AcDbCircle
 10
64.1863729912
 20
123.9611455252
 30
0.0
 40
2.5
  0
LINE
  5
53
330
1F
100
AcDbEntity
  8
0
  6
HIDDEN
 62
     7
370
     0
100
AcDbLine
 10
70.6988808135
 20
120.4611455252
 30
0.0
 11
90.673865169
 21
120.4611455252
 31
0.0
  0
LINE
  5
54
330
1F
100
AcDbEntity
  8
0
  6
HIDDEN
 62
     7
370
     0
100
AcDbLine
 10
103.1863738853
 20
106.4820152571
 30
0.0
 11
58.1863720972
 21
106.4820152571
 31
0.0
  0
LINE
  5
55
330
1F
100
AcDbEntity
  8
0
  6
HIDDEN
 62
     7
370
     0
100
AcDbLine
 10
58.1863720972
 20
104.4611456202
 30
0.0
 11
103.1863738853
 21
104.4611456202
 31
0.0
  0
LINE
  5
56
330
1F
100
AcDbEntity
  8
0
  6
HIDDEN
 62
     7
370
     0
100
AcDbLine
 10
58.1863720972
 20
118.4402753463
 30
0.0
 11
103.1863738853
 21
118.4402753463
 31
0.0
  0
LINE
  5
57
330
1F
100
AcDbEntity
  8
0
  6
HIDDEN
 62
     7
370
     0
100
AcDbLine
 10
70.6988808135
 20
120.4611455252
 30
0.0
 11
70.6988808769
 21
146.4611452868
 31
0.0
  0
LINE
  5
58
330
1F
100
AcDbEntity
  8
0
  6
HIDDEN
 62
     7
370
     0
100
AcDbLine
 10
90.6738651056
 20
146.4611452868
 30
0.0
 11
90.673865169
 21
120.4611455252
 31
0.0
  0
DIMENSION
  5
59
330
1F
100
AcDbEntity
  8
0
  6
Continuous
 62
     7
370
     0
100
AcDbDimension
  2
*D1
 10
38.4594841258
 20
146.4611455252
 30
0.0
 11
38.4594841258
 21
124.4611455252
 31
0.0
 70
   160
 71
     1
 42
44.0
  3
SLDDIMSTYLE0
100
AcDbAlignedDimension
 13
103.1863729912
 23
102.4611455252
 33
0.0
 14
103.1863729912
 24
146.4611455252
 34
0.0
 50
90.0
100
AcDbRotatedDimension
1001
ACAD
1000
DSTYLE
1002
{
1070
    77
1070
     3
1070
   143
1040
0.0393700787
1070
    41
1040
3.0
1070
    44
1040
1.0
1070
    42
1040
1.0
1070
   147
1040
1.524
1070
    73
1070
     0
1070
    74
1070
     0
1070
   140
1040
3.5
1070
   284
1070
    12
1070
    78
1070
    12
1002
}
  0
DIMENSION
  5
75
330
1F
100
AcDbEntity
  8
0
  6
Continuous
 62
     7
370
     0
100
AcDbDimension
  2
*D3
 10
48.6676201534
 20
123.9611455252
 30
0.0
 11
48.6676201534
 21
131.4611455252
 31
0.0
 70
   160
 71
     1
 42
15.0
  3
SLDDIMSTYLE0
100
AcDbAlignedDimension
 13
97.1863729912
 23
138.9611455252
 33
0.0
 14
97.1863729912
 24
123.9611455252
 34
0.0
 50
90.0
100
AcDbRotatedDimension
1001
ACAD
1000
DSTYLE
1002
{
1070
    77
1070
     3
1070
   143
1040
0.0393700787
1070
    41
1040
3.0
1070
    44
1040
1.0
1070
    42
1040
1.0
1070
   147
1040
1.524
1070
    73
1070
     0
1070
    74
1070
     0
1070
   140
1040
3.5
1070
   284
1070
    12
1070
    78
1070
    12
1002
}
  0
DIMENSION
  5
89
330
1F
100
AcDbEntity
  8
0
  6
Continuous
 62
     7
370
     0
100
AcDbDimension
  2
*D4
 10
48.6676201534
 20
138.9611455252
 30
0.0
 11
48.6676201534
 21
155.349471716
 31
0.0
 70
   160
 71
     1
 42
7.5
  3
SLDDIMSTYLE0
100
AcDbAlignedDimension
 13
58.1863729912
 23
146.4611455252
 33
0.0
 14
89.1863729912
 24
138.9611455252
 34
0.0
 50
90.0
100
AcDbRotatedDimension
1001
ACAD
1000
DSTYLE
1002
{
1070
    77
1070
     3
1070
   143
1040
0.0393700787
1070
    41
1040
3.0
1070
    44
1040
1.0
1070
    42
1040
1.0
1070
   147
1040
1.524
1070
    73
1070
     0
1070
    74
1070
     0
1070
   140
1040
3.5
1070
   284
1070
    12
1070
    78
1070
    12
1002
}
  0
DIMENSION
  5
A0
330
1F
100
AcDbEntity
  8
0
  6
Continuous
 62
     7
370
     0
100
AcDbDimension
  2
*D5
 10
97.1863729912
 20
162.5611845795
 30
0.0
 11
100.1863729912
 21
162.5611845795
 31
0.0
 70
   160
 71
     1
 42
6.0
  3
SLDDIMSTYLE0
100
AcDbAlignedDimension
 13
103.1863729912
 23
144.9611455252
 33
0.0
 14
97.1863729912
 24
146.9611455252
 34
0.0
100
AcDbRotatedDimension
1001
ACAD
1000
DSTYLE
1002
{
1070
    77
1070
     3
1070
   143
1040
0.0393700787
1070
    41
1040
3.0
1070
    44
1040
1.0
1070
    42
1040
1.0
1070
   147
1040
1.524
1070
    73
1070
     0
1070
    74
1070
     0
1070
   140
1040
3.5
1070
   284
1070
    12
1070
    78
1070
    12
1002
}
  0
DIMENSION
  5
B7
330
1F
100
AcDbEntity
  8
0
  6
Continuous
 62
     7
370
     0
100
AcDbDimension
  2
*D6
 10
64.1863729912
 20
162.5611845795
 30
0.0
 11
80.6863729912
 21
162.5611845795
 31
0.0
 70
   160
 71
     1
 42
33.0
  3
SLDDIMSTYLE0
100
AcDbAlignedDimension
 13
97.1863729912
 23
146.9611455252
 33
0.0
 14
64.1863729912
 24
146.9611455252
 34
0.0
100
AcDbRotatedDimension
1001
ACAD
1000
DSTYLE
1002
{
1070
    77
1070
     3
1070
   143
1040
0.0393700787
1070
    41
1040
3.0
1070
    44
1040
1.0
1070
    42
1040
1.0
1070
   147
1040
1.524
1070
    73
1070
     0
1070
    74
1070
     0
1070
   140
1040
3.5
1070
   284
1070
    12
1070
    78
1070
    12
1002
}
  0
DIMENSION
  5
CA
330
1F
100
AcDbEntity
  8
0
  6
Continuous
 62
     7
370
     0
100
AcDbDimension
  2
*D7
 10
81.7588807524
 20
115.7150303295
 30
0.0
 11
44.7850460517
 21
90.1405125536
 31
0.0
 70
   163
  1
2-M4  両側
 71
     1
 42
3.3
  3
SLDDIMSTYLE1
100
AcDbDiametricDimension
 15
79.6138652301
 25
113.207260721
 35
0.0
 40
0.0
1001
ACAD
1000
DSTYLE
1002
{
1070
    77
1070
     0
1070
   143
1040
0.0393700787
1070
    41
1040
3.0
1070
    44
1040
1.0
1070
    42
1040
1.0
1070
   147
1040
1.524
1070
    73
1070
     1
1070
    74
1070
     1
1070
   140
1040
3.5
1070
   284
1070
    12
1070
    78
1070
    12
1002
}
  0
INSERT
  5
E8
330
1F
100
AcDbEntity
  8
0
  6
Continuous
 62
     7
370
     0
100
AcDbBlockReference
  2
SW_CENTERMARKSYMBOL_0
 10
97.1863729912
 20
138.9611455252
 30
0.0
  0
INSERT
  5
F4
330
1F
100
AcDbEntity
  8
0
  6
Continuous
 62
     7
370
     0
100
AcDbBlockReference
  2
SW_CENTERMARKSYMBOL_1
 10
97.1863729912
 20
123.9611455252
 30
0.0
  0
INSERT
  5
100
330
1F
100
AcDbEntity
  8
0
  6
Continuous
 62
     7
370
     0
100
AcDbBlockReference
  2
SW_CENTERMARKSYMBOL_2
 10
64.1863729912
 20
138.9611455252
 30
0.0
  0
INSERT
  5
10C
330
1F
100
AcDbEntity
  8
0
  6
Continuous
 62
     7
370
     0
100
AcDbBlockReference
  2
SW_CENTERMARKSYMBOL_3
 10
64.1863729912
 20
123.9611455252
 30
0.0
  0
LINE
  5
10D
330
1F
100
AcDbEntity
  8
0
  6
CENTER
 62
     7
370
     0
100
AcDbLine
 10
80.6863729912
 20
156.1357899697
 30
0.0
 11
80.6863729912
 21
91.4611164713
 31
0.0
  0
LINE
  5
10E
330
1F
100
AcDbEntity
  8
0
  6
Continuous
 62
     7
370
     0
100
AcDbLine
 10
85.6863729912
 20
154.1357899697
 30
0.0
 11
80.6863729912
 21
154.1357899697
 31
0.0
  0
INSERT
  5
10F
330
1F
100
AcDbEntity
  8
0
  6
Continuous
 62
     7
370
     0
100
AcDbBlockReference
  2
_Open30
 10
80.6863729912
 20
154.1357899697
 30
0.0
 41
3.0
 42
3.0
 50
180.0
  0
LINE
  5
110
330
1F
100
AcDbEntity
  8
0
  6
Continuous
 62
     7
370
     0
100
AcDbLine
 10
85.6863729912
 20
93.4611164713
 30
0.0
 11
80.6863729912
 21
93.4611164713
 31
0.0
  0
INSERT
  5
111
330
1F
100
AcDbEntity
  8
0
  6
Continuous
 62
     7
370
     0
100
AcDbBlockReference
  2
_Open30
 10
80.6863729912
 20
93.4611164713
 30
0.0
 41
3.0
 42
3.0
 50
180.0
  0
MTEXT
  5
112
330
1F
100
AcDbEntity
  8
0
  6
Continuous
 62
     7
100
AcDbMText
 10
82.1165448446
 20
159.7772593453
 30
0.0
 40
5.6444444444
 41
0.0
 71
     1
 72
     1
  1
A
  7
SLDTEXTSTYLE0
 73
     1
 44
1.0
  0
MTEXT
  5
113
330
1F
100
AcDbEntity
  8
0
  6
Continuous
 62
     7
100
AcDbMText
 10
82.1165448446
 20
99.1025858469
 30
0.0
 40
5.6444444444
 41
0.0
 71
     1
 72
     1
  1
A
  7
SLDTEXTSTYLE0
 73
     1
 44
1.0
  0
CIRCLE
  5
114
330
1F
100
AcDbEntity
  8
0
  6
Continuous
 62
     7
370
     0
100
AcDbCircle
 10
80.6863729912
 20
114.4611455252
 30
0.0
 40
2.000000094994903
  0
LINE
  5
115
330
1F
100
AcDbEntity
  8
0
  6
HIDDEN
 62
     7
370
     0
100
AcDbLine
 10
78.6863728963
 20
114.4611456295
 30
0.0
 11
78.7183540478
 21
114.813483586
 31
0.0
  0
LINE
  5
116
330
1F
100
AcDbEntity
  8
0
  6
HIDDEN
 62
     7
370
     0
100
AcDbLine
 10
78.7221291639
 20
114.241116946
 30
0.0
 11
78.6863728963
 21
114.4611456295
 31
0.0
  0
ARC
  5
117
330
1F
100
AcDbEntity
  8
0
  6
HIDDEN
 62
     7
370
     0
100
AcDbCircle
 10
81.0931723672
 20
114.3972197019
 30
0.0
 40
1.592387005807351
100
AcDbArc
 50
336.9210138944
 51
4.5726627061
  0
LINE
  5
118
330
1F
100
AcDbEntity
  8
0
  6
CENTERX2
 62
     7
370
     0
100
AcDbLine
 10
80.6863729912
 20
118.4611455252
 30
0.0
 11
80.6863729912
 21
148.4611455252
 31
0.0
  0
LINE
  5
119
330
1F
100
AcDbEntity
  8
0
  6
CENTERX2
 62
     7
370
     0
100
AcDbLine
 10
56.1863729912
 20
112.4611455252
 30
0.0
 11
105.1863729912
 21
112.4611455252
 31
0.0
  0
LINE
  5
11A
330
1F
100
AcDbEntity
  8
0
  6
Continuous
 62
     7
370
    30
100
AcDbLine
 10
103.1863738853
 20
214.5564920511
 30
0.0
 11
90.673865169
 21
214.5564920273
 31
0.0
  0
ARC
  5
11B
330
1F
100
AcDbEntity
  8
0
  6
Continuous
 62
     7
370
    30
100
AcDbCircle
 10
80.6863729912
 20
214.0564920273
 30
0.0
 40
10.0
100
AcDbArc
 50
2.8659839826
 51
177.1340160174
  0
LINE
  5
11C
330
1F
100
AcDbEntity
  8
0
  6
Continuous
 62
     7
370
    30
100
AcDbLine
 10
70.6988808135
 20
214.5564920273
 30
0.0
 11
58.1863720972
 21
214.5564920511
 31
0.0
  0
LINE
  5
11D
330
1F
100
AcDbEntity
  8
0
  6
Continuous
 62
     7
370
    30
100
AcDbLine
 10
58.1863720972
 20
225.0564919677
 30
0.0
 11
58.1863720972
 21
214.5564920511
 31
0.0
  0
LINE
  5
11E
330
1F
100
AcDbEntity
  8
0
  6
Continuous
 62
     7
370
    30
100
AcDbLine
 10
103.1863738853
 20
225.0564919677
 30
0.0
 11
58.1863720972
 21
225.0564919677
 31
0.0
  0
LINE
  5
11F
330
1F
100
AcDbEntity
  8
0
  6
Continuous
 62
     7
370
    30
100
AcDbLine
 10
103.1863738853
 20
214.5564920511
 30
0.0
 11
103.1863738853
 21
225.0564919677
 31
0.0
  0
LINE
  5
120
330
1F
100
AcDbEntity
  8
0
  6
Continuous
 62
     7
370
    30
100
AcDbLine
 10
58.1863720972
 20
226.5564922136
 30
0.0
 11
103.1863738853
 21
226.5564922136
 31
0.0
  0
LINE
  5
121
330
1F
100
AcDbEntity
  8
0
  6
Continuous
 62
     7
370
    30
100
AcDbLine
 10
58.1863720972
 20
225.0564919677
 30
0.0
 11
58.1863720972
 21
226.5564922136
 31
0.0
  0
LINE
  5
122
330
1F
100
AcDbEntity
  8
0
  6
Continuous
 62
     7
370
    30
100
AcDbLine
 10
103.1863738853
 20
226.5564922136
 30
0.0
 11
103.1863738853
 21
225.0564919677
 31
0.0
  0
LINE
  5
123
330
1F
100
AcDbEntity
  8
0
  6
Continuous
 62
     7
370
    30
100
AcDbLine
 10
58.1863720972
 20
203.0564920869
 30
0.0
 11
103.1863738853
 21
203.0564920869
 31
0.0
  0
ARC
  5
124
330
1F
100
AcDbEntity
  8
0
  6
Continuous
 62
     7
370
    30
100
AcDbCircle
 10
80.6863729912
 20
214.0564920273
 30
0.0
 40
10.0
100
AcDbArc
 50
182.8659839826
 51
357.1340160174
  0
LINE
  5
125
330
1F
100
AcDbEntity
  8
0
  6
Continuous
 62
     7
370
    30
100
AcDbLine
 10
90.673865169
 20
213.5564920273
 30
0.0
 11
103.1863738853
 21
213.5564920036
 31
0.0
  0
LINE
  5
126
330
1F
100
AcDbEntity
  8
0
  6
Continuous
 62
     7
370
    30
100
AcDbLine
 10
58.1863720972
 20
213.5564920036
 30
0.0
 11
70.6988808135
 21
213.5564920273
 31
0.0
  0
LINE
  5
127
330
1F
100
AcDbEntity
  8
0
  6
Continuous
 62
     7
370
    30
100
AcDbLine
 10
58.1863720972
 20
213.5564920036
 30
0.0
 11
58.1863720972
 21
203.0564920869
 31
0.0
  0
LINE
  5
128
330
1F
100
AcDbEntity
  8
0
  6
Continuous
 62
     7
370
    30
100
AcDbLine
 10
103.1863738853
 20
203.0564920869
 30
0.0
 11
103.1863738853
 21
213.5564920036
 31
0.0
  0
LINE
  5
129
330
1F
100
AcDbEntity
  8
0
  6
Continuous
 62
     7
370
    30
100
AcDbLine
 10
103.1863738853
 20
201.5564918411
 30
0.0
 11
58.1863720972
 21
201.5564918411
 31
0.0
  0
LINE
  5
12A
330
1F
100
AcDbEntity
  8
0
  6
Continuous
 62
     7
370
    30
100
AcDbLine
 10
58.1863720972
 20
201.5564918411
 30
0.0
 11
58.1863720972
 21
203.0564920869
 31
0.0
  0
LINE
  5
12B
330
1F
100
AcDbEntity
  8
0
  6
Continuous
 62
     7
370
    30
100
AcDbLine
 10
103.1863738853
 20
203.0564920869
 30
0.0
 11
103.1863738853
 21
201.5564918411
 31
0.0
  0
LINE
  5
12C
330
1F
100
AcDbEntity
  8
0
  6
Continuous
 62
     7
370
    30
100
AcDbLine
 10
90.673865169
 20
214.5564920273
 30
0.0
 11
70.6988808135
 21
214.5564920273
 31
0.0
  0
LINE
  5
12D
330
1F
100
AcDbEntity
  8
0
  6
Continuous
 62
     7
370
    30
100
AcDbLine
 10
70.6988808135
 20
213.5564920273
 30
0.0
 11
90.673865169
 21
213.5564920273
 31
0.0
  0
LINE
  5
12E
330
1F
100
AcDbEntity
  8
0
  6
Continuous
 62
     7
370
    30
100
AcDbLine
 10
58.1863720972
 20
214.5564920511
 30
0.0
 11
58.1863720972
 21
213.5564920036
 31
0.0
  0
LINE
  5
12F
330
1F
100
AcDbEntity
  8
0
  6
Continuous
 62
     7
370
    30
100
AcDbLine
 10
103.1863738853
 20
213.5564920036
 30
0.0
 11
103.1863738853
 21
214.5564920511
 31
0.0
  0
LINE
  5
130
330
1F
100
AcDbEntity
  8
0
  6
HIDDEN
 62
     7
370
     0
100
AcDbLine
 10
69.6863729912
 20
208.0564920273
 30
0.0
 11
58.6863729912
 21
208.0564920273
 31
0.0
  0
LINE
  5
131
330
1F
100
AcDbEntity
  8
0
  6
HIDDEN
 62
     7
370
     0
100
AcDbLine
 10
102.6863729912
 20
208.0564920273
 30
0.0
 11
91.6863729912
 21
208.0564920273
 31
0.0
  0
LWPOLYLINE
  5
132
330
1F
100
AcDbEntity
  8
0
  6
HIDDEN
 62
     7
370
     0
100
AcDbPolyline
 90
       22
 70
   128
 43
0.0
 10
82.3363729823
 20
219.7133462769
 10
82.2477697465
 20
219.8744944189
 10
81.9819859998
 20
219.9761999664
 10
81.5790086007
 20
220.0251675104
 10
81.0783718434
 20
220.0433273692
 10
80.5291468523
 20
220.0458316956
 10
79.9954290805
 20
220.0354856332
 10
79.5404854534
 20
220.0011831601
 10
79.2173696054
 20
219.9251271677
 10
79.0552537027
 20
219.7952756551
 10
79.0593816736
 20
219.6086306949
 10
79.2377002608
 20
219.3684402746
 10
79.6103040293
 20
219.0995171559
 10
79.8646251741
 20
218.9789825943
 10
80.1558848425
 20
218.8844659258
 10
80.6009344914
 20
218.820277777
 10
81.0567357648
 20
218.8505592649
 10
81.4615978697
 20
218.960805506
 10
81.8404115807
 20
219.1449293759
 10
82.1620902816
 20
219.3953056712
 10
82.3296504631
 20
219.6585174543
 10
82.3363729823
 20
219.7133462769
  0
LWPOLYLINE
  5
133
330
1F
100
AcDbEntity
  8
0
  6
HIDDEN
 62
     7
370
     0
100
AcDbPolyline
 90
       21
 70
   128
 43
0.0
 10
82.3363729823
 20
208.3996377778
 10
82.2312945338
 20
208.6392382052
 10
81.9379108097
 20
208.9045151961
 10
81.7157923547
 20
209.038555332
 10
81.4521538513
 20
209.1556975511
 10
81.0030660313
 20
209.2710451116
 10
80.5118191301
 20
209.2873195079
 10
80.0865953742
 20
209.2099764277
 10
79.6969192406
 20
209.0590043817
 10
79.3411536678
 20
208.8348722909
 10
79.091358285
 20
208.567234863
 10
79.0483513219
 20
208.3333425116
 10
79.223509233
 20
208.185340919
 10
79.5582355303
 20
208.1095172916
 10
80.0100658625
 20
208.0769433533
 10
80.539963902
 20
208.0670927544
 10
81.0903772608
 20
208.0698550571
 10
81.5959595447
 20
208.0889606741
 10
81.9969141693
 20
208.1399924946
 10
82.2491078242
 20
208.2394824256
 10
82.3363729823
 20
208.3996377778
  0
LINE
  5
134
330
1F
100
AcDbEntity
  8
0
  6
HIDDEN
 62
     7
370
     0
100
AcDbLine
 10
103.1863738853
 20
207.5564918932
 30
0.0
 11
58.1863720972
 21
207.5564918932
 31
0.0
  0
LINE
  5
135
330
1F
100
AcDbEntity
  8
0
  6
HIDDEN
 62
     7
370
     0
100
AcDbLine
 10
58.1863720972
 20
220.5564921614
 30
0.0
 11
103.1863738853
 21
220.5564921614
 31
0.0
  0
LINE
  5
136
330
1F
100
AcDbEntity
  8
0
  6
HIDDEN
 62
     7
370
     0
100
AcDbLine
 10
69.6863730509
 20
201.5564918411
 30
0.0
 11
69.6863729912
 21
208.0564920273
 31
0.0
  0
LINE
  5
137
330
1F
100
AcDbEntity
  8
0
  6
HIDDEN
 62
     7
370
     0
100
AcDbLine
 10
58.6863729912
 20
208.0564920273
 30
0.0
 11
58.6863731105
 21
201.5564918411
 31
0.0
  0
LINE
  5
138
330
1F
100
AcDbEntity
  8
0
  6
HIDDEN
 62
     7
370
     0
100
AcDbLine
 10
102.686372872
 20
201.5564918411
 30
0.0
 11
102.6863729912
 21
208.0564920273
 31
0.0
  0
LINE
  5
139
330
1F
100
AcDbEntity
  8
0
  6
HIDDEN
 62
     7
370
     0
100
AcDbLine
 10
91.6863729912
 20
208.0564920273
 30
0.0
 11
91.6863729316
 21
201.5564918411
 31
0.0
  0
LINE
  5
13A
330
1F
100
AcDbEntity
  8
0
  6
HIDDEN
 62
     7
370
     0
100
AcDbLine
 10
100.4363739002
 20
208.0564919752
 30
0.0
 11
100.4363739002
 21
213.5564920036
 31
0.0
  0
LINE
  5
13B
330
1F
100
AcDbEntity
  8
0
  6
HIDDEN
 62
     7
370
     0
100
AcDbLine
 10
93.9363728348
 20
213.5564920036
 30
0.0
 11
93.9363728348
 21
208.0564919752
 31
0.0
  0
LINE
  5
13C
330
1F
100
AcDbEntity
  8
0
  6
HIDDEN
 62
     7
370
     0
100
AcDbLine
 10
67.4363731477
 20
208.0564919752
 30
0.0
 11
67.4363731477
 21
213.5564920036
 31
0.0
  0
LINE
  5
13D
330
1F
100
AcDbEntity
  8
0
  6
HIDDEN
 62
     7
370
     0
100
AcDbLine
 10
60.9363720823
 20
213.5564920036
 30
0.0
 11
60.9363720823
 21
208.0564919752
 31
0.0
  0
LINE
  5
13E
330
1F
100
AcDbEntity
  8
0
  6
HIDDEN
 62
     7
370
     0
100
AcDbLine
 10
66.6863725591
 20
214.5564920511
 30
0.0
 11
66.6863725591
 21
226.5564922136
 31
0.0
  0
LINE
  5
13F
330
1F
100
AcDbEntity
  8
0
  6
HIDDEN
 62
     7
370
     0
100
AcDbLine
 10
61.6863736022
 20
226.5564922136
 30
0.0
 11
61.6863736022
 21
214.5564920511
 31
0.0
  0
LINE
  5
140
330
1F
100
AcDbEntity
  8
0
  6
HIDDEN
 62
     7
370
     0
100
AcDbLine
 10
99.6863723803
 20
214.5564920511
 30
0.0
 11
99.6863723803
 21
226.5564922136
 31
0.0
  0
LINE
  5
141
330
1F
100
AcDbEntity
  8
0
  6
HIDDEN
 62
     7
370
     0
100
AcDbLine
 10
94.6863734234
 20
226.5564922136
 30
0.0
 11
94.6863734234
 21
214.5564920511
 31
0.0
  0
LINE
  5
142
330
1F
100
AcDbEntity
  8
0
  6
HIDDEN
 62
     7
370
     0
100
AcDbLine
 10
103.1863738853
 20
220.0564920795
 30
0.0
 11
58.1863720972
 21
220.0564920795
 31
0.0
  0
LINE
  5
143
330
1F
100
AcDbEntity
  8
0
  6
HIDDEN
 62
     7
370
     0
100
AcDbLine
 10
58.1863720972
 20
208.0564919752
 30
0.0
 11
58.6863729912
 21
208.0564920273
 31
0.0
  0
LINE
  5
144
330
1F
100
AcDbEntity
  8
0
  6
HIDDEN
 62
     7
370
     0
100
AcDbLine
 10
69.6863729912
 20
208.0564920273
 30
0.0
 11
91.6863729912
 21
208.0564920273
 31
0.0
  0
LINE
  5
145
330
1F
100
AcDbEntity
  8
0
  6
HIDDEN
 62
     7
370
     0
100
AcDbLine
 10
102.6863729912
 20
208.0564920273
 30
0.0
 11
103.1863738853
 21
208.0564919752
 31
0.0
  0
LINE
  5
146
330
1F
100
AcDbEntity
  8
0
  6
HIDDEN
 62
     7
370
     0
100
AcDbLine
 10
82.3363729823
 20
219.7133462769
 30
0.0
 11
82.3363729823
 21
226.5564922136
 31
0.0
  0
LINE
  5
147
330
1F
100
AcDbEntity
  8
0
  6
HIDDEN
 62
     7
370
     0
100
AcDbLine
 10
79.0363730002
 20
226.5564922136
 30
0.0
 11
79.0363730002
 21
219.7065918599
 31
0.0
  0
LINE
  5
148
330
1F
100
AcDbEntity
  8
0
  6
HIDDEN
 62
     7
370
     0
100
AcDbLine
 10
82.3363729823
 20
201.5564918411
 30
0.0
 11
82.3363729823
 21
208.3996377778
 31
0.0
  0
LINE
  5
149
330
1F
100
AcDbEntity
  8
0
  6
HIDDEN
 62
     7
370
     0
100
AcDbLine
 10
79.0363730002
 20
208.4074371387
 30
0.0
 11
79.0363730002
 21
201.5564918411
 31
0.0
  0
DIMENSION
  5
14A
330
1F
100
AcDbEntity
  8
0
  6
Continuous
 62
     7
370
     0
100
AcDbDimension
  2
*D12
 10
42.9983887499
 20
201.5564920273
 30
0.0
 11
42.9983887499
 21
214.0564920273
 31
0.0
 70
   160
 71
     1
 42
25.0
  3
SLDDIMSTYLE0
100
AcDbAlignedDimension
 13
58.1863729912
 23
226.5564920273
 33
0.0
 14
58.1863729912
 24
201.5564920273
 34
0.0
 50
90.0
100
AcDbRotatedDimension
1001
ACAD
1000
DSTYLE
1002
{
1070
    77
1070
     3
1070
   143
1040
0.0393700787
1070
    41
1040
3.0
1070
    44
1040
1.0
1070
    42
1040
1.0
1070
   147
1040
1.524
1070
    73
1070
     0
1070
    74
1070
     0
1070
   140
1040
3.5
1070
   284
1070
    12
1070
    78
1070
    12
1002
}
  0
DIMENSION
  5
15E
330
1F
100
AcDbEntity
  8
0
  6
Continuous
 62
     7
370
     0
100
AcDbDimension
  2
*D13
 10
58.1863729912
 20
247.0381117878
 30
0.0
 11
80.6863729912
 21
247.0381117878
 31
0.0
 70
   160
 71
     1
 42
45.0
  3
SLDDIMSTYLE0
100
AcDbAlignedDimension
 13
103.1863729912
 23
226.5564920273
 33
0.0
 14
58.1863729912
 24
226.5564920273
 34
0.0
100
AcDbRotatedDimension
1001
ACAD
1000
DSTYLE
1002
{
1070
    77
1070
     3
1070
   143
1040
0.0393700787
1070
    41
1040
3.0
1070
    44
1040
1.0
1070
    42
1040
1.0
1070
   147
1040
1.524
1070
    73
1070
     0
1070
    74
1070
     0
1070
   140
1040
3.5
1070
   284
1070
    12
1070
    78
1070
    12
1002
}
  0
DIMENSION
  5
171
330
1F
100
AcDbEntity
  8
0
  6
Continuous
 62
     7
370
     0
100
AcDbDimension
  2
*D14
 10
87.5199909837
 20
221.3572909654
 30
0.0
 11
51.2967331985
 21
192.3257940133
 31
0.0
 70
   163
  1
<>
 71
     1
 42
20.0
  3
SLDDIMSTYLE2
100
AcDbDiametricDimension
 15
73.8527549988
 25
206.7556930893
 35
0.0
 40
0.0
1001
ACAD
1000
DSTYLE
1002
{
1070
    77
1070
     0
1070
   143
1040
0.0393700787
1070
    41
1040
3.0
1070
    44
1040
1.0
1070
    42
1040
1.0
1070
   147
1040
1.524
1070
    73
1070
     1
1070
    74
1070
     1
1070
   140
1040
3.5
1070
   284
1070
    12
1070
    78
1070
    12
1002
}
  0
DIMENSION
  5
184
330
1F
100
AcDbEntity
  8
0
  6
Continuous
 62
     7
370
     0
100
AcDbDimension
  2
*D15
 10
113.7388474291
 20
213.5564920273
 30
0.0
 11
113.7388474291
 21
207.7161091749
 31
0.0
 70
   160
 71
     1
 42
1.0
  3
SLDDIMSTYLE0
100
AcDbAlignedDimension
 13
103.1863729912
 23
214.5564920273
 33
0.0
 14
103.1863729912
 24
213.5564920273
 34
0.0
 50
90.0
100
AcDbRotatedDimension
1001
ACAD
1000
DSTYLE
1002
{
1070
    77
1070
     3
1070
   143
1040
0.0393700787
1070
    41
1040
3.0
1070
    44
1040
1.0
1070
    42
1040
1.0
1070
   147
1040
1.524
1070
    73
1070
     0
1070
    74
1070
     0
1070
   140
1040
3.5
1070
   284
1070
    12
1070
    78
1070
    12
1002
}
  0
DIMENSION
  5
19B
330
1F
100
AcDbEntity
  8
0
  6
Continuous
 62
     7
370
     0
100
AcDbDimension
  2
*D16
 10
80.6863729912
 20
239.3097766749
 30
0.0
 11
91.9363729912
 21
239.3097766749
 31
0.0
 70
   160
 71
     1
 42
22.5
  3
SLDDIMSTYLE0
100
AcDbAlignedDimension
 13
103.1863729912
 23
226.5564920273
 33
0.0
 14
80.6863729912
 24
226.5564920273
 34
0.0
100
AcDbRotatedDimension
1001
ACAD
1000
DSTYLE
1002
{
1070
    77
1070
     3
1070
   143
1040
0.0393700787
1070
    41
1040
3.0
1070
    44
1040
1.0
1070
    42
1040
1.0
1070
   147
1040
1.524
1070
    73
1070
     0
1070
    74
1070
     0
1070
   140
1040
3.5
1070
   284
1070
    12
1070
    78
1070
    12
1002
}
  0
DIMENSION
  5
1AE
330
1F
100
AcDbEntity
  8
0
  6
Continuous
 62
     7
370
     0
100
AcDbDimension
  2
*D17
 10
123.1571520454
 20
214.0564920273
 30
0.0
 11
123.1571520454
 21
220.3064920273
 31
0.0
 70
   160
 71
     1
 42
12.5
  3
SLDDIMSTYLE0
100
AcDbAlignedDimension
 13
103.1863729912
 23
226.5564920273
 33
0.0
 14
105.1863729912
 24
214.0564920273
 34
0.0
 50
90.0
100
AcDbRotatedDimension
1001
ACAD
1000
DSTYLE
1002
{
1070
    77
1070
     3
1070
   143
1040
0.0393700787
1070
    41
1040
3.0
1070
    44
1040
1.0
1070
    42
1040
1.0
1070
   147
1040
1.524
1070
    73
1070
     0
1070
    74
1070
     0
1070
   140
1040
3.5
1070
   284
1070
    12
1070
    78
1070
    12
1002
}
  0
MTEXT
  5
1C4
330
1F
100
AcDbEntity
  8
0
  6
Continuous
 62
     7
370
     0
100
AcDbMText
 10
107.4140023349
 20
245.1034052154
 30
25.0
 40
3.5
 41
0.0
 71
     1
 72
     1
  1
4-M6
  7
SLDTEXTSTYLE0
 73
     1
 44
1.0
  0
LEADER
  5
1C6
330
1F
100
AcDbEntity
  8
0
  6
Continuous
 62
     7
370
     0
100
AcDbLeader
  3
SLDDIMSTYLE3
 76
     3
 10
97.1951141862
 20
226.5564920273
 30
0.0
 10
106.9124111992
 20
241.0303058474
 30
0.0
 10
115.5608666997
 20
241.0303058474
 30
0.0
  0
INSERT
  5
1D2
330
1F
100
AcDbEntity
  8
0
  6
Continuous
 62
     7
370
     0
100
AcDbBlockReference
  2
SW_CENTERMARKSYMBOL_4
 10
80.6863729912
 20
214.0564920273
 30
0.0
  0
LINE
  5
1D3
330
1F
100
AcDbEntity
  8
0
  6
HIDDEN
 62
     7
370
     0
100
AcDbLine
 10
78.6863728963
 20
226.5564922136
 30
0.0
 11
78.6863728963
 21
219.7133462769
 31
0.0
  0
LINE
  5
1D4
330
1F
100
AcDbEntity
  8
0
  6
HIDDEN
 62
     7
370
     0
100
AcDbLine
 10
82.6863730862
 20
219.7037503947
 30
0.0
 11
82.6863730862
 21
226.5564922136
 31
0.0
  0
LINE
  5
1D5
330
1F
100
AcDbEntity
  8
0
  6
HIDDEN
 62
     7
370
     0
100
AcDbLine
 10
78.6863728963
 20
208.3996377778
 30
0.0
 11
78.6863728963
 21
201.5564918411
 31
0.0
  0
LINE
  5
1D6
330
1F
100
AcDbEntity
  8
0
  6
HIDDEN
 62
     7
370
     0
100
AcDbLine
 10
82.6863730862
 20
201.5564918411
 30
0.0
 11
82.6863730862
 21
208.4030780834
 31
0.0
  0
LWPOLYLINE
  5
1D7
330
1F
100
AcDbEntity
  8
0
  6
HIDDEN
 62
     7
370
     0
100
AcDbPolyline
 90
       25
 70
   128
 43
0.0
 10
78.6863728963
 20
208.3996377778
 10
78.7188627828
 20
208.5394069445
 10
78.8119754824
 20
208.6971077961
 10
79.1578373709
 20
209.0388002698
 10
79.4263548987
 20
209.2217590552
 10
79.7466861504
 20
209.3851954569
 10
80.2706025378
 20
209.5456562829
 10
80.8523571277
 20
209.5781943653
 10
81.3432517416
 20
209.4875436169
 10
81.891273202
 20
209.2537290309
 10
82.3146530265
 20
208.956889518
 10
82.4993225351
 20
208.7736094263
 10
82.6242633002
 20
208.599641629
 10
82.6825677022
 20
208.4429852557
 10
82.6678341791
 20
208.310804971
 10
82.58911961
 20
208.2186836642
 10
82.4494681392
 20
208.1501169023
 10
82.0486416878
 20
208.0804530424
 10
81.5053951764
 20
208.0590559062
 10
80.8622565045
 20
208.0564970975
 10
80.1933693537
 20
208.0568095562
 10
79.579618231
 20
208.0658033383
 10
79.0926794825
 20
208.1089454596
 10
78.7892885809
 20
208.2142207664
 10
78.6863728963
 20
208.3996377778
  0
LINE
  5
1D8
330
1F
100
AcDbEntity
  8
0
  6
CENTERX2
 62
     7
370
     0
100
AcDbLine
 10
56.1863729912
 20
214.0564920273
 30
0.0
 11
105.1863729912
 21
214.0564920273
 31
0.0
  0
LINE
  5
1D9
330
1F
100
AcDbEntity
  8
0
  6
CENTERX2
 62
     7
370
     0
100
AcDbLine
 10
97.1863729912
 20
228.5564920273
 30
0.0
 11
97.1863729912
 21
199.5564920273
 31
0.0
  0
LINE
  5
1DA
330
1F
100
AcDbEntity
  8
0
  6
CENTERX2
 62
     7
370
     0
100
AcDbLine
 10
64.1863729912
 20
228.5564920273
 30
0.0
 11
64.1863729912
 21
199.5564920273
 31
0.0
  0
LINE
  5
1DB
330
1F
100
AcDbEntity
  8
0
  6
Continuous
 62
     7
370
    30
100
AcDbLine
 10
163.2141275152
 20
116.1111455252
 30
0.0
 11
163.2141275152
 21
112.8111455252
 31
0.0
  0
LINE
  5
1DC
330
1F
100
AcDbEntity
  8
0
  6
Continuous
 62
     7
370
    30
100
AcDbLine
 10
163.2141275152
 20
112.8111455252
 30
0.0
 11
156.7039104829
 21
112.8111455252
 31
0.0
  0
ARC
  5
1DD
330
1F
100
AcDbEntity
  8
0
  6
Continuous
 62
     7
370
    30
100
AcDbCircle
 10
150.7141227795
 20
112.4611437431
 30
0.0
 40
6.000004848396509
100
AcDbArc
 50
3.3441676299
 51
37.4690765373
  0
LINE
  5
1DE
330
1F
100
AcDbEntity
  8
0
  6
Continuous
 62
     7
370
    30
100
AcDbLine
 10
155.4762173926
 20
116.1111455252
 30
0.0
 11
163.2141275152
 21
116.1111455252
 31
0.0
  0
LINE
  5
1DF
330
1F
100
AcDbEntity
  8
0
  6
Continuous
 62
     7
370
    30
100
AcDbLine
 10
144.7243445475
 20
112.8111455252
 30
0.0
 11
138.2141275152
 21
112.8111455252
 31
0.0
  0
LINE
  5
1E0
330
1F
100
AcDbEntity
  8
0
  6
Continuous
 62
     7
370
    30
100
AcDbLine
 10
138.2141275152
 20
116.1111455252
 30
0.0
 11
138.2141275152
 21
112.8111455252
 31
0.0
  0
LINE
  5
1E1
330
1F
100
AcDbEntity
  8
0
  6
Continuous
 62
     7
370
    30
100
AcDbLine
 10
138.2141275152
 20
116.1111455252
 30
0.0
 11
145.9520376378
 21
116.1111455252
 31
0.0
  0
ARC
  5
1E2
330
1F
100
AcDbEntity
  8
0
  6
Continuous
 62
     7
370
    30
100
AcDbCircle
 10
150.7151683389
 20
112.4607582891
 30
0.0
 40
6.001061665725207
100
AcDbArc
 50
142.5340203136
 51
176.6527355191
  0
LINE
  5
1E3
330
1F
100
AcDbEntity
  8
0
  6
Continuous
 62
     7
370
    30
100
AcDbLine
 10
150.2141274915
 20
104.4611456202
 30
0.0
 11
150.2141275152
 21
106.4820151537
 31
0.0
  0
LINE
  5
1E4
330
1F
100
AcDbEntity
  8
0
  6
Continuous
 62
     7
370
    30
100
AcDbLine
 10
150.2141274915
 20
104.4611456202
 30
0.0
 11
151.214127539
 21
104.4611456202
 31
0.0
  0
LINE
  5
1E5
330
1F
100
AcDbEntity
  8
0
  6
Continuous
 62
     7
370
    30
100
AcDbLine
 10
151.2141275152
 20
106.4820151537
 30
0.0
 11
151.214127539
 21
104.4611456202
 31
0.0
  0
LINE
  5
1E6
330
1F
100
AcDbEntity
  8
0
  6
Continuous
 62
     7
370
    30
100
AcDbLine
 10
144.2141273811
 20
102.4611455252
 30
0.0
 11
157.2141276493
 21
102.4611455252
 31
0.0
  0
LINE
  5
1E7
330
1F
100
AcDbEntity
  8
0
  6
Continuous
 62
     7
370
    30
100
AcDbLine
 10
144.2141273811
 20
102.4611455252
 30
0.0
 11
138.2141273289
 21
108.4611455774
 31
0.0
  0
LINE
  5
1E8
330
1F
100
AcDbEntity
  8
0
  6
Continuous
 62
     7
370
    30
100
AcDbLine
 10
138.2141275152
 20
112.8111455252
 30
0.0
 11
138.2141273289
 21
108.4611455774
 31
0.0
  0
LINE
  5
1E9
330
1F
100
AcDbEntity
  8
0
  6
Continuous
 62
     7
370
    30
100
AcDbLine
 10
163.2141277015
 20
108.4611455774
 30
0.0
 11
163.2141275152
 21
112.8111455252
 31
0.0
  0
LINE
  5
1EA
330
1F
100
AcDbEntity
  8
0
  6
Continuous
 62
     7
370
    30
100
AcDbLine
 10
163.2141277015
 20
108.4611455774
 30
0.0
 11
157.2141276493
 21
102.4611455252
 31
0.0
  0
ARC
  5
1EB
330
1F
100
AcDbEntity
  8
0
  6
Continuous
 62
     7
370
    30
100
AcDbCircle
 10
150.7141275152
 20
112.4611455252
 30
0.0
 40
5.999999999999996
100
AcDbArc
 50
176.6558477956
 51
265.2198081528
  0
ARC
  5
1EC
330
1F
100
AcDbEntity
  8
0
  6
Continuous
 62
     7
370
    30
100
AcDbCircle
 10
150.7141275152
 20
112.4611455252
 30
0.0
 40
6.000000000000015
100
AcDbArc
 50
274.7801918472
 51
3.3441522045
  0
LINE
  5
1ED
330
1F
100
AcDbEntity
  8
0
  6
Continuous
 62
     7
370
    30
100
AcDbLine
 10
161.7141274556
 20
146.4611452868
 30
0.0
 11
163.2141277015
 21
144.9611459723
 31
0.0
  0
LINE
  5
1EE
330
1F
100
AcDbEntity
  8
0
  6
Continuous
 62
     7
370
    30
100
AcDbLine
 10
151.214127539
 20
120.4611447504
 30
0.0
 11
151.2141275152
 21
118.4402758968
 31
0.0
  0
LINE
  5
1EF
330
1F
100
AcDbEntity
  8
0
  6
Continuous
 62
     7
370
    30
100
AcDbLine
 10
151.214127539
 20
120.4611447504
 30
0.0
 11
160.7141272917
 21
120.4611447504
 31
0.0
  0
LINE
  5
1F0
330
1F
100
AcDbEntity
  8
0
  6
Continuous
 62
     7
370
    30
100
AcDbLine
 10
160.7141275152
 20
146.4611455252
 30
0.0
 11
160.7141272917
 21
120.4611447504
 31
0.0
  0
LINE
  5
1F1
330
1F
100
AcDbEntity
  8
0
  6
Continuous
 62
     7
370
    30
100
AcDbLine
 10
160.7141275152
 20
146.4611455252
 30
0.0
 11
161.7141274556
 21
146.4611452868
 31
0.0
  0
LINE
  5
1F2
330
1F
100
AcDbEntity
  8
0
  6
Continuous
 62
     7
370
    30
100
AcDbLine
 10
163.2141275152
 20
116.1111455252
 30
0.0
 11
163.2141277015
 21
144.9611459723
 31
0.0
  0
ARC
  5
1F3
330
1F
100
AcDbEntity
  8
0
  6
Continuous
 62
     7
370
    30
100
AcDbCircle
 10
150.7141275152
 20
112.4611455252
 30
0.0
 40
6.000000000000011
100
AcDbArc
 50
37.469089434
 51
85.2198081528
  0
LINE
  5
1F4
330
1F
100
AcDbEntity
  8
0
  6
Continuous
 62
     7
370
    30
100
AcDbLine
 10
151.2141275152
 20
146.4611455252
 30
0.0
 11
151.214127539
 21
120.4611447504
 31
0.0
  0
LINE
  5
1F5
330
1F
100
AcDbEntity
  8
0
  6
Continuous
 62
     7
370
    30
100
AcDbLine
 10
160.7141275152
 20
146.4611455252
 30
0.0
 11
151.2141275152
 21
146.4611455252
 31
0.0
  0
LINE
  5
1F6
330
1F
100
AcDbEntity
  8
0
  6
Continuous
 62
     7
370
    30
100
AcDbLine
 10
150.2141275152
 20
146.4611455252
 30
0.0
 11
140.7141275152
 21
146.4611455252
 31
0.0
  0
LINE
  5
1F7
330
1F
100
AcDbEntity
  8
0
  6
Continuous
 62
     7
370
    30
100
AcDbLine
 10
150.2141274915
 20
120.4611447504
 30
0.0
 11
150.2141275152
 21
146.4611455252
 31
0.0
  0
LINE
  5
1F8
330
1F
100
AcDbEntity
  8
0
  6
Continuous
 62
     7
370
    30
100
AcDbLine
 10
140.7141277387
 20
120.4611447504
 30
0.0
 11
140.7141275152
 21
146.4611455252
 31
0.0
  0
LINE
  5
1F9
330
1F
100
AcDbEntity
  8
0
  6
Continuous
 62
     7
370
    30
100
AcDbLine
 10
140.7141277387
 20
120.4611447504
 30
0.0
 11
150.2141274915
 21
120.4611447504
 31
0.0
  0
LINE
  5
1FA
330
1F
100
AcDbEntity
  8
0
  6
Continuous
 62
     7
370
    30
100
AcDbLine
 10
150.2141275152
 20
118.4402758968
 30
0.0
 11
150.2141274915
 21
120.4611447504
 31
0.0
  0
LINE
  5
1FB
330
1F
100
AcDbEntity
  8
0
  6
Continuous
 62
     7
370
    30
100
AcDbLine
 10
138.2141273289
 20
144.9611459723
 30
0.0
 11
138.2141275152
 21
116.1111455252
 31
0.0
  0
LINE
  5
1FC
330
1F
100
AcDbEntity
  8
0
  6
Continuous
 62
     7
370
    30
100
AcDbLine
 10
138.2141273289
 20
144.9611459723
 30
0.0
 11
139.7141275748
 21
146.4611452868
 31
0.0
  0
LINE
  5
1FD
330
1F
100
AcDbEntity
  8
0
  6
Continuous
 62
     7
370
    30
100
AcDbLine
 10
139.7141275748
 20
146.4611452868
 30
0.0
 11
140.7141275152
 21
146.4611455252
 31
0.0
  0
ARC
  5
1FE
330
1F
100
AcDbEntity
  8
0
  6
Continuous
 62
     7
370
    30
100
AcDbCircle
 10
150.7141275152
 20
112.4611455252
 30
0.0
 40
6.000000000000011
100
AcDbArc
 50
94.7801918472
 51
142.530910566
  0
DIMENSION
  5
1FF
330
1F
100
AcDbEntity
  8
0
  6
Continuous
 62
     7
370
     0
100
AcDbDimension
  2
*D19
 10
146.2657495524
 20
108.4347409877
 30
0.0
 11
121.0161164875
 21
120.5139546002
 31
0.0
 70
   163
  1
<>
 71
     1
 42
12.0
  3
SLDDIMSTYLE4
100
AcDbDiametricDimension
 15
155.1625054781
 25
116.4875500627
 35
0.0
 40
0.0
1001
ACAD
1000
DSTYLE
1002
{
1070
    77
1070
     0
1070
   143
1040
0.0393700787
1070
    41
1040
3.0
1070
    44
1040
1.0
1070
    42
1040
1.0
1070
   147
1040
1.524
1070
    73
1070
     1
1070
    74
1070
     1
1070
   140
1040
3.5
1070
   284
1070
    12
1070
    78
1070
    12
1002
}
  0
DIMENSION
  5
211
330
1F
100
AcDbEntity
  8
0
  6
Continuous
 62
     7
370
     0
100
AcDbDimension
  2
*D20
 10
127.6918418742
 20
120.4611455252
 30
0.0
 11
127.6918418742
 21
133.4611455252
 31
0.0
 70
   160
 71
     1
 42
26.0
  3
SLDDIMSTYLE0
100
AcDbAlignedDimension
 13
150.7141275152
 23
146.4611455252
 33
0.0
 14
150.7141275152
 24
120.4611455252
 34
0.0
 50
90.0
100
AcDbRotatedDimension
1001
ACAD
1000
DSTYLE
1002
{
1070
    77
1070
     3
1070
   143
1040
0.0393700787
1070
    41
1040
3.0
1070
    44
1040
1.0
1070
    42
1040
1.0
1070
   147
1040
1.524
1070
    73
1070
     0
1070
    74
1070
     0
1070
   140
1040
3.5
1070
   284
1070
    12
1070
    78
1070
    12
1002
}
  0
DIMENSION
  5
225
330
1F
100
AcDbEntity
  8
0
  6
Continuous
 62
     7
370
     0
100
AcDbDimension
  2
*D21
 10
181.0703225806
 20
104.4611455252
 30
0.0
 11
181.0703225806
 21
125.4611455252
 31
0.0
 70
   160
 71
     1
 42
42.0
  3
SLDDIMSTYLE0
100
AcDbAlignedDimension
 13
151.2141275152
 23
146.4611455252
 33
0.0
 14
151.2141275152
 24
104.4611455252
 34
0.0
 50
90.0
100
AcDbRotatedDimension
1001
ACAD
1000
DSTYLE
1002
{
1070
    77
1070
     3
1070
   143
1040
0.0393700787
1070
    41
1040
3.0
1070
    44
1040
1.0
1070
    42
1040
1.0
1070
   147
1040
1.524
1070
    73
1070
     0
1070
    74
1070
     0
1070
   140
1040
3.5
1070
   284
1070
    12
1070
    78
1070
    12
1002
}
  0
DIMENSION
  5
239
330
1F
100
AcDbEntity
  8
0
  6
Continuous
 62
     7
370
     0
100
AcDbDimension
  2
*D22
 10
172.6928225833
 20
112.4611455252
 30
0.0
 11
172.6928225833
 21
129.4611455252
 31
0.0
 70
   160
 71
     1
 42
34.0
  3
SLDDIMSTYLE0
100
AcDbAlignedDimension
 13
161.7141275152
 23
146.4611455252
 33
0.0
 14
159.2141275152
 24
112.4611455252
 34
0.0
 50
90.0
100
AcDbRotatedDimension
1001
ACAD
1000
DSTYLE
1002
{
1070
    77
1070
     3
1070
   143
1040
0.0393700787
1070
    41
1040
3.0
1070
    44
1040
1.0
1070
    42
1040
1.0
1070
   147
1040
1.524
1070
    73
1070
     0
1070
    74
1070
     0
1070
   140
1040
3.5
1070
   284
1070
    12
1070
    78
1070
    12
1002
}
  0
INSERT
  5
256
330
1F
100
AcDbEntity
  8
0
  6
Continuous
 62
     7
370
     0
100
AcDbBlockReference
  2
SW_CHAMFER_DIMENSION_0
 10
123.9190698842
 20
159.5431547029
 30
0.0
  0
INSERT
  5
260
330
1F
100
AcDbEntity
  8
0
  6
Continuous
 62
     7
370
     0
100
AcDbBlockReference
  2
SW_CHAMFER_DIMENSION_1
 10
168.436173089
 20
96.2014460021
 30
0.0
  0
MTEXT
  5
261
330
1F
100
AcDbEntity
  8
0
  6
Continuous
 62
     7
370
     0
100
AcDbMText
 10
142.2119705326
 20
93.5953039914
 30
0.0
 40
3.5
 41
0.0
 71
     1
 72
     1
  1
断面図 A-A
  7
SLDTEXTSTYLE0
 73
     1
 44
1.0
  0
INSERT
  5
26D
330
1F
100
AcDbEntity
  8
0
  6
Continuous
 62
     7
370
     0
100
AcDbBlockReference
  2
SW_CENTERMARKSYMBOL_5
 10
150.7141275152
 20
112.4611455252
 30
0.0
  0
LINE
  5
26E
330
1F
100
AcDbEntity
  8
0
  6
Continuous
 62
     7
370
     0
100
AcDbLine
 10
155.186263547
 20
116.4611459574
 30
0.0
 11
163.2141277015
 21
116.4611459574
 31
0.0
  0
LINE
  5
26F
330
1F
100
AcDbEntity
  8
0
  6
Continuous
 62
     7
370
     0
100
AcDbLine
 10
163.2141277015
 20
112.4611453017
 30
0.0
 11
156.7141275674
 21
112.4611453017
 31
0.0
  0
LINE
  5
270
330
1F
100
AcDbEntity
  8
0
  6
Continuous
 62
     7
370
     0
100
AcDbLine
 10
138.2141273289
 20
116.4611459574
 30
0.0
 11
146.2419914834
 21
116.4611459574
 31
0.0
  0
LINE
  5
271
330
1F
100
AcDbEntity
  8
0
  6
Continuous
 62
     7
370
     0
100
AcDbLine
 10
144.714127463
 20
112.4611453017
 30
0.0
 11
138.2141273289
 21
112.4611453017
 31
0.0
  0
HATCH
  5
272
330
1F
100
AcDbEntity
  8
0
  6
Continuous
 62
     7
370
     0
100
AcDbHatch
 10
0.0
 20
0.0
 30
0.0
210
0.0
220
0.0
230
1.0
  2
ANSI32
 70
     0
 71
     0
 91
        1
 92
        0
 93
       12
 72
     2
 10
150.714127515204
 20
112.4611455252391
 40
6.000000000000001
 50
94.78019184719916
 51
183.344152204442
 73
     0
 72
     1
 10
144.7243445475163
 20
112.8111455252376
 11
138.214127515204
 21
112.8111455252391
 72
     1
 10
138.214127515204
 20
112.8111455252391
 11
138.214127515204
 21
108.4611455252391
 72
     1
 10
138.214127515204
 20
108.4611455252391
 11
144.214127515204
 21
102.4611455252391
 72
     1
 10
144.214127515204
 20
102.4611455252391
 11
157.214127515204
 21
102.4611455252391
 72
     1
 10
157.214127515204
 20
102.4611455252391
 11
163.214127515204
 21
108.4611455252391
 72
     1
 10
163.214127515204
 20
108.4611455252391
 11
163.214127515204
 21
112.8111455252391
 72
     1
 10
163.214127515204
 20
112.8111455252391
 11
156.7039104828916
 21
112.8111455252391
 72
     2
 10
150.714127515204
 20
112.4611455252391
 40
6.000000000000001
 50
356.6558477955451
 51
445.2198081528017
 73
     0
 72
     1
 10
151.214127515204
 20
106.4820151536884
 11
151.214127515204
 21
104.4611455252391
 72
     1
 10
151.214127515204
 20
104.4611455252391
 11
150.214127515204
 21
104.4611455252391
 72
     1
 10
150.214127515204
 20
104.4611455252391
 11
150.214127515204
 21
106.4820151536884
 97
        0
 75
     0
 76
     1
 52
0.0
 41
1.0
 77
     0
 78
     1
 53
45.00000209717174
 43
0.0
 44
0.0
 45
-2.245064112442359
 46
2.245063948092215
 79
     0
 98
        1
 10
0.0
 20
0.0
  0
HATCH
  5
273
330
1F
100
AcDbEntity
  8
0
  6
Continuous
 62
     7
370
     0
100
AcDbHatch
 10
0.0
 20
0.0
 30
0.0
210
0.0
220
0.0
230
1.0
  2
ANSI38
 70
     0
 71
     0
 91
        1
 92
        0
 93
        8
 72
     1
 10
161.714127515204
 20
146.4611455252391
 11
160.714127515204
 21
146.4611455252391
 72
     1
 10
160.714127515204
 20
146.4611455252391
 11
160.714127515204
 21
120.4611455252391
 72
     1
 10
160.714127515204
 20
120.4611455252391
 11
151.214127515204
 21
120.4611455252391
 72
     1
 10
151.214127515204
 20
120.4611455252391
 11
151.214127515204
 21
118.4402758967898
 72
     2
 10
150.714127515204
 20
112.4611455252391
 40
6.000000000000001
 50
274.7801918471999
 51
322.5309105659815
 73
     0
 72
     1
 10
155.4762173925582
 20
116.1111455252391
 11
163.214127515204
 21
116.111145525239
 72
     1
 10
163.214127515204
 20
116.111145525239
 11
163.214127515204
 21
144.9611455252391
 72
     1
 10
163.214127515204
 20
144.9611455252391
 11
161.714127515204
 21
146.4611455252391
 97
        0
 75
     0
 76
     1
 52
0.0
 41
1.0
 77
     0
 78
     2
 53
45.00000209717174
 43
0.0
 44
0.0
 45
-2.245064112442359
 46
2.245063948092215
 79
     0
 53
134.9999719140475
 43
0.0
 44
0.0
 45
-6.735190990287853
 46
2.245067331806624
 79
     2
 49
7.9375
 49
-4.7625
 98
        1
 10
0.0
 20
0.0
  0
HATCH
  5
274
330
1F
100
AcDbEntity
  8
0
  6
Continuous
 62
     7
370
     0
100
AcDbHatch
 10
0.0
 20
0.0
 30
0.0
210
0.0
220
0.0
230
1.0
  2
ANSI32
 70
     0
 71
     0
 91
        1
 92
        0
 93
        8
 72
     1
 10
140.714127515204
 20
146.4611455252391
 11
139.714127515204
 21
146.4611455252391
 72
     1
 10
139.714127515204
 20
146.4611455252391
 11
138.214127515204
 21
144.9611455252391
 72
     1
 10
138.214127515204
 20
144.9611455252391
 11
138.214127515204
 21
116.111145525239
 72
     1
 10
138.214127515204
 20
116.111145525239
 11
145.9520376378497
 21
116.111145525239
 72
     2
 10
150.714127515204
 20
112.4611455252391
 40
6.000000000000001
 50
217.4690894340193
 51
265.2198081528017
 73
     0
 72
     1
 10
150.214127515204
 20
118.4402758967898
 11
150.214127515204
 21
120.4611455252391
 72
     1
 10
150.214127515204
 20
120.4611455252391
 11
140.714127515204
 21
120.4611455252391
 72
     1
 10
140.714127515204
 20
120.4611455252391
 11
140.714127515204
 21
146.4611455252391
 97
        0
 75
     0
 76
     1
 52
0.0
 41
1.0
 77
     0
 78
     1
 53
45.00000209717174
 43
0.0
 44
0.0
 45
-2.245064112442359
 46
2.245063948092215
 79
     0
 98
        1
 10
0.0
 20
0.0
  0
LINE
  5
275
330
1F
100
AcDbEntity
  8
0
  6
CENTERX2
 62
     7
370
     0
100
AcDbLine
 10
150.7141275152
 20
118.4611455252
 30
0.0
 11
150.7141275152
 21
148.4611455252
 31
0.0
  0
ENDSEC
  0
SECTION
  2
OBJECTS
  0
DICTIONARY
  5
C
330
0
100
AcDbDictionary
281
     1
  3
ACAD_GROUP
350
D
  3
ACAD_LAYOUT
350
1A
  3
ACAD_MLINESTYLE
350
17
  3
ACAD_PLOTSETTINGS
350
19
  3
ACAD_PLOTSTYLENAME
350
E
  0
DICTIONARY
  5
D
102
{ACAD_REACTORS
330
C
102
}
330
C
100
AcDbDictionary
281
     1
  0
DICTIONARY
  5
1A
102
{ACAD_REACTORS
330
C
102
}
330
C
100
AcDbDictionary
281
     1
  3
Layout1
350
1E
  3
Layout2
350
26
  3
Model
350
22
  0
DICTIONARY
  5
17
102
{ACAD_REACTORS
330
C
102
}
330
C
100
AcDbDictionary
281
     1
  3
Standard
350
18
  0
DICTIONARY
  5
19
102
{ACAD_REACTORS
330
C
102
}
330
C
100
AcDbDictionary
281
     1
  0
ACDBDICTIONARYWDFLT
  5
E
102
{ACAD_REACTORS
330
C
102
}
330
C
100
AcDbDictionary
281
     1
  3
Normal
350
F
100
AcDbDictionaryWithDefault
340
F
  0
LAYOUT
  5
1E
102
{ACAD_REACTORS
330
1A
102
}
330
1A
100
AcDbPlotSettings
  1

  2

  4

  6

 40
0.0
 41
0.0
 42
0.0
 43
0.0
 44
0.0
 45
0.0
 46
0.0
 47
0.0
 48
0.0
 49
0.0
140
0.0
141
0.0
142
1.0
143
1.0
 70
   688
 72
     0
 73
     0
 74
     5
  7

 75
    16
147
1.0
148
0.0
149
0.0
100
AcDbLayout
  1
Layout1
 70
     1
 71
     1
 10
0.0
 20
0.0
 11
0.0
 21
0.0
 12
0.0
 22
0.0
 32
0.0
 14
0.0
 24
0.0
 34
0.0
 15
0.0
 25
0.0
 35
0.0
146
0.0
 13
0.0
 23
0.0
 33
0.0
 16
1.0
 26
0.0
 36
0.0
 17
0.0
 27
1.0
 37
0.0
 76
     0
330
1B
  0
LAYOUT
  5
26
102
{ACAD_REACTORS
330
1A
102
}
330
1A
100
AcDbPlotSettings
  1

  2

  4

  6

 40
0.0
 41
0.0
 42
0.0
 43
0.0
 44
0.0
 45
0.0
 46
0.0
 47
0.0
 48
0.0
 49
0.0
140
0.0
141
0.0
142
1.0
143
1.0
 70
   688
 72
     0
 73
     0
 74
     5
  7

 75
    16
147
1.0
148
0.0
149
0.0
100
AcDbLayout
  1
Layout2
 70
     1
 71
     2
 10
0.0
 20
0.0
 11
0.0
 21
0.0
 12
0.0
 22
0.0
 32
0.0
 14
0.0
 24
0.0
 34
0.0
 15
0.0
 25
0.0
 35
0.0
146
0.0
 13
0.0
 23
0.0
 33
0.0
 16
1.0
 26
0.0
 36
0.0
 17
0.0
 27
1.0
 37
0.0
 76
     0
330
23
  0
LAYOUT
  5
22
102
{ACAD_REACTORS
330
1A
102
}
330
1A
100
AcDbPlotSettings
  1

  2

  4

  6

 40
0.0
 41
0.0
 42
0.0
 43
0.0
 44
0.0
 45
0.0
 46
0.0
 47
0.0
 48
0.0
 49
0.0
140
0.0
141
0.0
142
1.0
143
1.0
 70
  1712
 72
     0
 73
     0
 74
     0
  7

 75
     0
147
1.0
148
0.0
149
0.0
100
AcDbLayout
  1
Model
 70
     1
 71
     0
 10
0.0
 20
0.0
 11
0.0
 21
0.0
 12
0.0
 22
0.0
 32
0.0
 14
0.0
 24
0.0
 34
0.0
 15
210.0
 25
297.0
 35
0.0
146
0.0
 13
0.0
 23
0.0
 33
0.0
 16
1.0
 26
0.0
 36
0.0
 17
0.0
 27
1.0
 37
0.0
 76
     0
330
1F
  0
MLINESTYLE
  5
18
102
{ACAD_REACTORS
330
17
102
}
330
17
100
AcDbMlineStyle
  2
Standard
 70
     0
  3

 62
   256
 51
90.0
 52
90.0
 71
     2
 49
0.5
 62
   256
  6
BYLAYER
 49
-0.5
 62
   256
  6
BYLAYER
  0
ACDBPLACEHOLDER
  5
F
102
{ACAD_REACTORS
330
E
102
}
330
E
  0
ENDSEC
  0
EOF
