  0
SECTION
  2
HEADER
  9
$ACADVER
  1
AC1015
  9
$ACADMAINTVER
 70
     6
  9
$DWGCODEPAGE
  3
DOS932
  9
$INSBASE
 10
0.0
 20
0.0
 30
0.0
  9
$EXTMIN
 10
0.0
 20
0.0
 30
0.0
  9
$EXTMAX
 10
210.0
 20
297.0
 30
0.0
  9
$LIMMIN
 10
0.0
 20
0.0
  9
$LIMMAX
 10
0.0
 20
0.0
  9
$ORTHOMODE
 70
     0
  9
$REGENMODE
 70
     1
  9
$FILLMODE
 70
     1
  9
$QTEXTMODE
 70
     0
  9
$MIRRTEXT
 70
     1
  9
$LTSCALE
 40
1.0
  9
$ATTMODE
 70
     1
  9
$TEXTSIZE
 40
3.5
  9
$TRACEWID
 40
1.0
  9
$TEXTSTYLE
  7
Standard
  9
$CLAYER
  8
0
  9
$CELTYPE
  6
ByLayer
  9
$CECOLOR
 62
   256
  9
$CELTSCALE
 40
1.0
  9
$DISPSILH
 70
     0
  9
$DIMSCALE
 40
1.0
  9
$DIMASZ
 40
3.0
  9
$DIMEXO
 40
1.0
  9
$DIMDLI
 40
3.75
  9
$DIMRND
 40
0.0
  9
$DIMDLE
 40
0.0
  9
$DIMEXE
 40
1.0
  9
$DIMTP
 40
0.0
  9
$DIMTM
 40
0.0
  9
$DIMTXT
 40
3.5
  9
$DIMCEN
 40
2.5
  9
$DIMTSZ
 40
0.0
  9
$DIMTOL
 70
     0
  9
$DIMLIM
 70
     0
  9
$DIMTIH
 70
     1
  9
$DIMTOH
 70
     1
  9
$DIMSE1
 70
     0
  9
$DIMSE2
 70
     0
  9
$DIMTAD
 70
     1
  9
$DIMZIN
 70
     1
  9
$DIMBLK
  1

  9
$DIMASO
 70
     1
  9
$DIMSHO
 70
     1
  9
$DIMPOST
  1

  9
$DIMAPOST
  1

  9
$DIMALT
 70
     0
  9
$DIMALTD
 70
     3
  9
$DIMALTF
 40
0.0393700787
  9
$DIMLFAC
 40
1.0
  9
$DIMTOFL
 70
     1
  9
$DIMTVP
 40
0.0
  9
$DIMTIX
 70
     0
  9
$DIMSOXD
 70
     0
  9
$DIMSAH
 70
     0
  9
$DIMBLK1
  1

  9
$DIMBLK2
  1

  9
$DIMSTYLE
  2
ISO-25
  9
$DIMCLRD
 70
     0
  9
$DIMCLRE
 70
     0
  9
$DIMCLRT
 70
     0
  9
$DIMTFAC
 40
1.0
  9
$DIMGAP
 40
1.524
  9
$DIMJUST
 70
     0
  9
$DIMSD1
 70
     0
  9
$DIMSD2
 70
     0
  9
$DIMTOLJ
 70
     0
  9
$DIMTZIN
 70
     1
  9
$DIMALTZ
 70
     0
  9
$DIMALTTZ
 70
     0
  9
$DIMUPT
 70
     0
  9
$DIMDEC
 70
     2
  9
$DIMTDEC
 70
     2
  9
$DIMALTU
 70
     2
  9
$DIMALTTD
 70
     3
  9
$DIMTXSTY
  7
Standard
  9
$DIMAUNIT
 70
     0
  9
$DIMADEC
 70
     0
  9
$DIMALTRND
 40
0.0
  9
$DIMAZIN
 70
     0
  9
$DIMDSEP
 70
    44
  9
$DIMATFIT
 70
     3
  9
$DIMFRAC
 70
     0
  9
$DIMLDRBLK
  1

  9
$DIMLUNIT
 70
     2
  9
$DIMLWD
 70
    -2
  9
$DIMLWE
 70
    -2
  9
$DIMTMOVE
 70
     0
  9
$LUNITS
 70
     2
  9
$LUPREC
 70
     1
  9
$SKETCHINC
 40
1.0
  9
$FILLETRAD
 40
10.0
  9
$AUNITS
 70
     0
  9
$AUPREC
 70
     0
  9
$MENU
  1
.
  9
$ELEVATION
 40
0.0
  9
$PELEVATION
 40
0.0
  9
$THICKNESS
 40
0.0
  9
$LIMCHECK
 70
     0
  9
$CHAMFERA
 40
10.0
  9
$CHAMFERB
 40
10.0
  9
$CHAMFERC
 40
20.0
  9
$CHAMFERD
 40
0.0
  9
$SKPOLY
 70
     0
  9
$TDCREATE
 40
2454359.441661238
  9
$TDUCREATE
 40
2454359.066661238
  9
$TDUPDATE
 40
2454359.44166125
  9
$TDUUPDATE
 40
2454359.06666125
  9
$TDINDWG
 40
0.0000000116
  9
$TDUSRTIMER
 40
0.0000000116
  9
$USRTIMER
 70
     1
  9
$ANGBASE
 50
0.0
  9
$ANGDIR
 70
     0
  9
$PDMODE
 70
     0
  9
$PDSIZE
 40
-1.0
  9
$PLINEWID
 40
0.0
  9
$SPLFRAME
 70
     0
  9
$SPLINETYPE
 70
     6
  9
$SPLINESEGS
 70
     8
  9
$HANDSEED
  5
2D7
  9
$SURFTAB1
 70
     6
  9
$SURFTAB2
 70
     6
  9
$SURFTYPE
 70
     6
  9
$SURFU
 70
     6
  9
$SURFV
 70
     6
  9
$UCSBASE
  2

  9
$UCSNAME
  2

  9
$UCSORG
 10
0.0
 20
0.0
 30
0.0
  9
$UCSXDIR
 10
1.0
 20
0.0
 30
0.0
  9
$UCSYDIR
 10
0.0
 20
1.0
 30
0.0
  9
$UCSORTHOREF
  2

  9
$UCSORTHOVIEW
 70
     0
  9
$UCSORGTOP
 10
0.0
 20
0.0
 30
0.0
  9
$UCSORGBOTTOM
 10
0.0
 20
0.0
 30
0.0
  9
$UCSORGLEFT
 10
0.0
 20
0.0
 30
0.0
  9
$UCSORGRIGHT
 10
0.0
 20
0.0
 30
0.0
  9
$UCSORGFRONT
 10
0.0
 20
0.0
 30
0.0
  9
$UCSORGBACK
 10
0.0
 20
0.0
 30
0.0
  9
$PUCSBASE
  2

  9
$PUCSNAME
  2

  9
$PUCSORG
 10
0.0
 20
0.0
 30
0.0
  9
$PUCSXDIR
 10
1.0
 20
0.0
 30
0.0
  9
$PUCSYDIR
 10
0.0
 20
1.0
 30
0.0
  9
$PUCSORTHOREF
  2

  9
$PUCSORTHOVIEW
 70
     0
  9
$PUCSORGTOP
 10
0.0
 20
0.0
 30
0.0
  9
$PUCSORGBOTTOM
 10
0.0
 20
0.0
 30
0.0
  9
$PUCSORGLEFT
 10
0.0
 20
0.0
 30
0.0
  9
$PUCSORGRIGHT
 10
0.0
 20
0.0
 30
0.0
  9
$PUCSORGFRONT
 10
0.0
 20
0.0
 30
0.0
  9
$PUCSORGBACK
 10
0.0
 20
0.0
 30
0.0
  9
$USERI1
 70
     0
  9
$USERI2
 70
     0
  9
$USERI3
 70
     0
  9
$USERI4
 70
     0
  9
$USERI5
 70
     0
  9
$USERR1
 40
0.0
  9
$USERR2
 40
0.0
  9
$USERR3
 40
0.0
  9
$USERR4
 40
0.0
  9
$USERR5
 40
0.0
  9
$WORLDVIEW
 70
     1
  9
$SHADEDGE
 70
     3
  9
$SHADEDIF
 70
    70
  9
$TILEMODE
 70
     1
  9
$MAXACTVP
 70
    64
  9
$PINSBASE
 10
0.0
 20
0.0
 30
0.0
  9
$PLIMCHECK
 70
     0
  9
$PEXTMIN
 10
1.0000000000E+20
 20
1.0000000000E+20
 30
1.0000000000E+20
  9
$PEXTMAX
 10
-1.0000000000E+20
 20
-1.0000000000E+20
 30
-1.0000000000E+20
  9
$PLIMMIN
 10
0.0
 20
0.0
  9
$PLIMMAX
 10
420.0
 20
297.0
  9
$UNITMODE
 70
     0
  9
$VISRETAIN
 70
     1
  9
$PLINEGEN
 70
     0
  9
$PSLTSCALE
 70
     1
  9
$TREEDEPTH
 70
  3020
  9
$CMLSTYLE
  2
Standard
  9
$CMLJUST
 70
     0
  9
$CMLSCALE
 40
20.0
  9
$PROXYGRAPHICS
 70
     1
  9
$MEASUREMENT
 70
     1
  9
$CELWEIGHT
370
    -1
  9
$ENDCAPS
280
     0
  9
$JOINSTYLE
280
     0
  9
$LWDISPLAY
290
     1
  9
$INSUNITS
 70
     4
  9
$HYPERLINKBASE
  1

  9
$STYLESHEET
  1

  9
$XEDIT
290
     1
  9
$CEPSNTYPE
380
     0
  9
$PSTYLEMODE
290
     1
  9
$FINGERPRINTGUID
  2
{9B0CD22B-F782-4C8C-B341-D1F582B2583F}
  9
$VERSIONGUID
  2
{FAEB1C32-E019-11D5-929B-00C0DF256EC4}
  9
$EXTNAMES
290
     1
  9
$PSVPSCALE
 40
0.0
  9
$OLESTARTUP
290
     0
  0
ENDSEC
  0
SECTION
  2
CLASSES
  0
CLASS
  1
ACDBDICTIONARYWDFLT
  2
AcDbDictionaryWithDefault
  3
ObjectDBX Classes
 90
        0
280
     0
281
     0
  0
CLASS
  1
ACDBPLACEHOLDER
  2
AcDbPlaceHolder
  3
ObjectDBX Classes
 90
        0
280
     0
281
     0
  0
CLASS
  1
LAYOUT
  2
AcDbLayout
  3
ObjectDBX Classes
 90
        0
280
     0
281
     0
  0
ENDSEC
  0
SECTION
  2
TABLES
  0
TABLE
  2
VPORT
  5
8
330
0
100
AcDbSymbolTable
 70
     1
  0
VPORT
  5
29
330
8
100
AcDbSymbolTableRecord
100
AcDbViewportTableRecord
  2
*Active
 70
     0
 10
0.0
 20
0.0
 11
1.0
 21
1.0
 12
105.0
 22
148.5
 13
0.0
 23
0.0
 14
10.0
 24
10.0
 15
10.0
 25
10.0
 16
0.0
 26
0.0
 36
1.0
 17
0.0
 27
0.0
 37
0.0
 40
297.0
 41
1.9729729729
 42
50.0
 43
0.0
 44
0.0
 50
0.0
 51
0.0
 71
     0
 72
  2000
 73
     1
 74
     3
 75
     0
 76
     0
 77
     0
 78
     0
281
     0
 65
     1
110
0.0
120
0.0
130
0.0
111
1.0
121
0.0
131
0.0
112
0.0
122
1.0
132
0.0
 79
     0
146
0.0
  0
ENDTAB
  0
TABLE
  2
LTYPE
  5
5
330
0
100
AcDbSymbolTable
 70
     6
  0
LTYPE
  5
14
330
5
100
AcDbSymbolTableRecord
100
AcDbLinetypeTableRecord
  2
ByBlock
 70
     0
  3

 72
    65
 73
     0
 40
0.0
  0
LTYPE
  5
15
330
5
100
AcDbSymbolTableRecord
100
AcDbLinetypeTableRecord
  2
ByLayer
 70
     0
  3

 72
    65
 73
     0
 40
0.0
  0
LTYPE
  5
16
330
5
100
AcDbSymbolTableRecord
100
AcDbLinetypeTableRecord
  2
Continuous
 70
     0
  3
Solid line
 72
    65
 73
     0
 40
0.0
  0
LTYPE
  5
2A
330
5
100
AcDbSymbolTableRecord
100
AcDbLinetypeTableRecord
  2
HIDDEN
 70
     0
  3
Hidden __ __ __ __ __ __ __ __ __ __ __ __ __ __
 72
    65
 73
     2
 40
1.905
 49
1.27
 74
     0
 49
-0.635
 74
     0
  0
LTYPE
  5
2B
330
5
100
AcDbSymbolTableRecord
100
AcDbLinetypeTableRecord
  2
PHANTOM
 70
     0
  3
Phantom ______  __  __  ______  __  __  ______
 72
    65
 73
     6
 40
12.7
 49
6.35
 74
     0
 49
-1.27
 74
     0
 49
1.27
 74
     0
 49
-1.27
 74
     0
 49
1.27
 74
     0
 49
-1.27
 74
     0
  0
LTYPE
  5
2C
330
5
100
AcDbSymbolTableRecord
100
AcDbLinetypeTableRecord
  2
CENTER
 70
     0
  3
Center ____ _ ____ _ ____ _ ____ _ ____ _ ____
 72
    65
 73
     4
 40
10.16
 49
6.35
 74
     0
 49
-1.27
 74
     0
 49
1.27
 74
     0
 49
-1.27
 74
     0
  0
LTYPE
  5
2D
330
5
100
AcDbSymbolTableRecord
100
AcDbLinetypeTableRecord
  2
CENTERX2
 70
     0
  3
Center (2x) ________  __  ________  __  _____
 72
    65
 73
     4
 40
20.32
 49
12.7
 74
     0
 49
-2.54
 74
     0
 49
2.54
 74
     0
 49
-2.54
 74
     0
  0
LTYPE
  5
2E
330
5
100
AcDbSymbolTableRecord
100
AcDbLinetypeTableRecord
  2
DOT2
 70
     0
  3
Dot (.5x) ........................................
 72
    65
 73
     2
 40
0.635
 49
0.0
 74
     0
 49
-0.635
 74
     0
  0
ENDTAB
  0
TABLE
  2
LAYER
  5
2
330
0
100
AcDbSymbolTable
 70
     4
  0
LAYER
  5
10
330
2
100
AcDbSymbolTableRecord
100
AcDbLayerTableRecord
  2
0
 70
     0
 62
     7
  6
Continuous
370
    -3
390
F
  0
LAYER
  5
2F
330
2
100
AcDbSymbolTableRecord
100
AcDbLayerTableRecord
  2
SLD-0
 70
     0
 62
     7
  6
Continuous
370
     0
390
F
  0
LAYER
  5
30
330
2
100
AcDbSymbolTableRecord
100
AcDbLayerTableRecord
  2
SLD-DEFPOINTS
 70
     0
 62
     7
  6
Continuous
370
     0
390
F
  0
LAYER
  5
113
330
2
100
AcDbSymbolTableRecord
100
AcDbLayerTableRecord
  2
Defpoints
 70
     0
 62
     7
  6
Continuous
290
     0
370
    -3
390
F
  0
ENDTAB
  0
TABLE
  2
STYLE
  5
3
330
0
100
AcDbSymbolTable
 70
     4
  0
STYLE
  5
11
330
3
100
AcDbSymbolTableRecord
100
AcDbTextStyleTableRecord
  2
Standard
 70
     0
 40
0.0
 41
1.0
 50
0.0
 71
     0
 42
2.5
  3
txt
  4
bigfont
  0
STYLE
  5
34
330
3
100
AcDbSymbolTableRecord
100
AcDbTextStyleTableRecord
  2
SLDTEXTSTYLE0
 70
     0
 40
0.0
 41
0.7
 50
0.0
 71
     0
 42
0.2
  3
TXT
  4
bigfont
  0
STYLE
  5
40
330
3
100
AcDbSymbolTableRecord
100
AcDbTextStyleTableRecord
  2
SLDTEXTSTYLE1
 70
     0
 40
0.0
 41
0.75
 50
0.0
 71
     0
 42
0.2
  3
TXT
  4
bigfont
  0
STYLE
  5
125
330
3
100
AcDbSymbolTableRecord
100
AcDbTextStyleTableRecord
  2
SLDTEXTSTYLE2
 70
     0
 40
0.0
 41
0.96
 50
0.0
 71
     0
 42
0.2
  3
TXT
  4
bigfont
  0
ENDTAB
  0
TABLE
  2
VIEW
  5
6
330
0
100
AcDbSymbolTable
 70
     0
  0
ENDTAB
  0
TABLE
  2
UCS
  5
7
330
0
100
AcDbSymbolTable
 70
     0
  0
ENDTAB
  0
TABLE
  2
APPID
  5
9
330
0
100
AcDbSymbolTable
 70
     1
  0
APPID
  5
12
330
9
100
AcDbSymbolTableRecord
100
AcDbRegAppTableRecord
  2
ACAD
 70
     0
  0
ENDTAB
  0
TABLE
  2
DIMSTYLE
  5
A
330
0
100
AcDbSymbolTable
 70
     7
100
AcDbDimStyleTable
  0
DIMSTYLE
105
27
330
A
100
AcDbSymbolTableRecord
100
AcDbDimStyleTableRecord
  2
ISO-25
 70
     0
 41
2.5
 42
0.625
 43
3.75
 44
1.25
 73
     0
 74
     0
 77
     1
 78
     8
140
2.5
141
2.5
143
0.0393700787
147
0.625
171
     3
172
     1
271
     2
272
     2
274
     3
278
    44
283
     0
284
     8
340
11
  0
DIMSTYLE
105
120
102
{ACAD_REACTORS
330
112
102
}
330
A
100
AcDbSymbolTableRecord
100
AcDbDimStyleTableRecord
  2
SLDDIMSTYLE0
 70
     0
 41
3.0
 44
0.0
 78
    12
140
3.5
147
0.875
172
     1
173
     1
271
     0
272
     3
284
    12
340
40
341
37
343
37
344
37
  0
DIMSTYLE
105
137
102
{ACAD_REACTORS
330
129
330
145
330
17B
330
1B0
330
1DA
330
1F1
330
222
330
239
330
2AB
102
}
330
A
100
AcDbSymbolTableRecord
100
AcDbDimStyleTableRecord
  2
SLDDIMSTYLE1
 70
     0
 41
3.0
 44
0.0
 73
     0
 74
     0
 77
     3
 78
    12
140
3.5
147
0.875
173
     1
271
     0
272
     3
284
    12
340
40
341
138
343
138
344
138
  0
DIMSTYLE
105
16E
102
{ACAD_REACTORS
330
15F
102
}
330
A
100
AcDbSymbolTableRecord
100
AcDbDimStyleTableRecord
  2
SLDDIMSTYLE2
 70
     0
 41
3.0
 44
0.0
 73
     0
 74
     0
 77
     3
 78
     8
140
3.5
147
0.875
173
     1
271
     1
272
     3
284
    12
340
40
341
138
343
138
344
138
  0
DIMSTYLE
105
1A3
102
{ACAD_REACTORS
330
195
330
20A
330
250
330
26A
102
}
330
A
100
AcDbSymbolTableRecord
100
AcDbDimStyleTableRecord
  2
SLDDIMSTYLE3
 70
     0
 41
3.0
 44
0.0
 73
     0
 74
     0
 77
     3
 78
    12
140
3.5
147
0.875
173
     1
271
     0
272
     2
284
    12
340
40
341
138
343
138
344
138
  0
DIMSTYLE
105
1D1
102
{ACAD_REACTORS
330
1C7
330
284
102
}
330
A
100
AcDbSymbolTableRecord
100
AcDbDimStyleTableRecord
  2
SLDDIMSTYLE4
 70
     0
 41
3.0
 44
0.0
 78
    12
140
3.5
147
0.875
172
     1
173
     1
271
     0
272
     3
284
    12
340
40
341
138
343
138
344
138
  0
DIMSTYLE
105
2A0
102
{ACAD_REACTORS
330
296
102
}
330
A
100
AcDbSymbolTableRecord
100
AcDbDimStyleTableRecord
  2
SLDDIMSTYLE5
 70
     0
 41
3.0
 44
0.0
 78
    12
140
3.5
147
0.875
172
     1
173
     1
271
     1
272
     3
284
    12
340
40
341
138
343
138
344
138
  0
ENDTAB
  0
TABLE
  2
BLOCK_RECORD
  5
1
330
0
100
AcDbSymbolTable
 70
    28
  0
BLOCK_RECORD
  5
1F
330
1
100
AcDbSymbolTableRecord
100
AcDbBlockTableRecord
  2
*Model_Space
340
22
  0
BLOCK_RECORD
  5
1B
330
1
100
AcDbSymbolTableRecord
100
AcDbBlockTableRecord
  2
*Paper_Space
340
1E
  0
BLOCK_RECORD
  5
23
330
1
100
AcDbSymbolTableRecord
100
AcDbBlockTableRecord
  2
*Paper_Space0
340
26
  0
BLOCK_RECORD
  5
31
330
1
100
AcDbSymbolTableRecord
100
AcDbBlockTableRecord
  2
注記
340
0
  0
BLOCK_RECORD
  5
37
330
1
100
AcDbSymbolTableRecord
100
AcDbBlockTableRecord
  2
_OPEN30
340
0
102
{BLKREFS
331
11A
331
119
331
121
331
2CF
331
2D4
102
}
  0
BLOCK_RECORD
  5
3D
330
1
100
AcDbSymbolTableRecord
100
AcDbBlockTableRecord
  2
NOTE51
340
0
102
{BLKREFS
331
2D0
102
}
  0
BLOCK_RECORD
  5
42
330
1
100
AcDbSymbolTableRecord
100
AcDbBlockTableRecord
  2
SW_CENTERMARK0
340
0
102
{BLKREFS
331
2D1
102
}
  0
BLOCK_RECORD
  5
4D
330
1
100
AcDbSymbolTableRecord
100
AcDbBlockTableRecord
  2
SW_CENTERMARK1
340
0
102
{BLKREFS
331
2D2
102
}
  0
BLOCK_RECORD
  5
58
330
1
100
AcDbSymbolTableRecord
100
AcDbBlockTableRecord
  2
SURFACEFINISH52
340
0
102
{BLKREFS
331
2D3
102
}
  0
BLOCK_RECORD
  5
5F
330
1
100
AcDbSymbolTableRecord
100
AcDbBlockTableRecord
  2
SW_CENTERMARK2
340
0
102
{BLKREFS
331
2D5
102
}
  0
BLOCK_RECORD
  5
6A
330
1
100
AcDbSymbolTableRecord
100
AcDbBlockTableRecord
  2
SW_CENTERMARK3
340
0
102
{BLKREFS
331
2D6
102
}
  0
BLOCK_RECORD
  5
114
330
1
100
AcDbSymbolTableRecord
100
AcDbBlockTableRecord
  2
*D9
340
0
  0
BLOCK_RECORD
  5
12A
330
1
100
AcDbSymbolTableRecord
100
AcDbBlockTableRecord
  2
*D10
340
0
  0
BLOCK_RECORD
  5
138
330
1
100
AcDbSymbolTableRecord
100
AcDbBlockTableRecord
  2
_None
340
0
102
{BLKREFS
331
12F
331
12E
331
14B
331
14A
331
166
331
165
331
181
331
180
331
19B
331
19A
331
1B6
331
1B5
331
1CC
331
1E0
331
1DF
331
1F7
331
1F6
331
210
331
20F
331
228
331
227
331
23F
331
23E
331
256
331
255
331
270
331
26F
331
289
331
29B
331
2B1
331
2B0
102
}
  0
BLOCK_RECORD
  5
146
330
1
100
AcDbSymbolTableRecord
100
AcDbBlockTableRecord
  2
*D12
340
0
  0
BLOCK_RECORD
  5
160
330
1
100
AcDbSymbolTableRecord
100
AcDbBlockTableRecord
  2
*D13
340
0
  0
BLOCK_RECORD
  5
17C
330
1
100
AcDbSymbolTableRecord
100
AcDbBlockTableRecord
  2
*D14
340
0
  0
BLOCK_RECORD
  5
196
330
1
100
AcDbSymbolTableRecord
100
AcDbBlockTableRecord
  2
*D15
340
0
  0
BLOCK_RECORD
  5
1B1
330
1
100
AcDbSymbolTableRecord
100
AcDbBlockTableRecord
  2
*D16
340
0
  0
BLOCK_RECORD
  5
1C8
330
1
100
AcDbSymbolTableRecord
100
AcDbBlockTableRecord
  2
*D17
340
0
  0
BLOCK_RECORD
  5
1DB
330
1
100
AcDbSymbolTableRecord
100
AcDbBlockTableRecord
  2
*D18
340
0
  0
BLOCK_RECORD
  5
1F2
330
1
100
AcDbSymbolTableRecord
100
AcDbBlockTableRecord
  2
*D19
340
0
  0
BLOCK_RECORD
  5
20B
330
1
100
AcDbSymbolTableRecord
100
AcDbBlockTableRecord
  2
*D20
340
0
  0
BLOCK_RECORD
  5
223
330
1
100
AcDbSymbolTableRecord
100
AcDbBlockTableRecord
  2
*D21
340
0
  0
BLOCK_RECORD
  5
23A
330
1
100
AcDbSymbolTableRecord
100
AcDbBlockTableRecord
  2
*D22
340
0
  0
BLOCK_RECORD
  5
251
330
1
100
AcDbSymbolTableRecord
100
AcDbBlockTableRecord
  2
*D23
340
0
  0
BLOCK_RECORD
  5
26B
330
1
100
AcDbSymbolTableRecord
100
AcDbBlockTableRecord
  2
*D24
340
0
  0
BLOCK_RECORD
  5
285
330
1
100
AcDbSymbolTableRecord
100
AcDbBlockTableRecord
  2
*D25
340
0
  0
BLOCK_RECORD
  5
297
330
1
100
AcDbSymbolTableRecord
100
AcDbBlockTableRecord
  2
*D26
340
0
  0
BLOCK_RECORD
  5
2AC
330
1
100
AcDbSymbolTableRecord
100
AcDbBlockTableRecord
  2
*D27
340
0
  0
ENDTAB
  0
ENDSEC
  0
SECTION
  2
BLOCKS
  0
BLOCK
  5
20
330
1F
100
AcDbEntity
  8
0
100
AcDbBlockBegin
  2
*Model_Space
 70
     0
 71
     0
 10
0.0
 20
0.0
 30
0.0
  3
*Model_Space
  1

  0
ENDBLK
  5
21
330
1F
100
AcDbEntity
  8
0
100
AcDbBlockEnd
  0
BLOCK
  5
1C
330
1B
100
AcDbEntity
 67
     1
  8
0
100
AcDbBlockBegin
  2
*Paper_Space
 70
     0
 71
     0
 10
0.0
 20
0.0
 30
0.0
  3
*Paper_Space
  1

  0
ENDBLK
  5
1D
330
1B
100
AcDbEntity
 67
     1
  8
0
100
AcDbBlockEnd
  0
BLOCK
  5
24
330
23
100
AcDbEntity
  8
0
100
AcDbBlockBegin
  2
*Paper_Space0
 70
     0
 71
     0
 10
0.0
 20
0.0
 30
0.0
  3
*Paper_Space0
  1

  0
ENDBLK
  5
25
330
23
100
AcDbEntity
  8
0
100
AcDbBlockEnd
  0
BLOCK
  5
32
330
31
100
AcDbEntity
  8
0
100
AcDbBlockBegin
  2
注記
 70
     0
 71
     0
 10
0.0
 20
0.0
 30
0.0
  3
注記
  1

  0
MTEXT
  5
35
330
31
100
AcDbEntity
  8
0
  6
Continuous
 62
     7
370
     0
100
AcDbMText
 10
0.2636785918
 20
9.0739778448
 30
0.0
 40
3.5
 41
0.0
 71
     1
 72
     1
  1
１．特記ナキ角部ハ、バリ　カエリノ無キコト。
  7
SLDTEXTSTYLE0
 73
     1
 44
1.0
  0
MTEXT
  5
36
330
31
100
AcDbEntity
  8
0
  6
Continuous
 62
     7
370
     0
100
AcDbMText
 10
0.2636785918
 20
3.5759549983
 30
0.0
 40
3.5
 41
0.0
 71
     1
 72
     1
  1
２．特記ナキ隅部ハ、Ｒ０．４ＭＡＸトスル。
  7
SLDTEXTSTYLE0
 73
     1
 44
1.0
  0
ENDBLK
  5
33
330
31
100
AcDbEntity
  8
0
100
AcDbBlockEnd
  0
BLOCK
  5
38
330
37
100
AcDbEntity
  8
0
100
AcDbBlockBegin
  2
_OPEN30
 70
     0
 71
     0
 10
0.0
 20
0.0
 30
0.0
  3
_OPEN30
  1

  0
LINE
  5
3A
330
37
100
AcDbEntity
  8
SLD-0
  6
Continuous
100
AcDbLine
 10
-1.0
 20
0.267949
 30
0.0
 11
0.0
 21
0.0
 31
0.0
  0
LINE
  5
3B
330
37
100
AcDbEntity
  8
SLD-0
  6
Continuous
100
AcDbLine
 10
0.0
 20
0.0
 30
0.0
 11
-1.0
 21
-0.267949
 31
0.0
  0
LINE
  5
3C
330
37
100
AcDbEntity
  8
SLD-0
  6
Continuous
100
AcDbLine
 10
0.0
 20
0.0
 30
0.0
 11
-1.0
 21
0.0
 31
0.0
  0
ENDBLK
  5
39
330
37
100
AcDbEntity
  8
0
100
AcDbBlockEnd
  0
BLOCK
  5
3E
330
3D
100
AcDbEntity
  8
0
100
AcDbBlockBegin
  2
NOTE51
 70
     0
 71
     0
 10
0.0
 20
0.0
 30
0.0
  3
NOTE51
  1

  0
MTEXT
  5
41
330
3D
100
AcDbEntity
  8
SLD-0
100
AcDbMText
 10
0.002857249
 20
4.5280824115
 30
0.0
 40
3.5
 41
0.0
 71
     1
 72
     1
  1
M4
  7
SLDTEXTSTYLE1
 73
     1
 44
1.0
  0
ENDBLK
  5
3F
330
3D
100
AcDbEntity
  8
0
100
AcDbBlockEnd
  0
BLOCK
  5
43
330
42
100
AcDbEntity
  8
0
100
AcDbBlockBegin
  2
SW_CENTERMARK0
 70
     0
 71
     0
 10
0.0
 20
0.0
 30
0.0
  3
SW_CENTERMARK0
  1

  0
LINE
  5
45
330
42
100
AcDbEntity
  8
SLD-0
  6
Continuous
 62
     7
100
AcDbLine
 10
106.4387076424
 20
134.0408661007
 30
0.0
 11
106.4387076424
 21
136.5408661007
 31
0.0
  0
LINE
  5
46
330
42
100
AcDbEntity
  8
SLD-0
  6
Continuous
 62
     7
100
AcDbLine
 10
106.4387076424
 20
134.0408661007
 30
0.0
 11
103.9387073369
 21
134.0408661007
 31
0.0
  0
LINE
  5
47
330
42
100
AcDbEntity
  8
SLD-0
  6
Continuous
 62
     7
100
AcDbLine
 10
106.4387076424
 20
134.0408661007
 30
0.0
 11
106.4387076424
 21
131.5408661007
 31
0.0
  0
LINE
  5
48
330
42
100
AcDbEntity
  8
SLD-0
  6
Continuous
 62
     7
100
AcDbLine
 10
106.4387076424
 20
134.0408661007
 30
0.0
 11
108.9387076424
 21
134.0408661007
 31
0.0
  0
LINE
  5
49
330
42
100
AcDbEntity
  8
SLD-0
  6
Continuous
 62
     7
100
AcDbLine
 10
106.4387076424
 20
136.5408661007
 30
0.0
 11
106.4387076424
 21
139.0408661007
 31
0.0
  0
LINE
  5
4A
330
42
100
AcDbEntity
  8
SLD-0
  6
Continuous
 62
     7
100
AcDbLine
 10
103.9387073369
 20
134.0408661007
 30
0.0
 11
101.4387076424
 21
134.0408661007
 31
0.0
  0
LINE
  5
4B
330
42
100
AcDbEntity
  8
SLD-0
  6
Continuous
 62
     7
100
AcDbLine
 10
106.4387076424
 20
131.5408661007
 30
0.0
 11
106.4387076424
 21
129.0408661007
 31
0.0
  0
LINE
  5
4C
330
42
100
AcDbEntity
  8
SLD-0
  6
Continuous
 62
     7
100
AcDbLine
 10
108.9387076424
 20
134.0408661007
 30
0.0
 11
111.4387076424
 21
134.0408661007
 31
0.0
  0
ENDBLK
  5
44
330
42
100
AcDbEntity
  8
0
100
AcDbBlockEnd
  0
BLOCK
  5
4E
330
4D
100
AcDbEntity
  8
0
100
AcDbBlockBegin
  2
SW_CENTERMARK1
 70
     0
 71
     0
 10
0.0
 20
0.0
 30
0.0
  3
SW_CENTERMARK1
  1

  0
LINE
  5
50
330
4D
100
AcDbEntity
  8
SLD-0
  6
Continuous
 62
     7
100
AcDbLine
 10
94.4387076424
 20
134.0408661007
 30
0.0
 11
94.4387076424
 21
136.5408661007
 31
0.0
  0
LINE
  5
51
330
4D
100
AcDbEntity
  8
SLD-0
  6
Continuous
 62
     7
100
AcDbLine
 10
94.4387076424
 20
134.0408661007
 30
0.0
 11
91.9387076424
 21
134.0408661007
 31
0.0
  0
LINE
  5
52
330
4D
100
AcDbEntity
  8
SLD-0
  6
Continuous
 62
     7
100
AcDbLine
 10
94.4387076424
 20
134.0408661007
 30
0.0
 11
94.4387076424
 21
131.5408661007
 31
0.0
  0
LINE
  5
53
330
4D
100
AcDbEntity
  8
SLD-0
  6
Continuous
 62
     7
100
AcDbLine
 10
94.4387076424
 20
134.0408661007
 30
0.0
 11
96.9387076424
 21
134.0408661007
 31
0.0
  0
LINE
  5
54
330
4D
100
AcDbEntity
  8
SLD-0
  6
Continuous
 62
     7
100
AcDbLine
 10
94.4387076424
 20
139.0408661007
 30
0.0
 11
94.4387076424
 21
140.5408661007
 31
0.0
  0
LINE
  5
55
330
4D
100
AcDbEntity
  8
SLD-0
  6
Continuous
 62
     7
100
AcDbLine
 10
89.4387076424
 20
134.0408661007
 30
0.0
 11
87.9387076424
 21
134.0408661007
 31
0.0
  0
LINE
  5
56
330
4D
100
AcDbEntity
  8
SLD-0
  6
Continuous
 62
     7
100
AcDbLine
 10
94.4387076424
 20
129.0408661007
 30
0.0
 11
94.4387076424
 21
127.5408661007
 31
0.0
  0
LINE
  5
57
330
4D
100
AcDbEntity
  8
SLD-0
  6
Continuous
 62
     7
100
AcDbLine
 10
99.4387076424
 20
134.0408661007
 30
0.0
 11
100.9387076424
 21
134.0408661007
 31
0.0
  0
ENDBLK
  5
4F
330
4D
100
AcDbEntity
  8
0
100
AcDbBlockEnd
  0
BLOCK
  5
59
330
58
100
AcDbEntity
  8
0
100
AcDbBlockBegin
  2
SURFACEFINISH52
 70
     0
 71
     0
 10
0.0
 20
0.0
 30
0.0
  3
SURFACEFINISH52
  1

  0
LINE
  5
5B
330
58
100
AcDbEntity
  8
SLD-0
  6
Continuous
 62
     7
100
AcDbLine
 10
1.8553767917
 20
-4.0283382439
 30
0.0
 11
-0.5210185263
 21
0.0000000873
 31
0.0
  0
LINE
  5
5C
330
58
100
AcDbEntity
  8
SLD-0
  6
Continuous
 62
     7
100
AcDbLine
 10
4.2317721097
 20
0.0000000873
 30
0.0
 11
-0.5210185263
 21
0.0000000873
 31
0.0
  0
LINE
  5
5D
330
58
100
AcDbEntity
  8
SLD-0
  6
Continuous
 62
     7
100
AcDbLine
 10
1.8553767917
 20
-4.0283382439
 30
0.0
 11
6.6081674276
 21
4.0283384185
 31
0.0
  0
MTEXT
  5
5E
330
58
100
AcDbEntity
  8
SLD-0
100
AcDbMText
 10
0.0
 20
3.2740739053
 30
0.0
 40
2.1166666667
 41
0.0
 71
     1
 72
     1
  1
6.3
  7
SLDTEXTSTYLE1
 73
     1
 44
1.0
  0
ENDBLK
  5
5A
330
58
100
AcDbEntity
  8
0
100
AcDbBlockEnd
  0
BLOCK
  5
60
330
5F
100
AcDbEntity
  8
0
100
AcDbBlockBegin
  2
SW_CENTERMARK2
 70
     0
 71
     0
 10
0.0
 20
0.0
 30
0.0
  3
SW_CENTERMARK2
  1

  0
LINE
  5
62
330
5F
100
AcDbEntity
  8
SLD-0
  6
Continuous
 62
     7
100
AcDbLine
 10
86.4387076424
 20
204.7405694761
 30
0.0
 11
86.4387076424
 21
207.2405694761
 31
0.0
  0
LINE
  5
63
330
5F
100
AcDbEntity
  8
SLD-0
  6
Continuous
 62
     7
100
AcDbLine
 10
86.4387076424
 20
204.7405694761
 30
0.0
 11
83.9387076424
 21
204.7405694761
 31
0.0
  0
LINE
  5
64
330
5F
100
AcDbEntity
  8
SLD-0
  6
Continuous
 62
     7
100
AcDbLine
 10
86.4387076424
 20
204.7405694761
 30
0.0
 11
86.4387076424
 21
202.2405694761
 31
0.0
  0
LINE
  5
65
330
5F
100
AcDbEntity
  8
SLD-0
  6
Continuous
 62
     7
100
AcDbLine
 10
86.4387076424
 20
204.7405694761
 30
0.0
 11
88.9387076424
 21
204.7405694761
 31
0.0
  0
LINE
  5
66
330
5F
100
AcDbEntity
  8
SLD-0
  6
Continuous
 62
     7
100
AcDbLine
 10
86.4387076424
 20
209.7405694761
 30
0.0
 11
86.4387076424
 21
211.2405694761
 31
0.0
  0
LINE
  5
67
330
5F
100
AcDbEntity
  8
SLD-0
  6
Continuous
 62
     7
100
AcDbLine
 10
81.4387076424
 20
204.7405694761
 30
0.0
 11
79.9387076424
 21
204.7405694761
 31
0.0
  0
LINE
  5
68
330
5F
100
AcDbEntity
  8
SLD-0
  6
Continuous
 62
     7
100
AcDbLine
 10
86.4387076424
 20
199.7405694761
 30
0.0
 11
86.4387076424
 21
198.2405694761
 31
0.0
  0
LINE
  5
69
330
5F
100
AcDbEntity
  8
SLD-0
  6
Continuous
 62
     7
100
AcDbLine
 10
91.4387076424
 20
204.7405694761
 30
0.0
 11
92.9387076424
 21
204.7405694761
 31
0.0
  0
ENDBLK
  5
61
330
5F
100
AcDbEntity
  8
0
100
AcDbBlockEnd
  0
BLOCK
  5
6B
330
6A
100
AcDbEntity
  8
0
100
AcDbBlockBegin
  2
SW_CENTERMARK3
 70
     0
 71
     0
 10
0.0
 20
0.0
 30
0.0
  3
SW_CENTERMARK3
  1

  0
LINE
  5
6D
330
6A
100
AcDbEntity
  8
SLD-0
  6
Continuous
 62
     7
100
AcDbLine
 10
106.4387076424
 20
204.7405694761
 30
0.0
 11
106.4387076424
 21
207.2405694761
 31
0.0
  0
LINE
  5
6E
330
6A
100
AcDbEntity
  8
SLD-0
  6
Continuous
 62
     7
100
AcDbLine
 10
106.4387076424
 20
204.7405694761
 30
0.0
 11
103.9387073369
 21
204.7405694761
 31
0.0
  0
LINE
  5
6F
330
6A
100
AcDbEntity
  8
SLD-0
  6
Continuous
 62
     7
100
AcDbLine
 10
106.4387076424
 20
204.7405694761
 30
0.0
 11
106.4387076424
 21
202.2405694761
 31
0.0
  0
LINE
  5
70
330
6A
100
AcDbEntity
  8
SLD-0
  6
Continuous
 62
     7
100
AcDbLine
 10
106.4387076424
 20
204.7405694761
 30
0.0
 11
108.9387072252
 21
204.7405694761
 31
0.0
  0
LINE
  5
71
330
6A
100
AcDbEntity
  8
SLD-0
  6
Continuous
 62
     7
100
AcDbLine
 10
106.4387076424
 20
207.2405694761
 30
0.0
 11
106.4387076424
 21
209.7405694761
 31
0.0
  0
LINE
  5
72
330
6A
100
AcDbEntity
  8
SLD-0
  6
Continuous
 62
     7
100
AcDbLine
 10
103.9387073369
 20
204.7405694761
 30
0.0
 11
101.4387076424
 21
204.7405694761
 31
0.0
  0
LINE
  5
73
330
6A
100
AcDbEntity
  8
SLD-0
  6
Continuous
 62
     7
100
AcDbLine
 10
106.4387076424
 20
202.2405694761
 30
0.0
 11
106.4387076424
 21
199.7405694761
 31
0.0
  0
LINE
  5
74
330
6A
100
AcDbEntity
  8
SLD-0
  6
Continuous
 62
     7
100
AcDbLine
 10
108.9387072252
 20
204.7405694761
 30
0.0
 11
111.4387076424
 21
204.7405694761
 31
0.0
  0
ENDBLK
  5
6C
330
6A
100
AcDbEntity
  8
0
100
AcDbBlockEnd
  0
BLOCK
  5
11E
330
114
100
AcDbEntity
  8
0
100
AcDbBlockBegin
  2
*D9
 70
     1
 71
     0
 10
0.0
 20
0.0
 30
0.0
  3
*D9
  1

  0
INSERT
  5
121
330
114
100
AcDbEntity
  8
SLD-0
 62
     7
100
AcDbBlockReference
  2
_OPEN30
 10
91.6166914799
 20
136.8756896892
 30
0.1
 41
3.0
 42
3.0
 50
314.8702791256
  0
LINE
  5
122
330
114
100
AcDbEntity
  8
SLD-0
 62
     7
100
AcDbLine
 10
91.6166914799
 20
136.8756896892
 30
0.0
 11
76.9230489457
 21
151.6360177871
 31
0.0
  0
LINE
  5
123
330
114
100
AcDbEntity
  8
SLD-0
 62
     7
100
AcDbLine
 10
97.260723805
 20
131.2060425121
 30
0.0
 11
91.6166914799
 21
136.8756896892
 31
0.0
  0
LINE
  5
124
330
114
100
AcDbEntity
  8
SLD-0
 62
     7
100
AcDbLine
 10
76.9230489457
 20
151.6360177871
 30
0.0
 11
57.9863196097
 21
151.6360177871
 31
0.0
  0
MTEXT
  5
126
330
114
100
AcDbEntity
  8
SLD-0
 62
     7
100
AcDbMText
 10
59.5738196097
 20
156.4101185065
 30
0.0
 40
3.5
 41
0.0
 71
     1
 72
     1
  1
%%c
  7
SLDTEXTSTYLE2
 73
     1
 44
1.0
  0
MTEXT
  5
127
330
114
100
AcDbEntity
  8
SLD-0
 62
     7
100
AcDbMText
 10
64.2094921568
 20
156.4101185065
 30
0.0
 40
3.5
 41
0.0
 71
     1
 72
     1
  1
8
  7
SLDTEXTSTYLE2
 73
     1
 44
1.0
  0
MTEXT
  5
128
330
114
100
AcDbEntity
  8
SLD-0
 62
     7
100
AcDbMText
 10
66.9386542975
 20
156.4101185065
 30
0.0
 40
3.5
 41
0.0
 71
     1
 72
     1
  1
　 
  7
SLDTEXTSTYLE2
 73
     1
 44
1.0
  0
ENDBLK
  5
11F
330
114
100
AcDbEntity
  8
0
100
AcDbBlockEnd
  0
BLOCK
  5
135
330
12A
100
AcDbEntity
  8
0
100
AcDbBlockBegin
  2
*D10
 70
     1
 71
     0
 10
0.0
 20
0.0
 30
0.0
  3
*D10
  1

  0
LINE
  5
13B
330
12A
100
AcDbEntity
  8
SLD-0
 62
     7
100
AcDbLine
 10
114.4387076424
 20
128.0408661007
 30
0.0
 11
136.4320914332
 21
128.0408661007
 31
0.0
  0
LINE
  5
13C
330
12A
100
AcDbEntity
  8
SLD-0
 62
     7
100
AcDbLine
 10
114.4387076424
 20
140.0408661007
 30
0.0
 11
136.4320914332
 21
140.0408661007
 31
0.0
  0
LINE
  5
13D
330
12A
100
AcDbEntity
  8
SLD-0
 62
     7
100
AcDbLine
 10
135.4320914332
 20
128.0408661007
 30
0.0
 11
135.4320914332
 21
140.0408661007
 31
0.0
  0
LINE
  5
13E
330
12A
100
AcDbEntity
  8
SLD-0
 62
     7
100
AcDbLine
 10
136.2359384332
 20
131.0408661007
 30
0.0
 11
135.4320914332
 21
128.0408661007
 31
0.0
  0
LINE
  5
13F
330
12A
100
AcDbEntity
  8
SLD-0
 62
     7
100
AcDbLine
 10
135.4320914332
 20
128.0408661007
 30
0.0
 11
134.6282444332
 21
131.0408661007
 31
0.0
  0
LINE
  5
140
330
12A
100
AcDbEntity
  8
SLD-0
 62
     7
100
AcDbLine
 10
135.4320914332
 20
128.0408661007
 30
0.0
 11
135.4320914332
 21
131.0408661007
 31
0.0
  0
LINE
  5
141
330
12A
100
AcDbEntity
  8
SLD-0
 62
     7
100
AcDbLine
 10
134.6282444332
 20
137.0408661007
 30
0.0
 11
135.4320914332
 21
140.0408661007
 31
0.0
  0
LINE
  5
142
330
12A
100
AcDbEntity
  8
SLD-0
 62
     7
100
AcDbLine
 10
135.4320914332
 20
140.0408661007
 30
0.0
 11
136.2359384332
 21
137.0408661007
 31
0.0
  0
LINE
  5
143
330
12A
100
AcDbEntity
  8
SLD-0
 62
     7
100
AcDbLine
 10
135.4320914332
 20
140.0408661007
 30
0.0
 11
135.4320914332
 21
137.0408661007
 31
0.0
  0
MTEXT
  5
144
330
12A
100
AcDbEntity
  8
SLD-0
 62
     7
100
AcDbMText
 10
130.9053976209
 20
132.0044160411
 30
0.1
 40
3.5
 41
0.0
 71
     1
 72
     1
  1
12
  7
SLDTEXTSTYLE2
 11
6.123031769111886E-17
 21
1.0
 31
0.0
 73
     1
 44
1.0
  0
ENDBLK
  5
136
330
12A
100
AcDbEntity
  8
0
100
AcDbBlockEnd
  0
BLOCK
  5
139
330
138
100
AcDbEntity
  8
0
100
AcDbBlockBegin
  2
_None
 70
     0
 71
     0
 10
0.0
 20
0.0
 30
0.0
  3
_None
  1

  0
ENDBLK
  5
13A
330
138
100
AcDbEntity
  8
0
100
AcDbBlockEnd
  0
BLOCK
  5
151
330
146
100
AcDbEntity
  8
0
100
AcDbBlockBegin
  2
*D12
 70
     1
 71
     0
 10
0.0
 20
0.0
 30
0.0
  3
*D12
  1

  0
LINE
  5
153
330
146
100
AcDbEntity
  8
SLD-0
 62
     7
100
AcDbLine
 10
95.4387076424
 20
134.0408661007
 30
0.0
 11
126.384240158
 21
134.0408661007
 31
0.0
  0
LINE
  5
154
330
146
100
AcDbEntity
  8
SLD-0
 62
     7
100
AcDbLine
 10
114.4387076424
 20
128.0408661007
 30
0.0
 11
126.384240158
 21
128.0408661007
 31
0.0
  0
LINE
  5
155
330
146
100
AcDbEntity
  8
SLD-0
 62
     7
100
AcDbLine
 10
125.384240158
 20
134.0408661007
 30
0.0
 11
125.384240158
 21
139.0408661007
 31
0.0
  0
LINE
  5
156
330
146
100
AcDbEntity
  8
SLD-0
 62
     7
100
AcDbLine
 10
125.384240158
 20
134.0408661007
 30
0.0
 11
125.384240158
 21
128.0408661007
 31
0.0
  0
LINE
  5
157
330
146
100
AcDbEntity
  8
SLD-0
 62
     7
100
AcDbLine
 10
125.384240158
 20
128.0408661007
 30
0.0
 11
125.384240158
 21
123.0408661007
 31
0.0
  0
LINE
  5
158
330
146
100
AcDbEntity
  8
SLD-0
 62
     7
100
AcDbLine
 10
126.188087158
 20
137.0408661007
 30
0.0
 11
125.384240158
 21
134.0408661007
 31
0.0
  0
LINE
  5
159
330
146
100
AcDbEntity
  8
SLD-0
 62
     7
100
AcDbLine
 10
125.384240158
 20
134.0408661007
 30
0.0
 11
124.580393158
 21
137.0408661007
 31
0.0
  0
LINE
  5
15A
330
146
100
AcDbEntity
  8
SLD-0
 62
     7
100
AcDbLine
 10
125.384240158
 20
134.0408661007
 30
0.0
 11
125.384240158
 21
137.0408661007
 31
0.0
  0
LINE
  5
15B
330
146
100
AcDbEntity
  8
SLD-0
 62
     7
100
AcDbLine
 10
124.580393158
 20
125.0408661007
 30
0.0
 11
125.384240158
 21
128.0408661007
 31
0.0
  0
LINE
  5
15C
330
146
100
AcDbEntity
  8
SLD-0
 62
     7
100
AcDbLine
 10
125.384240158
 20
128.0408661007
 30
0.0
 11
126.188087158
 21
125.0408661007
 31
0.0
  0
LINE
  5
15D
330
146
100
AcDbEntity
  8
SLD-0
 62
     7
100
AcDbLine
 10
125.384240158
 20
128.0408661007
 30
0.0
 11
125.384240158
 21
125.0408661007
 31
0.0
  0
MTEXT
  5
15E
330
146
100
AcDbEntity
  8
SLD-0
 62
     7
100
AcDbMText
 10
120.8575463456
 20
130.0226410709
 30
0.1
 40
3.5
 41
0.0
 71
     1
 72
     1
  1
6
  7
SLDTEXTSTYLE2
 11
6.123031769111886E-17
 21
1.0
 31
0.0
 73
     1
 44
1.0
  0
ENDBLK
  5
152
330
146
100
AcDbEntity
  8
0
100
AcDbBlockEnd
  0
BLOCK
  5
16C
330
160
100
AcDbEntity
  8
0
100
AcDbBlockBegin
  2
*D13
 70
     1
 71
     0
 10
0.0
 20
0.0
 30
0.0
  3
*D13
  1

  0
LINE
  5
16F
330
160
100
AcDbEntity
  8
SLD-0
 62
     7
100
AcDbLine
 10
79.4387076424
 20
133.7408661007
 30
0.0
 11
71.9842657744
 21
133.7408661007
 31
0.0
  0
LINE
  5
170
330
160
100
AcDbEntity
  8
SLD-0
 62
     7
100
AcDbLine
 10
79.4387076424
 20
134.3408661007
 30
0.0
 11
71.9842657744
 21
134.3408661007
 31
0.0
  0
LINE
  5
171
330
160
100
AcDbEntity
  8
SLD-0
 62
     7
100
AcDbLine
 10
72.9842657744
 20
133.7408661007
 30
0.0
 11
72.9842657744
 21
128.7408661007
 31
0.0
  0
LINE
  5
172
330
160
100
AcDbEntity
  8
SLD-0
 62
     7
100
AcDbLine
 10
72.9842657744
 20
133.7408661007
 30
0.0
 11
72.9842657744
 21
134.3408661007
 31
0.0
  0
LINE
  5
173
330
160
100
AcDbEntity
  8
SLD-0
 62
     7
100
AcDbLine
 10
72.9842657744
 20
134.3408661007
 30
0.0
 11
72.9842657744
 21
145.4781652857
 31
0.0
  0
LINE
  5
174
330
160
100
AcDbEntity
  8
SLD-0
 62
     7
100
AcDbLine
 10
72.1804187744
 20
130.7408661007
 30
0.0
 11
72.9842657744
 21
133.7408661007
 31
0.0
  0
LINE
  5
175
330
160
100
AcDbEntity
  8
SLD-0
 62
     7
100
AcDbLine
 10
72.9842657744
 20
133.7408661007
 30
0.0
 11
73.7881127744
 21
130.7408661007
 31
0.0
  0
LINE
  5
176
330
160
100
AcDbEntity
  8
SLD-0
 62
     7
100
AcDbLine
 10
72.9842657744
 20
133.7408661007
 30
0.0
 11
72.9842657744
 21
130.7408661007
 31
0.0
  0
LINE
  5
177
330
160
100
AcDbEntity
  8
SLD-0
 62
     7
100
AcDbLine
 10
73.7881127744
 20
137.3408661007
 30
0.0
 11
72.9842657744
 21
134.3408661007
 31
0.0
  0
LINE
  5
178
330
160
100
AcDbEntity
  8
SLD-0
 62
     7
100
AcDbLine
 10
72.9842657744
 20
134.3408661007
 30
0.0
 11
72.1804187744
 21
137.3408661007
 31
0.0
  0
LINE
  5
179
330
160
100
AcDbEntity
  8
SLD-0
 62
     7
100
AcDbLine
 10
72.9842657744
 20
134.3408661007
 30
0.0
 11
72.9842657744
 21
137.3408661007
 31
0.0
  0
MTEXT
  5
17A
330
160
100
AcDbEntity
  8
SLD-0
 62
     7
100
AcDbMText
 10
68.457571962
 20
137.7813151069
 30
0.1
 40
3.5
 41
0.0
 71
     1
 72
     1
  1
0.6
  7
SLDTEXTSTYLE2
 11
6.123031769111886E-17
 21
1.0
 31
0.0
 73
     1
 44
1.0
  0
ENDBLK
  5
16D
330
160
100
AcDbEntity
  8
0
100
AcDbBlockEnd
  0
BLOCK
  5
187
330
17C
100
AcDbEntity
  8
0
100
AcDbBlockBegin
  2
*D14
 70
     1
 71
     0
 10
0.0
 20
0.0
 30
0.0
  3
*D14
  1

  0
LINE
  5
189
330
17C
100
AcDbEntity
  8
SLD-0
 62
     7
100
AcDbLine
 10
112.0387076424
 20
134.0408661007
 30
0.0
 11
59.8770349708
 21
134.0408661007
 31
0.0
  0
LINE
  5
18A
330
17C
100
AcDbEntity
  8
SLD-0
 62
     7
100
AcDbLine
 10
79.9387076424
 20
128.0408661007
 30
0.0
 11
59.8770349708
 21
128.0408661007
 31
0.0
  0
LINE
  5
18B
330
17C
100
AcDbEntity
  8
SLD-0
 62
     7
100
AcDbLine
 10
60.8770349708
 20
134.0408661007
 30
0.0
 11
60.8770349708
 21
139.0408661007
 31
0.0
  0
LINE
  5
18C
330
17C
100
AcDbEntity
  8
SLD-0
 62
     7
100
AcDbLine
 10
60.8770349708
 20
134.0408661007
 30
0.0
 11
60.8770349708
 21
128.0408661007
 31
0.0
  0
LINE
  5
18D
330
17C
100
AcDbEntity
  8
SLD-0
 62
     7
100
AcDbLine
 10
60.8770349708
 20
128.0408661007
 30
0.0
 11
60.8770349708
 21
123.0408661007
 31
0.0
  0
LINE
  5
18E
330
17C
100
AcDbEntity
  8
SLD-0
 62
     7
100
AcDbLine
 10
61.6808819708
 20
137.0408661007
 30
0.0
 11
60.8770349708
 21
134.0408661007
 31
0.0
  0
LINE
  5
18F
330
17C
100
AcDbEntity
  8
SLD-0
 62
     7
100
AcDbLine
 10
60.8770349708
 20
134.0408661007
 30
0.0
 11
60.0731879708
 21
137.0408661007
 31
0.0
  0
LINE
  5
190
330
17C
100
AcDbEntity
  8
SLD-0
 62
     7
100
AcDbLine
 10
60.8770349708
 20
134.0408661007
 30
0.0
 11
60.8770349708
 21
137.0408661007
 31
0.0
  0
LINE
  5
191
330
17C
100
AcDbEntity
  8
SLD-0
 62
     7
100
AcDbLine
 10
60.0731879708
 20
125.0408661007
 30
0.0
 11
60.8770349708
 21
128.0408661007
 31
0.0
  0
LINE
  5
192
330
17C
100
AcDbEntity
  8
SLD-0
 62
     7
100
AcDbLine
 10
60.8770349708
 20
128.0408661007
 30
0.0
 11
61.6808819708
 21
125.0408661007
 31
0.0
  0
LINE
  5
193
330
17C
100
AcDbEntity
  8
SLD-0
 62
     7
100
AcDbLine
 10
60.8770349708
 20
128.0408661007
 30
0.0
 11
60.8770349708
 21
125.0408661007
 31
0.0
  0
MTEXT
  5
194
330
17C
100
AcDbEntity
  8
SLD-0
 62
     7
100
AcDbMText
 10
56.3503411584
 20
130.0226410709
 30
0.1
 40
3.5
 41
0.0
 71
     1
 72
     1
  1
6
  7
SLDTEXTSTYLE2
 11
6.123031769111886E-17
 21
1.0
 31
0.0
 73
     1
 44
1.0
  0
ENDBLK
  5
188
330
17C
100
AcDbEntity
  8
0
100
AcDbBlockEnd
  0
BLOCK
  5
1A1
330
196
100
AcDbEntity
  8
0
100
AcDbBlockBegin
  2
*D15
 70
     1
 71
     0
 10
0.0
 20
0.0
 30
0.0
  3
*D15
  1

  0
LINE
  5
1A4
330
196
100
AcDbEntity
  8
SLD-0
100
AcDbLine
 10
106.4387076424
 20
140.0408661007
 30
0.0
 11
106.4387076424
 21
152.8663280502
 31
0.0
  0
LINE
  5
1A5
330
196
100
AcDbEntity
  8
SLD-0
100
AcDbLine
 10
113.4387076424
 20
140.5408661007
 30
0.0
 11
113.4387076424
 21
152.8663280502
 31
0.0
  0
LINE
  5
1A6
330
196
100
AcDbEntity
  8
SLD-0
100
AcDbLine
 10
106.4387076424
 20
151.8663280502
 30
0.0
 11
101.4387076424
 21
151.8663280502
 31
0.0
  0
LINE
  5
1A7
330
196
100
AcDbEntity
  8
SLD-0
100
AcDbLine
 10
106.4387076424
 20
151.8663280502
 30
0.0
 11
113.4387076424
 21
151.8663280502
 31
0.0
  0
LINE
  5
1A8
330
196
100
AcDbEntity
  8
SLD-0
100
AcDbLine
 10
113.4387076424
 20
151.8663280502
 30
0.0
 11
118.4387076424
 21
151.8663280502
 31
0.0
  0
LINE
  5
1A9
330
196
100
AcDbEntity
  8
SLD-0
100
AcDbLine
 10
103.4387076424
 20
152.6701750502
 30
0.0
 11
106.4387076424
 21
151.8663280502
 31
0.0
  0
LINE
  5
1AA
330
196
100
AcDbEntity
  8
SLD-0
100
AcDbLine
 10
106.4387076424
 20
151.8663280502
 30
0.0
 11
103.4387076424
 21
151.0624810502
 31
0.0
  0
LINE
  5
1AB
330
196
100
AcDbEntity
  8
SLD-0
100
AcDbLine
 10
106.4387076424
 20
151.8663280502
 30
0.0
 11
103.4387076424
 21
151.8663280502
 31
0.0
  0
LINE
  5
1AC
330
196
100
AcDbEntity
  8
SLD-0
100
AcDbLine
 10
116.4387076424
 20
151.0624810502
 30
0.0
 11
113.4387076424
 21
151.8663280502
 31
0.0
  0
LINE
  5
1AD
330
196
100
AcDbEntity
  8
SLD-0
100
AcDbLine
 10
113.4387076424
 20
151.8663280502
 30
0.0
 11
116.4387076424
 21
152.6701750502
 31
0.0
  0
LINE
  5
1AE
330
196
100
AcDbEntity
  8
SLD-0
100
AcDbLine
 10
113.4387076424
 20
151.8663280502
 30
0.0
 11
116.4387076424
 21
151.8663280502
 31
0.0
  0
MTEXT
  5
1AF
330
196
100
AcDbEntity
  8
SLD-0
100
AcDbMText
 10
108.9204826126
 20
156.3930218625
 30
0.1
 40
3.5
 41
0.0
 71
     1
 72
     1
  1
7
  7
SLDTEXTSTYLE2
 73
     1
 44
1.0
  0
ENDBLK
  5
1A2
330
196
100
AcDbEntity
  8
0
100
AcDbBlockEnd
  0
BLOCK
  5
1BB
330
1B1
100
AcDbEntity
  8
0
100
AcDbBlockBegin
  2
*D16
 70
     1
 71
     0
 10
0.0
 20
0.0
 30
0.0
  3
*D16
  1

  0
LINE
  5
1BD
330
1B1
100
AcDbEntity
  8
SLD-0
100
AcDbLine
 10
94.4387076424
 20
141.5408661007
 30
0.0
 11
94.4387076424
 21
160.5603790623
 31
0.0
  0
LINE
  5
1BE
330
1B1
100
AcDbEntity
  8
SLD-0
100
AcDbLine
 10
113.4387076424
 20
140.5408661007
 30
0.0
 11
113.4387076424
 21
160.5603790623
 31
0.0
  0
LINE
  5
1BF
330
1B1
100
AcDbEntity
  8
SLD-0
100
AcDbLine
 10
94.4387076424
 20
159.5603790623
 30
0.0
 11
113.4387076424
 21
159.5603790623
 31
0.0
  0
LINE
  5
1C0
330
1B1
100
AcDbEntity
  8
SLD-0
100
AcDbLine
 10
97.4387076424
 20
158.7565320623
 30
0.0
 11
94.4387076424
 21
159.5603790623
 31
0.0
  0
LINE
  5
1C1
330
1B1
100
AcDbEntity
  8
SLD-0
100
AcDbLine
 10
94.4387076424
 20
159.5603790623
 30
0.0
 11
97.4387076424
 21
160.3642260623
 31
0.0
  0
LINE
  5
1C2
330
1B1
100
AcDbEntity
  8
SLD-0
100
AcDbLine
 10
94.4387076424
 20
159.5603790623
 30
0.0
 11
97.4387076424
 21
159.5603790623
 31
0.0
  0
LINE
  5
1C3
330
1B1
100
AcDbEntity
  8
SLD-0
100
AcDbLine
 10
110.4387076424
 20
160.3642260623
 30
0.0
 11
113.4387076424
 21
159.5603790623
 31
0.0
  0
LINE
  5
1C4
330
1B1
100
AcDbEntity
  8
SLD-0
100
AcDbLine
 10
113.4387076424
 20
159.5603790623
 30
0.0
 11
110.4387076424
 21
158.7565320623
 31
0.0
  0
LINE
  5
1C5
330
1B1
100
AcDbEntity
  8
SLD-0
100
AcDbLine
 10
113.4387076424
 20
159.5603790623
 30
0.0
 11
110.4387076424
 21
159.5603790623
 31
0.0
  0
MTEXT
  5
1C6
330
1B1
100
AcDbEntity
  8
SLD-0
100
AcDbMText
 10
101.9022575828
 20
164.0870728747
 30
0.1
 40
3.5
 41
0.0
 71
     1
 72
     1
  1
19
  7
SLDTEXTSTYLE2
 73
     1
 44
1.0
  0
ENDBLK
  5
1BC
330
1B1
100
AcDbEntity
  8
0
100
AcDbBlockEnd
  0
BLOCK
  5
1CF
330
1C8
100
AcDbEntity
  8
0
100
AcDbBlockBegin
  2
*D17
 70
     1
 71
     0
 10
0.0
 20
0.0
 30
0.0
  3
*D17
  1

  0
LINE
  5
1D2
330
1C8
100
AcDbEntity
  8
SLD-0
 62
     7
100
AcDbLine
 10
108.2153923716
 20
131.6235553277
 30
0.0
 11
119.3638882397
 21
116.4552034407
 31
0.0
  0
LINE
  5
1D3
330
1C8
100
AcDbEntity
  8
SLD-0
 62
     7
100
AcDbLine
 10
119.3638882397
 20
116.4552034407
 30
0.0
 11
152.6402998011
 21
116.4552034407
 31
0.0
  0
LINE
  5
1D4
330
1C8
100
AcDbEntity
  8
SLD-0
 62
     7
100
AcDbLine
 10
109.3443610965
 20
128.7301836582
 30
0.0
 11
108.2153923716
 21
131.6235553277
 31
0.0
  0
LINE
  5
1D5
330
1C8
100
AcDbEntity
  8
SLD-0
 62
     7
100
AcDbLine
 10
108.2153923716
 20
131.6235553277
 30
0.0
 11
110.6397931051
 21
129.6823054512
 31
0.0
  0
LINE
  5
1D6
330
1C8
100
AcDbEntity
  8
SLD-0
 62
     7
100
AcDbLine
 10
108.2153923716
 20
131.6235553277
 30
0.0
 11
109.9920771008
 21
129.2062445547
 31
0.0
  0
MTEXT
  5
1D7
330
1C8
100
AcDbEntity
  8
SLD-0
 62
     7
100
AcDbMText
 10
122.5388882397
 20
120.9818972531
 30
0.1
 40
3.5
 41
0.0
 71
     1
 72
     1
  1
M
  7
SLDTEXTSTYLE2
 73
     1
 44
1.0
  0
MTEXT
  5
1D8
330
1C8
100
AcDbEntity
  8
SLD-0
 62
     7
100
AcDbMText
 10
124.5753382993
 20
120.9818972531
 30
0.1
 40
3.5
 41
0.0
 71
     1
 72
     1
  1
6
  7
SLDTEXTSTYLE2
 73
     1
 44
1.0
  0
MTEXT
  5
1D9
330
1C8
100
AcDbEntity
  8
SLD-0
 62
     7
100
AcDbMText
 10
126.6117883589
 20
120.9818972531
 30
0.1
 40
3.5
 41
0.0
 71
     1
 72
     1
  1
　P=0.75貫通
  7
SLDTEXTSTYLE2
 73
     1
 44
1.0
  0
ENDBLK
  5
1D0
330
1C8
100
AcDbEntity
  8
0
100
AcDbBlockEnd
  0
BLOCK
  5
1E5
330
1DB
100
AcDbEntity
  8
0
100
AcDbBlockBegin
  2
*D18
 70
     1
 71
     0
 10
0.0
 20
0.0
 30
0.0
  3
*D18
  1

  0
LINE
  5
1E7
330
1DB
100
AcDbEntity
  8
SLD-0
 62
     7
100
AcDbLine
 10
113.4387076424
 20
127.5408661007
 30
0.0
 11
113.4387076424
 21
112.7169779461
 31
0.0
  0
LINE
  5
1E8
330
1DB
100
AcDbEntity
  8
SLD-0
 62
     7
100
AcDbLine
 10
100.4387076424
 20
132.7408661007
 30
0.0
 11
100.4387076424
 21
112.7169779461
 31
0.0
  0
LINE
  5
1E9
330
1DB
100
AcDbEntity
  8
SLD-0
 62
     7
100
AcDbLine
 10
113.4387076424
 20
113.7169779461
 30
0.0
 11
100.4387076424
 21
113.7169779461
 31
0.0
  0
LINE
  5
1EA
330
1DB
100
AcDbEntity
  8
SLD-0
 62
     7
100
AcDbLine
 10
110.4387076424
 20
114.5208249461
 30
0.0
 11
113.4387076424
 21
113.7169779461
 31
0.0
  0
LINE
  5
1EB
330
1DB
100
AcDbEntity
  8
SLD-0
 62
     7
100
AcDbLine
 10
113.4387076424
 20
113.7169779461
 30
0.0
 11
110.4387076424
 21
112.9131309461
 31
0.0
  0
LINE
  5
1EC
330
1DB
100
AcDbEntity
  8
SLD-0
 62
     7
100
AcDbLine
 10
113.4387076424
 20
113.7169779461
 30
0.0
 11
110.4387076424
 21
113.7169779461
 31
0.0
  0
LINE
  5
1ED
330
1DB
100
AcDbEntity
  8
SLD-0
 62
     7
100
AcDbLine
 10
103.4387076424
 20
112.9131309461
 30
0.0
 11
100.4387076424
 21
113.7169779461
 31
0.0
  0
LINE
  5
1EE
330
1DB
100
AcDbEntity
  8
SLD-0
 62
     7
100
AcDbLine
 10
100.4387076424
 20
113.7169779461
 30
0.0
 11
103.4387076424
 21
114.5208249461
 31
0.0
  0
LINE
  5
1EF
330
1DB
100
AcDbEntity
  8
SLD-0
 62
     7
100
AcDbLine
 10
100.4387076424
 20
113.7169779461
 30
0.0
 11
103.4387076424
 21
113.7169779461
 31
0.0
  0
MTEXT
  5
1F0
330
1DB
100
AcDbEntity
  8
SLD-0
 62
     7
100
AcDbMText
 10
104.9022575828
 20
118.2436717584
 30
0.1
 40
3.5
 41
0.0
 71
     1
 72
     1
  1
13
  7
SLDTEXTSTYLE2
 73
     1
 44
1.0
  0
ENDBLK
  5
1E6
330
1DB
100
AcDbEntity
  8
0
100
AcDbBlockEnd
  0
BLOCK
  5
1FC
330
1F2
100
AcDbEntity
  8
0
100
AcDbBlockBegin
  2
*D19
 70
     1
 71
     0
 10
0.0
 20
0.0
 30
0.0
  3
*D19
  1

  0
ARC
  5
1FE
330
1F2
100
AcDbEntity
  8
SLD-0
 62
     7
100
AcDbCircle
 10
90.887657702
 20
115.7534280057
 30
0.0
 40
4.553640766000004
100
AcDbArc
 50
153.4349488229
 51
206.5650511771
  0
ARC
  5
1FF
330
1F2
100
AcDbEntity
  8
SLD-0
 62
     7
100
AcDbCircle
 10
89.9897575828
 20
115.7534280057
 30
0.0
 40
4.553640766000004
100
AcDbArc
 50
333.4349488229
 51
26.5650511771
  0
LINE
  5
200
330
1F2
100
AcDbEntity
  8
SLD-0
 62
     7
100
AcDbLine
 10
100.4387076424
 20
132.7408661007
 30
0.0
 11
100.4387076424
 21
112.7169779461
 31
0.0
  0
LINE
  5
201
330
1F2
100
AcDbEntity
  8
SLD-0
 62
     7
100
AcDbLine
 10
80.4387076424
 20
127.5408661007
 30
0.0
 11
80.4387076424
 21
112.7169779461
 31
0.0
  0
LINE
  5
202
330
1F2
100
AcDbEntity
  8
SLD-0
 62
     7
100
AcDbLine
 10
100.4387076424
 20
113.7169779461
 30
0.0
 11
80.4387076424
 21
113.7169779461
 31
0.0
  0
LINE
  5
203
330
1F2
100
AcDbEntity
  8
SLD-0
 62
     7
100
AcDbLine
 10
97.4387076424
 20
114.5208249461
 30
0.0
 11
100.4387076424
 21
113.7169779461
 31
0.0
  0
LINE
  5
204
330
1F2
100
AcDbEntity
  8
SLD-0
 62
     7
100
AcDbLine
 10
100.4387076424
 20
113.7169779461
 30
0.0
 11
97.4387076424
 21
112.9131309461
 31
0.0
  0
LINE
  5
205
330
1F2
100
AcDbEntity
  8
SLD-0
 62
     7
100
AcDbLine
 10
100.4387076424
 20
113.7169779461
 30
0.0
 11
97.4387076424
 21
113.7169779461
 31
0.0
  0
LINE
  5
206
330
1F2
100
AcDbEntity
  8
SLD-0
 62
     7
100
AcDbLine
 10
83.4387076424
 20
112.9131309461
 30
0.0
 11
80.4387076424
 21
113.7169779461
 31
0.0
  0
LINE
  5
207
330
1F2
100
AcDbEntity
  8
SLD-0
 62
     7
100
AcDbLine
 10
80.4387076424
 20
113.7169779461
 30
0.0
 11
83.4387076424
 21
114.5208249461
 31
0.0
  0
LINE
  5
208
330
1F2
100
AcDbEntity
  8
SLD-0
 62
     7
100
AcDbLine
 10
80.4387076424
 20
113.7169779461
 30
0.0
 11
83.4387076424
 21
113.7169779461
 31
0.0
  0
MTEXT
  5
209
330
1F2
100
AcDbEntity
  8
SLD-0
 62
     7
100
AcDbMText
 10
88.4022575828
 20
118.2436717584
 30
0.1
 40
3.5
 41
0.0
 71
     1
 72
     1
  1
20
  7
SLDTEXTSTYLE2
 73
     1
 44
1.0
  0
ENDBLK
  5
1FD
330
1F2
100
AcDbEntity
  8
0
100
AcDbBlockEnd
  0
BLOCK
  5
216
330
20B
100
AcDbEntity
  8
0
100
AcDbBlockBegin
  2
*D20
 70
     1
 71
     0
 10
0.0
 20
0.0
 30
0.0
  3
*D20
  1

  0
LINE
  5
218
330
20B
100
AcDbEntity
  8
SLD-0
 62
     7
100
AcDbLine
 10
114.4387076424
 20
209.7405694761
 30
0.0
 11
134.218069489
 21
209.7405694761
 31
0.0
  0
LINE
  5
219
330
20B
100
AcDbEntity
  8
SLD-0
 62
     7
100
AcDbLine
 10
114.4387076424
 20
199.7405694761
 30
0.0
 11
134.218069489
 21
199.7405694761
 31
0.0
  0
LINE
  5
21A
330
20B
100
AcDbEntity
  8
SLD-0
 62
     7
100
AcDbLine
 10
133.218069489
 20
209.7405694761
 30
0.0
 11
133.218069489
 21
199.7405694761
 31
0.0
  0
LINE
  5
21B
330
20B
100
AcDbEntity
  8
SLD-0
 62
     7
100
AcDbLine
 10
132.414222489
 20
206.7405694761
 30
0.0
 11
133.218069489
 21
209.7405694761
 31
0.0
  0
LINE
  5
21C
330
20B
100
AcDbEntity
  8
SLD-0
 62
     7
100
AcDbLine
 10
133.218069489
 20
209.7405694761
 30
0.0
 11
134.021916489
 21
206.7405694761
 31
0.0
  0
LINE
  5
21D
330
20B
100
AcDbEntity
  8
SLD-0
 62
     7
100
AcDbLine
 10
133.218069489
 20
209.7405694761
 30
0.0
 11
133.218069489
 21
206.7405694761
 31
0.0
  0
LINE
  5
21E
330
20B
100
AcDbEntity
  8
SLD-0
 62
     7
100
AcDbLine
 10
134.021916489
 20
202.7405694761
 30
0.0
 11
133.218069489
 21
199.7405694761
 31
0.0
  0
LINE
  5
21F
330
20B
100
AcDbEntity
  8
SLD-0
 62
     7
100
AcDbLine
 10
133.218069489
 20
199.7405694761
 30
0.0
 11
132.414222489
 21
202.7405694761
 31
0.0
  0
LINE
  5
220
330
20B
100
AcDbEntity
  8
SLD-0
 62
     7
100
AcDbLine
 10
133.218069489
 20
199.7405694761
 30
0.0
 11
133.218069489
 21
202.7405694761
 31
0.0
  0
MTEXT
  5
221
330
20B
100
AcDbEntity
  8
SLD-0
 62
     7
100
AcDbMText
 10
128.6913756767
 20
202.7041194165
 30
0.1
 40
3.5
 41
0.0
 71
     1
 72
     1
  1
10
  7
SLDTEXTSTYLE2
 11
6.123031769111886E-17
 21
1.0
 31
0.0
 73
     1
 44
1.0
  0
ENDBLK
  5
217
330
20B
100
AcDbEntity
  8
0
100
AcDbBlockEnd
  0
BLOCK
  5
22D
330
223
100
AcDbEntity
  8
0
100
AcDbBlockBegin
  2
*D21
 70
     1
 71
     0
 10
0.0
 20
0.0
 30
0.0
  3
*D21
  1

  0
LINE
  5
22F
330
223
100
AcDbEntity
  8
SLD-0
 62
     7
100
AcDbLine
 10
113.4387076424
 20
205.7405694761
 30
0.0
 11
113.4387076424
 21
241.0240491902
 31
0.0
  0
LINE
  5
230
330
223
100
AcDbEntity
  8
SLD-0
 62
     7
100
AcDbLine
 10
80.4387076424
 20
205.7405694761
 30
0.0
 11
80.4387076424
 21
241.0240491902
 31
0.0
  0
LINE
  5
231
330
223
100
AcDbEntity
  8
SLD-0
 62
     7
100
AcDbLine
 10
113.4387076424
 20
240.0240491902
 30
0.0
 11
80.4387076424
 21
240.0240491902
 31
0.0
  0
LINE
  5
232
330
223
100
AcDbEntity
  8
SLD-0
 62
     7
100
AcDbLine
 10
110.4387076424
 20
240.8278961902
 30
0.0
 11
113.4387076424
 21
240.0240491902
 31
0.0
  0
LINE
  5
233
330
223
100
AcDbEntity
  8
SLD-0
 62
     7
100
AcDbLine
 10
113.4387076424
 20
240.0240491902
 30
0.0
 11
110.4387076424
 21
239.2202021902
 31
0.0
  0
LINE
  5
234
330
223
100
AcDbEntity
  8
SLD-0
 62
     7
100
AcDbLine
 10
113.4387076424
 20
240.0240491902
 30
0.0
 11
110.4387076424
 21
240.0240491902
 31
0.0
  0
LINE
  5
235
330
223
100
AcDbEntity
  8
SLD-0
 62
     7
100
AcDbLine
 10
83.4387076424
 20
239.2202021902
 30
0.0
 11
80.4387076424
 21
240.0240491902
 31
0.0
  0
LINE
  5
236
330
223
100
AcDbEntity
  8
SLD-0
 62
     7
100
AcDbLine
 10
80.4387076424
 20
240.0240491902
 30
0.0
 11
83.4387076424
 21
240.8278961902
 31
0.0
  0
LINE
  5
237
330
223
100
AcDbEntity
  8
SLD-0
 62
     7
100
AcDbLine
 10
80.4387076424
 20
240.0240491902
 30
0.0
 11
83.4387076424
 21
240.0240491902
 31
0.0
  0
MTEXT
  5
238
330
223
100
AcDbEntity
  8
SLD-0
 62
     7
100
AcDbMText
 10
94.9022575828
 20
244.5507430025
 30
0.1
 40
3.5
 41
0.0
 71
     1
 72
     1
  1
33
  7
SLDTEXTSTYLE2
 73
     1
 44
1.0
  0
ENDBLK
  5
22E
330
223
100
AcDbEntity
  8
0
100
AcDbBlockEnd
  0
BLOCK
  5
244
330
23A
100
AcDbEntity
  8
0
100
AcDbBlockBegin
  2
*D22
 70
     1
 71
     0
 10
0.0
 20
0.0
 30
0.0
  3
*D22
  1

  0
LINE
  5
246
330
23A
100
AcDbEntity
  8
SLD-0
100
AcDbLine
 10
86.4387076424
 20
212.2405694761
 30
0.0
 11
86.4387076424
 21
233.387682221
 31
0.0
  0
LINE
  5
247
330
23A
100
AcDbEntity
  8
SLD-0
100
AcDbLine
 10
113.4387076424
 20
210.2405694761
 30
0.0
 11
113.4387076424
 21
233.387682221
 31
0.0
  0
LINE
  5
248
330
23A
100
AcDbEntity
  8
SLD-0
100
AcDbLine
 10
86.4387076424
 20
232.387682221
 30
0.0
 11
113.4387076424
 21
232.387682221
 31
0.0
  0
LINE
  5
249
330
23A
100
AcDbEntity
  8
SLD-0
100
AcDbLine
 10
89.4387076424
 20
231.583835221
 30
0.0
 11
86.4387076424
 21
232.387682221
 31
0.0
  0
LINE
  5
24A
330
23A
100
AcDbEntity
  8
SLD-0
100
AcDbLine
 10
86.4387076424
 20
232.387682221
 30
0.0
 11
89.4387076424
 21
233.191529221
 31
0.0
  0
LINE
  5
24B
330
23A
100
AcDbEntity
  8
SLD-0
100
AcDbLine
 10
86.4387076424
 20
232.387682221
 30
0.0
 11
89.4387076424
 21
232.387682221
 31
0.0
  0
LINE
  5
24C
330
23A
100
AcDbEntity
  8
SLD-0
100
AcDbLine
 10
110.4387076424
 20
233.191529221
 30
0.0
 11
113.4387076424
 21
232.387682221
 31
0.0
  0
LINE
  5
24D
330
23A
100
AcDbEntity
  8
SLD-0
100
AcDbLine
 10
113.4387076424
 20
232.387682221
 30
0.0
 11
110.4387076424
 21
231.583835221
 31
0.0
  0
LINE
  5
24E
330
23A
100
AcDbEntity
  8
SLD-0
100
AcDbLine
 10
113.4387076424
 20
232.387682221
 30
0.0
 11
110.4387076424
 21
232.387682221
 31
0.0
  0
MTEXT
  5
24F
330
23A
100
AcDbEntity
  8
SLD-0
100
AcDbMText
 10
97.9022575828
 20
236.9143760333
 30
0.1
 40
3.5
 41
0.0
 71
     1
 72
     1
  1
27
  7
SLDTEXTSTYLE2
 73
     1
 44
1.0
  0
ENDBLK
  5
245
330
23A
100
AcDbEntity
  8
0
100
AcDbBlockEnd
  0
BLOCK
  5
25C
330
251
100
AcDbEntity
  8
0
100
AcDbBlockBegin
  2
*D23
 70
     1
 71
     0
 10
0.0
 20
0.0
 30
0.0
  3
*D23
  1

  0
LINE
  5
25E
330
251
100
AcDbEntity
  8
SLD-0
100
AcDbLine
 10
113.9387076424
 20
199.7405694761
 30
0.0
 11
125.0070475388
 21
199.7405694761
 31
0.0
  0
LINE
  5
25F
330
251
100
AcDbEntity
  8
SLD-0
100
AcDbLine
 10
112.4387076424
 20
204.7405694761
 30
0.0
 11
125.0070475388
 21
204.7405694761
 31
0.0
  0
LINE
  5
260
330
251
100
AcDbEntity
  8
SLD-0
100
AcDbLine
 10
124.0070475388
 20
199.7405694761
 30
0.0
 11
124.0070475388
 21
194.7405694761
 31
0.0
  0
LINE
  5
261
330
251
100
AcDbEntity
  8
SLD-0
100
AcDbLine
 10
124.0070475388
 20
199.7405694761
 30
0.0
 11
124.0070475388
 21
204.7405694761
 31
0.0
  0
LINE
  5
262
330
251
100
AcDbEntity
  8
SLD-0
100
AcDbLine
 10
124.0070475388
 20
204.7405694761
 30
0.0
 11
124.0070475388
 21
209.7405694761
 31
0.0
  0
LINE
  5
263
330
251
100
AcDbEntity
  8
SLD-0
100
AcDbLine
 10
123.2032005388
 20
196.7405694761
 30
0.0
 11
124.0070475388
 21
199.7405694761
 31
0.0
  0
LINE
  5
264
330
251
100
AcDbEntity
  8
SLD-0
100
AcDbLine
 10
124.0070475388
 20
199.7405694761
 30
0.0
 11
124.8108945388
 21
196.7405694761
 31
0.0
  0
LINE
  5
265
330
251
100
AcDbEntity
  8
SLD-0
100
AcDbLine
 10
124.0070475388
 20
199.7405694761
 30
0.0
 11
124.0070475388
 21
196.7405694761
 31
0.0
  0
LINE
  5
266
330
251
100
AcDbEntity
  8
SLD-0
100
AcDbLine
 10
124.8108945388
 20
207.7405694761
 30
0.0
 11
124.0070475388
 21
204.7405694761
 31
0.0
  0
LINE
  5
267
330
251
100
AcDbEntity
  8
SLD-0
100
AcDbLine
 10
124.0070475388
 20
204.7405694761
 30
0.0
 11
123.2032005388
 21
207.7405694761
 31
0.0
  0
LINE
  5
268
330
251
100
AcDbEntity
  8
SLD-0
100
AcDbLine
 10
124.0070475388
 20
204.7405694761
 30
0.0
 11
124.0070475388
 21
207.7405694761
 31
0.0
  0
MTEXT
  5
269
330
251
100
AcDbEntity
  8
SLD-0
100
AcDbMText
 10
119.4803537265
 20
201.2223444463
 30
0.1
 40
3.5
 41
0.0
 71
     1
 72
     1
  1
5
  7
SLDTEXTSTYLE2
 11
6.123031769111886E-17
 21
1.0
 31
0.0
 73
     1
 44
1.0
  0
ENDBLK
  5
25D
330
251
100
AcDbEntity
  8
0
100
AcDbBlockEnd
  0
BLOCK
  5
276
330
26B
100
AcDbEntity
  8
0
100
AcDbBlockBegin
  2
*D24
 70
     1
 71
     0
 10
0.0
 20
0.0
 30
0.0
  3
*D24
  1

  0
LINE
  5
278
330
26B
100
AcDbEntity
  8
SLD-0
100
AcDbLine
 10
79.9387076424
 20
199.7405694761
 30
0.0
 11
70.1770873786
 21
199.7405694761
 31
0.0
  0
LINE
  5
279
330
26B
100
AcDbEntity
  8
SLD-0
100
AcDbLine
 10
78.9387076424
 20
204.7405694761
 30
0.0
 11
70.1770873786
 21
204.7405694761
 31
0.0
  0
LINE
  5
27A
330
26B
100
AcDbEntity
  8
SLD-0
100
AcDbLine
 10
71.1770873786
 20
199.7405694761
 30
0.0
 11
71.1770873786
 21
194.7405694761
 31
0.0
  0
LINE
  5
27B
330
26B
100
AcDbEntity
  8
SLD-0
100
AcDbLine
 10
71.1770873786
 20
199.7405694761
 30
0.0
 11
71.1770873786
 21
204.7405694761
 31
0.0
  0
LINE
  5
27C
330
26B
100
AcDbEntity
  8
SLD-0
100
AcDbLine
 10
71.1770873786
 20
204.7405694761
 30
0.0
 11
71.1770873786
 21
209.7405694761
 31
0.0
  0
LINE
  5
27D
330
26B
100
AcDbEntity
  8
SLD-0
100
AcDbLine
 10
70.3732403786
 20
196.7405694761
 30
0.0
 11
71.1770873786
 21
199.7405694761
 31
0.0
  0
LINE
  5
27E
330
26B
100
AcDbEntity
  8
SLD-0
100
AcDbLine
 10
71.1770873786
 20
199.7405694761
 30
0.0
 11
71.9809343786
 21
196.7405694761
 31
0.0
  0
LINE
  5
27F
330
26B
100
AcDbEntity
  8
SLD-0
100
AcDbLine
 10
71.1770873786
 20
199.7405694761
 30
0.0
 11
71.1770873786
 21
196.7405694761
 31
0.0
  0
LINE
  5
280
330
26B
100
AcDbEntity
  8
SLD-0
100
AcDbLine
 10
71.9809343786
 20
207.7405694761
 30
0.0
 11
71.1770873786
 21
204.7405694761
 31
0.0
  0
LINE
  5
281
330
26B
100
AcDbEntity
  8
SLD-0
100
AcDbLine
 10
71.1770873786
 20
204.7405694761
 30
0.0
 11
70.3732403786
 21
207.7405694761
 31
0.0
  0
LINE
  5
282
330
26B
100
AcDbEntity
  8
SLD-0
100
AcDbLine
 10
71.1770873786
 20
204.7405694761
 30
0.0
 11
71.1770873786
 21
207.7405694761
 31
0.0
  0
MTEXT
  5
283
330
26B
100
AcDbEntity
  8
SLD-0
100
AcDbMText
 10
66.6503935662
 20
201.2223444463
 30
0.1
 40
3.5
 41
0.0
 71
     1
 72
     1
  1
5
  7
SLDTEXTSTYLE2
 11
6.123031769111886E-17
 21
1.0
 31
0.0
 73
     1
 44
1.0
  0
ENDBLK
  5
277
330
26B
100
AcDbEntity
  8
0
100
AcDbBlockEnd
  0
BLOCK
  5
28C
330
285
100
AcDbEntity
  8
0
100
AcDbBlockBegin
  2
*D25
 70
     1
 71
     0
 10
0.0
 20
0.0
 30
0.0
  3
*D25
  1

  0
LINE
  5
28E
330
285
100
AcDbEntity
  8
SLD-0
 62
     7
100
AcDbLine
 10
108.4034780448
 20
207.0076551087
 30
0.0
 11
120.32320542
 21
220.7614467191
 31
0.0
  0
LINE
  5
28F
330
285
100
AcDbEntity
  8
SLD-0
 62
     7
100
AcDbLine
 10
120.32320542
 20
220.7614467191
 30
0.0
 11
155.6360670409
 21
220.7614467191
 31
0.0
  0
LINE
  5
290
330
285
100
AcDbEntity
  8
SLD-0
 62
     7
100
AcDbLine
 10
110.9757117754
 20
208.7482824768
 30
0.0
 11
108.4034780448
 21
207.0076551087
 31
0.0
  0
LINE
  5
291
330
285
100
AcDbEntity
  8
SLD-0
 62
     7
100
AcDbLine
 10
108.4034780448
 20
207.0076551087
 30
0.0
 11
109.760785119
 21
209.8011990059
 31
0.0
  0
LINE
  5
292
330
285
100
AcDbEntity
  8
SLD-0
 62
     7
100
AcDbLine
 10
108.4034780448
 20
207.0076551087
 30
0.0
 11
110.3682484472
 21
209.2747407413
 31
0.0
  0
MTEXT
  5
293
330
285
100
AcDbEntity
  8
SLD-0
 62
     7
100
AcDbMText
 10
123.49820542
 20
225.2881405314
 30
0.1
 40
3.5
 41
0.0
 71
     1
 72
     1
  1
M
  7
SLDTEXTSTYLE2
 73
     1
 44
1.0
  0
MTEXT
  5
294
330
285
100
AcDbEntity
  8
SLD-0
 62
     7
100
AcDbMText
 10
125.5346554796
 20
225.2881405314
 30
0.1
 40
3.5
 41
0.0
 71
     1
 72
     1
  1
6
  7
SLDTEXTSTYLE2
 73
     1
 44
1.0
  0
MTEXT
  5
295
330
285
100
AcDbEntity
  8
SLD-0
 62
     7
100
AcDbMText
 10
127.5711055392
 20
225.2881405314
 30
0.1
 40
3.5
 41
0.0
 71
     1
 72
     1
  1
　P＝0.75貫通
  7
SLDTEXTSTYLE2
 73
     1
 44
1.0
  0
ENDBLK
  5
28D
330
285
100
AcDbEntity
  8
0
100
AcDbBlockEnd
  0
BLOCK
  5
29E
330
297
100
AcDbEntity
  8
0
100
AcDbBlockBegin
  2
*D26
 70
     1
 71
     0
 10
0.0
 20
0.0
 30
0.0
  3
*D26
  1

  0
LINE
  5
2A1
330
297
100
AcDbEntity
  8
SLD-0
 62
     7
100
AcDbLine
 10
87.0811253416
 20
202.5842301012
 30
0.0
 11
92.3956566663
 21
184.7454732153
 31
0.0
  0
LINE
  5
2A2
330
297
100
AcDbEntity
  8
SLD-0
 62
     7
100
AcDbLine
 10
92.3956566663
 20
184.7454732153
 30
0.0
 11
131.369795522
 21
184.7454732153
 31
0.0
  0
LINE
  5
2A3
330
297
100
AcDbEntity
  8
SLD-0
 62
     7
100
AcDbLine
 10
87.1672969683
 20
199.4795973612
 30
0.0
 11
87.0811253416
 21
202.5842301012
 31
0.0
  0
LINE
  5
2A4
330
297
100
AcDbEntity
  8
SLD-0
 62
     7
100
AcDbLine
 10
87.0811253416
 20
202.5842301012
 30
0.0
 11
88.7080675794
 21
199.9386245081
 31
0.0
  0
LINE
  5
2A5
330
297
100
AcDbEntity
  8
SLD-0
 62
     7
100
AcDbLine
 10
87.0811253416
 20
202.5842301012
 30
0.0
 11
87.9376822738
 21
199.7091109346
 31
0.0
  0
MTEXT
  5
2A6
330
297
100
AcDbEntity
  8
SLD-0
 62
     7
100
AcDbMText
 10
93.8206566663
 20
189.2721670276
 30
0.1
 40
3.5
 41
0.0
 71
     1
 72
     1
  1
%%c
  7
SLDTEXTSTYLE2
 73
     1
 44
1.0
  0
MTEXT
  5
2A7
330
297
100
AcDbEntity
  8
SLD-0
 62
     7
100
AcDbMText
 10
99.4377453433
 20
189.2721670276
 30
0.1
 40
3.5
 41
0.0
 71
     1
 72
     1
  1
4.5
  7
SLDTEXTSTYLE2
 73
     1
 44
1.0
  0
MTEXT
  5
2A8
330
297
100
AcDbEntity
  8
SLD-0
 62
     7
100
AcDbMText
 10
105.547095522
 20
189.2721670276
 30
0.1
 40
3.5
 41
0.0
 71
     1
 72
     1
  1
,
  7
SLDTEXTSTYLE2
 73
     1
 44
1.0
  0
MTEXT
  5
2A9
330
297
100
AcDbEntity
  8
SLD-0
 62
     7
100
AcDbMText
 10
105.8339010195
 20
189.2721670276
 30
0.1
 40
3.5
 41
0.0
 71
     1
 72
     1
  1
%%c
  7
SLDTEXTSTYLE2
 73
     1
 44
1.0
  0
MTEXT
  5
2AA
330
297
100
AcDbEntity
  8
SLD-0
 62
     7
100
AcDbMText
 10
111.4538315346
 20
189.2721670276
 30
0.1
 40
3.5
 41
0.0
 71
     1
 72
     1
  1
8ｻﾞｸﾞﾘ深3
  7
SLDTEXTSTYLE2
 73
     1
 44
1.0
  0
ENDBLK
  5
29F
330
297
100
AcDbEntity
  8
0
100
AcDbBlockEnd
  0
BLOCK
  5
2B7
330
2AC
100
AcDbEntity
  8
0
100
AcDbBlockBegin
  2
*D27
 70
     1
 71
     0
 10
0.0
 20
0.0
 30
0.0
  3
*D27
  1

  0
LINE
  5
2B9
330
2AC
100
AcDbEntity
  8
SLD-0
 62
     7
100
AcDbLine
 10
106.4387076424
 20
210.7405694761
 30
0.0
 11
106.4387076424
 21
226.3522722773
 31
0.0
  0
LINE
  5
2BA
330
2AC
100
AcDbEntity
  8
SLD-0
 62
     7
100
AcDbLine
 10
113.4387076424
 20
210.2405694761
 30
0.0
 11
113.4387076424
 21
226.3522722773
 31
0.0
  0
LINE
  5
2BB
330
2AC
100
AcDbEntity
  8
SLD-0
 62
     7
100
AcDbLine
 10
106.4387076424
 20
225.3522722773
 30
0.0
 11
101.4387076424
 21
225.3522722773
 31
0.0
  0
LINE
  5
2BC
330
2AC
100
AcDbEntity
  8
SLD-0
 62
     7
100
AcDbLine
 10
106.4387076424
 20
225.3522722773
 30
0.0
 11
113.4387076424
 21
225.3522722773
 31
0.0
  0
LINE
  5
2BD
330
2AC
100
AcDbEntity
  8
SLD-0
 62
     7
100
AcDbLine
 10
113.4387076424
 20
225.3522722773
 30
0.0
 11
118.4387076424
 21
225.3522722773
 31
0.0
  0
LINE
  5
2BE
330
2AC
100
AcDbEntity
  8
SLD-0
 62
     7
100
AcDbLine
 10
103.4387076424
 20
226.1561192773
 30
0.0
 11
106.4387076424
 21
225.3522722773
 31
0.0
  0
LINE
  5
2BF
330
2AC
100
AcDbEntity
  8
SLD-0
 62
     7
100
AcDbLine
 10
106.4387076424
 20
225.3522722773
 30
0.0
 11
103.4387076424
 21
224.5484252773
 31
0.0
  0
LINE
  5
2C0
330
2AC
100
AcDbEntity
  8
SLD-0
 62
     7
100
AcDbLine
 10
106.4387076424
 20
225.3522722773
 30
0.0
 11
103.4387076424
 21
225.3522722773
 31
0.0
  0
LINE
  5
2C1
330
2AC
100
AcDbEntity
  8
SLD-0
 62
     7
100
AcDbLine
 10
116.4387076424
 20
224.5484252773
 30
0.0
 11
113.4387076424
 21
225.3522722773
 31
0.0
  0
LINE
  5
2C2
330
2AC
100
AcDbEntity
  8
SLD-0
 62
     7
100
AcDbLine
 10
113.4387076424
 20
225.3522722773
 30
0.0
 11
116.4387076424
 21
226.1561192773
 31
0.0
  0
LINE
  5
2C3
330
2AC
100
AcDbEntity
  8
SLD-0
 62
     7
100
AcDbLine
 10
113.4387076424
 20
225.3522722773
 30
0.0
 11
116.4387076424
 21
225.3522722773
 31
0.0
  0
MTEXT
  5
2C4
330
2AC
100
AcDbEntity
  8
SLD-0
 62
     7
100
AcDbMText
 10
108.9204826126
 20
229.8789660897
 30
0.1
 40
3.5
 41
0.0
 71
     1
 72
     1
  1
7
  7
SLDTEXTSTYLE2
 73
     1
 44
1.0
  0
ENDBLK
  5
2B8
330
2AC
100
AcDbEntity
  8
0
100
AcDbBlockEnd
  0
ENDSEC
  0
SECTION
  2
ENTITIES
  0
LINE
  5
75
330
1F
100
AcDbEntity
  8
SLD-0
100
AcDbLine
 10
84.2584374102
 20
125.7883880593
 30
0.0
 11
86.302047616
 21
128.0408661007
 31
0.0
  0
LINE
  5
76
330
1F
100
AcDbEntity
  8
SLD-0
100
AcDbLine
 10
86.302047616
 20
128.0408661007
 30
0.0
 11
85.0994362456
 21
125.24735113
 31
0.0
  0
LINE
  5
77
330
1F
100
AcDbEntity
  8
SLD-0
100
AcDbLine
 10
85.0994362456
 20
125.24735113
 30
0.0
 11
84.2584374102
 21
125.7883880593
 31
0.0
  0
LINE
  5
78
330
1F
100
AcDbEntity
  8
SLD-0
  6
Continuous
 62
     7
100
AcDbLine
 10
80.9387072922
 20
133.7408660863
 30
0.0
 11
80.9387072922
 21
128.0408660485
 31
0.0
  0
LINE
  5
79
330
1F
100
AcDbEntity
  8
SLD-0
  6
Continuous
 62
     7
100
AcDbLine
 10
80.4387072102
 20
128.5408661304
 30
0.0
 11
80.9387072922
 21
128.0408660485
 31
0.0
  0
LINE
  5
7A
330
1F
100
AcDbEntity
  8
SLD-0
  6
Continuous
 62
     7
100
AcDbLine
 10
80.4387072102
 20
128.5408661304
 30
0.0
 11
80.4387072102
 21
133.7408660863
 31
0.0
  0
LINE
  5
7B
330
1F
100
AcDbEntity
  8
SLD-0
  6
Continuous
 62
     7
100
AcDbLine
 10
80.4387072102
 20
133.7408660863
 30
0.0
 11
80.9387072922
 21
133.7408660863
 31
0.0
  0
LINE
  5
7C
330
1F
100
AcDbEntity
  8
SLD-0
  6
Continuous
 62
     7
100
AcDbLine
 10
80.4387072103
 20
134.3408660864
 30
0.0
 11
80.4387072103
 21
139.5408660709
 31
0.0
  0
LINE
  5
7D
330
1F
100
AcDbEntity
  8
SLD-0
  6
Continuous
 62
     7
100
AcDbLine
 10
80.4387072103
 20
139.5408660709
 30
0.0
 11
80.9387072922
 21
140.0408661528
 31
0.0
  0
LINE
  5
7E
330
1F
100
AcDbEntity
  8
SLD-0
  6
Continuous
 62
     7
100
AcDbLine
 10
80.9387072922
 20
140.0408661528
 30
0.0
 11
80.9387072922
 21
134.3408660864
 31
0.0
  0
LINE
  5
7F
330
1F
100
AcDbEntity
  8
SLD-0
  6
Continuous
 62
     7
100
AcDbLine
 10
80.9387072922
 20
134.3408660864
 30
0.0
 11
80.4387072103
 21
134.3408660864
 31
0.0
  0
LINE
  5
80
330
1F
100
AcDbEntity
  8
SLD-0
  6
Continuous
 62
     7
100
AcDbLine
 10
112.9387078808
 20
140.0408661528
 30
0.0
 11
80.9387072922
 21
140.0408661528
 31
0.0
  0
LINE
  5
81
330
1F
100
AcDbEntity
  8
SLD-0
  6
Continuous
 62
     7
100
AcDbLine
 10
112.9387078808
 20
128.0408660485
 30
0.0
 11
112.9387078808
 21
140.0408661528
 31
0.0
  0
LINE
  5
82
330
1F
100
AcDbEntity
  8
SLD-0
  6
Continuous
 62
     7
100
AcDbLine
 10
80.9387072922
 20
128.0408660485
 30
0.0
 11
112.9387078808
 21
128.0408660485
 31
0.0
  0
LINE
  5
83
330
1F
100
AcDbEntity
  8
SLD-0
  6
Continuous
 62
     7
100
AcDbLine
 10
98.4274417774
 20
133.7408660863
 30
0.0
 11
100.4387076946
 21
133.7408660863
 31
0.0
  0
LINE
  5
84
330
1F
100
AcDbEntity
  8
SLD-0
  6
Continuous
 62
     7
100
AcDbLine
 10
100.4387076946
 20
133.7408660863
 30
0.0
 11
100.4387076946
 21
134.3408660864
 31
0.0
  0
LINE
  5
85
330
1F
100
AcDbEntity
  8
SLD-0
  6
Continuous
 62
     7
100
AcDbLine
 10
100.4387076946
 20
134.3408660864
 30
0.0
 11
98.4274417774
 21
134.3408660864
 31
0.0
  0
LINE
  5
86
330
1F
100
AcDbEntity
  8
SLD-0
  6
Continuous
 62
     7
100
AcDbLine
 10
90.4499735074
 20
134.3408660864
 30
0.0
 11
80.9387072922
 21
134.3408660864
 31
0.0
  0
LINE
  5
87
330
1F
100
AcDbEntity
  8
SLD-0
  6
Continuous
 62
     7
100
AcDbLine
 10
80.9387072922
 20
133.7408660863
 30
0.0
 11
90.4499735074
 21
133.7408660863
 31
0.0
  0
LINE
  5
88
330
1F
100
AcDbEntity
  8
SLD-0
  6
Continuous
 62
     7
100
AcDbLine
 10
113.4387070315
 20
139.5408660709
 30
0.0
 11
113.4387070315
 21
128.5408661305
 31
0.0
  0
LINE
  5
89
330
1F
100
AcDbEntity
  8
SLD-0
  6
Continuous
 62
     7
100
AcDbLine
 10
113.4387070315
 20
128.5408661305
 30
0.0
 11
112.9387078808
 21
128.0408660485
 31
0.0
  0
LINE
  5
8A
330
1F
100
AcDbEntity
  8
SLD-0
  6
Continuous
 62
     7
100
AcDbLine
 10
113.4387070315
 20
139.5408660709
 30
0.0
 11
112.9387078808
 21
140.0408661528
 31
0.0
  0
LINE
  5
8B
330
1F
100
AcDbEntity
  8
SLD-0
  6
HIDDEN
 62
     7
100
AcDbLine
 10
86.4387076424
 20
137.0408661007
 30
0.0
 11
90.4387076424
 21
137.0408661007
 31
0.0
  0
LINE
  5
8C
330
1F
100
AcDbEntity
  8
SLD-0
  6
HIDDEN
 62
     7
100
AcDbLine
 10
82.4387076424
 20
137.0408661007
 30
0.0
 11
86.4387076424
 21
137.0408661007
 31
0.0
  0
LINE
  5
8D
330
1F
100
AcDbEntity
  8
SLD-0
  6
HIDDEN
 62
     7
100
AcDbLine
 10
82.4387075381
 20
140.0408661528
 30
0.0
 11
82.4387076424
 21
137.0408661007
 31
0.0
  0
LINE
  5
8E
330
1F
100
AcDbEntity
  8
SLD-0
  6
HIDDEN
 62
     7
100
AcDbLine
 10
90.4387076424
 20
137.0408661007
 30
0.0
 11
90.4387074524
 21
140.0408661528
 31
0.0
  0
LINE
  5
8F
330
1F
100
AcDbEntity
  8
SLD-0
  6
HIDDEN
 62
     7
100
AcDbLine
 10
103.9387073369
 20
140.0408661528
 30
0.0
 11
103.9387073369
 21
134.0408661007
 31
0.0
  0
LINE
  5
90
330
1F
100
AcDbEntity
  8
SLD-0
  6
HIDDEN
 62
     7
100
AcDbLine
 10
108.9387076424
 20
134.0408661007
 30
0.0
 11
108.9387072252
 21
140.0408661528
 31
0.0
  0
LINE
  5
91
330
1F
100
AcDbEntity
  8
SLD-0
  6
HIDDEN
 62
     7
100
AcDbLine
 10
103.9387073369
 20
134.0408661007
 30
0.0
 11
103.9387073369
 21
128.0408660485
 31
0.0
  0
LINE
  5
92
330
1F
100
AcDbEntity
  8
SLD-0
  6
HIDDEN
 62
     7
100
AcDbLine
 10
108.9387072252
 20
128.0408660485
 30
0.0
 11
108.9387076424
 21
134.0408661007
 31
0.0
  0
LINE
  5
93
330
1F
100
AcDbEntity
  8
SLD-0
  6
HIDDEN
 62
     7
100
AcDbLine
 10
84.1887073593
 20
137.0408661268
 30
0.0
 11
84.1887073593
 21
134.3408661149
 31
0.0
  0
LINE
  5
94
330
1F
100
AcDbEntity
  8
SLD-0
  6
HIDDEN
 62
     7
100
AcDbLine
 10
88.6887076312
 20
134.3408661149
 30
0.0
 11
88.6887076312
 21
137.0408661268
 31
0.0
  0
LINE
  5
95
330
1F
100
AcDbEntity
  8
SLD-0
  6
HIDDEN
 62
     7
100
AcDbLine
 10
84.7887072714
 20
133.7408660864
 30
0.0
 11
84.7887072714
 21
128.0408660485
 31
0.0
  0
LINE
  5
96
330
1F
100
AcDbEntity
  8
SLD-0
  6
HIDDEN
 62
     7
100
AcDbLine
 10
88.0887077192
 20
128.0408660485
 30
0.0
 11
88.0887077192
 21
133.7408660864
 31
0.0
  0
LINE
  5
97
330
1F
100
AcDbEntity
  8
SLD-0
 62
     7
100
AcDbLine
 10
113.1887076424
 20
139.7908661007
 30
0.0
 11
118.2532944121
 21
143.520856945
 31
0.0
  0
LINE
  5
98
330
1F
100
AcDbEntity
  8
SLD-0
 62
     7
100
AcDbLine
 10
118.2532944121
 20
143.520856945
 30
0.0
 11
130.6179098477
 21
152.6904968414
 31
0.0
  0
LINE
  5
99
330
1F
100
AcDbEntity
  8
SLD-0
100
AcDbLine
 10
84.6789368279
 20
125.5178695946
 30
0.0
 11
79.2409874851
 21
117.0650102503
 31
0.0
  0
LINE
  5
9A
330
1F
100
AcDbEntity
  8
SLD-0
100
AcDbLine
 10
79.2409874851
 20
117.0650102503
 30
0.0
 11
74.6680873659
 21
117.0650102503
 31
0.0
  0
LINE
  5
9B
330
1F
100
AcDbEntity
  8
SLD-0
  6
HIDDEN
 62
     7
100
AcDbLine
 10
88.4387075903
 20
128.0408660485
 30
0.0
 11
88.4387075903
 21
133.7408660864
 31
0.0
  0
LINE
  5
9C
330
1F
100
AcDbEntity
  8
SLD-0
  6
HIDDEN
 62
     7
100
AcDbLine
 10
84.4387078659
 20
133.7408660864
 30
0.0
 11
84.4387078659
 21
128.0408660485
 31
0.0
  0
LINE
  5
9D
330
1F
100
AcDbEntity
  8
SLD-0
  6
HIDDEN
 62
     7
100
AcDbLine
 10
106.4387077467
 20
131.0408660746
 30
0.0
 11
106.0844084249
 21
131.0621181573
 31
0.0
  0
LINE
  5
9E
330
1F
100
AcDbEntity
  8
SLD-0
  6
HIDDEN
 62
     7
100
AcDbLine
 10
106.0844084249
 20
131.0621181573
 30
0.0
 11
105.7414554061
 21
131.1230178061
 31
0.0
  0
LINE
  5
9F
330
1F
100
AcDbEntity
  8
SLD-0
  6
HIDDEN
 62
     7
100
AcDbLine
 10
105.7414554061
 20
131.1230178061
 30
0.0
 11
105.4215312006
 21
131.2187025859
 31
0.0
  0
LINE
  5
A0
330
1F
100
AcDbEntity
  8
SLD-0
  6
HIDDEN
 62
     7
100
AcDbLine
 10
105.4215312006
 20
131.2187025859
 30
0.0
 11
105.1279289649
 21
131.3423743076
 31
0.0
  0
LINE
  5
A1
330
1F
100
AcDbEntity
  8
SLD-0
  6
HIDDEN
 62
     7
100
AcDbLine
 10
105.1279289649
 20
131.3423743076
 30
0.0
 11
104.7748105602
 21
131.5447972691
 31
0.0
  0
LINE
  5
A2
330
1F
100
AcDbEntity
  8
SLD-0
  6
HIDDEN
 62
     7
100
AcDbLine
 10
104.7748105602
 20
131.5447972691
 30
0.0
 11
104.4795142488
 21
131.7689589294
 31
0.0
  0
LINE
  5
A3
330
1F
100
AcDbEntity
  8
SLD-0
  6
HIDDEN
 62
     7
100
AcDbLine
 10
104.4795142488
 20
131.7689589294
 30
0.0
 11
104.2392469944
 21
132.0011718734
 31
0.0
  0
LINE
  5
A4
330
1F
100
AcDbEntity
  8
SLD-0
  6
HIDDEN
 62
     7
100
AcDbLine
 10
104.2392469944
 20
132.0011718734
 30
0.0
 11
104.0627306329
 21
132.209273458
 31
0.0
  0
LINE
  5
A5
330
1F
100
AcDbEntity
  8
SLD-0
  6
HIDDEN
 62
     7
100
AcDbLine
 10
104.0627306329
 20
132.209273458
 30
0.0
 11
103.9960945027
 21
132.2991287405
 31
0.0
  0
LINE
  5
A6
330
1F
100
AcDbEntity
  8
SLD-0
  6
HIDDEN
 62
     7
100
AcDbLine
 10
103.9960945027
 20
132.2991287405
 30
0.0
 11
103.953709081
 21
132.3601577268
 31
0.0
  0
LINE
  5
A7
330
1F
100
AcDbEntity
  8
SLD-0
  6
HIDDEN
 62
     7
100
AcDbLine
 10
103.953709081
 20
132.3601577268
 30
0.0
 11
103.9389373736
 21
132.3820042261
 31
0.0
  0
LINE
  5
A8
330
1F
100
AcDbEntity
  8
SLD-0
  6
HIDDEN
 62
     7
100
AcDbLine
 10
103.9389373736
 20
132.3820042261
 30
0.0
 11
103.9532005788
 21
132.3609094205
 31
0.0
  0
LINE
  5
A9
330
1F
100
AcDbEntity
  8
SLD-0
  6
HIDDEN
 62
     7
100
AcDbLine
 10
103.9532005788
 20
132.3609094205
 30
0.0
 11
104.0005546065
 21
132.2928984254
 31
0.0
  0
LINE
  5
AA
330
1F
100
AcDbEntity
  8
SLD-0
  6
HIDDEN
 62
     7
100
AcDbLine
 10
104.0005546065
 20
132.2928984254
 30
0.0
 11
104.0158106016
 21
132.2725423914
 31
0.0
  0
LINE
  5
AB
330
1F
100
AcDbEntity
  8
SLD-0
  6
HIDDEN
 62
     7
100
AcDbLine
 10
108.8799361141
 20
132.2974683088
 30
0.0
 11
108.8859925048
 21
132.3056914215
 31
0.0
  0
LINE
  5
AC
330
1F
100
AcDbEntity
  8
SLD-0
  6
HIDDEN
 62
     7
100
AcDbLine
 10
108.8859925048
 20
132.3056914215
 30
0.0
 11
108.925879188
 21
132.3633747478
 31
0.0
  0
LINE
  5
AD
330
1F
100
AcDbEntity
  8
SLD-0
  6
HIDDEN
 62
     7
100
AcDbLine
 10
108.925879188
 20
132.3633747478
 30
0.0
 11
108.9384371416
 21
132.3819516064
 31
0.0
  0
LINE
  5
AE
330
1F
100
AcDbEntity
  8
SLD-0
  6
HIDDEN
 62
     7
100
AcDbLine
 10
108.9384371416
 20
132.3819516064
 30
0.0
 11
108.9225199075
 21
132.3584050941
 31
0.0
  0
LINE
  5
AF
330
1F
100
AcDbEntity
  8
SLD-0
  6
HIDDEN
 62
     7
100
AcDbLine
 10
108.9225199075
 20
132.3584050941
 30
0.0
 11
108.8728049772
 21
132.2872635745
 31
0.0
  0
LINE
  5
B0
330
1F
100
AcDbEntity
  8
SLD-0
  6
HIDDEN
 62
     7
100
AcDbLine
 10
108.8728049772
 20
132.2872635745
 30
0.0
 11
108.7937692182
 21
132.1824569558
 31
0.0
  0
LINE
  5
B1
330
1F
100
AcDbEntity
  8
SLD-0
  6
HIDDEN
 62
     7
100
AcDbLine
 10
108.7937692182
 20
132.1824569558
 30
0.0
 11
108.6153278129
 21
131.9767337362
 31
0.0
  0
LINE
  5
B2
330
1F
100
AcDbEntity
  8
SLD-0
  6
HIDDEN
 62
     7
100
AcDbLine
 10
108.6153278129
 20
131.9767337362
 30
0.0
 11
108.3779960872
 21
131.7519445973
 31
0.0
  0
LINE
  5
B3
330
1F
100
AcDbEntity
  8
SLD-0
  6
HIDDEN
 62
     7
100
AcDbLine
 10
108.3779960872
 20
131.7519445973
 30
0.0
 11
108.0678768458
 21
131.5220282948
 31
0.0
  0
LINE
  5
B4
330
1F
100
AcDbEntity
  8
SLD-0
  6
HIDDEN
 62
     7
100
AcDbLine
 10
108.0678768458
 20
131.5220282948
 30
0.0
 11
107.6964290814
 21
131.3172404724
 31
0.0
  0
LINE
  5
B5
330
1F
100
AcDbEntity
  8
SLD-0
  6
HIDDEN
 62
     7
100
AcDbLine
 10
107.6964290814
 20
131.3172404724
 30
0.0
 11
107.3833193632
 21
131.1936360388
 31
0.0
  0
LINE
  5
B6
330
1F
100
AcDbEntity
  8
SLD-0
  6
HIDDEN
 62
     7
100
AcDbLine
 10
107.3833193632
 20
131.1936360388
 30
0.0
 11
107.0427477361
 21
131.1023058905
 31
0.0
  0
LINE
  5
B7
330
1F
100
AcDbEntity
  8
SLD-0
  6
HIDDEN
 62
     7
100
AcDbLine
 10
107.0427477361
 20
131.1023058905
 30
0.0
 11
106.744426489
 21
131.0566301062
 31
0.0
  0
LINE
  5
B8
330
1F
100
AcDbEntity
  8
SLD-0
  6
HIDDEN
 62
     7
100
AcDbLine
 10
106.744426489
 20
131.0566301062
 30
0.0
 11
106.4387077467
 21
131.0408660746
 31
0.0
  0
LINE
  5
B9
330
1F
100
AcDbEntity
  8
SLD-0
  6
HIDDEN
 62
     7
100
AcDbLine
 10
109.4387073071
 20
128.0408660485
 30
0.0
 11
109.4387073071
 21
140.0408661528
 31
0.0
  0
LINE
  5
BA
330
1F
100
AcDbEntity
  8
SLD-0
  6
HIDDEN
 62
     7
100
AcDbLine
 10
103.438707255
 20
140.0408661528
 30
0.0
 11
103.438707255
 21
128.0408660485
 31
0.0
  0
LINE
  5
BB
330
1F
100
AcDbEntity
  8
SLD-0
  6
HIDDEN
 62
     7
100
AcDbLine
 10
106.4387077467
 20
136.5408660448
 30
0.0
 11
106.5831484275
 21
136.5304673626
 31
0.0
  0
LINE
  5
BC
330
1F
100
AcDbEntity
  8
SLD-0
  6
HIDDEN
 62
     7
100
AcDbLine
 10
106.4193483444
 20
136.5396681311
 30
0.0
 11
106.4387077467
 21
136.5408660448
 31
0.0
  0
LINE
  5
BD
330
1F
100
AcDbEntity
  8
SLD-0
  6
CENTERX2
 62
     7
100
AcDbLine
 10
86.4387076424
 20
126.0408661007
 30
0.0
 11
86.4387076424
 21
142.0408661007
 31
0.0
  0
LINE
  5
BE
330
1F
100
AcDbEntity
  8
SLD-0
  6
CENTERX2
 62
     7
100
AcDbLine
 10
106.4387076424
 20
134.0408661007
 30
0.0
 11
106.4387076424
 21
142.0408661007
 31
0.0
  0
LINE
  5
BF
330
1F
100
AcDbEntity
  8
SLD-0
  6
CENTERX2
 62
     7
100
AcDbLine
 10
106.4387076424
 20
126.0408661007
 30
0.0
 11
106.4387076424
 21
134.0408661007
 31
0.0
  0
LINE
  5
C0
330
1F
100
AcDbEntity
  8
SLD-0
  6
Continuous
 62
     7
100
AcDbLine
 10
80.4387072103
 20
200.2405696698
 30
0.0
 11
80.4387072103
 21
209.2405692824
 31
0.0
  0
LINE
  5
C1
330
1F
100
AcDbEntity
  8
SLD-0
  6
Continuous
 62
     7
100
AcDbLine
 10
80.9387072923
 20
209.7405693643
 30
0.0
 11
80.9387072923
 21
199.7405695878
 31
0.0
  0
LINE
  5
C2
330
1F
100
AcDbEntity
  8
SLD-0
  6
Continuous
 62
     7
100
AcDbLine
 10
80.4387072103
 20
200.2405696698
 30
0.0
 11
80.9387072923
 21
199.7405695878
 31
0.0
  0
LINE
  5
C3
330
1F
100
AcDbEntity
  8
SLD-0
  6
Continuous
 62
     7
100
AcDbLine
 10
80.9387072923
 20
209.7405693643
 30
0.0
 11
80.4387072103
 21
209.2405692824
 31
0.0
  0
LINE
  5
C4
330
1F
100
AcDbEntity
  8
SLD-0
  6
Continuous
 62
     7
100
AcDbLine
 10
112.9387078809
 20
209.7405693643
 30
0.0
 11
80.9387072923
 21
209.7405693643
 31
0.0
  0
LINE
  5
C5
330
1F
100
AcDbEntity
  8
SLD-0
  6
Continuous
 62
     7
100
AcDbLine
 10
112.9387078809
 20
199.7405695878
 30
0.0
 11
112.9387078809
 21
209.7405693643
 31
0.0
  0
LINE
  5
C6
330
1F
100
AcDbEntity
  8
SLD-0
  6
Continuous
 62
     7
100
AcDbLine
 10
112.9387078809
 20
199.7405695878
 30
0.0
 11
80.9387072923
 21
199.7405695878
 31
0.0
  0
LINE
  5
C7
330
1F
100
AcDbEntity
  8
SLD-0
  6
Continuous
 62
     7
100
AcDbLine
 10
113.4387070316
 20
209.2405692825
 30
0.0
 11
113.4387070316
 21
200.2405696698
 31
0.0
  0
LINE
  5
C8
330
1F
100
AcDbEntity
  8
SLD-0
  6
Continuous
 62
     7
100
AcDbLine
 10
113.4387070316
 20
200.2405696698
 30
0.0
 11
112.9387078809
 21
199.7405695878
 31
0.0
  0
LINE
  5
C9
330
1F
100
AcDbEntity
  8
SLD-0
  6
Continuous
 62
     7
100
AcDbLine
 10
112.9387078809
 20
209.7405693643
 30
0.0
 11
113.4387070316
 21
209.2405692825
 31
0.0
  0
LINE
  5
CA
330
1F
100
AcDbEntity
  8
SLD-0
  6
HIDDEN
 62
     7
100
AcDbLine
 10
98.4274416232
 20
199.7405695878
 30
0.0
 11
98.4274416232
 21
209.7405693643
 31
0.0
  0
LINE
  5
CB
330
1F
100
AcDbEntity
  8
SLD-0
  6
HIDDEN
 62
     7
100
AcDbLine
 10
100.4387076946
 20
209.7405693643
 30
0.0
 11
100.4387076946
 21
199.7405695878
 31
0.0
  0
LINE
  5
CC
330
1F
100
AcDbEntity
  8
SLD-0
  6
HIDDEN
 62
     7
100
AcDbLine
 10
90.4499736616
 20
209.7405693643
 30
0.0
 11
90.4499736616
 21
199.7405695878
 31
0.0
  0
LINE
  5
CD
330
1F
100
AcDbEntity
  8
SLD-0
  6
HIDDEN
 62
     7
100
AcDbLine
 10
108.9387072252
 20
204.7405694761
 30
0.0
 11
108.9387072252
 21
209.7405693643
 31
0.0
  0
LINE
  5
CE
330
1F
100
AcDbEntity
  8
SLD-0
  6
HIDDEN
 62
     7
100
AcDbLine
 10
103.9387073369
 20
209.7405693643
 30
0.0
 11
103.9387073369
 21
204.7405694761
 31
0.0
  0
LINE
  5
CF
330
1F
100
AcDbEntity
  8
SLD-0
  6
HIDDEN
 62
     7
100
AcDbLine
 10
108.9387072252
 20
199.7405695878
 30
0.0
 11
108.9387072252
 21
204.7405694761
 31
0.0
  0
LINE
  5
D0
330
1F
100
AcDbEntity
  8
SLD-0
  6
HIDDEN
 62
     7
100
AcDbLine
 10
103.9387073369
 20
204.7405694761
 30
0.0
 11
103.9387073369
 21
199.7405695878
 31
0.0
  0
LINE
  5
D1
330
1F
100
AcDbEntity
  8
SLD-0
 62
     7
100
AcDbLine
 10
80.6887076424
 20
209.4905694761
 30
0.0
 11
63.1427260869
 21
222.5141084999
 31
0.0
  0
LINE
  5
D2
330
1F
100
AcDbEntity
  8
SLD-0
 62
     7
100
AcDbLine
 10
63.1427260869
 20
222.5141084999
 30
0.0
 11
75.4949549278
 21
213.3277896853
 31
0.0
  0
LINE
  5
D3
330
1F
100
AcDbEntity
  8
SLD-0
  6
HIDDEN
 62
     7
100
AcDbLine
 10
103.438707255
 20
209.7405693643
 30
0.0
 11
103.438707255
 21
199.7405695878
 31
0.0
  0
LINE
  5
D4
330
1F
100
AcDbEntity
  8
SLD-0
  6
HIDDEN
 62
     7
100
AcDbLine
 10
109.4387073071
 20
199.7405695878
 30
0.0
 11
109.4387073071
 21
209.7405693643
 31
0.0
  0
LINE
  5
D5
330
1F
100
AcDbEntity
  8
SLD-0
  6
HIDDEN
 62
     7
100
AcDbLine
 10
106.4387077467
 20
207.7405695022
 30
0.0
 11
106.7930070685
 21
207.7193174195
 31
0.0
  0
LINE
  5
D6
330
1F
100
AcDbEntity
  8
SLD-0
  6
HIDDEN
 62
     7
100
AcDbLine
 10
106.7930070685
 20
207.7193174195
 30
0.0
 11
107.1359600873
 21
207.6584177707
 31
0.0
  0
LINE
  5
D7
330
1F
100
AcDbEntity
  8
SLD-0
  6
HIDDEN
 62
     7
100
AcDbLine
 10
107.1359600873
 20
207.6584177707
 30
0.0
 11
107.4558842929
 21
207.5627329909
 31
0.0
  0
LINE
  5
D8
330
1F
100
AcDbEntity
  8
SLD-0
  6
HIDDEN
 62
     7
100
AcDbLine
 10
107.4558842929
 20
207.5627329909
 30
0.0
 11
107.7494865285
 21
207.4390612692
 31
0.0
  0
LINE
  5
D9
330
1F
100
AcDbEntity
  8
SLD-0
  6
HIDDEN
 62
     7
100
AcDbLine
 10
107.7494865285
 20
207.4390612692
 30
0.0
 11
108.1026049332
 21
207.2366383076
 31
0.0
  0
LINE
  5
DA
330
1F
100
AcDbEntity
  8
SLD-0
  6
HIDDEN
 62
     7
100
AcDbLine
 10
108.1026049332
 20
207.2366383076
 30
0.0
 11
108.3979012446
 21
207.0124766473
 31
0.0
  0
LINE
  5
DB
330
1F
100
AcDbEntity
  8
SLD-0
  6
HIDDEN
 62
     7
100
AcDbLine
 10
108.3979012446
 20
207.0124766473
 30
0.0
 11
108.638168499
 21
206.7802637034
 31
0.0
  0
LINE
  5
DC
330
1F
100
AcDbEntity
  8
SLD-0
  6
HIDDEN
 62
     7
100
AcDbLine
 10
108.638168499
 20
206.7802637034
 30
0.0
 11
108.8146848606
 21
206.5721621188
 31
0.0
  0
LINE
  5
DD
330
1F
100
AcDbEntity
  8
SLD-0
  6
HIDDEN
 62
     7
100
AcDbLine
 10
108.8146848606
 20
206.5721621188
 30
0.0
 11
108.8813209908
 21
206.4823068362
 31
0.0
  0
LINE
  5
DE
330
1F
100
AcDbEntity
  8
SLD-0
  6
HIDDEN
 62
     7
100
AcDbLine
 10
108.8813209908
 20
206.4823068362
 30
0.0
 11
108.9237064125
 21
206.42127785
 31
0.0
  0
LINE
  5
DF
330
1F
100
AcDbEntity
  8
SLD-0
  6
HIDDEN
 62
     7
100
AcDbLine
 10
108.9237064125
 20
206.42127785
 30
0.0
 11
108.9384771885
 21
206.3994313507
 31
0.0
  0
LINE
  5
E0
330
1F
100
AcDbEntity
  8
SLD-0
  6
HIDDEN
 62
     7
100
AcDbLine
 10
108.9384771885
 20
206.3994313507
 30
0.0
 11
108.9242149146
 21
206.4205261562
 31
0.0
  0
LINE
  5
E1
330
1F
100
AcDbEntity
  8
SLD-0
  6
HIDDEN
 62
     7
100
AcDbLine
 10
108.9242149146
 20
206.4205261562
 30
0.0
 11
108.876860887
 21
206.4885371514
 31
0.0
  0
LINE
  5
E2
330
1F
100
AcDbEntity
  8
SLD-0
  6
HIDDEN
 62
     7
100
AcDbLine
 10
108.876860887
 20
206.4885371514
 30
0.0
 11
108.8616048919
 21
206.5088931853
 31
0.0
  0
LINE
  5
E3
330
1F
100
AcDbEntity
  8
SLD-0
  6
HIDDEN
 62
     7
100
AcDbLine
 10
103.9974793793
 20
206.483967268
 30
0.0
 11
103.9914229886
 21
206.4757441553
 31
0.0
  0
LINE
  5
E4
330
1F
100
AcDbEntity
  8
SLD-0
  6
HIDDEN
 62
     7
100
AcDbLine
 10
103.9914229886
 20
206.4757441553
 30
0.0
 11
103.9515363054
 21
206.418060829
 31
0.0
  0
LINE
  5
E5
330
1F
100
AcDbEntity
  8
SLD-0
  6
HIDDEN
 62
     7
100
AcDbLine
 10
103.9515363054
 20
206.418060829
 30
0.0
 11
103.9389783518
 21
206.3994839704
 31
0.0
  0
LINE
  5
E6
330
1F
100
AcDbEntity
  8
SLD-0
  6
HIDDEN
 62
     7
100
AcDbLine
 10
103.9389783518
 20
206.3994839704
 30
0.0
 11
103.9548946546
 21
206.4230304826
 31
0.0
  0
LINE
  5
E7
330
1F
100
AcDbEntity
  8
SLD-0
  6
HIDDEN
 62
     7
100
AcDbLine
 10
103.9548946546
 20
206.4230304826
 30
0.0
 11
104.0046105163
 21
206.4941720022
 31
0.0
  0
LINE
  5
E8
330
1F
100
AcDbEntity
  8
SLD-0
  6
HIDDEN
 62
     7
100
AcDbLine
 10
104.0046105163
 20
206.4941720022
 30
0.0
 11
104.0836462753
 21
206.598978621
 31
0.0
  0
LINE
  5
E9
330
1F
100
AcDbEntity
  8
SLD-0
  6
HIDDEN
 62
     7
100
AcDbLine
 10
104.0836462753
 20
206.598978621
 30
0.0
 11
104.2620876806
 21
206.8047018405
 31
0.0
  0
LINE
  5
EA
330
1F
100
AcDbEntity
  8
SLD-0
  6
HIDDEN
 62
     7
100
AcDbLine
 10
104.2620876806
 20
206.8047018405
 30
0.0
 11
104.4994194062
 21
207.0294909794
 31
0.0
  0
LINE
  5
EB
330
1F
100
AcDbEntity
  8
SLD-0
  6
HIDDEN
 62
     7
100
AcDbLine
 10
104.4994194062
 20
207.0294909794
 30
0.0
 11
104.8095386477
 21
207.2594072819
 31
0.0
  0
LINE
  5
EC
330
1F
100
AcDbEntity
  8
SLD-0
  6
HIDDEN
 62
     7
100
AcDbLine
 10
104.8095386477
 20
207.2594072819
 30
0.0
 11
105.180986412
 21
207.4641951044
 31
0.0
  0
LINE
  5
ED
330
1F
100
AcDbEntity
  8
SLD-0
  6
HIDDEN
 62
     7
100
AcDbLine
 10
105.180986412
 20
207.4641951044
 30
0.0
 11
105.494095199
 21
207.587799538
 31
0.0
  0
LINE
  5
EE
330
1F
100
AcDbEntity
  8
SLD-0
  6
HIDDEN
 62
     7
100
AcDbLine
 10
105.494095199
 20
207.587799538
 30
0.0
 11
105.8346677573
 21
207.6791296863
 31
0.0
  0
LINE
  5
EF
330
1F
100
AcDbEntity
  8
SLD-0
  6
HIDDEN
 62
     7
100
AcDbLine
 10
105.8346677573
 20
207.6791296863
 30
0.0
 11
106.1329890044
 21
207.7248054706
 31
0.0
  0
LINE
  5
F0
330
1F
100
AcDbEntity
  8
SLD-0
  6
HIDDEN
 62
     7
100
AcDbLine
 10
106.1329890044
 20
207.7248054706
 30
0.0
 11
106.4387077467
 21
207.7405695022
 31
0.0
  0
LINE
  5
F1
330
1F
100
AcDbEntity
  8
SLD-0
  6
HIDDEN
 62
     7
100
AcDbLine
 10
108.9387072252
 20
203.0822570818
 30
0.0
 11
108.9245902376
 21
203.0610537772
 31
0.0
  0
LINE
  5
F2
330
1F
100
AcDbEntity
  8
SLD-0
  6
HIDDEN
 62
     7
100
AcDbLine
 10
108.9245902376
 20
203.0610537772
 30
0.0
 11
108.8082717733
 21
202.9019495389
 31
0.0
  0
LINE
  5
F3
330
1F
100
AcDbEntity
  8
SLD-0
  6
HIDDEN
 62
     7
100
AcDbLine
 10
104.1619993748
 20
202.7893532217
 30
0.0
 11
104.1301174091
 21
202.824956636
 31
0.0
  0
LINE
  5
F4
330
1F
100
AcDbEntity
  8
SLD-0
  6
HIDDEN
 62
     7
100
AcDbLine
 10
104.1301174091
 20
202.824956636
 30
0.0
 11
104.0175978096
 21
202.9690646017
 31
0.0
  0
LINE
  5
F5
330
1F
100
AcDbEntity
  8
SLD-0
  6
HIDDEN
 62
     7
100
AcDbLine
 10
104.0175978096
 20
202.9690646017
 30
0.0
 11
103.9678577335
 21
203.0390737495
 31
0.0
  0
LINE
  5
F6
330
1F
100
AcDbEntity
  8
SLD-0
  6
HIDDEN
 62
     7
100
AcDbLine
 10
103.9678577335
 20
203.0390737495
 30
0.0
 11
103.9419213311
 21
203.0774221207
 31
0.0
  0
LINE
  5
F7
330
1F
100
AcDbEntity
  8
SLD-0
  6
HIDDEN
 62
     7
100
AcDbLine
 10
103.9419213311
 20
203.0774221207
 30
0.0
 11
103.9423990996
 21
203.0765558742
 31
0.0
  0
LINE
  5
F8
330
1F
100
AcDbEntity
  8
SLD-0
  6
HIDDEN
 62
     7
100
AcDbLine
 10
103.9423990996
 20
203.0765558742
 30
0.0
 11
103.9689399304
 21
203.0375576728
 31
0.0
  0
LINE
  5
F9
330
1F
100
AcDbEntity
  8
SLD-0
  6
HIDDEN
 62
     7
100
AcDbLine
 10
103.9689399304
 20
203.0375576728
 30
0.0
 11
104.0363537149
 21
202.9437915339
 31
0.0
  0
LINE
  5
FA
330
1F
100
AcDbEntity
  8
SLD-0
  6
HIDDEN
 62
     7
100
AcDbLine
 10
104.0363537149
 20
202.9437915339
 30
0.0
 11
104.1174225511
 21
202.8412150834
 31
0.0
  0
LINE
  5
FB
330
1F
100
AcDbEntity
  8
SLD-0
  6
HIDDEN
 62
     7
100
AcDbLine
 10
108.9345050977
 20
203.0759445774
 30
0.0
 11
108.9347528295
 21
203.0763109364
 31
0.0
  0
LINE
  5
FC
330
1F
100
AcDbEntity
  8
SLD-0
  6
HIDDEN
 62
     7
100
AcDbLine
 10
108.9347528295
 20
203.0763109364
 30
0.0
 11
108.9387072252
 21
203.0822570818
 31
0.0
  0
LINE
  5
FD
330
1F
100
AcDbEntity
  8
SLD-0
  6
CENTERX2
 62
     7
100
AcDbLine
 10
106.4387076424
 20
204.7405694761
 30
0.0
 11
106.4387076424
 21
197.7405694761
 31
0.0
  0
LINE
  5
FE
330
1F
100
AcDbEntity
  8
SLD-0
  6
CENTERX2
 62
     7
100
AcDbLine
 10
94.4387076424
 20
197.7405694761
 30
0.0
 11
94.4387076424
 21
211.7405694761
 31
0.0
  0
LINE
  5
FF
330
1F
100
AcDbEntity
  8
SLD-0
  6
CENTERX2
 62
     7
100
AcDbLine
 10
106.4387076424
 20
211.7405694761
 30
0.0
 11
106.4387076424
 21
204.7405694761
 31
0.0
  0
LINE
  5
100
330
1F
100
AcDbEntity
  8
0
  6
Continuous
 62
     7
370
     0
100
AcDbLine
 10
20.2604743903
 20
285.0
 30
0.0
 11
196.7604743903
 21
285.0
 31
0.0
  0
LINE
  5
101
330
1F
100
AcDbEntity
  8
0
  6
Continuous
 62
     7
370
     0
100
AcDbLine
 10
20.2604743903
 20
285.0
 30
0.0
 11
20.2604743903
 21
10.0
 31
0.0
  0
LINE
  5
102
330
1F
100
AcDbEntity
  8
0
  6
Continuous
 62
     7
370
     0
100
AcDbLine
 10
20.2604743903
 20
10.0
 30
0.0
 11
196.7604743903
 21
10.0
 31
0.0
  0
LINE
  5
103
330
1F
100
AcDbEntity
  8
0
  6
Continuous
 62
     7
370
     0
100
AcDbLine
 10
196.7604743903
 20
285.0
 30
0.0
 11
196.7604743903
 21
10.0
 31
0.0
  0
LINE
  5
104
330
1F
100
AcDbEntity
  8
0
  6
Continuous
 62
     7
370
     0
100
AcDbLine
 10
127.0104743903
 20
50.75
 30
0.0
 11
196.7604743903
 21
50.75
 31
0.0
  0
LINE
  5
105
330
1F
100
AcDbEntity
  8
0
  6
Continuous
 62
     7
370
     0
100
AcDbLine
 10
127.0104743903
 20
50.75
 30
0.0
 11
127.0104743903
 21
10.0
 31
0.0
  0
LINE
  5
106
330
1F
100
AcDbEntity
  8
0
  6
Continuous
 62
     7
370
     0
100
AcDbLine
 10
127.0104743903
 20
22.75
 30
0.0
 11
196.7604743903
 21
22.75
 31
0.0
  0
LINE
  5
107
330
1F
100
AcDbEntity
  8
0
  6
Continuous
 62
     7
370
     0
100
AcDbLine
 10
127.0104743903
 20
36.75
 30
0.0
 11
196.7604743903
 21
36.75
 31
0.0
  0
ARC
  5
108
330
1F
100
AcDbEntity
  8
SLD-0
  6
Continuous
 62
     7
100
AcDbCircle
 10
94.4387076424
 20
134.0408660864
 30
0.0
 40
3.999999999999999
100
AcDbArc
 50
184.3012223047
 51
355.6987776953
  0
ARC
  5
109
330
1F
100
AcDbEntity
  8
SLD-0
  6
Continuous
 62
     7
100
AcDbCircle
 10
94.4387076424
 20
134.0408660864
 30
0.0
 40
3.999999999964277
100
AcDbArc
 50
4.3012223047
 51
175.6987776953
  0
CIRCLE
  5
10A
330
1F
100
AcDbEntity
  8
SLD-0
  6
Continuous
 62
     7
100
AcDbCircle
 10
106.4387076424
 20
134.0408661007
 30
0.0
 40
2.5
  0
CIRCLE
  5
10B
330
1F
100
AcDbEntity
  8
SLD-0
 62
     7
100
AcDbCircle
 10
106.4387076424
 20
134.0408661007
 30
0.0
 40
2.999999664699999
  0
CIRCLE
  5
10C
330
1F
100
AcDbEntity
  8
SLD-0
  6
Continuous
 62
     7
100
AcDbCircle
 10
86.4387076424
 20
204.7405694761
 30
0.0
 40
4.0
  0
CIRCLE
  5
10D
330
1F
100
AcDbEntity
  8
SLD-0
  6
Continuous
 62
     7
100
AcDbCircle
 10
106.4387076424
 20
204.7405694761
 30
0.0
 40
2.5
  0
CIRCLE
  5
10E
330
1F
100
AcDbEntity
  8
SLD-0
  6
Continuous
 62
     7
100
AcDbCircle
 10
86.4387076424
 20
204.7405694761
 30
0.0
 40
2.25
  0
CIRCLE
  5
10F
330
1F
100
AcDbEntity
  8
SLD-0
  6
Continuous
 62
     7
100
AcDbCircle
 10
86.4387076424
 20
204.7405694761
 30
0.0
 40
1.649999999999992
  0
CIRCLE
  5
110
330
1F
100
AcDbEntity
  8
SLD-0
 62
     7
100
AcDbCircle
 10
86.4387076424
 20
204.7405694761
 30
0.0
 40
1.999999947799992
  0
CIRCLE
  5
111
330
1F
100
AcDbEntity
  8
SLD-0
 62
     7
100
AcDbCircle
 10
106.4387076424
 20
204.7405694761
 30
0.0
 40
2.999999664699999
  0
DIMENSION
  5
112
330
1F
100
AcDbEntity
  8
SLD-0
 62
     7
100
AcDbDimension
  2
*D9
 10
97.260723805
 20
131.2060425121
 30
0.0
 11
66.6609342777
 21
154.0754503936
 31
0.0
 70
   163
  1
<>　 
 71
     1
 42
8.0
  3
SLDDIMSTYLE0
100
AcDbDiametricDimension
 15
91.6166914799
 25
136.8756896892
 35
0.0
 40
0.0
1001
ACAD
1000
DSTYLE
1002
{
1070
    77
1070
     0
1070
   143
1040
0.0393700787
1070
    41
1040
3.0
1070
    44
1040
1.0
1070
    42
1040
1.0
1070
   147
1040
1.524
1070
    73
1070
     1
1070
    74
1070
     1
1070
   140
1040
3.5
1070
   284
1070
    12
1070
    78
1070
    12
1002
}
  0
DIMENSION
  5
129
330
1F
100
AcDbEntity
  8
SLD-0
 62
     7
100
AcDbDimension
  2
*D10
 10
135.4320914332
 20
128.0408661007
 30
0.0
 11
135.4320914332
 21
134.0408661007
 31
0.0
 70
   160
 71
     1
 42
12.0
  3
SLDDIMSTYLE1
100
AcDbAlignedDimension
 13
113.4387076424
 23
140.0408661007
 33
0.0
 14
113.4387076424
 24
128.0408661007
 34
0.0
 50
90.0
100
AcDbRotatedDimension
1001
ACAD
1000
DSTYLE
1002
{
1070
    77
1070
     3
1070
   143
1040
0.0393700787
1070
    41
1040
3.0
1070
    44
1040
1.0
1070
    42
1040
1.0
1070
   147
1040
1.524
1070
    73
1070
     0
1070
    74
1070
     0
1070
   140
1040
3.5
1070
   284
1070
    12
1070
    78
1070
    12
1002
}
  0
DIMENSION
  5
145
330
1F
100
AcDbEntity
  8
SLD-0
 62
     7
100
AcDbDimension
  2
*D12
 10
125.384240158
 20
134.0408661007
 30
0.0
 11
125.384240158
 21
131.0408661007
 31
0.0
 70
   160
 71
     1
 42
6.0
  3
SLDDIMSTYLE1
100
AcDbAlignedDimension
 13
113.4387076424
 23
128.0408661007
 33
0.0
 14
94.4387076424
 24
134.0408661007
 34
0.0
 50
90.0
100
AcDbRotatedDimension
1001
ACAD
1000
DSTYLE
1002
{
1070
    77
1070
     3
1070
   143
1040
0.0393700787
1070
    41
1040
3.0
1070
    44
1040
1.0
1070
    42
1040
1.0
1070
   147
1040
1.524
1070
    73
1070
     0
1070
    74
1070
     0
1070
   140
1040
3.5
1070
   284
1070
    12
1070
    78
1070
    12
1002
}
  0
DIMENSION
  5
15F
330
1F
100
AcDbEntity
  8
SLD-0
 62
     7
100
AcDbDimension
  2
*D13
 10
72.9842657744
 20
133.7408661007
 30
0.0
 11
72.9842657744
 21
140.8359901963
 31
0.0
 70
   160
 71
     1
 42
0.6
  3
SLDDIMSTYLE2
100
AcDbAlignedDimension
 13
80.4387076424
 23
134.3408661007
 33
0.0
 14
80.4387076424
 24
133.7408661007
 34
0.0
 50
90.0
100
AcDbRotatedDimension
1001
ACAD
1000
DSTYLE
1002
{
1070
    77
1070
     3
1070
   143
1040
0.0393700787
1070
    41
1040
3.0
1070
    44
1040
1.0
1070
    42
1040
1.0
1070
   147
1040
1.524
1070
    73
1070
     0
1070
    74
1070
     0
1070
   140
1040
3.5
1070
   284
1070
    12
1070
    78
1070
     8
1002
}
  0
DIMENSION
  5
17B
330
1F
100
AcDbEntity
  8
SLD-0
 62
     7
100
AcDbDimension
  2
*D14
 10
60.8770349708
 20
134.0408661007
 30
0.0
 11
60.8770349708
 21
131.0408661007
 31
0.0
 70
   160
 71
     1
 42
6.0
  3
SLDDIMSTYLE1
100
AcDbAlignedDimension
 13
80.9387076424
 23
128.0408661007
 33
0.0
 14
106.4387076424
 24
134.0408661007
 34
0.0
 50
90.0
100
AcDbRotatedDimension
1001
ACAD
1000
DSTYLE
1002
{
1070
    77
1070
     3
1070
   143
1040
0.0393700787
1070
    41
1040
3.0
1070
    44
1040
1.0
1070
    42
1040
1.0
1070
   147
1040
1.524
1070
    73
1070
     0
1070
    74
1070
     0
1070
   140
1040
3.5
1070
   284
1070
    12
1070
    78
1070
    12
1002
}
  0
DIMENSION
  5
195
330
1F
100
AcDbEntity
  8
SLD-0
100
AcDbDimension
  2
*D15
 10
106.4387076424
 20
151.8663280502
 30
0.0
 11
109.9387076424
 21
151.8663280502
 31
0.0
 70
   160
 71
     1
 42
7.0
  3
SLDDIMSTYLE3
100
AcDbAlignedDimension
 13
113.4387076424
 23
139.5408661007
 33
0.0
 14
106.4387076424
 24
139.0408661007
 34
0.0
100
AcDbRotatedDimension
1001
ACAD
1000
DSTYLE
1002
{
1070
    77
1070
     3
1070
   143
1040
0.0393700787
1070
    41
1040
3.0
1070
    44
1040
1.0
1070
    42
1040
1.0
1070
   147
1040
1.524
1070
    73
1070
     0
1070
    74
1070
     0
1070
   140
1040
3.5
1070
   284
1070
    12
1070
    78
1070
    12
1002
}
  0
DIMENSION
  5
1B0
330
1F
100
AcDbEntity
  8
SLD-0
100
AcDbDimension
  2
*D16
 10
94.4387076424
 20
159.5603790623
 30
0.0
 11
103.9387076424
 21
159.5603790623
 31
0.0
 70
   160
 71
     1
 42
19.0
  3
SLDDIMSTYLE1
100
AcDbAlignedDimension
 13
113.4387076424
 23
139.5408661007
 33
0.0
 14
94.4387076424
 24
140.5408661007
 34
0.0
100
AcDbRotatedDimension
1001
ACAD
1000
DSTYLE
1002
{
1070
    77
1070
     3
1070
   143
1040
0.0393700787
1070
    41
1040
3.0
1070
    44
1040
1.0
1070
    42
1040
1.0
1070
   147
1040
1.524
1070
    73
1070
     0
1070
    74
1070
     0
1070
   140
1040
3.5
1070
   284
1070
    12
1070
    78
1070
    12
1002
}
  0
DIMENSION
  5
1C7
330
1F
100
AcDbEntity
  8
SLD-0
 62
     7
100
AcDbDimension
  2
*D17
 10
3.7311737807
 20
4.6987583391
 30
0.0
 11
136.7958440204
 21
-4.6987591411
 31
0.0
 70
   163
  1
M<>　P=0.75貫通<>
 71
     1
 42
5.999998976
  3
SLDDIMSTYLE4
100
AcDbDiametricDimension
 15
0.0
 25
0.0
 35
0.0
 40
0.0
1001
ACAD
1000
DSTYLE
1002
{
1070
    77
1070
     0
1070
   143
1040
0.0393700787
1070
    41
1040
3.0
1070
    44
1040
1.0
1070
    42
1040
1.0
1070
   147
1040
1.524
1070
    73
1070
     1
1070
    74
1070
     1
1070
   140
1040
3.5
1070
   284
1070
    12
1070
    78
1070
    12
1002
}
  0
DIMENSION
  5
1DA
330
1F
100
AcDbEntity
  8
SLD-0
 62
     7
100
AcDbDimension
  2
*D18
 10
113.4387076424
 20
113.7169779461
 30
0.0
 11
106.9387076424
 21
113.7169779461
 31
0.0
 70
   160
 71
     1
 42
13.0
  3
SLDDIMSTYLE1
100
AcDbAlignedDimension
 13
100.4387076424
 23
133.7408661007
 33
0.0
 14
113.4387076424
 24
128.5408661007
 34
0.0
100
AcDbRotatedDimension
1001
ACAD
1000
DSTYLE
1002
{
1070
    77
1070
     3
1070
   143
1040
0.0393700787
1070
    41
1040
3.0
1070
    44
1040
1.0
1070
    42
1040
1.0
1070
   147
1040
1.524
1070
    73
1070
     0
1070
    74
1070
     0
1070
   140
1040
3.5
1070
   284
1070
    12
1070
    78
1070
    12
1002
}
  0
DIMENSION
  5
1F1
330
1F
100
AcDbEntity
  8
SLD-0
 62
     7
100
AcDbDimension
  2
*D19
 10
100.4387076424
 20
113.7169779461
 30
0.0
 11
90.4387076424
 21
113.7169779461
 31
0.0
 70
   160
  1
(<>)
 71
     1
 42
20.0
  3
SLDDIMSTYLE1
100
AcDbAlignedDimension
 13
80.4387076424
 23
128.5408661007
 33
0.0
 14
100.4387076424
 24
133.7408661007
 34
0.0
100
AcDbRotatedDimension
1001
ACAD
1000
DSTYLE
1002
{
1070
    77
1070
     3
1070
   143
1040
0.0393700787
1070
    41
1040
3.0
1070
    44
1040
1.0
1070
    42
1040
1.0
1070
   147
1040
1.524
1070
    73
1070
     0
1070
    74
1070
     0
1070
   140
1040
3.5
1070
   284
1070
    12
1070
    78
1070
    12
1002
}
  0
DIMENSION
  5
20A
330
1F
100
AcDbEntity
  8
SLD-0
 62
     7
100
AcDbDimension
  2
*D20
 10
133.218069489
 20
209.7405694761
 30
0.0
 11
133.218069489
 21
204.7405694761
 31
0.0
 70
   160
 71
     1
 42
10.0
  3
SLDDIMSTYLE3
100
AcDbAlignedDimension
 13
113.4387076424
 23
199.7405694761
 33
0.0
 14
113.4387076424
 24
209.7405694761
 34
0.0
 50
90.0
100
AcDbRotatedDimension
1001
ACAD
1000
DSTYLE
1002
{
1070
    77
1070
     3
1070
   143
1040
0.0393700787
1070
    41
1040
3.0
1070
    44
1040
1.0
1070
    42
1040
1.0
1070
   147
1040
1.524
1070
    73
1070
     0
1070
    74
1070
     0
1070
   140
1040
3.5
1070
   284
1070
    12
1070
    78
1070
    12
1002
}
  0
DIMENSION
  5
222
330
1F
100
AcDbEntity
  8
SLD-0
 62
     7
100
AcDbDimension
  2
*D21
 10
113.4387076424
 20
240.0240491902
 30
0.0
 11
96.9387076424
 21
240.0240491902
 31
0.0
 70
   160
 71
     1
 42
33.0
  3
SLDDIMSTYLE1
100
AcDbAlignedDimension
 13
80.4387076424
 23
204.7405694761
 33
0.0
 14
113.4387076424
 24
204.7405694761
 34
0.0
100
AcDbRotatedDimension
1001
ACAD
1000
DSTYLE
1002
{
1070
    77
1070
     3
1070
   143
1040
0.0393700787
1070
    41
1040
3.0
1070
    44
1040
1.0
1070
    42
1040
1.0
1070
   147
1040
1.524
1070
    73
1070
     0
1070
    74
1070
     0
1070
   140
1040
3.5
1070
   284
1070
    12
1070
    78
1070
    12
1002
}
  0
DIMENSION
  5
239
330
1F
100
AcDbEntity
  8
SLD-0
100
AcDbDimension
  2
*D22
 10
86.4387076424
 20
232.387682221
 30
0.0
 11
99.9387076424
 21
232.387682221
 31
0.0
 70
   160
 71
     1
 42
27.0
  3
SLDDIMSTYLE1
100
AcDbAlignedDimension
 13
113.4387076424
 23
209.2405694761
 33
0.0
 14
86.4387076424
 24
211.2405694761
 34
0.0
100
AcDbRotatedDimension
1001
ACAD
1000
DSTYLE
1002
{
1070
    77
1070
     3
1070
   143
1040
0.0393700787
1070
    41
1040
3.0
1070
    44
1040
1.0
1070
    42
1040
1.0
1070
   147
1040
1.524
1070
    73
1070
     0
1070
    74
1070
     0
1070
   140
1040
3.5
1070
   284
1070
    12
1070
    78
1070
    12
1002
}
  0
DIMENSION
  5
250
330
1F
100
AcDbEntity
  8
SLD-0
100
AcDbDimension
  2
*D23
 10
124.0070475388
 20
199.7405694761
 30
0.0
 11
124.0070475388
 21
202.2405694761
 31
0.0
 70
   160
 71
     1
 42
5.0
  3
SLDDIMSTYLE3
100
AcDbAlignedDimension
 13
111.4387076424
 23
204.7405694761
 33
0.0
 14
112.9387076424
 24
199.7405694761
 34
0.0
 50
90.0
100
AcDbRotatedDimension
1001
ACAD
1000
DSTYLE
1002
{
1070
    77
1070
     3
1070
   143
1040
0.0393700787
1070
    41
1040
3.0
1070
    44
1040
1.0
1070
    42
1040
1.0
1070
   147
1040
1.524
1070
    73
1070
     0
1070
    74
1070
     0
1070
   140
1040
3.5
1070
   284
1070
    12
1070
    78
1070
    12
1002
}
  0
DIMENSION
  5
26A
330
1F
100
AcDbEntity
  8
SLD-0
100
AcDbDimension
  2
*D24
 10
71.1770873786
 20
199.7405694761
 30
0.0
 11
71.1770873786
 21
202.2405694761
 31
0.0
 70
   160
 71
     1
 42
5.0
  3
SLDDIMSTYLE3
100
AcDbAlignedDimension
 13
79.9387076424
 23
204.7405694761
 33
0.0
 14
80.9387076424
 24
199.7405694761
 34
0.0
 50
90.0
100
AcDbRotatedDimension
1001
ACAD
1000
DSTYLE
1002
{
1070
    77
1070
     3
1070
   143
1040
0.0393700787
1070
    41
1040
3.0
1070
    44
1040
1.0
1070
    42
1040
1.0
1070
   147
1040
1.524
1070
    73
1070
     0
1070
    74
1070
     0
1070
   140
1040
3.5
1070
   284
1070
    12
1070
    78
1070
    12
1002
}
  0
DIMENSION
  5
284
330
1F
100
AcDbEntity
  8
SLD-0
 62
     7
100
AcDbDimension
  2
*D25
 10
2.767576046
 20
5.323581132
 30
0.0
 11
138.7733862305
 21
-5.3235816319
 31
0.0
 70
   163
  1
M<>　P＝0.75貫通<>
 71
     1
 42
5.9999994366
  3
SLDDIMSTYLE4
100
AcDbDiametricDimension
 15
0.0
 25
0.0
 35
0.0
 40
0.0
1001
ACAD
1000
DSTYLE
1002
{
1070
    77
1070
     0
1070
   143
1040
0.0393700787
1070
    41
1040
3.0
1070
    44
1040
1.0
1070
    42
1040
1.0
1070
   147
1040
1.524
1070
    73
1070
     1
1070
    74
1070
     1
1070
   140
1040
3.5
1070
   284
1070
    12
1070
    78
1070
    12
1002
}
  0
DIMENSION
  5
296
330
1F
100
AcDbEntity
  8
SLD-0
 62
     7
100
AcDbDimension
  2
*D26
 10
1.7502483574
 20
4.1456756491
 30
0.0
 11
112.6764760941
 21
-5.5275680917
 31
0.0
 70
   163
  1
<>,%%c8ｻﾞｸﾞﾘ深3
 71
     1
 42
4.4999995444
  3
SLDDIMSTYLE5
100
AcDbDiametricDimension
 15
0.0
 25
0.0
 35
0.0
 40
0.0
1001
ACAD
1000
DSTYLE
1002
{
1070
    77
1070
     0
1070
   143
1040
0.0393700787
1070
    41
1040
3.0
1070
    44
1040
1.0
1070
    42
1040
1.0
1070
   147
1040
1.524
1070
    73
1070
     1
1070
    74
1070
     1
1070
   140
1040
3.5
1070
   284
1070
    12
1070
    78
1070
    12
1002
}
  0
DIMENSION
  5
2AB
330
1F
100
AcDbEntity
  8
SLD-0
 62
     7
100
AcDbDimension
  2
*D27
 10
106.4387076424
 20
225.3522722773
 30
0.0
 11
109.9387076424
 21
225.3522722773
 31
0.0
 70
   160
 71
     1
 42
7.0
  3
SLDDIMSTYLE1
100
AcDbAlignedDimension
 13
113.4387076424
 23
209.2405694761
 33
0.0
 14
106.4387076424
 24
209.7405694761
 34
0.0
100
AcDbRotatedDimension
1001
ACAD
1000
DSTYLE
1002
{
1070
    77
1070
     3
1070
   143
1040
0.0393700787
1070
    41
1040
3.0
1070
    44
1040
1.0
1070
    42
1040
1.0
1070
   147
1040
1.524
1070
    73
1070
     0
1070
    74
1070
     0
1070
   140
1040
3.5
1070
   284
1070
    12
1070
    78
1070
    12
1002
}
  0
MTEXT
  5
2C5
330
1F
100
AcDbEntity
  8
SLD-0
 62
     7
100
AcDbMText
 10
116.8316860035
 20
148.1028406504
 30
0.0
 40
3.5
 41
0.0
 71
     1
 72
     1
  1
4-
  7
SLDTEXTSTYLE1
 11
0.803225679901231
 21
0.5956748334009129
 31
0.0
 73
     1
 44
1.0
  0
MTEXT
  5
2C6
330
1F
100
AcDbEntity
  8
SLD-0
 62
     7
100
AcDbMText
 10
120.1031439708
 20
150.5289647505
 30
0.0
 40
3.5
 41
0.0
 71
     1
 72
     1
  1
C
  7
SLDTEXTSTYLE1
 11
0.803225679901231
 21
0.5956748334009129
 31
0.0
 73
     1
 44
1.0
  0
MTEXT
  5
2C7
330
1F
100
AcDbEntity
  8
SLD-0
 62
     7
100
AcDbMText
 10
121.7388729545
 20
151.7420268005
 30
0.0
 40
3.5
 41
0.0
 71
     1
 72
     1
  1
0.5
  7
SLDTEXTSTYLE1
 11
0.803225679901231
 21
0.5956748334009129
 31
0.0
 73
     1
 44
1.0
  0
MTEXT
  5
2C8
330
1F
100
AcDbEntity
  8
SLD-0
 62
     7
100
AcDbMText
 10
67.1182037989
 20
225.1994617551
 30
0.0
 40
3.5
 41
0.0
 71
     1
 72
     1
  1
4-
  7
SLDTEXTSTYLE1
 11
0.8024210263853012
 21
-0.5967583232890512
 31
0.0
 73
     1
 44
1.0
  0
MTEXT
  5
2C9
330
1F
100
AcDbEntity
  8
SLD-0
 62
     7
100
AcDbMText
 10
70.3863844929
 20
222.7689247091
 30
0.0
 40
3.5
 41
0.0
 71
     1
 72
     1
  1
C
  7
SLDTEXTSTYLE1
 11
0.8024210263853012
 21
-0.5967583232890512
 31
0.0
 73
     1
 44
1.0
  0
MTEXT
  5
2CA
330
1F
100
AcDbEntity
  8
SLD-0
 62
     7
100
AcDbMText
 10
72.0204748399
 20
221.5536561861
 30
0.0
 40
3.5
 41
0.0
 71
     1
 72
     1
  1
0.5
  7
SLDTEXTSTYLE1
 11
0.8024210263853012
 21
-0.5967583232890512
 31
0.0
 73
     1
 44
1.0
  0
MTEXT
  5
2CB
330
1F
100
AcDbEntity
  8
0
  6
Continuous
 62
     7
370
     0
100
AcDbMText
 10
149.9645220581
 20
29.8861652342
 30
0.0
 40
4.2333333333
 41
0.0
 71
     1
 72
     1
  1
N01862-209
  7
SLDTEXTSTYLE0
 73
     1
 44
1.0
  0
MTEXT
  5
2CC
330
1F
100
AcDbEntity
  8
0
  6
Continuous
 62
     7
370
     0
100
AcDbMText
 10
129.0968364685
 20
43.4099788511
 30
0.0
 40
4.2333333333
 41
0.0
 71
     1
 72
     1
  1
φ8　サクションブラケット　Ｍ6
  7
SLDTEXTSTYLE0
 73
     1
 44
1.0
  0
MTEXT
  5
2CD
330
1F
100
AcDbEntity
  8
0
  6
Continuous
 62
     7
370
     0
100
AcDbMText
 10
155.5724669465
 20
16.2918259049
 30
0.0
 40
4.2333333333
 41
0.0
 71
     1
 72
     1
  1
131124
  7
SLDTEXTSTYLE0
 73
     1
 44
1.0
  0
HATCH
  5
2CE
330
1F
100
AcDbEntity
  8
0
  6
Continuous
 62
     7
100
AcDbHatch
 10
0.0
 20
0.0
 30
0.0
210
0.0
220
0.0
230
1.0
  2
ANSI31
 70
     0
 71
     0
 91
        1
 92
        0
 93
        3
 72
     1
 10
85.09943624558449
 20
125.2473511299602
 11
84.25843741023188
 21
125.7883880593241
 72
     1
 10
84.25843741023188
 20
125.7883880593241
 11
86.302047616
 21
128.0408661007
 72
     1
 10
86.302047616
 20
128.0408661007
 11
85.09943624558449
 21
125.2473511299602
 97
        0
 75
     0
 76
     1
 52
0.0
 41
1.0
 77
     0
 78
     1
 53
45.00000209717174
 43
0.0
 44
0.0
 45
-2.245064112442359
 46
2.245063948092215
 79
     0
 98
        1
 10
0.0
 20
0.0
  0
INSERT
  5
2CF
330
1F
100
AcDbEntity
  8
0
  6
Continuous
 62
     7
370
     0
100
AcDbBlockReference
  2
_OPEN30
 10
113.1887076424
 20
139.7908661007
 30
0.0
 41
3.0
 42
3.0
 43
3.0
 50
-143.6289211295
  0
INSERT
  5
2D0
330
1F
100
AcDbEntity
  8
0
  6
Continuous
 62
     7
370
     0
100
AcDbBlockReference
  2
NOTE51
 10
74.6680873659
 20
117.0650102503
 30
0.0
  0
INSERT
  5
2D1
330
1F
100
AcDbEntity
  8
0
  6
Continuous
 62
     7
370
     0
100
AcDbBlockReference
  2
SW_CENTERMARK0
 10
0.0
 20
0.0
 30
0.0
  0
INSERT
  5
2D2
330
1F
100
AcDbEntity
  8
0
  6
Continuous
 62
     7
370
     0
100
AcDbBlockReference
  2
SW_CENTERMARK1
 10
0.0
 20
0.0
 30
0.0
  0
INSERT
  5
2D3
330
1F
100
AcDbEntity
  8
0
  6
Continuous
 62
     7
370
     0
100
AcDbBlockReference
  2
SURFACEFINISH52
 10
77.965299174
 20
155.6349622498
 30
0.0
  0
INSERT
  5
2D4
330
1F
100
AcDbEntity
  8
0
  6
Continuous
 62
     7
370
     0
100
AcDbBlockReference
  2
_OPEN30
 10
80.6887076424
 20
209.4905694761
 30
0.0
 41
3.0
 42
3.0
 43
3.0
 50
-36.5847238502
  0
INSERT
  5
2D5
330
1F
100
AcDbEntity
  8
0
  6
Continuous
 62
     7
370
     0
100
AcDbBlockReference
  2
SW_CENTERMARK2
 10
0.0
 20
0.0
 30
0.0
  0
INSERT
  5
2D6
330
1F
100
AcDbEntity
  8
0
  6
Continuous
 62
     7
370
     0
100
AcDbBlockReference
  2
SW_CENTERMARK3
 10
0.0
 20
0.0
 30
0.0
  0
ENDSEC
  0
SECTION
  2
OBJECTS
  0
DICTIONARY
  5
C
330
0
100
AcDbDictionary
281
     1
  3
ACAD_GROUP
350
D
  3
ACAD_LAYOUT
350
1A
  3
ACAD_MLINESTYLE
350
17
  3
ACAD_PLOTSETTINGS
350
19
  3
ACAD_PLOTSTYLENAME
350
E
  0
DICTIONARY
  5
D
102
{ACAD_REACTORS
330
C
102
}
330
C
100
AcDbDictionary
281
     1
  0
DICTIONARY
  5
1A
102
{ACAD_REACTORS
330
C
102
}
330
C
100
AcDbDictionary
281
     1
  3
Layout1
350
1E
  3
Layout2
350
26
  3
Model
350
22
  0
DICTIONARY
  5
17
102
{ACAD_REACTORS
330
C
102
}
330
C
100
AcDbDictionary
281
     1
  3
Standard
350
18
  0
DICTIONARY
  5
19
102
{ACAD_REACTORS
330
C
102
}
330
C
100
AcDbDictionary
281
     1
  0
ACDBDICTIONARYWDFLT
  5
E
102
{ACAD_REACTORS
330
C
102
}
330
C
100
AcDbDictionary
281
     1
  3
Normal
350
F
100
AcDbDictionaryWithDefault
340
F
  0
LAYOUT
  5
1E
102
{ACAD_REACTORS
330
1A
102
}
330
1A
100
AcDbPlotSettings
  1

  2

  4

  6

 40
0.0
 41
0.0
 42
0.0
 43
0.0
 44
0.0
 45
0.0
 46
0.0
 47
0.0
 48
0.0
 49
0.0
140
0.0
141
0.0
142
1.0
143
1.0
 70
   688
 72
     0
 73
     0
 74
     5
  7

 75
    16
147
1.0
148
0.0
149
0.0
100
AcDbLayout
  1
Layout1
 70
     1
 71
     1
 10
0.0
 20
0.0
 11
0.0
 21
0.0
 12
0.0
 22
0.0
 32
0.0
 14
0.0
 24
0.0
 34
0.0
 15
0.0
 25
0.0
 35
0.0
146
0.0
 13
0.0
 23
0.0
 33
0.0
 16
1.0
 26
0.0
 36
0.0
 17
0.0
 27
1.0
 37
0.0
 76
     0
330
1B
  0
LAYOUT
  5
26
102
{ACAD_REACTORS
330
1A
102
}
330
1A
100
AcDbPlotSettings
  1

  2

  4

  6

 40
0.0
 41
0.0
 42
0.0
 43
0.0
 44
0.0
 45
0.0
 46
0.0
 47
0.0
 48
0.0
 49
0.0
140
0.0
141
0.0
142
1.0
143
1.0
 70
   688
 72
     0
 73
     0
 74
     5
  7

 75
    16
147
1.0
148
0.0
149
0.0
100
AcDbLayout
  1
Layout2
 70
     1
 71
     2
 10
0.0
 20
0.0
 11
0.0
 21
0.0
 12
0.0
 22
0.0
 32
0.0
 14
0.0
 24
0.0
 34
0.0
 15
0.0
 25
0.0
 35
0.0
146
0.0
 13
0.0
 23
0.0
 33
0.0
 16
1.0
 26
0.0
 36
0.0
 17
0.0
 27
1.0
 37
0.0
 76
     0
330
23
  0
LAYOUT
  5
22
102
{ACAD_REACTORS
330
1A
102
}
330
1A
100
AcDbPlotSettings
  1

  2

  4

  6

 40
0.0
 41
0.0
 42
0.0
 43
0.0
 44
0.0
 45
0.0
 46
0.0
 47
0.0
 48
0.0
 49
0.0
140
0.0
141
0.0
142
1.0
143
1.0
 70
  1712
 72
     0
 73
     0
 74
     0
  7

 75
     0
147
1.0
148
0.0
149
0.0
100
AcDbLayout
  1
Model
 70
     1
 71
     0
 10
0.0
 20
0.0
 11
0.0
 21
0.0
 12
0.0
 22
0.0
 32
0.0
 14
0.0
 24
0.0
 34
0.0
 15
210.0
 25
297.0
 35
0.0
146
0.0
 13
0.0
 23
0.0
 33
0.0
 16
1.0
 26
0.0
 36
0.0
 17
0.0
 27
1.0
 37
0.0
 76
     0
330
1F
  0
MLINESTYLE
  5
18
102
{ACAD_REACTORS
330
17
102
}
330
17
100
AcDbMlineStyle
  2
Standard
 70
     0
  3

 62
   256
 51
90.0
 52
90.0
 71
     2
 49
0.5
 62
   256
  6
BYLAYER
 49
-0.5
 62
   256
  6
BYLAYER
  0
ACDBPLACEHOLDER
  5
F
102
{ACAD_REACTORS
330
E
102
}
330
E
  0
ENDSEC
  0
EOF
