  0
SECTION
  2
HEADER
  9
$ACADVER
  1
AC1015
  9
$ACADMAINTVER
 70
     6
  9
$DWGCODEPAGE
  3
DOS932
  9
$INSBASE
 10
0.0
 20
0.0
 30
0.0
  9
$EXTMIN
 10
0.0
 20
0.0
 30
0.0
  9
$EXTMAX
 10
210.0
 20
297.0
 30
0.0
  9
$LIMMIN
 10
0.0
 20
0.0
  9
$LIMMAX
 10
0.0
 20
0.0
  9
$ORTHOMODE
 70
     0
  9
$REGENMODE
 70
     1
  9
$FILLMODE
 70
     1
  9
$QTEXTMODE
 70
     0
  9
$MIRRTEXT
 70
     1
  9
$LTSCALE
 40
1.0
  9
$ATTMODE
 70
     1
  9
$TEXTSIZE
 40
3.5
  9
$TRACEWID
 40
1.0
  9
$TEXTSTYLE
  7
Standard
  9
$CLAYER
  8
0
  9
$CELTYPE
  6
ByLayer
  9
$CECOLOR
 62
   256
  9
$CELTSCALE
 40
1.0
  9
$DISPSILH
 70
     0
  9
$DIMSCALE
 40
1.0
  9
$DIMASZ
 40
3.0
  9
$DIMEXO
 40
1.0
  9
$DIMDLI
 40
3.75
  9
$DIMRND
 40
0.0
  9
$DIMDLE
 40
0.0
  9
$DIMEXE
 40
1.0
  9
$DIMTP
 40
0.0
  9
$DIMTM
 40
0.0
  9
$DIMTXT
 40
3.5
  9
$DIMCEN
 40
2.5
  9
$DIMTSZ
 40
0.0
  9
$DIMTOL
 70
     0
  9
$DIMLIM
 70
     0
  9
$DIMTIH
 70
     1
  9
$DIMTOH
 70
     1
  9
$DIMSE1
 70
     0
  9
$DIMSE2
 70
     0
  9
$DIMTAD
 70
     1
  9
$DIMZIN
 70
     1
  9
$DIMBLK
  1

  9
$DIMASO
 70
     1
  9
$DIMSHO
 70
     1
  9
$DIMPOST
  1

  9
$DIMAPOST
  1

  9
$DIMALT
 70
     0
  9
$DIMALTD
 70
     3
  9
$DIMALTF
 40
0.0393700787
  9
$DIMLFAC
 40
1.0
  9
$DIMTOFL
 70
     1
  9
$DIMTVP
 40
0.0
  9
$DIMTIX
 70
     0
  9
$DIMSOXD
 70
     0
  9
$DIMSAH
 70
     0
  9
$DIMBLK1
  1

  9
$DIMBLK2
  1

  9
$DIMSTYLE
  2
ISO-25
  9
$DIMCLRD
 70
     0
  9
$DIMCLRE
 70
     0
  9
$DIMCLRT
 70
     0
  9
$DIMTFAC
 40
1.0
  9
$DIMGAP
 40
1.524
  9
$DIMJUST
 70
     0
  9
$DIMSD1
 70
     0
  9
$DIMSD2
 70
     0
  9
$DIMTOLJ
 70
     0
  9
$DIMTZIN
 70
     1
  9
$DIMALTZ
 70
     0
  9
$DIMALTTZ
 70
     0
  9
$DIMUPT
 70
     0
  9
$DIMDEC
 70
     2
  9
$DIMTDEC
 70
     2
  9
$DIMALTU
 70
     2
  9
$DIMALTTD
 70
     3
  9
$DIMTXSTY
  7
Standard
  9
$DIMAUNIT
 70
     0
  9
$DIMADEC
 70
     0
  9
$DIMALTRND
 40
0.0
  9
$DIMAZIN
 70
     0
  9
$DIMDSEP
 70
    44
  9
$DIMATFIT
 70
     3
  9
$DIMFRAC
 70
     0
  9
$DIMLDRBLK
  1

  9
$DIMLUNIT
 70
     2
  9
$DIMLWD
 70
    -2
  9
$DIMLWE
 70
    -2
  9
$DIMTMOVE
 70
     0
  9
$LUNITS
 70
     2
  9
$LUPREC
 70
     1
  9
$SKETCHINC
 40
1.0
  9
$FILLETRAD
 40
10.0
  9
$AUNITS
 70
     0
  9
$AUPREC
 70
     0
  9
$MENU
  1
.
  9
$ELEVATION
 40
0.0
  9
$PELEVATION
 40
0.0
  9
$THICKNESS
 40
0.0
  9
$LIMCHECK
 70
     0
  9
$CHAMFERA
 40
10.0
  9
$CHAMFERB
 40
10.0
  9
$CHAMFERC
 40
20.0
  9
$CHAMFERD
 40
0.0
  9
$SKPOLY
 70
     0
  9
$TDCREATE
 40
2454359.444136458
  9
$TDUCREATE
 40
2454359.069136458
  9
$TDUPDATE
 40
2454359.44413647
  9
$TDUUPDATE
 40
2454359.06913647
  9
$TDINDWG
 40
0.0000000116
  9
$TDUSRTIMER
 40
0.0000000116
  9
$USRTIMER
 70
     1
  9
$ANGBASE
 50
0.0
  9
$ANGDIR
 70
     0
  9
$PDMODE
 70
     0
  9
$PDSIZE
 40
-1.0
  9
$PLINEWID
 40
0.0
  9
$SPLFRAME
 70
     0
  9
$SPLINETYPE
 70
     6
  9
$SPLINESEGS
 70
     8
  9
$HANDSEED
  5
1FC
  9
$SURFTAB1
 70
     6
  9
$SURFTAB2
 70
     6
  9
$SURFTYPE
 70
     6
  9
$SURFU
 70
     6
  9
$SURFV
 70
     6
  9
$UCSBASE
  2

  9
$UCSNAME
  2

  9
$UCSORG
 10
0.0
 20
0.0
 30
0.0
  9
$UCSXDIR
 10
1.0
 20
0.0
 30
0.0
  9
$UCSYDIR
 10
0.0
 20
1.0
 30
0.0
  9
$UCSORTHOREF
  2

  9
$UCSORTHOVIEW
 70
     0
  9
$UCSORGTOP
 10
0.0
 20
0.0
 30
0.0
  9
$UCSORGBOTTOM
 10
0.0
 20
0.0
 30
0.0
  9
$UCSORGLEFT
 10
0.0
 20
0.0
 30
0.0
  9
$UCSORGRIGHT
 10
0.0
 20
0.0
 30
0.0
  9
$UCSORGFRONT
 10
0.0
 20
0.0
 30
0.0
  9
$UCSORGBACK
 10
0.0
 20
0.0
 30
0.0
  9
$PUCSBASE
  2

  9
$PUCSNAME
  2

  9
$PUCSORG
 10
0.0
 20
0.0
 30
0.0
  9
$PUCSXDIR
 10
1.0
 20
0.0
 30
0.0
  9
$PUCSYDIR
 10
0.0
 20
1.0
 30
0.0
  9
$PUCSORTHOREF
  2

  9
$PUCSORTHOVIEW
 70
     0
  9
$PUCSORGTOP
 10
0.0
 20
0.0
 30
0.0
  9
$PUCSORGBOTTOM
 10
0.0
 20
0.0
 30
0.0
  9
$PUCSORGLEFT
 10
0.0
 20
0.0
 30
0.0
  9
$PUCSORGRIGHT
 10
0.0
 20
0.0
 30
0.0
  9
$PUCSORGFRONT
 10
0.0
 20
0.0
 30
0.0
  9
$PUCSORGBACK
 10
0.0
 20
0.0
 30
0.0
  9
$USERI1
 70
     0
  9
$USERI2
 70
     0
  9
$USERI3
 70
     0
  9
$USERI4
 70
     0
  9
$USERI5
 70
     0
  9
$USERR1
 40
0.0
  9
$USERR2
 40
0.0
  9
$USERR3
 40
0.0
  9
$USERR4
 40
0.0
  9
$USERR5
 40
0.0
  9
$WORLDVIEW
 70
     1
  9
$SHADEDGE
 70
     3
  9
$SHADEDIF
 70
    70
  9
$TILEMODE
 70
     1
  9
$MAXACTVP
 70
    64
  9
$PINSBASE
 10
0.0
 20
0.0
 30
0.0
  9
$PLIMCHECK
 70
     0
  9
$PEXTMIN
 10
1.0000000000E+20
 20
1.0000000000E+20
 30
1.0000000000E+20
  9
$PEXTMAX
 10
-1.0000000000E+20
 20
-1.0000000000E+20
 30
-1.0000000000E+20
  9
$PLIMMIN
 10
0.0
 20
0.0
  9
$PLIMMAX
 10
420.0
 20
297.0
  9
$UNITMODE
 70
     0
  9
$VISRETAIN
 70
     1
  9
$PLINEGEN
 70
     0
  9
$PSLTSCALE
 70
     1
  9
$TREEDEPTH
 70
  3020
  9
$CMLSTYLE
  2
Standard
  9
$CMLJUST
 70
     0
  9
$CMLSCALE
 40
20.0
  9
$PROXYGRAPHICS
 70
     1
  9
$MEASUREMENT
 70
     1
  9
$CELWEIGHT
370
    -1
  9
$ENDCAPS
280
     0
  9
$JOINSTYLE
280
     0
  9
$LWDISPLAY
290
     1
  9
$INSUNITS
 70
     4
  9
$HYPERLINKBASE
  1

  9
$STYLESHEET
  1

  9
$XEDIT
290
     1
  9
$CEPSNTYPE
380
     0
  9
$PSTYLEMODE
290
     1
  9
$FINGERPRINTGUID
  2
{69B43AF9-176C-4407-B872-89F5ED3C6D96}
  9
$VERSIONGUID
  2
{FAEB1C32-E019-11D5-929B-00C0DF256EC4}
  9
$EXTNAMES
290
     1
  9
$PSVPSCALE
 40
0.0
  9
$OLESTARTUP
290
     0
  0
ENDSEC
  0
SECTION
  2
CLASSES
  0
CLASS
  1
ACDBDICTIONARYWDFLT
  2
AcDbDictionaryWithDefault
  3
ObjectDBX Classes
 90
        0
280
     0
281
     0
  0
CLASS
  1
ACDBPLACEHOLDER
  2
AcDbPlaceHolder
  3
ObjectDBX Classes
 90
        0
280
     0
281
     0
  0
CLASS
  1
LAYOUT
  2
AcDbLayout
  3
ObjectDBX Classes
 90
        0
280
     0
281
     0
  0
ENDSEC
  0
SECTION
  2
TABLES
  0
TABLE
  2
VPORT
  5
8
330
0
100
AcDbSymbolTable
 70
     1
  0
VPORT
  5
29
330
8
100
AcDbSymbolTableRecord
100
AcDbViewportTableRecord
  2
*Active
 70
     0
 10
0.0
 20
0.0
 11
1.0
 21
1.0
 12
105.0
 22
148.5
 13
0.0
 23
0.0
 14
10.0
 24
10.0
 15
10.0
 25
10.0
 16
0.0
 26
0.0
 36
1.0
 17
0.0
 27
0.0
 37
0.0
 40
297.0
 41
1.9729729729
 42
50.0
 43
0.0
 44
0.0
 50
0.0
 51
0.0
 71
     0
 72
  2000
 73
     1
 74
     3
 75
     0
 76
     0
 77
     0
 78
     0
281
     0
 65
     1
110
0.0
120
0.0
130
0.0
111
1.0
121
0.0
131
0.0
112
0.0
122
1.0
132
0.0
 79
     0
146
0.0
  0
ENDTAB
  0
TABLE
  2
LTYPE
  5
5
330
0
100
AcDbSymbolTable
 70
     6
  0
LTYPE
  5
14
330
5
100
AcDbSymbolTableRecord
100
AcDbLinetypeTableRecord
  2
ByBlock
 70
     0
  3

 72
    65
 73
     0
 40
0.0
  0
LTYPE
  5
15
330
5
100
AcDbSymbolTableRecord
100
AcDbLinetypeTableRecord
  2
ByLayer
 70
     0
  3

 72
    65
 73
     0
 40
0.0
  0
LTYPE
  5
16
330
5
100
AcDbSymbolTableRecord
100
AcDbLinetypeTableRecord
  2
Continuous
 70
     0
  3
Solid line
 72
    65
 73
     0
 40
0.0
  0
LTYPE
  5
2A
330
5
100
AcDbSymbolTableRecord
100
AcDbLinetypeTableRecord
  2
HIDDEN
 70
     0
  3
Hidden __ __ __ __ __ __ __ __ __ __ __ __ __ __
 72
    65
 73
     2
 40
1.905
 49
1.27
 74
     0
 49
-0.635
 74
     0
  0
LTYPE
  5
2B
330
5
100
AcDbSymbolTableRecord
100
AcDbLinetypeTableRecord
  2
PHANTOM
 70
     0
  3
Phantom ______  __  __  ______  __  __  ______
 72
    65
 73
     6
 40
12.7
 49
6.35
 74
     0
 49
-1.27
 74
     0
 49
1.27
 74
     0
 49
-1.27
 74
     0
 49
1.27
 74
     0
 49
-1.27
 74
     0
  0
LTYPE
  5
2C
330
5
100
AcDbSymbolTableRecord
100
AcDbLinetypeTableRecord
  2
CENTER
 70
     0
  3
Center ____ _ ____ _ ____ _ ____ _ ____ _ ____
 72
    65
 73
     4
 40
10.16
 49
6.35
 74
     0
 49
-1.27
 74
     0
 49
1.27
 74
     0
 49
-1.27
 74
     0
  0
LTYPE
  5
2D
330
5
100
AcDbSymbolTableRecord
100
AcDbLinetypeTableRecord
  2
CENTERX2
 70
     0
  3
Center (2x) ________  __  ________  __  _____
 72
    65
 73
     4
 40
20.32
 49
12.7
 74
     0
 49
-2.54
 74
     0
 49
2.54
 74
     0
 49
-2.54
 74
     0
  0
LTYPE
  5
2E
330
5
100
AcDbSymbolTableRecord
100
AcDbLinetypeTableRecord
  2
DOT2
 70
     0
  3
Dot (.5x) ........................................
 72
    65
 73
     2
 40
0.635
 49
0.0
 74
     0
 49
-0.635
 74
     0
  0
ENDTAB
  0
TABLE
  2
LAYER
  5
2
330
0
100
AcDbSymbolTable
 70
     4
  0
LAYER
  5
10
330
2
100
AcDbSymbolTableRecord
100
AcDbLayerTableRecord
  2
0
 70
     0
 62
     7
  6
Continuous
370
    -3
390
F
  0
LAYER
  5
2F
330
2
100
AcDbSymbolTableRecord
100
AcDbLayerTableRecord
  2
SLD-0
 70
     0
 62
     7
  6
Continuous
370
     0
390
F
  0
LAYER
  5
30
330
2
100
AcDbSymbolTableRecord
100
AcDbLayerTableRecord
  2
SLD-DEFPOINTS
 70
     0
 62
     7
  6
Continuous
370
     0
390
F
  0
LAYER
  5
AF
330
2
100
AcDbSymbolTableRecord
100
AcDbLayerTableRecord
  2
Defpoints
 70
     0
 62
     7
  6
Continuous
290
     0
370
    -3
390
F
  0
ENDTAB
  0
TABLE
  2
STYLE
  5
3
330
0
100
AcDbSymbolTable
 70
     4
  0
STYLE
  5
11
330
3
100
AcDbSymbolTableRecord
100
AcDbTextStyleTableRecord
  2
Standard
 70
     0
 40
0.0
 41
1.0
 50
0.0
 71
     0
 42
2.5
  3
txt
  4
bigfont
  0
STYLE
  5
34
330
3
100
AcDbSymbolTableRecord
100
AcDbTextStyleTableRecord
  2
SLDTEXTSTYLE0
 70
     0
 40
0.0
 41
0.7
 50
0.0
 71
     0
 42
0.2
  3
TXT
  4
bigfont
  0
STYLE
  5
46
330
3
100
AcDbSymbolTableRecord
100
AcDbTextStyleTableRecord
  2
SLDTEXTSTYLE1
 70
     0
 40
0.0
 41
0.75
 50
0.0
 71
     0
 42
0.2
  3
TXT
  4
bigfont
  0
STYLE
  5
CA
330
3
100
AcDbSymbolTableRecord
100
AcDbTextStyleTableRecord
  2
SLDTEXTSTYLE2
 70
     0
 40
0.0
 41
0.96
 50
0.0
 71
     0
 42
0.2
  3
TXT
  4
bigfont
  0
ENDTAB
  0
TABLE
  2
VIEW
  5
6
330
0
100
AcDbSymbolTable
 70
     0
  0
ENDTAB
  0
TABLE
  2
UCS
  5
7
330
0
100
AcDbSymbolTable
 70
     0
  0
ENDTAB
  0
TABLE
  2
APPID
  5
9
330
0
100
AcDbSymbolTable
 70
     1
  0
APPID
  5
12
330
9
100
AcDbSymbolTableRecord
100
AcDbRegAppTableRecord
  2
ACAD
 70
     0
  0
ENDTAB
  0
TABLE
  2
DIMSTYLE
  5
A
330
0
100
AcDbSymbolTable
 70
     6
100
AcDbDimStyleTable
  0
DIMSTYLE
105
27
330
A
100
AcDbSymbolTableRecord
100
AcDbDimStyleTableRecord
  2
ISO-25
 70
     0
 41
2.5
 42
0.625
 43
3.75
 44
1.25
 73
     0
 74
     0
 77
     1
 78
     8
140
2.5
141
2.5
143
0.0393700787
147
0.625
171
     3
172
     1
271
     2
272
     2
274
     3
278
    44
283
     0
284
     8
340
11
  0
DIMSTYLE
105
BD
102
{ACAD_REACTORS
330
AE
330
15A
330
172
330
1A1
330
1D0
102
}
330
A
100
AcDbSymbolTableRecord
100
AcDbDimStyleTableRecord
  2
SLDDIMSTYLE0
 70
     0
 41
3.0
 44
0.0
 73
     0
 74
     0
 77
     3
 78
    12
140
3.5
147
0.875
173
     1
271
     1
272
     3
284
    12
340
46
341
BE
343
BE
344
BE
  0
DIMSTYLE
105
D9
102
{ACAD_REACTORS
330
CC
102
}
330
A
100
AcDbSymbolTableRecord
100
AcDbDimStyleTableRecord
  2
SLDDIMSTYLE1
 70
     0
 41
3.0
 44
0.0
 78
    12
140
3.5
147
0.875
172
     1
173
     1
271
     0
272
     3
284
    12
340
46
341
37
343
37
344
37
  0
DIMSTYLE
105
EE
102
{ACAD_REACTORS
330
E1
102
}
330
A
100
AcDbSymbolTableRecord
100
AcDbDimStyleTableRecord
  2
SLDDIMSTYLE2
 70
     0
 41
3.0
 44
0.0
 73
     0
 74
     0
 77
     3
 78
    12
140
3.5
147
0.875
173
     1
271
     0
272
     2
284
    12
340
46
341
BE
343
BE
344
BE
  0
DIMSTYLE
105
106
102
{ACAD_REACTORS
330
F9
330
111
330
12D
330
18A
102
}
330
A
100
AcDbSymbolTableRecord
100
AcDbDimStyleTableRecord
  2
SLDDIMSTYLE3
 70
     0
 41
3.0
 44
0.0
 73
     0
 74
     0
 77
     3
 78
    12
140
3.5
147
0.875
173
     1
271
     0
272
     3
284
    12
340
46
341
BE
343
BE
344
BE
  0
DIMSTYLE
105
14F
102
{ACAD_REACTORS
330
145
330
1BC
102
}
330
A
100
AcDbSymbolTableRecord
100
AcDbDimStyleTableRecord
  2
SLDDIMSTYLE4
 70
     0
 41
3.0
 44
0.0
 78
    12
140
3.5
147
0.875
172
     1
173
     1
271
     1
272
     3
284
    12
340
46
341
BE
343
BE
344
BE
  0
ENDTAB
  0
TABLE
  2
BLOCK_RECORD
  5
1
330
0
100
AcDbSymbolTable
 70
    22
  0
BLOCK_RECORD
  5
1F
330
1
100
AcDbSymbolTableRecord
100
AcDbBlockTableRecord
  2
*Model_Space
340
22
  0
BLOCK_RECORD
  5
1B
330
1
100
AcDbSymbolTableRecord
100
AcDbBlockTableRecord
  2
*Paper_Space
340
1E
  0
BLOCK_RECORD
  5
23
330
1
100
AcDbSymbolTableRecord
100
AcDbBlockTableRecord
  2
*Paper_Space0
340
26
  0
BLOCK_RECORD
  5
31
330
1
100
AcDbSymbolTableRecord
100
AcDbBlockTableRecord
  2
注記
340
0
  0
BLOCK_RECORD
  5
37
330
1
100
AcDbSymbolTableRecord
100
AcDbBlockTableRecord
  2
_OPEN30
340
0
102
{BLKREFS
331
D3
331
D2
331
DA
331
1F6
331
1FA
102
}
  0
BLOCK_RECORD
  5
3D
330
1
100
AcDbSymbolTableRecord
100
AcDbBlockTableRecord
  2
NOTE52
340
0
102
{BLKREFS
331
1F7
102
}
  0
BLOCK_RECORD
  5
48
330
1
100
AcDbSymbolTableRecord
100
AcDbBlockTableRecord
  2
SW_CENTERMARK0
340
0
102
{BLKREFS
331
1F8
102
}
  0
BLOCK_RECORD
  5
53
330
1
100
AcDbSymbolTableRecord
100
AcDbBlockTableRecord
  2
SW_CENTERMARK1
340
0
102
{BLKREFS
331
1F9
102
}
  0
BLOCK_RECORD
  5
5E
330
1
100
AcDbSymbolTableRecord
100
AcDbBlockTableRecord
  2
SW_CENTERMARK2
340
0
102
{BLKREFS
331
1FB
102
}
  0
BLOCK_RECORD
  5
B0
330
1
100
AcDbSymbolTableRecord
100
AcDbBlockTableRecord
  2
*D7
340
0
  0
BLOCK_RECORD
  5
BE
330
1
100
AcDbSymbolTableRecord
100
AcDbBlockTableRecord
  2
_None
340
0
102
{BLKREFS
331
B5
331
B4
331
E7
331
E6
331
FF
331
FE
331
118
331
117
331
133
331
132
331
14A
331
160
331
15F
331
178
331
177
331
190
331
18F
331
1A8
331
1A7
331
1C1
331
1D6
331
1D5
102
}
  0
BLOCK_RECORD
  5
CD
330
1
100
AcDbSymbolTableRecord
100
AcDbBlockTableRecord
  2
*D9
340
0
  0
BLOCK_RECORD
  5
E2
330
1
100
AcDbSymbolTableRecord
100
AcDbBlockTableRecord
  2
*D10
340
0
  0
BLOCK_RECORD
  5
FA
330
1
100
AcDbSymbolTableRecord
100
AcDbBlockTableRecord
  2
*D11
340
0
  0
BLOCK_RECORD
  5
112
330
1
100
AcDbSymbolTableRecord
100
AcDbBlockTableRecord
  2
*D12
340
0
  0
BLOCK_RECORD
  5
12E
330
1
100
AcDbSymbolTableRecord
100
AcDbBlockTableRecord
  2
*D13
340
0
  0
BLOCK_RECORD
  5
146
330
1
100
AcDbSymbolTableRecord
100
AcDbBlockTableRecord
  2
*D14
340
0
  0
BLOCK_RECORD
  5
15B
330
1
100
AcDbSymbolTableRecord
100
AcDbBlockTableRecord
  2
*D15
340
0
  0
BLOCK_RECORD
  5
173
330
1
100
AcDbSymbolTableRecord
100
AcDbBlockTableRecord
  2
*D16
340
0
  0
BLOCK_RECORD
  5
18B
330
1
100
AcDbSymbolTableRecord
100
AcDbBlockTableRecord
  2
*D17
340
0
  0
BLOCK_RECORD
  5
1A2
330
1
100
AcDbSymbolTableRecord
100
AcDbBlockTableRecord
  2
*D18
340
0
  0
BLOCK_RECORD
  5
1BD
330
1
100
AcDbSymbolTableRecord
100
AcDbBlockTableRecord
  2
*D19
340
0
  0
BLOCK_RECORD
  5
1D1
330
1
100
AcDbSymbolTableRecord
100
AcDbBlockTableRecord
  2
*D20
340
0
  0
BLOCK_RECORD
  5
1EE
330
1
100
AcDbSymbolTableRecord
100
AcDbBlockTableRecord
  2
SW_NOTE_0
340
0
102
{BLKREFS
331
1F3
102
}
  0
ENDTAB
  0
ENDSEC
  0
SECTION
  2
BLOCKS
  0
BLOCK
  5
20
330
1F
100
AcDbEntity
  8
0
100
AcDbBlockBegin
  2
*Model_Space
 70
     0
 71
     0
 10
0.0
 20
0.0
 30
0.0
  3
*Model_Space
  1

  0
ENDBLK
  5
21
330
1F
100
AcDbEntity
  8
0
100
AcDbBlockEnd
  0
BLOCK
  5
1C
330
1B
100
AcDbEntity
 67
     1
  8
0
100
AcDbBlockBegin
  2
*Paper_Space
 70
     0
 71
     0
 10
0.0
 20
0.0
 30
0.0
  3
*Paper_Space
  1

  0
ENDBLK
  5
1D
330
1B
100
AcDbEntity
 67
     1
  8
0
100
AcDbBlockEnd
  0
BLOCK
  5
24
330
23
100
AcDbEntity
  8
0
100
AcDbBlockBegin
  2
*Paper_Space0
 70
     0
 71
     0
 10
0.0
 20
0.0
 30
0.0
  3
*Paper_Space0
  1

  0
ENDBLK
  5
25
330
23
100
AcDbEntity
  8
0
100
AcDbBlockEnd
  0
BLOCK
  5
32
330
31
100
AcDbEntity
  8
0
100
AcDbBlockBegin
  2
注記
 70
     0
 71
     0
 10
0.0
 20
0.0
 30
0.0
  3
注記
  1

  0
MTEXT
  5
35
330
31
100
AcDbEntity
  8
0
  6
Continuous
 62
     7
370
     0
100
AcDbMText
 10
0.2636785918
 20
9.0739778448
 30
0.0
 40
3.5
 41
0.0
 71
     1
 72
     1
  1
１．特記ナキ角部ハ、バリ　カエリノ無キコト。
  7
SLDTEXTSTYLE0
 73
     1
 44
1.0
  0
MTEXT
  5
36
330
31
100
AcDbEntity
  8
0
  6
Continuous
 62
     7
370
     0
100
AcDbMText
 10
0.2636785918
 20
3.5759549983
 30
0.0
 40
3.5
 41
0.0
 71
     1
 72
     1
  1
２．特記ナキ隅部ハ、Ｒ０．４ＭＡＸトスル。
  7
SLDTEXTSTYLE0
 73
     1
 44
1.0
  0
ENDBLK
  5
33
330
31
100
AcDbEntity
  8
0
100
AcDbBlockEnd
  0
BLOCK
  5
38
330
37
100
AcDbEntity
  8
0
100
AcDbBlockBegin
  2
_OPEN30
 70
     0
 71
     0
 10
0.0
 20
0.0
 30
0.0
  3
_OPEN30
  1

  0
LINE
  5
3A
330
37
100
AcDbEntity
  8
SLD-0
  6
Continuous
100
AcDbLine
 10
-1.0
 20
0.267949
 30
0.0
 11
0.0
 21
0.0
 31
0.0
  0
LINE
  5
3B
330
37
100
AcDbEntity
  8
SLD-0
  6
Continuous
100
AcDbLine
 10
0.0
 20
0.0
 30
0.0
 11
-1.0
 21
-0.267949
 31
0.0
  0
LINE
  5
3C
330
37
100
AcDbEntity
  8
SLD-0
  6
Continuous
100
AcDbLine
 10
0.0
 20
0.0
 30
0.0
 11
-1.0
 21
0.0
 31
0.0
  0
ENDBLK
  5
39
330
37
100
AcDbEntity
  8
0
100
AcDbBlockEnd
  0
BLOCK
  5
3E
330
3D
100
AcDbEntity
  8
0
100
AcDbBlockBegin
  2
NOTE52
 70
     0
 71
     0
 10
0.0
 20
0.0
 30
0.0
  3
NOTE52
  1

  0
LINE
  5
40
330
3D
100
AcDbEntity
  8
SLD-0
  6
Continuous
 62
     7
100
AcDbLine
 10
-4.0765108462
 20
0.0
 30
0.0
 11
0.0
 21
0.0
 31
0.0
  0
LINE
  5
41
330
3D
100
AcDbEntity
  8
SLD-0
  6
Continuous
 62
     7
100
AcDbLine
 10
0.0
 20
0.0
 30
0.0
 11
-4.0765108462
 21
0.0
 31
0.0
  0
LINE
  5
42
330
3D
100
AcDbEntity
  8
SLD-0
  6
Continuous
 62
     7
100
AcDbLine
 10
-4.0765108462
 20
0.0
 30
0.0
 11
0.0
 21
0.0
 31
0.0
  0
LINE
  5
43
330
3D
100
AcDbEntity
  8
SLD-0
  6
Continuous
 62
     7
100
AcDbLine
 10
0.0
 20
0.0
 30
0.0
 11
-4.0765108462
 21
0.0
 31
0.0
  0
LINE
  5
44
330
3D
100
AcDbEntity
  8
SLD-0
  6
Continuous
 62
     7
100
AcDbLine
 10
-4.0765108462
 20
0.0
 30
0.0
 11
0.0
 21
0.0
 31
0.0
  0
LINE
  5
45
330
3D
100
AcDbEntity
  8
SLD-0
  6
Continuous
 62
     7
100
AcDbLine
 10
0.0
 20
0.0
 30
0.0
 11
-4.0765108462
 21
0.0
 31
0.0
  0
MTEXT
  5
47
330
3D
100
AcDbEntity
  8
SLD-0
100
AcDbMText
 10
-4.0735662361
 20
4.5279921686
 30
0.0
 40
3.5
 41
0.0
 71
     1
 72
     1
  1
M6
  7
SLDTEXTSTYLE1
 73
     1
 44
1.0
  0
ENDBLK
  5
3F
330
3D
100
AcDbEntity
  8
0
100
AcDbBlockEnd
  0
BLOCK
  5
49
330
48
100
AcDbEntity
  8
0
100
AcDbBlockBegin
  2
SW_CENTERMARK0
 70
     0
 71
     0
 10
0.0
 20
0.0
 30
0.0
  3
SW_CENTERMARK0
  1

  0
LINE
  5
4B
330
48
100
AcDbEntity
  8
SLD-0
  6
Continuous
 62
     7
100
AcDbLine
 10
83.9195867219
 20
163.5165277672
 30
0.0
 11
83.9195867219
 21
166.0165277672
 31
0.0
  0
LINE
  5
4C
330
48
100
AcDbEntity
  8
SLD-0
  6
Continuous
 62
     7
100
AcDbLine
 10
83.9195867219
 20
163.5165277672
 30
0.0
 11
81.4195867219
 21
163.5165277672
 31
0.0
  0
LINE
  5
4D
330
48
100
AcDbEntity
  8
SLD-0
  6
Continuous
 62
     7
100
AcDbLine
 10
83.9195867219
 20
163.5165277672
 30
0.0
 11
83.9195867219
 21
161.0165277672
 31
0.0
  0
LINE
  5
4E
330
48
100
AcDbEntity
  8
SLD-0
  6
Continuous
 62
     7
100
AcDbLine
 10
83.9195867219
 20
163.5165277672
 30
0.0
 11
86.4195867219
 21
163.5165277672
 31
0.0
  0
LINE
  5
4F
330
48
100
AcDbEntity
  8
SLD-0
  6
Continuous
 62
     7
100
AcDbLine
 10
83.9195867219
 20
168.5165277672
 30
0.0
 11
83.9195867219
 21
172.0165277672
 31
0.0
  0
LINE
  5
50
330
48
100
AcDbEntity
  8
SLD-0
  6
Continuous
 62
     7
100
AcDbLine
 10
78.9195867219
 20
163.5165277672
 30
0.0
 11
75.4195867219
 21
163.5165277672
 31
0.0
  0
LINE
  5
51
330
48
100
AcDbEntity
  8
SLD-0
  6
Continuous
 62
     7
100
AcDbLine
 10
83.9195867219
 20
158.5165277672
 30
0.0
 11
83.9195867219
 21
155.0165277672
 31
0.0
  0
LINE
  5
52
330
48
100
AcDbEntity
  8
SLD-0
  6
Continuous
 62
     7
100
AcDbLine
 10
88.9195867219
 20
163.5165277672
 30
0.0
 11
92.4195867219
 21
163.5165277672
 31
0.0
  0
ENDBLK
  5
4A
330
48
100
AcDbEntity
  8
0
100
AcDbBlockEnd
  0
BLOCK
  5
54
330
53
100
AcDbEntity
  8
0
100
AcDbBlockBegin
  2
SW_CENTERMARK1
 70
     0
 71
     0
 10
0.0
 20
0.0
 30
0.0
  3
SW_CENTERMARK1
  1

  0
LINE
  5
56
330
53
100
AcDbEntity
  8
SLD-0
  6
Continuous
 62
     7
100
AcDbLine
 10
83.9195867219
 20
148.5165277672
 30
0.0
 11
83.9195867219
 21
151.0165277672
 31
0.0
  0
LINE
  5
57
330
53
100
AcDbEntity
  8
SLD-0
  6
Continuous
 62
     7
100
AcDbLine
 10
83.9195867219
 20
148.5165277672
 30
0.0
 11
81.4195867219
 21
148.5165277672
 31
0.0
  0
LINE
  5
58
330
53
100
AcDbEntity
  8
SLD-0
  6
Continuous
 62
     7
100
AcDbLine
 10
83.9195867219
 20
148.5165277672
 30
0.0
 11
83.9195867219
 21
146.0165277672
 31
0.0
  0
LINE
  5
59
330
53
100
AcDbEntity
  8
SLD-0
  6
Continuous
 62
     7
100
AcDbLine
 10
83.9195867219
 20
148.5165277672
 30
0.0
 11
86.4195867219
 21
148.5165277672
 31
0.0
  0
LINE
  5
5A
330
53
100
AcDbEntity
  8
SLD-0
  6
Continuous
 62
     7
100
AcDbLine
 10
83.9195867219
 20
153.5165277672
 30
0.0
 11
83.9195867219
 21
156.5165277672
 31
0.0
  0
LINE
  5
5B
330
53
100
AcDbEntity
  8
SLD-0
  6
Continuous
 62
     7
100
AcDbLine
 10
78.9195867219
 20
148.5165277672
 30
0.0
 11
75.9195867219
 21
148.5165277672
 31
0.0
  0
LINE
  5
5C
330
53
100
AcDbEntity
  8
SLD-0
  6
Continuous
 62
     7
100
AcDbLine
 10
83.9195867219
 20
143.5165277672
 30
0.0
 11
83.9195867219
 21
140.5165277672
 31
0.0
  0
LINE
  5
5D
330
53
100
AcDbEntity
  8
SLD-0
  6
Continuous
 62
     7
100
AcDbLine
 10
88.9195867219
 20
148.5165277672
 30
0.0
 11
91.9195867219
 21
148.5165277672
 31
0.0
  0
ENDBLK
  5
55
330
53
100
AcDbEntity
  8
0
100
AcDbBlockEnd
  0
BLOCK
  5
5F
330
5E
100
AcDbEntity
  8
0
100
AcDbBlockBegin
  2
SW_CENTERMARK2
 70
     0
 71
     0
 10
0.0
 20
0.0
 30
0.0
  3
SW_CENTERMARK2
  1

  0
LINE
  5
61
330
5E
100
AcDbEntity
  8
SLD-0
  6
Continuous
 62
     7
100
AcDbLine
 10
154.5543928242
 20
174.5165277672
 30
0.0
 11
154.5543928242
 21
177.0165277672
 31
0.0
  0
LINE
  5
62
330
5E
100
AcDbEntity
  8
SLD-0
  6
Continuous
 62
     7
100
AcDbLine
 10
154.5543928242
 20
174.5165277672
 30
0.0
 11
152.0543928242
 21
174.5165277672
 31
0.0
  0
LINE
  5
63
330
5E
100
AcDbEntity
  8
SLD-0
  6
Continuous
 62
     7
100
AcDbLine
 10
154.5543928242
 20
174.5165277672
 30
0.0
 11
154.5543928242
 21
172.0165277672
 31
0.0
  0
LINE
  5
64
330
5E
100
AcDbEntity
  8
SLD-0
  6
Continuous
 62
     7
100
AcDbLine
 10
154.5543928242
 20
174.5165277672
 30
0.0
 11
157.0543928242
 21
174.5165277672
 31
0.0
  0
LINE
  5
65
330
5E
100
AcDbEntity
  8
SLD-0
  6
Continuous
 62
     7
100
AcDbLine
 10
154.5543928242
 20
179.5165277672
 30
0.0
 11
154.5543928242
 21
182.5165277672
 31
0.0
  0
LINE
  5
66
330
5E
100
AcDbEntity
  8
SLD-0
  6
Continuous
 62
     7
100
AcDbLine
 10
149.5543928242
 20
174.5165277672
 30
0.0
 11
146.5543928242
 21
174.5165277672
 31
0.0
  0
LINE
  5
67
330
5E
100
AcDbEntity
  8
SLD-0
  6
Continuous
 62
     7
100
AcDbLine
 10
154.5543928242
 20
169.5165277672
 30
0.0
 11
154.5543928242
 21
166.5165277672
 31
0.0
  0
LINE
  5
68
330
5E
100
AcDbEntity
  8
SLD-0
  6
Continuous
 62
     7
100
AcDbLine
 10
159.5543928242
 20
174.5165277672
 30
0.0
 11
162.5543928242
 21
174.5165277672
 31
0.0
  0
ENDBLK
  5
60
330
5E
100
AcDbEntity
  8
0
100
AcDbBlockEnd
  0
BLOCK
  5
BB
330
B0
100
AcDbEntity
  8
0
100
AcDbBlockBegin
  2
*D7
 70
     1
 71
     0
 10
0.0
 20
0.0
 30
0.0
  3
*D7
  1

  0
LINE
  5
C1
330
B0
100
AcDbEntity
  8
SLD-0
 62
     7
100
AcDbLine
 10
72.9195867219
 20
140.5165277672
 30
0.0
 11
42.3210797862
 21
140.5165277672
 31
0.0
  0
LINE
  5
C2
330
B0
100
AcDbEntity
  8
SLD-0
 62
     7
100
AcDbLine
 10
72.9195867219
 20
181.0165277672
 30
0.0
 11
42.3210797862
 21
181.0165277672
 31
0.0
  0
LINE
  5
C3
330
B0
100
AcDbEntity
  8
SLD-0
 62
     7
100
AcDbLine
 10
43.3210797862
 20
140.5165277672
 30
0.0
 11
43.3210797862
 21
181.0165277672
 31
0.0
  0
LINE
  5
C4
330
B0
100
AcDbEntity
  8
SLD-0
 62
     7
100
AcDbLine
 10
44.1249267862
 20
143.5165277672
 30
0.0
 11
43.3210797862
 21
140.5165277672
 31
0.0
  0
LINE
  5
C5
330
B0
100
AcDbEntity
  8
SLD-0
 62
     7
100
AcDbLine
 10
43.3210797862
 20
140.5165277672
 30
0.0
 11
42.5172327862
 21
143.5165277672
 31
0.0
  0
LINE
  5
C6
330
B0
100
AcDbEntity
  8
SLD-0
 62
     7
100
AcDbLine
 10
43.3210797862
 20
140.5165277672
 30
0.0
 11
43.3210797862
 21
143.5165277672
 31
0.0
  0
LINE
  5
C7
330
B0
100
AcDbEntity
  8
SLD-0
 62
     7
100
AcDbLine
 10
42.5172327862
 20
178.0165277672
 30
0.0
 11
43.3210797862
 21
181.0165277672
 31
0.0
  0
LINE
  5
C8
330
B0
100
AcDbEntity
  8
SLD-0
 62
     7
100
AcDbLine
 10
43.3210797862
 20
181.0165277672
 30
0.0
 11
44.1249267862
 21
178.0165277672
 31
0.0
  0
LINE
  5
C9
330
B0
100
AcDbEntity
  8
SLD-0
 62
     7
100
AcDbLine
 10
43.3210797862
 20
181.0165277672
 30
0.0
 11
43.3210797862
 21
178.0165277672
 31
0.0
  0
MTEXT
  5
CB
330
B0
100
AcDbEntity
  8
SLD-0
 62
     7
100
AcDbMText
 10
38.7943859738
 20
156.693627648
 30
0.1
 40
3.5
 41
0.0
 71
     1
 72
     1
  1
40.5
  7
SLDTEXTSTYLE2
 11
6.123031769111886E-17
 21
1.0
 31
0.0
 73
     1
 44
1.0
  0
ENDBLK
  5
BC
330
B0
100
AcDbEntity
  8
0
100
AcDbBlockEnd
  0
BLOCK
  5
BF
330
BE
100
AcDbEntity
  8
0
100
AcDbBlockBegin
  2
_None
 70
     0
 71
     0
 10
0.0
 20
0.0
 30
0.0
  3
_None
  1

  0
ENDBLK
  5
C0
330
BE
100
AcDbEntity
  8
0
100
AcDbBlockEnd
  0
BLOCK
  5
D7
330
CD
100
AcDbEntity
  8
0
100
AcDbBlockBegin
  2
*D9
 70
     1
 71
     0
 10
0.0
 20
0.0
 30
0.0
  3
*D9
  1

  0
INSERT
  5
DA
330
CD
100
AcDbEntity
  8
SLD-0
 62
     7
100
AcDbBlockReference
  2
_OPEN30
 10
80.9721060432
 20
168.742650388
 30
0.1
 41
3.0
 42
3.0
 50
299.4225617788
  0
LINE
  5
DB
330
CD
100
AcDbEntity
  8
SLD-0
 62
     7
100
AcDbLine
 10
80.9721060432
 20
168.742650388
 30
0.0
 11
65.3037076081
 21
196.5239933109
 31
0.0
  0
LINE
  5
DC
330
CD
100
AcDbEntity
  8
SLD-0
 62
     7
100
AcDbLine
 10
86.8670674007
 20
158.2904051463
 30
0.0
 11
80.9721060432
 21
168.742650388
 31
0.0
  0
LINE
  5
DD
330
CD
100
AcDbEntity
  8
SLD-0
 62
     7
100
AcDbLine
 10
65.3037076081
 20
196.5239933109
 30
0.0
 11
43.2024712355
 21
196.5239933109
 31
0.0
  0
MTEXT
  5
DE
330
CD
100
AcDbEntity
  8
SLD-0
 62
     7
100
AcDbMText
 10
44.7899712355
 20
201.2980940303
 30
0.0
 40
3.5
 41
0.0
 71
     1
 72
     1
  1
%%c
  7
SLDTEXTSTYLE2
 73
     1
 44
1.0
  0
MTEXT
  5
DF
330
CD
100
AcDbEntity
  8
SLD-0
 62
     7
100
AcDbMText
 10
49.4256437826
 20
201.2980940303
 30
0.0
 40
3.5
 41
0.0
 71
     1
 72
     1
  1
12
  7
SLDTEXTSTYLE2
 73
     1
 44
1.0
  0
MTEXT
  5
E0
330
CD
100
AcDbEntity
  8
SLD-0
 62
     7
100
AcDbMText
 10
53.9742473504
 20
201.2980940303
 30
0.0
 40
3.5
 41
0.0
 71
     1
 72
     1
  1
　　
  7
SLDTEXTSTYLE2
 73
     1
 44
1.0
  0
ENDBLK
  5
D8
330
CD
100
AcDbEntity
  8
0
100
AcDbBlockEnd
  0
BLOCK
  5
EC
330
E2
100
AcDbEntity
  8
0
100
AcDbBlockBegin
  2
*D10
 70
     1
 71
     0
 10
0.0
 20
0.0
 30
0.0
  3
*D10
  1

  0
LINE
  5
EF
330
E2
100
AcDbEntity
  8
SLD-0
 62
     7
100
AcDbLine
 10
93.9195867219
 20
182.0165277672
 30
0.0
 11
93.9195867219
 21
207.9732432497
 31
0.0
  0
LINE
  5
F0
330
E2
100
AcDbEntity
  8
SLD-0
 62
     7
100
AcDbLine
 10
73.9195867219
 20
182.0165277672
 30
0.0
 11
73.9195867219
 21
207.9732432497
 31
0.0
  0
LINE
  5
F1
330
E2
100
AcDbEntity
  8
SLD-0
 62
     7
100
AcDbLine
 10
93.9195867219
 20
206.9732432497
 30
0.0
 11
73.9195867219
 21
206.9732432497
 31
0.0
  0
LINE
  5
F2
330
E2
100
AcDbEntity
  8
SLD-0
 62
     7
100
AcDbLine
 10
90.9195867219
 20
207.7770902497
 30
0.0
 11
93.9195867219
 21
206.9732432497
 31
0.0
  0
LINE
  5
F3
330
E2
100
AcDbEntity
  8
SLD-0
 62
     7
100
AcDbLine
 10
93.9195867219
 20
206.9732432497
 30
0.0
 11
90.9195867219
 21
206.1693962497
 31
0.0
  0
LINE
  5
F4
330
E2
100
AcDbEntity
  8
SLD-0
 62
     7
100
AcDbLine
 10
93.9195867219
 20
206.9732432497
 30
0.0
 11
90.9195867219
 21
206.9732432497
 31
0.0
  0
LINE
  5
F5
330
E2
100
AcDbEntity
  8
SLD-0
 62
     7
100
AcDbLine
 10
76.9195867219
 20
206.1693962497
 30
0.0
 11
73.9195867219
 21
206.9732432497
 31
0.0
  0
LINE
  5
F6
330
E2
100
AcDbEntity
  8
SLD-0
 62
     7
100
AcDbLine
 10
73.9195867219
 20
206.9732432497
 30
0.0
 11
76.9195867219
 21
207.7770902497
 31
0.0
  0
LINE
  5
F7
330
E2
100
AcDbEntity
  8
SLD-0
 62
     7
100
AcDbLine
 10
73.9195867219
 20
206.9732432497
 30
0.0
 11
76.9195867219
 21
206.9732432497
 31
0.0
  0
MTEXT
  5
F8
330
E2
100
AcDbEntity
  8
SLD-0
 62
     7
100
AcDbMText
 10
81.8831366623
 20
211.4999370621
 30
0.1
 40
3.5
 41
0.0
 71
     1
 72
     1
  1
20
  7
SLDTEXTSTYLE2
 73
     1
 44
1.0
  0
ENDBLK
  5
ED
330
E2
100
AcDbEntity
  8
0
100
AcDbBlockEnd
  0
BLOCK
  5
104
330
FA
100
AcDbEntity
  8
0
100
AcDbBlockBegin
  2
*D11
 70
     1
 71
     0
 10
0.0
 20
0.0
 30
0.0
  3
*D11
  1

  0
LINE
  5
107
330
FA
100
AcDbEntity
  8
SLD-0
 62
     7
100
AcDbLine
 10
83.9195867219
 20
173.0165277672
 30
0.0
 11
83.9195867219
 21
201.9901008554
 31
0.0
  0
LINE
  5
108
330
FA
100
AcDbEntity
  8
SLD-0
 62
     7
100
AcDbLine
 10
93.9195867219
 20
182.0165277672
 30
0.0
 11
93.9195867219
 21
201.9901008554
 31
0.0
  0
LINE
  5
109
330
FA
100
AcDbEntity
  8
SLD-0
 62
     7
100
AcDbLine
 10
83.9195867219
 20
200.9901008554
 30
0.0
 11
93.9195867219
 21
200.9901008554
 31
0.0
  0
LINE
  5
10A
330
FA
100
AcDbEntity
  8
SLD-0
 62
     7
100
AcDbLine
 10
86.9195867219
 20
200.1862538554
 30
0.0
 11
83.9195867219
 21
200.9901008554
 31
0.0
  0
LINE
  5
10B
330
FA
100
AcDbEntity
  8
SLD-0
 62
     7
100
AcDbLine
 10
83.9195867219
 20
200.9901008554
 30
0.0
 11
86.9195867219
 21
201.7939478554
 31
0.0
  0
LINE
  5
10C
330
FA
100
AcDbEntity
  8
SLD-0
 62
     7
100
AcDbLine
 10
83.9195867219
 20
200.9901008554
 30
0.0
 11
86.9195867219
 21
200.9901008554
 31
0.0
  0
LINE
  5
10D
330
FA
100
AcDbEntity
  8
SLD-0
 62
     7
100
AcDbLine
 10
90.9195867219
 20
201.7939478554
 30
0.0
 11
93.9195867219
 21
200.9901008554
 31
0.0
  0
LINE
  5
10E
330
FA
100
AcDbEntity
  8
SLD-0
 62
     7
100
AcDbLine
 10
93.9195867219
 20
200.9901008554
 30
0.0
 11
90.9195867219
 21
200.1862538554
 31
0.0
  0
LINE
  5
10F
330
FA
100
AcDbEntity
  8
SLD-0
 62
     7
100
AcDbLine
 10
93.9195867219
 20
200.9901008554
 30
0.0
 11
90.9195867219
 21
200.9901008554
 31
0.0
  0
MTEXT
  5
110
330
FA
100
AcDbEntity
  8
SLD-0
 62
     7
100
AcDbMText
 10
86.8831366623
 20
205.5167946677
 30
0.1
 40
3.5
 41
0.0
 71
     1
 72
     1
  1
10
  7
SLDTEXTSTYLE2
 73
     1
 44
1.0
  0
ENDBLK
  5
105
330
FA
100
AcDbEntity
  8
0
100
AcDbBlockEnd
  0
BLOCK
  5
11F
330
112
100
AcDbEntity
  8
0
100
AcDbBlockBegin
  2
*D12
 70
     1
 71
     0
 10
0.0
 20
0.0
 30
0.0
  3
*D12
  1

  0
LINE
  5
121
330
112
100
AcDbEntity
  8
SLD-0
 62
     7
100
AcDbLine
 10
83.4195867219
 20
182.0165277672
 30
0.0
 11
83.4195867219
 21
194.3454943021
 31
0.0
  0
LINE
  5
122
330
112
100
AcDbEntity
  8
SLD-0
 62
     7
100
AcDbLine
 10
84.4195867219
 20
182.0165277672
 30
0.0
 11
84.4195867219
 21
194.3454943021
 31
0.0
  0
LINE
  5
123
330
112
100
AcDbEntity
  8
SLD-0
 62
     7
100
AcDbLine
 10
83.4195867219
 20
193.3454943021
 30
0.0
 11
75.5586774575
 21
193.3454943021
 31
0.0
  0
LINE
  5
124
330
112
100
AcDbEntity
  8
SLD-0
 62
     7
100
AcDbLine
 10
83.4195867219
 20
193.3454943021
 30
0.0
 11
84.4195867219
 21
193.3454943021
 31
0.0
  0
LINE
  5
125
330
112
100
AcDbEntity
  8
SLD-0
 62
     7
100
AcDbLine
 10
84.4195867219
 20
193.3454943021
 30
0.0
 11
89.4195867219
 21
193.3454943021
 31
0.0
  0
LINE
  5
126
330
112
100
AcDbEntity
  8
SLD-0
 62
     7
100
AcDbLine
 10
80.4195867219
 20
194.1493413021
 30
0.0
 11
83.4195867219
 21
193.3454943021
 31
0.0
  0
LINE
  5
127
330
112
100
AcDbEntity
  8
SLD-0
 62
     7
100
AcDbLine
 10
83.4195867219
 20
193.3454943021
 30
0.0
 11
80.4195867219
 21
192.5416473021
 31
0.0
  0
LINE
  5
128
330
112
100
AcDbEntity
  8
SLD-0
 62
     7
100
AcDbLine
 10
83.4195867219
 20
193.3454943021
 30
0.0
 11
80.4195867219
 21
193.3454943021
 31
0.0
  0
LINE
  5
129
330
112
100
AcDbEntity
  8
SLD-0
 62
     7
100
AcDbLine
 10
87.4195867219
 20
192.5416473021
 30
0.0
 11
84.4195867219
 21
193.3454943021
 31
0.0
  0
LINE
  5
12A
330
112
100
AcDbEntity
  8
SLD-0
 62
     7
100
AcDbLine
 10
84.4195867219
 20
193.3454943021
 30
0.0
 11
87.4195867219
 21
194.1493413021
 31
0.0
  0
LINE
  5
12B
330
112
100
AcDbEntity
  8
SLD-0
 62
     7
100
AcDbLine
 10
84.4195867219
 20
193.3454943021
 30
0.0
 11
87.4195867219
 21
193.3454943021
 31
0.0
  0
MTEXT
  5
12C
330
112
100
AcDbEntity
  8
SLD-0
 62
     7
100
AcDbMText
 10
77.1461774575
 20
197.8721881145
 30
0.1
 40
3.5
 41
0.0
 71
     1
 72
     1
  1
1
  7
SLDTEXTSTYLE2
 73
     1
 44
1.0
  0
ENDBLK
  5
120
330
112
100
AcDbEntity
  8
0
100
AcDbBlockEnd
  0
BLOCK
  5
139
330
12E
100
AcDbEntity
  8
0
100
AcDbBlockBegin
  2
*D13
 70
     1
 71
     0
 10
0.0
 20
0.0
 30
0.0
  3
*D13
  1

  0
LINE
  5
13B
330
12E
100
AcDbEntity
  8
SLD-0
 62
     7
100
AcDbLine
 10
82.4195867219
 20
156.0165277672
 30
0.0
 11
50.4326644839
 21
156.0165277672
 31
0.0
  0
LINE
  5
13C
330
12E
100
AcDbEntity
  8
SLD-0
 62
     7
100
AcDbLine
 10
72.9195867219
 20
181.0165277672
 30
0.0
 11
50.4326644839
 21
181.0165277672
 31
0.0
  0
LINE
  5
13D
330
12E
100
AcDbEntity
  8
SLD-0
 62
     7
100
AcDbLine
 10
51.4326644839
 20
156.0165277672
 30
0.0
 11
51.4326644839
 21
181.0165277672
 31
0.0
  0
LINE
  5
13E
330
12E
100
AcDbEntity
  8
SLD-0
 62
     7
100
AcDbLine
 10
52.2365114839
 20
159.0165277672
 30
0.0
 11
51.4326644839
 21
156.0165277672
 31
0.0
  0
LINE
  5
13F
330
12E
100
AcDbEntity
  8
SLD-0
 62
     7
100
AcDbLine
 10
51.4326644839
 20
156.0165277672
 30
0.0
 11
50.6288174839
 21
159.0165277672
 31
0.0
  0
LINE
  5
140
330
12E
100
AcDbEntity
  8
SLD-0
 62
     7
100
AcDbLine
 10
51.4326644839
 20
156.0165277672
 30
0.0
 11
51.4326644839
 21
159.0165277672
 31
0.0
  0
LINE
  5
141
330
12E
100
AcDbEntity
  8
SLD-0
 62
     7
100
AcDbLine
 10
50.6288174839
 20
178.0165277672
 30
0.0
 11
51.4326644839
 21
181.0165277672
 31
0.0
  0
LINE
  5
142
330
12E
100
AcDbEntity
  8
SLD-0
 62
     7
100
AcDbLine
 10
51.4326644839
 20
181.0165277672
 30
0.0
 11
52.2365114839
 21
178.0165277672
 31
0.0
  0
LINE
  5
143
330
12E
100
AcDbEntity
  8
SLD-0
 62
     7
100
AcDbLine
 10
51.4326644839
 20
181.0165277672
 30
0.0
 11
51.4326644839
 21
178.0165277672
 31
0.0
  0
MTEXT
  5
144
330
12E
100
AcDbEntity
  8
SLD-0
 62
     7
100
AcDbMText
 10
46.9059706715
 20
166.4800777076
 30
0.1
 40
3.5
 41
0.0
 71
     1
 72
     1
  1
25
  7
SLDTEXTSTYLE2
 11
6.123031769111886E-17
 21
1.0
 31
0.0
 73
     1
 44
1.0
  0
ENDBLK
  5
13A
330
12E
100
AcDbEntity
  8
0
100
AcDbBlockEnd
  0
BLOCK
  5
14D
330
146
100
AcDbEntity
  8
0
100
AcDbBlockBegin
  2
*D14
 70
     1
 71
     0
 10
0.0
 20
0.0
 30
0.0
  3
*D14
  1

  0
LINE
  5
150
330
146
100
AcDbEntity
  8
SLD-0
 62
     7
100
AcDbLine
 10
84.8887296314
 20
145.414389469
 30
0.0
 11
91.2124669023
 21
125.1726816843
 31
0.0
  0
LINE
  5
151
330
146
100
AcDbEntity
  8
SLD-0
 62
     7
100
AcDbLine
 10
91.2124669023
 20
125.1726816843
 30
0.0
 11
136.299566664
 21
125.1726816843
 31
0.0
  0
LINE
  5
152
330
146
100
AcDbEntity
  8
SLD-0
 62
     7
100
AcDbLine
 10
85.0160478357
 20
142.3111717721
 30
0.0
 11
84.8887296314
 21
145.414389469
 31
0.0
  0
LINE
  5
153
330
146
100
AcDbEntity
  8
SLD-0
 62
     7
100
AcDbLine
 10
84.8887296314
 20
145.414389469
 30
0.0
 11
86.550598337
 21
142.7905826154
 31
0.0
  0
LINE
  5
154
330
146
100
AcDbEntity
  8
SLD-0
 62
     7
100
AcDbLine
 10
84.8887296314
 20
145.414389469
 30
0.0
 11
85.7833230863
 21
142.5508771938
 31
0.0
  0
MTEXT
  5
155
330
146
100
AcDbEntity
  8
SLD-0
 62
     7
100
AcDbMText
 10
92.6374669023
 20
129.6993754967
 30
0.1
 40
3.5
 41
0.0
 71
     1
 72
     1
  1
%%c
  7
SLDTEXTSTYLE2
 73
     1
 44
1.0
  0
MTEXT
  5
156
330
146
100
AcDbEntity
  8
SLD-0
 62
     7
100
AcDbMText
 10
98.2545555793
 20
129.6993754967
 30
0.1
 40
3.5
 41
0.0
 71
     1
 72
     1
  1
6.5
  7
SLDTEXTSTYLE2
 73
     1
 44
1.0
  0
MTEXT
  5
157
330
146
100
AcDbEntity
  8
SLD-0
 62
     7
100
AcDbMText
 10
104.3639057581
 20
129.6993754967
 30
0.1
 40
3.5
 41
0.0
 71
     1
 72
     1
  1
,
  7
SLDTEXTSTYLE2
 73
     1
 44
1.0
  0
MTEXT
  5
158
330
146
100
AcDbEntity
  8
SLD-0
 62
     7
100
AcDbMText
 10
104.6507112556
 20
129.6993754967
 30
0.1
 40
3.5
 41
0.0
 71
     1
 72
     1
  1
%%c
  7
SLDTEXTSTYLE2
 73
     1
 44
1.0
  0
MTEXT
  5
159
330
146
100
AcDbEntity
  8
SLD-0
 62
     7
100
AcDbMText
 10
110.2706417707
 20
129.6993754967
 30
0.1
 40
3.5
 41
0.0
 71
     1
 72
     1
  1
11ｻﾞｸﾞﾘ深6.5
  7
SLDTEXTSTYLE2
 73
     1
 44
1.0
  0
ENDBLK
  5
14E
330
146
100
AcDbEntity
  8
0
100
AcDbBlockEnd
  0
BLOCK
  5
166
330
15B
100
AcDbEntity
  8
0
100
AcDbBlockBegin
  2
*D15
 70
     1
 71
     0
 10
0.0
 20
0.0
 30
0.0
  3
*D15
  1

  0
LINE
  5
168
330
15B
100
AcDbEntity
  8
SLD-0
 62
     7
100
AcDbLine
 10
73.9195867219
 20
181.0165277672
 30
0.0
 11
60.1215017617
 21
181.0165277672
 31
0.0
  0
LINE
  5
169
330
15B
100
AcDbEntity
  8
SLD-0
 62
     7
100
AcDbLine
 10
74.4195867219
 20
163.5165277672
 30
0.0
 11
60.1215017617
 21
163.5165277672
 31
0.0
  0
LINE
  5
16A
330
15B
100
AcDbEntity
  8
SLD-0
 62
     7
100
AcDbLine
 10
61.1215017617
 20
181.0165277672
 30
0.0
 11
61.1215017617
 21
163.5165277672
 31
0.0
  0
LINE
  5
16B
330
15B
100
AcDbEntity
  8
SLD-0
 62
     7
100
AcDbLine
 10
60.3176547617
 20
178.0165277672
 30
0.0
 11
61.1215017617
 21
181.0165277672
 31
0.0
  0
LINE
  5
16C
330
15B
100
AcDbEntity
  8
SLD-0
 62
     7
100
AcDbLine
 10
61.1215017617
 20
181.0165277672
 30
0.0
 11
61.9253487617
 21
178.0165277672
 31
0.0
  0
LINE
  5
16D
330
15B
100
AcDbEntity
  8
SLD-0
 62
     7
100
AcDbLine
 10
61.1215017617
 20
181.0165277672
 30
0.0
 11
61.1215017617
 21
178.0165277672
 31
0.0
  0
LINE
  5
16E
330
15B
100
AcDbEntity
  8
SLD-0
 62
     7
100
AcDbLine
 10
61.9253487617
 20
166.5165277672
 30
0.0
 11
61.1215017617
 21
163.5165277672
 31
0.0
  0
LINE
  5
16F
330
15B
100
AcDbEntity
  8
SLD-0
 62
     7
100
AcDbLine
 10
61.1215017617
 20
163.5165277672
 30
0.0
 11
60.3176547617
 21
166.5165277672
 31
0.0
  0
LINE
  5
170
330
15B
100
AcDbEntity
  8
SLD-0
 62
     7
100
AcDbLine
 10
61.1215017617
 20
163.5165277672
 30
0.0
 11
61.1215017617
 21
166.5165277672
 31
0.0
  0
MTEXT
  5
171
330
15B
100
AcDbEntity
  8
SLD-0
 62
     7
100
AcDbMText
 10
56.5948079494
 20
168.193627648
 30
0.1
 40
3.5
 41
0.0
 71
     1
 72
     1
  1
17.5
  7
SLDTEXTSTYLE2
 11
6.123031769111886E-17
 21
1.0
 31
0.0
 73
     1
 44
1.0
  0
ENDBLK
  5
167
330
15B
100
AcDbEntity
  8
0
100
AcDbBlockEnd
  0
BLOCK
  5
17E
330
173
100
AcDbEntity
  8
0
100
AcDbBlockBegin
  2
*D16
 70
     1
 71
     0
 10
0.0
 20
0.0
 30
0.0
  3
*D16
  1

  0
LINE
  5
180
330
173
100
AcDbEntity
  8
SLD-0
 62
     7
100
AcDbLine
 10
93.9195867219
 20
181.0165277672
 30
0.0
 11
104.5135044019
 21
181.0165277672
 31
0.0
  0
LINE
  5
181
330
173
100
AcDbEntity
  8
SLD-0
 62
     7
100
AcDbLine
 10
92.9195867219
 20
148.5165277672
 30
0.0
 11
104.5135044019
 21
148.5165277672
 31
0.0
  0
LINE
  5
182
330
173
100
AcDbEntity
  8
SLD-0
 62
     7
100
AcDbLine
 10
103.5135044019
 20
181.0165277672
 30
0.0
 11
103.5135044019
 21
148.5165277672
 31
0.0
  0
LINE
  5
183
330
173
100
AcDbEntity
  8
SLD-0
 62
     7
100
AcDbLine
 10
102.7096574019
 20
178.0165277672
 30
0.0
 11
103.5135044019
 21
181.0165277672
 31
0.0
  0
LINE
  5
184
330
173
100
AcDbEntity
  8
SLD-0
 62
     7
100
AcDbLine
 10
103.5135044019
 20
181.0165277672
 30
0.0
 11
104.3173514019
 21
178.0165277672
 31
0.0
  0
LINE
  5
185
330
173
100
AcDbEntity
  8
SLD-0
 62
     7
100
AcDbLine
 10
103.5135044019
 20
181.0165277672
 30
0.0
 11
103.5135044019
 21
178.0165277672
 31
0.0
  0
LINE
  5
186
330
173
100
AcDbEntity
  8
SLD-0
 62
     7
100
AcDbLine
 10
104.3173514019
 20
151.5165277672
 30
0.0
 11
103.5135044019
 21
148.5165277672
 31
0.0
  0
LINE
  5
187
330
173
100
AcDbEntity
  8
SLD-0
 62
     7
100
AcDbLine
 10
103.5135044019
 20
148.5165277672
 30
0.0
 11
102.7096574019
 21
151.5165277672
 31
0.0
  0
LINE
  5
188
330
173
100
AcDbEntity
  8
SLD-0
 62
     7
100
AcDbLine
 10
103.5135044019
 20
148.5165277672
 30
0.0
 11
103.5135044019
 21
151.5165277672
 31
0.0
  0
MTEXT
  5
189
330
173
100
AcDbEntity
  8
SLD-0
 62
     7
100
AcDbMText
 10
98.9868105896
 20
160.693627648
 30
0.1
 40
3.5
 41
0.0
 71
     1
 72
     1
  1
32.5
  7
SLDTEXTSTYLE2
 11
6.123031769111886E-17
 21
1.0
 31
0.0
 73
     1
 44
1.0
  0
ENDBLK
  5
17F
330
173
100
AcDbEntity
  8
0
100
AcDbBlockEnd
  0
BLOCK
  5
195
330
18B
100
AcDbEntity
  8
0
100
AcDbBlockBegin
  2
*D17
 70
     1
 71
     0
 10
0.0
 20
0.0
 30
0.0
  3
*D17
  1

  0
LINE
  5
197
330
18B
100
AcDbEntity
  8
SLD-0
 62
     7
100
AcDbLine
 10
142.0543928242
 20
141.5165277672
 30
0.0
 11
142.0543928242
 21
200.3229305089
 31
0.0
  0
LINE
  5
198
330
18B
100
AcDbEntity
  8
SLD-0
 62
     7
100
AcDbLine
 10
167.0543928242
 20
141.5165277672
 30
0.0
 11
167.0543928242
 21
200.3229305089
 31
0.0
  0
LINE
  5
199
330
18B
100
AcDbEntity
  8
SLD-0
 62
     7
100
AcDbLine
 10
142.0543928242
 20
199.3229305089
 30
0.0
 11
167.0543928242
 21
199.3229305089
 31
0.0
  0
LINE
  5
19A
330
18B
100
AcDbEntity
  8
SLD-0
 62
     7
100
AcDbLine
 10
145.0543928242
 20
198.5190835089
 30
0.0
 11
142.0543928242
 21
199.3229305089
 31
0.0
  0
LINE
  5
19B
330
18B
100
AcDbEntity
  8
SLD-0
 62
     7
100
AcDbLine
 10
142.0543928242
 20
199.3229305089
 30
0.0
 11
145.0543928242
 21
200.1267775089
 31
0.0
  0
LINE
  5
19C
330
18B
100
AcDbEntity
  8
SLD-0
 62
     7
100
AcDbLine
 10
142.0543928242
 20
199.3229305089
 30
0.0
 11
145.0543928242
 21
199.3229305089
 31
0.0
  0
LINE
  5
19D
330
18B
100
AcDbEntity
  8
SLD-0
 62
     7
100
AcDbLine
 10
164.0543928242
 20
200.1267775089
 30
0.0
 11
167.0543928242
 21
199.3229305089
 31
0.0
  0
LINE
  5
19E
330
18B
100
AcDbEntity
  8
SLD-0
 62
     7
100
AcDbLine
 10
167.0543928242
 20
199.3229305089
 30
0.0
 11
164.0543928242
 21
198.5190835089
 31
0.0
  0
LINE
  5
19F
330
18B
100
AcDbEntity
  8
SLD-0
 62
     7
100
AcDbLine
 10
167.0543928242
 20
199.3229305089
 30
0.0
 11
164.0543928242
 21
199.3229305089
 31
0.0
  0
MTEXT
  5
1A0
330
18B
100
AcDbEntity
  8
SLD-0
 62
     7
100
AcDbMText
 10
152.5179427646
 20
203.8496243212
 30
0.1
 40
3.5
 41
0.0
 71
     1
 72
     1
  1
25
  7
SLDTEXTSTYLE2
 73
     1
 44
1.0
  0
ENDBLK
  5
196
330
18B
100
AcDbEntity
  8
0
100
AcDbBlockEnd
  0
BLOCK
  5
1AE
330
1A2
100
AcDbEntity
  8
0
100
AcDbBlockBegin
  2
*D18
 70
     1
 71
     0
 10
0.0
 20
0.0
 30
0.0
  3
*D18
  1

  0
LINE
  5
1B0
330
1A2
100
AcDbEntity
  8
SLD-0
 62
     7
100
AcDbLine
 10
167.0543928242
 20
181.0165277672
 30
0.0
 11
181.1485468756
 21
181.0165277672
 31
0.0
  0
LINE
  5
1B1
330
1A2
100
AcDbEntity
  8
SLD-0
 62
     7
100
AcDbLine
 10
163.5543928242
 20
174.5165277672
 30
0.0
 11
181.1485468756
 21
174.5165277672
 31
0.0
  0
LINE
  5
1B2
330
1A2
100
AcDbEntity
  8
SLD-0
 62
     7
100
AcDbLine
 10
180.1485468756
 20
181.0165277672
 30
0.0
 11
180.1485468756
 21
193.2056844734
 31
0.0
  0
LINE
  5
1B3
330
1A2
100
AcDbEntity
  8
SLD-0
 62
     7
100
AcDbLine
 10
180.1485468756
 20
181.0165277672
 30
0.0
 11
180.1485468756
 21
174.5165277672
 31
0.0
  0
LINE
  5
1B4
330
1A2
100
AcDbEntity
  8
SLD-0
 62
     7
100
AcDbLine
 10
180.1485468756
 20
174.5165277672
 30
0.0
 11
180.1485468756
 21
169.5165277672
 31
0.0
  0
LINE
  5
1B5
330
1A2
100
AcDbEntity
  8
SLD-0
 62
     7
100
AcDbLine
 10
180.9523938756
 20
184.0165277672
 30
0.0
 11
180.1485468756
 21
181.0165277672
 31
0.0
  0
LINE
  5
1B6
330
1A2
100
AcDbEntity
  8
SLD-0
 62
     7
100
AcDbLine
 10
180.1485468756
 20
181.0165277672
 30
0.0
 11
179.3446998756
 21
184.0165277672
 31
0.0
  0
LINE
  5
1B7
330
1A2
100
AcDbEntity
  8
SLD-0
 62
     7
100
AcDbLine
 10
180.1485468756
 20
181.0165277672
 30
0.0
 11
180.1485468756
 21
184.0165277672
 31
0.0
  0
LINE
  5
1B8
330
1A2
100
AcDbEntity
  8
SLD-0
 62
     7
100
AcDbLine
 10
179.3446998756
 20
171.5165277672
 30
0.0
 11
180.1485468756
 21
174.5165277672
 31
0.0
  0
LINE
  5
1B9
330
1A2
100
AcDbEntity
  8
SLD-0
 62
     7
100
AcDbLine
 10
180.1485468756
 20
174.5165277672
 30
0.0
 11
180.9523938756
 21
171.5165277672
 31
0.0
  0
LINE
  5
1BA
330
1A2
100
AcDbEntity
  8
SLD-0
 62
     7
100
AcDbLine
 10
180.1485468756
 20
174.5165277672
 30
0.0
 11
180.1485468756
 21
171.5165277672
 31
0.0
  0
MTEXT
  5
1BB
330
1A2
100
AcDbEntity
  8
SLD-0
 62
     7
100
AcDbMText
 10
175.6218530633
 20
185.5088342946
 30
0.1
 40
3.5
 41
0.0
 71
     1
 72
     1
  1
6.5
  7
SLDTEXTSTYLE2
 11
6.123031769111886E-17
 21
1.0
 31
0.0
 73
     1
 44
1.0
  0
ENDBLK
  5
1AF
330
1A2
100
AcDbEntity
  8
0
100
AcDbBlockEnd
  0
BLOCK
  5
1C4
330
1BD
100
AcDbEntity
  8
0
100
AcDbBlockBegin
  2
*D19
 70
     1
 71
     0
 10
0.0
 20
0.0
 30
0.0
  3
*D19
  1

  0
LINE
  5
1C6
330
1BD
100
AcDbEntity
  8
SLD-0
 62
     7
100
AcDbLine
 10
153.8371398215
 20
177.6863934
 30
0.0
 11
146.7111318909
 21
209.179447528
 31
0.0
  0
LINE
  5
1C7
330
1BD
100
AcDbEntity
  8
SLD-0
 62
     7
100
AcDbLine
 10
146.7111318909
 20
209.179447528
 30
0.0
 11
101.6240321293
 21
209.179447528
 31
0.0
  0
LINE
  5
1C8
330
1BD
100
AcDbEntity
  8
SLD-0
 62
     7
100
AcDbLine
 10
153.9590868896
 20
180.7898268071
 30
0.0
 11
153.8371398215
 21
177.6863934
 31
0.0
  0
LINE
  5
1C9
330
1BD
100
AcDbEntity
  8
SLD-0
 62
     7
100
AcDbLine
 10
153.8371398215
 20
177.6863934
 30
0.0
 11
152.3910333638
 21
180.4350196228
 31
0.0
  0
LINE
  5
1CA
330
1BD
100
AcDbEntity
  8
SLD-0
 62
     7
100
AcDbLine
 10
153.8371398215
 20
177.6863934
 30
0.0
 11
153.1750601267
 21
180.6124232149
 31
0.0
  0
MTEXT
  5
1CB
330
1BD
100
AcDbEntity
  8
SLD-0
 62
     7
100
AcDbMText
 10
101.4615321293
 20
213.7061413403
 30
0.1
 40
3.5
 41
0.0
 71
     1
 72
     1
  1
%%c
  7
SLDTEXTSTYLE2
 73
     1
 44
1.0
  0
MTEXT
  5
1CC
330
1BD
100
AcDbEntity
  8
SLD-0
 62
     7
100
AcDbMText
 10
107.0786208063
 20
213.7061413403
 30
0.1
 40
3.5
 41
0.0
 71
     1
 72
     1
  1
6.5
  7
SLDTEXTSTYLE2
 73
     1
 44
1.0
  0
MTEXT
  5
1CD
330
1BD
100
AcDbEntity
  8
SLD-0
 62
     7
100
AcDbMText
 10
113.1879709851
 20
213.7061413403
 30
0.1
 40
3.5
 41
0.0
 71
     1
 72
     1
  1
,
  7
SLDTEXTSTYLE2
 73
     1
 44
1.0
  0
MTEXT
  5
1CE
330
1BD
100
AcDbEntity
  8
SLD-0
 62
     7
100
AcDbMText
 10
113.4747764826
 20
213.7061413403
 30
0.1
 40
3.5
 41
0.0
 71
     1
 72
     1
  1
%%c
  7
SLDTEXTSTYLE2
 73
     1
 44
1.0
  0
MTEXT
  5
1CF
330
1BD
100
AcDbEntity
  8
SLD-0
 62
     7
100
AcDbMText
 10
119.0947069976
 20
213.7061413403
 30
0.1
 40
3.5
 41
0.0
 71
     1
 72
     1
  1
11ｻﾞｸﾞﾘ深6.5
  7
SLDTEXTSTYLE2
 73
     1
 44
1.0
  0
ENDBLK
  5
1C5
330
1BD
100
AcDbEntity
  8
0
100
AcDbBlockEnd
  0
BLOCK
  5
1DB
330
1D1
100
AcDbEntity
  8
0
100
AcDbBlockBegin
  2
*D20
 70
     1
 71
     0
 10
0.0
 20
0.0
 30
0.0
  3
*D20
  1

  0
LINE
  5
1DD
330
1D1
100
AcDbEntity
  8
SLD-0
 62
     7
100
AcDbLine
 10
154.5543928242
 20
175.5165277672
 30
0.0
 11
154.5543928242
 21
192.2912524771
 31
0.0
  0
LINE
  5
1DE
330
1D1
100
AcDbEntity
  8
SLD-0
 62
     7
100
AcDbLine
 10
167.0543928242
 20
181.0165277672
 30
0.0
 11
167.0543928242
 21
192.2912524771
 31
0.0
  0
LINE
  5
1DF
330
1D1
100
AcDbEntity
  8
SLD-0
 62
     7
100
AcDbLine
 10
154.5543928242
 20
191.2912524771
 30
0.0
 11
167.0543928242
 21
191.2912524771
 31
0.0
  0
LINE
  5
1E0
330
1D1
100
AcDbEntity
  8
SLD-0
 62
     7
100
AcDbLine
 10
157.5543928242
 20
190.4874054771
 30
0.0
 11
154.5543928242
 21
191.2912524771
 31
0.0
  0
LINE
  5
1E1
330
1D1
100
AcDbEntity
  8
SLD-0
 62
     7
100
AcDbLine
 10
154.5543928242
 20
191.2912524771
 30
0.0
 11
157.5543928242
 21
192.0950994771
 31
0.0
  0
LINE
  5
1E2
330
1D1
100
AcDbEntity
  8
SLD-0
 62
     7
100
AcDbLine
 10
154.5543928242
 20
191.2912524771
 30
0.0
 11
157.5543928242
 21
191.2912524771
 31
0.0
  0
LINE
  5
1E3
330
1D1
100
AcDbEntity
  8
SLD-0
 62
     7
100
AcDbLine
 10
164.0543928242
 20
192.0950994771
 30
0.0
 11
167.0543928242
 21
191.2912524771
 31
0.0
  0
LINE
  5
1E4
330
1D1
100
AcDbEntity
  8
SLD-0
 62
     7
100
AcDbLine
 10
167.0543928242
 20
191.2912524771
 30
0.0
 11
164.0543928242
 21
190.4874054771
 31
0.0
  0
LINE
  5
1E5
330
1D1
100
AcDbEntity
  8
SLD-0
 62
     7
100
AcDbLine
 10
167.0543928242
 20
191.2912524771
 30
0.0
 11
164.0543928242
 21
191.2912524771
 31
0.0
  0
MTEXT
  5
1E6
330
1D1
100
AcDbEntity
  8
SLD-0
 62
     7
100
AcDbMText
 10
156.731492705
 20
195.8179462895
 30
0.1
 40
3.5
 41
0.0
 71
     1
 72
     1
  1
12.5
  7
SLDTEXTSTYLE2
 73
     1
 44
1.0
  0
ENDBLK
  5
1DC
330
1D1
100
AcDbEntity
  8
0
100
AcDbBlockEnd
  0
BLOCK
  5
1EF
330
1EE
100
AcDbEntity
  8
0
100
AcDbBlockBegin
  2
SW_NOTE_0
 70
     0
 71
     0
 10
0.0
 20
0.0
 30
0.0
  3
SW_NOTE_0
  1

  0
MTEXT
  5
1F1
330
1EE
100
AcDbEntity
  8
0
  6
Continuous
 62
     7
370
     0
100
AcDbMText
 10
0.0
 20
4.9260606061
 30
0.0
 40
4.2333333333
 41
0.0
 71
     1
 72
     1
  1
φ12　アクセスロボ
  7
SLDTEXTSTYLE0
 73
     1
 44
1.0
  0
MTEXT
  5
1F2
330
1EE
100
AcDbEntity
  8
0
  6
Continuous
 62
     7
370
     0
100
AcDbMText
 10
5.1182173193
 20
-0.7183837702
 30
0.0
 40
4.2333333333
 41
0.0
 71
     1
 72
     1
  1
ブラケット　Ｍ6
  7
SLDTEXTSTYLE0
 73
     1
 44
1.0
  0
ENDBLK
  5
1F0
330
1EE
100
AcDbEntity
  8
0
100
AcDbBlockEnd
  0
ENDSEC
  0
SECTION
  2
ENTITIES
  0
LINE
  5
69
330
1F
100
AcDbEntity
  8
SLD-0
100
AcDbLine
 10
72.2251212514
 20
176.9823693094
 30
0.0
 11
73.9195867219
 21
174.4567432941
 31
0.0
  0
LINE
  5
6A
330
1F
100
AcDbEntity
  8
SLD-0
100
AcDbLine
 10
73.9195867219
 20
174.4567432941
 30
0.0
 11
71.4975920286
 21
176.2962926155
 31
0.0
  0
LINE
  5
6B
330
1F
100
AcDbEntity
  8
SLD-0
100
AcDbLine
 10
71.4975920286
 20
176.2962926155
 30
0.0
 11
72.2251212514
 21
176.9823693094
 31
0.0
  0
LINE
  5
6C
330
1F
100
AcDbEntity
  8
SLD-0
  6
Continuous
 62
     7
100
AcDbLine
 10
73.9195869692
 20
141.5165278864
 30
0.0
 11
73.9195869692
 21
180.0165276778
 31
0.0
  0
LINE
  5
6D
330
1F
100
AcDbEntity
  8
SLD-0
  6
Continuous
 62
     7
100
AcDbLine
 10
83.4195867219
 20
169.4956581387
 30
0.0
 11
83.4195867219
 21
180.0165276778
 31
0.0
  0
LINE
  5
6E
330
1F
100
AcDbEntity
  8
SLD-0
  6
Continuous
 62
     7
100
AcDbLine
 10
83.4195866982
 20
156.0165279348
 30
0.0
 11
83.4195867219
 21
157.5373973956
 31
0.0
  0
LINE
  5
6F
330
1F
100
AcDbEntity
  8
SLD-0
  6
Continuous
 62
     7
100
AcDbLine
 10
84.4195867457
 20
156.0165279348
 30
0.0
 11
83.4195866982
 21
156.0165279348
 31
0.0
  0
LINE
  5
70
330
1F
100
AcDbEntity
  8
SLD-0
  6
Continuous
 62
     7
100
AcDbLine
 10
84.4195867219
 20
157.5373973956
 30
0.0
 11
84.4195867457
 21
156.0165279348
 31
0.0
  0
LINE
  5
71
330
1F
100
AcDbEntity
  8
SLD-0
  6
Continuous
 62
     7
100
AcDbLine
 10
84.4195867219
 20
180.0165276778
 30
0.0
 11
84.4195867219
 21
169.4956581388
 31
0.0
  0
LINE
  5
72
330
1F
100
AcDbEntity
  8
SLD-0
  6
Continuous
 62
     7
100
AcDbLine
 10
93.9195865221
 20
180.0165276778
 30
0.0
 11
93.9195865221
 21
141.5165278864
 31
0.0
  0
LINE
  5
73
330
1F
100
AcDbEntity
  8
SLD-0
  6
Continuous
 62
     7
100
AcDbLine
 10
92.9195863582
 20
140.5165277225
 30
0.0
 11
74.9195871331
 21
140.5165277225
 31
0.0
  0
LINE
  5
74
330
1F
100
AcDbEntity
  8
SLD-0
  6
Continuous
 62
     7
100
AcDbLine
 10
74.9195871331
 20
140.5165277225
 30
0.0
 11
73.9195869692
 21
141.5165278864
 31
0.0
  0
LINE
  5
75
330
1F
100
AcDbEntity
  8
SLD-0
  6
Continuous
 62
     7
100
AcDbLine
 10
92.9195863582
 20
140.5165277225
 30
0.0
 11
93.9195865221
 21
141.5165278864
 31
0.0
  0
LINE
  5
76
330
1F
100
AcDbEntity
  8
SLD-0
  6
Continuous
 62
     7
100
AcDbLine
 10
84.4195867219
 20
181.0165278417
 30
0.0
 11
92.9195863582
 21
181.0165278417
 31
0.0
  0
LINE
  5
77
330
1F
100
AcDbEntity
  8
SLD-0
  6
Continuous
 62
     7
100
AcDbLine
 10
92.9195863582
 20
181.0165278417
 30
0.0
 11
93.9195865221
 21
180.0165276778
 31
0.0
  0
LINE
  5
78
330
1F
100
AcDbEntity
  8
SLD-0
  6
Continuous
 62
     7
100
AcDbLine
 10
84.4195867219
 20
180.0165276778
 30
0.0
 11
84.4195867219
 21
181.0165278417
 31
0.0
  0
LINE
  5
79
330
1F
100
AcDbEntity
  8
SLD-0
  6
Continuous
 62
     7
100
AcDbLine
 10
73.9195869692
 20
180.0165276778
 30
0.0
 11
74.9195871331
 21
181.0165278417
 31
0.0
  0
LINE
  5
7A
330
1F
100
AcDbEntity
  8
SLD-0
  6
Continuous
 62
     7
100
AcDbLine
 10
74.9195871331
 20
181.0165278417
 30
0.0
 11
83.4195867219
 21
181.0165278417
 31
0.0
  0
LINE
  5
7B
330
1F
100
AcDbEntity
  8
SLD-0
  6
Continuous
 62
     7
100
AcDbLine
 10
83.4195867219
 20
181.0165278417
 30
0.0
 11
83.4195867219
 21
180.0165276778
 31
0.0
  0
LINE
  5
7C
330
1F
100
AcDbEntity
  8
SLD-0
  6
HIDDEN
 62
     7
100
AcDbLine
 10
87.4195867219
 20
180.0165277672
 30
0.0
 11
87.4195867219
 21
169.0165277672
 31
0.0
  0
LINE
  5
7D
330
1F
100
AcDbEntity
  8
SLD-0
  6
HIDDEN
 62
     7
100
AcDbLine
 10
87.4195867219
 20
169.0165277672
 30
0.0
 11
93.9195864984
 21
169.0165277672
 31
0.0
  0
LINE
  5
7E
330
1F
100
AcDbEntity
  8
SLD-0
  6
HIDDEN
 62
     7
100
AcDbLine
 10
87.41958683
 20
177.7665277746
 30
0.0
 11
84.4195867457
 21
177.7665277746
 31
0.0
  0
LINE
  5
7F
330
1F
100
AcDbEntity
  8
SLD-0
  6
HIDDEN
 62
     7
100
AcDbLine
 10
84.4195867457
 20
171.2665276405
 30
0.0
 11
87.41958683
 21
171.2665276405
 31
0.0
  0
LINE
  5
80
330
1F
100
AcDbEntity
  8
SLD-0
  6
HIDDEN
 62
     7
100
AcDbLine
 10
83.4195866982
 20
177.0165281173
 30
0.0
 11
73.9195869455
 21
177.0165281173
 31
0.0
  0
LINE
  5
81
330
1F
100
AcDbEntity
  8
SLD-0
  6
HIDDEN
 62
     7
100
AcDbLine
 10
73.9195869455
 20
172.0165282291
 30
0.0
 11
83.4195866982
 21
172.0165282291
 31
0.0
  0
LINE
  5
82
330
1F
100
AcDbEntity
  8
SLD-0
 62
     7
100
AcDbLine
 10
74.4195867219
 20
141.0165277672
 30
0.0
 11
59.6130706739
 21
126.3097304889
 31
0.0
  0
LINE
  5
83
330
1F
100
AcDbEntity
  8
SLD-0
 62
     7
100
AcDbLine
 10
59.6130706739
 20
126.3097304889
 30
0.0
 11
67.6518524356
 21
134.2808349184
 31
0.0
  0
LINE
  5
84
330
1F
100
AcDbEntity
  8
SLD-0
100
AcDbLine
 10
71.86135664
 20
176.6393309625
 30
0.0
 11
63.6698127533
 21
185.3258052443
 31
0.0
  0
LINE
  5
85
330
1F
100
AcDbEntity
  8
SLD-0
  6
HIDDEN
 62
     7
100
AcDbLine
 10
73.9195869455
 20
171.5165281471
 30
0.0
 11
83.4195866982
 21
171.5165281471
 31
0.0
  0
LINE
  5
86
330
1F
100
AcDbEntity
  8
SLD-0
  6
HIDDEN
 62
     7
100
AcDbLine
 10
83.4195866982
 20
177.5165281993
 30
0.0
 11
73.9195869455
 21
177.5165281993
 31
0.0
  0
LINE
  5
87
330
1F
100
AcDbEntity
  8
SLD-0
  6
CENTERX2
 62
     7
100
AcDbLine
 10
71.9195867219
 20
174.5165277672
 30
0.0
 11
95.9195867219
 21
174.5165277672
 31
0.0
  0
LINE
  5
88
330
1F
100
AcDbEntity
  8
SLD-0
  6
Continuous
 62
     7
100
AcDbLine
 10
167.0543930105
 20
180.0165276778
 30
0.0
 11
167.0543930105
 21
141.5165278864
 31
0.0
  0
LINE
  5
89
330
1F
100
AcDbEntity
  8
SLD-0
  6
Continuous
 62
     7
100
AcDbLine
 10
142.054392638
 20
180.0165276778
 30
0.0
 11
142.054392638
 21
141.5165278864
 31
0.0
  0
LINE
  5
8A
330
1F
100
AcDbEntity
  8
SLD-0
  6
Continuous
 62
     7
100
AcDbLine
 10
143.0543928019
 20
181.0165278417
 30
0.0
 11
166.0543928466
 21
181.0165278417
 31
0.0
  0
LINE
  5
8B
330
1F
100
AcDbEntity
  8
SLD-0
  6
Continuous
 62
     7
100
AcDbLine
 10
143.0543928019
 20
181.0165278417
 30
0.0
 11
142.054392638
 21
180.0165276778
 31
0.0
  0
LINE
  5
8C
330
1F
100
AcDbEntity
  8
SLD-0
  6
Continuous
 62
     7
100
AcDbLine
 10
166.0543928466
 20
181.0165278417
 30
0.0
 11
167.0543930105
 21
180.0165276778
 31
0.0
  0
LINE
  5
8D
330
1F
100
AcDbEntity
  8
SLD-0
  6
Continuous
 62
     7
100
AcDbLine
 10
166.0543928466
 20
140.5165277225
 30
0.0
 11
143.0543928019
 21
140.5165277225
 31
0.0
  0
LINE
  5
8E
330
1F
100
AcDbEntity
  8
SLD-0
  6
Continuous
 62
     7
100
AcDbLine
 10
167.0543930105
 20
141.5165278864
 30
0.0
 11
166.0543928466
 21
140.5165277225
 31
0.0
  0
LINE
  5
8F
330
1F
100
AcDbEntity
  8
SLD-0
  6
Continuous
 62
     7
100
AcDbLine
 10
143.0543928019
 20
140.5165277225
 30
0.0
 11
142.054392638
 21
141.5165278864
 31
0.0
  0
LINE
  5
90
330
1F
100
AcDbEntity
  8
SLD-0
  6
HIDDEN
 62
     7
100
AcDbLine
 10
148.5543928242
 20
148.5165277672
 30
0.0
 11
148.5543928242
 21
154.0165277672
 31
0.0
  0
LINE
  5
91
330
1F
100
AcDbEntity
  8
SLD-0
  6
HIDDEN
 62
     7
100
AcDbLine
 10
148.5543928242
 20
143.0165277672
 30
0.0
 11
148.5543928242
 21
148.5165277672
 31
0.0
  0
LINE
  5
92
330
1F
100
AcDbEntity
  8
SLD-0
  6
HIDDEN
 62
     7
100
AcDbLine
 10
142.054392638
 20
156.0165279348
 30
0.0
 11
167.0543930105
 21
156.0165279348
 31
0.0
  0
LINE
  5
93
330
1F
100
AcDbEntity
  8
SLD-0
  6
HIDDEN
 62
     7
100
AcDbLine
 10
142.054392638
 20
157.5373972569
 30
0.0
 11
167.0543930105
 21
157.5373972569
 31
0.0
  0
LINE
  5
94
330
1F
100
AcDbEntity
  8
SLD-0
  6
HIDDEN
 62
     7
100
AcDbLine
 10
167.0543930105
 20
169.4956582774
 30
0.0
 11
142.054392638
 21
169.4956582774
 31
0.0
  0
LINE
  5
95
330
1F
100
AcDbEntity
  8
SLD-0
  6
HIDDEN
 62
     7
100
AcDbLine
 10
142.054392638
 20
143.0165272009
 30
0.0
 11
148.5543928242
 21
143.0165277672
 31
0.0
  0
LINE
  5
96
330
1F
100
AcDbEntity
  8
SLD-0
  6
HIDDEN
 62
     7
100
AcDbLine
 10
148.5543928242
 20
154.0165277672
 30
0.0
 11
142.054392638
 21
154.0165280726
 31
0.0
  0
LINE
  5
97
330
1F
100
AcDbEntity
  8
SLD-0
  6
HIDDEN
 62
     7
100
AcDbLine
 10
148.5543927721
 20
145.2665280354
 30
0.0
 11
167.0543930105
 21
145.2665280354
 31
0.0
  0
LINE
  5
98
330
1F
100
AcDbEntity
  8
SLD-0
  6
HIDDEN
 62
     7
100
AcDbLine
 10
167.0543930105
 20
151.7665281695
 30
0.0
 11
148.5543927721
 21
151.7665281695
 31
0.0
  0
LINE
  5
99
330
1F
100
AcDbEntity
  8
SLD-0
 62
     7
100
AcDbLine
 10
166.5543928242
 20
141.0165277672
 30
0.0
 11
171.4391105344
 21
137.1360886591
 31
0.0
  0
LINE
  5
9A
330
1F
100
AcDbEntity
  8
SLD-0
 62
     7
100
AcDbLine
 10
171.4391105344
 20
137.1360886591
 30
0.0
 11
180.335274687
 21
130.1347472586
 31
0.0
  0
LINE
  5
9B
330
1F
100
AcDbEntity
  8
SLD-0
  6
CENTERX2
 62
     7
100
AcDbLine
 10
169.0543928242
 20
163.5165277672
 30
0.0
 11
140.0543928242
 21
163.5165277672
 31
0.0
  0
LINE
  5
9C
330
1F
100
AcDbEntity
  8
SLD-0
  6
CENTERX2
 62
     7
100
AcDbLine
 10
169.0543928242
 20
148.5165277672
 30
0.0
 11
148.5543928242
 21
148.5165277672
 31
0.0
  0
LINE
  5
9D
330
1F
100
AcDbEntity
  8
SLD-0
  6
CENTERX2
 62
     7
100
AcDbLine
 10
148.5543928242
 20
148.5165277672
 30
0.0
 11
140.0543928242
 21
148.5165277672
 31
0.0
  0
LINE
  5
9E
330
1F
100
AcDbEntity
  8
0
  6
Continuous
 62
     7
370
     0
100
AcDbLine
 10
20.2604743903
 20
285.0
 30
0.0
 11
196.7604743903
 21
285.0
 31
0.0
  0
LINE
  5
9F
330
1F
100
AcDbEntity
  8
0
  6
Continuous
 62
     7
370
     0
100
AcDbLine
 10
20.2604743903
 20
285.0
 30
0.0
 11
20.2604743903
 21
10.0
 31
0.0
  0
LINE
  5
A0
330
1F
100
AcDbEntity
  8
0
  6
Continuous
 62
     7
370
     0
100
AcDbLine
 10
20.2604743903
 20
10.0
 30
0.0
 11
196.7604743903
 21
10.0
 31
0.0
  0
LINE
  5
A1
330
1F
100
AcDbEntity
  8
0
  6
Continuous
 62
     7
370
     0
100
AcDbLine
 10
196.7604743903
 20
285.0
 30
0.0
 11
196.7604743903
 21
10.0
 31
0.0
  0
LINE
  5
A2
330
1F
100
AcDbEntity
  8
0
  6
Continuous
 62
     7
370
     0
100
AcDbLine
 10
127.0104743903
 20
50.75
 30
0.0
 11
196.7604743903
 21
50.75
 31
0.0
  0
LINE
  5
A3
330
1F
100
AcDbEntity
  8
0
  6
Continuous
 62
     7
370
     0
100
AcDbLine
 10
127.0104743903
 20
50.75
 30
0.0
 11
127.0104743903
 21
10.0
 31
0.0
  0
LINE
  5
A4
330
1F
100
AcDbEntity
  8
0
  6
Continuous
 62
     7
370
     0
100
AcDbLine
 10
127.0104743903
 20
22.75
 30
0.0
 11
196.7604743903
 21
22.75
 31
0.0
  0
LINE
  5
A5
330
1F
100
AcDbEntity
  8
0
  6
Continuous
 62
     7
370
     0
100
AcDbLine
 10
127.0104743903
 20
36.75
 30
0.0
 11
196.7604743903
 21
36.75
 31
0.0
  0
CIRCLE
  5
A6
330
1F
100
AcDbEntity
  8
SLD-0
  6
Continuous
 62
     7
100
AcDbCircle
 10
83.9195867219
 20
148.5165277672
 30
0.0
 40
5.5
  0
ARC
  5
A7
330
1F
100
AcDbEntity
  8
SLD-0
  6
Continuous
 62
     7
100
AcDbCircle
 10
83.9195867219
 20
163.5165277672
 30
0.0
 40
5.999999999974765
100
AcDbArc
 50
94.7801918472
 51
265.2198081528
  0
ARC
  5
A8
330
1F
100
AcDbEntity
  8
SLD-0
  6
Continuous
 62
     7
100
AcDbCircle
 10
83.9195867219
 20
163.5165277672
 30
0.0
 40
6.000000000025302
100
AcDbArc
 50
274.7801918472
 51
85.2198081528
  0
CIRCLE
  5
A9
330
1F
100
AcDbEntity
  8
SLD-0
  6
Continuous
 62
     7
100
AcDbCircle
 10
83.9195867219
 20
148.5165277672
 30
0.0
 40
3.25
  0
CIRCLE
  5
AA
330
1F
100
AcDbEntity
  8
SLD-0
  6
Continuous
 62
     7
100
AcDbCircle
 10
154.5543928242
 20
174.5165277672
 30
0.0
 40
5.5
  0
CIRCLE
  5
AB
330
1F
100
AcDbEntity
  8
SLD-0
  6
Continuous
 62
     7
100
AcDbCircle
 10
154.5543928242
 20
174.5165277672
 30
0.0
 40
3.25
  0
CIRCLE
  5
AC
330
1F
100
AcDbEntity
  8
SLD-0
  6
Continuous
 62
     7
100
AcDbCircle
 10
154.5543928242
 20
174.5165277672
 30
0.0
 40
2.5
  0
CIRCLE
  5
AD
330
1F
100
AcDbEntity
  8
SLD-0
 62
     7
100
AcDbCircle
 10
154.5543928242
 20
174.5165277672
 30
0.0
 40
3.000000026099997
  0
DIMENSION
  5
AE
330
1F
100
AcDbEntity
  8
SLD-0
 62
     7
100
AcDbDimension
  2
*D7
 10
43.3210797862
 20
140.5165277672
 30
0.0
 11
43.3210797862
 21
160.7665277672
 31
0.0
 70
   160
 71
     1
 42
40.5
  3
SLDDIMSTYLE0
100
AcDbAlignedDimension
 13
73.9195867219
 23
181.0165277672
 33
0.0
 14
73.9195867219
 24
140.5165277672
 34
0.0
 50
90.0
100
AcDbRotatedDimension
1001
ACAD
1000
DSTYLE
1002
{
1070
    77
1070
     3
1070
   143
1040
0.0393700787
1070
    41
1040
3.0
1070
    44
1040
1.0
1070
    42
1040
1.0
1070
   147
1040
1.524
1070
    73
1070
     0
1070
    74
1070
     0
1070
   140
1040
3.5
1070
   284
1070
    12
1070
    78
1070
    12
1002
}
  0
DIMENSION
  5
CC
330
1F
100
AcDbEntity
  8
SLD-0
 62
     7
100
AcDbDimension
  2
*D9
 10
86.8670674007
 20
158.2904051463
 30
0.0
 11
53.4593394218
 21
198.9634259174
 31
0.0
 70
   163
  1
<>　　
 71
     1
 42
12.0
  3
SLDDIMSTYLE1
100
AcDbDiametricDimension
 15
80.9721060432
 25
168.742650388
 35
0.0
 40
0.0
1001
ACAD
1000
DSTYLE
1002
{
1070
    77
1070
     0
1070
   143
1040
0.0393700787
1070
    41
1040
3.0
1070
    44
1040
1.0
1070
    42
1040
1.0
1070
   147
1040
1.524
1070
    73
1070
     1
1070
    74
1070
     1
1070
   140
1040
3.5
1070
   284
1070
    12
1070
    78
1070
    12
1002
}
  0
DIMENSION
  5
E1
330
1F
100
AcDbEntity
  8
SLD-0
 62
     7
100
AcDbDimension
  2
*D10
 10
93.9195867219
 20
206.9732432497
 30
0.0
 11
83.9195867219
 21
206.9732432497
 31
0.0
 70
   160
 71
     1
 42
20.0
  3
SLDDIMSTYLE2
100
AcDbAlignedDimension
 13
73.9195867219
 23
181.0165277672
 33
0.0
 14
93.9195867219
 24
181.0165277672
 34
0.0
100
AcDbRotatedDimension
1001
ACAD
1000
DSTYLE
1002
{
1070
    77
1070
     3
1070
   143
1040
0.0393700787
1070
    41
1040
3.0
1070
    44
1040
1.0
1070
    42
1040
1.0
1070
   147
1040
1.524
1070
    73
1070
     0
1070
    74
1070
     0
1070
   140
1040
3.5
1070
   284
1070
    12
1070
    78
1070
    12
1002
}
  0
DIMENSION
  5
F9
330
1F
100
AcDbEntity
  8
SLD-0
 62
     7
100
AcDbDimension
  2
*D11
 10
83.9195867219
 20
200.9901008554
 30
0.0
 11
88.9195867219
 21
200.9901008554
 31
0.0
 70
   160
 71
     1
 42
10.0
  3
SLDDIMSTYLE3
100
AcDbAlignedDimension
 13
93.9195867219
 23
181.0165277672
 33
0.0
 14
83.9195867219
 24
163.5165277672
 34
0.0
100
AcDbRotatedDimension
1001
ACAD
1000
DSTYLE
1002
{
1070
    77
1070
     3
1070
   143
1040
0.0393700787
1070
    41
1040
3.0
1070
    44
1040
1.0
1070
    42
1040
1.0
1070
   147
1040
1.524
1070
    73
1070
     0
1070
    74
1070
     0
1070
   140
1040
3.5
1070
   284
1070
    12
1070
    78
1070
    12
1002
}
  0
DIMENSION
  5
111
330
1F
100
AcDbEntity
  8
SLD-0
 62
     7
100
AcDbDimension
  2
*D12
 10
83.4195867219
 20
193.3454943021
 30
0.0
 11
78.1644024873
 21
193.3454943021
 31
0.0
 70
   160
 71
     1
 42
1.0
  3
SLDDIMSTYLE3
100
AcDbAlignedDimension
 13
84.4195867219
 23
181.0165277672
 33
0.0
 14
83.4195867219
 24
181.0165277672
 34
0.0
100
AcDbRotatedDimension
1001
ACAD
1000
DSTYLE
1002
{
1070
    77
1070
     3
1070
   143
1040
0.0393700787
1070
    41
1040
3.0
1070
    44
1040
1.0
1070
    42
1040
1.0
1070
   147
1040
1.524
1070
    73
1070
     0
1070
    74
1070
     0
1070
   140
1040
3.5
1070
   284
1070
    12
1070
    78
1070
    12
1002
}
  0
DIMENSION
  5
12D
330
1F
100
AcDbEntity
  8
SLD-0
 62
     7
100
AcDbDimension
  2
*D13
 10
51.4326644839
 20
156.0165277672
 30
0.0
 11
51.4326644839
 21
168.5165277672
 31
0.0
 70
   160
 71
     1
 42
25.0
  3
SLDDIMSTYLE3
100
AcDbAlignedDimension
 13
73.9195867219
 23
181.0165277672
 33
0.0
 14
83.4195867219
 24
156.0165277672
 34
0.0
 50
90.0
100
AcDbRotatedDimension
1001
ACAD
1000
DSTYLE
1002
{
1070
    77
1070
     3
1070
   143
1040
0.0393700787
1070
    41
1040
3.0
1070
    44
1040
1.0
1070
    42
1040
1.0
1070
   147
1040
1.524
1070
    73
1070
     0
1070
    74
1070
     0
1070
   140
1040
3.5
1070
   284
1070
    12
1070
    78
1070
    12
1002
}
  0
DIMENSION
  5
145
330
1F
100
AcDbEntity
  8
SLD-0
 62
     7
100
AcDbDimension
  2
*D14
 10
3.1976629908
 20
5.6590579496
 30
0.0
 11
114.5497667832
 21
-5.2237466973
 31
0.0
 70
   163
  1
<>,%%c11ｻﾞｸﾞﾘ深6.5
 71
     1
 42
6.4999988831
  3
SLDDIMSTYLE4
100
AcDbDiametricDimension
 15
0.0
 25
0.0
 35
0.0
 40
0.0
1001
ACAD
1000
DSTYLE
1002
{
1070
    77
1070
     0
1070
   143
1040
0.0393700787
1070
    41
1040
3.0
1070
    44
1040
1.0
1070
    42
1040
1.0
1070
   147
1040
1.524
1070
    73
1070
     1
1070
    74
1070
     1
1070
   140
1040
3.5
1070
   284
1070
    12
1070
    78
1070
    12
1002
}
  0
DIMENSION
  5
15A
330
1F
100
AcDbEntity
  8
SLD-0
 62
     7
100
AcDbDimension
  2
*D15
 10
61.1215017617
 20
181.0165277672
 30
0.0
 11
61.1215017617
 21
172.2665277672
 31
0.0
 70
   160
 71
     1
 42
17.5
  3
SLDDIMSTYLE0
100
AcDbAlignedDimension
 13
75.4195867219
 23
163.5165277672
 33
0.0
 14
74.9195867219
 24
181.0165277672
 34
0.0
 50
90.0
100
AcDbRotatedDimension
1001
ACAD
1000
DSTYLE
1002
{
1070
    77
1070
     3
1070
   143
1040
0.0393700787
1070
    41
1040
3.0
1070
    44
1040
1.0
1070
    42
1040
1.0
1070
   147
1040
1.524
1070
    73
1070
     0
1070
    74
1070
     0
1070
   140
1040
3.5
1070
   284
1070
    12
1070
    78
1070
    12
1002
}
  0
DIMENSION
  5
172
330
1F
100
AcDbEntity
  8
SLD-0
 62
     7
100
AcDbDimension
  2
*D16
 10
103.5135044019
 20
181.0165277672
 30
0.0
 11
103.5135044019
 21
164.7665277672
 31
0.0
 70
   160
 71
     1
 42
32.5
  3
SLDDIMSTYLE0
100
AcDbAlignedDimension
 13
91.9195867219
 23
148.5165277672
 33
0.0
 14
92.9195867219
 24
181.0165277672
 34
0.0
 50
90.0
100
AcDbRotatedDimension
1001
ACAD
1000
DSTYLE
1002
{
1070
    77
1070
     3
1070
   143
1040
0.0393700787
1070
    41
1040
3.0
1070
    44
1040
1.0
1070
    42
1040
1.0
1070
   147
1040
1.524
1070
    73
1070
     0
1070
    74
1070
     0
1070
   140
1040
3.5
1070
   284
1070
    12
1070
    78
1070
    12
1002
}
  0
DIMENSION
  5
18A
330
1F
100
AcDbEntity
  8
SLD-0
 62
     7
100
AcDbDimension
  2
*D17
 10
142.0543928242
 20
199.3229305089
 30
0.0
 11
154.5543928242
 21
199.3229305089
 31
0.0
 70
   160
 71
     1
 42
25.0
  3
SLDDIMSTYLE3
100
AcDbAlignedDimension
 13
167.0543928242
 23
140.5165277672
 33
0.0
 14
142.0543928242
 24
140.5165277672
 34
0.0
100
AcDbRotatedDimension
1001
ACAD
1000
DSTYLE
1002
{
1070
    77
1070
     3
1070
   143
1040
0.0393700787
1070
    41
1040
3.0
1070
    44
1040
1.0
1070
    42
1040
1.0
1070
   147
1040
1.524
1070
    73
1070
     0
1070
    74
1070
     0
1070
   140
1040
3.5
1070
   284
1070
    12
1070
    78
1070
    12
1002
}
  0
DIMENSION
  5
1A1
330
1F
100
AcDbEntity
  8
SLD-0
 62
     7
100
AcDbDimension
  2
*D18
 10
180.1485468756
 20
181.0165277672
 30
0.0
 11
180.1485468756
 21
188.563509384
 31
0.0
 70
   160
 71
     1
 42
6.5
  3
SLDDIMSTYLE0
100
AcDbAlignedDimension
 13
162.5543928242
 23
174.5165277672
 33
0.0
 14
166.0543928242
 24
181.0165277672
 34
0.0
 50
90.0
100
AcDbRotatedDimension
1001
ACAD
1000
DSTYLE
1002
{
1070
    77
1070
     3
1070
   143
1040
0.0393700787
1070
    41
1040
3.0
1070
    44
1040
1.0
1070
    42
1040
1.0
1070
   147
1040
1.524
1070
    73
1070
     0
1070
    74
1070
     0
1070
   140
1040
3.5
1070
   284
1070
    12
1070
    78
1070
    12
1002
}
  0
DIMENSION
  5
1BC
330
1F
100
AcDbEntity
  8
SLD-0
 62
     7
100
AcDbDimension
  2
*D19
 10
4.309456985
 20
4.86606337
 30
0.0
 11
123.3738320101
 21
-4.4917512163
 31
0.0
 70
   163
  1
<>,%%c11ｻﾞｸﾞﾘ深6.5
 71
     1
 42
6.499999402
  3
SLDDIMSTYLE4
100
AcDbDiametricDimension
 15
0.0
 25
0.0
 35
0.0
 40
0.0
1001
ACAD
1000
DSTYLE
1002
{
1070
    77
1070
     0
1070
   143
1040
0.0393700787
1070
    41
1040
3.0
1070
    44
1040
1.0
1070
    42
1040
1.0
1070
   147
1040
1.524
1070
    73
1070
     1
1070
    74
1070
     1
1070
   140
1040
3.5
1070
   284
1070
    12
1070
    78
1070
    12
1002
}
  0
DIMENSION
  5
1D0
330
1F
100
AcDbEntity
  8
SLD-0
 62
     7
100
AcDbDimension
  2
*D20
 10
154.5543928242
 20
191.2912524771
 30
0.0
 11
160.8043928242
 21
191.2912524771
 31
0.0
 70
   160
 71
     1
 42
12.5
  3
SLDDIMSTYLE0
100
AcDbAlignedDimension
 13
167.0543928242
 23
180.0165277672
 33
0.0
 14
154.5543928242
 24
174.5165277672
 34
0.0
100
AcDbRotatedDimension
1001
ACAD
1000
DSTYLE
1002
{
1070
    77
1070
     3
1070
   143
1040
0.0393700787
1070
    41
1040
3.0
1070
    44
1040
1.0
1070
    42
1040
1.0
1070
   147
1040
1.524
1070
    73
1070
     0
1070
    74
1070
     0
1070
   140
1040
3.5
1070
   284
1070
    12
1070
    78
1070
    12
1002
}
  0
MTEXT
  5
1E7
330
1F
100
AcDbEntity
  8
SLD-0
 62
     7
100
AcDbMText
 10
57.552696447
 20
130.6422128246
 30
0.0
 40
3.5
 41
0.0
 71
     1
 72
     1
  1
4-
  7
SLDTEXTSTYLE1
 11
0.7100895336343922
 21
0.7041113933341027
 31
0.0
 73
     1
 44
1.0
  0
MTEXT
  5
1E8
330
1F
100
AcDbEntity
  8
SLD-0
 62
     7
100
AcDbMText
 10
60.4448201931
 20
133.5099882024
 30
0.0
 40
3.5
 41
0.0
 71
     1
 72
     1
  1
C
  7
SLDTEXTSTYLE1
 11
0.7100895336343922
 21
0.7041113933341027
 31
0.0
 73
     1
 44
1.0
  0
MTEXT
  5
1E9
330
1F
100
AcDbEntity
  8
SLD-0
 62
     7
100
AcDbMText
 10
61.8908820662
 20
134.9438758913
 30
0.0
 40
3.5
 41
0.0
 71
     1
 72
     1
  1
1
  7
SLDTEXTSTYLE1
 11
0.7100895336343922
 21
0.7041113933341027
 31
0.0
 73
     1
 44
1.0
  0
MTEXT
  5
1EA
330
1F
100
AcDbEntity
  8
SLD-0
 62
     7
100
AcDbMText
 10
175.4864407315
 20
139.7118726988
 30
0.0
 40
3.5
 41
0.0
 71
     1
 72
     1
  1
4-
  7
SLDTEXTSTYLE1
 11
0.7858246736194201
 21
-0.6184493369152657
 31
0.0
 73
     1
 44
1.0
  0
MTEXT
  5
1EB
330
1F
100
AcDbEntity
  8
SLD-0
 62
     7
100
AcDbMText
 10
178.6870261384
 20
137.1929903208
 30
0.0
 40
3.5
 41
0.0
 71
     1
 72
     1
  1
C
  7
SLDTEXTSTYLE1
 11
0.7858246736194201
 21
-0.6184493369152657
 31
0.0
 73
     1
 44
1.0
  0
MTEXT
  5
1EC
330
1F
100
AcDbEntity
  8
SLD-0
 62
     7
100
AcDbMText
 10
180.2873188419
 20
135.9335491319
 30
0.0
 40
3.5
 41
0.0
 71
     1
 72
     1
  1
1
  7
SLDTEXTSTYLE1
 11
0.7858246736194201
 21
-0.6184493369152657
 31
0.0
 73
     1
 44
1.0
  0
MTEXT
  5
1ED
330
1F
100
AcDbEntity
  8
0
  6
Continuous
 62
     7
370
     0
100
AcDbMText
 10
150.0291977543
 20
29.8861652342
 30
0.0
 40
4.2333333333
 41
0.0
 71
     1
 72
     1
  1
N01862-210
  7
SLDTEXTSTYLE0
 73
     1
 44
1.0
  0
INSERT
  5
1F3
330
1F
100
AcDbEntity
  8
0
  6
Continuous
 62
     7
370
     0
100
AcDbBlockReference
  2
SW_NOTE_0
 10
143.5562485487
 20
43.3907467882
 30
0.0
  0
MTEXT
  5
1F4
330
1F
100
AcDbEntity
  8
0
  6
Continuous
 62
     7
370
     0
100
AcDbMText
 10
155.5852055766
 20
16.2918259049
 30
0.0
 40
4.2333333333
 41
0.0
 71
     1
 72
     1
  1
131125
  7
SLDTEXTSTYLE0
 73
     1
 44
1.0
  0
HATCH
  5
1F5
330
1F
100
AcDbEntity
  8
0
  6
Continuous
 62
     7
100
AcDbHatch
 10
0.0
 20
0.0
 30
0.0
210
0.0
220
0.0
230
1.0
  2
ANSI31
 70
     0
 71
     0
 91
        1
 92
        0
 93
        3
 72
     1
 10
71.49759202864649
 20
176.2962926154969
 11
72.22512125143759
 21
176.9823693094496
 72
     1
 10
72.22512125143759
 20
176.9823693094496
 11
73.9195867219
 21
174.4567432941
 72
     1
 10
73.9195867219
 20
174.4567432941
 11
71.49759202864649
 21
176.2962926154969
 97
        0
 75
     0
 76
     1
 52
0.0
 41
1.0
 77
     0
 78
     1
 53
45.00000209717174
 43
0.0
 44
0.0
 45
-2.245064112442359
 46
2.245063948092215
 79
     0
 98
        1
 10
0.0
 20
0.0
  0
INSERT
  5
1F6
330
1F
100
AcDbEntity
  8
0
  6
Continuous
 62
     7
370
     0
100
AcDbBlockReference
  2
_OPEN30
 10
74.4195867219
 20
141.0165277672
 30
0.0
 41
3.0
 42
3.0
 43
3.0
 50
44.8064113356
  0
INSERT
  5
1F7
330
1F
100
AcDbEntity
  8
0
  6
Continuous
 62
     7
370
     0
100
AcDbBlockReference
  2
NOTE52
 10
63.6698127533
 20
185.3258052443
 30
0.0
  0
INSERT
  5
1F8
330
1F
100
AcDbEntity
  8
0
  6
Continuous
 62
     7
370
     0
100
AcDbBlockReference
  2
SW_CENTERMARK0
 10
0.0
 20
0.0
 30
0.0
  0
INSERT
  5
1F9
330
1F
100
AcDbEntity
  8
0
  6
Continuous
 62
     7
370
     0
100
AcDbBlockReference
  2
SW_CENTERMARK1
 10
0.0
 20
0.0
 30
0.0
  0
INSERT
  5
1FA
330
1F
100
AcDbEntity
  8
0
  6
Continuous
 62
     7
370
     0
100
AcDbBlockReference
  2
_OPEN30
 10
166.5543928242
 20
141.0165277672
 30
0.0
 41
3.0
 42
3.0
 43
3.0
 50
141.5362317931
  0
INSERT
  5
1FB
330
1F
100
AcDbEntity
  8
0
  6
Continuous
 62
     7
370
     0
100
AcDbBlockReference
  2
SW_CENTERMARK2
 10
0.0
 20
0.0
 30
0.0
  0
ENDSEC
  0
SECTION
  2
OBJECTS
  0
DICTIONARY
  5
C
330
0
100
AcDbDictionary
281
     1
  3
ACAD_GROUP
350
D
  3
ACAD_LAYOUT
350
1A
  3
ACAD_MLINESTYLE
350
17
  3
ACAD_PLOTSETTINGS
350
19
  3
ACAD_PLOTSTYLENAME
350
E
  0
DICTIONARY
  5
D
102
{ACAD_REACTORS
330
C
102
}
330
C
100
AcDbDictionary
281
     1
  0
DICTIONARY
  5
1A
102
{ACAD_REACTORS
330
C
102
}
330
C
100
AcDbDictionary
281
     1
  3
Layout1
350
1E
  3
Layout2
350
26
  3
Model
350
22
  0
DICTIONARY
  5
17
102
{ACAD_REACTORS
330
C
102
}
330
C
100
AcDbDictionary
281
     1
  3
Standard
350
18
  0
DICTIONARY
  5
19
102
{ACAD_REACTORS
330
C
102
}
330
C
100
AcDbDictionary
281
     1
  0
ACDBDICTIONARYWDFLT
  5
E
102
{ACAD_REACTORS
330
C
102
}
330
C
100
AcDbDictionary
281
     1
  3
Normal
350
F
100
AcDbDictionaryWithDefault
340
F
  0
LAYOUT
  5
1E
102
{ACAD_REACTORS
330
1A
102
}
330
1A
100
AcDbPlotSettings
  1

  2

  4

  6

 40
0.0
 41
0.0
 42
0.0
 43
0.0
 44
0.0
 45
0.0
 46
0.0
 47
0.0
 48
0.0
 49
0.0
140
0.0
141
0.0
142
1.0
143
1.0
 70
   688
 72
     0
 73
     0
 74
     5
  7

 75
    16
147
1.0
148
0.0
149
0.0
100
AcDbLayout
  1
Layout1
 70
     1
 71
     1
 10
0.0
 20
0.0
 11
0.0
 21
0.0
 12
0.0
 22
0.0
 32
0.0
 14
0.0
 24
0.0
 34
0.0
 15
0.0
 25
0.0
 35
0.0
146
0.0
 13
0.0
 23
0.0
 33
0.0
 16
1.0
 26
0.0
 36
0.0
 17
0.0
 27
1.0
 37
0.0
 76
     0
330
1B
  0
LAYOUT
  5
26
102
{ACAD_REACTORS
330
1A
102
}
330
1A
100
AcDbPlotSettings
  1

  2

  4

  6

 40
0.0
 41
0.0
 42
0.0
 43
0.0
 44
0.0
 45
0.0
 46
0.0
 47
0.0
 48
0.0
 49
0.0
140
0.0
141
0.0
142
1.0
143
1.0
 70
   688
 72
     0
 73
     0
 74
     5
  7

 75
    16
147
1.0
148
0.0
149
0.0
100
AcDbLayout
  1
Layout2
 70
     1
 71
     2
 10
0.0
 20
0.0
 11
0.0
 21
0.0
 12
0.0
 22
0.0
 32
0.0
 14
0.0
 24
0.0
 34
0.0
 15
0.0
 25
0.0
 35
0.0
146
0.0
 13
0.0
 23
0.0
 33
0.0
 16
1.0
 26
0.0
 36
0.0
 17
0.0
 27
1.0
 37
0.0
 76
     0
330
23
  0
LAYOUT
  5
22
102
{ACAD_REACTORS
330
1A
102
}
330
1A
100
AcDbPlotSettings
  1

  2

  4

  6

 40
0.0
 41
0.0
 42
0.0
 43
0.0
 44
0.0
 45
0.0
 46
0.0
 47
0.0
 48
0.0
 49
0.0
140
0.0
141
0.0
142
1.0
143
1.0
 70
  1712
 72
     0
 73
     0
 74
     0
  7

 75
     0
147
1.0
148
0.0
149
0.0
100
AcDbLayout
  1
Model
 70
     1
 71
     0
 10
0.0
 20
0.0
 11
0.0
 21
0.0
 12
0.0
 22
0.0
 32
0.0
 14
0.0
 24
0.0
 34
0.0
 15
210.0
 25
297.0
 35
0.0
146
0.0
 13
0.0
 23
0.0
 33
0.0
 16
1.0
 26
0.0
 36
0.0
 17
0.0
 27
1.0
 37
0.0
 76
     0
330
1F
  0
MLINESTYLE
  5
18
102
{ACAD_REACTORS
330
17
102
}
330
17
100
AcDbMlineStyle
  2
Standard
 70
     0
  3

 62
   256
 51
90.0
 52
90.0
 71
     2
 49
0.5
 62
   256
  6
BYLAYER
 49
-0.5
 62
   256
  6
BYLAYER
  0
ACDBPLACEHOLDER
  5
F
102
{ACAD_REACTORS
330
E
102
}
330
E
  0
ENDSEC
  0
EOF
