  0
SECTION
  2
HEADER
  9
$ACADVER
  1
AC1015
  9
$ACADMAINTVER
 70
     6
  9
$DWGCODEPAGE
  3
DOS932
  9
$INSBASE
 10
0.0
 20
0.0
 30
0.0
  9
$EXTMIN
 10
0.0
 20
0.0
 30
0.0
  9
$EXTMAX
 10
210.0
 20
297.0
 30
0.0
  9
$LIMMIN
 10
0.0
 20
0.0
  9
$LIMMAX
 10
0.0
 20
0.0
  9
$ORTHOMODE
 70
     0
  9
$REGENMODE
 70
     1
  9
$FILLMODE
 70
     1
  9
$QTEXTMODE
 70
     0
  9
$MIRRTEXT
 70
     1
  9
$LTSCALE
 40
1.0
  9
$ATTMODE
 70
     1
  9
$TEXTSIZE
 40
3.5
  9
$TRACEWID
 40
1.0
  9
$TEXTSTYLE
  7
Standard
  9
$CLAYER
  8
0
  9
$CELTYPE
  6
ByLayer
  9
$CECOLOR
 62
   256
  9
$CELTSCALE
 40
1.0
  9
$DISPSILH
 70
     0
  9
$DIMSCALE
 40
1.0
  9
$DIMASZ
 40
3.0
  9
$DIMEXO
 40
1.0
  9
$DIMDLI
 40
3.75
  9
$DIMRND
 40
0.0
  9
$DIMDLE
 40
0.0
  9
$DIMEXE
 40
1.0
  9
$DIMTP
 40
0.0
  9
$DIMTM
 40
0.0
  9
$DIMTXT
 40
3.5
  9
$DIMCEN
 40
2.5
  9
$DIMTSZ
 40
0.0
  9
$DIMTOL
 70
     0
  9
$DIMLIM
 70
     0
  9
$DIMTIH
 70
     1
  9
$DIMTOH
 70
     1
  9
$DIMSE1
 70
     0
  9
$DIMSE2
 70
     0
  9
$DIMTAD
 70
     1
  9
$DIMZIN
 70
     1
  9
$DIMBLK
  1

  9
$DIMASO
 70
     1
  9
$DIMSHO
 70
     1
  9
$DIMPOST
  1

  9
$DIMAPOST
  1

  9
$DIMALT
 70
     0
  9
$DIMALTD
 70
     3
  9
$DIMALTF
 40
0.0393700787
  9
$DIMLFAC
 40
1.0
  9
$DIMTOFL
 70
     1
  9
$DIMTVP
 40
0.0
  9
$DIMTIX
 70
     0
  9
$DIMSOXD
 70
     0
  9
$DIMSAH
 70
     0
  9
$DIMBLK1
  1

  9
$DIMBLK2
  1

  9
$DIMSTYLE
  2
ISO-25
  9
$DIMCLRD
 70
     0
  9
$DIMCLRE
 70
     0
  9
$DIMCLRT
 70
     0
  9
$DIMTFAC
 40
1.0
  9
$DIMGAP
 40
1.524
  9
$DIMJUST
 70
     0
  9
$DIMSD1
 70
     0
  9
$DIMSD2
 70
     0
  9
$DIMTOLJ
 70
     0
  9
$DIMTZIN
 70
     1
  9
$DIMALTZ
 70
     0
  9
$DIMALTTZ
 70
     0
  9
$DIMUPT
 70
     0
  9
$DIMDEC
 70
     2
  9
$DIMTDEC
 70
     2
  9
$DIMALTU
 70
     2
  9
$DIMALTTD
 70
     3
  9
$DIMTXSTY
  7
Standard
  9
$DIMAUNIT
 70
     0
  9
$DIMADEC
 70
     0
  9
$DIMALTRND
 40
0.0
  9
$DIMAZIN
 70
     0
  9
$DIMDSEP
 70
    44
  9
$DIMATFIT
 70
     3
  9
$DIMFRAC
 70
     0
  9
$DIMLDRBLK
  1

  9
$DIMLUNIT
 70
     2
  9
$DIMLWD
 70
    -2
  9
$DIMLWE
 70
    -2
  9
$DIMTMOVE
 70
     0
  9
$LUNITS
 70
     2
  9
$LUPREC
 70
     1
  9
$SKETCHINC
 40
1.0
  9
$FILLETRAD
 40
10.0
  9
$AUNITS
 70
     0
  9
$AUPREC
 70
     0
  9
$MENU
  1
.
  9
$ELEVATION
 40
0.0
  9
$PELEVATION
 40
0.0
  9
$THICKNESS
 40
0.0
  9
$LIMCHECK
 70
     0
  9
$CHAMFERA
 40
10.0
  9
$CHAMFERB
 40
10.0
  9
$CHAMFERC
 40
20.0
  9
$CHAMFERD
 40
0.0
  9
$SKPOLY
 70
     0
  9
$TDCREATE
 40
2454359.445254803
  9
$TDUCREATE
 40
2454359.070254803
  9
$TDUPDATE
 40
2454359.445254815
  9
$TDUUPDATE
 40
2454359.070254815
  9
$TDINDWG
 40
0.0000000116
  9
$TDUSRTIMER
 40
0.0000000116
  9
$USRTIMER
 70
     1
  9
$ANGBASE
 50
0.0
  9
$ANGDIR
 70
     0
  9
$PDMODE
 70
     0
  9
$PDSIZE
 40
-1.0
  9
$PLINEWID
 40
0.0
  9
$SPLFRAME
 70
     0
  9
$SPLINETYPE
 70
     6
  9
$SPLINESEGS
 70
     8
  9
$HANDSEED
  5
1FC
  9
$SURFTAB1
 70
     6
  9
$SURFTAB2
 70
     6
  9
$SURFTYPE
 70
     6
  9
$SURFU
 70
     6
  9
$SURFV
 70
     6
  9
$UCSBASE
  2

  9
$UCSNAME
  2

  9
$UCSORG
 10
0.0
 20
0.0
 30
0.0
  9
$UCSXDIR
 10
1.0
 20
0.0
 30
0.0
  9
$UCSYDIR
 10
0.0
 20
1.0
 30
0.0
  9
$UCSORTHOREF
  2

  9
$UCSORTHOVIEW
 70
     0
  9
$UCSORGTOP
 10
0.0
 20
0.0
 30
0.0
  9
$UCSORGBOTTOM
 10
0.0
 20
0.0
 30
0.0
  9
$UCSORGLEFT
 10
0.0
 20
0.0
 30
0.0
  9
$UCSORGRIGHT
 10
0.0
 20
0.0
 30
0.0
  9
$UCSORGFRONT
 10
0.0
 20
0.0
 30
0.0
  9
$UCSORGBACK
 10
0.0
 20
0.0
 30
0.0
  9
$PUCSBASE
  2

  9
$PUCSNAME
  2

  9
$PUCSORG
 10
0.0
 20
0.0
 30
0.0
  9
$PUCSXDIR
 10
1.0
 20
0.0
 30
0.0
  9
$PUCSYDIR
 10
0.0
 20
1.0
 30
0.0
  9
$PUCSORTHOREF
  2

  9
$PUCSORTHOVIEW
 70
     0
  9
$PUCSORGTOP
 10
0.0
 20
0.0
 30
0.0
  9
$PUCSORGBOTTOM
 10
0.0
 20
0.0
 30
0.0
  9
$PUCSORGLEFT
 10
0.0
 20
0.0
 30
0.0
  9
$PUCSORGRIGHT
 10
0.0
 20
0.0
 30
0.0
  9
$PUCSORGFRONT
 10
0.0
 20
0.0
 30
0.0
  9
$PUCSORGBACK
 10
0.0
 20
0.0
 30
0.0
  9
$USERI1
 70
     0
  9
$USERI2
 70
     0
  9
$USERI3
 70
     0
  9
$USERI4
 70
     0
  9
$USERI5
 70
     0
  9
$USERR1
 40
0.0
  9
$USERR2
 40
0.0
  9
$USERR3
 40
0.0
  9
$USERR4
 40
0.0
  9
$USERR5
 40
0.0
  9
$WORLDVIEW
 70
     1
  9
$SHADEDGE
 70
     3
  9
$SHADEDIF
 70
    70
  9
$TILEMODE
 70
     1
  9
$MAXACTVP
 70
    64
  9
$PINSBASE
 10
0.0
 20
0.0
 30
0.0
  9
$PLIMCHECK
 70
     0
  9
$PEXTMIN
 10
1.0000000000E+20
 20
1.0000000000E+20
 30
1.0000000000E+20
  9
$PEXTMAX
 10
-1.0000000000E+20
 20
-1.0000000000E+20
 30
-1.0000000000E+20
  9
$PLIMMIN
 10
0.0
 20
0.0
  9
$PLIMMAX
 10
420.0
 20
297.0
  9
$UNITMODE
 70
     0
  9
$VISRETAIN
 70
     1
  9
$PLINEGEN
 70
     0
  9
$PSLTSCALE
 70
     1
  9
$TREEDEPTH
 70
  3020
  9
$CMLSTYLE
  2
Standard
  9
$CMLJUST
 70
     0
  9
$CMLSCALE
 40
20.0
  9
$PROXYGRAPHICS
 70
     1
  9
$MEASUREMENT
 70
     1
  9
$CELWEIGHT
370
    -1
  9
$ENDCAPS
280
     0
  9
$JOINSTYLE
280
     0
  9
$LWDISPLAY
290
     1
  9
$INSUNITS
 70
     4
  9
$HYPERLINKBASE
  1

  9
$STYLESHEET
  1

  9
$XEDIT
290
     1
  9
$CEPSNTYPE
380
     0
  9
$PSTYLEMODE
290
     1
  9
$FINGERPRINTGUID
  2
{D28622A5-2BBC-42F4-8D17-CABD86534CAB}
  9
$VERSIONGUID
  2
{FAEB1C32-E019-11D5-929B-00C0DF256EC4}
  9
$EXTNAMES
290
     1
  9
$PSVPSCALE
 40
0.0
  9
$OLESTARTUP
290
     0
  0
ENDSEC
  0
SECTION
  2
CLASSES
  0
CLASS
  1
ACDBDICTIONARYWDFLT
  2
AcDbDictionaryWithDefault
  3
ObjectDBX Classes
 90
        0
280
     0
281
     0
  0
CLASS
  1
ACDBPLACEHOLDER
  2
AcDbPlaceHolder
  3
ObjectDBX Classes
 90
        0
280
     0
281
     0
  0
CLASS
  1
LAYOUT
  2
AcDbLayout
  3
ObjectDBX Classes
 90
        0
280
     0
281
     0
  0
ENDSEC
  0
SECTION
  2
TABLES
  0
TABLE
  2
VPORT
  5
8
330
0
100
AcDbSymbolTable
 70
     1
  0
VPORT
  5
29
330
8
100
AcDbSymbolTableRecord
100
AcDbViewportTableRecord
  2
*Active
 70
     0
 10
0.0
 20
0.0
 11
1.0
 21
1.0
 12
105.0
 22
148.5
 13
0.0
 23
0.0
 14
10.0
 24
10.0
 15
10.0
 25
10.0
 16
0.0
 26
0.0
 36
1.0
 17
0.0
 27
0.0
 37
0.0
 40
297.0
 41
1.9729729729
 42
50.0
 43
0.0
 44
0.0
 50
0.0
 51
0.0
 71
     0
 72
  2000
 73
     1
 74
     3
 75
     0
 76
     0
 77
     0
 78
     0
281
     0
 65
     1
110
0.0
120
0.0
130
0.0
111
1.0
121
0.0
131
0.0
112
0.0
122
1.0
132
0.0
 79
     0
146
0.0
  0
ENDTAB
  0
TABLE
  2
LTYPE
  5
5
330
0
100
AcDbSymbolTable
 70
     6
  0
LTYPE
  5
14
330
5
100
AcDbSymbolTableRecord
100
AcDbLinetypeTableRecord
  2
ByBlock
 70
     0
  3

 72
    65
 73
     0
 40
0.0
  0
LTYPE
  5
15
330
5
100
AcDbSymbolTableRecord
100
AcDbLinetypeTableRecord
  2
ByLayer
 70
     0
  3

 72
    65
 73
     0
 40
0.0
  0
LTYPE
  5
16
330
5
100
AcDbSymbolTableRecord
100
AcDbLinetypeTableRecord
  2
Continuous
 70
     0
  3
Solid line
 72
    65
 73
     0
 40
0.0
  0
LTYPE
  5
2A
330
5
100
AcDbSymbolTableRecord
100
AcDbLinetypeTableRecord
  2
HIDDEN
 70
     0
  3
Hidden __ __ __ __ __ __ __ __ __ __ __ __ __ __
 72
    65
 73
     2
 40
1.905
 49
1.27
 74
     0
 49
-0.635
 74
     0
  0
LTYPE
  5
2B
330
5
100
AcDbSymbolTableRecord
100
AcDbLinetypeTableRecord
  2
PHANTOM
 70
     0
  3
Phantom ______  __  __  ______  __  __  ______
 72
    65
 73
     6
 40
12.7
 49
6.35
 74
     0
 49
-1.27
 74
     0
 49
1.27
 74
     0
 49
-1.27
 74
     0
 49
1.27
 74
     0
 49
-1.27
 74
     0
  0
LTYPE
  5
2C
330
5
100
AcDbSymbolTableRecord
100
AcDbLinetypeTableRecord
  2
CENTER
 70
     0
  3
Center ____ _ ____ _ ____ _ ____ _ ____ _ ____
 72
    65
 73
     4
 40
10.16
 49
6.35
 74
     0
 49
-1.27
 74
     0
 49
1.27
 74
     0
 49
-1.27
 74
     0
  0
LTYPE
  5
2D
330
5
100
AcDbSymbolTableRecord
100
AcDbLinetypeTableRecord
  2
CENTERX2
 70
     0
  3
Center (2x) ________  __  ________  __  _____
 72
    65
 73
     4
 40
20.32
 49
12.7
 74
     0
 49
-2.54
 74
     0
 49
2.54
 74
     0
 49
-2.54
 74
     0
  0
LTYPE
  5
2E
330
5
100
AcDbSymbolTableRecord
100
AcDbLinetypeTableRecord
  2
DOT2
 70
     0
  3
Dot (.5x) ........................................
 72
    65
 73
     2
 40
0.635
 49
0.0
 74
     0
 49
-0.635
 74
     0
  0
ENDTAB
  0
TABLE
  2
LAYER
  5
2
330
0
100
AcDbSymbolTable
 70
     4
  0
LAYER
  5
10
330
2
100
AcDbSymbolTableRecord
100
AcDbLayerTableRecord
  2
0
 70
     0
 62
     7
  6
Continuous
370
    -3
390
F
  0
LAYER
  5
2F
330
2
100
AcDbSymbolTableRecord
100
AcDbLayerTableRecord
  2
SLD-0
 70
     0
 62
     7
  6
Continuous
370
     0
390
F
  0
LAYER
  5
30
330
2
100
AcDbSymbolTableRecord
100
AcDbLayerTableRecord
  2
SLD-DEFPOINTS
 70
     0
 62
     7
  6
Continuous
370
     0
390
F
  0
LAYER
  5
B1
330
2
100
AcDbSymbolTableRecord
100
AcDbLayerTableRecord
  2
Defpoints
 70
     0
 62
     7
  6
Continuous
290
     0
370
    -3
390
F
  0
ENDTAB
  0
TABLE
  2
STYLE
  5
3
330
0
100
AcDbSymbolTable
 70
     4
  0
STYLE
  5
11
330
3
100
AcDbSymbolTableRecord
100
AcDbTextStyleTableRecord
  2
Standard
 70
     0
 40
0.0
 41
1.0
 50
0.0
 71
     0
 42
2.5
  3
txt
  4
bigfont
  0
STYLE
  5
34
330
3
100
AcDbSymbolTableRecord
100
AcDbTextStyleTableRecord
  2
SLDTEXTSTYLE0
 70
     0
 40
0.0
 41
0.7
 50
0.0
 71
     0
 42
0.2
  3
TXT
  4
bigfont
  0
STYLE
  5
46
330
3
100
AcDbSymbolTableRecord
100
AcDbTextStyleTableRecord
  2
SLDTEXTSTYLE1
 70
     0
 40
0.0
 41
0.75
 50
0.0
 71
     0
 42
0.2
  3
TXT
  4
bigfont
  0
STYLE
  5
CC
330
3
100
AcDbSymbolTableRecord
100
AcDbTextStyleTableRecord
  2
SLDTEXTSTYLE2
 70
     0
 40
0.0
 41
0.96
 50
0.0
 71
     0
 42
0.2
  3
TXT
  4
bigfont
  0
ENDTAB
  0
TABLE
  2
VIEW
  5
6
330
0
100
AcDbSymbolTable
 70
     0
  0
ENDTAB
  0
TABLE
  2
UCS
  5
7
330
0
100
AcDbSymbolTable
 70
     0
  0
ENDTAB
  0
TABLE
  2
APPID
  5
9
330
0
100
AcDbSymbolTable
 70
     1
  0
APPID
  5
12
330
9
100
AcDbSymbolTableRecord
100
AcDbRegAppTableRecord
  2
ACAD
 70
     0
  0
ENDTAB
  0
TABLE
  2
DIMSTYLE
  5
A
330
0
100
AcDbSymbolTable
 70
     5
100
AcDbDimStyleTable
  0
DIMSTYLE
105
27
330
A
100
AcDbSymbolTableRecord
100
AcDbDimStyleTableRecord
  2
ISO-25
 70
     0
 41
2.5
 42
0.625
 43
3.75
 44
1.25
 73
     0
 74
     0
 77
     1
 78
     8
140
2.5
141
2.5
143
0.0393700787
147
0.625
171
     3
172
     1
271
     2
272
     2
274
     3
278
    44
283
     0
284
     8
340
11
  0
DIMSTYLE
105
BF
102
{ACAD_REACTORS
330
B0
330
E3
330
112
330
15B
330
173
330
18B
330
1B9
102
}
330
A
100
AcDbSymbolTableRecord
100
AcDbDimStyleTableRecord
  2
SLDDIMSTYLE0
 70
     0
 41
3.0
 44
0.0
 73
     0
 74
     0
 77
     3
 78
    12
140
3.5
147
0.875
173
     1
271
     0
272
     3
284
    12
340
46
341
C0
343
C0
344
C0
  0
DIMSTYLE
105
DB
102
{ACAD_REACTORS
330
CE
102
}
330
A
100
AcDbSymbolTableRecord
100
AcDbDimStyleTableRecord
  2
SLDDIMSTYLE1
 70
     0
 41
3.0
 44
0.0
 78
    12
140
3.5
147
0.875
172
     1
173
     1
271
     0
272
     2
284
    12
340
46
341
37
343
37
344
37
  0
DIMSTYLE
105
107
102
{ACAD_REACTORS
330
FA
330
12E
330
1A2
102
}
330
A
100
AcDbSymbolTableRecord
100
AcDbDimStyleTableRecord
  2
SLDDIMSTYLE2
 70
     0
 41
3.0
 44
0.0
 73
     0
 74
     0
 77
     3
 78
    12
140
3.5
147
0.875
173
     1
271
     1
272
     3
284
    12
340
46
341
C0
343
C0
344
C0
  0
DIMSTYLE
105
150
102
{ACAD_REACTORS
330
146
330
1D3
102
}
330
A
100
AcDbSymbolTableRecord
100
AcDbDimStyleTableRecord
  2
SLDDIMSTYLE3
 70
     0
 41
3.0
 44
0.0
 78
    12
140
3.5
147
0.875
172
     1
173
     1
271
     1
272
     3
284
    12
340
46
341
C0
343
C0
344
C0
  0
ENDTAB
  0
TABLE
  2
BLOCK_RECORD
  5
1
330
0
100
AcDbSymbolTable
 70
    22
  0
BLOCK_RECORD
  5
1F
330
1
100
AcDbSymbolTableRecord
100
AcDbBlockTableRecord
  2
*Model_Space
340
22
  0
BLOCK_RECORD
  5
1B
330
1
100
AcDbSymbolTableRecord
100
AcDbBlockTableRecord
  2
*Paper_Space
340
1E
  0
BLOCK_RECORD
  5
23
330
1
100
AcDbSymbolTableRecord
100
AcDbBlockTableRecord
  2
*Paper_Space0
340
26
  0
BLOCK_RECORD
  5
31
330
1
100
AcDbSymbolTableRecord
100
AcDbBlockTableRecord
  2
注記
340
0
  0
BLOCK_RECORD
  5
37
330
1
100
AcDbSymbolTableRecord
100
AcDbBlockTableRecord
  2
_OPEN30
340
0
102
{BLKREFS
331
D5
331
D4
331
DC
331
1F6
331
1FA
102
}
  0
BLOCK_RECORD
  5
3D
330
1
100
AcDbSymbolTableRecord
100
AcDbBlockTableRecord
  2
NOTE52
340
0
102
{BLKREFS
331
1F7
102
}
  0
BLOCK_RECORD
  5
48
330
1
100
AcDbSymbolTableRecord
100
AcDbBlockTableRecord
  2
SW_CENTERMARK0
340
0
102
{BLKREFS
331
1F8
102
}
  0
BLOCK_RECORD
  5
53
330
1
100
AcDbSymbolTableRecord
100
AcDbBlockTableRecord
  2
SW_CENTERMARK1
340
0
102
{BLKREFS
331
1F9
102
}
  0
BLOCK_RECORD
  5
5E
330
1
100
AcDbSymbolTableRecord
100
AcDbBlockTableRecord
  2
SW_CENTERMARK2
340
0
102
{BLKREFS
331
1FB
102
}
  0
BLOCK_RECORD
  5
B2
330
1
100
AcDbSymbolTableRecord
100
AcDbBlockTableRecord
  2
*D7
340
0
  0
BLOCK_RECORD
  5
C0
330
1
100
AcDbSymbolTableRecord
100
AcDbBlockTableRecord
  2
_None
340
0
102
{BLKREFS
331
B7
331
B6
331
E9
331
E8
331
100
331
FF
331
119
331
118
331
134
331
133
331
14B
331
161
331
160
331
179
331
178
331
191
331
190
331
1A8
331
1A7
331
1BF
331
1BE
331
1D8
102
}
  0
BLOCK_RECORD
  5
CF
330
1
100
AcDbSymbolTableRecord
100
AcDbBlockTableRecord
  2
*D9
340
0
  0
BLOCK_RECORD
  5
E4
330
1
100
AcDbSymbolTableRecord
100
AcDbBlockTableRecord
  2
*D10
340
0
  0
BLOCK_RECORD
  5
FB
330
1
100
AcDbSymbolTableRecord
100
AcDbBlockTableRecord
  2
*D11
340
0
  0
BLOCK_RECORD
  5
113
330
1
100
AcDbSymbolTableRecord
100
AcDbBlockTableRecord
  2
*D12
340
0
  0
BLOCK_RECORD
  5
12F
330
1
100
AcDbSymbolTableRecord
100
AcDbBlockTableRecord
  2
*D13
340
0
  0
BLOCK_RECORD
  5
147
330
1
100
AcDbSymbolTableRecord
100
AcDbBlockTableRecord
  2
*D14
340
0
  0
BLOCK_RECORD
  5
15C
330
1
100
AcDbSymbolTableRecord
100
AcDbBlockTableRecord
  2
*D15
340
0
  0
BLOCK_RECORD
  5
174
330
1
100
AcDbSymbolTableRecord
100
AcDbBlockTableRecord
  2
*D16
340
0
  0
BLOCK_RECORD
  5
18C
330
1
100
AcDbSymbolTableRecord
100
AcDbBlockTableRecord
  2
*D17
340
0
  0
BLOCK_RECORD
  5
1A3
330
1
100
AcDbSymbolTableRecord
100
AcDbBlockTableRecord
  2
*D18
340
0
  0
BLOCK_RECORD
  5
1BA
330
1
100
AcDbSymbolTableRecord
100
AcDbBlockTableRecord
  2
*D19
340
0
  0
BLOCK_RECORD
  5
1D4
330
1
100
AcDbSymbolTableRecord
100
AcDbBlockTableRecord
  2
*D20
340
0
  0
BLOCK_RECORD
  5
1EE
330
1
100
AcDbSymbolTableRecord
100
AcDbBlockTableRecord
  2
SW_NOTE_0
340
0
102
{BLKREFS
331
1F3
102
}
  0
ENDTAB
  0
ENDSEC
  0
SECTION
  2
BLOCKS
  0
BLOCK
  5
20
330
1F
100
AcDbEntity
  8
0
100
AcDbBlockBegin
  2
*Model_Space
 70
     0
 71
     0
 10
0.0
 20
0.0
 30
0.0
  3
*Model_Space
  1

  0
ENDBLK
  5
21
330
1F
100
AcDbEntity
  8
0
100
AcDbBlockEnd
  0
BLOCK
  5
1C
330
1B
100
AcDbEntity
 67
     1
  8
0
100
AcDbBlockBegin
  2
*Paper_Space
 70
     0
 71
     0
 10
0.0
 20
0.0
 30
0.0
  3
*Paper_Space
  1

  0
ENDBLK
  5
1D
330
1B
100
AcDbEntity
 67
     1
  8
0
100
AcDbBlockEnd
  0
BLOCK
  5
24
330
23
100
AcDbEntity
  8
0
100
AcDbBlockBegin
  2
*Paper_Space0
 70
     0
 71
     0
 10
0.0
 20
0.0
 30
0.0
  3
*Paper_Space0
  1

  0
ENDBLK
  5
25
330
23
100
AcDbEntity
  8
0
100
AcDbBlockEnd
  0
BLOCK
  5
32
330
31
100
AcDbEntity
  8
0
100
AcDbBlockBegin
  2
注記
 70
     0
 71
     0
 10
0.0
 20
0.0
 30
0.0
  3
注記
  1

  0
MTEXT
  5
35
330
31
100
AcDbEntity
  8
0
  6
Continuous
 62
     7
370
     0
100
AcDbMText
 10
0.2636785918
 20
9.0739778448
 30
0.0
 40
3.5
 41
0.0
 71
     1
 72
     1
  1
１．特記ナキ角部ハ、バリ　カエリノ無キコト。
  7
SLDTEXTSTYLE0
 73
     1
 44
1.0
  0
MTEXT
  5
36
330
31
100
AcDbEntity
  8
0
  6
Continuous
 62
     7
370
     0
100
AcDbMText
 10
0.2636785918
 20
3.5759549983
 30
0.0
 40
3.5
 41
0.0
 71
     1
 72
     1
  1
２．特記ナキ隅部ハ、Ｒ０．４ＭＡＸトスル。
  7
SLDTEXTSTYLE0
 73
     1
 44
1.0
  0
ENDBLK
  5
33
330
31
100
AcDbEntity
  8
0
100
AcDbBlockEnd
  0
BLOCK
  5
38
330
37
100
AcDbEntity
  8
0
100
AcDbBlockBegin
  2
_OPEN30
 70
     0
 71
     0
 10
0.0
 20
0.0
 30
0.0
  3
_OPEN30
  1

  0
LINE
  5
3A
330
37
100
AcDbEntity
  8
SLD-0
  6
Continuous
100
AcDbLine
 10
-1.0
 20
0.267949
 30
0.0
 11
0.0
 21
0.0
 31
0.0
  0
LINE
  5
3B
330
37
100
AcDbEntity
  8
SLD-0
  6
Continuous
100
AcDbLine
 10
0.0
 20
0.0
 30
0.0
 11
-1.0
 21
-0.267949
 31
0.0
  0
LINE
  5
3C
330
37
100
AcDbEntity
  8
SLD-0
  6
Continuous
100
AcDbLine
 10
0.0
 20
0.0
 30
0.0
 11
-1.0
 21
0.0
 31
0.0
  0
ENDBLK
  5
39
330
37
100
AcDbEntity
  8
0
100
AcDbBlockEnd
  0
BLOCK
  5
3E
330
3D
100
AcDbEntity
  8
0
100
AcDbBlockBegin
  2
NOTE52
 70
     0
 71
     0
 10
0.0
 20
0.0
 30
0.0
  3
NOTE52
  1

  0
LINE
  5
40
330
3D
100
AcDbEntity
  8
SLD-0
  6
Continuous
 62
     7
100
AcDbLine
 10
-4.0729001192
 20
0.0012883194
 30
0.0
 11
0.0
 21
0.0012883194
 31
0.0
  0
LINE
  5
41
330
3D
100
AcDbEntity
  8
SLD-0
  6
Continuous
 62
     7
100
AcDbLine
 10
0.0
 20
0.0012883194
 30
0.0
 11
-4.0729001192
 21
0.0012883194
 31
0.0
  0
LINE
  5
42
330
3D
100
AcDbEntity
  8
SLD-0
  6
Continuous
 62
     7
100
AcDbLine
 10
-4.0729001192
 20
0.0012883194
 30
0.0
 11
0.0
 21
0.0012883194
 31
0.0
  0
LINE
  5
43
330
3D
100
AcDbEntity
  8
SLD-0
  6
Continuous
 62
     7
100
AcDbLine
 10
0.0
 20
0.0012883194
 30
0.0
 11
-4.0729001192
 21
0.0012883194
 31
0.0
  0
LINE
  5
44
330
3D
100
AcDbEntity
  8
SLD-0
  6
Continuous
 62
     7
100
AcDbLine
 10
-4.0729001192
 20
0.0012883194
 30
0.0
 11
0.0
 21
0.0012883194
 31
0.0
  0
LINE
  5
45
330
3D
100
AcDbEntity
  8
SLD-0
  6
Continuous
 62
     7
100
AcDbLine
 10
0.0
 20
0.0012883194
 30
0.0
 11
-4.0729001192
 21
0.0012883194
 31
0.0
  0
MTEXT
  5
47
330
3D
100
AcDbEntity
  8
SLD-0
100
AcDbMText
 10
-4.0700497286
 20
4.5302060795
 30
0.0
 40
3.5
 41
0.0
 71
     1
 72
     1
  1
M6
  7
SLDTEXTSTYLE1
 73
     1
 44
1.0
  0
ENDBLK
  5
3F
330
3D
100
AcDbEntity
  8
0
100
AcDbBlockEnd
  0
BLOCK
  5
49
330
48
100
AcDbEntity
  8
0
100
AcDbBlockBegin
  2
SW_CENTERMARK0
 70
     0
 71
     0
 10
0.0
 20
0.0
 30
0.0
  3
SW_CENTERMARK0
  1

  0
LINE
  5
4B
330
48
100
AcDbEntity
  8
SLD-0
  6
Continuous
 62
     7
100
AcDbLine
 10
83.9195867219
 20
163.5165277672
 30
0.0
 11
83.9195867219
 21
166.0165277672
 31
0.0
  0
LINE
  5
4C
330
48
100
AcDbEntity
  8
SLD-0
  6
Continuous
 62
     7
100
AcDbLine
 10
83.9195867219
 20
163.5165277672
 30
0.0
 11
81.4195867219
 21
163.5165277672
 31
0.0
  0
LINE
  5
4D
330
48
100
AcDbEntity
  8
SLD-0
  6
Continuous
 62
     7
100
AcDbLine
 10
83.9195867219
 20
163.5165277672
 30
0.0
 11
83.9195867219
 21
161.0165277672
 31
0.0
  0
LINE
  5
4E
330
48
100
AcDbEntity
  8
SLD-0
  6
Continuous
 62
     7
100
AcDbLine
 10
83.9195867219
 20
163.5165277672
 30
0.0
 11
86.4195867219
 21
163.5165277672
 31
0.0
  0
LINE
  5
4F
330
48
100
AcDbEntity
  8
SLD-0
  6
Continuous
 62
     7
100
AcDbLine
 10
83.9195867219
 20
168.5165277672
 30
0.0
 11
83.9195867219
 21
176.0165277672
 31
0.0
  0
LINE
  5
50
330
48
100
AcDbEntity
  8
SLD-0
  6
Continuous
 62
     7
100
AcDbLine
 10
78.9195867219
 20
163.5165277672
 30
0.0
 11
71.4195867219
 21
163.5165277672
 31
0.0
  0
LINE
  5
51
330
48
100
AcDbEntity
  8
SLD-0
  6
Continuous
 62
     7
100
AcDbLine
 10
83.9195867219
 20
158.5165277672
 30
0.0
 11
83.9195867219
 21
151.0165277672
 31
0.0
  0
LINE
  5
52
330
48
100
AcDbEntity
  8
SLD-0
  6
Continuous
 62
     7
100
AcDbLine
 10
88.9195867219
 20
163.5165277672
 30
0.0
 11
96.4195867219
 21
163.5165277672
 31
0.0
  0
ENDBLK
  5
4A
330
48
100
AcDbEntity
  8
0
100
AcDbBlockEnd
  0
BLOCK
  5
54
330
53
100
AcDbEntity
  8
0
100
AcDbBlockBegin
  2
SW_CENTERMARK1
 70
     0
 71
     0
 10
0.0
 20
0.0
 30
0.0
  3
SW_CENTERMARK1
  1

  0
LINE
  5
56
330
53
100
AcDbEntity
  8
SLD-0
  6
Continuous
 62
     7
100
AcDbLine
 10
83.9195867219
 20
145.5165277672
 30
0.0
 11
83.9195867219
 21
148.0165277672
 31
0.0
  0
LINE
  5
57
330
53
100
AcDbEntity
  8
SLD-0
  6
Continuous
 62
     7
100
AcDbLine
 10
83.9195867219
 20
145.5165277672
 30
0.0
 11
81.4195867219
 21
145.5165277672
 31
0.0
  0
LINE
  5
58
330
53
100
AcDbEntity
  8
SLD-0
  6
Continuous
 62
     7
100
AcDbLine
 10
83.9195867219
 20
145.5165277672
 30
0.0
 11
83.9195867219
 21
143.0165277672
 31
0.0
  0
LINE
  5
59
330
53
100
AcDbEntity
  8
SLD-0
  6
Continuous
 62
     7
100
AcDbLine
 10
83.9195867219
 20
145.5165277672
 30
0.0
 11
86.4195867219
 21
145.5165277672
 31
0.0
  0
LINE
  5
5A
330
53
100
AcDbEntity
  8
SLD-0
  6
Continuous
 62
     7
100
AcDbLine
 10
83.9195867219
 20
150.5165277672
 30
0.0
 11
83.9195867219
 21
153.5165277672
 31
0.0
  0
LINE
  5
5B
330
53
100
AcDbEntity
  8
SLD-0
  6
Continuous
 62
     7
100
AcDbLine
 10
78.9195867219
 20
145.5165277672
 30
0.0
 11
75.9195867219
 21
145.5165277672
 31
0.0
  0
LINE
  5
5C
330
53
100
AcDbEntity
  8
SLD-0
  6
Continuous
 62
     7
100
AcDbLine
 10
83.9195867219
 20
140.5165277672
 30
0.0
 11
83.9195867219
 21
137.5165277672
 31
0.0
  0
LINE
  5
5D
330
53
100
AcDbEntity
  8
SLD-0
  6
Continuous
 62
     7
100
AcDbLine
 10
88.9195867219
 20
145.5165277672
 30
0.0
 11
91.9195867219
 21
145.5165277672
 31
0.0
  0
ENDBLK
  5
55
330
53
100
AcDbEntity
  8
0
100
AcDbBlockEnd
  0
BLOCK
  5
5F
330
5E
100
AcDbEntity
  8
0
100
AcDbBlockBegin
  2
SW_CENTERMARK2
 70
     0
 71
     0
 10
0.0
 20
0.0
 30
0.0
  3
SW_CENTERMARK2
  1

  0
LINE
  5
61
330
5E
100
AcDbEntity
  8
SLD-0
  6
Continuous
 62
     7
100
AcDbLine
 10
158.6888096977
 20
178.5165277672
 30
0.0
 11
158.6888096977
 21
181.0165277672
 31
0.0
  0
LINE
  5
62
330
5E
100
AcDbEntity
  8
SLD-0
  6
Continuous
 62
     7
100
AcDbLine
 10
158.6888096977
 20
178.5165277672
 30
0.0
 11
156.1888096977
 21
178.5165277672
 31
0.0
  0
LINE
  5
63
330
5E
100
AcDbEntity
  8
SLD-0
  6
Continuous
 62
     7
100
AcDbLine
 10
158.6888096977
 20
178.5165277672
 30
0.0
 11
158.6888096977
 21
176.0165277672
 31
0.0
  0
LINE
  5
64
330
5E
100
AcDbEntity
  8
SLD-0
  6
Continuous
 62
     7
100
AcDbLine
 10
158.6888096977
 20
178.5165277672
 30
0.0
 11
161.1888096977
 21
178.5165277672
 31
0.0
  0
LINE
  5
65
330
5E
100
AcDbEntity
  8
SLD-0
  6
Continuous
 62
     7
100
AcDbLine
 10
158.6888096977
 20
183.5165277672
 30
0.0
 11
158.6888096977
 21
186.5165277672
 31
0.0
  0
LINE
  5
66
330
5E
100
AcDbEntity
  8
SLD-0
  6
Continuous
 62
     7
100
AcDbLine
 10
153.6888096977
 20
178.5165277672
 30
0.0
 11
150.6888096977
 21
178.5165277672
 31
0.0
  0
LINE
  5
67
330
5E
100
AcDbEntity
  8
SLD-0
  6
Continuous
 62
     7
100
AcDbLine
 10
158.6888096977
 20
173.5165277672
 30
0.0
 11
158.6888096977
 21
170.5165277672
 31
0.0
  0
LINE
  5
68
330
5E
100
AcDbEntity
  8
SLD-0
  6
Continuous
 62
     7
100
AcDbLine
 10
163.6888096977
 20
178.5165277672
 30
0.0
 11
166.6888096977
 21
178.5165277672
 31
0.0
  0
ENDBLK
  5
60
330
5E
100
AcDbEntity
  8
0
100
AcDbBlockEnd
  0
BLOCK
  5
BD
330
B2
100
AcDbEntity
  8
0
100
AcDbBlockBegin
  2
*D7
 70
     1
 71
     0
 10
0.0
 20
0.0
 30
0.0
  3
*D7
  1

  0
LINE
  5
C3
330
B2
100
AcDbEntity
  8
SLD-0
 62
     7
100
AcDbLine
 10
70.4195867219
 20
139.5165277672
 30
0.0
 11
39.8210797862
 21
139.5165277672
 31
0.0
  0
LINE
  5
C4
330
B2
100
AcDbEntity
  8
SLD-0
 62
     7
100
AcDbLine
 10
70.4195867219
 20
185.5165277672
 30
0.0
 11
39.8210797862
 21
185.5165277672
 31
0.0
  0
LINE
  5
C5
330
B2
100
AcDbEntity
  8
SLD-0
 62
     7
100
AcDbLine
 10
40.8210797862
 20
139.5165277672
 30
0.0
 11
40.8210797862
 21
185.5165277672
 31
0.0
  0
LINE
  5
C6
330
B2
100
AcDbEntity
  8
SLD-0
 62
     7
100
AcDbLine
 10
41.6249267862
 20
142.5165277672
 30
0.0
 11
40.8210797862
 21
139.5165277672
 31
0.0
  0
LINE
  5
C7
330
B2
100
AcDbEntity
  8
SLD-0
 62
     7
100
AcDbLine
 10
40.8210797862
 20
139.5165277672
 30
0.0
 11
40.0172327862
 21
142.5165277672
 31
0.0
  0
LINE
  5
C8
330
B2
100
AcDbEntity
  8
SLD-0
 62
     7
100
AcDbLine
 10
40.8210797862
 20
139.5165277672
 30
0.0
 11
40.8210797862
 21
142.5165277672
 31
0.0
  0
LINE
  5
C9
330
B2
100
AcDbEntity
  8
SLD-0
 62
     7
100
AcDbLine
 10
40.0172327862
 20
182.5165277672
 30
0.0
 11
40.8210797862
 21
185.5165277672
 31
0.0
  0
LINE
  5
CA
330
B2
100
AcDbEntity
  8
SLD-0
 62
     7
100
AcDbLine
 10
40.8210797862
 20
185.5165277672
 30
0.0
 11
41.6249267862
 21
182.5165277672
 31
0.0
  0
LINE
  5
CB
330
B2
100
AcDbEntity
  8
SLD-0
 62
     7
100
AcDbLine
 10
40.8210797862
 20
185.5165277672
 30
0.0
 11
40.8210797862
 21
182.5165277672
 31
0.0
  0
MTEXT
  5
CD
330
B2
100
AcDbEntity
  8
SLD-0
 62
     7
100
AcDbMText
 10
36.2943859738
 20
160.4800777076
 30
0.1
 40
3.5
 41
0.0
 71
     1
 72
     1
  1
46
  7
SLDTEXTSTYLE2
 11
6.123031769111886E-17
 21
1.0
 31
0.0
 73
     1
 44
1.0
  0
ENDBLK
  5
BE
330
B2
100
AcDbEntity
  8
0
100
AcDbBlockEnd
  0
BLOCK
  5
C1
330
C0
100
AcDbEntity
  8
0
100
AcDbBlockBegin
  2
_None
 70
     0
 71
     0
 10
0.0
 20
0.0
 30
0.0
  3
_None
  1

  0
ENDBLK
  5
C2
330
C0
100
AcDbEntity
  8
0
100
AcDbBlockEnd
  0
BLOCK
  5
D9
330
CF
100
AcDbEntity
  8
0
100
AcDbBlockBegin
  2
*D9
 70
     1
 71
     0
 10
0.0
 20
0.0
 30
0.0
  3
*D9
  1

  0
INSERT
  5
DC
330
CF
100
AcDbEntity
  8
SLD-0
 62
     7
100
AcDbBlockReference
  2
_OPEN30
 10
78.8861324965
 20
172.157380651
 30
0.1
 41
3.0
 42
3.0
 50
300.2215792952
  0
LINE
  5
DD
330
CF
100
AcDbEntity
  8
SLD-0
 62
     7
100
AcDbLine
 10
78.8861324965
 20
172.157380651
 30
0.0
 11
62.9249164608
 21
199.5577529267
 31
0.0
  0
LINE
  5
DE
330
CF
100
AcDbEntity
  8
SLD-0
 62
     7
100
AcDbLine
 10
88.9530409474
 20
154.8756748833
 30
0.0
 11
78.8861324965
 21
172.157380651
 31
0.0
  0
LINE
  5
DF
330
CF
100
AcDbEntity
  8
SLD-0
 62
     7
100
AcDbLine
 10
62.9249164608
 20
199.5577529267
 30
0.0
 11
40.367318542
 21
199.5577529267
 31
0.0
  0
MTEXT
  5
E0
330
CF
100
AcDbEntity
  8
SLD-0
 62
     7
100
AcDbMText
 10
41.954818542
 20
204.3318536461
 30
0.0
 40
3.5
 41
0.0
 71
     1
 72
     1
  1
%%c
  7
SLDTEXTSTYLE2
 73
     1
 44
1.0
  0
MTEXT
  5
E1
330
CF
100
AcDbEntity
  8
SLD-0
 62
     7
100
AcDbMText
 10
46.5904910891
 20
204.3318536461
 30
0.0
 40
3.5
 41
0.0
 71
     1
 72
     1
  1
20
  7
SLDTEXTSTYLE2
 73
     1
 44
1.0
  0
MTEXT
  5
E2
330
CF
100
AcDbEntity
  8
SLD-0
 62
     7
100
AcDbMText
 10
51.5954562031
 20
204.3318536461
 30
0.0
 40
3.5
 41
0.0
 71
     1
 72
     1
  1
　　
  7
SLDTEXTSTYLE2
 73
     1
 44
1.0
  0
ENDBLK
  5
DA
330
CF
100
AcDbEntity
  8
0
100
AcDbBlockEnd
  0
BLOCK
  5
EE
330
E4
100
AcDbEntity
  8
0
100
AcDbBlockBegin
  2
*D10
 70
     1
 71
     0
 10
0.0
 20
0.0
 30
0.0
  3
*D10
  1

  0
LINE
  5
F0
330
E4
100
AcDbEntity
  8
SLD-0
 62
     7
100
AcDbLine
 10
96.4195867219
 20
186.5165277672
 30
0.0
 11
96.4195867219
 21
215.8791315136
 31
0.0
  0
LINE
  5
F1
330
E4
100
AcDbEntity
  8
SLD-0
 62
     7
100
AcDbLine
 10
71.4195867219
 20
186.5165277672
 30
0.0
 11
71.4195867219
 21
215.8791315136
 31
0.0
  0
LINE
  5
F2
330
E4
100
AcDbEntity
  8
SLD-0
 62
     7
100
AcDbLine
 10
96.4195867219
 20
214.8791315136
 30
0.0
 11
71.4195867219
 21
214.8791315136
 31
0.0
  0
LINE
  5
F3
330
E4
100
AcDbEntity
  8
SLD-0
 62
     7
100
AcDbLine
 10
93.4195867219
 20
215.6829785136
 30
0.0
 11
96.4195867219
 21
214.8791315136
 31
0.0
  0
LINE
  5
F4
330
E4
100
AcDbEntity
  8
SLD-0
 62
     7
100
AcDbLine
 10
96.4195867219
 20
214.8791315136
 30
0.0
 11
93.4195867219
 21
214.0752845136
 31
0.0
  0
LINE
  5
F5
330
E4
100
AcDbEntity
  8
SLD-0
 62
     7
100
AcDbLine
 10
96.4195867219
 20
214.8791315136
 30
0.0
 11
93.4195867219
 21
214.8791315136
 31
0.0
  0
LINE
  5
F6
330
E4
100
AcDbEntity
  8
SLD-0
 62
     7
100
AcDbLine
 10
74.4195867219
 20
214.0752845136
 30
0.0
 11
71.4195867219
 21
214.8791315136
 31
0.0
  0
LINE
  5
F7
330
E4
100
AcDbEntity
  8
SLD-0
 62
     7
100
AcDbLine
 10
71.4195867219
 20
214.8791315136
 30
0.0
 11
74.4195867219
 21
215.6829785136
 31
0.0
  0
LINE
  5
F8
330
E4
100
AcDbEntity
  8
SLD-0
 62
     7
100
AcDbLine
 10
71.4195867219
 20
214.8791315136
 30
0.0
 11
74.4195867219
 21
214.8791315136
 31
0.0
  0
MTEXT
  5
F9
330
E4
100
AcDbEntity
  8
SLD-0
 62
     7
100
AcDbMText
 10
81.8831366623
 20
219.405825326
 30
0.1
 40
3.5
 41
0.0
 71
     1
 72
     1
  1
25
  7
SLDTEXTSTYLE2
 73
     1
 44
1.0
  0
ENDBLK
  5
EF
330
E4
100
AcDbEntity
  8
0
100
AcDbBlockEnd
  0
BLOCK
  5
105
330
FB
100
AcDbEntity
  8
0
100
AcDbBlockBegin
  2
*D11
 70
     1
 71
     0
 10
0.0
 20
0.0
 30
0.0
  3
*D11
  1

  0
LINE
  5
108
330
FB
100
AcDbEntity
  8
SLD-0
 62
     7
100
AcDbLine
 10
83.9195867219
 20
173.0165277672
 30
0.0
 11
83.9195867219
 21
204.9793052109
 31
0.0
  0
LINE
  5
109
330
FB
100
AcDbEntity
  8
SLD-0
 62
     7
100
AcDbLine
 10
96.4195867219
 20
186.5165277672
 30
0.0
 11
96.4195867219
 21
204.9793052109
 31
0.0
  0
LINE
  5
10A
330
FB
100
AcDbEntity
  8
SLD-0
 62
     7
100
AcDbLine
 10
83.9195867219
 20
203.9793052109
 30
0.0
 11
96.4195867219
 21
203.9793052109
 31
0.0
  0
LINE
  5
10B
330
FB
100
AcDbEntity
  8
SLD-0
 62
     7
100
AcDbLine
 10
86.9195867219
 20
203.1754582109
 30
0.0
 11
83.9195867219
 21
203.9793052109
 31
0.0
  0
LINE
  5
10C
330
FB
100
AcDbEntity
  8
SLD-0
 62
     7
100
AcDbLine
 10
83.9195867219
 20
203.9793052109
 30
0.0
 11
86.9195867219
 21
204.7831522109
 31
0.0
  0
LINE
  5
10D
330
FB
100
AcDbEntity
  8
SLD-0
 62
     7
100
AcDbLine
 10
83.9195867219
 20
203.9793052109
 30
0.0
 11
86.9195867219
 21
203.9793052109
 31
0.0
  0
LINE
  5
10E
330
FB
100
AcDbEntity
  8
SLD-0
 62
     7
100
AcDbLine
 10
93.4195867219
 20
204.7831522109
 30
0.0
 11
96.4195867219
 21
203.9793052109
 31
0.0
  0
LINE
  5
10F
330
FB
100
AcDbEntity
  8
SLD-0
 62
     7
100
AcDbLine
 10
96.4195867219
 20
203.9793052109
 30
0.0
 11
93.4195867219
 21
203.1754582109
 31
0.0
  0
LINE
  5
110
330
FB
100
AcDbEntity
  8
SLD-0
 62
     7
100
AcDbLine
 10
96.4195867219
 20
203.9793052109
 30
0.0
 11
93.4195867219
 21
203.9793052109
 31
0.0
  0
MTEXT
  5
111
330
FB
100
AcDbEntity
  8
SLD-0
 62
     7
100
AcDbMText
 10
86.0966866027
 20
208.5059990233
 30
0.1
 40
3.5
 41
0.0
 71
     1
 72
     1
  1
12.5
  7
SLDTEXTSTYLE2
 73
     1
 44
1.0
  0
ENDBLK
  5
106
330
FB
100
AcDbEntity
  8
0
100
AcDbBlockEnd
  0
BLOCK
  5
120
330
113
100
AcDbEntity
  8
0
100
AcDbBlockBegin
  2
*D12
 70
     1
 71
     0
 10
0.0
 20
0.0
 30
0.0
  3
*D12
  1

  0
LINE
  5
122
330
113
100
AcDbEntity
  8
SLD-0
 62
     7
100
AcDbLine
 10
83.4195867219
 20
186.5165277672
 30
0.0
 11
83.4195867219
 21
198.8454943021
 31
0.0
  0
LINE
  5
123
330
113
100
AcDbEntity
  8
SLD-0
 62
     7
100
AcDbLine
 10
84.4195867219
 20
186.5165277672
 30
0.0
 11
84.4195867219
 21
198.8454943021
 31
0.0
  0
LINE
  5
124
330
113
100
AcDbEntity
  8
SLD-0
 62
     7
100
AcDbLine
 10
83.4195867219
 20
197.8454943021
 30
0.0
 11
75.5586774575
 21
197.8454943021
 31
0.0
  0
LINE
  5
125
330
113
100
AcDbEntity
  8
SLD-0
 62
     7
100
AcDbLine
 10
83.4195867219
 20
197.8454943021
 30
0.0
 11
84.4195867219
 21
197.8454943021
 31
0.0
  0
LINE
  5
126
330
113
100
AcDbEntity
  8
SLD-0
 62
     7
100
AcDbLine
 10
84.4195867219
 20
197.8454943021
 30
0.0
 11
89.4195867219
 21
197.8454943021
 31
0.0
  0
LINE
  5
127
330
113
100
AcDbEntity
  8
SLD-0
 62
     7
100
AcDbLine
 10
80.4195867219
 20
198.6493413021
 30
0.0
 11
83.4195867219
 21
197.8454943021
 31
0.0
  0
LINE
  5
128
330
113
100
AcDbEntity
  8
SLD-0
 62
     7
100
AcDbLine
 10
83.4195867219
 20
197.8454943021
 30
0.0
 11
80.4195867219
 21
197.0416473021
 31
0.0
  0
LINE
  5
129
330
113
100
AcDbEntity
  8
SLD-0
 62
     7
100
AcDbLine
 10
83.4195867219
 20
197.8454943021
 30
0.0
 11
80.4195867219
 21
197.8454943021
 31
0.0
  0
LINE
  5
12A
330
113
100
AcDbEntity
  8
SLD-0
 62
     7
100
AcDbLine
 10
87.4195867219
 20
197.0416473021
 30
0.0
 11
84.4195867219
 21
197.8454943021
 31
0.0
  0
LINE
  5
12B
330
113
100
AcDbEntity
  8
SLD-0
 62
     7
100
AcDbLine
 10
84.4195867219
 20
197.8454943021
 30
0.0
 11
87.4195867219
 21
198.6493413021
 31
0.0
  0
LINE
  5
12C
330
113
100
AcDbEntity
  8
SLD-0
 62
     7
100
AcDbLine
 10
84.4195867219
 20
197.8454943021
 30
0.0
 11
87.4195867219
 21
197.8454943021
 31
0.0
  0
MTEXT
  5
12D
330
113
100
AcDbEntity
  8
SLD-0
 62
     7
100
AcDbMText
 10
77.1461774575
 20
202.3721881145
 30
0.1
 40
3.5
 41
0.0
 71
     1
 72
     1
  1
1
  7
SLDTEXTSTYLE2
 73
     1
 44
1.0
  0
ENDBLK
  5
121
330
113
100
AcDbEntity
  8
0
100
AcDbBlockEnd
  0
BLOCK
  5
13A
330
12F
100
AcDbEntity
  8
0
100
AcDbBlockBegin
  2
*D13
 70
     1
 71
     0
 10
0.0
 20
0.0
 30
0.0
  3
*D13
  1

  0
LINE
  5
13C
330
12F
100
AcDbEntity
  8
SLD-0
 62
     7
100
AcDbLine
 10
82.4195867219
 20
152.0165277672
 30
0.0
 11
50.4326644839
 21
152.0165277672
 31
0.0
  0
LINE
  5
13D
330
12F
100
AcDbEntity
  8
SLD-0
 62
     7
100
AcDbLine
 10
70.4195867219
 20
185.5165277672
 30
0.0
 11
50.4326644839
 21
185.5165277672
 31
0.0
  0
LINE
  5
13E
330
12F
100
AcDbEntity
  8
SLD-0
 62
     7
100
AcDbLine
 10
51.4326644839
 20
152.0165277672
 30
0.0
 11
51.4326644839
 21
185.5165277672
 31
0.0
  0
LINE
  5
13F
330
12F
100
AcDbEntity
  8
SLD-0
 62
     7
100
AcDbLine
 10
52.2365114839
 20
155.0165277672
 30
0.0
 11
51.4326644839
 21
152.0165277672
 31
0.0
  0
LINE
  5
140
330
12F
100
AcDbEntity
  8
SLD-0
 62
     7
100
AcDbLine
 10
51.4326644839
 20
152.0165277672
 30
0.0
 11
50.6288174839
 21
155.0165277672
 31
0.0
  0
LINE
  5
141
330
12F
100
AcDbEntity
  8
SLD-0
 62
     7
100
AcDbLine
 10
51.4326644839
 20
152.0165277672
 30
0.0
 11
51.4326644839
 21
155.0165277672
 31
0.0
  0
LINE
  5
142
330
12F
100
AcDbEntity
  8
SLD-0
 62
     7
100
AcDbLine
 10
50.6288174839
 20
182.5165277672
 30
0.0
 11
51.4326644839
 21
185.5165277672
 31
0.0
  0
LINE
  5
143
330
12F
100
AcDbEntity
  8
SLD-0
 62
     7
100
AcDbLine
 10
51.4326644839
 20
185.5165277672
 30
0.0
 11
52.2365114839
 21
182.5165277672
 31
0.0
  0
LINE
  5
144
330
12F
100
AcDbEntity
  8
SLD-0
 62
     7
100
AcDbLine
 10
51.4326644839
 20
185.5165277672
 30
0.0
 11
51.4326644839
 21
182.5165277672
 31
0.0
  0
MTEXT
  5
145
330
12F
100
AcDbEntity
  8
SLD-0
 62
     7
100
AcDbMText
 10
46.9059706715
 20
164.693627648
 30
0.1
 40
3.5
 41
0.0
 71
     1
 72
     1
  1
33.5
  7
SLDTEXTSTYLE2
 11
6.123031769111886E-17
 21
1.0
 31
0.0
 73
     1
 44
1.0
  0
ENDBLK
  5
13B
330
12F
100
AcDbEntity
  8
0
100
AcDbBlockEnd
  0
BLOCK
  5
14E
330
147
100
AcDbEntity
  8
0
100
AcDbBlockBegin
  2
*D14
 70
     1
 71
     0
 10
0.0
 20
0.0
 30
0.0
  3
*D14
  1

  0
LINE
  5
151
330
147
100
AcDbEntity
  8
SLD-0
 62
     7
100
AcDbLine
 10
84.8887296314
 20
142.414389469
 30
0.0
 11
91.2124669023
 21
122.1726816843
 31
0.0
  0
LINE
  5
152
330
147
100
AcDbEntity
  8
SLD-0
 62
     7
100
AcDbLine
 10
91.2124669023
 20
122.1726816843
 30
0.0
 11
136.299566664
 21
122.1726816843
 31
0.0
  0
LINE
  5
153
330
147
100
AcDbEntity
  8
SLD-0
 62
     7
100
AcDbLine
 10
85.0160478357
 20
139.3111717721
 30
0.0
 11
84.8887296314
 21
142.414389469
 31
0.0
  0
LINE
  5
154
330
147
100
AcDbEntity
  8
SLD-0
 62
     7
100
AcDbLine
 10
84.8887296314
 20
142.414389469
 30
0.0
 11
86.550598337
 21
139.7905826154
 31
0.0
  0
LINE
  5
155
330
147
100
AcDbEntity
  8
SLD-0
 62
     7
100
AcDbLine
 10
84.8887296314
 20
142.414389469
 30
0.0
 11
85.7833230863
 21
139.5508771938
 31
0.0
  0
MTEXT
  5
156
330
147
100
AcDbEntity
  8
SLD-0
 62
     7
100
AcDbMText
 10
92.6374669023
 20
126.6993754967
 30
0.1
 40
3.5
 41
0.0
 71
     1
 72
     1
  1
%%c
  7
SLDTEXTSTYLE2
 73
     1
 44
1.0
  0
MTEXT
  5
157
330
147
100
AcDbEntity
  8
SLD-0
 62
     7
100
AcDbMText
 10
98.2545555793
 20
126.6993754967
 30
0.1
 40
3.5
 41
0.0
 71
     1
 72
     1
  1
6.5
  7
SLDTEXTSTYLE2
 73
     1
 44
1.0
  0
MTEXT
  5
158
330
147
100
AcDbEntity
  8
SLD-0
 62
     7
100
AcDbMText
 10
104.3639057581
 20
126.6993754967
 30
0.1
 40
3.5
 41
0.0
 71
     1
 72
     1
  1
,
  7
SLDTEXTSTYLE2
 73
     1
 44
1.0
  0
MTEXT
  5
159
330
147
100
AcDbEntity
  8
SLD-0
 62
     7
100
AcDbMText
 10
104.6507112556
 20
126.6993754967
 30
0.1
 40
3.5
 41
0.0
 71
     1
 72
     1
  1
%%c
  7
SLDTEXTSTYLE2
 73
     1
 44
1.0
  0
MTEXT
  5
15A
330
147
100
AcDbEntity
  8
SLD-0
 62
     7
100
AcDbMText
 10
110.2706417707
 20
126.6993754967
 30
0.1
 40
3.5
 41
0.0
 71
     1
 72
     1
  1
11ｻﾞｸﾞﾘ深6.5
  7
SLDTEXTSTYLE2
 73
     1
 44
1.0
  0
ENDBLK
  5
14F
330
147
100
AcDbEntity
  8
0
100
AcDbBlockEnd
  0
BLOCK
  5
167
330
15C
100
AcDbEntity
  8
0
100
AcDbBlockBegin
  2
*D15
 70
     1
 71
     0
 10
0.0
 20
0.0
 30
0.0
  3
*D15
  1

  0
LINE
  5
169
330
15C
100
AcDbEntity
  8
SLD-0
 62
     7
100
AcDbLine
 10
71.4195867219
 20
185.5165277672
 30
0.0
 11
57.6215017617
 21
185.5165277672
 31
0.0
  0
LINE
  5
16A
330
15C
100
AcDbEntity
  8
SLD-0
 62
     7
100
AcDbLine
 10
70.4195867219
 20
163.5165277672
 30
0.0
 11
57.6215017617
 21
163.5165277672
 31
0.0
  0
LINE
  5
16B
330
15C
100
AcDbEntity
  8
SLD-0
 62
     7
100
AcDbLine
 10
58.6215017617
 20
185.5165277672
 30
0.0
 11
58.6215017617
 21
163.5165277672
 31
0.0
  0
LINE
  5
16C
330
15C
100
AcDbEntity
  8
SLD-0
 62
     7
100
AcDbLine
 10
57.8176547617
 20
182.5165277672
 30
0.0
 11
58.6215017617
 21
185.5165277672
 31
0.0
  0
LINE
  5
16D
330
15C
100
AcDbEntity
  8
SLD-0
 62
     7
100
AcDbLine
 10
58.6215017617
 20
185.5165277672
 30
0.0
 11
59.4253487617
 21
182.5165277672
 31
0.0
  0
LINE
  5
16E
330
15C
100
AcDbEntity
  8
SLD-0
 62
     7
100
AcDbLine
 10
58.6215017617
 20
185.5165277672
 30
0.0
 11
58.6215017617
 21
182.5165277672
 31
0.0
  0
LINE
  5
16F
330
15C
100
AcDbEntity
  8
SLD-0
 62
     7
100
AcDbLine
 10
59.4253487617
 20
166.5165277672
 30
0.0
 11
58.6215017617
 21
163.5165277672
 31
0.0
  0
LINE
  5
170
330
15C
100
AcDbEntity
  8
SLD-0
 62
     7
100
AcDbLine
 10
58.6215017617
 20
163.5165277672
 30
0.0
 11
57.8176547617
 21
166.5165277672
 31
0.0
  0
LINE
  5
171
330
15C
100
AcDbEntity
  8
SLD-0
 62
     7
100
AcDbLine
 10
58.6215017617
 20
163.5165277672
 30
0.0
 11
58.6215017617
 21
166.5165277672
 31
0.0
  0
MTEXT
  5
172
330
15C
100
AcDbEntity
  8
SLD-0
 62
     7
100
AcDbMText
 10
54.0948079494
 20
172.4800777076
 30
0.1
 40
3.5
 41
0.0
 71
     1
 72
     1
  1
22
  7
SLDTEXTSTYLE2
 11
6.123031769111886E-17
 21
1.0
 31
0.0
 73
     1
 44
1.0
  0
ENDBLK
  5
168
330
15C
100
AcDbEntity
  8
0
100
AcDbBlockEnd
  0
BLOCK
  5
17F
330
174
100
AcDbEntity
  8
0
100
AcDbBlockBegin
  2
*D16
 70
     1
 71
     0
 10
0.0
 20
0.0
 30
0.0
  3
*D16
  1

  0
LINE
  5
181
330
174
100
AcDbEntity
  8
SLD-0
 62
     7
100
AcDbLine
 10
96.4195867219
 20
185.5165277672
 30
0.0
 11
107.0135044019
 21
185.5165277672
 31
0.0
  0
LINE
  5
182
330
174
100
AcDbEntity
  8
SLD-0
 62
     7
100
AcDbLine
 10
92.9195867219
 20
145.5165277672
 30
0.0
 11
107.0135044019
 21
145.5165277672
 31
0.0
  0
LINE
  5
183
330
174
100
AcDbEntity
  8
SLD-0
 62
     7
100
AcDbLine
 10
106.0135044019
 20
185.5165277672
 30
0.0
 11
106.0135044019
 21
145.5165277672
 31
0.0
  0
LINE
  5
184
330
174
100
AcDbEntity
  8
SLD-0
 62
     7
100
AcDbLine
 10
105.2096574019
 20
182.5165277672
 30
0.0
 11
106.0135044019
 21
185.5165277672
 31
0.0
  0
LINE
  5
185
330
174
100
AcDbEntity
  8
SLD-0
 62
     7
100
AcDbLine
 10
106.0135044019
 20
185.5165277672
 30
0.0
 11
106.8173514019
 21
182.5165277672
 31
0.0
  0
LINE
  5
186
330
174
100
AcDbEntity
  8
SLD-0
 62
     7
100
AcDbLine
 10
106.0135044019
 20
185.5165277672
 30
0.0
 11
106.0135044019
 21
182.5165277672
 31
0.0
  0
LINE
  5
187
330
174
100
AcDbEntity
  8
SLD-0
 62
     7
100
AcDbLine
 10
106.8173514019
 20
148.5165277672
 30
0.0
 11
106.0135044019
 21
145.5165277672
 31
0.0
  0
LINE
  5
188
330
174
100
AcDbEntity
  8
SLD-0
 62
     7
100
AcDbLine
 10
106.0135044019
 20
145.5165277672
 30
0.0
 11
105.2096574019
 21
148.5165277672
 31
0.0
  0
LINE
  5
189
330
174
100
AcDbEntity
  8
SLD-0
 62
     7
100
AcDbLine
 10
106.0135044019
 20
145.5165277672
 30
0.0
 11
106.0135044019
 21
148.5165277672
 31
0.0
  0
MTEXT
  5
18A
330
174
100
AcDbEntity
  8
SLD-0
 62
     7
100
AcDbMText
 10
101.4868105896
 20
163.4800777076
 30
0.1
 40
3.5
 41
0.0
 71
     1
 72
     1
  1
40
  7
SLDTEXTSTYLE2
 11
6.123031769111886E-17
 21
1.0
 31
0.0
 73
     1
 44
1.0
  0
ENDBLK
  5
180
330
174
100
AcDbEntity
  8
0
100
AcDbBlockEnd
  0
BLOCK
  5
196
330
18C
100
AcDbEntity
  8
0
100
AcDbBlockBegin
  2
*D17
 70
     1
 71
     0
 10
0.0
 20
0.0
 30
0.0
  3
*D17
  1

  0
LINE
  5
198
330
18C
100
AcDbEntity
  8
SLD-0
 62
     7
100
AcDbLine
 10
146.1888096977
 20
140.5165277672
 30
0.0
 11
146.1888096977
 21
205.7310173697
 31
0.0
  0
LINE
  5
199
330
18C
100
AcDbEntity
  8
SLD-0
 62
     7
100
AcDbLine
 10
171.1888096977
 20
140.5165277672
 30
0.0
 11
171.1888096977
 21
205.7310173697
 31
0.0
  0
LINE
  5
19A
330
18C
100
AcDbEntity
  8
SLD-0
 62
     7
100
AcDbLine
 10
146.1888096977
 20
204.7310173697
 30
0.0
 11
171.1888096977
 21
204.7310173697
 31
0.0
  0
LINE
  5
19B
330
18C
100
AcDbEntity
  8
SLD-0
 62
     7
100
AcDbLine
 10
149.1888096977
 20
203.9271703697
 30
0.0
 11
146.1888096977
 21
204.7310173697
 31
0.0
  0
LINE
  5
19C
330
18C
100
AcDbEntity
  8
SLD-0
 62
     7
100
AcDbLine
 10
146.1888096977
 20
204.7310173697
 30
0.0
 11
149.1888096977
 21
205.5348643697
 31
0.0
  0
LINE
  5
19D
330
18C
100
AcDbEntity
  8
SLD-0
 62
     7
100
AcDbLine
 10
146.1888096977
 20
204.7310173697
 30
0.0
 11
149.1888096977
 21
204.7310173697
 31
0.0
  0
LINE
  5
19E
330
18C
100
AcDbEntity
  8
SLD-0
 62
     7
100
AcDbLine
 10
168.1888096977
 20
205.5348643697
 30
0.0
 11
171.1888096977
 21
204.7310173697
 31
0.0
  0
LINE
  5
19F
330
18C
100
AcDbEntity
  8
SLD-0
 62
     7
100
AcDbLine
 10
171.1888096977
 20
204.7310173697
 30
0.0
 11
168.1888096977
 21
203.9271703697
 31
0.0
  0
LINE
  5
1A0
330
18C
100
AcDbEntity
  8
SLD-0
 62
     7
100
AcDbLine
 10
171.1888096977
 20
204.7310173697
 30
0.0
 11
168.1888096977
 21
204.7310173697
 31
0.0
  0
MTEXT
  5
1A1
330
18C
100
AcDbEntity
  8
SLD-0
 62
     7
100
AcDbMText
 10
156.6523596381
 20
209.2577111821
 30
0.1
 40
3.5
 41
0.0
 71
     1
 72
     1
  1
25
  7
SLDTEXTSTYLE2
 73
     1
 44
1.0
  0
ENDBLK
  5
197
330
18C
100
AcDbEntity
  8
0
100
AcDbBlockEnd
  0
BLOCK
  5
1AD
330
1A3
100
AcDbEntity
  8
0
100
AcDbBlockBegin
  2
*D18
 70
     1
 71
     0
 10
0.0
 20
0.0
 30
0.0
  3
*D18
  1

  0
LINE
  5
1AF
330
1A3
100
AcDbEntity
  8
SLD-0
 62
     7
100
AcDbLine
 10
171.1888096977
 20
185.5165277672
 30
0.0
 11
171.1888096977
 21
196.664346853
 31
0.0
  0
LINE
  5
1B0
330
1A3
100
AcDbEntity
  8
SLD-0
 62
     7
100
AcDbLine
 10
158.6888096977
 20
187.5165277672
 30
0.0
 11
158.6888096977
 21
196.664346853
 31
0.0
  0
LINE
  5
1B1
330
1A3
100
AcDbEntity
  8
SLD-0
 62
     7
100
AcDbLine
 10
171.1888096977
 20
195.664346853
 30
0.0
 11
158.6888096977
 21
195.664346853
 31
0.0
  0
LINE
  5
1B2
330
1A3
100
AcDbEntity
  8
SLD-0
 62
     7
100
AcDbLine
 10
168.1888096977
 20
196.468193853
 30
0.0
 11
171.1888096977
 21
195.664346853
 31
0.0
  0
LINE
  5
1B3
330
1A3
100
AcDbEntity
  8
SLD-0
 62
     7
100
AcDbLine
 10
171.1888096977
 20
195.664346853
 30
0.0
 11
168.1888096977
 21
194.860499853
 31
0.0
  0
LINE
  5
1B4
330
1A3
100
AcDbEntity
  8
SLD-0
 62
     7
100
AcDbLine
 10
171.1888096977
 20
195.664346853
 30
0.0
 11
168.1888096977
 21
195.664346853
 31
0.0
  0
LINE
  5
1B5
330
1A3
100
AcDbEntity
  8
SLD-0
 62
     7
100
AcDbLine
 10
161.6888096977
 20
194.860499853
 30
0.0
 11
158.6888096977
 21
195.664346853
 31
0.0
  0
LINE
  5
1B6
330
1A3
100
AcDbEntity
  8
SLD-0
 62
     7
100
AcDbLine
 10
158.6888096977
 20
195.664346853
 30
0.0
 11
161.6888096977
 21
196.468193853
 31
0.0
  0
LINE
  5
1B7
330
1A3
100
AcDbEntity
  8
SLD-0
 62
     7
100
AcDbLine
 10
158.6888096977
 20
195.664346853
 30
0.0
 11
161.6888096977
 21
195.664346853
 31
0.0
  0
MTEXT
  5
1B8
330
1A3
100
AcDbEntity
  8
SLD-0
 62
     7
100
AcDbMText
 10
160.8659095785
 20
200.1910406654
 30
0.1
 40
3.5
 41
0.0
 71
     1
 72
     1
  1
12.5
  7
SLDTEXTSTYLE2
 73
     1
 44
1.0
  0
ENDBLK
  5
1AE
330
1A3
100
AcDbEntity
  8
0
100
AcDbBlockEnd
  0
BLOCK
  5
1C5
330
1BA
100
AcDbEntity
  8
0
100
AcDbBlockBegin
  2
*D19
 70
     1
 71
     0
 10
0.0
 20
0.0
 30
0.0
  3
*D19
  1

  0
LINE
  5
1C7
330
1BA
100
AcDbEntity
  8
SLD-0
 62
     7
100
AcDbLine
 10
171.1888096977
 20
185.5165277672
 30
0.0
 11
186.2047394541
 21
185.5165277672
 31
0.0
  0
LINE
  5
1C8
330
1BA
100
AcDbEntity
  8
SLD-0
 62
     7
100
AcDbLine
 10
167.6888096977
 20
178.5165277672
 30
0.0
 11
186.2047394541
 21
178.5165277672
 31
0.0
  0
LINE
  5
1C9
330
1BA
100
AcDbEntity
  8
SLD-0
 62
     7
100
AcDbLine
 10
185.2047394541
 20
185.5165277672
 30
0.0
 11
185.2047394541
 21
190.5165277672
 31
0.0
  0
LINE
  5
1CA
330
1BA
100
AcDbEntity
  8
SLD-0
 62
     7
100
AcDbLine
 10
185.2047394541
 20
185.5165277672
 30
0.0
 11
185.2047394541
 21
178.5165277672
 31
0.0
  0
LINE
  5
1CB
330
1BA
100
AcDbEntity
  8
SLD-0
 62
     7
100
AcDbLine
 10
185.2047394541
 20
178.5165277672
 30
0.0
 11
185.2047394541
 21
173.5165277672
 31
0.0
  0
LINE
  5
1CC
330
1BA
100
AcDbEntity
  8
SLD-0
 62
     7
100
AcDbLine
 10
186.0085864541
 20
188.5165277672
 30
0.0
 11
185.2047394541
 21
185.5165277672
 31
0.0
  0
LINE
  5
1CD
330
1BA
100
AcDbEntity
  8
SLD-0
 62
     7
100
AcDbLine
 10
185.2047394541
 20
185.5165277672
 30
0.0
 11
184.4008924541
 21
188.5165277672
 31
0.0
  0
LINE
  5
1CE
330
1BA
100
AcDbEntity
  8
SLD-0
 62
     7
100
AcDbLine
 10
185.2047394541
 20
185.5165277672
 30
0.0
 11
185.2047394541
 21
188.5165277672
 31
0.0
  0
LINE
  5
1CF
330
1BA
100
AcDbEntity
  8
SLD-0
 62
     7
100
AcDbLine
 10
184.4008924541
 20
175.5165277672
 30
0.0
 11
185.2047394541
 21
178.5165277672
 31
0.0
  0
LINE
  5
1D0
330
1BA
100
AcDbEntity
  8
SLD-0
 62
     7
100
AcDbLine
 10
185.2047394541
 20
178.5165277672
 30
0.0
 11
186.0085864541
 21
175.5165277672
 31
0.0
  0
LINE
  5
1D1
330
1BA
100
AcDbEntity
  8
SLD-0
 62
     7
100
AcDbLine
 10
185.2047394541
 20
178.5165277672
 30
0.0
 11
185.2047394541
 21
175.5165277672
 31
0.0
  0
MTEXT
  5
1D2
330
1BA
100
AcDbEntity
  8
SLD-0
 62
     7
100
AcDbMText
 10
180.6780456418
 20
180.9983027374
 30
0.1
 40
3.5
 41
0.0
 71
     1
 72
     1
  1
7
  7
SLDTEXTSTYLE2
 11
6.123031769111886E-17
 21
1.0
 31
0.0
 73
     1
 44
1.0
  0
ENDBLK
  5
1C6
330
1BA
100
AcDbEntity
  8
0
100
AcDbBlockEnd
  0
BLOCK
  5
1DB
330
1D4
100
AcDbEntity
  8
0
100
AcDbBlockBegin
  2
*D20
 70
     1
 71
     0
 10
0.0
 20
0.0
 30
0.0
  3
*D20
  1

  0
LINE
  5
1DD
330
1D4
100
AcDbEntity
  8
SLD-0
 62
     7
100
AcDbLine
 10
158.0706404645
 20
181.7071964744
 30
0.0
 11
151.9731170026
 21
213.179447528
 31
0.0
  0
LINE
  5
1DE
330
1D4
100
AcDbEntity
  8
SLD-0
 62
     7
100
AcDbLine
 10
151.9731170026
 20
213.179447528
 30
0.0
 11
106.886017241
 21
213.179447528
 31
0.0
  0
LINE
  5
1DF
330
1D4
100
AcDbEntity
  8
SLD-0
 62
     7
100
AcDbLine
 10
158.2891948549
 20
184.8053255837
 30
0.0
 11
158.0706404645
 21
181.7071964744
 31
0.0
  0
LINE
  5
1E0
330
1D4
100
AcDbEntity
  8
SLD-0
 62
     7
100
AcDbLine
 10
158.0706404645
 20
181.7071964744
 30
0.0
 11
156.7108505667
 21
184.4995326707
 31
0.0
  0
LINE
  5
1E1
330
1D4
100
AcDbEntity
  8
SLD-0
 62
     7
100
AcDbLine
 10
158.0706404645
 20
181.7071964744
 30
0.0
 11
157.5000227108
 21
184.6524291272
 31
0.0
  0
MTEXT
  5
1E2
330
1D4
100
AcDbEntity
  8
SLD-0
 62
     7
100
AcDbMText
 10
106.723517241
 20
217.7061413403
 30
0.1
 40
3.5
 41
0.0
 71
     1
 72
     1
  1
%%c
  7
SLDTEXTSTYLE2
 73
     1
 44
1.0
  0
MTEXT
  5
1E3
330
1D4
100
AcDbEntity
  8
SLD-0
 62
     7
100
AcDbMText
 10
112.340605918
 20
217.7061413403
 30
0.1
 40
3.5
 41
0.0
 71
     1
 72
     1
  1
6.5
  7
SLDTEXTSTYLE2
 73
     1
 44
1.0
  0
MTEXT
  5
1E4
330
1D4
100
AcDbEntity
  8
SLD-0
 62
     7
100
AcDbMText
 10
118.4499560968
 20
217.7061413403
 30
0.1
 40
3.5
 41
0.0
 71
     1
 72
     1
  1
,
  7
SLDTEXTSTYLE2
 73
     1
 44
1.0
  0
MTEXT
  5
1E5
330
1D4
100
AcDbEntity
  8
SLD-0
 62
     7
100
AcDbMText
 10
118.7367615942
 20
217.7061413403
 30
0.1
 40
3.5
 41
0.0
 71
     1
 72
     1
  1
%%c
  7
SLDTEXTSTYLE2
 73
     1
 44
1.0
  0
MTEXT
  5
1E6
330
1D4
100
AcDbEntity
  8
SLD-0
 62
     7
100
AcDbMText
 10
124.3566921093
 20
217.7061413403
 30
0.1
 40
3.5
 41
0.0
 71
     1
 72
     1
  1
11ｻﾞｸﾞﾘ深6.5
  7
SLDTEXTSTYLE2
 73
     1
 44
1.0
  0
ENDBLK
  5
1DC
330
1D4
100
AcDbEntity
  8
0
100
AcDbBlockEnd
  0
BLOCK
  5
1EF
330
1EE
100
AcDbEntity
  8
0
100
AcDbBlockBegin
  2
SW_NOTE_0
 70
     0
 71
     0
 10
0.0
 20
0.0
 30
0.0
  3
SW_NOTE_0
  1

  0
MTEXT
  5
1F1
330
1EE
100
AcDbEntity
  8
0
  6
Continuous
 62
     7
370
     0
100
AcDbMText
 10
0.0
 20
4.9260606061
 30
0.0
 40
4.2333333333
 41
0.0
 71
     1
 72
     1
  1
φ20　アクセスロボ
  7
SLDTEXTSTYLE0
 73
     1
 44
1.0
  0
MTEXT
  5
1F2
330
1EE
100
AcDbEntity
  8
0
  6
Continuous
 62
     7
370
     0
100
AcDbMText
 10
5.197102204
 20
-0.7183837702
 30
0.0
 40
4.2333333333
 41
0.0
 71
     1
 72
     1
  1
ブラケット　Ｍ6
  7
SLDTEXTSTYLE0
 73
     1
 44
1.0
  0
ENDBLK
  5
1F0
330
1EE
100
AcDbEntity
  8
0
100
AcDbBlockEnd
  0
ENDSEC
  0
SECTION
  2
ENTITIES
  0
LINE
  5
69
330
1F
100
AcDbEntity
  8
SLD-0
100
AcDbLine
 10
70.0445126979
 20
180.9662028401
 30
0.0
 11
71.4195867219
 21
178.2534235589
 31
0.0
  0
LINE
  5
6A
330
1F
100
AcDbEntity
  8
SLD-0
100
AcDbLine
 10
71.4195867219
 20
178.2534235589
 30
0.0
 11
69.2390207161
 21
180.3735961685
 31
0.0
  0
LINE
  5
6B
330
1F
100
AcDbEntity
  8
SLD-0
100
AcDbLine
 10
69.2390207161
 20
180.3735961685
 30
0.0
 11
70.0445126979
 21
180.9662028401
 31
0.0
  0
LINE
  5
6C
330
1F
100
AcDbEntity
  8
SLD-0
  6
Continuous
 62
     7
100
AcDbLine
 10
84.4195867219
 20
185.5165276479
 30
0.0
 11
95.4195867681
 21
185.5165276479
 31
0.0
  0
LINE
  5
6D
330
1F
100
AcDbEntity
  8
SLD-0
  6
Continuous
 62
     7
100
AcDbLine
 10
84.4195867219
 20
184.516527484
 30
0.0
 11
84.4195867219
 21
185.5165276479
 31
0.0
  0
LINE
  5
6E
330
1F
100
AcDbEntity
  8
SLD-0
  6
Continuous
 62
     7
100
AcDbLine
 10
96.419586932
 20
140.5165277225
 30
0.0
 11
95.419586768
 21
139.5165275586
 31
0.0
  0
LINE
  5
6F
330
1F
100
AcDbEntity
  8
SLD-0
  6
Continuous
 62
     7
100
AcDbLine
 10
71.4195865594
 20
140.5165277225
 30
0.0
 11
71.4195865594
 21
184.516527484
 31
0.0
  0
LINE
  5
70
330
1F
100
AcDbEntity
  8
SLD-0
  6
Continuous
 62
     7
100
AcDbLine
 10
83.4195867219
 20
173.5040199449
 30
0.0
 11
83.4195867219
 21
184.516527484
 31
0.0
  0
LINE
  5
71
330
1F
100
AcDbEntity
  8
SLD-0
  6
Continuous
 62
     7
100
AcDbLine
 10
83.4195866982
 20
152.0165277448
 30
0.0
 11
83.4195867219
 21
153.5290355894
 31
0.0
  0
LINE
  5
72
330
1F
100
AcDbEntity
  8
SLD-0
  6
Continuous
 62
     7
100
AcDbLine
 10
84.4195867457
 20
152.0165277448
 30
0.0
 11
83.4195866982
 21
152.0165277448
 31
0.0
  0
LINE
  5
73
330
1F
100
AcDbEntity
  8
SLD-0
  6
Continuous
 62
     7
100
AcDbLine
 10
84.4195867219
 20
153.5290355894
 30
0.0
 11
84.4195867457
 21
152.0165277448
 31
0.0
  0
LINE
  5
74
330
1F
100
AcDbEntity
  8
SLD-0
  6
Continuous
 62
     7
100
AcDbLine
 10
84.4195867219
 20
184.516527484
 30
0.0
 11
84.4195867219
 21
173.5040199449
 31
0.0
  0
LINE
  5
75
330
1F
100
AcDbEntity
  8
SLD-0
  6
Continuous
 62
     7
100
AcDbLine
 10
95.419586768
 20
139.5165275586
 30
0.0
 11
72.4195867233
 21
139.5165275586
 31
0.0
  0
LINE
  5
76
330
1F
100
AcDbEntity
  8
SLD-0
  6
Continuous
 62
     7
100
AcDbLine
 10
96.419586932
 20
184.516527484
 30
0.0
 11
96.419586932
 21
140.5165277225
 31
0.0
  0
LINE
  5
77
330
1F
100
AcDbEntity
  8
SLD-0
  6
Continuous
 62
     7
100
AcDbLine
 10
72.4195867233
 20
185.5165276479
 30
0.0
 11
83.4195867219
 21
185.5165276479
 31
0.0
  0
LINE
  5
78
330
1F
100
AcDbEntity
  8
SLD-0
  6
Continuous
 62
     7
100
AcDbLine
 10
83.4195867219
 20
185.5165276479
 30
0.0
 11
83.4195867219
 21
184.516527484
 31
0.0
  0
LINE
  5
79
330
1F
100
AcDbEntity
  8
SLD-0
  6
Continuous
 62
     7
100
AcDbLine
 10
71.4195865594
 20
184.516527484
 30
0.0
 11
72.4195867233
 21
185.5165276479
 31
0.0
  0
LINE
  5
7A
330
1F
100
AcDbEntity
  8
SLD-0
  6
Continuous
 62
     7
100
AcDbLine
 10
72.4195867233
 20
139.5165275586
 30
0.0
 11
71.4195865594
 21
140.5165277225
 31
0.0
  0
LINE
  5
7B
330
1F
100
AcDbEntity
  8
SLD-0
  6
Continuous
 62
     7
100
AcDbLine
 10
95.4195867681
 20
185.5165276479
 30
0.0
 11
96.419586932
 21
184.516527484
 31
0.0
  0
LINE
  5
7C
330
1F
100
AcDbEntity
  8
SLD-0
  6
HIDDEN
 62
     7
100
AcDbLine
 10
89.9195867219
 20
184.0165277672
 30
0.0
 11
89.9195867219
 21
173.0165277672
 31
0.0
  0
LINE
  5
7D
330
1F
100
AcDbEntity
  8
SLD-0
  6
HIDDEN
 62
     7
100
AcDbLine
 10
96.4195869082
 20
184.0165283334
 30
0.0
 11
89.9195867219
 21
184.0165277672
 31
0.0
  0
LINE
  5
7E
330
1F
100
AcDbEntity
  8
SLD-0
  6
HIDDEN
 62
     7
100
AcDbLine
 10
89.9195867219
 20
173.0165277672
 30
0.0
 11
96.4195869082
 21
173.0165274617
 31
0.0
  0
LINE
  5
7F
330
1F
100
AcDbEntity
  8
SLD-0
  6
HIDDEN
 62
     7
100
AcDbLine
 10
89.9195867741
 20
181.7665274989
 30
0.0
 11
84.4195867457
 21
181.7665274989
 31
0.0
  0
LINE
  5
80
330
1F
100
AcDbEntity
  8
SLD-0
  6
HIDDEN
 62
     7
100
AcDbLine
 10
84.4195867457
 20
175.2665273648
 30
0.0
 11
89.9195867741
 21
175.2665273648
 31
0.0
  0
LINE
  5
81
330
1F
100
AcDbEntity
  8
SLD-0
  6
HIDDEN
 62
     7
100
AcDbLine
 10
83.4195866982
 20
181.0165278417
 30
0.0
 11
71.4195865357
 21
181.0165278417
 31
0.0
  0
LINE
  5
82
330
1F
100
AcDbEntity
  8
SLD-0
  6
HIDDEN
 62
     7
100
AcDbLine
 10
71.4195865357
 20
176.0165279534
 30
0.0
 11
83.4195866982
 21
176.0165279534
 31
0.0
  0
LINE
  5
83
330
1F
100
AcDbEntity
  8
SLD-0
 62
     7
100
AcDbLine
 10
71.9195867219
 20
140.0165277672
 30
0.0
 11
56.4498386947
 21
124.895372429
 31
0.0
  0
LINE
  5
84
330
1F
100
AcDbEntity
  8
SLD-0
 62
     7
100
AcDbLine
 10
56.4498386947
 20
124.895372429
 30
0.0
 11
64.5514342194
 21
132.8026265662
 31
0.0
  0
LINE
  5
85
330
1F
100
AcDbEntity
  8
SLD-0
100
AcDbLine
 10
69.641766707
 20
180.6698995043
 30
0.0
 11
63.2942971395
 21
189.297605006
 31
0.0
  0
LINE
  5
86
330
1F
100
AcDbEntity
  8
SLD-0
  6
HIDDEN
 62
     7
100
AcDbLine
 10
71.4195865357
 20
175.5165278715
 30
0.0
 11
83.4195866982
 21
175.5165278715
 31
0.0
  0
LINE
  5
87
330
1F
100
AcDbEntity
  8
SLD-0
  6
HIDDEN
 62
     7
100
AcDbLine
 10
83.4195866982
 20
181.5165269923
 30
0.0
 11
71.4195865357
 21
181.5165269923
 31
0.0
  0
LINE
  5
88
330
1F
100
AcDbEntity
  8
SLD-0
  6
CENTERX2
 62
     7
100
AcDbLine
 10
69.4195867219
 20
178.5165277672
 30
0.0
 11
98.4195867219
 21
178.5165277672
 31
0.0
  0
LINE
  5
89
330
1F
100
AcDbEntity
  8
SLD-0
  6
Continuous
 62
     7
100
AcDbLine
 10
171.1888098839
 20
184.516527484
 30
0.0
 11
171.188809884
 21
140.5165277225
 31
0.0
  0
LINE
  5
8A
330
1F
100
AcDbEntity
  8
SLD-0
  6
Continuous
 62
     7
100
AcDbLine
 10
147.1888096753
 20
185.5165276479
 30
0.0
 11
146.1888095114
 21
184.516527484
 31
0.0
  0
LINE
  5
8B
330
1F
100
AcDbEntity
  8
SLD-0
  6
Continuous
 62
     7
100
AcDbLine
 10
170.18880972
 20
185.5165276479
 30
0.0
 11
171.1888098839
 21
184.516527484
 31
0.0
  0
LINE
  5
8C
330
1F
100
AcDbEntity
  8
SLD-0
  6
Continuous
 62
     7
100
AcDbLine
 10
146.1888095114
 20
140.5165277225
 30
0.0
 11
146.1888095114
 21
184.516527484
 31
0.0
  0
LINE
  5
8D
330
1F
100
AcDbEntity
  8
SLD-0
  6
Continuous
 62
     7
100
AcDbLine
 10
147.1888096753
 20
185.5165276479
 30
0.0
 11
170.18880972
 21
185.5165276479
 31
0.0
  0
LINE
  5
8E
330
1F
100
AcDbEntity
  8
SLD-0
  6
Continuous
 62
     7
100
AcDbLine
 10
170.1888097201
 20
139.5165275586
 30
0.0
 11
171.188809884
 21
140.5165277225
 31
0.0
  0
LINE
  5
8F
330
1F
100
AcDbEntity
  8
SLD-0
  6
Continuous
 62
     7
100
AcDbLine
 10
170.1888097201
 20
139.5165275586
 30
0.0
 11
147.1888096754
 21
139.5165275586
 31
0.0
  0
LINE
  5
90
330
1F
100
AcDbEntity
  8
SLD-0
  6
Continuous
 62
     7
100
AcDbLine
 10
146.1888095114
 20
140.5165277225
 30
0.0
 11
147.1888096754
 21
139.5165275586
 31
0.0
  0
LINE
  5
91
330
1F
100
AcDbEntity
  8
SLD-0
  6
HIDDEN
 62
     7
100
AcDbLine
 10
152.6888096977
 20
145.5165277672
 30
0.0
 11
152.6888096977
 21
151.0165277672
 31
0.0
  0
LINE
  5
92
330
1F
100
AcDbEntity
  8
SLD-0
  6
HIDDEN
 62
     7
100
AcDbLine
 10
152.6888096977
 20
140.0165277672
 30
0.0
 11
152.6888096977
 21
145.5165277672
 31
0.0
  0
LINE
  5
93
330
1F
100
AcDbEntity
  8
SLD-0
  6
HIDDEN
 62
     7
100
AcDbLine
 10
146.1888095114
 20
153.5290356529
 30
0.0
 11
171.1888098839
 21
153.5290356529
 31
0.0
  0
LINE
  5
94
330
1F
100
AcDbEntity
  8
SLD-0
  6
HIDDEN
 62
     7
100
AcDbLine
 10
146.1888095114
 20
152.0165277448
 30
0.0
 11
171.1888098839
 21
152.0165277448
 31
0.0
  0
LINE
  5
95
330
1F
100
AcDbEntity
  8
SLD-0
  6
HIDDEN
 62
     7
100
AcDbLine
 10
171.1888098839
 20
173.5040198815
 30
0.0
 11
146.1888095114
 21
173.5040198815
 31
0.0
  0
LINE
  5
96
330
1F
100
AcDbEntity
  8
SLD-0
  6
HIDDEN
 62
     7
100
AcDbLine
 10
146.6888095934
 20
140.0165285718
 30
0.0
 11
152.6888096977
 21
140.0165277672
 31
0.0
  0
LINE
  5
97
330
1F
100
AcDbEntity
  8
SLD-0
  6
HIDDEN
 62
     7
100
AcDbLine
 10
152.6888096977
 20
151.0165277672
 30
0.0
 11
146.1888095114
 21
151.0165275809
 31
0.0
  0
LINE
  5
98
330
1F
100
AcDbEntity
  8
SLD-0
  6
HIDDEN
 62
     7
100
AcDbLine
 10
152.6888096455
 20
142.2665275436
 30
0.0
 11
171.1888098839
 21
142.2665275436
 31
0.0
  0
LINE
  5
99
330
1F
100
AcDbEntity
  8
SLD-0
  6
HIDDEN
 62
     7
100
AcDbLine
 10
171.1888098839
 20
148.7665276778
 30
0.0
 11
152.6888096455
 21
148.7665276778
 31
0.0
  0
LINE
  5
9A
330
1F
100
AcDbEntity
  8
SLD-0
 62
     7
100
AcDbLine
 10
170.6888096977
 20
140.0165277672
 30
0.0
 11
175.8371339609
 21
135.451996702
 31
0.0
  0
LINE
  5
9B
330
1F
100
AcDbEntity
  8
SLD-0
 62
     7
100
AcDbLine
 10
175.8371339609
 20
135.451996702
 30
0.0
 11
184.3359793719
 21
127.9733507873
 31
0.0
  0
LINE
  5
9C
330
1F
100
AcDbEntity
  8
SLD-0
  6
CENTERX2
 62
     7
100
AcDbLine
 10
173.1888096977
 20
163.5165277672
 30
0.0
 11
144.1888096977
 21
163.5165277672
 31
0.0
  0
LINE
  5
9D
330
1F
100
AcDbEntity
  8
SLD-0
  6
CENTERX2
 62
     7
100
AcDbLine
 10
173.1888096977
 20
145.5165277672
 30
0.0
 11
152.6888096977
 21
145.5165277672
 31
0.0
  0
LINE
  5
9E
330
1F
100
AcDbEntity
  8
SLD-0
  6
CENTERX2
 62
     7
100
AcDbLine
 10
152.6888096977
 20
145.5165277672
 30
0.0
 11
144.1888096977
 21
145.5165277672
 31
0.0
  0
LINE
  5
9F
330
1F
100
AcDbEntity
  8
0
  6
Continuous
 62
     7
370
     0
100
AcDbLine
 10
20.2604743903
 20
285.0
 30
0.0
 11
196.7604743903
 21
285.0
 31
0.0
  0
LINE
  5
A0
330
1F
100
AcDbEntity
  8
0
  6
Continuous
 62
     7
370
     0
100
AcDbLine
 10
20.2604743903
 20
285.0
 30
0.0
 11
20.2604743903
 21
10.0
 31
0.0
  0
LINE
  5
A1
330
1F
100
AcDbEntity
  8
0
  6
Continuous
 62
     7
370
     0
100
AcDbLine
 10
20.2604743903
 20
10.0
 30
0.0
 11
196.7604743903
 21
10.0
 31
0.0
  0
LINE
  5
A2
330
1F
100
AcDbEntity
  8
0
  6
Continuous
 62
     7
370
     0
100
AcDbLine
 10
196.7604743903
 20
285.0
 30
0.0
 11
196.7604743903
 21
10.0
 31
0.0
  0
LINE
  5
A3
330
1F
100
AcDbEntity
  8
0
  6
Continuous
 62
     7
370
     0
100
AcDbLine
 10
127.0104743903
 20
50.75
 30
0.0
 11
196.7604743903
 21
50.75
 31
0.0
  0
LINE
  5
A4
330
1F
100
AcDbEntity
  8
0
  6
Continuous
 62
     7
370
     0
100
AcDbLine
 10
127.0104743903
 20
50.75
 30
0.0
 11
127.0104743903
 21
10.0
 31
0.0
  0
LINE
  5
A5
330
1F
100
AcDbEntity
  8
0
  6
Continuous
 62
     7
370
     0
100
AcDbLine
 10
127.0104743903
 20
22.75
 30
0.0
 11
196.7604743903
 21
22.75
 31
0.0
  0
LINE
  5
A6
330
1F
100
AcDbEntity
  8
0
  6
Continuous
 62
     7
370
     0
100
AcDbLine
 10
127.0104743903
 20
36.75
 30
0.0
 11
196.7604743903
 21
36.75
 31
0.0
  0
ARC
  5
A7
330
1F
100
AcDbEntity
  8
SLD-0
  6
Continuous
 62
     7
100
AcDbCircle
 10
83.9195867219
 20
145.5165277672
 30
0.0
 40
5.500000000000037
100
AcDbArc
 50
294.6199773287
 51
245.3800226713
  0
ARC
  5
A8
330
1F
100
AcDbEntity
  8
SLD-0
  6
Continuous
 62
     7
100
AcDbCircle
 10
83.9195867219
 20
163.5165277672
 30
0.0
 40
10.00000000003089
100
AcDbArc
 50
272.8659839826
 51
87.1340160174
  0
ARC
  5
A9
330
1F
100
AcDbEntity
  8
SLD-0
  6
Continuous
 62
     7
100
AcDbCircle
 10
83.9195867219
 20
163.5165277672
 30
0.0
 40
10.00000000003089
100
AcDbArc
 50
92.8659839826
 51
267.1340160174
  0
ARC
  5
AA
330
1F
100
AcDbEntity
  8
SLD-0
  6
Continuous
 62
     7
100
AcDbCircle
 10
83.9195867219
 20
145.5165277672
 30
0.0
 40
5.500000000000037
100
AcDbArc
 50
245.3800226713
 51
294.6199773287
  0
CIRCLE
  5
AB
330
1F
100
AcDbEntity
  8
SLD-0
  6
Continuous
 62
     7
100
AcDbCircle
 10
83.9195867219
 20
145.5165277672
 30
0.0
 40
3.25
  0
CIRCLE
  5
AC
330
1F
100
AcDbEntity
  8
SLD-0
  6
Continuous
 62
     7
100
AcDbCircle
 10
158.6888096977
 20
178.5165277672
 30
0.0
 40
5.500000000000028
  0
CIRCLE
  5
AD
330
1F
100
AcDbEntity
  8
SLD-0
  6
Continuous
 62
     7
100
AcDbCircle
 10
158.6888096977
 20
178.5165277672
 30
0.0
 40
3.250000000000028
  0
CIRCLE
  5
AE
330
1F
100
AcDbEntity
  8
SLD-0
  6
Continuous
 62
     7
100
AcDbCircle
 10
158.6888096977
 20
178.5165277672
 30
0.0
 40
2.500000000000028
  0
CIRCLE
  5
AF
330
1F
100
AcDbEntity
  8
SLD-0
 62
     7
100
AcDbCircle
 10
158.6888096977
 20
178.5165277672
 30
0.0
 40
3.000000026099997
  0
DIMENSION
  5
B0
330
1F
100
AcDbEntity
  8
SLD-0
 62
     7
100
AcDbDimension
  2
*D7
 10
40.8210797862
 20
139.5165277672
 30
0.0
 11
40.8210797862
 21
162.5165277672
 31
0.0
 70
   160
 71
     1
 42
46.0
  3
SLDDIMSTYLE0
100
AcDbAlignedDimension
 13
71.4195867219
 23
185.5165277672
 33
0.0
 14
71.4195867219
 24
139.5165277672
 34
0.0
 50
90.0
100
AcDbRotatedDimension
1001
ACAD
1000
DSTYLE
1002
{
1070
    77
1070
     3
1070
   143
1040
0.0393700787
1070
    41
1040
3.0
1070
    44
1040
1.0
1070
    42
1040
1.0
1070
   147
1040
1.524
1070
    73
1070
     0
1070
    74
1070
     0
1070
   140
1040
3.5
1070
   284
1070
    12
1070
    78
1070
    12
1002
}
  0
DIMENSION
  5
CE
330
1F
100
AcDbEntity
  8
SLD-0
 62
     7
100
AcDbDimension
  2
*D9
 10
88.9530409474
 20
154.8756748833
 30
0.0
 11
50.8523675014
 21
201.9971855332
 31
0.0
 70
   163
  1
<>　　
 71
     1
 42
20.0
  3
SLDDIMSTYLE1
100
AcDbDiametricDimension
 15
78.8861324965
 25
172.157380651
 35
0.0
 40
0.0
1001
ACAD
1000
DSTYLE
1002
{
1070
    77
1070
     0
1070
   143
1040
0.0393700787
1070
    41
1040
3.0
1070
    44
1040
1.0
1070
    42
1040
1.0
1070
   147
1040
1.524
1070
    73
1070
     1
1070
    74
1070
     1
1070
   140
1040
3.5
1070
   284
1070
    12
1070
    78
1070
    12
1002
}
  0
DIMENSION
  5
E3
330
1F
100
AcDbEntity
  8
SLD-0
 62
     7
100
AcDbDimension
  2
*D10
 10
96.4195867219
 20
214.8791315136
 30
0.0
 11
83.9195867219
 21
214.8791315136
 31
0.0
 70
   160
 71
     1
 42
25.0
  3
SLDDIMSTYLE0
100
AcDbAlignedDimension
 13
71.4195867219
 23
185.5165277672
 33
0.0
 14
96.4195867219
 24
185.5165277672
 34
0.0
100
AcDbRotatedDimension
1001
ACAD
1000
DSTYLE
1002
{
1070
    77
1070
     3
1070
   143
1040
0.0393700787
1070
    41
1040
3.0
1070
    44
1040
1.0
1070
    42
1040
1.0
1070
   147
1040
1.524
1070
    73
1070
     0
1070
    74
1070
     0
1070
   140
1040
3.5
1070
   284
1070
    12
1070
    78
1070
    12
1002
}
  0
DIMENSION
  5
FA
330
1F
100
AcDbEntity
  8
SLD-0
 62
     7
100
AcDbDimension
  2
*D11
 10
83.9195867219
 20
203.9793052109
 30
0.0
 11
90.1695867219
 21
203.9793052109
 31
0.0
 70
   160
 71
     1
 42
12.5
  3
SLDDIMSTYLE2
100
AcDbAlignedDimension
 13
96.4195867219
 23
185.5165277672
 33
0.0
 14
83.9195867219
 24
163.5165277672
 34
0.0
100
AcDbRotatedDimension
1001
ACAD
1000
DSTYLE
1002
{
1070
    77
1070
     3
1070
   143
1040
0.0393700787
1070
    41
1040
3.0
1070
    44
1040
1.0
1070
    42
1040
1.0
1070
   147
1040
1.524
1070
    73
1070
     0
1070
    74
1070
     0
1070
   140
1040
3.5
1070
   284
1070
    12
1070
    78
1070
    12
1002
}
  0
DIMENSION
  5
112
330
1F
100
AcDbEntity
  8
SLD-0
 62
     7
100
AcDbDimension
  2
*D12
 10
83.4195867219
 20
197.8454943021
 30
0.0
 11
78.1644024873
 21
197.8454943021
 31
0.0
 70
   160
 71
     1
 42
1.0
  3
SLDDIMSTYLE0
100
AcDbAlignedDimension
 13
84.4195867219
 23
185.5165277672
 33
0.0
 14
83.4195867219
 24
185.5165277672
 34
0.0
100
AcDbRotatedDimension
1001
ACAD
1000
DSTYLE
1002
{
1070
    77
1070
     3
1070
   143
1040
0.0393700787
1070
    41
1040
3.0
1070
    44
1040
1.0
1070
    42
1040
1.0
1070
   147
1040
1.524
1070
    73
1070
     0
1070
    74
1070
     0
1070
   140
1040
3.5
1070
   284
1070
    12
1070
    78
1070
    12
1002
}
  0
DIMENSION
  5
12E
330
1F
100
AcDbEntity
  8
SLD-0
 62
     7
100
AcDbDimension
  2
*D13
 10
51.4326644839
 20
152.0165277672
 30
0.0
 11
51.4326644839
 21
168.7665277672
 31
0.0
 70
   160
 71
     1
 42
33.5
  3
SLDDIMSTYLE2
100
AcDbAlignedDimension
 13
71.4195867219
 23
185.5165277672
 33
0.0
 14
83.4195867219
 24
152.0165277672
 34
0.0
 50
90.0
100
AcDbRotatedDimension
1001
ACAD
1000
DSTYLE
1002
{
1070
    77
1070
     3
1070
   143
1040
0.0393700787
1070
    41
1040
3.0
1070
    44
1040
1.0
1070
    42
1040
1.0
1070
   147
1040
1.524
1070
    73
1070
     0
1070
    74
1070
     0
1070
   140
1040
3.5
1070
   284
1070
    12
1070
    78
1070
    12
1002
}
  0
DIMENSION
  5
146
330
1F
100
AcDbEntity
  8
SLD-0
 62
     7
100
AcDbDimension
  2
*D14
 10
3.2472588678
 20
5.6307454988
 30
0.0
 11
114.5497667832
 21
-5.1976121507
 31
0.0
 70
   163
  1
<>,%%c11ｻﾞｸﾞﾘ深6.5
 71
     1
 42
6.4999988482
  3
SLDDIMSTYLE3
100
AcDbDiametricDimension
 15
0.0
 25
0.0
 35
0.0
 40
0.0
1001
ACAD
1000
DSTYLE
1002
{
1070
    77
1070
     0
1070
   143
1040
0.0393700787
1070
    41
1040
3.0
1070
    44
1040
1.0
1070
    42
1040
1.0
1070
   147
1040
1.524
1070
    73
1070
     1
1070
    74
1070
     1
1070
   140
1040
3.5
1070
   284
1070
    12
1070
    78
1070
    12
1002
}
  0
DIMENSION
  5
15B
330
1F
100
AcDbEntity
  8
SLD-0
 62
     7
100
AcDbDimension
  2
*D15
 10
58.6215017617
 20
185.5165277672
 30
0.0
 11
58.6215017617
 21
174.5165277672
 31
0.0
 70
   160
 71
     1
 42
22.0
  3
SLDDIMSTYLE0
100
AcDbAlignedDimension
 13
71.4195867219
 23
163.5165277672
 33
0.0
 14
72.4195867219
 24
185.5165277672
 34
0.0
 50
90.0
100
AcDbRotatedDimension
1001
ACAD
1000
DSTYLE
1002
{
1070
    77
1070
     3
1070
   143
1040
0.0393700787
1070
    41
1040
3.0
1070
    44
1040
1.0
1070
    42
1040
1.0
1070
   147
1040
1.524
1070
    73
1070
     0
1070
    74
1070
     0
1070
   140
1040
3.5
1070
   284
1070
    12
1070
    78
1070
    12
1002
}
  0
DIMENSION
  5
173
330
1F
100
AcDbEntity
  8
SLD-0
 62
     7
100
AcDbDimension
  2
*D16
 10
106.0135044019
 20
185.5165277672
 30
0.0
 11
106.0135044019
 21
165.5165277672
 31
0.0
 70
   160
 71
     1
 42
40.0
  3
SLDDIMSTYLE0
100
AcDbAlignedDimension
 13
91.9195867219
 23
145.5165277672
 33
0.0
 14
95.4195867219
 24
185.5165277672
 34
0.0
 50
90.0
100
AcDbRotatedDimension
1001
ACAD
1000
DSTYLE
1002
{
1070
    77
1070
     3
1070
   143
1040
0.0393700787
1070
    41
1040
3.0
1070
    44
1040
1.0
1070
    42
1040
1.0
1070
   147
1040
1.524
1070
    73
1070
     0
1070
    74
1070
     0
1070
   140
1040
3.5
1070
   284
1070
    12
1070
    78
1070
    12
1002
}
  0
DIMENSION
  5
18B
330
1F
100
AcDbEntity
  8
SLD-0
 62
     7
100
AcDbDimension
  2
*D17
 10
146.1888096977
 20
204.7310173697
 30
0.0
 11
158.6888096977
 21
204.7310173697
 31
0.0
 70
   160
 71
     1
 42
25.0
  3
SLDDIMSTYLE0
100
AcDbAlignedDimension
 13
171.1888096977
 23
139.5165277672
 33
0.0
 14
146.1888096977
 24
139.5165277672
 34
0.0
100
AcDbRotatedDimension
1001
ACAD
1000
DSTYLE
1002
{
1070
    77
1070
     3
1070
   143
1040
0.0393700787
1070
    41
1040
3.0
1070
    44
1040
1.0
1070
    42
1040
1.0
1070
   147
1040
1.524
1070
    73
1070
     0
1070
    74
1070
     0
1070
   140
1040
3.5
1070
   284
1070
    12
1070
    78
1070
    12
1002
}
  0
DIMENSION
  5
1A2
330
1F
100
AcDbEntity
  8
SLD-0
 62
     7
100
AcDbDimension
  2
*D18
 10
171.1888096977
 20
195.664346853
 30
0.0
 11
164.9388096977
 21
195.664346853
 31
0.0
 70
   160
 71
     1
 42
12.5
  3
SLDDIMSTYLE2
100
AcDbAlignedDimension
 13
158.6888096977
 23
186.5165277672
 33
0.0
 14
171.1888096977
 24
184.5165277672
 34
0.0
100
AcDbRotatedDimension
1001
ACAD
1000
DSTYLE
1002
{
1070
    77
1070
     3
1070
   143
1040
0.0393700787
1070
    41
1040
3.0
1070
    44
1040
1.0
1070
    42
1040
1.0
1070
   147
1040
1.524
1070
    73
1070
     0
1070
    74
1070
     0
1070
   140
1040
3.5
1070
   284
1070
    12
1070
    78
1070
    12
1002
}
  0
DIMENSION
  5
1B9
330
1F
100
AcDbEntity
  8
SLD-0
 62
     7
100
AcDbDimension
  2
*D19
 10
185.2047394541
 20
185.5165277672
 30
0.0
 11
185.2047394541
 21
182.0165277672
 31
0.0
 70
   160
 71
     1
 42
7.0
  3
SLDDIMSTYLE0
100
AcDbAlignedDimension
 13
166.6888096977
 23
178.5165277672
 33
0.0
 14
170.1888096977
 24
185.5165277672
 34
0.0
 50
90.0
100
AcDbRotatedDimension
1001
ACAD
1000
DSTYLE
1002
{
1070
    77
1070
     3
1070
   143
1040
0.0393700787
1070
    41
1040
3.0
1070
    44
1040
1.0
1070
    42
1040
1.0
1070
   147
1040
1.524
1070
    73
1070
     0
1070
    74
1070
     0
1070
   140
1040
3.5
1070
   284
1070
    12
1070
    78
1070
    12
1002
}
  0
DIMENSION
  5
1D3
330
1F
100
AcDbEntity
  8
SLD-0
 62
     7
100
AcDbDimension
  2
*D20
 10
4.3184778534
 20
4.8580594504
 30
0.0
 11
128.6358171218
 21
-4.4843629626
 31
0.0
 70
   163
  1
<>,%%c11ｻﾞｸﾞﾘ深6.5
 71
     1
 42
6.4999994303
  3
SLDDIMSTYLE3
100
AcDbDiametricDimension
 15
0.0
 25
0.0
 35
0.0
 40
0.0
1001
ACAD
1000
DSTYLE
1002
{
1070
    77
1070
     0
1070
   143
1040
0.0393700787
1070
    41
1040
3.0
1070
    44
1040
1.0
1070
    42
1040
1.0
1070
   147
1040
1.524
1070
    73
1070
     1
1070
    74
1070
     1
1070
   140
1040
3.5
1070
   284
1070
    12
1070
    78
1070
    12
1002
}
  0
MTEXT
  5
1E7
330
1F
100
AcDbEntity
  8
SLD-0
 62
     7
100
AcDbMText
 10
54.4238064594
 20
129.2440203252
 30
0.0
 40
3.5
 41
0.0
 71
     1
 72
     1
  1
4-
  7
SLDTEXTSTYLE1
 11
0.7156380603800809
 21
0.6984713068805588
 31
0.0
 73
     1
 44
1.0
  0
MTEXT
  5
1E8
330
1F
100
AcDbEntity
  8
SLD-0
 62
     7
100
AcDbMText
 10
57.3385288009
 20
132.0888241942
 30
0.0
 40
3.5
 41
0.0
 71
     1
 72
     1
  1
C
  7
SLDTEXTSTYLE1
 11
0.7156380603800809
 21
0.6984713068805588
 31
0.0
 73
     1
 44
1.0
  0
MTEXT
  5
1E9
330
1F
100
AcDbEntity
  8
SLD-0
 62
     7
100
AcDbMText
 10
58.7958899716
 20
133.5112261287
 30
0.0
 40
3.5
 41
0.0
 71
     1
 72
     1
  1
1
  7
SLDTEXTSTYLE1
 11
0.7156380603800809
 21
0.6984713068805588
 31
0.0
 73
     1
 44
1.0
  0
MTEXT
  5
1EA
330
1F
100
AcDbEntity
  8
SLD-0
 62
     7
100
AcDbMText
 10
180.0196225837
 20
137.8019613962
 30
0.0
 40
3.5
 41
0.0
 71
     1
 72
     1
  1
4-
  7
SLDTEXTSTYLE1
 11
0.7507283259141246
 21
-0.6606110661124107
 31
0.0
 73
     1
 44
1.0
  0
MTEXT
  5
1EB
330
1F
100
AcDbEntity
  8
SLD-0
 62
     7
100
AcDbMText
 10
183.0772640718
 20
135.1113585063
 30
0.0
 40
3.5
 41
0.0
 71
     1
 72
     1
  1
C
  7
SLDTEXTSTYLE1
 11
0.7507283259141246
 21
-0.6606110661124107
 31
0.0
 73
     1
 44
1.0
  0
MTEXT
  5
1EC
330
1F
100
AcDbEntity
  8
SLD-0
 62
     7
100
AcDbMText
 10
184.6060848159
 20
133.7660570613
 30
0.0
 40
3.5
 41
0.0
 71
     1
 72
     1
  1
1
  7
SLDTEXTSTYLE1
 11
0.7507283259141246
 21
-0.6606110661124107
 31
0.0
 73
     1
 44
1.0
  0
MTEXT
  5
1ED
330
1F
100
AcDbEntity
  8
0
  6
Continuous
 62
     7
370
     0
100
AcDbMText
 10
150.108082639
 20
29.8861652342
 30
0.0
 40
4.2333333333
 41
0.0
 71
     1
 72
     1
  1
N01862-211
  7
SLDTEXTSTYLE0
 73
     1
 44
1.0
  0
INSERT
  5
1F3
330
1F
100
AcDbEntity
  8
0
  6
Continuous
 62
     7
370
     0
100
AcDbBlockReference
  2
SW_NOTE_0
 10
142.3722100465
 20
42.9433335077
 30
0.0
  0
MTEXT
  5
1F4
330
1F
100
AcDbEntity
  8
0
  6
Continuous
 62
     7
370
     0
100
AcDbMText
 10
155.5876558863
 20
16.2918259049
 30
0.0
 40
4.2333333333
 41
0.0
 71
     1
 72
     1
  1
131126
  7
SLDTEXTSTYLE0
 73
     1
 44
1.0
  0
HATCH
  5
1F5
330
1F
100
AcDbEntity
  8
0
  6
Continuous
 62
     7
100
AcDbHatch
 10
0.0
 20
0.0
 30
0.0
210
0.0
220
0.0
230
1.0
  2
ANSI31
 70
     0
 71
     0
 91
        1
 92
        0
 93
        3
 72
     1
 10
69.23902071608666
 20
180.3735961684512
 11
70.04451269787697
 21
180.9662028400906
 72
     1
 10
70.04451269787697
 20
180.9662028400906
 11
71.4195867219
 21
178.2534235589
 72
     1
 10
71.4195867219
 20
178.2534235589
 11
69.23902071608666
 21
180.3735961684512
 97
        0
 75
     0
 76
     1
 52
0.0
 41
1.0
 77
     0
 78
     1
 53
45.00000209717174
 43
0.0
 44
0.0
 45
-2.245064112442359
 46
2.245063948092215
 79
     0
 98
        1
 10
0.0
 20
0.0
  0
INSERT
  5
1F6
330
1F
100
AcDbEntity
  8
0
  6
Continuous
 62
     7
370
     0
100
AcDbBlockReference
  2
_OPEN30
 10
71.9195867219
 20
140.0165277672
 30
0.0
 41
3.0
 42
3.0
 43
3.0
 50
44.3471253475
  0
INSERT
  5
1F7
330
1F
100
AcDbEntity
  8
0
  6
Continuous
 62
     7
370
     0
100
AcDbBlockReference
  2
NOTE52
 10
63.2942971395
 20
189.297605006
 30
0.0
  0
INSERT
  5
1F8
330
1F
100
AcDbEntity
  8
0
  6
Continuous
 62
     7
370
     0
100
AcDbBlockReference
  2
SW_CENTERMARK0
 10
0.0
 20
0.0
 30
0.0
  0
INSERT
  5
1F9
330
1F
100
AcDbEntity
  8
0
  6
Continuous
 62
     7
370
     0
100
AcDbBlockReference
  2
SW_CENTERMARK1
 10
0.0
 20
0.0
 30
0.0
  0
INSERT
  5
1FA
330
1F
100
AcDbEntity
  8
0
  6
Continuous
 62
     7
370
     0
100
AcDbBlockReference
  2
_OPEN30
 10
170.6888096977
 20
140.0165277672
 30
0.0
 41
3.0
 42
3.0
 43
3.0
 50
138.4396367249
  0
INSERT
  5
1FB
330
1F
100
AcDbEntity
  8
0
  6
Continuous
 62
     7
370
     0
100
AcDbBlockReference
  2
SW_CENTERMARK2
 10
0.0
 20
0.0
 30
0.0
  0
ENDSEC
  0
SECTION
  2
OBJECTS
  0
DICTIONARY
  5
C
330
0
100
AcDbDictionary
281
     1
  3
ACAD_GROUP
350
D
  3
ACAD_LAYOUT
350
1A
  3
ACAD_MLINESTYLE
350
17
  3
ACAD_PLOTSETTINGS
350
19
  3
ACAD_PLOTSTYLENAME
350
E
  0
DICTIONARY
  5
D
102
{ACAD_REACTORS
330
C
102
}
330
C
100
AcDbDictionary
281
     1
  0
DICTIONARY
  5
1A
102
{ACAD_REACTORS
330
C
102
}
330
C
100
AcDbDictionary
281
     1
  3
Layout1
350
1E
  3
Layout2
350
26
  3
Model
350
22
  0
DICTIONARY
  5
17
102
{ACAD_REACTORS
330
C
102
}
330
C
100
AcDbDictionary
281
     1
  3
Standard
350
18
  0
DICTIONARY
  5
19
102
{ACAD_REACTORS
330
C
102
}
330
C
100
AcDbDictionary
281
     1
  0
ACDBDICTIONARYWDFLT
  5
E
102
{ACAD_REACTORS
330
C
102
}
330
C
100
AcDbDictionary
281
     1
  3
Normal
350
F
100
AcDbDictionaryWithDefault
340
F
  0
LAYOUT
  5
1E
102
{ACAD_REACTORS
330
1A
102
}
330
1A
100
AcDbPlotSettings
  1

  2

  4

  6

 40
0.0
 41
0.0
 42
0.0
 43
0.0
 44
0.0
 45
0.0
 46
0.0
 47
0.0
 48
0.0
 49
0.0
140
0.0
141
0.0
142
1.0
143
1.0
 70
   688
 72
     0
 73
     0
 74
     5
  7

 75
    16
147
1.0
148
0.0
149
0.0
100
AcDbLayout
  1
Layout1
 70
     1
 71
     1
 10
0.0
 20
0.0
 11
0.0
 21
0.0
 12
0.0
 22
0.0
 32
0.0
 14
0.0
 24
0.0
 34
0.0
 15
0.0
 25
0.0
 35
0.0
146
0.0
 13
0.0
 23
0.0
 33
0.0
 16
1.0
 26
0.0
 36
0.0
 17
0.0
 27
1.0
 37
0.0
 76
     0
330
1B
  0
LAYOUT
  5
26
102
{ACAD_REACTORS
330
1A
102
}
330
1A
100
AcDbPlotSettings
  1

  2

  4

  6

 40
0.0
 41
0.0
 42
0.0
 43
0.0
 44
0.0
 45
0.0
 46
0.0
 47
0.0
 48
0.0
 49
0.0
140
0.0
141
0.0
142
1.0
143
1.0
 70
   688
 72
     0
 73
     0
 74
     5
  7

 75
    16
147
1.0
148
0.0
149
0.0
100
AcDbLayout
  1
Layout2
 70
     1
 71
     2
 10
0.0
 20
0.0
 11
0.0
 21
0.0
 12
0.0
 22
0.0
 32
0.0
 14
0.0
 24
0.0
 34
0.0
 15
0.0
 25
0.0
 35
0.0
146
0.0
 13
0.0
 23
0.0
 33
0.0
 16
1.0
 26
0.0
 36
0.0
 17
0.0
 27
1.0
 37
0.0
 76
     0
330
23
  0
LAYOUT
  5
22
102
{ACAD_REACTORS
330
1A
102
}
330
1A
100
AcDbPlotSettings
  1

  2

  4

  6

 40
0.0
 41
0.0
 42
0.0
 43
0.0
 44
0.0
 45
0.0
 46
0.0
 47
0.0
 48
0.0
 49
0.0
140
0.0
141
0.0
142
1.0
143
1.0
 70
  1712
 72
     0
 73
     0
 74
     0
  7

 75
     0
147
1.0
148
0.0
149
0.0
100
AcDbLayout
  1
Model
 70
     1
 71
     0
 10
0.0
 20
0.0
 11
0.0
 21
0.0
 12
0.0
 22
0.0
 32
0.0
 14
0.0
 24
0.0
 34
0.0
 15
210.0
 25
297.0
 35
0.0
146
0.0
 13
0.0
 23
0.0
 33
0.0
 16
1.0
 26
0.0
 36
0.0
 17
0.0
 27
1.0
 37
0.0
 76
     0
330
1F
  0
MLINESTYLE
  5
18
102
{ACAD_REACTORS
330
17
102
}
330
17
100
AcDbMlineStyle
  2
Standard
 70
     0
  3

 62
   256
 51
90.0
 52
90.0
 71
     2
 49
0.5
 62
   256
  6
BYLAYER
 49
-0.5
 62
   256
  6
BYLAYER
  0
ACDBPLACEHOLDER
  5
F
102
{ACAD_REACTORS
330
E
102
}
330
E
  0
ENDSEC
  0
EOF
