  0
SECTION
  2
HEADER
  9
$ACADVER
  1
AC1015
  9
$ACADMAINTVER
 70
     6
  9
$DWGCODEPAGE
  3
DOS932
  9
$INSBASE
 10
0.0
 20
0.0
 30
0.0
  9
$EXTMIN
 10
0.0
 20
0.0
 30
0.0
  9
$EXTMAX
 10
210.0
 20
297.0
 30
0.0
  9
$LIMMIN
 10
0.0
 20
0.0
  9
$LIMMAX
 10
0.0
 20
0.0
  9
$ORTHOMODE
 70
     0
  9
$REGENMODE
 70
     1
  9
$FILLMODE
 70
     1
  9
$QTEXTMODE
 70
     0
  9
$MIRRTEXT
 70
     1
  9
$LTSCALE
 40
1.0
  9
$ATTMODE
 70
     1
  9
$TEXTSIZE
 40
3.5
  9
$TRACEWID
 40
1.0
  9
$TEXTSTYLE
  7
Standard
  9
$CLAYER
  8
0
  9
$CELTYPE
  6
ByLayer
  9
$CECOLOR
 62
   256
  9
$CELTSCALE
 40
1.0
  9
$DISPSILH
 70
     0
  9
$DIMSCALE
 40
1.0
  9
$DIMASZ
 40
3.0
  9
$DIMEXO
 40
1.0
  9
$DIMDLI
 40
3.75
  9
$DIMRND
 40
0.0
  9
$DIMDLE
 40
0.0
  9
$DIMEXE
 40
1.0
  9
$DIMTP
 40
0.0
  9
$DIMTM
 40
0.0
  9
$DIMTXT
 40
3.5
  9
$DIMCEN
 40
2.5
  9
$DIMTSZ
 40
0.0
  9
$DIMTOL
 70
     0
  9
$DIMLIM
 70
     0
  9
$DIMTIH
 70
     1
  9
$DIMTOH
 70
     1
  9
$DIMSE1
 70
     0
  9
$DIMSE2
 70
     0
  9
$DIMTAD
 70
     1
  9
$DIMZIN
 70
     1
  9
$DIMBLK
  1

  9
$DIMASO
 70
     1
  9
$DIMSHO
 70
     1
  9
$DIMPOST
  1

  9
$DIMAPOST
  1

  9
$DIMALT
 70
     0
  9
$DIMALTD
 70
     3
  9
$DIMALTF
 40
0.0393700787
  9
$DIMLFAC
 40
1.0
  9
$DIMTOFL
 70
     1
  9
$DIMTVP
 40
0.0
  9
$DIMTIX
 70
     0
  9
$DIMSOXD
 70
     0
  9
$DIMSAH
 70
     0
  9
$DIMBLK1
  1

  9
$DIMBLK2
  1

  9
$DIMSTYLE
  2
ISO-25
  9
$DIMCLRD
 70
     0
  9
$DIMCLRE
 70
     0
  9
$DIMCLRT
 70
     0
  9
$DIMTFAC
 40
1.0
  9
$DIMGAP
 40
1.524
  9
$DIMJUST
 70
     0
  9
$DIMSD1
 70
     0
  9
$DIMSD2
 70
     0
  9
$DIMTOLJ
 70
     0
  9
$DIMTZIN
 70
     1
  9
$DIMALTZ
 70
     0
  9
$DIMALTTZ
 70
     0
  9
$DIMUPT
 70
     0
  9
$DIMDEC
 70
     2
  9
$DIMTDEC
 70
     2
  9
$DIMALTU
 70
     2
  9
$DIMALTTD
 70
     3
  9
$DIMTXSTY
  7
Standard
  9
$DIMAUNIT
 70
     0
  9
$DIMADEC
 70
     0
  9
$DIMALTRND
 40
0.0
  9
$DIMAZIN
 70
     0
  9
$DIMDSEP
 70
    44
  9
$DIMATFIT
 70
     3
  9
$DIMFRAC
 70
     0
  9
$DIMLDRBLK
  1

  9
$DIMLUNIT
 70
     2
  9
$DIMLWD
 70
    -2
  9
$DIMLWE
 70
    -2
  9
$DIMTMOVE
 70
     0
  9
$LUNITS
 70
     2
  9
$LUPREC
 70
     1
  9
$SKETCHINC
 40
1.0
  9
$FILLETRAD
 40
10.0
  9
$AUNITS
 70
     0
  9
$AUPREC
 70
     0
  9
$MENU
  1
.
  9
$ELEVATION
 40
0.0
  9
$PELEVATION
 40
0.0
  9
$THICKNESS
 40
0.0
  9
$LIMCHECK
 70
     0
  9
$CHAMFERA
 40
10.0
  9
$CHAMFERB
 40
10.0
  9
$CHAMFERC
 40
20.0
  9
$CHAMFERD
 40
0.0
  9
$SKPOLY
 70
     0
  9
$TDCREATE
 40
2454359.446502454
  9
$TDUCREATE
 40
2454359.071502454
  9
$TDUPDATE
 40
2454359.446502465
  9
$TDUUPDATE
 40
2454359.071502465
  9
$TDINDWG
 40
0.0000000116
  9
$TDUSRTIMER
 40
0.0000000116
  9
$USRTIMER
 70
     1
  9
$ANGBASE
 50
0.0
  9
$ANGDIR
 70
     0
  9
$PDMODE
 70
     0
  9
$PDSIZE
 40
-1.0
  9
$PLINEWID
 40
0.0
  9
$SPLFRAME
 70
     0
  9
$SPLINETYPE
 70
     6
  9
$SPLINESEGS
 70
     8
  9
$HANDSEED
  5
29E
  9
$SURFTAB1
 70
     6
  9
$SURFTAB2
 70
     6
  9
$SURFTYPE
 70
     6
  9
$SURFU
 70
     6
  9
$SURFV
 70
     6
  9
$UCSBASE
  2

  9
$UCSNAME
  2

  9
$UCSORG
 10
0.0
 20
0.0
 30
0.0
  9
$UCSXDIR
 10
1.0
 20
0.0
 30
0.0
  9
$UCSYDIR
 10
0.0
 20
1.0
 30
0.0
  9
$UCSORTHOREF
  2

  9
$UCSORTHOVIEW
 70
     0
  9
$UCSORGTOP
 10
0.0
 20
0.0
 30
0.0
  9
$UCSORGBOTTOM
 10
0.0
 20
0.0
 30
0.0
  9
$UCSORGLEFT
 10
0.0
 20
0.0
 30
0.0
  9
$UCSORGRIGHT
 10
0.0
 20
0.0
 30
0.0
  9
$UCSORGFRONT
 10
0.0
 20
0.0
 30
0.0
  9
$UCSORGBACK
 10
0.0
 20
0.0
 30
0.0
  9
$PUCSBASE
  2

  9
$PUCSNAME
  2

  9
$PUCSORG
 10
0.0
 20
0.0
 30
0.0
  9
$PUCSXDIR
 10
1.0
 20
0.0
 30
0.0
  9
$PUCSYDIR
 10
0.0
 20
1.0
 30
0.0
  9
$PUCSORTHOREF
  2

  9
$PUCSORTHOVIEW
 70
     0
  9
$PUCSORGTOP
 10
0.0
 20
0.0
 30
0.0
  9
$PUCSORGBOTTOM
 10
0.0
 20
0.0
 30
0.0
  9
$PUCSORGLEFT
 10
0.0
 20
0.0
 30
0.0
  9
$PUCSORGRIGHT
 10
0.0
 20
0.0
 30
0.0
  9
$PUCSORGFRONT
 10
0.0
 20
0.0
 30
0.0
  9
$PUCSORGBACK
 10
0.0
 20
0.0
 30
0.0
  9
$USERI1
 70
     0
  9
$USERI2
 70
     0
  9
$USERI3
 70
     0
  9
$USERI4
 70
     0
  9
$USERI5
 70
     0
  9
$USERR1
 40
0.0
  9
$USERR2
 40
0.0
  9
$USERR3
 40
0.0
  9
$USERR4
 40
0.0
  9
$USERR5
 40
0.0
  9
$WORLDVIEW
 70
     1
  9
$SHADEDGE
 70
     3
  9
$SHADEDIF
 70
    70
  9
$TILEMODE
 70
     1
  9
$MAXACTVP
 70
    64
  9
$PINSBASE
 10
0.0
 20
0.0
 30
0.0
  9
$PLIMCHECK
 70
     0
  9
$PEXTMIN
 10
1.0000000000E+20
 20
1.0000000000E+20
 30
1.0000000000E+20
  9
$PEXTMAX
 10
-1.0000000000E+20
 20
-1.0000000000E+20
 30
-1.0000000000E+20
  9
$PLIMMIN
 10
0.0
 20
0.0
  9
$PLIMMAX
 10
420.0
 20
297.0
  9
$UNITMODE
 70
     0
  9
$VISRETAIN
 70
     1
  9
$PLINEGEN
 70
     0
  9
$PSLTSCALE
 70
     1
  9
$TREEDEPTH
 70
  3020
  9
$CMLSTYLE
  2
Standard
  9
$CMLJUST
 70
     0
  9
$CMLSCALE
 40
20.0
  9
$PROXYGRAPHICS
 70
     1
  9
$MEASUREMENT
 70
     1
  9
$CELWEIGHT
370
    -1
  9
$ENDCAPS
280
     0
  9
$JOINSTYLE
280
     0
  9
$LWDISPLAY
290
     1
  9
$INSUNITS
 70
     4
  9
$HYPERLINKBASE
  1

  9
$STYLESHEET
  1

  9
$XEDIT
290
     1
  9
$CEPSNTYPE
380
     0
  9
$PSTYLEMODE
290
     1
  9
$FINGERPRINTGUID
  2
{54DBF704-7948-4444-9E37-C1076B121333}
  9
$VERSIONGUID
  2
{FAEB1C32-E019-11D5-929B-00C0DF256EC4}
  9
$EXTNAMES
290
     1
  9
$PSVPSCALE
 40
0.0
  9
$OLESTARTUP
290
     0
  0
ENDSEC
  0
SECTION
  2
CLASSES
  0
CLASS
  1
ACDBDICTIONARYWDFLT
  2
AcDbDictionaryWithDefault
  3
ObjectDBX Classes
 90
        0
280
     0
281
     0
  0
CLASS
  1
ACDBPLACEHOLDER
  2
AcDbPlaceHolder
  3
ObjectDBX Classes
 90
        0
280
     0
281
     0
  0
CLASS
  1
LAYOUT
  2
AcDbLayout
  3
ObjectDBX Classes
 90
        0
280
     0
281
     0
  0
ENDSEC
  0
SECTION
  2
TABLES
  0
TABLE
  2
VPORT
  5
8
330
0
100
AcDbSymbolTable
 70
     1
  0
VPORT
  5
29
330
8
100
AcDbSymbolTableRecord
100
AcDbViewportTableRecord
  2
*Active
 70
     0
 10
0.0
 20
0.0
 11
1.0
 21
1.0
 12
105.0
 22
148.5
 13
0.0
 23
0.0
 14
10.0
 24
10.0
 15
10.0
 25
10.0
 16
0.0
 26
0.0
 36
1.0
 17
0.0
 27
0.0
 37
0.0
 40
297.0
 41
1.9729729729
 42
50.0
 43
0.0
 44
0.0
 50
0.0
 51
0.0
 71
     0
 72
  2000
 73
     1
 74
     3
 75
     0
 76
     0
 77
     0
 78
     0
281
     0
 65
     1
110
0.0
120
0.0
130
0.0
111
1.0
121
0.0
131
0.0
112
0.0
122
1.0
132
0.0
 79
     0
146
0.0
  0
ENDTAB
  0
TABLE
  2
LTYPE
  5
5
330
0
100
AcDbSymbolTable
 70
     6
  0
LTYPE
  5
14
330
5
100
AcDbSymbolTableRecord
100
AcDbLinetypeTableRecord
  2
ByBlock
 70
     0
  3

 72
    65
 73
     0
 40
0.0
  0
LTYPE
  5
15
330
5
100
AcDbSymbolTableRecord
100
AcDbLinetypeTableRecord
  2
ByLayer
 70
     0
  3

 72
    65
 73
     0
 40
0.0
  0
LTYPE
  5
16
330
5
100
AcDbSymbolTableRecord
100
AcDbLinetypeTableRecord
  2
Continuous
 70
     0
  3
Solid line
 72
    65
 73
     0
 40
0.0
  0
LTYPE
  5
2A
330
5
100
AcDbSymbolTableRecord
100
AcDbLinetypeTableRecord
  2
HIDDEN
 70
     0
  3
Hidden __ __ __ __ __ __ __ __ __ __ __ __ __ __
 72
    65
 73
     2
 40
1.905
 49
1.27
 74
     0
 49
-0.635
 74
     0
  0
LTYPE
  5
2B
330
5
100
AcDbSymbolTableRecord
100
AcDbLinetypeTableRecord
  2
PHANTOM
 70
     0
  3
Phantom ______  __  __  ______  __  __  ______
 72
    65
 73
     6
 40
12.7
 49
6.35
 74
     0
 49
-1.27
 74
     0
 49
1.27
 74
     0
 49
-1.27
 74
     0
 49
1.27
 74
     0
 49
-1.27
 74
     0
  0
LTYPE
  5
2C
330
5
100
AcDbSymbolTableRecord
100
AcDbLinetypeTableRecord
  2
CENTER
 70
     0
  3
Center ____ _ ____ _ ____ _ ____ _ ____ _ ____
 72
    65
 73
     4
 40
10.16
 49
6.35
 74
     0
 49
-1.27
 74
     0
 49
1.27
 74
     0
 49
-1.27
 74
     0
  0
LTYPE
  5
2D
330
5
100
AcDbSymbolTableRecord
100
AcDbLinetypeTableRecord
  2
CENTERX2
 70
     0
  3
Center (2x) ________  __  ________  __  _____
 72
    65
 73
     4
 40
20.32
 49
12.7
 74
     0
 49
-2.54
 74
     0
 49
2.54
 74
     0
 49
-2.54
 74
     0
  0
LTYPE
  5
2E
330
5
100
AcDbSymbolTableRecord
100
AcDbLinetypeTableRecord
  2
DOT2
 70
     0
  3
Dot (.5x) ........................................
 72
    65
 73
     2
 40
0.635
 49
0.0
 74
     0
 49
-0.635
 74
     0
  0
ENDTAB
  0
TABLE
  2
LAYER
  5
2
330
0
100
AcDbSymbolTable
 70
     4
  0
LAYER
  5
10
330
2
100
AcDbSymbolTableRecord
100
AcDbLayerTableRecord
  2
0
 70
     0
 62
     7
  6
Continuous
370
    -3
390
F
  0
LAYER
  5
2F
330
2
100
AcDbSymbolTableRecord
100
AcDbLayerTableRecord
  2
SLD-0
 70
     0
 62
     7
  6
Continuous
370
     0
390
F
  0
LAYER
  5
30
330
2
100
AcDbSymbolTableRecord
100
AcDbLayerTableRecord
  2
SLD-DEFPOINTS
 70
     0
 62
     7
  6
Continuous
370
     0
390
F
  0
LAYER
  5
EF
330
2
100
AcDbSymbolTableRecord
100
AcDbLayerTableRecord
  2
Defpoints
 70
     0
 62
     7
  6
Continuous
290
     0
370
    -3
390
F
  0
ENDTAB
  0
TABLE
  2
STYLE
  5
3
330
0
100
AcDbSymbolTable
 70
     4
  0
STYLE
  5
11
330
3
100
AcDbSymbolTableRecord
100
AcDbTextStyleTableRecord
  2
Standard
 70
     0
 40
0.0
 41
1.0
 50
0.0
 71
     0
 42
2.5
  3
txt
  4
bigfont
  0
STYLE
  5
34
330
3
100
AcDbSymbolTableRecord
100
AcDbTextStyleTableRecord
  2
SLDTEXTSTYLE0
 70
     0
 40
0.0
 41
0.7
 50
0.0
 71
     0
 42
0.2
  3
TXT
  4
bigfont
  0
STYLE
  5
40
330
3
100
AcDbSymbolTableRecord
100
AcDbTextStyleTableRecord
  2
SLDTEXTSTYLE1
 70
     0
 40
0.0
 41
0.75
 50
0.0
 71
     0
 42
0.2
  3
TXT
  4
bigfont
  0
STYLE
  5
101
330
3
100
AcDbSymbolTableRecord
100
AcDbTextStyleTableRecord
  2
SLDTEXTSTYLE2
 70
     0
 40
0.0
 41
0.96
 50
0.0
 71
     0
 42
0.2
  3
TXT
  4
bigfont
  0
ENDTAB
  0
TABLE
  2
VIEW
  5
6
330
0
100
AcDbSymbolTable
 70
     0
  0
ENDTAB
  0
TABLE
  2
UCS
  5
7
330
0
100
AcDbSymbolTable
 70
     0
  0
ENDTAB
  0
TABLE
  2
APPID
  5
9
330
0
100
AcDbSymbolTable
 70
     1
  0
APPID
  5
12
330
9
100
AcDbSymbolTableRecord
100
AcDbRegAppTableRecord
  2
ACAD
 70
     0
  0
ENDTAB
  0
TABLE
  2
DIMSTYLE
  5
A
330
0
100
AcDbSymbolTable
 70
     6
100
AcDbDimStyleTable
  0
DIMSTYLE
105
27
330
A
100
AcDbSymbolTableRecord
100
AcDbDimStyleTableRecord
  2
ISO-25
 70
     0
 41
2.5
 42
0.625
 43
3.75
 44
1.25
 73
     0
 74
     0
 77
     1
 78
     8
140
2.5
141
2.5
143
0.0393700787
147
0.625
171
     3
172
     1
271
     2
272
     2
274
     3
278
    44
283
     0
284
     8
340
11
  0
DIMSTYLE
105
FC
102
{ACAD_REACTORS
330
EE
102
}
330
A
100
AcDbSymbolTableRecord
100
AcDbDimStyleTableRecord
  2
SLDDIMSTYLE0
 70
     0
 41
3.0
 44
0.0
 78
    12
140
3.5
147
0.875
172
     1
173
     1
271
     0
272
     3
284
    12
340
40
341
37
343
37
344
37
  0
DIMSTYLE
105
113
102
{ACAD_REACTORS
330
105
330
121
330
13B
330
156
330
170
330
18A
330
1FF
330
216
330
22D
330
247
102
}
330
A
100
AcDbSymbolTableRecord
100
AcDbDimStyleTableRecord
  2
SLDDIMSTYLE1
 70
     0
 41
3.0
 44
0.0
 73
     0
 74
     0
 77
     3
 78
    12
140
3.5
147
0.875
173
     1
271
     0
272
     2
284
    12
340
40
341
114
343
114
344
114
  0
DIMSTYLE
105
1AB
102
{ACAD_REACTORS
330
1A1
330
261
102
}
330
A
100
AcDbSymbolTableRecord
100
AcDbDimStyleTableRecord
  2
SLDDIMSTYLE2
 70
     0
 41
3.0
 44
0.0
 78
    12
140
3.5
147
0.875
172
     1
173
     1
271
     0
272
     3
284
    12
340
40
341
114
343
114
344
114
  0
DIMSTYLE
105
1C1
102
{ACAD_REACTORS
330
1B4
330
1CC
330
1E5
102
}
330
A
100
AcDbSymbolTableRecord
100
AcDbDimStyleTableRecord
  2
SLDDIMSTYLE3
 70
     0
 41
3.0
 44
0.0
 73
     0
 74
     0
 77
     3
 78
    12
140
3.5
147
0.875
173
     1
271
     0
272
     3
284
    12
340
40
341
114
343
114
344
114
  0
DIMSTYLE
105
27D
102
{ACAD_REACTORS
330
273
102
}
330
A
100
AcDbSymbolTableRecord
100
AcDbDimStyleTableRecord
  2
SLDDIMSTYLE4
 70
     0
 41
3.0
 44
0.0
 78
    12
140
3.5
147
0.875
172
     1
173
     1
271
     1
272
     2
284
    12
340
40
341
114
343
114
344
114
  0
ENDTAB
  0
TABLE
  2
BLOCK_RECORD
  5
1
330
0
100
AcDbSymbolTable
 70
    27
  0
BLOCK_RECORD
  5
1F
330
1
100
AcDbSymbolTableRecord
100
AcDbBlockTableRecord
  2
*Model_Space
340
22
  0
BLOCK_RECORD
  5
1B
330
1
100
AcDbSymbolTableRecord
100
AcDbBlockTableRecord
  2
*Paper_Space
340
1E
  0
BLOCK_RECORD
  5
23
330
1
100
AcDbSymbolTableRecord
100
AcDbBlockTableRecord
  2
*Paper_Space0
340
26
  0
BLOCK_RECORD
  5
31
330
1
100
AcDbSymbolTableRecord
100
AcDbBlockTableRecord
  2
注記
340
0
  0
BLOCK_RECORD
  5
37
330
1
100
AcDbSymbolTableRecord
100
AcDbBlockTableRecord
  2
_OPEN30
340
0
102
{BLKREFS
331
F6
331
F5
331
FD
331
297
331
29B
102
}
  0
BLOCK_RECORD
  5
3D
330
1
100
AcDbSymbolTableRecord
100
AcDbBlockTableRecord
  2
NOTE51
340
0
102
{BLKREFS
331
298
102
}
  0
BLOCK_RECORD
  5
42
330
1
100
AcDbSymbolTableRecord
100
AcDbBlockTableRecord
  2
SW_CENTERMARK0
340
0
102
{BLKREFS
331
299
102
}
  0
BLOCK_RECORD
  5
4D
330
1
100
AcDbSymbolTableRecord
100
AcDbBlockTableRecord
  2
SW_CENTERMARK1
340
0
102
{BLKREFS
331
29A
102
}
  0
BLOCK_RECORD
  5
58
330
1
100
AcDbSymbolTableRecord
100
AcDbBlockTableRecord
  2
SW_CENTERMARK2
340
0
102
{BLKREFS
331
29C
102
}
  0
BLOCK_RECORD
  5
63
330
1
100
AcDbSymbolTableRecord
100
AcDbBlockTableRecord
  2
SW_CENTERMARK3
340
0
102
{BLKREFS
331
29D
102
}
  0
BLOCK_RECORD
  5
F0
330
1
100
AcDbSymbolTableRecord
100
AcDbBlockTableRecord
  2
*D8
340
0
  0
BLOCK_RECORD
  5
106
330
1
100
AcDbSymbolTableRecord
100
AcDbBlockTableRecord
  2
*D9
340
0
  0
BLOCK_RECORD
  5
114
330
1
100
AcDbSymbolTableRecord
100
AcDbBlockTableRecord
  2
_None
340
0
102
{BLKREFS
331
10B
331
10A
331
127
331
126
331
142
331
141
331
15C
331
15B
331
176
331
175
331
190
331
18F
331
1A6
331
1BA
331
1B9
331
1D2
331
1D1
331
1EB
331
1EA
331
205
331
204
331
21C
331
21B
331
233
331
232
331
24D
331
24C
331
266
331
278
102
}
  0
BLOCK_RECORD
  5
122
330
1
100
AcDbSymbolTableRecord
100
AcDbBlockTableRecord
  2
*D11
340
0
  0
BLOCK_RECORD
  5
13C
330
1
100
AcDbSymbolTableRecord
100
AcDbBlockTableRecord
  2
*D12
340
0
  0
BLOCK_RECORD
  5
157
330
1
100
AcDbSymbolTableRecord
100
AcDbBlockTableRecord
  2
*D13
340
0
  0
BLOCK_RECORD
  5
171
330
1
100
AcDbSymbolTableRecord
100
AcDbBlockTableRecord
  2
*D14
340
0
  0
BLOCK_RECORD
  5
18B
330
1
100
AcDbSymbolTableRecord
100
AcDbBlockTableRecord
  2
*D15
340
0
  0
BLOCK_RECORD
  5
1A2
330
1
100
AcDbSymbolTableRecord
100
AcDbBlockTableRecord
  2
*D16
340
0
  0
BLOCK_RECORD
  5
1B5
330
1
100
AcDbSymbolTableRecord
100
AcDbBlockTableRecord
  2
*D17
340
0
  0
BLOCK_RECORD
  5
1CD
330
1
100
AcDbSymbolTableRecord
100
AcDbBlockTableRecord
  2
*D18
340
0
  0
BLOCK_RECORD
  5
1E6
330
1
100
AcDbSymbolTableRecord
100
AcDbBlockTableRecord
  2
*D19
340
0
  0
BLOCK_RECORD
  5
200
330
1
100
AcDbSymbolTableRecord
100
AcDbBlockTableRecord
  2
*D20
340
0
  0
BLOCK_RECORD
  5
217
330
1
100
AcDbSymbolTableRecord
100
AcDbBlockTableRecord
  2
*D21
340
0
  0
BLOCK_RECORD
  5
22E
330
1
100
AcDbSymbolTableRecord
100
AcDbBlockTableRecord
  2
*D22
340
0
  0
BLOCK_RECORD
  5
248
330
1
100
AcDbSymbolTableRecord
100
AcDbBlockTableRecord
  2
*D23
340
0
  0
BLOCK_RECORD
  5
262
330
1
100
AcDbSymbolTableRecord
100
AcDbBlockTableRecord
  2
*D24
340
0
  0
BLOCK_RECORD
  5
274
330
1
100
AcDbSymbolTableRecord
100
AcDbBlockTableRecord
  2
*D25
340
0
  0
BLOCK_RECORD
  5
28F
330
1
100
AcDbSymbolTableRecord
100
AcDbBlockTableRecord
  2
SW_NOTE_0
340
0
102
{BLKREFS
331
294
102
}
  0
ENDTAB
  0
ENDSEC
  0
SECTION
  2
BLOCKS
  0
BLOCK
  5
20
330
1F
100
AcDbEntity
  8
0
100
AcDbBlockBegin
  2
*Model_Space
 70
     0
 71
     0
 10
0.0
 20
0.0
 30
0.0
  3
*Model_Space
  1

  0
ENDBLK
  5
21
330
1F
100
AcDbEntity
  8
0
100
AcDbBlockEnd
  0
BLOCK
  5
1C
330
1B
100
AcDbEntity
 67
     1
  8
0
100
AcDbBlockBegin
  2
*Paper_Space
 70
     0
 71
     0
 10
0.0
 20
0.0
 30
0.0
  3
*Paper_Space
  1

  0
ENDBLK
  5
1D
330
1B
100
AcDbEntity
 67
     1
  8
0
100
AcDbBlockEnd
  0
BLOCK
  5
24
330
23
100
AcDbEntity
  8
0
100
AcDbBlockBegin
  2
*Paper_Space0
 70
     0
 71
     0
 10
0.0
 20
0.0
 30
0.0
  3
*Paper_Space0
  1

  0
ENDBLK
  5
25
330
23
100
AcDbEntity
  8
0
100
AcDbBlockEnd
  0
BLOCK
  5
32
330
31
100
AcDbEntity
  8
0
100
AcDbBlockBegin
  2
注記
 70
     0
 71
     0
 10
0.0
 20
0.0
 30
0.0
  3
注記
  1

  0
MTEXT
  5
35
330
31
100
AcDbEntity
  8
0
  6
Continuous
 62
     7
370
     0
100
AcDbMText
 10
0.2636785918
 20
9.0739778448
 30
0.0
 40
3.5
 41
0.0
 71
     1
 72
     1
  1
１．特記ナキ角部ハ、バリ　カエリノ無キコト。
  7
SLDTEXTSTYLE0
 73
     1
 44
1.0
  0
MTEXT
  5
36
330
31
100
AcDbEntity
  8
0
  6
Continuous
 62
     7
370
     0
100
AcDbMText
 10
0.2636785918
 20
3.5759549983
 30
0.0
 40
3.5
 41
0.0
 71
     1
 72
     1
  1
２．特記ナキ隅部ハ、Ｒ０．４ＭＡＸトスル。
  7
SLDTEXTSTYLE0
 73
     1
 44
1.0
  0
ENDBLK
  5
33
330
31
100
AcDbEntity
  8
0
100
AcDbBlockEnd
  0
BLOCK
  5
38
330
37
100
AcDbEntity
  8
0
100
AcDbBlockBegin
  2
_OPEN30
 70
     0
 71
     0
 10
0.0
 20
0.0
 30
0.0
  3
_OPEN30
  1

  0
LINE
  5
3A
330
37
100
AcDbEntity
  8
SLD-0
  6
Continuous
100
AcDbLine
 10
-1.0
 20
0.267949
 30
0.0
 11
0.0
 21
0.0
 31
0.0
  0
LINE
  5
3B
330
37
100
AcDbEntity
  8
SLD-0
  6
Continuous
100
AcDbLine
 10
0.0
 20
0.0
 30
0.0
 11
-1.0
 21
-0.267949
 31
0.0
  0
LINE
  5
3C
330
37
100
AcDbEntity
  8
SLD-0
  6
Continuous
100
AcDbLine
 10
0.0
 20
0.0
 30
0.0
 11
-1.0
 21
0.0
 31
0.0
  0
ENDBLK
  5
39
330
37
100
AcDbEntity
  8
0
100
AcDbBlockEnd
  0
BLOCK
  5
3E
330
3D
100
AcDbEntity
  8
0
100
AcDbBlockBegin
  2
NOTE51
 70
     0
 71
     0
 10
0.0
 20
0.0
 30
0.0
  3
NOTE51
  1

  0
MTEXT
  5
41
330
3D
100
AcDbEntity
  8
SLD-0
100
AcDbMText
 10
0.0019935342
 20
4.5300308432
 30
0.0
 40
3.5
 41
0.0
 71
     1
 72
     1
  1
M4
  7
SLDTEXTSTYLE1
 73
     1
 44
1.0
  0
ENDBLK
  5
3F
330
3D
100
AcDbEntity
  8
0
100
AcDbBlockEnd
  0
BLOCK
  5
43
330
42
100
AcDbEntity
  8
0
100
AcDbBlockBegin
  2
SW_CENTERMARK0
 70
     0
 71
     0
 10
0.0
 20
0.0
 30
0.0
  3
SW_CENTERMARK0
  1

  0
LINE
  5
45
330
42
100
AcDbEntity
  8
SLD-0
  6
Continuous
 62
     7
100
AcDbLine
 10
119.675060241
 20
134.6114903769
 30
0.0
 11
119.675060241
 21
137.1114903769
 31
0.0
  0
LINE
  5
46
330
42
100
AcDbEntity
  8
SLD-0
  6
Continuous
 62
     7
100
AcDbLine
 10
119.675060241
 20
134.6114903769
 30
0.0
 11
117.1750609711
 21
134.6114903769
 31
0.0
  0
LINE
  5
47
330
42
100
AcDbEntity
  8
SLD-0
  6
Continuous
 62
     7
100
AcDbLine
 10
119.675060241
 20
134.6114903769
 30
0.0
 11
119.675060241
 21
132.1114903769
 31
0.0
  0
LINE
  5
48
330
42
100
AcDbEntity
  8
SLD-0
  6
Continuous
 62
     7
100
AcDbLine
 10
119.675060241
 20
134.6114903769
 30
0.0
 11
122.175060241
 21
134.6114903769
 31
0.0
  0
LINE
  5
49
330
42
100
AcDbEntity
  8
SLD-0
  6
Continuous
 62
     7
100
AcDbLine
 10
119.675060241
 20
137.1114903769
 30
0.0
 11
119.675060241
 21
139.6114903769
 31
0.0
  0
LINE
  5
4A
330
42
100
AcDbEntity
  8
SLD-0
  6
Continuous
 62
     7
100
AcDbLine
 10
117.1750609711
 20
134.6114903769
 30
0.0
 11
114.675060241
 21
134.6114903769
 31
0.0
  0
LINE
  5
4B
330
42
100
AcDbEntity
  8
SLD-0
  6
Continuous
 62
     7
100
AcDbLine
 10
119.675060241
 20
132.1114903769
 30
0.0
 11
119.675060241
 21
129.6114903769
 31
0.0
  0
LINE
  5
4C
330
42
100
AcDbEntity
  8
SLD-0
  6
Continuous
 62
     7
100
AcDbLine
 10
122.175060241
 20
134.6114903769
 30
0.0
 11
124.675060241
 21
134.6114903769
 31
0.0
  0
ENDBLK
  5
44
330
42
100
AcDbEntity
  8
0
100
AcDbBlockEnd
  0
BLOCK
  5
4E
330
4D
100
AcDbEntity
  8
0
100
AcDbBlockBegin
  2
SW_CENTERMARK1
 70
     0
 71
     0
 10
0.0
 20
0.0
 30
0.0
  3
SW_CENTERMARK1
  1

  0
LINE
  5
50
330
4D
100
AcDbEntity
  8
SLD-0
  6
Continuous
 62
     7
100
AcDbLine
 10
95.675060241
 20
134.6114903769
 30
0.0
 11
95.675060241
 21
137.1114903769
 31
0.0
  0
LINE
  5
51
330
4D
100
AcDbEntity
  8
SLD-0
  6
Continuous
 62
     7
100
AcDbLine
 10
95.675060241
 20
134.6114903769
 30
0.0
 11
93.175060241
 21
134.6114903769
 31
0.0
  0
LINE
  5
52
330
4D
100
AcDbEntity
  8
SLD-0
  6
Continuous
 62
     7
100
AcDbLine
 10
95.675060241
 20
134.6114903769
 30
0.0
 11
95.675060241
 21
132.1114903769
 31
0.0
  0
LINE
  5
53
330
4D
100
AcDbEntity
  8
SLD-0
  6
Continuous
 62
     7
100
AcDbLine
 10
95.675060241
 20
134.6114903769
 30
0.0
 11
98.175060241
 21
134.6114903769
 31
0.0
  0
LINE
  5
54
330
4D
100
AcDbEntity
  8
SLD-0
  6
Continuous
 62
     7
100
AcDbLine
 10
95.675060241
 20
139.6114903769
 30
0.0
 11
95.675060241
 21
143.1114903769
 31
0.0
  0
LINE
  5
55
330
4D
100
AcDbEntity
  8
SLD-0
  6
Continuous
 62
     7
100
AcDbLine
 10
90.675060241
 20
134.6114903769
 30
0.0
 11
87.175060241
 21
134.6114903769
 31
0.0
  0
LINE
  5
56
330
4D
100
AcDbEntity
  8
SLD-0
  6
Continuous
 62
     7
100
AcDbLine
 10
95.675060241
 20
129.6114903769
 30
0.0
 11
95.675060241
 21
126.1114903769
 31
0.0
  0
LINE
  5
57
330
4D
100
AcDbEntity
  8
SLD-0
  6
Continuous
 62
     7
100
AcDbLine
 10
100.675060241
 20
134.6114903769
 30
0.0
 11
104.175060241
 21
134.6114903769
 31
0.0
  0
ENDBLK
  5
4F
330
4D
100
AcDbEntity
  8
0
100
AcDbBlockEnd
  0
BLOCK
  5
59
330
58
100
AcDbEntity
  8
0
100
AcDbBlockBegin
  2
SW_CENTERMARK2
 70
     0
 71
     0
 10
0.0
 20
0.0
 30
0.0
  3
SW_CENTERMARK2
  1

  0
LINE
  5
5B
330
58
100
AcDbEntity
  8
SLD-0
  6
Continuous
 62
     7
100
AcDbLine
 10
85.675060241
 20
204.7405694761
 30
0.0
 11
85.675060241
 21
207.2405694761
 31
0.0
  0
LINE
  5
5C
330
58
100
AcDbEntity
  8
SLD-0
  6
Continuous
 62
     7
100
AcDbLine
 10
85.675060241
 20
204.7405694761
 30
0.0
 11
83.175060241
 21
204.7405694761
 31
0.0
  0
LINE
  5
5D
330
58
100
AcDbEntity
  8
SLD-0
  6
Continuous
 62
     7
100
AcDbLine
 10
85.675060241
 20
204.7405694761
 30
0.0
 11
85.675060241
 21
202.2405694761
 31
0.0
  0
LINE
  5
5E
330
58
100
AcDbEntity
  8
SLD-0
  6
Continuous
 62
     7
100
AcDbLine
 10
85.675060241
 20
204.7405694761
 30
0.0
 11
88.175060241
 21
204.7405694761
 31
0.0
  0
LINE
  5
5F
330
58
100
AcDbEntity
  8
SLD-0
  6
Continuous
 62
     7
100
AcDbLine
 10
85.675060241
 20
209.7405694761
 30
0.0
 11
85.675060241
 21
211.2405694761
 31
0.0
  0
LINE
  5
60
330
58
100
AcDbEntity
  8
SLD-0
  6
Continuous
 62
     7
100
AcDbLine
 10
80.675060241
 20
204.7405694761
 30
0.0
 11
79.175060241
 21
204.7405694761
 31
0.0
  0
LINE
  5
61
330
58
100
AcDbEntity
  8
SLD-0
  6
Continuous
 62
     7
100
AcDbLine
 10
85.675060241
 20
199.7405694761
 30
0.0
 11
85.675060241
 21
198.2405694761
 31
0.0
  0
LINE
  5
62
330
58
100
AcDbEntity
  8
SLD-0
  6
Continuous
 62
     7
100
AcDbLine
 10
90.675060241
 20
204.7405694761
 30
0.0
 11
92.175060241
 21
204.7405694761
 31
0.0
  0
ENDBLK
  5
5A
330
58
100
AcDbEntity
  8
0
100
AcDbBlockEnd
  0
BLOCK
  5
64
330
63
100
AcDbEntity
  8
0
100
AcDbBlockBegin
  2
SW_CENTERMARK3
 70
     0
 71
     0
 10
0.0
 20
0.0
 30
0.0
  3
SW_CENTERMARK3
  1

  0
LINE
  5
66
330
63
100
AcDbEntity
  8
SLD-0
  6
Continuous
 62
     7
100
AcDbLine
 10
119.675060241
 20
204.7405694761
 30
0.0
 11
119.675060241
 21
207.2405694761
 31
0.0
  0
LINE
  5
67
330
63
100
AcDbEntity
  8
SLD-0
  6
Continuous
 62
     7
100
AcDbLine
 10
119.675060241
 20
204.7405694761
 30
0.0
 11
117.1750609711
 21
204.7405694761
 31
0.0
  0
LINE
  5
68
330
63
100
AcDbEntity
  8
SLD-0
  6
Continuous
 62
     7
100
AcDbLine
 10
119.675060241
 20
204.7405694761
 30
0.0
 11
119.675060241
 21
202.2405694761
 31
0.0
  0
LINE
  5
69
330
63
100
AcDbEntity
  8
SLD-0
  6
Continuous
 62
     7
100
AcDbLine
 10
119.675060241
 20
204.7405694761
 30
0.0
 11
122.175059928
 21
204.7405694761
 31
0.0
  0
LINE
  5
6A
330
63
100
AcDbEntity
  8
SLD-0
  6
Continuous
 62
     7
100
AcDbLine
 10
119.675060241
 20
207.2405694761
 30
0.0
 11
119.675060241
 21
209.7405694761
 31
0.0
  0
LINE
  5
6B
330
63
100
AcDbEntity
  8
SLD-0
  6
Continuous
 62
     7
100
AcDbLine
 10
117.1750609711
 20
204.7405694761
 30
0.0
 11
114.675060241
 21
204.7405694761
 31
0.0
  0
LINE
  5
6C
330
63
100
AcDbEntity
  8
SLD-0
  6
Continuous
 62
     7
100
AcDbLine
 10
119.675060241
 20
202.2405694761
 30
0.0
 11
119.675060241
 21
199.7405694761
 31
0.0
  0
LINE
  5
6D
330
63
100
AcDbEntity
  8
SLD-0
  6
Continuous
 62
     7
100
AcDbLine
 10
122.175059928
 20
204.7405694761
 30
0.0
 11
124.675060241
 21
204.7405694761
 31
0.0
  0
ENDBLK
  5
65
330
63
100
AcDbEntity
  8
0
100
AcDbBlockEnd
  0
BLOCK
  5
FA
330
F0
100
AcDbEntity
  8
0
100
AcDbBlockBegin
  2
*D8
 70
     1
 71
     0
 10
0.0
 20
0.0
 30
0.0
  3
*D8
  1

  0
INSERT
  5
FD
330
F0
100
AcDbEntity
  8
SLD-0
 62
     7
100
AcDbBlockReference
  2
_OPEN30
 10
91.4944519937
 20
138.9152694934
 30
0.1
 41
3.0
 42
3.0
 50
314.1682752159
  0
LINE
  5
FE
330
F0
100
AcDbEntity
  8
SLD-0
 62
     7
100
AcDbLine
 10
91.4944519937
 20
138.9152694934
 30
0.0
 11
77.4470118611
 21
153.3765813184
 31
0.0
  0
LINE
  5
FF
330
F0
100
AcDbEntity
  8
SLD-0
 62
     7
100
AcDbLine
 10
99.8556684883
 20
130.3077112605
 30
0.0
 11
91.4944519937
 21
138.9152694934
 31
0.0
  0
LINE
  5
100
330
F0
100
AcDbEntity
  8
SLD-0
 62
     7
100
AcDbLine
 10
77.4470118611
 20
153.3765813184
 30
0.0
 11
56.6908410979
 21
153.3765813184
 31
0.0
  0
MTEXT
  5
102
330
F0
100
AcDbEntity
  8
SLD-0
 62
     7
100
AcDbMText
 10
58.2783410979
 20
158.1506820378
 30
0.0
 40
3.5
 41
0.0
 71
     1
 72
     1
  1
%%c
  7
SLDTEXTSTYLE2
 73
     1
 44
1.0
  0
MTEXT
  5
103
330
F0
100
AcDbEntity
  8
SLD-0
 62
     7
100
AcDbMText
 10
62.914013645
 20
158.1506820378
 30
0.0
 40
3.5
 41
0.0
 71
     1
 72
     1
  1
12
  7
SLDTEXTSTYLE2
 73
     1
 44
1.0
  0
MTEXT
  5
104
330
F0
100
AcDbEntity
  8
SLD-0
 62
     7
100
AcDbMText
 10
67.4626172129
 20
158.1506820378
 30
0.0
 40
3.5
 41
0.0
 71
     1
 72
     1
  1
　 
  7
SLDTEXTSTYLE2
 73
     1
 44
1.0
  0
ENDBLK
  5
FB
330
F0
100
AcDbEntity
  8
0
100
AcDbBlockEnd
  0
BLOCK
  5
111
330
106
100
AcDbEntity
  8
0
100
AcDbBlockBegin
  2
*D9
 70
     1
 71
     0
 10
0.0
 20
0.0
 30
0.0
  3
*D9
  1

  0
LINE
  5
117
330
106
100
AcDbEntity
  8
SLD-0
 62
     7
100
AcDbLine
 10
127.675060241
 20
126.6114903769
 30
0.0
 11
150.0399721087
 21
126.6114903769
 31
0.0
  0
LINE
  5
118
330
106
100
AcDbEntity
  8
SLD-0
 62
     7
100
AcDbLine
 10
127.675060241
 20
142.6114903769
 30
0.0
 11
150.0399721087
 21
142.6114903769
 31
0.0
  0
LINE
  5
119
330
106
100
AcDbEntity
  8
SLD-0
 62
     7
100
AcDbLine
 10
149.0399721087
 20
126.6114903769
 30
0.0
 11
149.0399721087
 21
142.6114903769
 31
0.0
  0
LINE
  5
11A
330
106
100
AcDbEntity
  8
SLD-0
 62
     7
100
AcDbLine
 10
149.8438191087
 20
129.6114903769
 30
0.0
 11
149.0399721087
 21
126.6114903769
 31
0.0
  0
LINE
  5
11B
330
106
100
AcDbEntity
  8
SLD-0
 62
     7
100
AcDbLine
 10
149.0399721087
 20
126.6114903769
 30
0.0
 11
148.2361251087
 21
129.6114903769
 31
0.0
  0
LINE
  5
11C
330
106
100
AcDbEntity
  8
SLD-0
 62
     7
100
AcDbLine
 10
149.0399721087
 20
126.6114903769
 30
0.0
 11
149.0399721087
 21
129.6114903769
 31
0.0
  0
LINE
  5
11D
330
106
100
AcDbEntity
  8
SLD-0
 62
     7
100
AcDbLine
 10
148.2361251087
 20
139.6114903769
 30
0.0
 11
149.0399721087
 21
142.6114903769
 31
0.0
  0
LINE
  5
11E
330
106
100
AcDbEntity
  8
SLD-0
 62
     7
100
AcDbLine
 10
149.0399721087
 20
142.6114903769
 30
0.0
 11
149.8438191087
 21
139.6114903769
 31
0.0
  0
LINE
  5
11F
330
106
100
AcDbEntity
  8
SLD-0
 62
     7
100
AcDbLine
 10
149.0399721087
 20
142.6114903769
 30
0.0
 11
149.0399721087
 21
139.6114903769
 31
0.0
  0
MTEXT
  5
120
330
106
100
AcDbEntity
  8
SLD-0
 62
     7
100
AcDbMText
 10
144.5132782964
 20
132.5750403173
 30
0.1
 40
3.5
 41
0.0
 71
     1
 72
     1
  1
16
  7
SLDTEXTSTYLE2
 11
6.123031769111886E-17
 21
1.0
 31
0.0
 73
     1
 44
1.0
  0
ENDBLK
  5
112
330
106
100
AcDbEntity
  8
0
100
AcDbBlockEnd
  0
BLOCK
  5
115
330
114
100
AcDbEntity
  8
0
100
AcDbBlockBegin
  2
_None
 70
     0
 71
     0
 10
0.0
 20
0.0
 30
0.0
  3
_None
  1

  0
ENDBLK
  5
116
330
114
100
AcDbEntity
  8
0
100
AcDbBlockEnd
  0
BLOCK
  5
12D
330
122
100
AcDbEntity
  8
0
100
AcDbBlockBegin
  2
*D11
 70
     1
 71
     0
 10
0.0
 20
0.0
 30
0.0
  3
*D11
  1

  0
LINE
  5
12F
330
122
100
AcDbEntity
  8
SLD-0
 62
     7
100
AcDbLine
 10
96.675060241
 20
134.6114903769
 30
0.0
 11
138.2434001374
 21
134.6114903769
 31
0.0
  0
LINE
  5
130
330
122
100
AcDbEntity
  8
SLD-0
 62
     7
100
AcDbLine
 10
127.675060241
 20
126.6114903769
 30
0.0
 11
138.2434001374
 21
126.6114903769
 31
0.0
  0
LINE
  5
131
330
122
100
AcDbEntity
  8
SLD-0
 62
     7
100
AcDbLine
 10
137.2434001374
 20
134.6114903769
 30
0.0
 11
137.2434001374
 21
139.6114903769
 31
0.0
  0
LINE
  5
132
330
122
100
AcDbEntity
  8
SLD-0
 62
     7
100
AcDbLine
 10
137.2434001374
 20
134.6114903769
 30
0.0
 11
137.2434001374
 21
126.6114903769
 31
0.0
  0
LINE
  5
133
330
122
100
AcDbEntity
  8
SLD-0
 62
     7
100
AcDbLine
 10
137.2434001374
 20
126.6114903769
 30
0.0
 11
137.2434001374
 21
121.6114903769
 31
0.0
  0
LINE
  5
134
330
122
100
AcDbEntity
  8
SLD-0
 62
     7
100
AcDbLine
 10
138.0472471374
 20
137.6114903769
 30
0.0
 11
137.2434001374
 21
134.6114903769
 31
0.0
  0
LINE
  5
135
330
122
100
AcDbEntity
  8
SLD-0
 62
     7
100
AcDbLine
 10
137.2434001374
 20
134.6114903769
 30
0.0
 11
136.4395531374
 21
137.6114903769
 31
0.0
  0
LINE
  5
136
330
122
100
AcDbEntity
  8
SLD-0
 62
     7
100
AcDbLine
 10
137.2434001374
 20
134.6114903769
 30
0.0
 11
137.2434001374
 21
137.6114903769
 31
0.0
  0
LINE
  5
137
330
122
100
AcDbEntity
  8
SLD-0
 62
     7
100
AcDbLine
 10
136.4395531374
 20
123.6114903769
 30
0.0
 11
137.2434001374
 21
126.6114903769
 31
0.0
  0
LINE
  5
138
330
122
100
AcDbEntity
  8
SLD-0
 62
     7
100
AcDbLine
 10
137.2434001374
 20
126.6114903769
 30
0.0
 11
138.0472471374
 21
123.6114903769
 31
0.0
  0
LINE
  5
139
330
122
100
AcDbEntity
  8
SLD-0
 62
     7
100
AcDbLine
 10
137.2434001374
 20
126.6114903769
 30
0.0
 11
137.2434001374
 21
123.6114903769
 31
0.0
  0
MTEXT
  5
13A
330
122
100
AcDbEntity
  8
SLD-0
 62
     7
100
AcDbMText
 10
132.7167063251
 20
129.5932653471
 30
0.1
 40
3.5
 41
0.0
 71
     1
 72
     1
  1
8
  7
SLDTEXTSTYLE2
 11
6.123031769111886E-17
 21
1.0
 31
0.0
 73
     1
 44
1.0
  0
ENDBLK
  5
12E
330
122
100
AcDbEntity
  8
0
100
AcDbBlockEnd
  0
BLOCK
  5
148
330
13C
100
AcDbEntity
  8
0
100
AcDbBlockBegin
  2
*D12
 70
     1
 71
     0
 10
0.0
 20
0.0
 30
0.0
  3
*D12
  1

  0
LINE
  5
14A
330
13C
100
AcDbEntity
  8
SLD-0
 62
     7
100
AcDbLine
 10
78.675060241
 20
134.1114903769
 30
0.0
 11
73.2206183729
 21
134.1114903769
 31
0.0
  0
LINE
  5
14B
330
13C
100
AcDbEntity
  8
SLD-0
 62
     7
100
AcDbLine
 10
78.675060241
 20
135.1114903769
 30
0.0
 11
73.2206183729
 21
135.1114903769
 31
0.0
  0
LINE
  5
14C
330
13C
100
AcDbEntity
  8
SLD-0
 62
     7
100
AcDbLine
 10
74.2206183729
 20
134.1114903769
 30
0.0
 11
74.2206183729
 21
129.1114903769
 31
0.0
  0
LINE
  5
14D
330
13C
100
AcDbEntity
  8
SLD-0
 62
     7
100
AcDbLine
 10
74.2206183729
 20
134.1114903769
 30
0.0
 11
74.2206183729
 21
135.1114903769
 31
0.0
  0
LINE
  5
14E
330
13C
100
AcDbEntity
  8
SLD-0
 62
     7
100
AcDbLine
 10
74.2206183729
 20
135.1114903769
 30
0.0
 11
74.2206183729
 21
146.7867638597
 31
0.0
  0
LINE
  5
14F
330
13C
100
AcDbEntity
  8
SLD-0
 62
     7
100
AcDbLine
 10
73.4167713729
 20
131.1114903769
 30
0.0
 11
74.2206183729
 21
134.1114903769
 31
0.0
  0
LINE
  5
150
330
13C
100
AcDbEntity
  8
SLD-0
 62
     7
100
AcDbLine
 10
74.2206183729
 20
134.1114903769
 30
0.0
 11
75.0244653729
 21
131.1114903769
 31
0.0
  0
LINE
  5
151
330
13C
100
AcDbEntity
  8
SLD-0
 62
     7
100
AcDbLine
 10
74.2206183729
 20
134.1114903769
 30
0.0
 11
74.2206183729
 21
131.1114903769
 31
0.0
  0
LINE
  5
152
330
13C
100
AcDbEntity
  8
SLD-0
 62
     7
100
AcDbLine
 10
75.0244653729
 20
138.1114903769
 30
0.0
 11
74.2206183729
 21
135.1114903769
 31
0.0
  0
LINE
  5
153
330
13C
100
AcDbEntity
  8
SLD-0
 62
     7
100
AcDbLine
 10
74.2206183729
 20
135.1114903769
 30
0.0
 11
73.4167713729
 21
138.1114903769
 31
0.0
  0
LINE
  5
154
330
13C
100
AcDbEntity
  8
SLD-0
 62
     7
100
AcDbLine
 10
74.2206183729
 20
135.1114903769
 30
0.0
 11
74.2206183729
 21
138.1114903769
 31
0.0
  0
MTEXT
  5
155
330
13C
100
AcDbEntity
  8
SLD-0
 62
     7
100
AcDbMText
 10
69.6939245606
 20
143.1628138001
 30
0.1
 40
3.5
 41
0.0
 71
     1
 72
     1
  1
1
  7
SLDTEXTSTYLE2
 11
6.123031769111886E-17
 21
1.0
 31
0.0
 73
     1
 44
1.0
  0
ENDBLK
  5
149
330
13C
100
AcDbEntity
  8
0
100
AcDbBlockEnd
  0
BLOCK
  5
162
330
157
100
AcDbEntity
  8
0
100
AcDbBlockBegin
  2
*D13
 70
     1
 71
     0
 10
0.0
 20
0.0
 30
0.0
  3
*D13
  1

  0
LINE
  5
164
330
157
100
AcDbEntity
  8
SLD-0
 62
     7
100
AcDbLine
 10
125.275060241
 20
134.6114903769
 30
0.0
 11
65.2751764795
 21
134.6114903769
 31
0.0
  0
LINE
  5
165
330
157
100
AcDbEntity
  8
SLD-0
 62
     7
100
AcDbLine
 10
79.175060241
 20
126.6114903769
 30
0.0
 11
65.2751764795
 21
126.6114903769
 31
0.0
  0
LINE
  5
166
330
157
100
AcDbEntity
  8
SLD-0
 62
     7
100
AcDbLine
 10
66.2751764795
 20
134.6114903769
 30
0.0
 11
66.2751764795
 21
139.6114903769
 31
0.0
  0
LINE
  5
167
330
157
100
AcDbEntity
  8
SLD-0
 62
     7
100
AcDbLine
 10
66.2751764795
 20
134.6114903769
 30
0.0
 11
66.2751764795
 21
126.6114903769
 31
0.0
  0
LINE
  5
168
330
157
100
AcDbEntity
  8
SLD-0
 62
     7
100
AcDbLine
 10
66.2751764795
 20
126.6114903769
 30
0.0
 11
66.2751764795
 21
121.6114903769
 31
0.0
  0
LINE
  5
169
330
157
100
AcDbEntity
  8
SLD-0
 62
     7
100
AcDbLine
 10
67.0790234795
 20
137.6114903769
 30
0.0
 11
66.2751764795
 21
134.6114903769
 31
0.0
  0
LINE
  5
16A
330
157
100
AcDbEntity
  8
SLD-0
 62
     7
100
AcDbLine
 10
66.2751764795
 20
134.6114903769
 30
0.0
 11
65.4713294795
 21
137.6114903769
 31
0.0
  0
LINE
  5
16B
330
157
100
AcDbEntity
  8
SLD-0
 62
     7
100
AcDbLine
 10
66.2751764795
 20
134.6114903769
 30
0.0
 11
66.2751764795
 21
137.6114903769
 31
0.0
  0
LINE
  5
16C
330
157
100
AcDbEntity
  8
SLD-0
 62
     7
100
AcDbLine
 10
65.4713294795
 20
123.6114903769
 30
0.0
 11
66.2751764795
 21
126.6114903769
 31
0.0
  0
LINE
  5
16D
330
157
100
AcDbEntity
  8
SLD-0
 62
     7
100
AcDbLine
 10
66.2751764795
 20
126.6114903769
 30
0.0
 11
67.0790234795
 21
123.6114903769
 31
0.0
  0
LINE
  5
16E
330
157
100
AcDbEntity
  8
SLD-0
 62
     7
100
AcDbLine
 10
66.2751764795
 20
126.6114903769
 30
0.0
 11
66.2751764795
 21
123.6114903769
 31
0.0
  0
MTEXT
  5
16F
330
157
100
AcDbEntity
  8
SLD-0
 62
     7
100
AcDbMText
 10
61.7484826671
 20
129.5932653471
 30
0.1
 40
3.5
 41
0.0
 71
     1
 72
     1
  1
8
  7
SLDTEXTSTYLE2
 11
6.123031769111886E-17
 21
1.0
 31
0.0
 73
     1
 44
1.0
  0
ENDBLK
  5
163
330
157
100
AcDbEntity
  8
0
100
AcDbBlockEnd
  0
BLOCK
  5
17C
330
171
100
AcDbEntity
  8
0
100
AcDbBlockBegin
  2
*D14
 70
     1
 71
     0
 10
0.0
 20
0.0
 30
0.0
  3
*D14
  1

  0
LINE
  5
17E
330
171
100
AcDbEntity
  8
SLD-0
100
AcDbLine
 10
119.675060241
 20
140.6114903769
 30
0.0
 11
119.675060241
 21
153.4369523264
 31
0.0
  0
LINE
  5
17F
330
171
100
AcDbEntity
  8
SLD-0
100
AcDbLine
 10
126.675060241
 20
143.1114903769
 30
0.0
 11
126.675060241
 21
153.4369523264
 31
0.0
  0
LINE
  5
180
330
171
100
AcDbEntity
  8
SLD-0
100
AcDbLine
 10
119.675060241
 20
152.4369523264
 30
0.0
 11
114.675060241
 21
152.4369523264
 31
0.0
  0
LINE
  5
181
330
171
100
AcDbEntity
  8
SLD-0
100
AcDbLine
 10
119.675060241
 20
152.4369523264
 30
0.0
 11
126.675060241
 21
152.4369523264
 31
0.0
  0
LINE
  5
182
330
171
100
AcDbEntity
  8
SLD-0
100
AcDbLine
 10
126.675060241
 20
152.4369523264
 30
0.0
 11
131.675060241
 21
152.4369523264
 31
0.0
  0
LINE
  5
183
330
171
100
AcDbEntity
  8
SLD-0
100
AcDbLine
 10
116.675060241
 20
153.2407993264
 30
0.0
 11
119.675060241
 21
152.4369523264
 31
0.0
  0
LINE
  5
184
330
171
100
AcDbEntity
  8
SLD-0
100
AcDbLine
 10
119.675060241
 20
152.4369523264
 30
0.0
 11
116.675060241
 21
151.6331053264
 31
0.0
  0
LINE
  5
185
330
171
100
AcDbEntity
  8
SLD-0
100
AcDbLine
 10
119.675060241
 20
152.4369523264
 30
0.0
 11
116.675060241
 21
152.4369523264
 31
0.0
  0
LINE
  5
186
330
171
100
AcDbEntity
  8
SLD-0
100
AcDbLine
 10
129.675060241
 20
151.6331053264
 30
0.0
 11
126.675060241
 21
152.4369523264
 31
0.0
  0
LINE
  5
187
330
171
100
AcDbEntity
  8
SLD-0
100
AcDbLine
 10
126.675060241
 20
152.4369523264
 30
0.0
 11
129.675060241
 21
153.2407993264
 31
0.0
  0
LINE
  5
188
330
171
100
AcDbEntity
  8
SLD-0
100
AcDbLine
 10
126.675060241
 20
152.4369523264
 30
0.0
 11
129.675060241
 21
152.4369523264
 31
0.0
  0
MTEXT
  5
189
330
171
100
AcDbEntity
  8
SLD-0
100
AcDbMText
 10
122.1568352112
 20
156.9636461388
 30
0.1
 40
3.5
 41
0.0
 71
     1
 72
     1
  1
7
  7
SLDTEXTSTYLE2
 73
     1
 44
1.0
  0
ENDBLK
  5
17D
330
171
100
AcDbEntity
  8
0
100
AcDbBlockEnd
  0
BLOCK
  5
195
330
18B
100
AcDbEntity
  8
0
100
AcDbBlockBegin
  2
*D15
 70
     1
 71
     0
 10
0.0
 20
0.0
 30
0.0
  3
*D15
  1

  0
LINE
  5
197
330
18B
100
AcDbEntity
  8
SLD-0
100
AcDbLine
 10
95.675060241
 20
144.1114903769
 30
0.0
 11
95.675060241
 21
160.9982291046
 31
0.0
  0
LINE
  5
198
330
18B
100
AcDbEntity
  8
SLD-0
100
AcDbLine
 10
126.675060241
 20
143.1114903769
 30
0.0
 11
126.675060241
 21
160.9982291046
 31
0.0
  0
LINE
  5
199
330
18B
100
AcDbEntity
  8
SLD-0
100
AcDbLine
 10
95.675060241
 20
159.9982291046
 30
0.0
 11
126.675060241
 21
159.9982291046
 31
0.0
  0
LINE
  5
19A
330
18B
100
AcDbEntity
  8
SLD-0
100
AcDbLine
 10
98.675060241
 20
159.1943821046
 30
0.0
 11
95.675060241
 21
159.9982291046
 31
0.0
  0
LINE
  5
19B
330
18B
100
AcDbEntity
  8
SLD-0
100
AcDbLine
 10
95.675060241
 20
159.9982291046
 30
0.0
 11
98.675060241
 21
160.8020761046
 31
0.0
  0
LINE
  5
19C
330
18B
100
AcDbEntity
  8
SLD-0
100
AcDbLine
 10
95.675060241
 20
159.9982291046
 30
0.0
 11
98.675060241
 21
159.9982291046
 31
0.0
  0
LINE
  5
19D
330
18B
100
AcDbEntity
  8
SLD-0
100
AcDbLine
 10
123.675060241
 20
160.8020761046
 30
0.0
 11
126.675060241
 21
159.9982291046
 31
0.0
  0
LINE
  5
19E
330
18B
100
AcDbEntity
  8
SLD-0
100
AcDbLine
 10
126.675060241
 20
159.9982291046
 30
0.0
 11
123.675060241
 21
159.1943821046
 31
0.0
  0
LINE
  5
19F
330
18B
100
AcDbEntity
  8
SLD-0
100
AcDbLine
 10
126.675060241
 20
159.9982291046
 30
0.0
 11
123.675060241
 21
159.9982291046
 31
0.0
  0
MTEXT
  5
1A0
330
18B
100
AcDbEntity
  8
SLD-0
100
AcDbMText
 10
109.1386101814
 20
164.524922917
 30
0.1
 40
3.5
 41
0.0
 71
     1
 72
     1
  1
31
  7
SLDTEXTSTYLE2
 73
     1
 44
1.0
  0
ENDBLK
  5
196
330
18B
100
AcDbEntity
  8
0
100
AcDbBlockEnd
  0
BLOCK
  5
1A9
330
1A2
100
AcDbEntity
  8
0
100
AcDbBlockBegin
  2
*D16
 70
     1
 71
     0
 10
0.0
 20
0.0
 30
0.0
  3
*D16
  1

  0
LINE
  5
1AC
330
1A2
100
AcDbEntity
  8
SLD-0
 62
     7
100
AcDbLine
 10
121.4273328877
 20
132.1764255787
 30
0.0
 11
137.2047597994
 21
110.2511521628
 31
0.0
  0
LINE
  5
1AD
330
1A2
100
AcDbEntity
  8
SLD-0
 62
     7
100
AcDbLine
 10
137.2047597994
 20
110.2511521628
 30
0.0
 11
172.5176214203
 21
110.2511521628
 31
0.0
  0
LINE
  5
1AE
330
1A2
100
AcDbEntity
  8
SLD-0
 62
     7
100
AcDbLine
 10
122.5271323568
 20
129.2718410771
 30
0.0
 11
121.4273328877
 21
132.1764255787
 31
0.0
  0
LINE
  5
1AF
330
1A2
100
AcDbEntity
  8
SLD-0
 62
     7
100
AcDbLine
 10
121.4273328877
 20
132.1764255787
 30
0.0
 11
123.8320787121
 21
130.2108804839
 31
0.0
  0
LINE
  5
1B0
330
1A2
100
AcDbEntity
  8
SLD-0
 62
     7
100
AcDbLine
 10
121.4273328877
 20
132.1764255787
 30
0.0
 11
123.1796055344
 21
129.7413607805
 31
0.0
  0
MTEXT
  5
1B1
330
1A2
100
AcDbEntity
  8
SLD-0
 62
     7
100
AcDbMText
 10
140.3797597994
 20
114.7778459751
 30
0.1
 40
3.5
 41
0.0
 71
     1
 72
     1
  1
M
  7
SLDTEXTSTYLE2
 73
     1
 44
1.0
  0
MTEXT
  5
1B2
330
1A2
100
AcDbEntity
  8
SLD-0
 62
     7
100
AcDbMText
 10
142.416209859
 20
114.7778459751
 30
0.1
 40
3.5
 41
0.0
 71
     1
 72
     1
  1
6
  7
SLDTEXTSTYLE2
 73
     1
 44
1.0
  0
MTEXT
  5
1B3
330
1A2
100
AcDbEntity
  8
SLD-0
 62
     7
100
AcDbMText
 10
144.4526599186
 20
114.7778459751
 30
0.1
 40
3.5
 41
0.0
 71
     1
 72
     1
  1
　P＝0.75貫通
  7
SLDTEXTSTYLE2
 73
     1
 44
1.0
  0
ENDBLK
  5
1AA
330
1A2
100
AcDbEntity
  8
0
100
AcDbBlockEnd
  0
BLOCK
  5
1BF
330
1B5
100
AcDbEntity
  8
0
100
AcDbBlockBegin
  2
*D17
 70
     1
 71
     0
 10
0.0
 20
0.0
 30
0.0
  3
*D17
  1

  0
LINE
  5
1C2
330
1B5
100
AcDbEntity
  8
SLD-0
 62
     7
100
AcDbLine
 10
126.675060241
 20
126.1114903769
 30
0.0
 11
126.675060241
 21
111.2876022224
 31
0.0
  0
LINE
  5
1C3
330
1B5
100
AcDbEntity
  8
SLD-0
 62
     7
100
AcDbLine
 10
103.675060241
 20
133.1114903769
 30
0.0
 11
103.675060241
 21
111.2876022224
 31
0.0
  0
LINE
  5
1C4
330
1B5
100
AcDbEntity
  8
SLD-0
 62
     7
100
AcDbLine
 10
126.675060241
 20
112.2876022224
 30
0.0
 11
103.675060241
 21
112.2876022224
 31
0.0
  0
LINE
  5
1C5
330
1B5
100
AcDbEntity
  8
SLD-0
 62
     7
100
AcDbLine
 10
123.675060241
 20
113.0914492224
 30
0.0
 11
126.675060241
 21
112.2876022224
 31
0.0
  0
LINE
  5
1C6
330
1B5
100
AcDbEntity
  8
SLD-0
 62
     7
100
AcDbLine
 10
126.675060241
 20
112.2876022224
 30
0.0
 11
123.675060241
 21
111.4837552224
 31
0.0
  0
LINE
  5
1C7
330
1B5
100
AcDbEntity
  8
SLD-0
 62
     7
100
AcDbLine
 10
126.675060241
 20
112.2876022224
 30
0.0
 11
123.675060241
 21
112.2876022224
 31
0.0
  0
LINE
  5
1C8
330
1B5
100
AcDbEntity
  8
SLD-0
 62
     7
100
AcDbLine
 10
106.675060241
 20
111.4837552224
 30
0.0
 11
103.675060241
 21
112.2876022224
 31
0.0
  0
LINE
  5
1C9
330
1B5
100
AcDbEntity
  8
SLD-0
 62
     7
100
AcDbLine
 10
103.675060241
 20
112.2876022224
 30
0.0
 11
106.675060241
 21
113.0914492224
 31
0.0
  0
LINE
  5
1CA
330
1B5
100
AcDbEntity
  8
SLD-0
 62
     7
100
AcDbLine
 10
103.675060241
 20
112.2876022224
 30
0.0
 11
106.675060241
 21
112.2876022224
 31
0.0
  0
MTEXT
  5
1CB
330
1B5
100
AcDbEntity
  8
SLD-0
 62
     7
100
AcDbMText
 10
113.1386101814
 20
116.8142960347
 30
0.1
 40
3.5
 41
0.0
 71
     1
 72
     1
  1
23
  7
SLDTEXTSTYLE2
 73
     1
 44
1.0
  0
ENDBLK
  5
1C0
330
1B5
100
AcDbEntity
  8
0
100
AcDbBlockEnd
  0
BLOCK
  5
1D7
330
1CD
100
AcDbEntity
  8
0
100
AcDbBlockBegin
  2
*D18
 70
     1
 71
     0
 10
0.0
 20
0.0
 30
0.0
  3
*D18
  1

  0
ARC
  5
1D9
330
1CD
100
AcDbEntity
  8
SLD-0
 62
     7
100
AcDbCircle
 10
92.1240103006
 20
114.324052282
 30
0.0
 40
4.553640766000004
100
AcDbArc
 50
153.4349488229
 51
206.5650511771
  0
ARC
  5
1DA
330
1CD
100
AcDbEntity
  8
SLD-0
 62
     7
100
AcDbCircle
 10
91.2261101814
 20
114.324052282
 30
0.0
 40
4.553640766000004
100
AcDbArc
 50
333.4349488229
 51
26.5650511771
  0
LINE
  5
1DB
330
1CD
100
AcDbEntity
  8
SLD-0
 62
     7
100
AcDbLine
 10
103.675060241
 20
133.1114903769
 30
0.0
 11
103.675060241
 21
111.2876022224
 31
0.0
  0
LINE
  5
1DC
330
1CD
100
AcDbEntity
  8
SLD-0
 62
     7
100
AcDbLine
 10
79.675060241
 20
126.1114903769
 30
0.0
 11
79.675060241
 21
111.2876022224
 31
0.0
  0
LINE
  5
1DD
330
1CD
100
AcDbEntity
  8
SLD-0
 62
     7
100
AcDbLine
 10
103.675060241
 20
112.2876022224
 30
0.0
 11
79.675060241
 21
112.2876022224
 31
0.0
  0
LINE
  5
1DE
330
1CD
100
AcDbEntity
  8
SLD-0
 62
     7
100
AcDbLine
 10
100.675060241
 20
113.0914492224
 30
0.0
 11
103.675060241
 21
112.2876022224
 31
0.0
  0
LINE
  5
1DF
330
1CD
100
AcDbEntity
  8
SLD-0
 62
     7
100
AcDbLine
 10
103.675060241
 20
112.2876022224
 30
0.0
 11
100.675060241
 21
111.4837552224
 31
0.0
  0
LINE
  5
1E0
330
1CD
100
AcDbEntity
  8
SLD-0
 62
     7
100
AcDbLine
 10
103.675060241
 20
112.2876022224
 30
0.0
 11
100.675060241
 21
112.2876022224
 31
0.0
  0
LINE
  5
1E1
330
1CD
100
AcDbEntity
  8
SLD-0
 62
     7
100
AcDbLine
 10
82.675060241
 20
111.4837552224
 30
0.0
 11
79.675060241
 21
112.2876022224
 31
0.0
  0
LINE
  5
1E2
330
1CD
100
AcDbEntity
  8
SLD-0
 62
     7
100
AcDbLine
 10
79.675060241
 20
112.2876022224
 30
0.0
 11
82.675060241
 21
113.0914492224
 31
0.0
  0
LINE
  5
1E3
330
1CD
100
AcDbEntity
  8
SLD-0
 62
     7
100
AcDbLine
 10
79.675060241
 20
112.2876022224
 30
0.0
 11
82.675060241
 21
112.2876022224
 31
0.0
  0
MTEXT
  5
1E4
330
1CD
100
AcDbEntity
  8
SLD-0
 62
     7
100
AcDbMText
 10
89.6386101814
 20
116.8142960347
 30
0.1
 40
3.5
 41
0.0
 71
     1
 72
     1
  1
24
  7
SLDTEXTSTYLE2
 73
     1
 44
1.0
  0
ENDBLK
  5
1D8
330
1CD
100
AcDbEntity
  8
0
100
AcDbBlockEnd
  0
BLOCK
  5
1F1
330
1E6
100
AcDbEntity
  8
0
100
AcDbBlockBegin
  2
*D19
 70
     1
 71
     0
 10
0.0
 20
0.0
 30
0.0
  3
*D19
  1

  0
LINE
  5
1F3
330
1E6
100
AcDbEntity
  8
SLD-0
 62
     7
100
AcDbLine
 10
127.675060241
 20
209.7405694761
 30
0.0
 11
149.9856369631
 21
209.7405694761
 31
0.0
  0
LINE
  5
1F4
330
1E6
100
AcDbEntity
  8
SLD-0
 62
     7
100
AcDbLine
 10
127.675060241
 20
199.7405694761
 30
0.0
 11
149.9856369631
 21
199.7405694761
 31
0.0
  0
LINE
  5
1F5
330
1E6
100
AcDbEntity
  8
SLD-0
 62
     7
100
AcDbLine
 10
148.9856369631
 20
209.7405694761
 30
0.0
 11
148.9856369631
 21
214.7405694761
 31
0.0
  0
LINE
  5
1F6
330
1E6
100
AcDbEntity
  8
SLD-0
 62
     7
100
AcDbLine
 10
148.9856369631
 20
209.7405694761
 30
0.0
 11
148.9856369631
 21
199.7405694761
 31
0.0
  0
LINE
  5
1F7
330
1E6
100
AcDbEntity
  8
SLD-0
 62
     7
100
AcDbLine
 10
148.9856369631
 20
199.7405694761
 30
0.0
 11
148.9856369631
 21
194.7405694761
 31
0.0
  0
LINE
  5
1F8
330
1E6
100
AcDbEntity
  8
SLD-0
 62
     7
100
AcDbLine
 10
149.7894839631
 20
212.7405694761
 30
0.0
 11
148.9856369631
 21
209.7405694761
 31
0.0
  0
LINE
  5
1F9
330
1E6
100
AcDbEntity
  8
SLD-0
 62
     7
100
AcDbLine
 10
148.9856369631
 20
209.7405694761
 30
0.0
 11
148.1817899631
 21
212.7405694761
 31
0.0
  0
LINE
  5
1FA
330
1E6
100
AcDbEntity
  8
SLD-0
 62
     7
100
AcDbLine
 10
148.9856369631
 20
209.7405694761
 30
0.0
 11
148.9856369631
 21
212.7405694761
 31
0.0
  0
LINE
  5
1FB
330
1E6
100
AcDbEntity
  8
SLD-0
 62
     7
100
AcDbLine
 10
148.1817899631
 20
196.7405694761
 30
0.0
 11
148.9856369631
 21
199.7405694761
 31
0.0
  0
LINE
  5
1FC
330
1E6
100
AcDbEntity
  8
SLD-0
 62
     7
100
AcDbLine
 10
148.9856369631
 20
199.7405694761
 30
0.0
 11
149.7894839631
 21
196.7405694761
 31
0.0
  0
LINE
  5
1FD
330
1E6
100
AcDbEntity
  8
SLD-0
 62
     7
100
AcDbLine
 10
148.9856369631
 20
199.7405694761
 30
0.0
 11
148.9856369631
 21
196.7405694761
 31
0.0
  0
MTEXT
  5
1FE
330
1E6
100
AcDbEntity
  8
SLD-0
 62
     7
100
AcDbMText
 10
144.4589431508
 20
202.7041194165
 30
0.1
 40
3.5
 41
0.0
 71
     1
 72
     1
  1
10
  7
SLDTEXTSTYLE2
 11
6.123031769111886E-17
 21
1.0
 31
0.0
 73
     1
 44
1.0
  0
ENDBLK
  5
1F2
330
1E6
100
AcDbEntity
  8
0
100
AcDbBlockEnd
  0
BLOCK
  5
20A
330
200
100
AcDbEntity
  8
0
100
AcDbBlockBegin
  2
*D20
 70
     1
 71
     0
 10
0.0
 20
0.0
 30
0.0
  3
*D20
  1

  0
LINE
  5
20C
330
200
100
AcDbEntity
  8
SLD-0
 62
     7
100
AcDbLine
 10
126.675060241
 20
205.7405694761
 30
0.0
 11
126.675060241
 21
233.0388610478
 31
0.0
  0
LINE
  5
20D
330
200
100
AcDbEntity
  8
SLD-0
 62
     7
100
AcDbLine
 10
79.675060241
 20
205.7405694761
 30
0.0
 11
79.675060241
 21
233.0388610478
 31
0.0
  0
LINE
  5
20E
330
200
100
AcDbEntity
  8
SLD-0
 62
     7
100
AcDbLine
 10
126.675060241
 20
232.0388610478
 30
0.0
 11
79.675060241
 21
232.0388610478
 31
0.0
  0
LINE
  5
20F
330
200
100
AcDbEntity
  8
SLD-0
 62
     7
100
AcDbLine
 10
123.675060241
 20
232.8427080478
 30
0.0
 11
126.675060241
 21
232.0388610478
 31
0.0
  0
LINE
  5
210
330
200
100
AcDbEntity
  8
SLD-0
 62
     7
100
AcDbLine
 10
126.675060241
 20
232.0388610478
 30
0.0
 11
123.675060241
 21
231.2350140478
 31
0.0
  0
LINE
  5
211
330
200
100
AcDbEntity
  8
SLD-0
 62
     7
100
AcDbLine
 10
126.675060241
 20
232.0388610478
 30
0.0
 11
123.675060241
 21
232.0388610478
 31
0.0
  0
LINE
  5
212
330
200
100
AcDbEntity
  8
SLD-0
 62
     7
100
AcDbLine
 10
82.675060241
 20
231.2350140478
 30
0.0
 11
79.675060241
 21
232.0388610478
 31
0.0
  0
LINE
  5
213
330
200
100
AcDbEntity
  8
SLD-0
 62
     7
100
AcDbLine
 10
79.675060241
 20
232.0388610478
 30
0.0
 11
82.675060241
 21
232.8427080478
 31
0.0
  0
LINE
  5
214
330
200
100
AcDbEntity
  8
SLD-0
 62
     7
100
AcDbLine
 10
79.675060241
 20
232.0388610478
 30
0.0
 11
82.675060241
 21
232.0388610478
 31
0.0
  0
MTEXT
  5
215
330
200
100
AcDbEntity
  8
SLD-0
 62
     7
100
AcDbMText
 10
101.1386101814
 20
236.5655548602
 30
0.1
 40
3.5
 41
0.0
 71
     1
 72
     1
  1
47
  7
SLDTEXTSTYLE2
 73
     1
 44
1.0
  0
ENDBLK
  5
20B
330
200
100
AcDbEntity
  8
0
100
AcDbBlockEnd
  0
BLOCK
  5
221
330
217
100
AcDbEntity
  8
0
100
AcDbBlockBegin
  2
*D21
 70
     1
 71
     0
 10
0.0
 20
0.0
 30
0.0
  3
*D21
  1

  0
LINE
  5
223
330
217
100
AcDbEntity
  8
SLD-0
100
AcDbLine
 10
85.675060241
 20
212.2405694761
 30
0.0
 11
85.675060241
 21
224.7301883244
 31
0.0
  0
LINE
  5
224
330
217
100
AcDbEntity
  8
SLD-0
100
AcDbLine
 10
126.675060241
 20
210.2405694761
 30
0.0
 11
126.675060241
 21
224.7301883244
 31
0.0
  0
LINE
  5
225
330
217
100
AcDbEntity
  8
SLD-0
100
AcDbLine
 10
85.675060241
 20
223.7301883244
 30
0.0
 11
126.675060241
 21
223.7301883244
 31
0.0
  0
LINE
  5
226
330
217
100
AcDbEntity
  8
SLD-0
100
AcDbLine
 10
88.675060241
 20
222.9263413244
 30
0.0
 11
85.675060241
 21
223.7301883244
 31
0.0
  0
LINE
  5
227
330
217
100
AcDbEntity
  8
SLD-0
100
AcDbLine
 10
85.675060241
 20
223.7301883244
 30
0.0
 11
88.675060241
 21
224.5340353244
 31
0.0
  0
LINE
  5
228
330
217
100
AcDbEntity
  8
SLD-0
100
AcDbLine
 10
85.675060241
 20
223.7301883244
 30
0.0
 11
88.675060241
 21
223.7301883244
 31
0.0
  0
LINE
  5
229
330
217
100
AcDbEntity
  8
SLD-0
100
AcDbLine
 10
123.675060241
 20
224.5340353244
 30
0.0
 11
126.675060241
 21
223.7301883244
 31
0.0
  0
LINE
  5
22A
330
217
100
AcDbEntity
  8
SLD-0
100
AcDbLine
 10
126.675060241
 20
223.7301883244
 30
0.0
 11
123.675060241
 21
222.9263413244
 31
0.0
  0
LINE
  5
22B
330
217
100
AcDbEntity
  8
SLD-0
100
AcDbLine
 10
126.675060241
 20
223.7301883244
 30
0.0
 11
123.675060241
 21
223.7301883244
 31
0.0
  0
MTEXT
  5
22C
330
217
100
AcDbEntity
  8
SLD-0
100
AcDbMText
 10
104.1386101814
 20
228.2568821368
 30
0.1
 40
3.5
 41
0.0
 71
     1
 72
     1
  1
41
  7
SLDTEXTSTYLE2
 73
     1
 44
1.0
  0
ENDBLK
  5
222
330
217
100
AcDbEntity
  8
0
100
AcDbBlockEnd
  0
BLOCK
  5
239
330
22E
100
AcDbEntity
  8
0
100
AcDbBlockBegin
  2
*D22
 70
     1
 71
     0
 10
0.0
 20
0.0
 30
0.0
  3
*D22
  1

  0
LINE
  5
23B
330
22E
100
AcDbEntity
  8
SLD-0
100
AcDbLine
 10
127.175060241
 20
199.7405694761
 30
0.0
 11
138.2434001374
 21
199.7405694761
 31
0.0
  0
LINE
  5
23C
330
22E
100
AcDbEntity
  8
SLD-0
100
AcDbLine
 10
125.675060241
 20
204.7405694761
 30
0.0
 11
138.2434001374
 21
204.7405694761
 31
0.0
  0
LINE
  5
23D
330
22E
100
AcDbEntity
  8
SLD-0
100
AcDbLine
 10
137.2434001374
 20
199.7405694761
 30
0.0
 11
137.2434001374
 21
194.7405694761
 31
0.0
  0
LINE
  5
23E
330
22E
100
AcDbEntity
  8
SLD-0
100
AcDbLine
 10
137.2434001374
 20
199.7405694761
 30
0.0
 11
137.2434001374
 21
204.7405694761
 31
0.0
  0
LINE
  5
23F
330
22E
100
AcDbEntity
  8
SLD-0
100
AcDbLine
 10
137.2434001374
 20
204.7405694761
 30
0.0
 11
137.2434001374
 21
209.7405694761
 31
0.0
  0
LINE
  5
240
330
22E
100
AcDbEntity
  8
SLD-0
100
AcDbLine
 10
136.4395531374
 20
196.7405694761
 30
0.0
 11
137.2434001374
 21
199.7405694761
 31
0.0
  0
LINE
  5
241
330
22E
100
AcDbEntity
  8
SLD-0
100
AcDbLine
 10
137.2434001374
 20
199.7405694761
 30
0.0
 11
138.0472471374
 21
196.7405694761
 31
0.0
  0
LINE
  5
242
330
22E
100
AcDbEntity
  8
SLD-0
100
AcDbLine
 10
137.2434001374
 20
199.7405694761
 30
0.0
 11
137.2434001374
 21
196.7405694761
 31
0.0
  0
LINE
  5
243
330
22E
100
AcDbEntity
  8
SLD-0
100
AcDbLine
 10
138.0472471374
 20
207.7405694761
 30
0.0
 11
137.2434001374
 21
204.7405694761
 31
0.0
  0
LINE
  5
244
330
22E
100
AcDbEntity
  8
SLD-0
100
AcDbLine
 10
137.2434001374
 20
204.7405694761
 30
0.0
 11
136.4395531374
 21
207.7405694761
 31
0.0
  0
LINE
  5
245
330
22E
100
AcDbEntity
  8
SLD-0
100
AcDbLine
 10
137.2434001374
 20
204.7405694761
 30
0.0
 11
137.2434001374
 21
207.7405694761
 31
0.0
  0
MTEXT
  5
246
330
22E
100
AcDbEntity
  8
SLD-0
100
AcDbMText
 10
132.7167063251
 20
201.2223444463
 30
0.1
 40
3.5
 41
0.0
 71
     1
 72
     1
  1
5
  7
SLDTEXTSTYLE2
 11
6.123031769111886E-17
 21
1.0
 31
0.0
 73
     1
 44
1.0
  0
ENDBLK
  5
23A
330
22E
100
AcDbEntity
  8
0
100
AcDbBlockEnd
  0
BLOCK
  5
253
330
248
100
AcDbEntity
  8
0
100
AcDbBlockBegin
  2
*D23
 70
     1
 71
     0
 10
0.0
 20
0.0
 30
0.0
  3
*D23
  1

  0
LINE
  5
255
330
248
100
AcDbEntity
  8
SLD-0
100
AcDbLine
 10
79.175060241
 20
199.7405694761
 30
0.0
 11
69.4134399771
 21
199.7405694761
 31
0.0
  0
LINE
  5
256
330
248
100
AcDbEntity
  8
SLD-0
100
AcDbLine
 10
78.175060241
 20
204.7405694761
 30
0.0
 11
69.4134399771
 21
204.7405694761
 31
0.0
  0
LINE
  5
257
330
248
100
AcDbEntity
  8
SLD-0
100
AcDbLine
 10
70.4134399771
 20
199.7405694761
 30
0.0
 11
70.4134399771
 21
194.7405694761
 31
0.0
  0
LINE
  5
258
330
248
100
AcDbEntity
  8
SLD-0
100
AcDbLine
 10
70.4134399771
 20
199.7405694761
 30
0.0
 11
70.4134399771
 21
204.7405694761
 31
0.0
  0
LINE
  5
259
330
248
100
AcDbEntity
  8
SLD-0
100
AcDbLine
 10
70.4134399771
 20
204.7405694761
 30
0.0
 11
70.4134399771
 21
209.7405694761
 31
0.0
  0
LINE
  5
25A
330
248
100
AcDbEntity
  8
SLD-0
100
AcDbLine
 10
69.6095929771
 20
196.7405694761
 30
0.0
 11
70.4134399771
 21
199.7405694761
 31
0.0
  0
LINE
  5
25B
330
248
100
AcDbEntity
  8
SLD-0
100
AcDbLine
 10
70.4134399771
 20
199.7405694761
 30
0.0
 11
71.2172869771
 21
196.7405694761
 31
0.0
  0
LINE
  5
25C
330
248
100
AcDbEntity
  8
SLD-0
100
AcDbLine
 10
70.4134399771
 20
199.7405694761
 30
0.0
 11
70.4134399771
 21
196.7405694761
 31
0.0
  0
LINE
  5
25D
330
248
100
AcDbEntity
  8
SLD-0
100
AcDbLine
 10
71.2172869771
 20
207.7405694761
 30
0.0
 11
70.4134399771
 21
204.7405694761
 31
0.0
  0
LINE
  5
25E
330
248
100
AcDbEntity
  8
SLD-0
100
AcDbLine
 10
70.4134399771
 20
204.7405694761
 30
0.0
 11
69.6095929771
 21
207.7405694761
 31
0.0
  0
LINE
  5
25F
330
248
100
AcDbEntity
  8
SLD-0
100
AcDbLine
 10
70.4134399771
 20
204.7405694761
 30
0.0
 11
70.4134399771
 21
207.7405694761
 31
0.0
  0
MTEXT
  5
260
330
248
100
AcDbEntity
  8
SLD-0
100
AcDbMText
 10
65.8867461648
 20
201.2223444463
 30
0.1
 40
3.5
 41
0.0
 71
     1
 72
     1
  1
5
  7
SLDTEXTSTYLE2
 11
6.123031769111886E-17
 21
1.0
 31
0.0
 73
     1
 44
1.0
  0
ENDBLK
  5
254
330
248
100
AcDbEntity
  8
0
100
AcDbBlockEnd
  0
BLOCK
  5
269
330
262
100
AcDbEntity
  8
0
100
AcDbBlockBegin
  2
*D24
 70
     1
 71
     0
 10
0.0
 20
0.0
 30
0.0
  3
*D24
  1

  0
LINE
  5
26B
330
262
100
AcDbEntity
  8
SLD-0
 62
     7
100
AcDbLine
 10
121.6911684322
 20
206.9621247333
 30
0.0
 11
136.9037810663
 21
223.7249451614
 31
0.0
  0
LINE
  5
26C
330
262
100
AcDbEntity
  8
SLD-0
 62
     7
100
AcDbLine
 10
136.9037810663
 20
223.7249451614
 30
0.0
 11
172.2166426873
 21
223.7249451614
 31
0.0
  0
LINE
  5
26D
330
262
100
AcDbEntity
  8
SLD-0
 62
     7
100
AcDbLine
 10
124.3025401331
 20
208.6434658168
 30
0.0
 11
121.6911684322
 21
206.9621247333
 31
0.0
  0
LINE
  5
26E
330
262
100
AcDbEntity
  8
SLD-0
 62
     7
100
AcDbLine
 10
121.6911684322
 20
206.9621247333
 30
0.0
 11
123.1120131139
 21
209.7238941643
 31
0.0
  0
LINE
  5
26F
330
262
100
AcDbEntity
  8
SLD-0
 62
     7
100
AcDbLine
 10
121.6911684322
 20
206.9621247333
 30
0.0
 11
123.7072766235
 21
209.1836799906
 31
0.0
  0
MTEXT
  5
270
330
262
100
AcDbEntity
  8
SLD-0
 62
     7
100
AcDbMText
 10
140.0787810663
 20
228.2516389737
 30
0.1
 40
3.5
 41
0.0
 71
     1
 72
     1
  1
M
  7
SLDTEXTSTYLE2
 73
     1
 44
1.0
  0
MTEXT
  5
271
330
262
100
AcDbEntity
  8
SLD-0
 62
     7
100
AcDbMText
 10
142.1152311259
 20
228.2516389737
 30
0.1
 40
3.5
 41
0.0
 71
     1
 72
     1
  1
6
  7
SLDTEXTSTYLE2
 73
     1
 44
1.0
  0
MTEXT
  5
272
330
262
100
AcDbEntity
  8
SLD-0
 62
     7
100
AcDbMText
 10
144.1516811855
 20
228.2516389737
 30
0.1
 40
3.5
 41
0.0
 71
     1
 72
     1
  1
　P＝0.75貫通
  7
SLDTEXTSTYLE2
 73
     1
 44
1.0
  0
ENDBLK
  5
26A
330
262
100
AcDbEntity
  8
0
100
AcDbBlockEnd
  0
BLOCK
  5
27B
330
274
100
AcDbEntity
  8
0
100
AcDbBlockBegin
  2
*D25
 70
     1
 71
     0
 10
0.0
 20
0.0
 30
0.0
  3
*D25
  1

  0
LINE
  5
27E
330
274
100
AcDbEntity
  8
SLD-0
 62
     7
100
AcDbLine
 10
86.6926166902
 20
202.7338111766
 30
0.0
 11
96.6290550979
 21
183.1378170112
 31
0.0
  0
LINE
  5
27F
330
274
100
AcDbEntity
  8
SLD-0
 62
     7
100
AcDbLine
 10
96.6290550979
 20
183.1378170112
 30
0.0
 11
139.6760940729
 21
183.1378170112
 31
0.0
  0
LINE
  5
280
330
274
100
AcDbEntity
  8
SLD-0
 62
     7
100
AcDbLine
 10
87.3324134497
 20
199.6945957999
 30
0.0
 11
86.6926166902
 21
202.7338111766
 31
0.0
  0
LINE
  5
281
330
274
100
AcDbEntity
  8
SLD-0
 62
     7
100
AcDbLine
 10
86.6926166902
 20
202.7338111766
 30
0.0
 11
88.7663037953
 21
200.421671088
 31
0.0
  0
LINE
  5
282
330
274
100
AcDbEntity
  8
SLD-0
 62
     7
100
AcDbLine
 10
86.6926166902
 20
202.7338111766
 30
0.0
 11
88.0493586225
 21
200.0581334439
 31
0.0
  0
MTEXT
  5
283
330
274
100
AcDbEntity
  8
SLD-0
 62
     7
100
AcDbMText
 10
98.0540550979
 20
187.6645108236
 30
0.1
 40
3.5
 41
0.0
 71
     1
 72
     1
  1
%%c
  7
SLDTEXTSTYLE2
 73
     1
 44
1.0
  0
MTEXT
  5
284
330
274
100
AcDbEntity
  8
SLD-0
 62
     7
100
AcDbMText
 10
103.6711437749
 20
187.6645108236
 30
0.1
 40
3.5
 41
0.0
 71
     1
 72
     1
  1
4.5
  7
SLDTEXTSTYLE2
 73
     1
 44
1.0
  0
MTEXT
  5
285
330
274
100
AcDbEntity
  8
SLD-0
 62
     7
100
AcDbMText
 10
109.7804939537
 20
187.6645108236
 30
0.1
 40
3.5
 41
0.0
 71
     1
 72
     1
  1
,
  7
SLDTEXTSTYLE2
 73
     1
 44
1.0
  0
MTEXT
  5
286
330
274
100
AcDbEntity
  8
SLD-0
 62
     7
100
AcDbMText
 10
110.0672994512
 20
187.6645108236
 30
0.1
 40
3.5
 41
0.0
 71
     1
 72
     1
  1
%%c
  7
SLDTEXTSTYLE2
 73
     1
 44
1.0
  0
MTEXT
  5
287
330
274
100
AcDbEntity
  8
SLD-0
 62
     7
100
AcDbMText
 10
115.6872299662
 20
187.6645108236
 30
0.1
 40
3.5
 41
0.0
 71
     1
 72
     1
  1
8ｻﾞｸﾞﾘ深4.5
  7
SLDTEXTSTYLE2
 73
     1
 44
1.0
  0
ENDBLK
  5
27C
330
274
100
AcDbEntity
  8
0
100
AcDbBlockEnd
  0
BLOCK
  5
290
330
28F
100
AcDbEntity
  8
0
100
AcDbBlockBegin
  2
SW_NOTE_0
 70
     0
 71
     0
 10
0.0
 20
0.0
 30
0.0
  3
SW_NOTE_0
  1

  0
MTEXT
  5
292
330
28F
100
AcDbEntity
  8
0
  6
Continuous
 62
     7
370
     0
100
AcDbMText
 10
0.0
 20
4.9260606061
 30
0.0
 40
4.2333333333
 41
0.0
 71
     1
 72
     1
  1
φ12　サクション
  7
SLDTEXTSTYLE0
 73
     1
 44
1.0
  0
MTEXT
  5
293
330
28F
100
AcDbEntity
  8
0
  6
Continuous
 62
     7
370
     0
100
AcDbMText
 10
1.9397865981
 20
-0.7183837702
 30
0.0
 40
4.2333333333
 41
0.0
 71
     1
 72
     1
  1
ブラケット　Ｍ6
  7
SLDTEXTSTYLE0
 73
     1
 44
1.0
  0
ENDBLK
  5
291
330
28F
100
AcDbEntity
  8
0
100
AcDbBlockEnd
  0
ENDSEC
  0
SECTION
  2
ENTITIES
  0
LINE
  5
6E
330
1F
100
AcDbEntity
  8
SLD-0
100
AcDbLine
 10
83.2232604785
 20
124.9076277165
 30
0.0
 11
85.7425564187
 21
126.6114903769
 31
0.0
  0
LINE
  5
6F
330
1F
100
AcDbEntity
  8
SLD-0
100
AcDbLine
 10
85.7425564187
 20
126.6114903769
 30
0.0
 11
83.9120427435
 21
124.1826594472
 31
0.0
  0
LINE
  5
70
330
1F
100
AcDbEntity
  8
SLD-0
100
AcDbLine
 10
83.9120427435
 20
124.1826594472
 30
0.0
 11
83.2232604785
 21
124.9076277165
 31
0.0
  0
LINE
  5
71
330
1F
100
AcDbEntity
  8
SLD-0
  6
Continuous
 62
     7
100
AcDbLine
 10
80.1750604943
 20
134.1114903532
 30
0.0
 11
80.1750604943
 21
126.611489997
 31
0.0
  0
LINE
  5
72
330
1F
100
AcDbEntity
  8
SLD-0
  6
Continuous
 62
     7
100
AcDbLine
 10
79.675059481
 20
127.1114905446
 30
0.0
 11
80.1750604943
 21
126.611489997
 31
0.0
  0
LINE
  5
73
330
1F
100
AcDbEntity
  8
SLD-0
  6
Continuous
 62
     7
100
AcDbLine
 10
79.675059481
 20
127.1114905446
 30
0.0
 11
79.675059481
 21
134.1114903532
 31
0.0
  0
LINE
  5
74
330
1F
100
AcDbEntity
  8
SLD-0
  6
Continuous
 62
     7
100
AcDbLine
 10
79.675059481
 20
134.1114903532
 30
0.0
 11
80.1750604943
 21
134.1114903532
 31
0.0
  0
LINE
  5
75
330
1F
100
AcDbEntity
  8
SLD-0
  6
Continuous
 62
     7
100
AcDbLine
 10
79.675059481
 20
135.1114903532
 30
0.0
 11
79.675059481
 21
142.1114902093
 31
0.0
  0
LINE
  5
76
330
1F
100
AcDbEntity
  8
SLD-0
  6
Continuous
 62
     7
100
AcDbLine
 10
79.675059481
 20
142.1114902093
 30
0.0
 11
80.1750604943
 21
142.6114907569
 31
0.0
  0
LINE
  5
77
330
1F
100
AcDbEntity
  8
SLD-0
  6
Continuous
 62
     7
100
AcDbLine
 10
80.1750604943
 20
142.6114907569
 30
0.0
 11
80.1750604943
 21
135.1114903532
 31
0.0
  0
LINE
  5
78
330
1F
100
AcDbEntity
  8
SLD-0
  6
Continuous
 62
     7
100
AcDbLine
 10
80.1750604943
 20
135.1114903532
 30
0.0
 11
79.675059481
 21
135.1114903532
 31
0.0
  0
LINE
  5
79
330
1F
100
AcDbEntity
  8
SLD-0
  6
Continuous
 62
     7
100
AcDbLine
 10
126.1750605837
 20
142.6114907569
 30
0.0
 11
80.1750604943
 21
142.6114907569
 31
0.0
  0
LINE
  5
7A
330
1F
100
AcDbEntity
  8
SLD-0
  6
Continuous
 62
     7
100
AcDbLine
 10
126.1750605837
 20
126.611489997
 30
0.0
 11
126.1750605837
 21
142.6114907569
 31
0.0
  0
LINE
  5
7B
330
1F
100
AcDbEntity
  8
SLD-0
  6
Continuous
 62
     7
100
AcDbLine
 10
80.1750604943
 20
126.611489997
 30
0.0
 11
126.1750605837
 21
126.611489997
 31
0.0
  0
LINE
  5
7C
330
1F
100
AcDbEntity
  8
SLD-0
  6
Continuous
 62
     7
100
AcDbLine
 10
101.6541906126
 20
134.1114903532
 30
0.0
 11
103.6750606209
 21
134.1114903295
 31
0.0
  0
LINE
  5
7D
330
1F
100
AcDbEntity
  8
SLD-0
  6
Continuous
 62
     7
100
AcDbLine
 10
103.6750606209
 20
134.1114903295
 30
0.0
 11
103.6750606209
 21
135.111490377
 31
0.0
  0
LINE
  5
7E
330
1F
100
AcDbEntity
  8
SLD-0
  6
Continuous
 62
     7
100
AcDbLine
 10
103.6750606209
 20
135.111490377
 30
0.0
 11
101.6541906125
 21
135.1114903532
 31
0.0
  0
LINE
  5
7F
330
1F
100
AcDbEntity
  8
SLD-0
  6
Continuous
 62
     7
100
AcDbLine
 10
89.6959298694
 20
135.1114903532
 30
0.0
 11
80.1750604943
 21
135.1114903532
 31
0.0
  0
LINE
  5
80
330
1F
100
AcDbEntity
  8
SLD-0
  6
Continuous
 62
     7
100
AcDbLine
 10
80.1750604943
 20
134.1114903532
 30
0.0
 11
89.6959298694
 21
134.1114903532
 31
0.0
  0
LINE
  5
81
330
1F
100
AcDbEntity
  8
SLD-0
  6
Continuous
 62
     7
100
AcDbLine
 10
126.6750597343
 20
142.1114902093
 30
0.0
 11
126.6750597343
 21
127.1114905446
 31
0.0
  0
LINE
  5
82
330
1F
100
AcDbEntity
  8
SLD-0
  6
Continuous
 62
     7
100
AcDbLine
 10
126.6750597343
 20
127.1114905446
 30
0.0
 11
126.1750605837
 21
126.611489997
 31
0.0
  0
LINE
  5
83
330
1F
100
AcDbEntity
  8
SLD-0
  6
Continuous
 62
     7
100
AcDbLine
 10
126.6750597343
 20
142.1114902093
 30
0.0
 11
126.1750605837
 21
142.6114907569
 31
0.0
  0
LINE
  5
84
330
1F
100
AcDbEntity
  8
SLD-0
  6
HIDDEN
 62
     7
100
AcDbLine
 10
85.675060241
 20
138.1114903769
 30
0.0
 11
89.675060241
 21
138.1114903769
 31
0.0
  0
LINE
  5
85
330
1F
100
AcDbEntity
  8
SLD-0
  6
HIDDEN
 62
     7
100
AcDbLine
 10
81.675060241
 20
138.1114903769
 30
0.0
 11
85.675060241
 21
138.1114903769
 31
0.0
  0
LINE
  5
86
330
1F
100
AcDbEntity
  8
SLD-0
  6
HIDDEN
 62
     7
100
AcDbLine
 10
81.6750598088
 20
142.6114907569
 30
0.0
 11
81.675060241
 21
138.1114903769
 31
0.0
  0
LINE
  5
87
330
1F
100
AcDbEntity
  8
SLD-0
  6
HIDDEN
 62
     7
100
AcDbLine
 10
89.675060241
 20
138.1114903769
 30
0.0
 11
89.6750601888
 21
142.6114907569
 31
0.0
  0
LINE
  5
88
330
1F
100
AcDbEntity
  8
SLD-0
  6
HIDDEN
 62
     7
100
AcDbLine
 10
117.1750609711
 20
142.6114907569
 30
0.0
 11
117.1750609711
 21
134.6114903769
 31
0.0
  0
LINE
  5
89
330
1F
100
AcDbEntity
  8
SLD-0
  6
HIDDEN
 62
     7
100
AcDbLine
 10
122.175060241
 20
134.6114903769
 30
0.0
 11
122.175059928
 21
142.6114907569
 31
0.0
  0
LINE
  5
8A
330
1F
100
AcDbEntity
  8
SLD-0
  6
HIDDEN
 62
     7
100
AcDbLine
 10
117.1750609711
 20
134.6114903769
 30
0.0
 11
117.1750609711
 21
126.611489997
 31
0.0
  0
LINE
  5
8B
330
1F
100
AcDbEntity
  8
SLD-0
  6
HIDDEN
 62
     7
100
AcDbLine
 10
122.175059928
 20
126.611489997
 30
0.0
 11
122.175060241
 21
134.6114903769
 31
0.0
  0
LINE
  5
8C
330
1F
100
AcDbEntity
  8
SLD-0
  6
HIDDEN
 62
     7
100
AcDbLine
 10
83.4250605613
 20
138.111490485
 30
0.0
 11
83.4250605613
 21
135.1114904007
 31
0.0
  0
LINE
  5
8D
330
1F
100
AcDbEntity
  8
SLD-0
  6
HIDDEN
 62
     7
100
AcDbLine
 10
87.9250603676
 20
135.1114904007
 30
0.0
 11
87.9250603676
 21
138.111490485
 31
0.0
  0
LINE
  5
8E
330
1F
100
AcDbEntity
  8
SLD-0
  6
HIDDEN
 62
     7
100
AcDbLine
 10
84.0250604734
 20
134.1114903532
 30
0.0
 11
84.0250604734
 21
126.611489997
 31
0.0
  0
LINE
  5
8F
330
1F
100
AcDbEntity
  8
SLD-0
  6
HIDDEN
 62
     7
100
AcDbLine
 10
87.3250604555
 20
126.611489997
 30
0.0
 11
87.3250604555
 21
134.1114903532
 31
0.0
  0
LINE
  5
90
330
1F
100
AcDbEntity
  8
SLD-0
 62
     7
100
AcDbLine
 10
126.425060241
 20
142.3614903769
 30
0.0
 11
131.5136958839
 21
145.0551783725
 31
0.0
  0
LINE
  5
91
330
1F
100
AcDbEntity
  8
SLD-0
 62
     7
100
AcDbLine
 10
131.5136958839
 20
145.0551783725
 30
0.0
 11
145.0906173421
 21
152.3100535896
 31
0.0
  0
LINE
  5
92
330
1F
100
AcDbEntity
  8
SLD-0
100
AcDbLine
 10
83.567651611
 20
124.5451435819
 30
0.0
 11
74.1173657926
 21
115.5665585221
 31
0.0
  0
LINE
  5
93
330
1F
100
AcDbEntity
  8
SLD-0
100
AcDbLine
 10
74.1173657926
 20
115.5665585221
 30
0.0
 11
69.5444656734
 21
115.5665585221
 31
0.0
  0
LINE
  5
94
330
1F
100
AcDbEntity
  8
SLD-0
  6
HIDDEN
 62
     7
100
AcDbLine
 10
87.675059861
 20
126.611489997
 30
0.0
 11
87.675059861
 21
134.1114903532
 31
0.0
  0
LINE
  5
95
330
1F
100
AcDbEntity
  8
SLD-0
  6
HIDDEN
 62
     7
100
AcDbLine
 10
83.6750601367
 20
134.1114903532
 30
0.0
 11
83.6750601367
 21
126.611489997
 31
0.0
  0
LINE
  5
96
330
1F
100
AcDbEntity
  8
SLD-0
  6
HIDDEN
 62
     7
100
AcDbLine
 10
122.0504042641
 20
132.779976431
 30
0.0
 11
122.0583968744
 21
132.789483139
 31
0.0
  0
LINE
  5
97
330
1F
100
AcDbEntity
  8
SLD-0
  6
HIDDEN
 62
     7
100
AcDbLine
 10
122.0583968744
 20
132.789483139
 30
0.0
 11
122.1622318909
 21
132.933999024
 31
0.0
  0
LINE
  5
98
330
1F
100
AcDbEntity
  8
SLD-0
  6
HIDDEN
 62
     7
100
AcDbLine
 10
122.1622318909
 20
132.933999024
 30
0.0
 11
122.1747898445
 21
132.9525758826
 31
0.0
  0
LINE
  5
99
330
1F
100
AcDbEntity
  8
SLD-0
  6
HIDDEN
 62
     7
100
AcDbLine
 10
122.1747898445
 20
132.9525758826
 30
0.0
 11
122.1588735417
 21
132.9290293704
 31
0.0
  0
LINE
  5
9A
330
1F
100
AcDbEntity
  8
SLD-0
  6
HIDDEN
 62
     7
100
AcDbLine
 10
122.1588735417
 20
132.9290293704
 30
0.0
 11
122.10915768
 21
132.8578878508
 31
0.0
  0
LINE
  5
9B
330
1F
100
AcDbEntity
  8
SLD-0
  6
HIDDEN
 62
     7
100
AcDbLine
 10
122.10915768
 20
132.8578878508
 30
0.0
 11
122.030121921
 21
132.753081232
 31
0.0
  0
LINE
  5
9C
330
1F
100
AcDbEntity
  8
SLD-0
  6
HIDDEN
 62
     7
100
AcDbLine
 10
122.030121921
 20
132.753081232
 30
0.0
 11
121.8516805157
 21
132.5473580125
 31
0.0
  0
LINE
  5
9D
330
1F
100
AcDbEntity
  8
SLD-0
  6
HIDDEN
 62
     7
100
AcDbLine
 10
121.8516805157
 20
132.5473580125
 30
0.0
 11
121.6143478588
 21
132.3225688736
 31
0.0
  0
LINE
  5
9E
330
1F
100
AcDbEntity
  8
SLD-0
  6
HIDDEN
 62
     7
100
AcDbLine
 10
121.6143478588
 20
132.3225688736
 30
0.0
 11
121.3042304799
 21
132.0926525711
 31
0.0
  0
LINE
  5
9F
330
1F
100
AcDbEntity
  8
SLD-0
  6
HIDDEN
 62
     7
100
AcDbLine
 10
121.3042304799
 20
132.0926525711
 30
0.0
 11
120.9327817843
 21
131.8878647487
 31
0.0
  0
LINE
  5
A0
330
1F
100
AcDbEntity
  8
SLD-0
  6
HIDDEN
 62
     7
100
AcDbLine
 10
120.9327817843
 20
131.8878647487
 30
0.0
 11
120.6196729973
 21
131.764260315
 31
0.0
  0
LINE
  5
A1
330
1F
100
AcDbEntity
  8
SLD-0
  6
HIDDEN
 62
     7
100
AcDbLine
 10
120.6196729973
 20
131.764260315
 30
0.0
 11
120.2790995077
 21
131.6729301668
 31
0.0
  0
LINE
  5
A2
330
1F
100
AcDbEntity
  8
SLD-0
  6
HIDDEN
 62
     7
100
AcDbLine
 10
120.2790995077
 20
131.6729301668
 30
0.0
 11
119.6750604496
 21
131.6114903509
 31
0.0
  0
LINE
  5
A3
330
1F
100
AcDbEntity
  8
SLD-0
  6
HIDDEN
 62
     7
100
AcDbLine
 10
122.6750609413
 20
126.611489997
 30
0.0
 11
122.6750609413
 21
142.6114907569
 31
0.0
  0
LINE
  5
A4
330
1F
100
AcDbEntity
  8
SLD-0
  6
HIDDEN
 62
     7
100
AcDbLine
 10
116.6750599578
 20
142.6114907569
 30
0.0
 11
116.6750599578
 21
126.611489997
 31
0.0
  0
LINE
  5
A5
330
1F
100
AcDbEntity
  8
SLD-0
  6
HIDDEN
 62
     7
100
AcDbLine
 10
119.6750604496
 20
137.1114903211
 30
0.0
 11
119.8195011303
 21
137.1010916388
 31
0.0
  0
LINE
  5
A6
330
1F
100
AcDbEntity
  8
SLD-0
  6
HIDDEN
 62
     7
100
AcDbLine
 10
122.1748140589
 20
134.6135423634
 30
0.0
 11
122.1716717765
 21
134.5537979048
 31
0.0
  0
LINE
  5
A7
330
1F
100
AcDbEntity
  8
SLD-0
  6
CENTERX2
 62
     7
100
AcDbLine
 10
85.675060241
 20
124.6114903769
 30
0.0
 11
85.675060241
 21
144.6114903769
 31
0.0
  0
LINE
  5
A8
330
1F
100
AcDbEntity
  8
SLD-0
  6
CENTERX2
 62
     7
100
AcDbLine
 10
119.675060241
 20
134.6114903769
 30
0.0
 11
119.675060241
 21
144.6114903769
 31
0.0
  0
LINE
  5
A9
330
1F
100
AcDbEntity
  8
SLD-0
  6
CENTERX2
 62
     7
100
AcDbLine
 10
119.675060241
 20
124.6114903769
 30
0.0
 11
119.675060241
 21
134.6114903769
 31
0.0
  0
LINE
  5
AA
330
1F
100
AcDbEntity
  8
SLD-0
  6
Continuous
 62
     7
100
AcDbLine
 10
79.675059481
 20
200.2405696698
 30
0.0
 11
79.675059481
 21
209.2405692824
 31
0.0
  0
LINE
  5
AB
330
1F
100
AcDbEntity
  8
SLD-0
  6
Continuous
 62
     7
100
AcDbLine
 10
80.1750604943
 20
209.7405693643
 30
0.0
 11
80.1750604943
 21
199.7405695878
 31
0.0
  0
LINE
  5
AC
330
1F
100
AcDbEntity
  8
SLD-0
  6
Continuous
 62
     7
100
AcDbLine
 10
79.675059481
 20
200.2405696698
 30
0.0
 11
80.1750604943
 21
199.7405695878
 31
0.0
  0
LINE
  5
AD
330
1F
100
AcDbEntity
  8
SLD-0
  6
Continuous
 62
     7
100
AcDbLine
 10
80.1750604943
 20
209.7405693643
 30
0.0
 11
79.675059481
 21
209.2405692824
 31
0.0
  0
LINE
  5
AE
330
1F
100
AcDbEntity
  8
SLD-0
  6
Continuous
 62
     7
100
AcDbLine
 10
126.1750605837
 20
209.7405693643
 30
0.0
 11
80.1750604943
 21
209.7405693643
 31
0.0
  0
LINE
  5
AF
330
1F
100
AcDbEntity
  8
SLD-0
  6
Continuous
 62
     7
100
AcDbLine
 10
126.1750605837
 20
199.7405695878
 30
0.0
 11
126.1750605837
 21
209.7405693643
 31
0.0
  0
LINE
  5
B0
330
1F
100
AcDbEntity
  8
SLD-0
  6
Continuous
 62
     7
100
AcDbLine
 10
126.1750605837
 20
199.7405695878
 30
0.0
 11
80.1750604943
 21
199.7405695878
 31
0.0
  0
LINE
  5
B1
330
1F
100
AcDbEntity
  8
SLD-0
  6
Continuous
 62
     7
100
AcDbLine
 10
126.6750597343
 20
209.2405692824
 30
0.0
 11
126.6750597343
 21
200.2405696698
 31
0.0
  0
LINE
  5
B2
330
1F
100
AcDbEntity
  8
SLD-0
  6
Continuous
 62
     7
100
AcDbLine
 10
126.6750597343
 20
200.2405696698
 30
0.0
 11
126.1750605837
 21
199.7405695878
 31
0.0
  0
LINE
  5
B3
330
1F
100
AcDbEntity
  8
SLD-0
  6
Continuous
 62
     7
100
AcDbLine
 10
126.1750605837
 20
209.7405693643
 30
0.0
 11
126.6750597343
 21
209.2405692824
 31
0.0
  0
LINE
  5
B4
330
1F
100
AcDbEntity
  8
SLD-0
  6
HIDDEN
 62
     7
100
AcDbLine
 10
89.6959297307
 20
209.7405693643
 30
0.0
 11
89.6959297307
 21
199.7405695878
 31
0.0
  0
LINE
  5
B5
330
1F
100
AcDbEntity
  8
SLD-0
  6
HIDDEN
 62
     7
100
AcDbLine
 10
101.6541907512
 20
199.7405695878
 30
0.0
 11
101.6541907512
 21
209.7405693643
 31
0.0
  0
LINE
  5
B6
330
1F
100
AcDbEntity
  8
SLD-0
  6
HIDDEN
 62
     7
100
AcDbLine
 10
103.6750606209
 20
209.7405693643
 30
0.0
 11
103.6750606209
 21
199.7405695878
 31
0.0
  0
LINE
  5
B7
330
1F
100
AcDbEntity
  8
SLD-0
  6
HIDDEN
 62
     7
100
AcDbLine
 10
122.175059928
 20
204.7405694761
 30
0.0
 11
122.175059928
 21
209.7405693643
 31
0.0
  0
LINE
  5
B8
330
1F
100
AcDbEntity
  8
SLD-0
  6
HIDDEN
 62
     7
100
AcDbLine
 10
117.1750609711
 20
209.7405693643
 30
0.0
 11
117.1750609711
 21
204.7405694761
 31
0.0
  0
LINE
  5
B9
330
1F
100
AcDbEntity
  8
SLD-0
  6
HIDDEN
 62
     7
100
AcDbLine
 10
122.175059928
 20
199.7405695878
 30
0.0
 11
122.175059928
 21
204.7405694761
 31
0.0
  0
LINE
  5
BA
330
1F
100
AcDbEntity
  8
SLD-0
  6
HIDDEN
 62
     7
100
AcDbLine
 10
117.1750609711
 20
204.7405694761
 30
0.0
 11
117.1750609711
 21
199.7405695878
 31
0.0
  0
LINE
  5
BB
330
1F
100
AcDbEntity
  8
SLD-0
 62
     7
100
AcDbLine
 10
79.925060241
 20
209.4905694761
 30
0.0
 11
62.3790786855
 21
222.5141084999
 31
0.0
  0
LINE
  5
BC
330
1F
100
AcDbEntity
  8
SLD-0
 62
     7
100
AcDbLine
 10
62.3790786855
 20
222.5141084999
 30
0.0
 11
74.7313075263
 21
213.3277896853
 31
0.0
  0
LINE
  5
BD
330
1F
100
AcDbEntity
  8
SLD-0
  6
HIDDEN
 62
     7
100
AcDbLine
 10
116.6750599578
 20
209.7405693643
 30
0.0
 11
116.6750599578
 21
199.7405695878
 31
0.0
  0
LINE
  5
BE
330
1F
100
AcDbEntity
  8
SLD-0
  6
HIDDEN
 62
     7
100
AcDbLine
 10
122.6750609413
 20
199.7405695878
 30
0.0
 11
122.6750609413
 21
209.7405693643
 31
0.0
  0
LINE
  5
BF
330
1F
100
AcDbEntity
  8
SLD-0
  6
HIDDEN
 62
     7
100
AcDbLine
 10
119.6750604496
 20
207.7405695022
 30
0.0
 11
120.0293597714
 21
207.7193174195
 31
0.0
  0
LINE
  5
C0
330
1F
100
AcDbEntity
  8
SLD-0
  6
HIDDEN
 62
     7
100
AcDbLine
 10
120.0293597714
 20
207.7193174195
 30
0.0
 11
120.3723118589
 21
207.6584177707
 31
0.0
  0
LINE
  5
C1
330
1F
100
AcDbEntity
  8
SLD-0
  6
HIDDEN
 62
     7
100
AcDbLine
 10
120.3723118589
 20
207.6584177707
 30
0.0
 11
120.6922360644
 21
207.5627329909
 31
0.0
  0
LINE
  5
C2
330
1F
100
AcDbEntity
  8
SLD-0
  6
HIDDEN
 62
     7
100
AcDbLine
 10
120.6922360644
 20
207.5627329909
 30
0.0
 11
120.9858392314
 21
207.4390612692
 31
0.0
  0
LINE
  5
C3
330
1F
100
AcDbEntity
  8
SLD-0
  6
HIDDEN
 62
     7
100
AcDbLine
 10
120.9858392314
 20
207.4390612692
 30
0.0
 11
121.3389576361
 21
207.2366383076
 31
0.0
  0
LINE
  5
C4
330
1F
100
AcDbEntity
  8
SLD-0
  6
HIDDEN
 62
     7
100
AcDbLine
 10
121.3389576361
 20
207.2366383076
 30
0.0
 11
121.6342539475
 21
207.0124766473
 31
0.0
  0
LINE
  5
C5
330
1F
100
AcDbEntity
  8
SLD-0
  6
HIDDEN
 62
     7
100
AcDbLine
 10
121.6342539475
 20
207.0124766473
 30
0.0
 11
121.8745202706
 21
206.7802637034
 31
0.0
  0
LINE
  5
C6
330
1F
100
AcDbEntity
  8
SLD-0
  6
HIDDEN
 62
     7
100
AcDbLine
 10
121.8745202706
 20
206.7802637034
 30
0.0
 11
122.0510375634
 21
206.5721621188
 31
0.0
  0
LINE
  5
C7
330
1F
100
AcDbEntity
  8
SLD-0
  6
HIDDEN
 62
     7
100
AcDbLine
 10
122.0510375634
 20
206.5721621188
 30
0.0
 11
122.1600600467
 21
206.42127785
 31
0.0
  0
LINE
  5
C8
330
1F
100
AcDbEntity
  8
SLD-0
  6
HIDDEN
 62
     7
100
AcDbLine
 10
122.1600600467
 20
206.42127785
 30
0.0
 11
122.1748308227
 21
206.3994313507
 31
0.0
  0
LINE
  5
C9
330
1F
100
AcDbEntity
  8
SLD-0
  6
HIDDEN
 62
     7
100
AcDbLine
 10
122.1748308227
 20
206.3994313507
 30
0.0
 11
122.1605666861
 21
206.4205261562
 31
0.0
  0
LINE
  5
CA
330
1F
100
AcDbEntity
  8
SLD-0
  6
HIDDEN
 62
     7
100
AcDbLine
 10
122.1605666861
 20
206.4205261562
 30
0.0
 11
122.1132126585
 21
206.4885371514
 31
0.0
  0
LINE
  5
CB
330
1F
100
AcDbEntity
  8
SLD-0
  6
HIDDEN
 62
     7
100
AcDbLine
 10
122.1132126585
 20
206.4885371514
 30
0.0
 11
122.0644243941
 21
206.5536361337
 31
0.0
  0
LINE
  5
CC
330
1F
100
AcDbEntity
  8
SLD-0
  6
HIDDEN
 62
     7
100
AcDbLine
 10
117.2997166351
 20
206.572083422
 30
0.0
 11
117.2917240248
 21
206.562576714
 31
0.0
  0
LINE
  5
CD
330
1F
100
AcDbEntity
  8
SLD-0
  6
HIDDEN
 62
     7
100
AcDbLine
 10
117.2917240248
 20
206.562576714
 30
0.0
 11
117.1878890083
 21
206.418060829
 31
0.0
  0
LINE
  5
CE
330
1F
100
AcDbEntity
  8
SLD-0
  6
HIDDEN
 62
     7
100
AcDbLine
 10
117.1878890083
 20
206.418060829
 30
0.0
 11
117.1753310547
 21
206.3994839704
 31
0.0
  0
LINE
  5
CF
330
1F
100
AcDbEntity
  8
SLD-0
  6
HIDDEN
 62
     7
100
AcDbLine
 10
117.1753310547
 20
206.3994839704
 30
0.0
 11
117.1912473575
 21
206.4230304826
 31
0.0
  0
LINE
  5
D0
330
1F
100
AcDbEntity
  8
SLD-0
  6
HIDDEN
 62
     7
100
AcDbLine
 10
117.1912473575
 20
206.4230304826
 30
0.0
 11
117.2409632191
 21
206.4941720022
 31
0.0
  0
LINE
  5
D1
330
1F
100
AcDbEntity
  8
SLD-0
  6
HIDDEN
 62
     7
100
AcDbLine
 10
117.2409632191
 20
206.4941720022
 30
0.0
 11
117.3199989781
 21
206.598978621
 31
0.0
  0
LINE
  5
D2
330
1F
100
AcDbEntity
  8
SLD-0
  6
HIDDEN
 62
     7
100
AcDbLine
 10
117.3199989781
 20
206.598978621
 30
0.0
 11
117.4984403834
 21
206.8047018405
 31
0.0
  0
LINE
  5
D3
330
1F
100
AcDbEntity
  8
SLD-0
  6
HIDDEN
 62
     7
100
AcDbLine
 10
117.4984403834
 20
206.8047018405
 30
0.0
 11
117.7357730404
 21
207.0294909794
 31
0.0
  0
LINE
  5
D4
330
1F
100
AcDbEntity
  8
SLD-0
  6
HIDDEN
 62
     7
100
AcDbLine
 10
117.7357730404
 20
207.0294909794
 30
0.0
 11
118.0458904192
 21
207.2594072819
 31
0.0
  0
LINE
  5
D5
330
1F
100
AcDbEntity
  8
SLD-0
  6
HIDDEN
 62
     7
100
AcDbLine
 10
118.0458904192
 20
207.2594072819
 30
0.0
 11
118.4173391149
 21
207.4641951044
 31
0.0
  0
LINE
  5
D6
330
1F
100
AcDbEntity
  8
SLD-0
  6
HIDDEN
 62
     7
100
AcDbLine
 10
118.4173391149
 20
207.4641951044
 30
0.0
 11
118.7304479018
 21
207.587799538
 31
0.0
  0
LINE
  5
D7
330
1F
100
AcDbEntity
  8
SLD-0
  6
HIDDEN
 62
     7
100
AcDbLine
 10
118.7304479018
 20
207.587799538
 30
0.0
 11
119.0710213915
 21
207.6791296863
 31
0.0
  0
LINE
  5
D8
330
1F
100
AcDbEntity
  8
SLD-0
  6
HIDDEN
 62
     7
100
AcDbLine
 10
119.0710213915
 20
207.6791296863
 30
0.0
 11
119.6750604496
 21
207.7405695022
 31
0.0
  0
LINE
  5
D9
330
1F
100
AcDbEntity
  8
SLD-0
  6
CENTERX2
 62
     7
100
AcDbLine
 10
119.675060241
 20
204.7405694761
 30
0.0
 11
119.675060241
 21
197.7405694761
 31
0.0
  0
LINE
  5
DA
330
1F
100
AcDbEntity
  8
SLD-0
  6
CENTERX2
 62
     7
100
AcDbLine
 10
95.675060241
 20
197.7405694761
 30
0.0
 11
95.675060241
 21
211.7405694761
 31
0.0
  0
LINE
  5
DB
330
1F
100
AcDbEntity
  8
SLD-0
  6
CENTERX2
 62
     7
100
AcDbLine
 10
119.675060241
 20
211.7405694761
 30
0.0
 11
119.675060241
 21
204.7405694761
 31
0.0
  0
LINE
  5
DC
330
1F
100
AcDbEntity
  8
0
  6
Continuous
 62
     7
370
     0
100
AcDbLine
 10
20.2604743903
 20
285.0
 30
0.0
 11
196.7604743903
 21
285.0
 31
0.0
  0
LINE
  5
DD
330
1F
100
AcDbEntity
  8
0
  6
Continuous
 62
     7
370
     0
100
AcDbLine
 10
20.2604743903
 20
285.0
 30
0.0
 11
20.2604743903
 21
10.0
 31
0.0
  0
LINE
  5
DE
330
1F
100
AcDbEntity
  8
0
  6
Continuous
 62
     7
370
     0
100
AcDbLine
 10
20.2604743903
 20
10.0
 30
0.0
 11
196.7604743903
 21
10.0
 31
0.0
  0
LINE
  5
DF
330
1F
100
AcDbEntity
  8
0
  6
Continuous
 62
     7
370
     0
100
AcDbLine
 10
196.7604743903
 20
285.0
 30
0.0
 11
196.7604743903
 21
10.0
 31
0.0
  0
LINE
  5
E0
330
1F
100
AcDbEntity
  8
0
  6
Continuous
 62
     7
370
     0
100
AcDbLine
 10
127.0104743903
 20
50.75
 30
0.0
 11
196.7604743903
 21
50.75
 31
0.0
  0
LINE
  5
E1
330
1F
100
AcDbEntity
  8
0
  6
Continuous
 62
     7
370
     0
100
AcDbLine
 10
127.0104743903
 20
50.75
 30
0.0
 11
127.0104743903
 21
10.0
 31
0.0
  0
LINE
  5
E2
330
1F
100
AcDbEntity
  8
0
  6
Continuous
 62
     7
370
     0
100
AcDbLine
 10
127.0104743903
 20
22.75
 30
0.0
 11
196.7604743903
 21
22.75
 31
0.0
  0
LINE
  5
E3
330
1F
100
AcDbEntity
  8
0
  6
Continuous
 62
     7
370
     0
100
AcDbLine
 10
127.0104743903
 20
36.75
 30
0.0
 11
196.7604743903
 21
36.75
 31
0.0
  0
ARC
  5
E4
330
1F
100
AcDbEntity
  8
SLD-0
  6
Continuous
 62
     7
100
AcDbCircle
 10
95.675060241
 20
134.6114903532
 30
0.0
 40
6.000000000000018
100
AcDbArc
 50
184.7801918472
 51
355.2198081528
  0
ARC
  5
E5
330
1F
100
AcDbEntity
  8
SLD-0
  6
Continuous
 62
     7
100
AcDbCircle
 10
95.675060241
 20
134.6114903532
 30
0.0
 40
5.999999999999309
100
AcDbArc
 50
4.7801918472
 51
175.2198081528
  0
CIRCLE
  5
E6
330
1F
100
AcDbEntity
  8
SLD-0
  6
Continuous
 62
     7
100
AcDbCircle
 10
119.675060241
 20
134.6114903769
 30
0.0
 40
2.5
  0
CIRCLE
  5
E7
330
1F
100
AcDbEntity
  8
SLD-0
 62
     7
100
AcDbCircle
 10
119.675060241
 20
134.6114903769
 30
0.0
 40
3.000000700400008
  0
CIRCLE
  5
E8
330
1F
100
AcDbEntity
  8
SLD-0
  6
Continuous
 62
     7
100
AcDbCircle
 10
85.675060241
 20
204.7405694761
 30
0.0
 40
4.0
  0
CIRCLE
  5
E9
330
1F
100
AcDbEntity
  8
SLD-0
  6
Continuous
 62
     7
100
AcDbCircle
 10
119.675060241
 20
204.7405694761
 30
0.0
 40
2.5
  0
CIRCLE
  5
EA
330
1F
100
AcDbEntity
  8
SLD-0
  6
Continuous
 62
     7
100
AcDbCircle
 10
85.675060241
 20
204.7405694761
 30
0.0
 40
2.25
  0
CIRCLE
  5
EB
330
1F
100
AcDbEntity
  8
SLD-0
  6
Continuous
 62
     7
100
AcDbCircle
 10
85.675060241
 20
204.7405694761
 30
0.0
 40
1.649999999999992
  0
CIRCLE
  5
EC
330
1F
100
AcDbEntity
  8
SLD-0
 62
     7
100
AcDbCircle
 10
85.675060241
 20
204.7405694761
 30
0.0
 40
1.999999619999997
  0
CIRCLE
  5
ED
330
1F
100
AcDbEntity
  8
SLD-0
 62
     7
100
AcDbCircle
 10
119.675060241
 20
204.7405694761
 30
0.0
 40
3.000000700400008
  0
DIMENSION
  5
EE
330
1F
100
AcDbEntity
  8
SLD-0
 62
     7
100
AcDbDimension
  2
*D8
 10
99.8556684883
 20
130.3077112605
 30
0.0
 11
66.2751764795
 21
155.8160139249
 31
0.0
 70
   163
  1
<>　 
 71
     1
 42
12.0
  3
SLDDIMSTYLE0
100
AcDbDiametricDimension
 15
91.4944519937
 25
138.9152694934
 35
0.0
 40
0.0
1001
ACAD
1000
DSTYLE
1002
{
1070
    77
1070
     0
1070
   143
1040
0.0393700787
1070
    41
1040
3.0
1070
    44
1040
1.0
1070
    42
1040
1.0
1070
   147
1040
1.524
1070
    73
1070
     1
1070
    74
1070
     1
1070
   140
1040
3.5
1070
   284
1070
    12
1070
    78
1070
    12
1002
}
  0
DIMENSION
  5
105
330
1F
100
AcDbEntity
  8
SLD-0
 62
     7
100
AcDbDimension
  2
*D9
 10
149.0399721087
 20
126.6114903769
 30
0.0
 11
149.0399721087
 21
134.6114903769
 31
0.0
 70
   160
 71
     1
 42
16.0
  3
SLDDIMSTYLE1
100
AcDbAlignedDimension
 13
126.675060241
 23
142.6114903769
 33
0.0
 14
126.675060241
 24
126.6114903769
 34
0.0
 50
90.0
100
AcDbRotatedDimension
1001
ACAD
1000
DSTYLE
1002
{
1070
    77
1070
     3
1070
   143
1040
0.0393700787
1070
    41
1040
3.0
1070
    44
1040
1.0
1070
    42
1040
1.0
1070
   147
1040
1.524
1070
    73
1070
     0
1070
    74
1070
     0
1070
   140
1040
3.5
1070
   284
1070
    12
1070
    78
1070
    12
1002
}
  0
DIMENSION
  5
121
330
1F
100
AcDbEntity
  8
SLD-0
 62
     7
100
AcDbDimension
  2
*D11
 10
137.2434001374
 20
134.6114903769
 30
0.0
 11
137.2434001374
 21
130.6114903769
 31
0.0
 70
   160
 71
     1
 42
8.0
  3
SLDDIMSTYLE1
100
AcDbAlignedDimension
 13
126.675060241
 23
126.6114903769
 33
0.0
 14
95.675060241
 24
134.6114903769
 34
0.0
 50
90.0
100
AcDbRotatedDimension
1001
ACAD
1000
DSTYLE
1002
{
1070
    77
1070
     3
1070
   143
1040
0.0393700787
1070
    41
1040
3.0
1070
    44
1040
1.0
1070
    42
1040
1.0
1070
   147
1040
1.524
1070
    73
1070
     0
1070
    74
1070
     0
1070
   140
1040
3.5
1070
   284
1070
    12
1070
    78
1070
    12
1002
}
  0
DIMENSION
  5
13B
330
1F
100
AcDbEntity
  8
SLD-0
 62
     7
100
AcDbDimension
  2
*D12
 10
74.2206183729
 20
134.1114903769
 30
0.0
 11
74.2206183729
 21
144.1810388299
 31
0.0
 70
   160
 71
     1
 42
1.0
  3
SLDDIMSTYLE1
100
AcDbAlignedDimension
 13
79.675060241
 23
135.1114903769
 33
0.0
 14
79.675060241
 24
134.1114903769
 34
0.0
 50
90.0
100
AcDbRotatedDimension
1001
ACAD
1000
DSTYLE
1002
{
1070
    77
1070
     3
1070
   143
1040
0.0393700787
1070
    41
1040
3.0
1070
    44
1040
1.0
1070
    42
1040
1.0
1070
   147
1040
1.524
1070
    73
1070
     0
1070
    74
1070
     0
1070
   140
1040
3.5
1070
   284
1070
    12
1070
    78
1070
    12
1002
}
  0
DIMENSION
  5
156
330
1F
100
AcDbEntity
  8
SLD-0
 62
     7
100
AcDbDimension
  2
*D13
 10
66.2751764795
 20
134.6114903769
 30
0.0
 11
66.2751764795
 21
130.6114903769
 31
0.0
 70
   160
 71
     1
 42
8.0
  3
SLDDIMSTYLE1
100
AcDbAlignedDimension
 13
80.175060241
 23
126.6114903769
 33
0.0
 14
119.675060241
 24
134.6114903769
 34
0.0
 50
90.0
100
AcDbRotatedDimension
1001
ACAD
1000
DSTYLE
1002
{
1070
    77
1070
     3
1070
   143
1040
0.0393700787
1070
    41
1040
3.0
1070
    44
1040
1.0
1070
    42
1040
1.0
1070
   147
1040
1.524
1070
    73
1070
     0
1070
    74
1070
     0
1070
   140
1040
3.5
1070
   284
1070
    12
1070
    78
1070
    12
1002
}
  0
DIMENSION
  5
170
330
1F
100
AcDbEntity
  8
SLD-0
100
AcDbDimension
  2
*D14
 10
119.675060241
 20
152.4369523264
 30
0.0
 11
123.175060241
 21
152.4369523264
 31
0.0
 70
   160
 71
     1
 42
7.0
  3
SLDDIMSTYLE1
100
AcDbAlignedDimension
 13
126.675060241
 23
142.1114903769
 33
0.0
 14
119.675060241
 24
139.6114903769
 34
0.0
100
AcDbRotatedDimension
1001
ACAD
1000
DSTYLE
1002
{
1070
    77
1070
     3
1070
   143
1040
0.0393700787
1070
    41
1040
3.0
1070
    44
1040
1.0
1070
    42
1040
1.0
1070
   147
1040
1.524
1070
    73
1070
     0
1070
    74
1070
     0
1070
   140
1040
3.5
1070
   284
1070
    12
1070
    78
1070
    12
1002
}
  0
DIMENSION
  5
18A
330
1F
100
AcDbEntity
  8
SLD-0
100
AcDbDimension
  2
*D15
 10
95.675060241
 20
159.9982291046
 30
0.0
 11
111.175060241
 21
159.9982291046
 31
0.0
 70
   160
 71
     1
 42
31.0
  3
SLDDIMSTYLE1
100
AcDbAlignedDimension
 13
126.675060241
 23
142.1114903769
 33
0.0
 14
95.675060241
 24
143.1114903769
 34
0.0
100
AcDbRotatedDimension
1001
ACAD
1000
DSTYLE
1002
{
1070
    77
1070
     3
1070
   143
1040
0.0393700787
1070
    41
1040
3.0
1070
    44
1040
1.0
1070
    42
1040
1.0
1070
   147
1040
1.524
1070
    73
1070
     0
1070
    74
1070
     0
1070
   140
1040
3.5
1070
   284
1070
    12
1070
    78
1070
    12
1002
}
  0
DIMENSION
  5
1A1
330
1F
100
AcDbEntity
  8
SLD-0
 62
     7
100
AcDbDimension
  2
*D16
 10
3.9865620578
 20
4.4841177351
 30
0.0
 11
155.6549406099
 21
-4.4841184262
 31
0.0
 70
   163
  1
M<>　P＝0.75貫通<>
 71
     1
 42
5.9999990753
  3
SLDDIMSTYLE2
100
AcDbDiametricDimension
 15
0.0
 25
0.0
 35
0.0
 40
0.0
1001
ACAD
1000
DSTYLE
1002
{
1070
    77
1070
     0
1070
   143
1040
0.0393700787
1070
    41
1040
3.0
1070
    44
1040
1.0
1070
    42
1040
1.0
1070
   147
1040
1.524
1070
    73
1070
     1
1070
    74
1070
     1
1070
   140
1040
3.5
1070
   284
1070
    12
1070
    78
1070
    12
1002
}
  0
DIMENSION
  5
1B4
330
1F
100
AcDbEntity
  8
SLD-0
 62
     7
100
AcDbDimension
  2
*D17
 10
126.675060241
 20
112.2876022224
 30
0.0
 11
115.175060241
 21
112.2876022224
 31
0.0
 70
   160
 71
     1
 42
23.0
  3
SLDDIMSTYLE3
100
AcDbAlignedDimension
 13
103.675060241
 23
134.1114903769
 33
0.0
 14
126.675060241
 24
127.1114903769
 34
0.0
100
AcDbRotatedDimension
1001
ACAD
1000
DSTYLE
1002
{
1070
    77
1070
     3
1070
   143
1040
0.0393700787
1070
    41
1040
3.0
1070
    44
1040
1.0
1070
    42
1040
1.0
1070
   147
1040
1.524
1070
    73
1070
     0
1070
    74
1070
     0
1070
   140
1040
3.5
1070
   284
1070
    12
1070
    78
1070
    12
1002
}
  0
DIMENSION
  5
1CC
330
1F
100
AcDbEntity
  8
SLD-0
 62
     7
100
AcDbDimension
  2
*D18
 10
103.675060241
 20
112.2876022224
 30
0.0
 11
91.675060241
 21
112.2876022224
 31
0.0
 70
   160
  1
(<>)
 71
     1
 42
24.0
  3
SLDDIMSTYLE3
100
AcDbAlignedDimension
 13
79.675060241
 23
127.1114903769
 33
0.0
 14
103.675060241
 24
134.1114903769
 34
0.0
100
AcDbRotatedDimension
1001
ACAD
1000
DSTYLE
1002
{
1070
    77
1070
     3
1070
   143
1040
0.0393700787
1070
    41
1040
3.0
1070
    44
1040
1.0
1070
    42
1040
1.0
1070
   147
1040
1.524
1070
    73
1070
     0
1070
    74
1070
     0
1070
   140
1040
3.5
1070
   284
1070
    12
1070
    78
1070
    12
1002
}
  0
DIMENSION
  5
1E5
330
1F
100
AcDbEntity
  8
SLD-0
 62
     7
100
AcDbDimension
  2
*D19
 10
148.9856369631
 20
209.7405694761
 30
0.0
 11
148.9856369631
 21
204.7405694761
 31
0.0
 70
   160
 71
     1
 42
10.0
  3
SLDDIMSTYLE3
100
AcDbAlignedDimension
 13
126.675060241
 23
199.7405694761
 33
0.0
 14
126.675060241
 24
209.7405694761
 34
0.0
 50
90.0
100
AcDbRotatedDimension
1001
ACAD
1000
DSTYLE
1002
{
1070
    77
1070
     3
1070
   143
1040
0.0393700787
1070
    41
1040
3.0
1070
    44
1040
1.0
1070
    42
1040
1.0
1070
   147
1040
1.524
1070
    73
1070
     0
1070
    74
1070
     0
1070
   140
1040
3.5
1070
   284
1070
    12
1070
    78
1070
    12
1002
}
  0
DIMENSION
  5
1FF
330
1F
100
AcDbEntity
  8
SLD-0
 62
     7
100
AcDbDimension
  2
*D20
 10
126.675060241
 20
232.0388610478
 30
0.0
 11
103.175060241
 21
232.0388610478
 31
0.0
 70
   160
 71
     1
 42
47.0
  3
SLDDIMSTYLE1
100
AcDbAlignedDimension
 13
79.675060241
 23
204.7405694761
 33
0.0
 14
126.675060241
 24
204.7405694761
 34
0.0
100
AcDbRotatedDimension
1001
ACAD
1000
DSTYLE
1002
{
1070
    77
1070
     3
1070
   143
1040
0.0393700787
1070
    41
1040
3.0
1070
    44
1040
1.0
1070
    42
1040
1.0
1070
   147
1040
1.524
1070
    73
1070
     0
1070
    74
1070
     0
1070
   140
1040
3.5
1070
   284
1070
    12
1070
    78
1070
    12
1002
}
  0
DIMENSION
  5
216
330
1F
100
AcDbEntity
  8
SLD-0
100
AcDbDimension
  2
*D21
 10
85.675060241
 20
223.7301883244
 30
0.0
 11
106.175060241
 21
223.7301883244
 31
0.0
 70
   160
 71
     1
 42
41.0
  3
SLDDIMSTYLE1
100
AcDbAlignedDimension
 13
126.675060241
 23
209.2405694761
 33
0.0
 14
85.675060241
 24
211.2405694761
 34
0.0
100
AcDbRotatedDimension
1001
ACAD
1000
DSTYLE
1002
{
1070
    77
1070
     3
1070
   143
1040
0.0393700787
1070
    41
1040
3.0
1070
    44
1040
1.0
1070
    42
1040
1.0
1070
   147
1040
1.524
1070
    73
1070
     0
1070
    74
1070
     0
1070
   140
1040
3.5
1070
   284
1070
    12
1070
    78
1070
    12
1002
}
  0
DIMENSION
  5
22D
330
1F
100
AcDbEntity
  8
SLD-0
100
AcDbDimension
  2
*D22
 10
137.2434001374
 20
199.7405694761
 30
0.0
 11
137.2434001374
 21
202.2405694761
 31
0.0
 70
   160
 71
     1
 42
5.0
  3
SLDDIMSTYLE1
100
AcDbAlignedDimension
 13
124.675060241
 23
204.7405694761
 33
0.0
 14
126.175060241
 24
199.7405694761
 34
0.0
 50
90.0
100
AcDbRotatedDimension
1001
ACAD
1000
DSTYLE
1002
{
1070
    77
1070
     3
1070
   143
1040
0.0393700787
1070
    41
1040
3.0
1070
    44
1040
1.0
1070
    42
1040
1.0
1070
   147
1040
1.524
1070
    73
1070
     0
1070
    74
1070
     0
1070
   140
1040
3.5
1070
   284
1070
    12
1070
    78
1070
    12
1002
}
  0
DIMENSION
  5
247
330
1F
100
AcDbEntity
  8
SLD-0
100
AcDbDimension
  2
*D23
 10
70.4134399771
 20
199.7405694761
 30
0.0
 11
70.4134399771
 21
202.2405694761
 31
0.0
 70
   160
 71
     1
 42
5.0
  3
SLDDIMSTYLE1
100
AcDbAlignedDimension
 13
79.175060241
 23
204.7405694761
 33
0.0
 14
80.175060241
 24
199.7405694761
 34
0.0
 50
90.0
100
AcDbRotatedDimension
1001
ACAD
1000
DSTYLE
1002
{
1070
    77
1070
     3
1070
   143
1040
0.0393700787
1070
    41
1040
3.0
1070
    44
1040
1.0
1070
    42
1040
1.0
1070
   147
1040
1.524
1070
    73
1070
     0
1070
    74
1070
     0
1070
   140
1040
3.5
1070
   284
1070
    12
1070
    78
1070
    12
1002
}
  0
DIMENSION
  5
261
330
1F
100
AcDbEntity
  8
SLD-0
 62
     7
100
AcDbDimension
  2
*D24
 10
3.0278129438
 20
5.1799944378
 30
0.0
 11
155.3539618768
 21
-5.1799948983
 31
0.0
 70
   163
  1
M<>　P＝0.75貫通<>
 71
     1
 42
5.9999994665
  3
SLDDIMSTYLE2
100
AcDbDiametricDimension
 15
0.0
 25
0.0
 35
0.0
 40
0.0
1001
ACAD
1000
DSTYLE
1002
{
1070
    77
1070
     0
1070
   143
1040
0.0393700787
1070
    41
1040
3.0
1070
    44
1040
1.0
1070
    42
1040
1.0
1070
   147
1040
1.524
1070
    73
1070
     1
1070
    74
1070
     1
1070
   140
1040
3.5
1070
   284
1070
    12
1070
    78
1070
    12
1002
}
  0
DIMENSION
  5
273
330
1F
100
AcDbEntity
  8
SLD-0
 62
     7
100
AcDbDimension
  2
*D25
 10
1.7370985577
 20
4.1512027763
 30
0.0
 11
118.9463245854
 21
-5.5349375969
 31
0.0
 70
   163
  1
<>,%%c8ｻﾞｸﾞﾘ深4.5
 71
     1
 42
4.4999995432
  3
SLDDIMSTYLE4
100
AcDbDiametricDimension
 15
0.0
 25
0.0
 35
0.0
 40
0.0
1001
ACAD
1000
DSTYLE
1002
{
1070
    77
1070
     0
1070
   143
1040
0.0393700787
1070
    41
1040
3.0
1070
    44
1040
1.0
1070
    42
1040
1.0
1070
   147
1040
1.524
1070
    73
1070
     1
1070
    74
1070
     1
1070
   140
1040
3.5
1070
   284
1070
    12
1070
    78
1070
    12
1002
}
  0
MTEXT
  5
288
330
1F
100
AcDbEntity
  8
SLD-0
 62
     7
100
AcDbMText
 10
130.7802278379
 20
149.7962299194
 30
0.0
 40
3.5
 41
0.0
 71
     1
 72
     1
  1
4-
  7
SLDTEXTSTYLE1
 11
0.8819790656578864
 21
0.4712885822309317
 31
0.0
 73
     1
 44
1.0
  0
MTEXT
  5
289
330
1F
100
AcDbEntity
  8
SLD-0
 62
     7
100
AcDbMText
 10
134.3724404795
 20
151.7157412422
 30
0.0
 40
3.5
 41
0.0
 71
     1
 72
     1
  1
C
  7
SLDTEXTSTYLE1
 11
0.8819790656578864
 21
0.4712885822309317
 31
0.0
 73
     1
 44
1.0
  0
MTEXT
  5
28A
330
1F
100
AcDbEntity
  8
SLD-0
 62
     7
100
AcDbMText
 10
136.1685468003
 20
152.6754969036
 30
0.0
 40
3.5
 41
0.0
 71
     1
 72
     1
  1
0.5
  7
SLDTEXTSTYLE1
 11
0.8819790656578864
 21
0.4712885822309317
 31
0.0
 73
     1
 44
1.0
  0
MTEXT
  5
28B
330
1F
100
AcDbEntity
  8
SLD-0
 62
     7
100
AcDbMText
 10
66.3545563974
 20
225.1994617551
 30
0.0
 40
3.5
 41
0.0
 71
     1
 72
     1
  1
4-
  7
SLDTEXTSTYLE1
 11
0.8024210263853012
 21
-0.5967583232890512
 31
0.0
 73
     1
 44
1.0
  0
MTEXT
  5
28C
330
1F
100
AcDbEntity
  8
SLD-0
 62
     7
100
AcDbMText
 10
69.6227370914
 20
222.7689247091
 30
0.0
 40
3.5
 41
0.0
 71
     1
 72
     1
  1
C
  7
SLDTEXTSTYLE1
 11
0.8024210263853012
 21
-0.5967583232890512
 31
0.0
 73
     1
 44
1.0
  0
MTEXT
  5
28D
330
1F
100
AcDbEntity
  8
SLD-0
 62
     7
100
AcDbMText
 10
71.2568274385
 20
221.5536561861
 30
0.0
 40
3.5
 41
0.0
 71
     1
 72
     1
  1
0.5
  7
SLDTEXTSTYLE1
 11
0.8024210263853012
 21
-0.5967583232890512
 31
0.0
 73
     1
 44
1.0
  0
MTEXT
  5
28E
330
1F
100
AcDbEntity
  8
0
  6
Continuous
 62
     7
370
     0
100
AcDbMText
 10
150.0404667575
 20
29.8861652342
 30
0.0
 40
4.2333333333
 41
0.0
 71
     1
 72
     1
  1
N01862-212
  7
SLDTEXTSTYLE0
 73
     1
 44
1.0
  0
INSERT
  5
294
330
1F
100
AcDbEntity
  8
0
  6
Continuous
 62
     7
370
     0
100
AcDbBlockReference
  2
SW_NOTE_0
 10
143.0919537991
 20
43.1346615553
 30
0.0
  0
MTEXT
  5
295
330
1F
100
AcDbEntity
  8
0
  6
Continuous
 62
     7
370
     0
100
AcDbMText
 10
155.5950049528
 20
16.2918259049
 30
0.0
 40
4.2333333333
 41
0.0
 71
     1
 72
     1
  1
131127
  7
SLDTEXTSTYLE0
 73
     1
 44
1.0
  0
HATCH
  5
296
330
1F
100
AcDbEntity
  8
0
  6
Continuous
 62
     7
100
AcDbHatch
 10
0.0
 20
0.0
 30
0.0
210
0.0
220
0.0
230
1.0
  2
ANSI31
 70
     0
 71
     0
 91
        1
 92
        0
 93
        3
 72
     1
 10
83.91204274348692
 20
124.1826594472431
 11
83.22326047847459
 21
124.9076277164829
 72
     1
 10
83.22326047847459
 20
124.9076277164829
 11
85.74255641870001
 21
126.6114903769
 72
     1
 10
85.74255641870001
 20
126.6114903769
 11
83.91204274348692
 21
124.1826594472431
 97
        0
 75
     0
 76
     1
 52
0.0
 41
1.0
 77
     0
 78
     1
 53
45.00000209717174
 43
0.0
 44
0.0
 45
-2.245064112442359
 46
2.245063948092215
 79
     0
 98
        1
 10
0.0
 20
0.0
  0
INSERT
  5
297
330
1F
100
AcDbEntity
  8
0
  6
Continuous
 62
     7
370
     0
100
AcDbBlockReference
  2
_OPEN30
 10
126.425060241
 20
142.3614903769
 30
0.0
 41
3.0
 42
3.0
 43
3.0
 50
-152.1053285476
  0
INSERT
  5
298
330
1F
100
AcDbEntity
  8
0
  6
Continuous
 62
     7
370
     0
100
AcDbBlockReference
  2
NOTE51
 10
69.5444656734
 20
115.5665585221
 30
0.0
  0
INSERT
  5
299
330
1F
100
AcDbEntity
  8
0
  6
Continuous
 62
     7
370
     0
100
AcDbBlockReference
  2
SW_CENTERMARK0
 10
0.0
 20
0.0
 30
0.0
  0
INSERT
  5
29A
330
1F
100
AcDbEntity
  8
0
  6
Continuous
 62
     7
370
     0
100
AcDbBlockReference
  2
SW_CENTERMARK1
 10
0.0
 20
0.0
 30
0.0
  0
INSERT
  5
29B
330
1F
100
AcDbEntity
  8
0
  6
Continuous
 62
     7
370
     0
100
AcDbBlockReference
  2
_OPEN30
 10
79.925060241
 20
209.4905694761
 30
0.0
 41
3.0
 42
3.0
 43
3.0
 50
-36.5847238502
  0
INSERT
  5
29C
330
1F
100
AcDbEntity
  8
0
  6
Continuous
 62
     7
370
     0
100
AcDbBlockReference
  2
SW_CENTERMARK2
 10
0.0
 20
0.0
 30
0.0
  0
INSERT
  5
29D
330
1F
100
AcDbEntity
  8
0
  6
Continuous
 62
     7
370
     0
100
AcDbBlockReference
  2
SW_CENTERMARK3
 10
0.0
 20
0.0
 30
0.0
  0
ENDSEC
  0
SECTION
  2
OBJECTS
  0
DICTIONARY
  5
C
330
0
100
AcDbDictionary
281
     1
  3
ACAD_GROUP
350
D
  3
ACAD_LAYOUT
350
1A
  3
ACAD_MLINESTYLE
350
17
  3
ACAD_PLOTSETTINGS
350
19
  3
ACAD_PLOTSTYLENAME
350
E
  0
DICTIONARY
  5
D
102
{ACAD_REACTORS
330
C
102
}
330
C
100
AcDbDictionary
281
     1
  0
DICTIONARY
  5
1A
102
{ACAD_REACTORS
330
C
102
}
330
C
100
AcDbDictionary
281
     1
  3
Layout1
350
1E
  3
Layout2
350
26
  3
Model
350
22
  0
DICTIONARY
  5
17
102
{ACAD_REACTORS
330
C
102
}
330
C
100
AcDbDictionary
281
     1
  3
Standard
350
18
  0
DICTIONARY
  5
19
102
{ACAD_REACTORS
330
C
102
}
330
C
100
AcDbDictionary
281
     1
  0
ACDBDICTIONARYWDFLT
  5
E
102
{ACAD_REACTORS
330
C
102
}
330
C
100
AcDbDictionary
281
     1
  3
Normal
350
F
100
AcDbDictionaryWithDefault
340
F
  0
LAYOUT
  5
1E
102
{ACAD_REACTORS
330
1A
102
}
330
1A
100
AcDbPlotSettings
  1

  2

  4

  6

 40
0.0
 41
0.0
 42
0.0
 43
0.0
 44
0.0
 45
0.0
 46
0.0
 47
0.0
 48
0.0
 49
0.0
140
0.0
141
0.0
142
1.0
143
1.0
 70
   688
 72
     0
 73
     0
 74
     5
  7

 75
    16
147
1.0
148
0.0
149
0.0
100
AcDbLayout
  1
Layout1
 70
     1
 71
     1
 10
0.0
 20
0.0
 11
0.0
 21
0.0
 12
0.0
 22
0.0
 32
0.0
 14
0.0
 24
0.0
 34
0.0
 15
0.0
 25
0.0
 35
0.0
146
0.0
 13
0.0
 23
0.0
 33
0.0
 16
1.0
 26
0.0
 36
0.0
 17
0.0
 27
1.0
 37
0.0
 76
     0
330
1B
  0
LAYOUT
  5
26
102
{ACAD_REACTORS
330
1A
102
}
330
1A
100
AcDbPlotSettings
  1

  2

  4

  6

 40
0.0
 41
0.0
 42
0.0
 43
0.0
 44
0.0
 45
0.0
 46
0.0
 47
0.0
 48
0.0
 49
0.0
140
0.0
141
0.0
142
1.0
143
1.0
 70
   688
 72
     0
 73
     0
 74
     5
  7

 75
    16
147
1.0
148
0.0
149
0.0
100
AcDbLayout
  1
Layout2
 70
     1
 71
     2
 10
0.0
 20
0.0
 11
0.0
 21
0.0
 12
0.0
 22
0.0
 32
0.0
 14
0.0
 24
0.0
 34
0.0
 15
0.0
 25
0.0
 35
0.0
146
0.0
 13
0.0
 23
0.0
 33
0.0
 16
1.0
 26
0.0
 36
0.0
 17
0.0
 27
1.0
 37
0.0
 76
     0
330
23
  0
LAYOUT
  5
22
102
{ACAD_REACTORS
330
1A
102
}
330
1A
100
AcDbPlotSettings
  1

  2

  4

  6

 40
0.0
 41
0.0
 42
0.0
 43
0.0
 44
0.0
 45
0.0
 46
0.0
 47
0.0
 48
0.0
 49
0.0
140
0.0
141
0.0
142
1.0
143
1.0
 70
  1712
 72
     0
 73
     0
 74
     0
  7

 75
     0
147
1.0
148
0.0
149
0.0
100
AcDbLayout
  1
Model
 70
     1
 71
     0
 10
0.0
 20
0.0
 11
0.0
 21
0.0
 12
0.0
 22
0.0
 32
0.0
 14
0.0
 24
0.0
 34
0.0
 15
210.0
 25
297.0
 35
0.0
146
0.0
 13
0.0
 23
0.0
 33
0.0
 16
1.0
 26
0.0
 36
0.0
 17
0.0
 27
1.0
 37
0.0
 76
     0
330
1F
  0
MLINESTYLE
  5
18
102
{ACAD_REACTORS
330
17
102
}
330
17
100
AcDbMlineStyle
  2
Standard
 70
     0
  3

 62
   256
 51
90.0
 52
90.0
 71
     2
 49
0.5
 62
   256
  6
BYLAYER
 49
-0.5
 62
   256
  6
BYLAYER
  0
ACDBPLACEHOLDER
  5
F
102
{ACAD_REACTORS
330
E
102
}
330
E
  0
ENDSEC
  0
EOF
