  0
SECTION
  2
HEADER
  9
$ACADVER
  1
AC1015
  9
$ACADMAINTVER
 70
     6
  9
$DWGCODEPAGE
  3
DOS932
  9
$INSBASE
 10
0.0
 20
0.0
 30
0.0
  9
$EXTMIN
 10
0.0
 20
0.0
 30
0.0
  9
$EXTMAX
 10
210.0
 20
297.0
 30
0.0
  9
$LIMMIN
 10
0.0
 20
0.0
  9
$LIMMAX
 10
0.0
 20
0.0
  9
$ORTHOMODE
 70
     0
  9
$REGENMODE
 70
     1
  9
$FILLMODE
 70
     1
  9
$QTEXTMODE
 70
     0
  9
$MIRRTEXT
 70
     1
  9
$LTSCALE
 40
1.0
  9
$ATTMODE
 70
     1
  9
$TEXTSIZE
 40
3.5
  9
$TRACEWID
 40
1.0
  9
$TEXTSTYLE
  7
Standard
  9
$CLAYER
  8
0
  9
$CELTYPE
  6
ByLayer
  9
$CECOLOR
 62
   256
  9
$CELTSCALE
 40
1.0
  9
$DISPSILH
 70
     0
  9
$DIMSCALE
 40
1.0
  9
$DIMASZ
 40
3.0
  9
$DIMEXO
 40
1.0
  9
$DIMDLI
 40
3.75
  9
$DIMRND
 40
0.0
  9
$DIMDLE
 40
0.0
  9
$DIMEXE
 40
1.0
  9
$DIMTP
 40
0.0
  9
$DIMTM
 40
0.0
  9
$DIMTXT
 40
3.5
  9
$DIMCEN
 40
2.5
  9
$DIMTSZ
 40
0.0
  9
$DIMTOL
 70
     0
  9
$DIMLIM
 70
     0
  9
$DIMTIH
 70
     1
  9
$DIMTOH
 70
     1
  9
$DIMSE1
 70
     0
  9
$DIMSE2
 70
     0
  9
$DIMTAD
 70
     1
  9
$DIMZIN
 70
     0
  9
$DIMBLK
  1

  9
$DIMASO
 70
     1
  9
$DIMSHO
 70
     1
  9
$DIMPOST
  1

  9
$DIMAPOST
  1

  9
$DIMALT
 70
     0
  9
$DIMALTD
 70
     3
  9
$DIMALTF
 40
0.0393700787
  9
$DIMLFAC
 40
1.0
  9
$DIMTOFL
 70
     1
  9
$DIMTVP
 40
0.0
  9
$DIMTIX
 70
     0
  9
$DIMSOXD
 70
     0
  9
$DIMSAH
 70
     0
  9
$DIMBLK1
  1

  9
$DIMBLK2
  1

  9
$DIMSTYLE
  2
ISO-25
  9
$DIMCLRD
 70
     0
  9
$DIMCLRE
 70
     0
  9
$DIMCLRT
 70
     0
  9
$DIMTFAC
 40
1.0
  9
$DIMGAP
 40
1.524
  9
$DIMJUST
 70
     0
  9
$DIMSD1
 70
     0
  9
$DIMSD2
 70
     0
  9
$DIMTOLJ
 70
     0
  9
$DIMTZIN
 70
     0
  9
$DIMALTZ
 70
     0
  9
$DIMALTTZ
 70
     0
  9
$DIMUPT
 70
     0
  9
$DIMDEC
 70
     2
  9
$DIMTDEC
 70
     2
  9
$DIMALTU
 70
     2
  9
$DIMALTTD
 70
     3
  9
$DIMTXSTY
  7
Standard
  9
$DIMAUNIT
 70
     0
  9
$DIMADEC
 70
     0
  9
$DIMALTRND
 40
0.0
  9
$DIMAZIN
 70
     0
  9
$DIMDSEP
 70
    44
  9
$DIMATFIT
 70
     3
  9
$DIMFRAC
 70
     0
  9
$DIMLDRBLK
  1

  9
$DIMLUNIT
 70
     2
  9
$DIMLWD
 70
    -2
  9
$DIMLWE
 70
    -2
  9
$DIMTMOVE
 70
     0
  9
$LUNITS
 70
     2
  9
$LUPREC
 70
     1
  9
$SKETCHINC
 40
1.0
  9
$FILLETRAD
 40
10.0
  9
$AUNITS
 70
     0
  9
$AUPREC
 70
     0
  9
$MENU
  1
.
  9
$ELEVATION
 40
0.0
  9
$PELEVATION
 40
0.0
  9
$THICKNESS
 40
0.0
  9
$LIMCHECK
 70
     0
  9
$CHAMFERA
 40
10.0
  9
$CHAMFERB
 40
10.0
  9
$CHAMFERC
 40
20.0
  9
$CHAMFERD
 40
0.0
  9
$SKPOLY
 70
     0
  9
$TDCREATE
 40
2454322.626787465
  9
$TDUCREATE
 40
2454322.251787465
  9
$TDUPDATE
 40
2454322.626787477
  9
$TDUUPDATE
 40
2454322.251787477
  9
$TDINDWG
 40
0.0000000116
  9
$TDUSRTIMER
 40
0.0000000116
  9
$USRTIMER
 70
     1
  9
$ANGBASE
 50
0.0
  9
$ANGDIR
 70
     0
  9
$PDMODE
 70
     0
  9
$PDSIZE
 40
-1.0
  9
$PLINEWID
 40
0.0
  9
$SPLFRAME
 70
     0
  9
$SPLINETYPE
 70
     6
  9
$SPLINESEGS
 70
     8
  9
$HANDSEED
  5
228
  9
$SURFTAB1
 70
     6
  9
$SURFTAB2
 70
     6
  9
$SURFTYPE
 70
     6
  9
$SURFU
 70
     6
  9
$SURFV
 70
     6
  9
$UCSBASE
  2

  9
$UCSNAME
  2

  9
$UCSORG
 10
0.0
 20
0.0
 30
0.0
  9
$UCSXDIR
 10
1.0
 20
0.0
 30
0.0
  9
$UCSYDIR
 10
0.0
 20
1.0
 30
0.0
  9
$UCSORTHOREF
  2

  9
$UCSORTHOVIEW
 70
     0
  9
$UCSORGTOP
 10
0.0
 20
0.0
 30
0.0
  9
$UCSORGBOTTOM
 10
0.0
 20
0.0
 30
0.0
  9
$UCSORGLEFT
 10
0.0
 20
0.0
 30
0.0
  9
$UCSORGRIGHT
 10
0.0
 20
0.0
 30
0.0
  9
$UCSORGFRONT
 10
0.0
 20
0.0
 30
0.0
  9
$UCSORGBACK
 10
0.0
 20
0.0
 30
0.0
  9
$PUCSBASE
  2

  9
$PUCSNAME
  2

  9
$PUCSORG
 10
0.0
 20
0.0
 30
0.0
  9
$PUCSXDIR
 10
1.0
 20
0.0
 30
0.0
  9
$PUCSYDIR
 10
0.0
 20
1.0
 30
0.0
  9
$PUCSORTHOREF
  2

  9
$PUCSORTHOVIEW
 70
     0
  9
$PUCSORGTOP
 10
0.0
 20
0.0
 30
0.0
  9
$PUCSORGBOTTOM
 10
0.0
 20
0.0
 30
0.0
  9
$PUCSORGLEFT
 10
0.0
 20
0.0
 30
0.0
  9
$PUCSORGRIGHT
 10
0.0
 20
0.0
 30
0.0
  9
$PUCSORGFRONT
 10
0.0
 20
0.0
 30
0.0
  9
$PUCSORGBACK
 10
0.0
 20
0.0
 30
0.0
  9
$USERI1
 70
     0
  9
$USERI2
 70
     0
  9
$USERI3
 70
     0
  9
$USERI4
 70
     0
  9
$USERI5
 70
     0
  9
$USERR1
 40
0.0
  9
$USERR2
 40
0.0
  9
$USERR3
 40
0.0
  9
$USERR4
 40
0.0
  9
$USERR5
 40
0.0
  9
$WORLDVIEW
 70
     1
  9
$SHADEDGE
 70
     3
  9
$SHADEDIF
 70
    70
  9
$TILEMODE
 70
     1
  9
$MAXACTVP
 70
    64
  9
$PINSBASE
 10
0.0
 20
0.0
 30
0.0
  9
$PLIMCHECK
 70
     0
  9
$PEXTMIN
 10
1.0000000000E+20
 20
1.0000000000E+20
 30
1.0000000000E+20
  9
$PEXTMAX
 10
-1.0000000000E+20
 20
-1.0000000000E+20
 30
-1.0000000000E+20
  9
$PLIMMIN
 10
0.0
 20
0.0
  9
$PLIMMAX
 10
420.0
 20
297.0
  9
$UNITMODE
 70
     0
  9
$VISRETAIN
 70
     1
  9
$PLINEGEN
 70
     0
  9
$PSLTSCALE
 70
     1
  9
$TREEDEPTH
 70
  3020
  9
$CMLSTYLE
  2
Standard
  9
$CMLJUST
 70
     0
  9
$CMLSCALE
 40
20.0
  9
$PROXYGRAPHICS
 70
     1
  9
$MEASUREMENT
 70
     1
  9
$CELWEIGHT
370
    -1
  9
$ENDCAPS
280
     0
  9
$JOINSTYLE
280
     0
  9
$LWDISPLAY
290
     1
  9
$INSUNITS
 70
     4
  9
$HYPERLINKBASE
  1

  9
$STYLESHEET
  1

  9
$XEDIT
290
     1
  9
$CEPSNTYPE
380
     0
  9
$PSTYLEMODE
290
     1
  9
$FINGERPRINTGUID
  2
{3D5BBC0C-C534-4E44-8B42-C725DC96CFEA}
  9
$VERSIONGUID
  2
{FAEB1C32-E019-11D5-929B-00C0DF256EC4}
  9
$EXTNAMES
290
     1
  9
$PSVPSCALE
 40
0.0
  9
$OLESTARTUP
290
     0
  0
ENDSEC
  0
SECTION
  2
CLASSES
  0
CLASS
  1
ACDBDICTIONARYWDFLT
  2
AcDbDictionaryWithDefault
  3
ObjectDBX Classes
 90
        0
280
     0
281
     0
  0
CLASS
  1
ACDBPLACEHOLDER
  2
AcDbPlaceHolder
  3
ObjectDBX Classes
 90
        0
280
     0
281
     0
  0
CLASS
  1
LAYOUT
  2
AcDbLayout
  3
ObjectDBX Classes
 90
        0
280
     0
281
     0
  0
ENDSEC
  0
SECTION
  2
TABLES
  0
TABLE
  2
VPORT
  5
8
330
0
100
AcDbSymbolTable
 70
     1
  0
VPORT
  5
29
330
8
100
AcDbSymbolTableRecord
100
AcDbViewportTableRecord
  2
*Active
 70
     0
 10
0.0
 20
0.0
 11
1.0
 21
1.0
 12
105.0
 22
148.5
 13
0.0
 23
0.0
 14
10.0
 24
10.0
 15
10.0
 25
10.0
 16
0.0
 26
0.0
 36
1.0
 17
0.0
 27
0.0
 37
0.0
 40
297.0
 41
1.9729729729
 42
50.0
 43
0.0
 44
0.0
 50
0.0
 51
0.0
 71
     0
 72
  2000
 73
     1
 74
     3
 75
     0
 76
     0
 77
     0
 78
     0
281
     0
 65
     1
110
0.0
120
0.0
130
0.0
111
1.0
121
0.0
131
0.0
112
0.0
122
1.0
132
0.0
 79
     0
146
0.0
  0
ENDTAB
  0
TABLE
  2
LTYPE
  5
5
330
0
100
AcDbSymbolTable
 70
     6
  0
LTYPE
  5
14
330
5
100
AcDbSymbolTableRecord
100
AcDbLinetypeTableRecord
  2
ByBlock
 70
     0
  3

 72
    65
 73
     0
 40
0.0
  0
LTYPE
  5
15
330
5
100
AcDbSymbolTableRecord
100
AcDbLinetypeTableRecord
  2
ByLayer
 70
     0
  3

 72
    65
 73
     0
 40
0.0
  0
LTYPE
  5
16
330
5
100
AcDbSymbolTableRecord
100
AcDbLinetypeTableRecord
  2
Continuous
 70
     0
  3
Solid line
 72
    65
 73
     0
 40
0.0
  0
LTYPE
  5
2A
330
5
100
AcDbSymbolTableRecord
100
AcDbLinetypeTableRecord
  2
HIDDEN
 70
     0
  3
Hidden __ __ __ __ __ __ __ __ __ __ __ __ __ __
 72
    65
 73
     2
 40
1.905
 49
1.27
 74
     0
 49
-0.635
 74
     0
  0
LTYPE
  5
2B
330
5
100
AcDbSymbolTableRecord
100
AcDbLinetypeTableRecord
  2
PHANTOM
 70
     0
  3
Phantom ______  __  __  ______  __  __  ______
 72
    65
 73
     6
 40
12.7
 49
6.35
 74
     0
 49
-1.27
 74
     0
 49
1.27
 74
     0
 49
-1.27
 74
     0
 49
1.27
 74
     0
 49
-1.27
 74
     0
  0
LTYPE
  5
2C
330
5
100
AcDbSymbolTableRecord
100
AcDbLinetypeTableRecord
  2
CENTER
 70
     0
  3
Center ____ _ ____ _ ____ _ ____ _ ____ _ ____
 72
    65
 73
     4
 40
10.16
 49
6.35
 74
     0
 49
-1.27
 74
     0
 49
1.27
 74
     0
 49
-1.27
 74
     0
  0
LTYPE
  5
2D
330
5
100
AcDbSymbolTableRecord
100
AcDbLinetypeTableRecord
  2
CENTERX2
 70
     0
  3
Center (2x) ________  __  ________  __  _____
 72
    65
 73
     4
 40
20.32
 49
12.7
 74
     0
 49
-2.54
 74
     0
 49
2.54
 74
     0
 49
-2.54
 74
     0
  0
LTYPE
  5
2E
330
5
100
AcDbSymbolTableRecord
100
AcDbLinetypeTableRecord
  2
DOT2
 70
     0
  3
Dot (.5x) ........................................
 72
    65
 73
     2
 40
0.635
 49
0.0
 74
     0
 49
-0.635
 74
     0
  0
ENDTAB
  0
TABLE
  2
LAYER
  5
2
330
0
100
AcDbSymbolTable
 70
     2
  0
LAYER
  5
10
330
2
100
AcDbSymbolTableRecord
100
AcDbLayerTableRecord
  2
0
 70
     0
 62
     7
  6
Continuous
370
    -3
390
F
  0
LAYER
  5
54
330
2
100
AcDbSymbolTableRecord
100
AcDbLayerTableRecord
  2
Defpoints
 70
     0
 62
     7
  6
Continuous
290
     0
370
    -3
390
F
  0
ENDTAB
  0
TABLE
  2
STYLE
  5
3
330
0
100
AcDbSymbolTable
 70
     3
  0
STYLE
  5
11
330
3
100
AcDbSymbolTableRecord
100
AcDbTextStyleTableRecord
  2
Standard
 70
     0
 40
0.0
 41
1.0
 50
0.0
 71
     0
 42
2.5
  3
txt
  4
bigfont
  0
STYLE
  5
37
330
3
100
AcDbSymbolTableRecord
100
AcDbTextStyleTableRecord
  2
SLDTEXTSTYLE0
 70
     0
 40
0.0
 41
0.7
 50
0.0
 71
     0
 42
0.2
  3
TXT
  4
bigfont
  0
STYLE
  5
39
330
3
100
AcDbSymbolTableRecord
100
AcDbTextStyleTableRecord
  2
SLDTEXTSTYLE1
 70
     0
 40
0.0
 41
0.6416666667
 50
0.0
 71
     0
 42
0.2
  3
TXT
  4
bigfont
  0
ENDTAB
  0
TABLE
  2
VIEW
  5
6
330
0
100
AcDbSymbolTable
 70
     0
  0
ENDTAB
  0
TABLE
  2
UCS
  5
7
330
0
100
AcDbSymbolTable
 70
     0
  0
ENDTAB
  0
TABLE
  2
APPID
  5
9
330
0
100
AcDbSymbolTable
 70
     1
  0
APPID
  5
12
330
9
100
AcDbSymbolTableRecord
100
AcDbRegAppTableRecord
  2
ACAD
 70
     0
  0
ENDTAB
  0
TABLE
  2
DIMSTYLE
  5
A
330
0
100
AcDbSymbolTable
 70
     6
100
AcDbDimStyleTable
  0
DIMSTYLE
105
27
330
A
100
AcDbSymbolTableRecord
100
AcDbDimStyleTableRecord
  2
ISO-25
 70
     0
 41
2.5
 42
0.625
 43
3.75
 44
1.25
 73
     0
 74
     0
 77
     1
 78
     8
140
2.5
141
2.5
143
0.0393700787
147
0.625
171
     3
172
     1
271
     2
272
     2
274
     3
278
    44
283
     0
284
     8
340
11
  0
DIMSTYLE
105
62
102
{ACAD_REACTORS
330
53
330
72
330
85
330
99
330
C4
330
108
330
12F
330
142
330
157
330
16E
330
198
330
1AE
330
1C4
102
}
330
A
100
AcDbSymbolTableRecord
100
AcDbDimStyleTableRecord
  2
SLDDIMSTYLE0
 70
     0
 41
3.0
 44
0.0
 73
     0
 74
     0
 77
     3
 78
    12
140
3.5
147
0.875
173
     1
271
     1
272
     3
284
    12
340
37
341
63
343
63
344
63
  0
DIMSTYLE
105
BA
102
{ACAD_REACTORS
330
AC
330
11C
102
}
330
A
100
AcDbSymbolTableRecord
100
AcDbDimStyleTableRecord
  2
SLDDIMSTYLE1
 70
     0
 41
3.0
 44
0.0
 73
     0
 74
     0
 77
     3
 78
    12
140
3.5
147
0.875
173
     1
271
     2
272
     3
284
    12
340
37
341
63
343
63
344
63
  0
DIMSTYLE
105
18B
102
{ACAD_REACTORS
330
181
102
}
330
A
100
AcDbSymbolTableRecord
100
AcDbDimStyleTableRecord
  2
SLDDIMSTYLE2
 70
     0
 41
3.0
 44
0.0
 47
0.00008
 48
-0.00005
 71
     1
 78
    12
140
3.5
147
0.875
172
     1
173
     1
271
     1
272
     2
284
     8
340
37
341
63
343
63
344
63
  0
DIMSTYLE
105
1E2
102
{ACAD_REACTORS
330
1D7
102
}
330
A
100
AcDbSymbolTableRecord
100
AcDbDimStyleTableRecord
  2
SLDDIMSTYLE3
 70
     0
 41
3.0
 44
0.0
 78
    12
140
3.5
147
0.875
173
     1
271
     1
272
     3
284
    12
340
37
341
63
343
63
344
63
  0
DIMSTYLE
105
1FE
330
A
100
AcDbSymbolTableRecord
100
AcDbDimStyleTableRecord
  2
SLDDIMSTYLE4
 70
     0
 41
3.0
 44
0.0
140
3.0
147
0.75
173
     1
271
     0
272
     0
340
11
341
63
343
63
344
63
  0
ENDTAB
  0
TABLE
  2
BLOCK_RECORD
  5
1
330
0
100
AcDbSymbolTable
 70
    25
  0
BLOCK_RECORD
  5
1F
330
1
100
AcDbSymbolTableRecord
100
AcDbBlockTableRecord
  2
*Model_Space
340
22
  0
BLOCK_RECORD
  5
1B
330
1
100
AcDbSymbolTableRecord
100
AcDbBlockTableRecord
  2
*Paper_Space
340
1E
  0
BLOCK_RECORD
  5
23
330
1
100
AcDbSymbolTableRecord
100
AcDbBlockTableRecord
  2
*Paper_Space0
340
26
  0
BLOCK_RECORD
  5
55
330
1
100
AcDbSymbolTableRecord
100
AcDbBlockTableRecord
  2
*D1
340
0
  0
BLOCK_RECORD
  5
63
330
1
100
AcDbSymbolTableRecord
100
AcDbBlockTableRecord
  2
_Open30
340
0
102
{BLKREFS
331
5C
331
5B
331
6A
331
6B
331
78
331
77
331
7F
331
80
331
8B
331
8A
331
93
331
94
331
9F
331
9E
331
A6
331
A7
331
B4
331
B3
331
BC
331
BD
331
CC
331
CB
331
D3
331
D4
331
10E
331
10D
331
116
331
117
331
122
331
121
331
129
331
12A
331
135
331
134
331
13C
331
13D
331
149
331
148
331
151
331
152
331
15E
331
15D
331
166
331
167
331
174
331
173
331
17B
331
17C
331
186
331
18C
331
18D
331
19E
331
19D
331
1A6
331
1A7
331
1B4
331
1B3
331
1BC
331
1BD
331
1CA
331
1C9
331
1D1
331
1D2
331
1DC
331
1E4
331
1EC
331
1F6
102
}
  0
BLOCK_RECORD
  5
73
330
1
100
AcDbSymbolTableRecord
100
AcDbBlockTableRecord
  2
*D3
340
0
  0
BLOCK_RECORD
  5
86
330
1
100
AcDbSymbolTableRecord
100
AcDbBlockTableRecord
  2
*D4
340
0
  0
BLOCK_RECORD
  5
9A
330
1
100
AcDbSymbolTableRecord
100
AcDbBlockTableRecord
  2
*D5
340
0
  0
BLOCK_RECORD
  5
AD
330
1
100
AcDbSymbolTableRecord
100
AcDbBlockTableRecord
  2
*D6
340
0
  0
BLOCK_RECORD
  5
C5
330
1
100
AcDbSymbolTableRecord
100
AcDbBlockTableRecord
  2
*D7
340
0
  0
BLOCK_RECORD
  5
DB
330
1
100
AcDbSymbolTableRecord
100
AcDbBlockTableRecord
  2
SW_CENTERMARKSYMBOL_0
340
0
102
{BLKREFS
331
E6
102
}
  0
BLOCK_RECORD
  5
109
330
1
100
AcDbSymbolTableRecord
100
AcDbBlockTableRecord
  2
*D9
340
0
  0
BLOCK_RECORD
  5
11D
330
1
100
AcDbSymbolTableRecord
100
AcDbBlockTableRecord
  2
*D10
340
0
  0
BLOCK_RECORD
  5
130
330
1
100
AcDbSymbolTableRecord
100
AcDbBlockTableRecord
  2
*D11
340
0
  0
BLOCK_RECORD
  5
143
330
1
100
AcDbSymbolTableRecord
100
AcDbBlockTableRecord
  2
*D12
340
0
  0
BLOCK_RECORD
  5
158
330
1
100
AcDbSymbolTableRecord
100
AcDbBlockTableRecord
  2
*D13
340
0
  0
BLOCK_RECORD
  5
16F
330
1
100
AcDbSymbolTableRecord
100
AcDbBlockTableRecord
  2
*D14
340
0
  0
BLOCK_RECORD
  5
182
330
1
100
AcDbSymbolTableRecord
100
AcDbBlockTableRecord
  2
*D15
340
0
  0
BLOCK_RECORD
  5
199
330
1
100
AcDbSymbolTableRecord
100
AcDbBlockTableRecord
  2
*D16
340
0
  0
BLOCK_RECORD
  5
1AF
330
1
100
AcDbSymbolTableRecord
100
AcDbBlockTableRecord
  2
*D17
340
0
  0
BLOCK_RECORD
  5
1C5
330
1
100
AcDbSymbolTableRecord
100
AcDbBlockTableRecord
  2
*D18
340
0
  0
BLOCK_RECORD
  5
1D8
330
1
100
AcDbSymbolTableRecord
100
AcDbBlockTableRecord
  2
*D19
340
0
  0
BLOCK_RECORD
  5
1E9
330
1
100
AcDbSymbolTableRecord
100
AcDbBlockTableRecord
  2
SW_CHAMFER_DIMENSION_0
340
0
102
{BLKREFS
331
1F2
102
}
  0
BLOCK_RECORD
  5
1F3
330
1
100
AcDbSymbolTableRecord
100
AcDbBlockTableRecord
  2
SW_CHAMFER_DIMENSION_1
340
0
102
{BLKREFS
331
1FC
102
}
  0
BLOCK_RECORD
  5
200
330
1
100
AcDbSymbolTableRecord
100
AcDbBlockTableRecord
  2
SW_CENTERMARKSYMBOL_1
340
0
102
{BLKREFS
331
20B
102
}
  0
BLOCK_RECORD
  5
20C
330
1
100
AcDbSymbolTableRecord
100
AcDbBlockTableRecord
  2
SW_CENTERMARKSYMBOL_2
340
0
102
{BLKREFS
331
217
102
}
  0
BLOCK_RECORD
  5
218
330
1
100
AcDbSymbolTableRecord
100
AcDbBlockTableRecord
  2
SW_CENTERMARKSYMBOL_3
340
0
102
{BLKREFS
331
223
102
}
  0
ENDTAB
  0
ENDSEC
  0
SECTION
  2
BLOCKS
  0
BLOCK
  5
20
330
1F
100
AcDbEntity
  8
0
100
AcDbBlockBegin
  2
*Model_Space
 70
     0
 71
     0
 10
0.0
 20
0.0
 30
0.0
  3
*Model_Space
  1

  0
ENDBLK
  5
21
330
1F
100
AcDbEntity
  8
0
100
AcDbBlockEnd
  0
BLOCK
  5
1C
330
1B
100
AcDbEntity
 67
     1
  8
0
100
AcDbBlockBegin
  2
*Paper_Space
 70
     0
 71
     0
 10
0.0
 20
0.0
 30
0.0
  3
*Paper_Space
  1

  0
ENDBLK
  5
1D
330
1B
100
AcDbEntity
 67
     1
  8
0
100
AcDbBlockEnd
  0
BLOCK
  5
24
330
23
100
AcDbEntity
  8
0
100
AcDbBlockBegin
  2
*Paper_Space0
 70
     0
 71
     0
 10
0.0
 20
0.0
 30
0.0
  3
*Paper_Space0
  1

  0
ENDBLK
  5
25
330
23
100
AcDbEntity
  8
0
100
AcDbBlockEnd
  0
BLOCK
  5
60
330
55
100
AcDbEntity
  8
0
100
AcDbBlockBegin
  2
*D1
 70
     1
 71
     0
 10
0.0
 20
0.0
 30
0.0
  3
*D1
  1

  0
INSERT
  5
6A
330
55
100
AcDbEntity
  8
0
  6
Continuous
 62
     7
370
     0
100
AcDbBlockReference
  2
_Open30
 10
137.2769875065
 20
111.7153535093
 30
0.1
 41
3.0
 42
3.0
 50
0.0
  0
INSERT
  5
6B
330
55
100
AcDbEntity
  8
0
  6
Continuous
 62
     7
370
     0
100
AcDbBlockReference
  2
_Open30
 10
143.2769875065
 20
111.7153535093
 30
0.1
 41
3.0
 42
3.0
 50
180.0
  0
LINE
  5
6C
330
55
100
AcDbEntity
  8
0
  6
Continuous
 62
     7
370
     0
100
AcDbLine
 10
137.2769875065
 20
119.8651109766
 30
0.0
 11
137.2769875065
 21
110.7153535093
 31
0.0
  0
LINE
  5
6D
330
55
100
AcDbEntity
  8
0
  6
Continuous
 62
     7
370
     0
100
AcDbLine
 10
143.2769875065
 20
118.3651109766
 30
0.0
 11
143.2769875065
 21
110.7153535093
 31
0.0
  0
LINE
  5
6E
330
55
100
AcDbEntity
  8
0
  6
Continuous
 62
     7
370
     0
100
AcDbLine
 10
137.2769875065
 20
111.7153535093
 30
0.0
 11
132.2769875065
 21
111.7153535093
 31
0.0
  0
LINE
  5
6F
330
55
100
AcDbEntity
  8
0
  6
Continuous
 62
     7
370
     0
100
AcDbLine
 10
137.2769875065
 20
111.7153535093
 30
0.0
 11
143.2769875065
 21
111.7153535093
 31
0.0
  0
LINE
  5
70
330
55
100
AcDbEntity
  8
0
  6
Continuous
 62
     7
370
     0
100
AcDbLine
 10
143.2769875065
 20
111.7153535093
 30
0.0
 11
148.2769875065
 21
111.7153535093
 31
0.0
  0
MTEXT
  5
71
330
55
100
AcDbEntity
  8
0
  6
Continuous
 62
     7
370
     0
100
AcDbMText
 10
139.2598625324
 20
115.7880805492
 30
0.0
 40
3.5
 41
0.0
 71
     1
 72
     1
  1
6
  7
SLDTEXTSTYLE0
 73
     1
 44
1.0
  0
ENDBLK
  5
61
330
55
100
AcDbEntity
  8
0
100
AcDbBlockEnd
  0
BLOCK
  5
64
330
63
100
AcDbEntity
  8
0
100
AcDbBlockBegin
  2
_Open30
 70
     0
 71
     0
 10
0.0
 20
0.0
 30
0.0
  3
_Open30
  1

  0
LINE
  5
66
330
63
100
AcDbEntity
  8
0
  6
ByBlock
 62
     0
370
    -2
100
AcDbLine
 10
-1.0
 20
0.267949
 30
0.0
 11
0.0
 21
0.0
 31
0.0
  0
LINE
  5
67
330
63
100
AcDbEntity
  8
0
  6
ByBlock
 62
     0
370
    -2
100
AcDbLine
 10
0.0
 20
0.0
 30
0.0
 11
-1.0
 21
-0.267949
 31
0.0
  0
LINE
  5
68
330
63
100
AcDbEntity
  8
0
  6
ByBlock
 62
     0
370
    -2
100
AcDbLine
 10
0.0
 20
0.0
 30
0.0
 11
-1.0
 21
0.0
 31
0.0
  0
ENDBLK
  5
65
330
63
100
AcDbEntity
  8
0
100
AcDbBlockEnd
  0
BLOCK
  5
7D
330
73
100
AcDbEntity
  8
0
100
AcDbBlockBegin
  2
*D3
 70
     1
 71
     0
 10
0.0
 20
0.0
 30
0.0
  3
*D3
  1

  0
INSERT
  5
7F
330
73
100
AcDbEntity
  8
0
  6
Continuous
 62
     7
370
     0
100
AcDbBlockReference
  2
_Open30
 10
109.2769875065
 20
104.0259887268
 30
0.1
 41
3.0
 42
3.0
 50
180.0
  0
INSERT
  5
80
330
73
100
AcDbEntity
  8
0
  6
Continuous
 62
     7
370
     0
100
AcDbBlockReference
  2
_Open30
 10
143.2769875065
 20
104.0259887268
 30
0.1
 41
3.0
 42
3.0
 50
0.0
  0
LINE
  5
81
330
73
100
AcDbEntity
  8
0
  6
Continuous
 62
     7
370
     0
100
AcDbLine
 10
109.2769875065
 20
118.3651109766
 30
0.0
 11
109.2769875065
 21
103.0259887268
 31
0.0
  0
LINE
  5
82
330
73
100
AcDbEntity
  8
0
  6
Continuous
 62
     7
370
     0
100
AcDbLine
 10
143.2769875065
 20
118.3651109766
 30
0.0
 11
143.2769875065
 21
103.0259887268
 31
0.0
  0
LINE
  5
83
330
73
100
AcDbEntity
  8
0
  6
Continuous
 62
     7
370
     0
100
AcDbLine
 10
109.2769875065
 20
104.0259887268
 30
0.0
 11
143.2769875065
 21
104.0259887268
 31
0.0
  0
MTEXT
  5
84
330
73
100
AcDbEntity
  8
0
  6
Continuous
 62
     7
370
     0
100
AcDbMText
 10
124.241167921
 20
108.0987157667
 30
0.0
 40
3.5
 41
0.0
 71
     1
 72
     1
  1
34
  7
SLDTEXTSTYLE0
 73
     1
 44
1.0
  0
ENDBLK
  5
7E
330
73
100
AcDbEntity
  8
0
100
AcDbBlockEnd
  0
BLOCK
  5
91
330
86
100
AcDbEntity
  8
0
100
AcDbBlockBegin
  2
*D4
 70
     1
 71
     0
 10
0.0
 20
0.0
 30
0.0
  3
*D4
  1

  0
INSERT
  5
93
330
86
100
AcDbEntity
  8
0
  6
Continuous
 62
     7
370
     0
100
AcDbBlockReference
  2
_Open30
 10
168.6673178851
 20
135.3651109766
 30
0.1
 41
3.0
 42
3.0
 50
90.0
  0
INSERT
  5
94
330
86
100
AcDbEntity
  8
0
  6
Continuous
 62
     7
370
     0
100
AcDbBlockReference
  2
_Open30
 10
168.6673178851
 20
119.3651109766
 30
0.1
 41
3.0
 42
3.0
 50
270.0
  0
LINE
  5
95
330
86
100
AcDbEntity
  8
0
  6
Continuous
 62
     7
370
     0
100
AcDbLine
 10
144.2769875065
 20
135.3651109766
 30
0.0
 11
169.6673178851
 21
135.3651109766
 31
0.0
  0
LINE
  5
96
330
86
100
AcDbEntity
  8
0
  6
Continuous
 62
     7
370
     0
100
AcDbLine
 10
144.2769875065
 20
119.3651109766
 30
0.0
 11
169.6673178851
 21
119.3651109766
 31
0.0
  0
LINE
  5
97
330
86
100
AcDbEntity
  8
0
  6
Continuous
 62
     7
370
     0
100
AcDbLine
 10
168.6673178851
 20
135.3651109766
 30
0.0
 11
168.6673178851
 21
119.3651109766
 31
0.0
  0
MTEXT
  5
98
330
86
100
AcDbEntity
  8
0
  6
Continuous
 62
     7
370
     0
100
AcDbMText
 10
164.5945908452
 20
125.3292913911
 30
0.0
 40
3.5
 41
0.0
 71
     1
 72
     1
  1
16
  7
SLDTEXTSTYLE0
 11
-7.044197039909883E-15
 21
1.0
 31
0.0
 73
     1
 44
1.0
  0
ENDBLK
  5
92
330
86
100
AcDbEntity
  8
0
100
AcDbBlockEnd
  0
BLOCK
  5
A4
330
9A
100
AcDbEntity
  8
0
100
AcDbBlockBegin
  2
*D5
 70
     1
 71
     0
 10
0.0
 20
0.0
 30
0.0
  3
*D5
  1

  0
INSERT
  5
A6
330
9A
100
AcDbEntity
  8
0
  6
Continuous
 62
     7
370
     0
100
AcDbBlockReference
  2
_Open30
 10
57.2769875065
 20
149.5060985701
 30
0.1
 41
3.0
 42
3.0
 50
180.0
  0
INSERT
  5
A7
330
9A
100
AcDbEntity
  8
0
  6
Continuous
 62
     7
370
     0
100
AcDbBlockReference
  2
_Open30
 10
143.2769875065
 20
149.5060985701
 30
0.1
 41
3.0
 42
3.0
 50
0.0
  0
LINE
  5
A8
330
9A
100
AcDbEntity
  8
0
  6
Continuous
 62
     7
370
     0
100
AcDbLine
 10
57.2769875065
 20
136.3651109766
 30
0.0
 11
57.2769875065
 21
150.5060985701
 31
0.0
  0
LINE
  5
A9
330
9A
100
AcDbEntity
  8
0
  6
Continuous
 62
     7
370
     0
100
AcDbLine
 10
143.2769875065
 20
136.3651109766
 30
0.0
 11
143.2769875065
 21
150.5060985701
 31
0.0
  0
LINE
  5
AA
330
9A
100
AcDbEntity
  8
0
  6
Continuous
 62
     7
370
     0
100
AcDbLine
 10
57.2769875065
 20
149.5060985701
 30
0.0
 11
143.2769875065
 21
149.5060985701
 31
0.0
  0
MTEXT
  5
AB
330
9A
100
AcDbEntity
  8
0
  6
Continuous
 62
     7
370
     0
100
AcDbMText
 10
98.241167921
 20
153.57882561
 30
0.0
 40
3.5
 41
0.0
 71
     1
 72
     1
  1
86
  7
SLDTEXTSTYLE0
 73
     1
 44
1.0
  0
ENDBLK
  5
A5
330
9A
100
AcDbEntity
  8
0
100
AcDbBlockEnd
  0
BLOCK
  5
B8
330
AD
100
AcDbEntity
  8
0
100
AcDbBlockBegin
  2
*D6
 70
     1
 71
     0
 10
0.0
 20
0.0
 30
0.0
  3
*D6
  1

  0
INSERT
  5
BC
330
AD
100
AcDbEntity
  8
0
  6
Continuous
 62
     7
370
     0
100
AcDbBlockReference
  2
_Open30
 10
157.6221419506
 20
135.3651109766
 30
0.1
 41
3.0
 42
3.0
 50
270.0
  0
INSERT
  5
BD
330
AD
100
AcDbEntity
  8
0
  6
Continuous
 62
     7
370
     0
100
AcDbBlockReference
  2
_Open30
 10
157.6221419506
 20
127.3651109766
 30
0.1
 41
3.0
 42
3.0
 50
90.0
  0
LINE
  5
BE
330
AD
100
AcDbEntity
  8
0
  6
Continuous
 62
     7
370
     0
100
AcDbLine
 10
144.2769875065
 20
135.3651109766
 30
0.0
 11
158.6221419506
 21
135.3651109766
 31
0.0
  0
LINE
  5
BF
330
AD
100
AcDbEntity
  8
0
  6
Continuous
 62
     7
370
     0
100
AcDbLine
 10
144.7769875065
 20
127.3651109766
 30
0.0
 11
158.6221419506
 21
127.3651109766
 31
0.0
  0
LINE
  5
C0
330
AD
100
AcDbEntity
  8
0
  6
Continuous
 62
     7
370
     0
100
AcDbLine
 10
157.6221419506
 20
135.3651109766
 30
0.0
 11
157.6221419506
 21
140.3651109766
 31
0.0
  0
LINE
  5
C1
330
AD
100
AcDbEntity
  8
0
  6
Continuous
 62
     7
370
     0
100
AcDbLine
 10
157.6221419506
 20
135.3651109766
 30
0.0
 11
157.6221419506
 21
127.3651109766
 31
0.0
  0
LINE
  5
C2
330
AD
100
AcDbEntity
  8
0
  6
Continuous
 62
     7
370
     0
100
AcDbLine
 10
157.6221419506
 20
127.3651109766
 30
0.0
 11
157.6221419506
 21
122.3651109766
 31
0.0
  0
MTEXT
  5
C3
330
AD
100
AcDbEntity
  8
0
  6
Continuous
 62
     7
370
     0
100
AcDbMText
 10
153.5494149107
 20
130.3479860025
 30
0.0
 40
3.5
 41
0.0
 71
     1
 72
     1
  1
8
  7
SLDTEXTSTYLE0
 11
-7.044197039909883E-15
 21
1.0
 31
0.0
 73
     1
 44
1.0
  0
ENDBLK
  5
B9
330
AD
100
AcDbEntity
  8
0
100
AcDbBlockEnd
  0
BLOCK
  5
D0
330
C5
100
AcDbEntity
  8
0
100
AcDbBlockBegin
  2
*D7
 70
     1
 71
     0
 10
0.0
 20
0.0
 30
0.0
  3
*D7
  1

  0
INSERT
  5
D3
330
C5
100
AcDbEntity
  8
0
  6
Continuous
 62
     7
370
     0
100
AcDbBlockReference
  2
_Open30
 10
44.9344751889
 20
135.3651109766
 30
0.1
 41
3.0
 42
3.0
 50
270.0
  0
INSERT
  5
D4
330
C5
100
AcDbEntity
  8
0
  6
Continuous
 62
     7
370
     0
100
AcDbBlockReference
  2
_Open30
 10
44.9344751889
 20
129.3651109766
 30
0.1
 41
3.0
 42
3.0
 50
90.0
  0
LINE
  5
D5
330
C5
100
AcDbEntity
  8
0
  6
Continuous
 62
     7
370
     0
100
AcDbLine
 10
56.2769875065
 20
135.3651109766
 30
0.0
 11
43.9344751889
 21
135.3651109766
 31
0.0
  0
LINE
  5
D6
330
C5
100
AcDbEntity
  8
0
  6
Continuous
 62
     7
370
     0
100
AcDbLine
 10
56.2769875065
 20
129.3651109766
 30
0.0
 11
43.9344751889
 21
129.3651109766
 31
0.0
  0
LINE
  5
D7
330
C5
100
AcDbEntity
  8
0
  6
Continuous
 62
     7
370
     0
100
AcDbLine
 10
44.9344751889
 20
135.3651109766
 30
0.0
 11
44.9344751889
 21
140.3651109766
 31
0.0
  0
LINE
  5
D8
330
C5
100
AcDbEntity
  8
0
  6
Continuous
 62
     7
370
     0
100
AcDbLine
 10
44.9344751889
 20
135.3651109766
 30
0.0
 11
44.9344751889
 21
129.3651109766
 31
0.0
  0
LINE
  5
D9
330
C5
100
AcDbEntity
  8
0
  6
Continuous
 62
     7
370
     0
100
AcDbLine
 10
44.9344751889
 20
129.3651109766
 30
0.0
 11
44.9344751889
 21
124.3651109766
 31
0.0
  0
MTEXT
  5
DA
330
C5
100
AcDbEntity
  8
0
  6
Continuous
 62
     7
370
     0
100
AcDbMText
 10
40.861748149
 20
131.3479860025
 30
0.0
 40
3.5
 41
0.0
 71
     1
 72
     1
  1
6
  7
SLDTEXTSTYLE0
 11
-7.044197039909883E-15
 21
1.0
 31
0.0
 73
     1
 44
1.0
  0
ENDBLK
  5
D1
330
C5
100
AcDbEntity
  8
0
100
AcDbBlockEnd
  0
BLOCK
  5
DC
330
DB
100
AcDbEntity
  8
0
100
AcDbBlockBegin
  2
SW_CENTERMARKSYMBOL_0
 70
     0
 71
     0
 10
0.0
 20
0.0
 30
0.0
  3
SW_CENTERMARKSYMBOL_0
  1

  0
LINE
  5
DE
330
DB
100
AcDbEntity
  8
0
  6
Continuous
 62
     7
370
     0
100
AcDbLine
 10
0.0
 20
0.0
 30
0.0
 11
0.0
 21
2.5
 31
0.0
  0
LINE
  5
DF
330
DB
100
AcDbEntity
  8
0
  6
Continuous
 62
     7
370
     0
100
AcDbLine
 10
0.0
 20
0.0
 30
0.0
 11
-2.5
 21
0.0
 31
0.0
  0
LINE
  5
E0
330
DB
100
AcDbEntity
  8
0
  6
Continuous
 62
     7
370
     0
100
AcDbLine
 10
0.0
 20
0.0
 30
0.0
 11
0.0
 21
-2.5
 31
0.0
  0
LINE
  5
E1
330
DB
100
AcDbEntity
  8
0
  6
Continuous
 62
     7
370
     0
100
AcDbLine
 10
0.0
 20
0.0
 30
0.0
 11
2.5
 21
0.0
 31
0.0
  0
LINE
  5
E2
330
DB
100
AcDbEntity
  8
0
  6
Continuous
 62
     7
370
     0
100
AcDbLine
 10
0.0
 20
5.0
 30
0.0
 11
0.0
 21
6.5
 31
0.0
  0
LINE
  5
E3
330
DB
100
AcDbEntity
  8
0
  6
Continuous
 62
     7
370
     0
100
AcDbLine
 10
-5.0
 20
0.0
 30
0.0
 11
-6.5
 21
0.0
 31
0.0
  0
LINE
  5
E4
330
DB
100
AcDbEntity
  8
0
  6
Continuous
 62
     7
370
     0
100
AcDbLine
 10
0.0
 20
-5.0
 30
0.0
 11
0.0
 21
-6.5
 31
0.0
  0
LINE
  5
E5
330
DB
100
AcDbEntity
  8
0
  6
Continuous
 62
     7
370
     0
100
AcDbLine
 10
5.0
 20
0.0
 30
0.0
 11
6.5
 21
0.0
 31
0.0
  0
ENDBLK
  5
DD
330
DB
100
AcDbEntity
  8
0
100
AcDbBlockEnd
  0
BLOCK
  5
114
330
109
100
AcDbEntity
  8
0
100
AcDbBlockBegin
  2
*D9
 70
     1
 71
     0
 10
0.0
 20
0.0
 30
0.0
  3
*D9
  1

  0
INSERT
  5
116
330
109
100
AcDbEntity
  8
0
  6
Continuous
 62
     7
370
     0
100
AcDbBlockReference
  2
_Open30
 10
38.4214044248
 20
211.0013740214
 30
8.04
 41
3.0
 42
3.0
 50
90.0
  0
INSERT
  5
117
330
109
100
AcDbEntity
  8
0
  6
Continuous
 62
     7
370
     0
100
AcDbBlockReference
  2
_Open30
 10
38.4214044248
 20
186.0013740214
 30
8.04
 41
3.0
 42
3.0
 50
270.0
  0
LINE
  5
118
330
109
100
AcDbEntity
  8
0
  6
Continuous
 62
     7
370
     0
100
AcDbLine
 10
56.2769875065
 20
211.0013740214
 30
0.0
 11
37.4214044248
 21
211.0013740214
 31
0.0
  0
LINE
  5
119
330
109
100
AcDbEntity
  8
0
  6
Continuous
 62
     7
370
     0
100
AcDbLine
 10
56.2769875065
 20
186.0013740214
 30
0.0
 11
37.4214044248
 21
186.0013740214
 31
0.0
  0
LINE
  5
11A
330
109
100
AcDbEntity
  8
0
  6
Continuous
 62
     7
370
     0
100
AcDbLine
 10
38.4214044248
 20
211.0013740214
 30
0.0
 11
38.4214044248
 21
186.0013740214
 31
0.0
  0
MTEXT
  5
11B
330
109
100
AcDbEntity
  8
0
  6
Continuous
 62
     7
370
     0
100
AcDbMText
 10
34.3486773849
 20
196.4655544359
 30
0.0
 40
3.5
 41
0.0
 71
     1
 72
     1
  1
25
  7
SLDTEXTSTYLE0
 11
-7.044197039909883E-15
 21
1.0
 31
0.0
 73
     1
 44
1.0
  0
ENDBLK
  5
115
330
109
100
AcDbEntity
  8
0
100
AcDbBlockEnd
  0
BLOCK
  5
127
330
11D
100
AcDbEntity
  8
0
100
AcDbBlockBegin
  2
*D10
 70
     1
 71
     0
 10
0.0
 20
0.0
 30
0.0
  3
*D10
  1

  0
INSERT
  5
129
330
11D
100
AcDbEntity
  8
0
  6
Continuous
 62
     7
370
     0
100
AcDbBlockReference
  2
_Open30
 10
103.2769875065
 20
230.4198008527
 30
8.04
 41
3.0
 42
3.0
 50
180.0
  0
INSERT
  5
12A
330
11D
100
AcDbEntity
  8
0
  6
Continuous
 62
     7
370
     0
100
AcDbBlockReference
  2
_Open30
 10
143.2769875065
 20
230.4198008527
 30
8.04
 41
3.0
 42
3.0
 50
0.0
  0
LINE
  5
12B
330
11D
100
AcDbEntity
  8
0
  6
Continuous
 62
     7
370
     0
100
AcDbLine
 10
103.2769875065
 20
191.7513740214
 30
0.0
 11
103.2769875065
 21
231.4198008527
 31
0.0
  0
LINE
  5
12C
330
11D
100
AcDbEntity
  8
0
  6
Continuous
 62
     7
370
     0
100
AcDbLine
 10
143.2769875065
 20
212.0013740214
 30
0.0
 11
143.2769875065
 21
231.4198008527
 31
0.0
  0
LINE
  5
12D
330
11D
100
AcDbEntity
  8
0
  6
Continuous
 62
     7
370
     0
100
AcDbLine
 10
103.2769875065
 20
230.4198008527
 30
0.0
 11
143.2769875065
 21
230.4198008527
 31
0.0
  0
MTEXT
  5
12E
330
11D
100
AcDbEntity
  8
0
  6
Continuous
 62
     7
370
     0
100
AcDbMText
 10
121.241167921
 20
234.4925278926
 30
0.0
 40
3.5
 41
0.0
 71
     1
 72
     1
  1
40
  7
SLDTEXTSTYLE0
 73
     1
 44
1.0
  0
ENDBLK
  5
128
330
11D
100
AcDbEntity
  8
0
100
AcDbBlockEnd
  0
BLOCK
  5
13A
330
130
100
AcDbEntity
  8
0
100
AcDbBlockBegin
  2
*D11
 70
     1
 71
     0
 10
0.0
 20
0.0
 30
0.0
  3
*D11
  1

  0
INSERT
  5
13C
330
130
100
AcDbEntity
  8
0
  6
Continuous
 62
     7
370
     0
100
AcDbBlockReference
  2
_Open30
 10
103.2769875065
 20
230.4198008527
 30
8.04
 41
3.0
 42
3.0
 50
360.0
  0
INSERT
  5
13D
330
130
100
AcDbEntity
  8
0
  6
Continuous
 62
     7
370
     0
100
AcDbBlockReference
  2
_Open30
 10
63.2769875065
 20
230.4198008527
 30
8.04
 41
3.0
 42
3.0
 50
180.0
  0
LINE
  5
13E
330
130
100
AcDbEntity
  8
0
  6
Continuous
 62
     7
370
     0
100
AcDbLine
 10
103.2769875065
 20
191.7513740214
 30
0.0
 11
103.2769875065
 21
231.4198008527
 31
0.0
  0
LINE
  5
13F
330
130
100
AcDbEntity
  8
0
  6
Continuous
 62
     7
370
     0
100
AcDbLine
 10
63.2769875065
 20
191.7513740214
 30
0.0
 11
63.2769875065
 21
231.4198008527
 31
0.0
  0
LINE
  5
140
330
130
100
AcDbEntity
  8
0
  6
Continuous
 62
     7
370
     0
100
AcDbLine
 10
103.2769875065
 20
230.4198008527
 30
0.0
 11
63.2769875065
 21
230.4198008527
 31
0.0
  0
MTEXT
  5
141
330
130
100
AcDbEntity
  8
0
  6
Continuous
 62
     7
370
     0
100
AcDbMText
 10
81.241167921
 20
234.4925278926
 30
0.0
 40
3.5
 41
0.0
 71
     1
 72
     1
  1
40
  7
SLDTEXTSTYLE0
 73
     1
 44
1.0
  0
ENDBLK
  5
13B
330
130
100
AcDbEntity
  8
0
100
AcDbBlockEnd
  0
BLOCK
  5
14F
330
143
100
AcDbEntity
  8
0
100
AcDbBlockBegin
  2
*D12
 70
     1
 71
     0
 10
0.0
 20
0.0
 30
0.0
  3
*D12
  1

  0
INSERT
  5
151
330
143
100
AcDbEntity
  8
0
  6
Continuous
 62
     7
370
     0
100
AcDbBlockReference
  2
_Open30
 10
88.9110170694
 20
195.2513740214
 30
8.04
 41
3.0
 42
3.0
 50
90.0
  0
INSERT
  5
152
330
143
100
AcDbEntity
  8
0
  6
Continuous
 62
     7
370
     0
100
AcDbBlockReference
  2
_Open30
 10
88.9110170694
 20
201.7513740214
 30
8.04
 41
3.0
 42
3.0
 50
270.0
  0
LINE
  5
153
330
143
100
AcDbEntity
  8
0
  6
Continuous
 62
     7
370
     0
100
AcDbLine
 10
88.9110170694
 20
195.2513740214
 30
0.0
 11
88.9110170694
 21
174.5354361647
 31
0.0
  0
LINE
  5
154
330
143
100
AcDbEntity
  8
0
  6
Continuous
 62
     7
370
     0
100
AcDbLine
 10
88.9110170694
 20
195.2513740214
 30
0.0
 11
88.9110170694
 21
201.7513740214
 31
0.0
  0
LINE
  5
155
330
143
100
AcDbEntity
  8
0
  6
Continuous
 62
     7
370
     0
100
AcDbLine
 10
88.9110170694
 20
201.7513740214
 30
0.0
 11
88.9110170694
 21
206.7513740214
 31
0.0
  0
MTEXT
  5
156
330
143
100
AcDbEntity
  8
0
  6
Continuous
 62
     7
370
     0
100
AcDbMText
 10
84.8382900295
 20
176.1229361647
 30
0.0
 40
3.5
 41
0.0
 71
     1
 72
     1
  1
6.5
  7
SLDTEXTSTYLE0
 11
6.123031769111886E-17
 21
1.0
 31
0.0
 73
     1
 44
1.0
  0
ENDBLK
  5
150
330
143
100
AcDbEntity
  8
0
100
AcDbBlockEnd
  0
BLOCK
  5
164
330
158
100
AcDbEntity
  8
0
100
AcDbBlockBegin
  2
*D13
 70
     1
 71
     0
 10
0.0
 20
0.0
 30
0.0
  3
*D13
  1

  0
INSERT
  5
166
330
158
100
AcDbEntity
  8
0
  6
Continuous
 62
     7
370
     0
100
AcDbBlockReference
  2
_Open30
 10
156.9760283532
 20
198.0013740214
 30
8.04
 41
3.0
 42
3.0
 50
90.0
  0
INSERT
  5
167
330
158
100
AcDbEntity
  8
0
  6
Continuous
 62
     7
370
     0
100
AcDbBlockReference
  2
_Open30
 10
156.9760283532
 20
199.0013740214
 30
8.04
 41
3.0
 42
3.0
 50
270.0
  0
LINE
  5
168
330
158
100
AcDbEntity
  8
0
  6
Continuous
 62
     7
370
     0
100
AcDbLine
 10
144.2769875065
 20
198.0013740214
 30
0.0
 11
157.9760283532
 21
198.0013740214
 31
0.0
  0
LINE
  5
169
330
158
100
AcDbEntity
  8
0
  6
Continuous
 62
     7
370
     0
100
AcDbLine
 10
144.2769875065
 20
199.0013740214
 30
0.0
 11
157.9760283532
 21
199.0013740214
 31
0.0
  0
LINE
  5
16A
330
158
100
AcDbEntity
  8
0
  6
Continuous
 62
     7
370
     0
100
AcDbLine
 10
156.9760283532
 20
198.0013740214
 30
0.0
 11
156.9760283532
 21
189.3967490473
 31
0.0
  0
LINE
  5
16B
330
158
100
AcDbEntity
  8
0
  6
Continuous
 62
     7
370
     0
100
AcDbLine
 10
156.9760283532
 20
198.0013740214
 30
0.0
 11
156.9760283532
 21
199.0013740214
 31
0.0
  0
LINE
  5
16C
330
158
100
AcDbEntity
  8
0
  6
Continuous
 62
     7
370
     0
100
AcDbLine
 10
156.9760283532
 20
199.0013740214
 30
0.0
 11
156.9760283532
 21
204.0013740214
 31
0.0
  0
MTEXT
  5
16D
330
158
100
AcDbEntity
  8
0
  6
Continuous
 62
     7
370
     0
100
AcDbMText
 10
152.9033013133
 20
190.9842490473
 30
0.0
 40
3.5
 41
0.0
 71
     1
 72
     1
  1
1
  7
SLDTEXTSTYLE0
 11
6.123031769111886E-17
 21
1.0
 31
0.0
 73
     1
 44
1.0
  0
ENDBLK
  5
165
330
158
100
AcDbEntity
  8
0
100
AcDbBlockEnd
  0
BLOCK
  5
179
330
16F
100
AcDbEntity
  8
0
100
AcDbBlockBegin
  2
*D14
 70
     1
 71
     0
 10
0.0
 20
0.0
 30
0.0
  3
*D14
  1

  0
INSERT
  5
17B
330
16F
100
AcDbEntity
  8
0
  6
Continuous
 62
     7
370
     0
100
AcDbBlockReference
  2
_Open30
 10
123.2769875065
 20
221.8851035097
 30
8.04
 41
3.0
 42
3.0
 50
180.0
  0
INSERT
  5
17C
330
16F
100
AcDbEntity
  8
0
  6
Continuous
 62
     7
370
     0
100
AcDbBlockReference
  2
_Open30
 10
143.2769875065
 20
221.8851035097
 30
8.04
 41
3.0
 42
3.0
 50
0.0
  0
LINE
  5
17D
330
16F
100
AcDbEntity
  8
0
  6
Continuous
 62
     7
370
     0
100
AcDbLine
 10
123.2769875065
 20
189.0013740214
 30
0.0
 11
123.2769875065
 21
222.8851035097
 31
0.0
  0
LINE
  5
17E
330
16F
100
AcDbEntity
  8
0
  6
Continuous
 62
     7
370
     0
100
AcDbLine
 10
143.2769875065
 20
212.0013740214
 30
0.0
 11
143.2769875065
 21
222.8851035097
 31
0.0
  0
LINE
  5
17F
330
16F
100
AcDbEntity
  8
0
  6
Continuous
 62
     7
370
     0
100
AcDbLine
 10
123.2769875065
 20
221.8851035097
 30
0.0
 11
143.2769875065
 21
221.8851035097
 31
0.0
  0
MTEXT
  5
180
330
16F
100
AcDbEntity
  8
0
  6
Continuous
 62
     7
370
     0
100
AcDbMText
 10
131.241167921
 20
225.9578305496
 30
0.0
 40
3.5
 41
0.0
 71
     1
 72
     1
  1
20
  7
SLDTEXTSTYLE0
 73
     1
 44
1.0
  0
ENDBLK
  5
17A
330
16F
100
AcDbEntity
  8
0
100
AcDbBlockEnd
  0
BLOCK
  5
189
330
182
100
AcDbEntity
  8
0
100
AcDbBlockBegin
  2
*D15
 70
     1
 71
     0
 10
0.0
 20
0.0
 30
0.0
  3
*D15
  1

  0
INSERT
  5
18C
330
182
100
AcDbEntity
  8
0
  6
Continuous
 62
     7
370
     0
100
AcDbBlockReference
  2
_Open30
 10
118.8717759874
 20
207.4787963393
 30
8.04
 41
3.0
 42
3.0
 50
116.1371374033
  0
INSERT
  5
18D
330
182
100
AcDbEntity
  8
0
  6
Continuous
 62
     7
370
     0
100
AcDbBlockReference
  2
_Open30
 10
127.6821990255
 20
189.5239517036
 30
8.04
 41
3.0
 42
3.0
 50
296.1371374033
  0
LINE
  5
18E
330
182
100
AcDbEntity
  8
0
  6
Continuous
 62
     7
370
     0
100
AcDbLine
 10
127.6821990255
 20
189.5239517036
 30
0.0
 11
138.8591583712
 21
166.7463202907
 31
0.0
  0
LINE
  5
18F
330
182
100
AcDbEntity
  8
0
  6
Continuous
 62
     7
370
     0
100
AcDbLine
 10
118.8717759874
 20
207.4787963393
 30
0.0
 11
127.6821990255
 21
189.5239517036
 31
0.0
  0
LINE
  5
190
330
182
100
AcDbEntity
  8
0
  6
Continuous
 62
     7
370
     0
100
AcDbLine
 10
138.8591583712
 20
166.7463202907
 30
0.0
 11
167.0375076977
 21
166.7463202907
 31
0.0
  0
MTEXT
  5
191
330
182
100
AcDbEntity
  8
0
  6
Continuous
 62
     7
370
     0
100
AcDbMText
 10
142.0341583712
 20
170.8190473306
 30
0.0
 40
3.5
 41
0.0
 71
     1
 72
     1
  1
%%c
  7
SLDTEXTSTYLE0
 73
     1
 44
1.0
  0
MTEXT
  5
192
330
182
100
AcDbEntity
  8
0
  6
Continuous
 62
     7
370
     0
100
AcDbMText
 10
145.9017446925
 20
170.8190473306
 30
0.0
 40
3.5
 41
0.0
 71
     1
 72
     1
  1
20
  7
SLDTEXTSTYLE0
 73
     1
 44
1.0
  0
MTEXT
  5
193
330
182
100
AcDbEntity
  8
0
  6
Continuous
 62
     7
370
     0
100
AcDbMText
 10
151.1945616873
 20
169.4191237883
 30
0.0
 40
2.1
 41
0.0
 71
     1
 72
     1
  1
+
  7
SLDTEXTSTYLE0
 73
     1
 44
1.0
  0
MTEXT
  5
194
330
182
100
AcDbEntity
  8
0
  6
Continuous
 62
     7
370
     0
100
AcDbMText
 10
152.4157395111
 20
169.4191237883
 30
0.0
 40
2.1
 41
0.0
 71
     1
 72
     1
  1
0.05
  7
SLDTEXTSTYLE0
 73
     1
 44
1.0
  0
MTEXT
  5
195
330
182
100
AcDbEntity
  8
0
  6
Continuous
 62
     7
370
     0
100
AcDbMText
 10
151.1945616873
 20
171.8614794359
 30
0.0
 40
2.1
 41
0.0
 71
     1
 72
     1
  1
+
  7
SLDTEXTSTYLE0
 73
     1
 44
1.0
  0
MTEXT
  5
196
330
182
100
AcDbEntity
  8
0
  6
Continuous
 62
     7
370
     0
100
AcDbMText
 10
152.4157395111
 20
171.8614794359
 30
0.0
 40
2.1
 41
0.0
 71
     1
 72
     1
  1
0.08
  7
SLDTEXTSTYLE0
 73
     1
 44
1.0
  0
MTEXT
  5
197
330
182
100
AcDbEntity
  8
0
  6
Continuous
 62
     7
370
     0
100
AcDbMText
 10
157.3035900811
 20
170.8190473306
 30
0.0
 40
3.5
 41
0.0
 71
     1
 72
     1
  1
　　
  7
SLDTEXTSTYLE0
 73
     1
 44
1.0
  0
ENDBLK
  5
18A
330
182
100
AcDbEntity
  8
0
100
AcDbBlockEnd
  0
BLOCK
  5
1A4
330
199
100
AcDbEntity
  8
0
100
AcDbBlockBegin
  2
*D16
 70
     1
 71
     0
 10
0.0
 20
0.0
 30
0.0
  3
*D16
  1

  0
INSERT
  5
1A6
330
199
100
AcDbEntity
  8
0
  6
Continuous
 62
     7
370
     0
100
AcDbBlockReference
  2
_Open30
 10
164.6468629414
 20
211.0013740214
 30
0.04
 41
3.0
 42
3.0
 50
270.0
  0
INSERT
  5
1A7
330
199
100
AcDbEntity
  8
0
  6
Continuous
 62
     7
370
     0
100
AcDbBlockReference
  2
_Open30
 10
164.6468629414
 20
198.5013740214
 30
0.04
 41
3.0
 42
3.0
 50
90.0
  0
LINE
  5
1A8
330
199
100
AcDbEntity
  8
0
  6
Continuous
 62
     7
370
     0
100
AcDbLine
 10
142.7769875065
 20
211.0013740214
 30
0.0
 11
165.6468629414
 21
211.0013740214
 31
0.0
  0
LINE
  5
1A9
330
199
100
AcDbEntity
  8
0
  6
Continuous
 62
     7
370
     0
100
AcDbLine
 10
136.7769875065
 20
198.5013740214
 30
0.0
 11
165.6468629414
 21
198.5013740214
 31
0.0
  0
LINE
  5
1AA
330
199
100
AcDbEntity
  8
0
  6
Continuous
 62
     7
370
     0
100
AcDbLine
 10
164.6468629414
 20
211.0013740214
 30
0.0
 11
164.6468629414
 21
216.0013740214
 31
0.0
  0
LINE
  5
1AB
330
199
100
AcDbEntity
  8
0
  6
Continuous
 62
     7
370
     0
100
AcDbLine
 10
164.6468629414
 20
211.0013740214
 30
0.0
 11
164.6468629414
 21
198.5013740214
 31
0.0
  0
LINE
  5
1AC
330
199
100
AcDbEntity
  8
0
  6
Continuous
 62
     7
370
     0
100
AcDbLine
 10
164.6468629414
 20
198.5013740214
 30
0.0
 11
164.6468629414
 21
193.5013740214
 31
0.0
  0
MTEXT
  5
1AD
330
199
100
AcDbEntity
  8
0
  6
Continuous
 62
     7
370
     0
100
AcDbMText
 10
160.5741359015
 20
200.6781652131
 30
0.0
 40
3.5
 41
0.0
 71
     1
 72
     1
  1
12.5
  7
SLDTEXTSTYLE0
 11
-7.044197039909883E-15
 21
1.0
 31
0.0
 73
     1
 44
1.0
  0
ENDBLK
  5
1A5
330
199
100
AcDbEntity
  8
0
100
AcDbBlockEnd
  0
BLOCK
  5
1BA
330
1AF
100
AcDbEntity
  8
0
100
AcDbBlockBegin
  2
*D17
 70
     1
 71
     0
 10
0.0
 20
0.0
 30
0.0
  3
*D17
  1

  0
INSERT
  5
1BC
330
1AF
100
AcDbEntity
  8
0
  6
Continuous
 62
     7
370
     0
100
AcDbBlockReference
  2
_Open30
 10
47.0536568084
 20
198.5013740214
 30
0.04
 41
3.0
 42
3.0
 50
90.0
  0
INSERT
  5
1BD
330
1AF
100
AcDbEntity
  8
0
  6
Continuous
 62
     7
370
     0
100
AcDbBlockReference
  2
_Open30
 10
47.0536568084
 20
211.0013740214
 30
0.04
 41
3.0
 42
3.0
 50
270.0
  0
LINE
  5
1BE
330
1AF
100
AcDbEntity
  8
0
  6
Continuous
 62
     7
370
     0
100
AcDbLine
 10
60.2769875065
 20
198.5013740214
 30
0.0
 11
46.0536568084
 21
198.5013740214
 31
0.0
  0
LINE
  5
1BF
330
1AF
100
AcDbEntity
  8
0
  6
Continuous
 62
     7
370
     0
100
AcDbLine
 10
59.2769875065
 20
211.0013740214
 30
0.0
 11
46.0536568084
 21
211.0013740214
 31
0.0
  0
LINE
  5
1C0
330
1AF
100
AcDbEntity
  8
0
  6
Continuous
 62
     7
370
     0
100
AcDbLine
 10
47.0536568084
 20
198.5013740214
 30
0.0
 11
47.0536568084
 21
193.5013740214
 31
0.0
  0
LINE
  5
1C1
330
1AF
100
AcDbEntity
  8
0
  6
Continuous
 62
     7
370
     0
100
AcDbLine
 10
47.0536568084
 20
198.5013740214
 30
0.0
 11
47.0536568084
 21
211.0013740214
 31
0.0
  0
LINE
  5
1C2
330
1AF
100
AcDbEntity
  8
0
  6
Continuous
 62
     7
370
     0
100
AcDbLine
 10
47.0536568084
 20
211.0013740214
 30
0.0
 11
47.0536568084
 21
216.0013740214
 31
0.0
  0
MTEXT
  5
1C3
330
1AF
100
AcDbEntity
  8
0
  6
Continuous
 62
     7
370
     0
100
AcDbMText
 10
42.9809297685
 20
200.6781652131
 30
0.0
 40
3.5
 41
0.0
 71
     1
 72
     1
  1
12.5
  7
SLDTEXTSTYLE0
 11
6.123031769111886E-17
 21
1.0
 31
0.0
 73
     1
 44
1.0
  0
ENDBLK
  5
1BB
330
1AF
100
AcDbEntity
  8
0
100
AcDbBlockEnd
  0
BLOCK
  5
1CF
330
1C5
100
AcDbEntity
  8
0
100
AcDbBlockBegin
  2
*D18
 70
     1
 71
     0
 10
0.0
 20
0.0
 30
0.0
  3
*D18
  1

  0
INSERT
  5
1D1
330
1C5
100
AcDbEntity
  8
0
  6
Continuous
 62
     7
370
     0
100
AcDbBlockReference
  2
_Open30
 10
111.2769875065
 20
174.996539101
 30
0.04
 41
3.0
 42
3.0
 50
180.0
  0
INSERT
  5
1D2
330
1C5
100
AcDbEntity
  8
0
  6
Continuous
 62
     7
370
     0
100
AcDbBlockReference
  2
_Open30
 10
143.2769875065
 20
174.996539101
 30
0.04
 41
3.0
 42
3.0
 50
0.0
  0
LINE
  5
1D3
330
1C5
100
AcDbEntity
  8
0
  6
Continuous
 62
     7
370
     0
100
AcDbLine
 10
111.2769875065
 20
197.0013740214
 30
0.0
 11
111.2769875065
 21
173.996539101
 31
0.0
  0
LINE
  5
1D4
330
1C5
100
AcDbEntity
  8
0
  6
Continuous
 62
     7
370
     0
100
AcDbLine
 10
143.2769875065
 20
186.5013740214
 30
0.0
 11
143.2769875065
 21
173.996539101
 31
0.0
  0
LINE
  5
1D5
330
1C5
100
AcDbEntity
  8
0
  6
Continuous
 62
     7
370
     0
100
AcDbLine
 10
111.2769875065
 20
174.996539101
 30
0.0
 11
143.2769875065
 21
174.996539101
 31
0.0
  0
MTEXT
  5
1D6
330
1C5
100
AcDbEntity
  8
0
  6
Continuous
 62
     7
370
     0
100
AcDbMText
 10
125.241167921
 20
179.0692661409
 30
0.0
 40
3.5
 41
0.0
 71
     1
 72
     1
  1
32
  7
SLDTEXTSTYLE0
 73
     1
 44
1.0
  0
ENDBLK
  5
1D0
330
1C5
100
AcDbEntity
  8
0
100
AcDbBlockEnd
  0
BLOCK
  5
1E0
330
1D8
100
AcDbEntity
  8
0
100
AcDbBlockBegin
  2
*D19
 70
     1
 71
     0
 10
0.0
 20
0.0
 30
0.0
  3
*D19
  1

  0
INSERT
  5
1E4
330
1D8
100
AcDbEntity
  8
0
  6
Continuous
 62
     7
370
     0
100
AcDbBlockReference
  2
_Open30
 10
61.9964118061
 20
201.4884504978
 30
0.04
 41
3.0
 42
3.0
 50
293.2050732261
  0
LINE
  5
1E5
330
1D8
100
AcDbEntity
  8
0
  6
Continuous
 62
     7
370
     0
100
AcDbLine
 10
61.9964118061
 20
201.4884504978
 30
0.0
 11
58.2184162376
 21
210.3010194753
 31
0.0
  0
LINE
  5
1E6
330
1D8
100
AcDbEntity
  8
0
  6
Continuous
 62
     7
370
     0
100
AcDbLine
 10
57.6179247399
 20
211.7017285676
 30
0.0
 11
54.125024076
 21
219.8492839242
 31
0.0
  0
LINE
  5
1E7
330
1D8
100
AcDbEntity
  8
0
  6
Continuous
 62
     7
370
     0
100
AcDbLine
 10
54.125024076
 20
219.8492839242
 30
0.0
 11
43.2534956823
 21
219.8492839242
 31
0.0
  0
MTEXT
  5
1E8
330
1D8
100
AcDbEntity
  8
0
  6
Continuous
 62
     7
370
     0
100
AcDbMText
 10
44.8409956823
 20
223.9220109641
 30
0.0
 40
3.5
 41
0.0
 71
     1
 72
     1
  1
2-R
  7
SLDTEXTSTYLE0
 73
     1
 44
1.0
  0
ENDBLK
  5
1E1
330
1D8
100
AcDbEntity
  8
0
100
AcDbBlockEnd
  0
BLOCK
  5
1EA
330
1E9
100
AcDbEntity
  8
0
100
AcDbBlockBegin
  2
SW_CHAMFER_DIMENSION_0
 70
     0
 71
     0
 10
0.0
 20
0.0
 30
0.0
  3
SW_CHAMFER_DIMENSION_0
  1

  0
INSERT
  5
1EC
330
1E9
100
AcDbEntity
  8
0
  6
Continuous
 62
     7
370
     0
100
AcDbBlockReference
  2
_Open30
 10
10.7710891352
 20
12.7352936625
 30
0.04
 41
3.0
 42
3.0
 50
49.7689846002
  0
LINE
  5
1ED
330
1E9
100
AcDbEntity
  8
0
  6
Continuous
 62
     7
370
     0
100
AcDbLine
 10
10.7710891352
 20
12.7352936625
 30
0.0
 11
-1.027004252
 21
-1.2105447189
 31
0.0
  0
LINE
  5
1EE
330
1E9
100
AcDbEntity
  8
0
  6
Continuous
 62
     7
370
     0
100
AcDbLine
 10
-1.027004252
 20
-1.2105447189
 30
0.0
 11
6.2931179057
 21
7.4177913727
 31
0.0
  0
MTEXT
  5
1EF
330
1E9
100
AcDbEntity
  8
0
  6
Continuous
 62
     7
370
     0
100
AcDbMText
 10
-3.1056498298
 20
2.63477638
 30
0.0
 40
3.5
 41
0.0
 71
     1
 72
     1
  1
2-
  7
SLDTEXTSTYLE0
 11
0.646931700454785
 21
0.7625479492770801
 31
0.0
 73
     1
 44
1.0
  0
MTEXT
  5
1F0
330
1E9
100
AcDbEntity
  8
0
  6
Continuous
 62
     7
370
     0
100
AcDbMText
 10
-0.4715773773
 20
5.7395964801
 30
0.0
 40
3.5
 41
0.0
 71
     1
 72
     1
  1
C
  7
SLDTEXTSTYLE0
 11
0.646931700454785
 21
0.7625479492770801
 31
0.0
 73
     1
 44
1.0
  0
MTEXT
  5
1F1
330
1E9
100
AcDbEntity
  8
0
  6
Continuous
 62
     7
370
     0
100
AcDbMText
 10
0.8444434009
 20
7.2908096064
 30
0.0
 40
3.5
 41
0.0
 71
     1
 72
     1
  1
3
  7
SLDTEXTSTYLE0
 11
0.646931700454785
 21
0.7625479492770801
 31
0.0
 73
     1
 44
1.0
  0
ENDBLK
  5
1EB
330
1E9
100
AcDbEntity
  8
0
100
AcDbBlockEnd
  0
BLOCK
  5
1F4
330
1F3
100
AcDbEntity
  8
0
100
AcDbBlockBegin
  2
SW_CHAMFER_DIMENSION_1
 70
     0
 71
     0
 10
0.0
 20
0.0
 30
0.0
  3
SW_CHAMFER_DIMENSION_1
  1

  0
INSERT
  5
1F6
330
1F3
100
AcDbEntity
  8
0
  6
Continuous
 62
     7
370
     0
100
AcDbBlockReference
  2
_Open30
 10
-4.0564601399
 20
2.8461565371
 30
0.04
 41
3.0
 42
3.0
 50
144.7675835927
  0
LINE
  5
1F7
330
1F3
100
AcDbEntity
  8
0
  6
Continuous
 62
     7
370
     0
100
AcDbLine
 10
-4.0564601399
 20
2.8461565371
 30
0.0
 11
-1.3054977198
 21
0.9032341632
 31
0.0
  0
LINE
  5
1F8
330
1F3
100
AcDbEntity
  8
0
  6
Continuous
 62
     7
370
     0
100
AcDbLine
 10
-1.3054977198
 20
0.9032341632
 30
0.0
 11
11.3505679556
 21
-7.8531099755
 31
0.0
  0
MTEXT
  5
1F9
330
1F3
100
AcDbEntity
  8
0
  6
Continuous
 62
     7
370
     0
100
AcDbMText
 10
2.3172444916
 20
3.3492514692
 30
0.0
 40
3.5
 41
0.0
 71
     1
 72
     1
  1
2-
  7
SLDTEXTSTYLE0
 11
0.8223608518178207
 21
-0.5689662814240123
 31
0.0
 73
     1
 44
1.0
  0
MTEXT
  5
1FA
330
1F3
100
AcDbEntity
  8
0
  6
Continuous
 62
     7
370
     0
100
AcDbMText
 10
5.6656011486
 20
1.0326260708
 30
0.0
 40
3.5
 41
0.0
 71
     1
 72
     1
  1
C
  7
SLDTEXTSTYLE0
 11
0.8223608518178207
 21
-0.5689662814240123
 31
0.0
 73
     1
 44
1.0
  0
MTEXT
  5
1FB
330
1F3
100
AcDbEntity
  8
0
  6
Continuous
 62
     7
370
     0
100
AcDbMText
 10
7.3384886688
 20
-0.1247935577
 30
0.0
 40
3.5
 41
0.0
 71
     1
 72
     1
  1
1.5
  7
SLDTEXTSTYLE0
 11
0.8223608518178207
 21
-0.5689662814240123
 31
0.0
 73
     1
 44
1.0
  0
ENDBLK
  5
1F5
330
1F3
100
AcDbEntity
  8
0
100
AcDbBlockEnd
  0
BLOCK
  5
201
330
200
100
AcDbEntity
  8
0
100
AcDbBlockBegin
  2
SW_CENTERMARKSYMBOL_1
 70
     0
 71
     0
 10
0.0
 20
0.0
 30
0.0
  3
SW_CENTERMARKSYMBOL_1
  1

  0
LINE
  5
203
330
200
100
AcDbEntity
  8
0
  6
Continuous
 62
     7
370
     0
100
AcDbLine
 10
0.0
 20
0.0
 30
0.0
 11
0.0
 21
2.5
 31
0.0
  0
LINE
  5
204
330
200
100
AcDbEntity
  8
0
  6
Continuous
 62
     7
370
     0
100
AcDbLine
 10
0.0
 20
0.0
 30
0.0
 11
-2.5
 21
0.0
 31
0.0
  0
LINE
  5
205
330
200
100
AcDbEntity
  8
0
  6
Continuous
 62
     7
370
     0
100
AcDbLine
 10
0.0
 20
0.0
 30
0.0
 11
0.0
 21
-2.5
 31
0.0
  0
LINE
  5
206
330
200
100
AcDbEntity
  8
0
  6
Continuous
 62
     7
370
     0
100
AcDbLine
 10
0.0
 20
0.0
 30
0.0
 11
2.5
 21
0.0
 31
0.0
  0
LINE
  5
207
330
200
100
AcDbEntity
  8
0
  6
Continuous
 62
     7
370
     0
100
AcDbLine
 10
0.0
 20
5.0
 30
0.0
 11
0.0
 21
12.5
 31
0.0
  0
LINE
  5
208
330
200
100
AcDbEntity
  8
0
  6
Continuous
 62
     7
370
     0
100
AcDbLine
 10
-5.0
 20
0.0
 30
0.0
 11
-12.5
 21
0.0
 31
0.0
  0
LINE
  5
209
330
200
100
AcDbEntity
  8
0
  6
Continuous
 62
     7
370
     0
100
AcDbLine
 10
0.0
 20
-5.0
 30
0.0
 11
0.0
 21
-12.5
 31
0.0
  0
LINE
  5
20A
330
200
100
AcDbEntity
  8
0
  6
Continuous
 62
     7
370
     0
100
AcDbLine
 10
5.0
 20
0.0
 30
0.0
 11
12.5
 21
0.0
 31
0.0
  0
ENDBLK
  5
202
330
200
100
AcDbEntity
  8
0
100
AcDbBlockEnd
  0
BLOCK
  5
20D
330
20C
100
AcDbEntity
  8
0
100
AcDbBlockBegin
  2
SW_CENTERMARKSYMBOL_2
 70
     0
 71
     0
 10
0.0
 20
0.0
 30
0.0
  3
SW_CENTERMARKSYMBOL_2
  1

  0
LINE
  5
20F
330
20C
100
AcDbEntity
  8
0
  6
Continuous
 62
     7
370
     0
100
AcDbLine
 10
0.0
 20
0.0
 30
0.0
 11
0.0
 21
2.5
 31
0.0
  0
LINE
  5
210
330
20C
100
AcDbEntity
  8
0
  6
Continuous
 62
     7
370
     0
100
AcDbLine
 10
0.0
 20
0.0
 30
0.0
 11
-2.5
 21
0.0
 31
0.0
  0
LINE
  5
211
330
20C
100
AcDbEntity
  8
0
  6
Continuous
 62
     7
370
     0
100
AcDbLine
 10
0.0
 20
0.0
 30
0.0
 11
0.0
 21
-2.5
 31
0.0
  0
LINE
  5
212
330
20C
100
AcDbEntity
  8
0
  6
Continuous
 62
     7
370
     0
100
AcDbLine
 10
0.0
 20
0.0
 30
0.0
 11
2.5
 21
0.0
 31
0.0
  0
LINE
  5
213
330
20C
100
AcDbEntity
  8
0
  6
Continuous
 62
     7
370
     0
100
AcDbLine
 10
0.0
 20
5.0
 30
0.0
 11
0.0
 21
5.75
 31
0.0
  0
LINE
  5
214
330
20C
100
AcDbEntity
  8
0
  6
Continuous
 62
     7
370
     0
100
AcDbLine
 10
-5.0
 20
0.0
 30
0.0
 11
-5.75
 21
0.0
 31
0.0
  0
LINE
  5
215
330
20C
100
AcDbEntity
  8
0
  6
Continuous
 62
     7
370
     0
100
AcDbLine
 10
0.0
 20
-5.0
 30
0.0
 11
0.0
 21
-5.75
 31
0.0
  0
LINE
  5
216
330
20C
100
AcDbEntity
  8
0
  6
Continuous
 62
     7
370
     0
100
AcDbLine
 10
5.0
 20
0.0
 30
0.0
 11
5.75
 21
0.0
 31
0.0
  0
ENDBLK
  5
20E
330
20C
100
AcDbEntity
  8
0
100
AcDbBlockEnd
  0
BLOCK
  5
219
330
218
100
AcDbEntity
  8
0
100
AcDbBlockBegin
  2
SW_CENTERMARKSYMBOL_3
 70
     0
 71
     0
 10
0.0
 20
0.0
 30
0.0
  3
SW_CENTERMARKSYMBOL_3
  1

  0
LINE
  5
21B
330
218
100
AcDbEntity
  8
0
  6
Continuous
 62
     7
370
     0
100
AcDbLine
 10
0.0
 20
0.0
 30
0.0
 11
0.0
 21
2.5
 31
0.0
  0
LINE
  5
21C
330
218
100
AcDbEntity
  8
0
  6
Continuous
 62
     7
370
     0
100
AcDbLine
 10
0.0
 20
0.0
 30
0.0
 11
-2.5
 21
0.0
 31
0.0
  0
LINE
  5
21D
330
218
100
AcDbEntity
  8
0
  6
Continuous
 62
     7
370
     0
100
AcDbLine
 10
0.0
 20
0.0
 30
0.0
 11
0.0
 21
-2.5
 31
0.0
  0
LINE
  5
21E
330
218
100
AcDbEntity
  8
0
  6
Continuous
 62
     7
370
     0
100
AcDbLine
 10
0.0
 20
0.0
 30
0.0
 11
2.5
 21
0.0
 31
0.0
  0
LINE
  5
21F
330
218
100
AcDbEntity
  8
0
  6
Continuous
 62
     7
370
     0
100
AcDbLine
 10
0.0
 20
5.0
 30
0.0
 11
0.0
 21
5.75
 31
0.0
  0
LINE
  5
220
330
218
100
AcDbEntity
  8
0
  6
Continuous
 62
     7
370
     0
100
AcDbLine
 10
-5.0
 20
0.0
 30
0.0
 11
-5.75
 21
0.0
 31
0.0
  0
LINE
  5
221
330
218
100
AcDbEntity
  8
0
  6
Continuous
 62
     7
370
     0
100
AcDbLine
 10
0.0
 20
-5.0
 30
0.0
 11
0.0
 21
-5.75
 31
0.0
  0
LINE
  5
222
330
218
100
AcDbEntity
  8
0
  6
Continuous
 62
     7
370
     0
100
AcDbLine
 10
5.0
 20
0.0
 30
0.0
 11
5.75
 21
0.0
 31
0.0
  0
ENDBLK
  5
21A
330
218
100
AcDbEntity
  8
0
100
AcDbBlockEnd
  0
ENDSEC
  0
SECTION
  2
ENTITIES
  0
LINE
  5
2F
330
1F
100
AcDbEntity
  8
0
  6
Continuous
 62
     7
370
     0
100
AcDbLine
 10
20.2604743903
 20
285.0
 30
0.0
 11
196.7604743903
 21
285.0
 31
0.0
  0
LINE
  5
30
330
1F
100
AcDbEntity
  8
0
  6
Continuous
 62
     7
370
     0
100
AcDbLine
 10
20.2604743903
 20
285.0
 30
0.0
 11
20.2604743903
 21
10.0
 31
0.0
  0
LINE
  5
31
330
1F
100
AcDbEntity
  8
0
  6
Continuous
 62
     7
370
     0
100
AcDbLine
 10
20.2604743903
 20
10.0
 30
0.0
 11
196.7604743903
 21
10.0
 31
0.0
  0
LINE
  5
32
330
1F
100
AcDbEntity
  8
0
  6
Continuous
 62
     7
370
     0
100
AcDbLine
 10
196.7604743903
 20
285.0
 30
0.0
 11
196.7604743903
 21
10.0
 31
0.0
  0
LINE
  5
33
330
1F
100
AcDbEntity
  8
0
  6
Continuous
 62
     7
370
     0
100
AcDbLine
 10
127.0104743903
 20
50.75
 30
0.0
 11
196.7604743903
 21
50.75
 31
0.0
  0
LINE
  5
34
330
1F
100
AcDbEntity
  8
0
  6
Continuous
 62
     7
370
     0
100
AcDbLine
 10
127.0104743903
 20
50.75
 30
0.0
 11
127.0104743903
 21
10.0
 31
0.0
  0
LINE
  5
35
330
1F
100
AcDbEntity
  8
0
  6
Continuous
 62
     7
370
     0
100
AcDbLine
 10
127.0104743903
 20
22.75
 30
0.0
 11
196.7604743903
 21
22.75
 31
0.0
  0
LINE
  5
36
330
1F
100
AcDbEntity
  8
0
  6
Continuous
 62
     7
370
     0
100
AcDbLine
 10
127.0104743903
 20
36.75
 30
0.0
 11
196.7604743903
 21
36.75
 31
0.0
  0
MTEXT
  5
38
330
1F
100
AcDbEntity
  8
0
  6
Continuous
 62
     7
370
     0
100
AcDbMText
 10
147.3956149537
 20
29.8861654089
 30
0.0
 40
4.2333333333
 41
0.0
 71
     1
 72
     1
  1
N01863-114-1
  7
SLDTEXTSTYLE0
 73
     1
 44
1.0
  0
MTEXT
  5
3A
330
1F
100
AcDbEntity
  8
0
  6
Continuous
 62
     7
370
     0
100
AcDbMText
 10
136.0254889935
 20
43.4099790257
 30
0.0
 40
4.2333333333
 41
0.0
 71
     1
 72
     1
  1
20 Slide40-φ20 BKT W
  7
SLDTEXTSTYLE1
 73
     1
 44
1.0
  0
LINE
  5
3B
330
1F
100
AcDbEntity
  8
0
  6
Continuous
 62
     7
370
     0
100
AcDbLine
 10
109.2769875065
 20
129.3651109766
 30
0.0
 11
109.2769875065
 21
119.3651109766
 31
0.0
  0
LINE
  5
3C
330
1F
100
AcDbEntity
  8
0
  6
Continuous
 62
     7
370
     0
100
AcDbLine
 10
60.2769875065
 20
129.3651109766
 30
0.0
 11
109.2769875065
 21
129.3651109766
 31
0.0
  0
LINE
  5
3D
330
1F
100
AcDbEntity
  8
0
  6
Continuous
 62
     7
370
     0
100
AcDbLine
 10
60.2769875065
 20
135.3651109766
 30
0.0
 11
60.2769875065
 21
129.3651109766
 31
0.0
  0
LINE
  5
3E
330
1F
100
AcDbEntity
  8
0
  6
Continuous
 62
     7
370
     0
100
AcDbLine
 10
141.7769875065
 20
135.3651109766
 30
0.0
 11
60.2769875065
 21
135.3651109766
 31
0.0
  0
LINE
  5
3F
330
1F
100
AcDbEntity
  8
0
  6
Continuous
 62
     7
370
     0
100
AcDbLine
 10
141.7769875065
 20
119.3651109766
 30
0.0
 11
141.7769875065
 21
135.3651109766
 31
0.0
  0
LINE
  5
40
330
1F
100
AcDbEntity
  8
0
  6
Continuous
 62
     7
370
     0
100
AcDbLine
 10
109.2769875065
 20
119.3651109766
 30
0.0
 11
141.7769875065
 21
119.3651109766
 31
0.0
  0
CIRCLE
  5
41
330
1F
100
AcDbEntity
  8
0
  6
Continuous
 62
     7
370
     0
100
AcDbCircle
 10
137.2769875065
 20
127.3651109766
 30
0.0
 40
3.999999999999986
  0
LINE
  5
42
330
1F
100
AcDbEntity
  8
0
  6
Continuous
 62
     7
370
     0
100
AcDbLine
 10
60.2769875065
 20
129.3651109766
 30
0.0
 11
57.2769875065
 21
129.3651109766
 31
0.0
  0
LINE
  5
43
330
1F
100
AcDbEntity
  8
0
  6
Continuous
 62
     7
370
     0
100
AcDbLine
 10
57.2769875065
 20
129.3651109766
 30
0.0
 11
57.2769875065
 21
135.3651109766
 31
0.0
  0
LINE
  5
44
330
1F
100
AcDbEntity
  8
0
  6
Continuous
 62
     7
370
     0
100
AcDbLine
 10
57.2769875065
 20
135.3651109766
 30
0.0
 11
60.2769875065
 21
135.3651109766
 31
0.0
  0
LINE
  5
45
330
1F
100
AcDbEntity
  8
0
  6
Continuous
 62
     7
370
     0
100
AcDbLine
 10
143.2769875065
 20
135.3651109766
 30
0.0
 11
143.2769875065
 21
119.3651109766
 31
0.0
  0
LINE
  5
46
330
1F
100
AcDbEntity
  8
0
  6
Continuous
 62
     7
370
     0
100
AcDbLine
 10
143.2769875065
 20
119.3651109766
 30
0.0
 11
141.7769875065
 21
119.3651109766
 31
0.0
  0
LINE
  5
47
330
1F
100
AcDbEntity
  8
0
  6
Continuous
 62
     7
370
     0
100
AcDbLine
 10
141.7769875065
 20
135.3651109766
 30
0.0
 11
143.2769875065
 21
135.3651109766
 31
0.0
  0
CIRCLE
  5
48
330
1F
100
AcDbEntity
  8
0
  6
Continuous
 62
     7
370
     0
100
AcDbCircle
 10
137.2769875065
 20
127.3651109766
 30
0.0
 40
2.250000000000014
  0
CIRCLE
  5
49
330
1F
100
AcDbEntity
  8
0
  6
Continuous
 62
     7
370
     0
100
AcDbCircle
 10
137.2769875065
 20
127.3651109766
 30
0.0
 40
1.649999999999992
  0
LINE
  5
4A
330
1F
100
AcDbEntity
  8
0
  6
HIDDEN
 62
     7
370
     0
100
AcDbLine
 10
103.2769875065
 20
129.3651109766
 30
0.0
 11
103.2769875065
 21
135.3651109766
 31
0.0
  0
LINE
  5
4B
330
1F
100
AcDbEntity
  8
0
  6
HIDDEN
 62
     7
370
     0
100
AcDbLine
 10
103.2769875065
 20
129.3651109766
 30
0.0
 11
103.2769875065
 21
135.3651109766
 31
0.0
  0
LINE
  5
4C
330
1F
100
AcDbEntity
  8
0
  6
HIDDEN
 62
     7
370
     0
100
AcDbLine
 10
63.2769875065
 20
129.3651109766
 30
0.0
 11
63.2769875065
 21
135.3651109766
 31
0.0
  0
LINE
  5
4D
330
1F
100
AcDbEntity
  8
0
  6
HIDDEN
 62
     7
370
     0
100
AcDbLine
 10
63.2769875065
 20
129.3651109766
 30
0.0
 11
63.2769875065
 21
135.3651109766
 31
0.0
  0
LINE
  5
4E
330
1F
100
AcDbEntity
  8
0
  6
HIDDEN
 62
     7
370
     0
100
AcDbLine
 10
133.2644796842
 20
119.3651109766
 30
0.0
 11
133.2644796842
 21
135.3651109766
 31
0.0
  0
LINE
  5
4F
330
1F
100
AcDbEntity
  8
0
  6
HIDDEN
 62
     7
370
     0
100
AcDbLine
 10
113.2894953287
 20
119.3651109766
 30
0.0
 11
113.2894953287
 21
135.3651109766
 31
0.0
  0
LINE
  5
50
330
1F
100
AcDbEntity
  8
0
  6
HIDDEN
 62
     7
370
     0
100
AcDbLine
 10
111.2769875065
 20
119.3651109766
 30
0.0
 11
111.2769875065
 21
135.3651109766
 31
0.0
  0
LINE
  5
51
330
1F
100
AcDbEntity
  8
0
  6
HIDDEN
 62
     7
370
     0
100
AcDbLine
 10
106.5269875065
 20
129.3651109766
 30
0.0
 11
106.5269875065
 21
135.3651109766
 31
0.0
  0
LINE
  5
52
330
1F
100
AcDbEntity
  8
0
  6
HIDDEN
 62
     7
370
     0
100
AcDbLine
 10
60.0269875065
 20
135.3651109766
 30
0.0
 11
60.0269875065
 21
129.3651109766
 31
0.0
  0
DIMENSION
  5
53
330
1F
100
AcDbEntity
  8
0
  6
Continuous
 62
     7
370
     0
100
AcDbDimension
  2
*D1
 10
143.2769875065
 20
111.7153535093
 30
0.0
 11
140.2769875065
 21
111.7153535093
 31
0.0
 70
   160
 71
     1
 42
6.0
  3
SLDDIMSTYLE0
100
AcDbAlignedDimension
 13
137.2769875065
 23
127.3651109766
 33
0.0
 14
143.2769875065
 24
119.3651109766
 34
0.0
100
AcDbRotatedDimension
1001
ACAD
1000
DSTYLE
1002
{
1070
    77
1070
     3
1070
   143
1040
0.0393700787
1070
    41
1040
3.0
1070
    44
1040
1.0
1070
    42
1040
1.0
1070
   147
1040
1.524
1070
    73
1070
     0
1070
    74
1070
     0
1070
   140
1040
3.5
1070
   284
1070
    12
1070
    78
1070
    12
1002
}
  0
DIMENSION
  5
72
330
1F
100
AcDbEntity
  8
0
  6
Continuous
 62
     7
370
     0
100
AcDbDimension
  2
*D3
 10
143.2769875065
 20
104.0259887268
 30
0.0
 11
126.2769875065
 21
104.0259887268
 31
0.0
 70
   160
 71
     1
 42
34.0
  3
SLDDIMSTYLE0
100
AcDbAlignedDimension
 13
109.2769875065
 23
119.3651109766
 33
0.0
 14
143.2769875065
 24
119.3651109766
 34
0.0
100
AcDbRotatedDimension
1001
ACAD
1000
DSTYLE
1002
{
1070
    77
1070
     3
1070
   143
1040
0.0393700787
1070
    41
1040
3.0
1070
    44
1040
1.0
1070
    42
1040
1.0
1070
   147
1040
1.524
1070
    73
1070
     0
1070
    74
1070
     0
1070
   140
1040
3.5
1070
   284
1070
    12
1070
    78
1070
    12
1002
}
  0
DIMENSION
  5
85
330
1F
100
AcDbEntity
  8
0
  6
Continuous
 62
     7
370
     0
100
AcDbDimension
  2
*D4
 10
168.6673178851
 20
119.3651109766
 30
0.0
 11
168.6673178851
 21
127.3651109766
 31
0.0
 70
   160
 71
     1
 42
16.0
  3
SLDDIMSTYLE0
100
AcDbAlignedDimension
 13
143.2769875065
 23
135.3651109766
 33
0.0
 14
143.2769875065
 24
119.3651109766
 34
0.0
 50
90.0
100
AcDbRotatedDimension
1001
ACAD
1000
DSTYLE
1002
{
1070
    77
1070
     3
1070
   143
1040
0.0393700787
1070
    41
1040
3.0
1070
    44
1040
1.0
1070
    42
1040
1.0
1070
   147
1040
1.524
1070
    73
1070
     0
1070
    74
1070
     0
1070
   140
1040
3.5
1070
   284
1070
    12
1070
    78
1070
    12
1002
}
  0
DIMENSION
  5
99
330
1F
100
AcDbEntity
  8
0
  6
Continuous
 62
     7
370
     0
100
AcDbDimension
  2
*D5
 10
143.2769875065
 20
149.5060985701
 30
0.0
 11
100.2769875065
 21
149.5060985701
 31
0.0
 70
   160
 71
     1
 42
86.0
  3
SLDDIMSTYLE0
100
AcDbAlignedDimension
 13
57.2769875065
 23
135.3651109766
 33
0.0
 14
143.2769875065
 24
135.3651109766
 34
0.0
100
AcDbRotatedDimension
1001
ACAD
1000
DSTYLE
1002
{
1070
    77
1070
     3
1070
   143
1040
0.0393700787
1070
    41
1040
3.0
1070
    44
1040
1.0
1070
    42
1040
1.0
1070
   147
1040
1.524
1070
    73
1070
     0
1070
    74
1070
     0
1070
   140
1040
3.5
1070
   284
1070
    12
1070
    78
1070
    12
1002
}
  0
DIMENSION
  5
AC
330
1F
100
AcDbEntity
  8
0
  6
Continuous
 62
     7
370
     0
100
AcDbDimension
  2
*D6
 10
157.6221419506
 20
127.3651109766
 30
0.0
 11
157.6221419506
 21
131.3651109766
 31
0.0
 70
   160
 71
     1
 42
8.0
  3
SLDDIMSTYLE1
100
AcDbAlignedDimension
 13
143.2769875065
 23
135.3651109766
 33
0.0
 14
143.7769875065
 24
127.3651109766
 34
0.0
 50
90.0
100
AcDbRotatedDimension
1001
ACAD
1000
DSTYLE
1002
{
1070
    77
1070
     3
1070
   143
1040
0.0393700787
1070
    41
1040
3.0
1070
    44
1040
1.0
1070
    42
1040
1.0
1070
   147
1040
1.524
1070
    73
1070
     0
1070
    74
1070
     0
1070
   140
1040
3.5
1070
   284
1070
    12
1070
    78
1070
    12
1002
}
  0
DIMENSION
  5
C4
330
1F
100
AcDbEntity
  8
0
  6
Continuous
 62
     7
370
     0
100
AcDbDimension
  2
*D7
 10
44.9344751889
 20
129.3651109766
 30
0.0
 11
44.9344751889
 21
132.3651109766
 31
0.0
 70
   160
 71
     1
 42
6.0
  3
SLDDIMSTYLE0
100
AcDbAlignedDimension
 13
57.2769875065
 23
135.3651109766
 33
0.0
 14
57.2769875065
 24
129.3651109766
 34
0.0
 50
90.0
100
AcDbRotatedDimension
1001
ACAD
1000
DSTYLE
1002
{
1070
    77
1070
     3
1070
   143
1040
0.0393700787
1070
    41
1040
3.0
1070
    44
1040
1.0
1070
    42
1040
1.0
1070
   147
1040
1.524
1070
    73
1070
     0
1070
    74
1070
     0
1070
   140
1040
3.5
1070
   284
1070
    12
1070
    78
1070
    12
1002
}
  0
INSERT
  5
E6
330
1F
100
AcDbEntity
  8
0
  6
Continuous
 62
     7
370
     0
100
AcDbBlockReference
  2
SW_CENTERMARKSYMBOL_0
 10
137.2769875065
 20
127.3651109766
 30
0.0
  0
CIRCLE
  5
E7
330
1F
100
AcDbEntity
  8
0
  6
Continuous
 62
     7
370
     0
100
AcDbCircle
 10
137.2769875065
 20
127.3651109766
 30
0.0
 40
2.0
  0
LINE
  5
E8
330
1F
100
AcDbEntity
  8
0
  6
CENTERX2
 62
     7
370
     0
100
AcDbLine
 10
103.2769875065
 20
127.3651109766
 30
0.0
 11
103.2769875065
 21
137.3651109766
 31
0.0
  0
LINE
  5
E9
330
1F
100
AcDbEntity
  8
0
  6
CENTERX2
 62
     7
370
     0
100
AcDbLine
 10
63.2769875065
 20
127.3651109766
 30
0.0
 11
63.2769875065
 21
137.3651109766
 31
0.0
  0
LINE
  5
EA
330
1F
100
AcDbEntity
  8
0
  6
CENTERX2
 62
     7
370
     0
100
AcDbLine
 10
123.2769875065
 20
117.3651109766
 30
0.0
 11
123.2769875065
 21
137.3651109766
 31
0.0
  0
LINE
  5
EB
330
1F
100
AcDbEntity
  8
0
  6
Continuous
 62
     7
370
     0
100
AcDbLine
 10
143.2769875065
 20
199.0013740214
 30
0.0
 11
133.2644796842
 21
199.0013740214
 31
0.0
  0
ARC
  5
EC
330
1F
100
AcDbEntity
  8
0
  6
Continuous
 62
     7
370
     0
100
AcDbCircle
 10
123.2769875065
 20
198.5013740214
 30
0.0
 40
10.00000000000002
100
AcDbArc
 50
2.8659839826
 51
177.1340160174
  0
LINE
  5
ED
330
1F
100
AcDbEntity
  8
0
  6
Continuous
 62
     7
370
     0
100
AcDbLine
 10
113.2894953287
 20
199.0013740214
 30
0.0
 11
111.2769875065
 21
199.0013740214
 31
0.0
  0
LINE
  5
EE
330
1F
100
AcDbEntity
  8
0
  6
Continuous
 62
     7
370
     0
100
AcDbLine
 10
111.2769875065
 20
199.0013740214
 30
0.0
 11
111.2769875065
 21
198.0013740214
 31
0.0
  0
LINE
  5
EF
330
1F
100
AcDbEntity
  8
0
  6
Continuous
 62
     7
370
     0
100
AcDbLine
 10
111.2769875065
 20
198.0013740214
 30
0.0
 11
113.2894953287
 21
198.0013740214
 31
0.0
  0
ARC
  5
F0
330
1F
100
AcDbEntity
  8
0
  6
Continuous
 62
     7
370
     0
100
AcDbCircle
 10
123.2769875065
 20
198.5013740214
 30
0.0
 40
10.00000000000002
100
AcDbArc
 50
182.8659839826
 51
357.1340160174
  0
LINE
  5
F1
330
1F
100
AcDbEntity
  8
0
  6
Continuous
 62
     7
370
     0
100
AcDbLine
 10
133.2644796842
 20
198.0013740214
 30
0.0
 11
143.2769875065
 21
198.0013740214
 31
0.0
  0
LINE
  5
F2
330
1F
100
AcDbEntity
  8
0
  6
Continuous
 62
     7
370
     0
100
AcDbLine
 10
143.2769875065
 20
187.5013740214
 30
0.0
 11
143.2769875065
 21
198.0013740214
 31
0.0
  0
LINE
  5
F3
330
1F
100
AcDbEntity
  8
0
  6
Continuous
 62
     7
370
     0
100
AcDbLine
 10
141.7769875065
 20
186.0013740214
 30
0.0
 11
143.2769875065
 21
187.5013740214
 31
0.0
  0
LINE
  5
F4
330
1F
100
AcDbEntity
  8
0
  6
Continuous
 62
     7
370
     0
100
AcDbLine
 10
141.7769875065
 20
186.0013740214
 30
0.0
 11
60.2769875065
 21
186.0013740214
 31
0.0
  0
LINE
  5
F5
330
1F
100
AcDbEntity
  8
0
  6
Continuous
 62
     7
370
     0
100
AcDbLine
 10
57.2769875065
 20
189.0013740214
 30
0.0
 11
60.2769875065
 21
186.0013740214
 31
0.0
  0
LINE
  5
F6
330
1F
100
AcDbEntity
  8
0
  6
Continuous
 62
     7
370
     0
100
AcDbLine
 10
57.2769875065
 20
189.0013740214
 30
0.0
 11
57.2769875065
 21
208.0013740214
 31
0.0
  0
LINE
  5
F7
330
1F
100
AcDbEntity
  8
0
  6
Continuous
 62
     7
370
     0
100
AcDbLine
 10
143.2769875065
 20
209.5013740214
 30
0.0
 11
141.7769875065
 21
211.0013740214
 31
0.0
  0
LINE
  5
F8
330
1F
100
AcDbEntity
  8
0
  6
Continuous
 62
     7
370
     0
100
AcDbLine
 10
143.2769875065
 20
199.0013740214
 30
0.0
 11
143.2769875065
 21
209.5013740214
 31
0.0
  0
ARC
  5
F9
330
1F
100
AcDbEntity
  8
0
  6
Continuous
 62
     7
370
     0
100
AcDbCircle
 10
63.2769875065
 20
198.5013740214
 30
0.0
 40
3.250000000000028
100
AcDbArc
 50
90.0
 51
270.0
  0
LINE
  5
FA
330
1F
100
AcDbEntity
  8
0
  6
Continuous
 62
     7
370
     0
100
AcDbLine
 10
63.2769875065
 20
195.2513740214
 30
0.0
 11
103.2769875065
 21
195.2513740214
 31
0.0
  0
ARC
  5
FB
330
1F
100
AcDbEntity
  8
0
  6
Continuous
 62
     7
370
     0
100
AcDbCircle
 10
103.2769875065
 20
198.5013740214
 30
0.0
 40
3.250000000000028
100
AcDbArc
 50
270.0
 51
90.0
  0
LINE
  5
FC
330
1F
100
AcDbEntity
  8
0
  6
Continuous
 62
     7
370
     0
100
AcDbLine
 10
103.2769875065
 20
201.7513740214
 30
0.0
 11
63.2769875065
 21
201.7513740214
 31
0.0
  0
LINE
  5
FD
330
1F
100
AcDbEntity
  8
0
  6
Continuous
 62
     7
370
     0
100
AcDbLine
 10
141.7769875065
 20
211.0013740214
 30
0.0
 11
60.2769875065
 21
211.0013740214
 31
0.0
  0
LINE
  5
FE
330
1F
100
AcDbEntity
  8
0
  6
Continuous
 62
     7
370
     0
100
AcDbLine
 10
60.2769875065
 20
211.0013740214
 30
0.0
 11
57.2769875065
 21
208.0013740214
 31
0.0
  0
LINE
  5
FF
330
1F
100
AcDbEntity
  8
0
  6
HIDDEN
 62
     7
370
     0
100
AcDbLine
 10
137.2769875065
 20
190.0013740214
 30
0.0
 11
133.2769875065
 21
190.0013740214
 31
0.0
  0
LINE
  5
100
330
1F
100
AcDbEntity
  8
0
  6
HIDDEN
 62
     7
370
     0
100
AcDbLine
 10
141.2769875065
 20
190.0013740214
 30
0.0
 11
137.2769875065
 21
190.0013740214
 31
0.0
  0
LINE
  5
101
330
1F
100
AcDbEntity
  8
0
  6
HIDDEN
 62
     7
370
     0
100
AcDbLine
 10
109.2769875065
 20
186.0013740214
 30
0.0
 11
109.2769875065
 21
211.0013740214
 31
0.0
  0
LINE
  5
102
330
1F
100
AcDbEntity
  8
0
  6
HIDDEN
 62
     7
370
     0
100
AcDbLine
 10
141.2769875065
 20
186.0013740214
 30
0.0
 11
141.2769875065
 21
190.0013740214
 31
0.0
  0
LINE
  5
103
330
1F
100
AcDbEntity
  8
0
  6
HIDDEN
 62
     7
370
     0
100
AcDbLine
 10
133.2769875065
 20
190.0013740214
 30
0.0
 11
133.2769875065
 21
186.0013740214
 31
0.0
  0
LINE
  5
104
330
1F
100
AcDbEntity
  8
0
  6
HIDDEN
 62
     7
370
     0
100
AcDbLine
 10
139.5269875065
 20
190.0013740214
 30
0.0
 11
139.5269875065
 21
198.0013740214
 31
0.0
  0
LINE
  5
105
330
1F
100
AcDbEntity
  8
0
  6
HIDDEN
 62
     7
370
     0
100
AcDbLine
 10
135.0269875065
 20
198.0013740214
 30
0.0
 11
135.0269875065
 21
190.0013740214
 31
0.0
  0
LINE
  5
106
330
1F
100
AcDbEntity
  8
0
  6
HIDDEN
 62
     7
370
     0
100
AcDbLine
 10
138.9269875065
 20
199.0013740214
 30
0.0
 11
138.9269875065
 21
211.0013740214
 31
0.0
  0
LINE
  5
107
330
1F
100
AcDbEntity
  8
0
  6
HIDDEN
 62
     7
370
     0
100
AcDbLine
 10
135.6269875065
 20
211.0013740214
 30
0.0
 11
135.6269875065
 21
199.0013740214
 31
0.0
  0
DIMENSION
  5
108
330
1F
100
AcDbEntity
  8
0
  6
Continuous
 62
     7
370
     0
100
AcDbDimension
  2
*D9
 10
38.4214044248
 20
186.0013740214
 30
0.0
 11
38.4214044248
 21
198.5013740214
 31
0.0
 70
   160
 71
     1
 42
25.0
  3
SLDDIMSTYLE0
100
AcDbAlignedDimension
 13
57.2769875065
 23
211.0013740214
 33
0.0
 14
57.2769875065
 24
186.0013740214
 34
0.0
 50
90.0
100
AcDbRotatedDimension
1001
ACAD
1000
DSTYLE
1002
{
1070
    77
1070
     3
1070
   143
1040
0.0393700787
1070
    41
1040
3.0
1070
    44
1040
1.0
1070
    42
1040
1.0
1070
   147
1040
1.524
1070
    73
1070
     0
1070
    74
1070
     0
1070
   140
1040
3.5
1070
   284
1070
    12
1070
    78
1070
    12
1002
}
  0
DIMENSION
  5
11C
330
1F
100
AcDbEntity
  8
0
  6
Continuous
 62
     7
370
     0
100
AcDbDimension
  2
*D10
 10
143.2769875065
 20
230.4198008527
 30
0.0
 11
123.2769875065
 21
230.4198008527
 31
0.0
 70
   160
 71
     1
 42
40.0
  3
SLDDIMSTYLE1
100
AcDbAlignedDimension
 13
103.2769875065
 23
198.5013740214
 33
0.0
 14
143.2769875065
 24
211.0013740214
 34
0.0
100
AcDbRotatedDimension
1001
ACAD
1000
DSTYLE
1002
{
1070
    77
1070
     3
1070
   143
1040
0.0393700787
1070
    41
1040
3.0
1070
    44
1040
1.0
1070
    42
1040
1.0
1070
   147
1040
1.524
1070
    73
1070
     0
1070
    74
1070
     0
1070
   140
1040
3.5
1070
   284
1070
    12
1070
    78
1070
    12
1002
}
  0
DIMENSION
  5
12F
330
1F
100
AcDbEntity
  8
0
  6
Continuous
 62
     7
370
     0
100
AcDbDimension
  2
*D11
 10
63.2769875065
 20
230.4198008527
 30
0.0
 11
83.2769875065
 21
230.4198008527
 31
0.0
 70
   160
 71
     1
 42
40.0
  3
SLDDIMSTYLE0
100
AcDbAlignedDimension
 13
103.2769875065
 23
198.5013740214
 33
0.0
 14
63.2769875065
 24
198.5013740214
 34
0.0
100
AcDbRotatedDimension
1001
ACAD
1000
DSTYLE
1002
{
1070
    77
1070
     3
1070
   143
1040
0.0393700787
1070
    41
1040
3.0
1070
    44
1040
1.0
1070
    42
1040
1.0
1070
   147
1040
1.524
1070
    73
1070
     0
1070
    74
1070
     0
1070
   140
1040
3.5
1070
   284
1070
    12
1070
    78
1070
    12
1002
}
  0
DIMENSION
  5
142
330
1F
100
AcDbEntity
  8
0
  6
Continuous
 62
     7
370
     0
100
AcDbDimension
  2
*D12
 10
88.9110170694
 20
201.7513740214
 30
0.0
 11
88.9110170694
 21
179.1774503616
 31
0.0
 70
   160
 71
     1
 42
6.5
  3
SLDDIMSTYLE0
100
AcDbAlignedDimension
 13
103.2769875065
 23
195.2513740214
 33
0.0
 14
103.2769875065
 24
201.7513740214
 34
0.0
 50
90.0
100
AcDbRotatedDimension
1001
ACAD
1000
DSTYLE
1002
{
1070
    77
1070
     3
1070
   143
1040
0.0393700787
1070
    41
1040
3.0
1070
    44
1040
1.0
1070
    42
1040
1.0
1070
   147
1040
1.524
1070
    73
1070
     0
1070
    74
1070
     0
1070
   140
1040
3.5
1070
   284
1070
    12
1070
    78
1070
    12
1002
}
  0
DIMENSION
  5
157
330
1F
100
AcDbEntity
  8
0
  6
Continuous
 62
     7
370
     0
100
AcDbDimension
  2
*D13
 10
156.9760283532
 20
199.0013740214
 30
0.0
 11
156.9760283532
 21
192.0013740214
 31
0.0
 70
   160
 71
     1
 42
1.0
  3
SLDDIMSTYLE0
100
AcDbAlignedDimension
 13
143.2769875065
 23
198.0013740214
 33
0.0
 14
143.2769875065
 24
199.0013740214
 34
0.0
 50
90.0
100
AcDbRotatedDimension
1001
ACAD
1000
DSTYLE
1002
{
1070
    77
1070
     3
1070
   143
1040
0.0393700787
1070
    41
1040
3.0
1070
    44
1040
1.0
1070
    42
1040
1.0
1070
   147
1040
1.524
1070
    73
1070
     0
1070
    74
1070
     0
1070
   140
1040
3.5
1070
   284
1070
    12
1070
    78
1070
    12
1002
}
  0
DIMENSION
  5
16E
330
1F
100
AcDbEntity
  8
0
  6
Continuous
 62
     7
370
     0
100
AcDbDimension
  2
*D14
 10
143.2769875065
 20
221.8851035097
 30
0.0
 11
133.2769875065
 21
221.8851035097
 31
0.0
 70
   160
 71
     1
 42
20.0
  3
SLDDIMSTYLE0
100
AcDbAlignedDimension
 13
123.2769875065
 23
198.5013740214
 33
0.0
 14
143.2769875065
 24
211.0013740214
 34
0.0
100
AcDbRotatedDimension
1001
ACAD
1000
DSTYLE
1002
{
1070
    77
1070
     3
1070
   143
1040
0.0393700787
1070
    41
1040
3.0
1070
    44
1040
1.0
1070
    42
1040
1.0
1070
   147
1040
1.524
1070
    73
1070
     0
1070
    74
1070
     0
1070
   140
1040
3.5
1070
   284
1070
    12
1070
    78
1070
    12
1002
}
  0
DIMENSION
  5
181
330
1F
100
AcDbEntity
  8
0
  6
Continuous
 62
     7
370
     0
100
AcDbDimension
  2
*D15
 10
127.6821990255
 20
189.5239517036
 30
0.0
 11
153.7420830344
 21
212.86524973
 31
0.0
 70
   163
  1
<>　　
 71
     1
 42
20.0
  3
SLDDIMSTYLE2
100
AcDbDiametricDimension
 15
118.8717759874
 25
207.4787963393
 35
0.0
 40
0.0
1001
ACAD
1000
DSTYLE
1002
{
1070
    77
1070
     0
1070
   143
1040
0.0393700787
1070
    41
1040
3.0
1070
    44
1040
1.0
1070
    42
1040
1.0
1070
   147
1040
1.524
1070
    73
1070
     1
1070
    74
1070
     1
1070
   140
1040
3.5
1070
   284
1070
     8
1070
    78
1070
    12
1002
}
  0
DIMENSION
  5
198
330
1F
100
AcDbEntity
  8
0
  6
Continuous
 62
     7
370
     0
100
AcDbDimension
  2
*D16
 10
164.6468629414
 20
198.5013740214
 30
0.0
 11
164.6468629414
 21
204.7513740214
 31
0.0
 70
   160
 71
     1
 42
12.5
  3
SLDDIMSTYLE0
100
AcDbAlignedDimension
 13
141.7769875065
 23
211.0013740214
 33
0.0
 14
135.7769875065
 24
198.5013740214
 34
0.0
 50
90.0
100
AcDbRotatedDimension
1001
ACAD
1000
DSTYLE
1002
{
1070
    77
1070
     3
1070
   143
1040
0.0393700787
1070
    41
1040
3.0
1070
    44
1040
1.0
1070
    42
1040
1.0
1070
   147
1040
1.524
1070
    73
1070
     0
1070
    74
1070
     0
1070
   140
1040
3.5
1070
   284
1070
    12
1070
    78
1070
    12
1002
}
  0
DIMENSION
  5
1AE
330
1F
100
AcDbEntity
  8
0
  6
Continuous
 62
     7
370
     0
100
AcDbDimension
  2
*D17
 10
47.0536568084
 20
211.0013740214
 30
0.0
 11
47.0536568084
 21
204.7513740214
 31
0.0
 70
   160
 71
     1
 42
12.5
  3
SLDDIMSTYLE0
100
AcDbAlignedDimension
 13
61.2769875065
 23
198.5013740214
 33
0.0
 14
60.2769875065
 24
211.0013740214
 34
0.0
 50
90.0
100
AcDbRotatedDimension
1001
ACAD
1000
DSTYLE
1002
{
1070
    77
1070
     3
1070
   143
1040
0.0393700787
1070
    41
1040
3.0
1070
    44
1040
1.0
1070
    42
1040
1.0
1070
   147
1040
1.524
1070
    73
1070
     0
1070
    74
1070
     0
1070
   140
1040
3.5
1070
   284
1070
    12
1070
    78
1070
    12
1002
}
  0
DIMENSION
  5
1C4
330
1F
100
AcDbEntity
  8
0
  6
Continuous
 62
     7
370
     0
100
AcDbDimension
  2
*D18
 10
143.2769875065
 20
174.996539101
 30
0.0
 11
127.2769875065
 21
174.996539101
 31
0.0
 70
   160
 71
     1
 42
32.0
  3
SLDDIMSTYLE0
100
AcDbAlignedDimension
 13
111.2769875065
 23
198.0013740214
 33
0.0
 14
143.2769875065
 24
187.5013740214
 34
0.0
100
AcDbRotatedDimension
1001
ACAD
1000
DSTYLE
1002
{
1070
    77
1070
     3
1070
   143
1040
0.0393700787
1070
    41
1040
3.0
1070
    44
1040
1.0
1070
    42
1040
1.0
1070
   147
1040
1.524
1070
    73
1070
     0
1070
    74
1070
     0
1070
   140
1040
3.5
1070
   284
1070
    12
1070
    78
1070
    12
1002
}
  0
DIMENSION
  5
1D7
330
1F
100
AcDbEntity
  8
0
  6
Continuous
 62
     7
370
     0
100
AcDbDimension
  2
*D19
 10
63.2769875065
 20
198.5013740214
 30
0.0
 11
47.8955098792
 21
221.8851035097
 31
0.0
 70
   164
  1
2-R
 71
     1
 42
3.25
  3
SLDDIMSTYLE3
100
AcDbRadialDimension
 15
61.9964118061
 25
201.4884504978
 35
0.0
 40
0.0
1001
ACAD
1000
DSTYLE
1002
{
1070
    77
1070
     0
1070
   143
1040
0.0393700787
1070
    41
1040
3.0
1070
    44
1040
1.0
1070
    42
1040
1.0
1070
   147
1040
1.524
1070
    73
1070
     1
1070
    74
1070
     1
1070
   140
1040
3.5
1070
   284
1070
    12
1070
    78
1070
    12
1002
}
  0
INSERT
  5
1F2
330
1F
100
AcDbEntity
  8
0
  6
Continuous
 62
     7
370
     0
100
AcDbBlockReference
  2
SW_CHAMFER_DIMENSION_0
 10
48.0058983712
 20
174.7660803589
 30
0.0
  0
INSERT
  5
1FC
330
1F
100
AcDbEntity
  8
0
  6
Continuous
 62
     7
370
     0
100
AcDbBlockReference
  2
SW_CHAMFER_DIMENSION_1
 10
146.5834476464
 20
183.9052174843
 30
0.0
  0
MTEXT
  5
1FD
330
1F
100
AcDbEntity
  8
0
  6
Continuous
 62
     7
370
     0
100
AcDbMText
 10
149.4659203806
 20
224.8404386694
 30
7.94
 40
3.5
 41
0.0
 71
     1
 72
     1
  1
M4
  7
SLDTEXTSTYLE0
 73
     1
 44
1.0
  0
LEADER
  5
1FF
330
1F
100
AcDbEntity
  8
0
  6
Continuous
 62
     7
370
     0
100
AcDbLeader
  3
SLDDIMSTYLE4
 76
     3
 10
137.241028051
 20
211.0013740214
 30
0.0
 10
148.9631159585
 20
220.7661015544
 30
0.0
 10
153.5378944041
 20
220.7661015544
 30
0.0
  0
INSERT
  5
20B
330
1F
100
AcDbEntity
  8
0
  6
Continuous
 62
     7
370
     0
100
AcDbBlockReference
  2
SW_CENTERMARKSYMBOL_1
 10
123.2769875065
 20
198.5013740214
 30
0.0
  0
INSERT
  5
217
330
1F
100
AcDbEntity
  8
0
  6
Continuous
 62
     7
370
     0
100
AcDbBlockReference
  2
SW_CENTERMARKSYMBOL_2
 10
103.2769875065
 20
198.5013740214
 30
0.0
  0
INSERT
  5
223
330
1F
100
AcDbEntity
  8
0
  6
Continuous
 62
     7
370
     0
100
AcDbBlockReference
  2
SW_CENTERMARKSYMBOL_3
 10
63.2769875065
 20
198.5013740214
 30
0.0
  0
LINE
  5
224
330
1F
100
AcDbEntity
  8
0
  6
HIDDEN
 62
     7
370
     0
100
AcDbLine
 10
135.2769875065
 20
211.0013740214
 30
0.0
 11
135.2769875065
 21
199.0013740214
 31
0.0
  0
LINE
  5
225
330
1F
100
AcDbEntity
  8
0
  6
HIDDEN
 62
     7
370
     0
100
AcDbLine
 10
139.2769875065
 20
199.0013740214
 30
0.0
 11
139.2769875065
 21
211.0013740214
 31
0.0
  0
LINE
  5
226
330
1F
100
AcDbEntity
  8
0
  6
CENTERX2
 62
     7
370
     0
100
AcDbLine
 10
105.2769875065
 20
198.5013740214
 30
0.0
 11
61.2769875065
 21
198.5013740214
 31
0.0
  0
LINE
  5
227
330
1F
100
AcDbEntity
  8
0
  6
CENTERX2
 62
     7
370
     0
100
AcDbLine
 10
137.2769875065
 20
184.1801316922
 30
0.0
 11
137.2769875065
 21
212.0010977049
 31
0.0
  0
ENDSEC
  0
SECTION
  2
OBJECTS
  0
DICTIONARY
  5
C
330
0
100
AcDbDictionary
281
     1
  3
ACAD_GROUP
350
D
  3
ACAD_LAYOUT
350
1A
  3
ACAD_MLINESTYLE
350
17
  3
ACAD_PLOTSETTINGS
350
19
  3
ACAD_PLOTSTYLENAME
350
E
  0
DICTIONARY
  5
D
102
{ACAD_REACTORS
330
C
102
}
330
C
100
AcDbDictionary
281
     1
  0
DICTIONARY
  5
1A
102
{ACAD_REACTORS
330
C
102
}
330
C
100
AcDbDictionary
281
     1
  3
Layout1
350
1E
  3
Layout2
350
26
  3
Model
350
22
  0
DICTIONARY
  5
17
102
{ACAD_REACTORS
330
C
102
}
330
C
100
AcDbDictionary
281
     1
  3
Standard
350
18
  0
DICTIONARY
  5
19
102
{ACAD_REACTORS
330
C
102
}
330
C
100
AcDbDictionary
281
     1
  0
ACDBDICTIONARYWDFLT
  5
E
102
{ACAD_REACTORS
330
C
102
}
330
C
100
AcDbDictionary
281
     1
  3
Normal
350
F
100
AcDbDictionaryWithDefault
340
F
  0
LAYOUT
  5
1E
102
{ACAD_REACTORS
330
1A
102
}
330
1A
100
AcDbPlotSettings
  1

  2

  4

  6

 40
0.0
 41
0.0
 42
0.0
 43
0.0
 44
0.0
 45
0.0
 46
0.0
 47
0.0
 48
0.0
 49
0.0
140
0.0
141
0.0
142
1.0
143
1.0
 70
   688
 72
     0
 73
     0
 74
     5
  7

 75
    16
147
1.0
148
0.0
149
0.0
100
AcDbLayout
  1
Layout1
 70
     1
 71
     1
 10
0.0
 20
0.0
 11
0.0
 21
0.0
 12
0.0
 22
0.0
 32
0.0
 14
0.0
 24
0.0
 34
0.0
 15
0.0
 25
0.0
 35
0.0
146
0.0
 13
0.0
 23
0.0
 33
0.0
 16
1.0
 26
0.0
 36
0.0
 17
0.0
 27
1.0
 37
0.0
 76
     0
330
1B
  0
LAYOUT
  5
26
102
{ACAD_REACTORS
330
1A
102
}
330
1A
100
AcDbPlotSettings
  1

  2

  4

  6

 40
0.0
 41
0.0
 42
0.0
 43
0.0
 44
0.0
 45
0.0
 46
0.0
 47
0.0
 48
0.0
 49
0.0
140
0.0
141
0.0
142
1.0
143
1.0
 70
   688
 72
     0
 73
     0
 74
     5
  7

 75
    16
147
1.0
148
0.0
149
0.0
100
AcDbLayout
  1
Layout2
 70
     1
 71
     2
 10
0.0
 20
0.0
 11
0.0
 21
0.0
 12
0.0
 22
0.0
 32
0.0
 14
0.0
 24
0.0
 34
0.0
 15
0.0
 25
0.0
 35
0.0
146
0.0
 13
0.0
 23
0.0
 33
0.0
 16
1.0
 26
0.0
 36
0.0
 17
0.0
 27
1.0
 37
0.0
 76
     0
330
23
  0
LAYOUT
  5
22
102
{ACAD_REACTORS
330
1A
102
}
330
1A
100
AcDbPlotSettings
  1

  2

  4

  6

 40
0.0
 41
0.0
 42
0.0
 43
0.0
 44
0.0
 45
0.0
 46
0.0
 47
0.0
 48
0.0
 49
0.0
140
0.0
141
0.0
142
1.0
143
1.0
 70
  1712
 72
     0
 73
     0
 74
     0
  7

 75
     0
147
1.0
148
0.0
149
0.0
100
AcDbLayout
  1
Model
 70
     1
 71
     0
 10
0.0
 20
0.0
 11
0.0
 21
0.0
 12
0.0
 22
0.0
 32
0.0
 14
0.0
 24
0.0
 34
0.0
 15
210.0
 25
297.0
 35
0.0
146
0.0
 13
0.0
 23
0.0
 33
0.0
 16
1.0
 26
0.0
 36
0.0
 17
0.0
 27
1.0
 37
0.0
 76
     0
330
1F
  0
MLINESTYLE
  5
18
102
{ACAD_REACTORS
330
17
102
}
330
17
100
AcDbMlineStyle
  2
Standard
 70
     0
  3

 62
   256
 51
90.0
 52
90.0
 71
     2
 49
0.5
 62
   256
  6
BYLAYER
 49
-0.5
 62
   256
  6
BYLAYER
  0
ACDBPLACEHOLDER
  5
F
102
{ACAD_REACTORS
330
E
102
}
330
E
  0
ENDSEC
  0
EOF
