  0
SECTION
  2
HEADER
  9
$ACADVER
  1
AC1015
  9
$ACADMAINTVER
 70
     6
  9
$DWGCODEPAGE
  3
DOS932
  9
$INSBASE
 10
0.0
 20
0.0
 30
0.0
  9
$EXTMIN
 10
0.0
 20
0.0
 30
0.0
  9
$EXTMAX
 10
210.0
 20
297.0
 30
0.0
  9
$LIMMIN
 10
0.0
 20
0.0
  9
$LIMMAX
 10
0.0
 20
0.0
  9
$ORTHOMODE
 70
     0
  9
$REGENMODE
 70
     1
  9
$FILLMODE
 70
     1
  9
$QTEXTMODE
 70
     0
  9
$MIRRTEXT
 70
     1
  9
$LTSCALE
 40
1.0
  9
$ATTMODE
 70
     1
  9
$TEXTSIZE
 40
3.5
  9
$TRACEWID
 40
1.0
  9
$TEXTSTYLE
  7
Standard
  9
$CLAYER
  8
0
  9
$CELTYPE
  6
ByLayer
  9
$CECOLOR
 62
   256
  9
$CELTSCALE
 40
1.0
  9
$DISPSILH
 70
     0
  9
$DIMSCALE
 40
1.0
  9
$DIMASZ
 40
3.0
  9
$DIMEXO
 40
1.0
  9
$DIMDLI
 40
3.75
  9
$DIMRND
 40
0.0
  9
$DIMDLE
 40
0.0
  9
$DIMEXE
 40
1.0
  9
$DIMTP
 40
0.0
  9
$DIMTM
 40
0.0
  9
$DIMTXT
 40
3.5
  9
$DIMCEN
 40
2.5
  9
$DIMTSZ
 40
0.0
  9
$DIMTOL
 70
     0
  9
$DIMLIM
 70
     0
  9
$DIMTIH
 70
     1
  9
$DIMTOH
 70
     1
  9
$DIMSE1
 70
     0
  9
$DIMSE2
 70
     0
  9
$DIMTAD
 70
     1
  9
$DIMZIN
 70
     1
  9
$DIMBLK
  1

  9
$DIMASO
 70
     1
  9
$DIMSHO
 70
     1
  9
$DIMPOST
  1

  9
$DIMAPOST
  1

  9
$DIMALT
 70
     0
  9
$DIMALTD
 70
     3
  9
$DIMALTF
 40
0.0393700787
  9
$DIMLFAC
 40
1.0
  9
$DIMTOFL
 70
     1
  9
$DIMTVP
 40
0.0
  9
$DIMTIX
 70
     0
  9
$DIMSOXD
 70
     0
  9
$DIMSAH
 70
     0
  9
$DIMBLK1
  1

  9
$DIMBLK2
  1

  9
$DIMSTYLE
  2
ISO-25
  9
$DIMCLRD
 70
     0
  9
$DIMCLRE
 70
     0
  9
$DIMCLRT
 70
     0
  9
$DIMTFAC
 40
1.0
  9
$DIMGAP
 40
1.524
  9
$DIMJUST
 70
     0
  9
$DIMSD1
 70
     0
  9
$DIMSD2
 70
     0
  9
$DIMTOLJ
 70
     0
  9
$DIMTZIN
 70
     1
  9
$DIMALTZ
 70
     0
  9
$DIMALTTZ
 70
     0
  9
$DIMUPT
 70
     0
  9
$DIMDEC
 70
     2
  9
$DIMTDEC
 70
     2
  9
$DIMALTU
 70
     2
  9
$DIMALTTD
 70
     3
  9
$DIMTXSTY
  7
Standard
  9
$DIMAUNIT
 70
     0
  9
$DIMADEC
 70
     0
  9
$DIMALTRND
 40
0.0
  9
$DIMAZIN
 70
     0
  9
$DIMDSEP
 70
    44
  9
$DIMATFIT
 70
     3
  9
$DIMFRAC
 70
     0
  9
$DIMLDRBLK
  1

  9
$DIMLUNIT
 70
     2
  9
$DIMLWD
 70
    -2
  9
$DIMLWE
 70
    -2
  9
$DIMTMOVE
 70
     0
  9
$LUNITS
 70
     2
  9
$LUPREC
 70
     1
  9
$SKETCHINC
 40
1.0
  9
$FILLETRAD
 40
10.0
  9
$AUNITS
 70
     0
  9
$AUPREC
 70
     0
  9
$MENU
  1
.
  9
$ELEVATION
 40
0.0
  9
$PELEVATION
 40
0.0
  9
$THICKNESS
 40
0.0
  9
$LIMCHECK
 70
     0
  9
$CHAMFERA
 40
10.0
  9
$CHAMFERB
 40
10.0
  9
$CHAMFERC
 40
20.0
  9
$CHAMFERD
 40
0.0
  9
$SKPOLY
 70
     0
  9
$TDCREATE
 40
2454359.557709954
  9
$TDUCREATE
 40
2454359.182709954
  9
$TDUPDATE
 40
2454359.557709965
  9
$TDUUPDATE
 40
2454359.182709965
  9
$TDINDWG
 40
0.0000000116
  9
$TDUSRTIMER
 40
0.0000000116
  9
$USRTIMER
 70
     1
  9
$ANGBASE
 50
0.0
  9
$ANGDIR
 70
     0
  9
$PDMODE
 70
     0
  9
$PDSIZE
 40
-1.0
  9
$PLINEWID
 40
0.0
  9
$SPLFRAME
 70
     0
  9
$SPLINETYPE
 70
     6
  9
$SPLINESEGS
 70
     8
  9
$HANDSEED
  5
19A
  9
$SURFTAB1
 70
     6
  9
$SURFTAB2
 70
     6
  9
$SURFTYPE
 70
     6
  9
$SURFU
 70
     6
  9
$SURFV
 70
     6
  9
$UCSBASE
  2

  9
$UCSNAME
  2

  9
$UCSORG
 10
0.0
 20
0.0
 30
0.0
  9
$UCSXDIR
 10
1.0
 20
0.0
 30
0.0
  9
$UCSYDIR
 10
0.0
 20
1.0
 30
0.0
  9
$UCSORTHOREF
  2

  9
$UCSORTHOVIEW
 70
     0
  9
$UCSORGTOP
 10
0.0
 20
0.0
 30
0.0
  9
$UCSORGBOTTOM
 10
0.0
 20
0.0
 30
0.0
  9
$UCSORGLEFT
 10
0.0
 20
0.0
 30
0.0
  9
$UCSORGRIGHT
 10
0.0
 20
0.0
 30
0.0
  9
$UCSORGFRONT
 10
0.0
 20
0.0
 30
0.0
  9
$UCSORGBACK
 10
0.0
 20
0.0
 30
0.0
  9
$PUCSBASE
  2

  9
$PUCSNAME
  2

  9
$PUCSORG
 10
0.0
 20
0.0
 30
0.0
  9
$PUCSXDIR
 10
1.0
 20
0.0
 30
0.0
  9
$PUCSYDIR
 10
0.0
 20
1.0
 30
0.0
  9
$PUCSORTHOREF
  2

  9
$PUCSORTHOVIEW
 70
     0
  9
$PUCSORGTOP
 10
0.0
 20
0.0
 30
0.0
  9
$PUCSORGBOTTOM
 10
0.0
 20
0.0
 30
0.0
  9
$PUCSORGLEFT
 10
0.0
 20
0.0
 30
0.0
  9
$PUCSORGRIGHT
 10
0.0
 20
0.0
 30
0.0
  9
$PUCSORGFRONT
 10
0.0
 20
0.0
 30
0.0
  9
$PUCSORGBACK
 10
0.0
 20
0.0
 30
0.0
  9
$USERI1
 70
     0
  9
$USERI2
 70
     0
  9
$USERI3
 70
     0
  9
$USERI4
 70
     0
  9
$USERI5
 70
     0
  9
$USERR1
 40
0.0
  9
$USERR2
 40
0.0
  9
$USERR3
 40
0.0
  9
$USERR4
 40
0.0
  9
$USERR5
 40
0.0
  9
$WORLDVIEW
 70
     1
  9
$SHADEDGE
 70
     3
  9
$SHADEDIF
 70
    70
  9
$TILEMODE
 70
     1
  9
$MAXACTVP
 70
    64
  9
$PINSBASE
 10
0.0
 20
0.0
 30
0.0
  9
$PLIMCHECK
 70
     0
  9
$PEXTMIN
 10
1.0000000000E+20
 20
1.0000000000E+20
 30
1.0000000000E+20
  9
$PEXTMAX
 10
-1.0000000000E+20
 20
-1.0000000000E+20
 30
-1.0000000000E+20
  9
$PLIMMIN
 10
0.0
 20
0.0
  9
$PLIMMAX
 10
420.0
 20
297.0
  9
$UNITMODE
 70
     0
  9
$VISRETAIN
 70
     1
  9
$PLINEGEN
 70
     0
  9
$PSLTSCALE
 70
     1
  9
$TREEDEPTH
 70
  3020
  9
$CMLSTYLE
  2
Standard
  9
$CMLJUST
 70
     0
  9
$CMLSCALE
 40
20.0
  9
$PROXYGRAPHICS
 70
     1
  9
$MEASUREMENT
 70
     1
  9
$CELWEIGHT
370
    -1
  9
$ENDCAPS
280
     0
  9
$JOINSTYLE
280
     0
  9
$LWDISPLAY
290
     1
  9
$INSUNITS
 70
     4
  9
$HYPERLINKBASE
  1

  9
$STYLESHEET
  1

  9
$XEDIT
290
     1
  9
$CEPSNTYPE
380
     0
  9
$PSTYLEMODE
290
     1
  9
$FINGERPRINTGUID
  2
{814E447E-EF15-45DF-A957-EDB9FF4498A0}
  9
$VERSIONGUID
  2
{FAEB1C32-E019-11D5-929B-00C0DF256EC4}
  9
$EXTNAMES
290
     1
  9
$PSVPSCALE
 40
0.0
  9
$OLESTARTUP
290
     0
  0
ENDSEC
  0
SECTION
  2
CLASSES
  0
CLASS
  1
ACDBDICTIONARYWDFLT
  2
AcDbDictionaryWithDefault
  3
ObjectDBX Classes
 90
        0
280
     0
281
     0
  0
CLASS
  1
ACDBPLACEHOLDER
  2
AcDbPlaceHolder
  3
ObjectDBX Classes
 90
        0
280
     0
281
     0
  0
CLASS
  1
LAYOUT
  2
AcDbLayout
  3
ObjectDBX Classes
 90
        0
280
     0
281
     0
  0
ENDSEC
  0
SECTION
  2
TABLES
  0
TABLE
  2
VPORT
  5
8
330
0
100
AcDbSymbolTable
 70
     1
  0
VPORT
  5
29
330
8
100
AcDbSymbolTableRecord
100
AcDbViewportTableRecord
  2
*Active
 70
     0
 10
0.0
 20
0.0
 11
1.0
 21
1.0
 12
105.0
 22
148.5
 13
0.0
 23
0.0
 14
10.0
 24
10.0
 15
10.0
 25
10.0
 16
0.0
 26
0.0
 36
1.0
 17
0.0
 27
0.0
 37
0.0
 40
297.0
 41
1.9729729729
 42
50.0
 43
0.0
 44
0.0
 50
0.0
 51
0.0
 71
     0
 72
  2000
 73
     1
 74
     3
 75
     0
 76
     0
 77
     0
 78
     0
281
     0
 65
     1
110
0.0
120
0.0
130
0.0
111
1.0
121
0.0
131
0.0
112
0.0
122
1.0
132
0.0
 79
     0
146
0.0
  0
ENDTAB
  0
TABLE
  2
LTYPE
  5
5
330
0
100
AcDbSymbolTable
 70
     6
  0
LTYPE
  5
14
330
5
100
AcDbSymbolTableRecord
100
AcDbLinetypeTableRecord
  2
ByBlock
 70
     0
  3

 72
    65
 73
     0
 40
0.0
  0
LTYPE
  5
15
330
5
100
AcDbSymbolTableRecord
100
AcDbLinetypeTableRecord
  2
ByLayer
 70
     0
  3

 72
    65
 73
     0
 40
0.0
  0
LTYPE
  5
16
330
5
100
AcDbSymbolTableRecord
100
AcDbLinetypeTableRecord
  2
Continuous
 70
     0
  3
Solid line
 72
    65
 73
     0
 40
0.0
  0
LTYPE
  5
2A
330
5
100
AcDbSymbolTableRecord
100
AcDbLinetypeTableRecord
  2
HIDDEN
 70
     0
  3
Hidden __ __ __ __ __ __ __ __ __ __ __ __ __ __
 72
    65
 73
     2
 40
1.905
 49
1.27
 74
     0
 49
-0.635
 74
     0
  0
LTYPE
  5
2B
330
5
100
AcDbSymbolTableRecord
100
AcDbLinetypeTableRecord
  2
PHANTOM
 70
     0
  3
Phantom ______  __  __  ______  __  __  ______
 72
    65
 73
     6
 40
12.7
 49
6.35
 74
     0
 49
-1.27
 74
     0
 49
1.27
 74
     0
 49
-1.27
 74
     0
 49
1.27
 74
     0
 49
-1.27
 74
     0
  0
LTYPE
  5
2C
330
5
100
AcDbSymbolTableRecord
100
AcDbLinetypeTableRecord
  2
CENTER
 70
     0
  3
Center ____ _ ____ _ ____ _ ____ _ ____ _ ____
 72
    65
 73
     4
 40
10.16
 49
6.35
 74
     0
 49
-1.27
 74
     0
 49
1.27
 74
     0
 49
-1.27
 74
     0
  0
LTYPE
  5
2D
330
5
100
AcDbSymbolTableRecord
100
AcDbLinetypeTableRecord
  2
CENTERX2
 70
     0
  3
Center (2x) ________  __  ________  __  _____
 72
    65
 73
     4
 40
20.32
 49
12.7
 74
     0
 49
-2.54
 74
     0
 49
2.54
 74
     0
 49
-2.54
 74
     0
  0
LTYPE
  5
2E
330
5
100
AcDbSymbolTableRecord
100
AcDbLinetypeTableRecord
  2
DOT2
 70
     0
  3
Dot (.5x) ........................................
 72
    65
 73
     2
 40
0.635
 49
0.0
 74
     0
 49
-0.635
 74
     0
  0
ENDTAB
  0
TABLE
  2
LAYER
  5
2
330
0
100
AcDbSymbolTable
 70
     4
  0
LAYER
  5
10
330
2
100
AcDbSymbolTableRecord
100
AcDbLayerTableRecord
  2
0
 70
     0
 62
     7
  6
Continuous
370
    -3
390
F
  0
LAYER
  5
2F
330
2
100
AcDbSymbolTableRecord
100
AcDbLayerTableRecord
  2
SLD-0
 70
     0
 62
     7
  6
Continuous
370
     0
390
F
  0
LAYER
  5
30
330
2
100
AcDbSymbolTableRecord
100
AcDbLayerTableRecord
  2
SLD-DEFPOINTS
 70
     0
 62
     7
  6
Continuous
370
     0
390
F
  0
LAYER
  5
86
330
2
100
AcDbSymbolTableRecord
100
AcDbLayerTableRecord
  2
Defpoints
 70
     0
 62
     7
  6
Continuous
290
     0
370
    -3
390
F
  0
ENDTAB
  0
TABLE
  2
STYLE
  5
3
330
0
100
AcDbSymbolTable
 70
     4
  0
STYLE
  5
11
330
3
100
AcDbSymbolTableRecord
100
AcDbTextStyleTableRecord
  2
Standard
 70
     0
 40
0.0
 41
1.0
 50
0.0
 71
     0
 42
2.5
  3
txt
  4
bigfont
  0
STYLE
  5
34
330
3
100
AcDbSymbolTableRecord
100
AcDbTextStyleTableRecord
  2
SLDTEXTSTYLE0
 70
     0
 40
0.0
 41
0.7
 50
0.0
 71
     0
 42
0.2
  3
TXT
  4
bigfont
  0
STYLE
  5
93
330
3
100
AcDbSymbolTableRecord
100
AcDbTextStyleTableRecord
  2
SLDTEXTSTYLE1
 70
     0
 40
0.0
 41
0.75
 50
0.0
 71
     0
 42
0.2
  3
TXT
  4
bigfont
  0
STYLE
  5
A1
330
3
100
AcDbSymbolTableRecord
100
AcDbTextStyleTableRecord
  2
SLDTEXTSTYLE2
 70
     0
 40
0.0
 41
0.96
 50
0.0
 71
     0
 42
0.2
  3
TXT
  4
bigfont
  0
ENDTAB
  0
TABLE
  2
VIEW
  5
6
330
0
100
AcDbSymbolTable
 70
     0
  0
ENDTAB
  0
TABLE
  2
UCS
  5
7
330
0
100
AcDbSymbolTable
 70
     0
  0
ENDTAB
  0
TABLE
  2
APPID
  5
9
330
0
100
AcDbSymbolTable
 70
     1
  0
APPID
  5
12
330
9
100
AcDbSymbolTableRecord
100
AcDbRegAppTableRecord
  2
ACAD
 70
     0
  0
ENDTAB
  0
TABLE
  2
DIMSTYLE
  5
A
330
0
100
AcDbSymbolTable
 70
     5
100
AcDbDimStyleTable
  0
DIMSTYLE
105
27
330
A
100
AcDbSymbolTableRecord
100
AcDbDimStyleTableRecord
  2
ISO-25
 70
     0
 41
2.5
 42
0.625
 43
3.75
 44
1.25
 73
     0
 74
     0
 77
     1
 78
     8
140
2.5
141
2.5
143
0.0393700787
147
0.625
171
     3
172
     1
271
     2
272
     2
274
     3
278
    44
283
     0
284
     8
340
11
  0
DIMSTYLE
105
94
102
{ACAD_REACTORS
330
85
330
A3
330
108
330
12F
330
159
330
171
102
}
330
A
100
AcDbSymbolTableRecord
100
AcDbDimStyleTableRecord
  2
SLDDIMSTYLE0
 70
     0
 41
3.0
 44
0.0
 73
     0
 74
     0
 77
     3
 78
    12
140
3.5
147
0.875
173
     1
271
     0
272
     2
284
    12
340
93
341
95
343
95
344
95
  0
DIMSTYLE
105
C9
102
{ACAD_REACTORS
330
BA
330
D4
330
EE
102
}
330
A
100
AcDbSymbolTableRecord
100
AcDbDimStyleTableRecord
  2
SLDDIMSTYLE1
 70
     0
 41
3.0
 44
0.0
 73
     0
 74
     0
 77
     3
 78
    12
140
3.5
147
0.875
173
     1
271
     1
272
     2
284
    12
340
93
341
95
343
95
344
95
  0
DIMSTYLE
105
129
102
{ACAD_REACTORS
330
11F
102
}
330
A
100
AcDbSymbolTableRecord
100
AcDbDimStyleTableRecord
  2
SLDDIMSTYLE2
 70
     0
 41
3.0
 44
0.0
 78
    12
140
3.5
147
0.875
173
     1
271
     0
272
     2
284
    12
340
93
341
95
343
95
344
95
  0
DIMSTYLE
105
150
102
{ACAD_REACTORS
330
146
102
}
330
A
100
AcDbSymbolTableRecord
100
AcDbDimStyleTableRecord
  2
SLDDIMSTYLE3
 70
     0
 41
3.0
 44
0.0
 78
    12
140
3.5
147
0.875
172
     1
173
     1
271
     0
272
     2
284
    12
340
93
341
95
343
95
344
95
  0
ENDTAB
  0
TABLE
  2
BLOCK_RECORD
  5
1
330
0
100
AcDbSymbolTable
 70
    19
  0
BLOCK_RECORD
  5
1F
330
1
100
AcDbSymbolTableRecord
100
AcDbBlockTableRecord
  2
*Model_Space
340
22
  0
BLOCK_RECORD
  5
1B
330
1
100
AcDbSymbolTableRecord
100
AcDbBlockTableRecord
  2
*Paper_Space
340
1E
  0
BLOCK_RECORD
  5
23
330
1
100
AcDbSymbolTableRecord
100
AcDbBlockTableRecord
  2
*Paper_Space0
340
26
  0
BLOCK_RECORD
  5
31
330
1
100
AcDbSymbolTableRecord
100
AcDbBlockTableRecord
  2
注記
340
0
  0
BLOCK_RECORD
  5
37
330
1
100
AcDbSymbolTableRecord
100
AcDbBlockTableRecord
  2
_OPEN30
340
0
102
{BLKREFS
331
196
102
}
  0
BLOCK_RECORD
  5
3D
330
1
100
AcDbSymbolTableRecord
100
AcDbBlockTableRecord
  2
SW_CENTERMARK0
340
0
102
{BLKREFS
331
197
102
}
  0
BLOCK_RECORD
  5
44
330
1
100
AcDbSymbolTableRecord
100
AcDbBlockTableRecord
  2
SW_CENTERMARK1
340
0
102
{BLKREFS
331
198
102
}
  0
BLOCK_RECORD
  5
4B
330
1
100
AcDbSymbolTableRecord
100
AcDbBlockTableRecord
  2
SW_CENTERMARK2
340
0
102
{BLKREFS
331
199
102
}
  0
BLOCK_RECORD
  5
87
330
1
100
AcDbSymbolTableRecord
100
AcDbBlockTableRecord
  2
*D6
340
0
  0
BLOCK_RECORD
  5
95
330
1
100
AcDbSymbolTableRecord
100
AcDbBlockTableRecord
  2
_None
340
0
102
{BLKREFS
331
8C
331
8B
331
A9
331
A8
331
C1
331
C0
331
DA
331
D9
331
F4
331
F3
331
10E
331
10D
331
124
331
135
331
134
331
14B
331
15F
331
15E
331
177
331
176
102
}
  0
BLOCK_RECORD
  5
A4
330
1
100
AcDbSymbolTableRecord
100
AcDbBlockTableRecord
  2
*D8
340
0
  0
BLOCK_RECORD
  5
BB
330
1
100
AcDbSymbolTableRecord
100
AcDbBlockTableRecord
  2
*D9
340
0
  0
BLOCK_RECORD
  5
D5
330
1
100
AcDbSymbolTableRecord
100
AcDbBlockTableRecord
  2
*D10
340
0
  0
BLOCK_RECORD
  5
EF
330
1
100
AcDbSymbolTableRecord
100
AcDbBlockTableRecord
  2
*D11
340
0
  0
BLOCK_RECORD
  5
109
330
1
100
AcDbSymbolTableRecord
100
AcDbBlockTableRecord
  2
*D12
340
0
  0
BLOCK_RECORD
  5
120
330
1
100
AcDbSymbolTableRecord
100
AcDbBlockTableRecord
  2
*D13
340
0
  0
BLOCK_RECORD
  5
130
330
1
100
AcDbSymbolTableRecord
100
AcDbBlockTableRecord
  2
*D14
340
0
  0
BLOCK_RECORD
  5
147
330
1
100
AcDbSymbolTableRecord
100
AcDbBlockTableRecord
  2
*D15
340
0
  0
BLOCK_RECORD
  5
15A
330
1
100
AcDbSymbolTableRecord
100
AcDbBlockTableRecord
  2
*D16
340
0
  0
BLOCK_RECORD
  5
172
330
1
100
AcDbSymbolTableRecord
100
AcDbBlockTableRecord
  2
*D17
340
0
  0
BLOCK_RECORD
  5
18F
330
1
100
AcDbSymbolTableRecord
100
AcDbBlockTableRecord
  2
SW_NOTE_0
340
0
102
{BLKREFS
331
194
102
}
  0
ENDTAB
  0
ENDSEC
  0
SECTION
  2
BLOCKS
  0
BLOCK
  5
20
330
1F
100
AcDbEntity
  8
0
100
AcDbBlockBegin
  2
*Model_Space
 70
     0
 71
     0
 10
0.0
 20
0.0
 30
0.0
  3
*Model_Space
  1

  0
ENDBLK
  5
21
330
1F
100
AcDbEntity
  8
0
100
AcDbBlockEnd
  0
BLOCK
  5
1C
330
1B
100
AcDbEntity
 67
     1
  8
0
100
AcDbBlockBegin
  2
*Paper_Space
 70
     0
 71
     0
 10
0.0
 20
0.0
 30
0.0
  3
*Paper_Space
  1

  0
ENDBLK
  5
1D
330
1B
100
AcDbEntity
 67
     1
  8
0
100
AcDbBlockEnd
  0
BLOCK
  5
24
330
23
100
AcDbEntity
  8
0
100
AcDbBlockBegin
  2
*Paper_Space0
 70
     0
 71
     0
 10
0.0
 20
0.0
 30
0.0
  3
*Paper_Space0
  1

  0
ENDBLK
  5
25
330
23
100
AcDbEntity
  8
0
100
AcDbBlockEnd
  0
BLOCK
  5
32
330
31
100
AcDbEntity
  8
0
100
AcDbBlockBegin
  2
注記
 70
     0
 71
     0
 10
0.0
 20
0.0
 30
0.0
  3
注記
  1

  0
MTEXT
  5
35
330
31
100
AcDbEntity
  8
0
  6
Continuous
 62
     7
370
     0
100
AcDbMText
 10
0.2636785918
 20
9.0739778448
 30
0.0
 40
3.5
 41
0.0
 71
     1
 72
     1
  1
１．特記ナキ角部ハ、バリ　カエリノ無キコト。
  7
SLDTEXTSTYLE0
 73
     1
 44
1.0
  0
MTEXT
  5
36
330
31
100
AcDbEntity
  8
0
  6
Continuous
 62
     7
370
     0
100
AcDbMText
 10
0.2636785918
 20
3.5759549983
 30
0.0
 40
3.5
 41
0.0
 71
     1
 72
     1
  1
２．特記ナキ隅部ハ、Ｒ０．４ＭＡＸトスル。
  7
SLDTEXTSTYLE0
 73
     1
 44
1.0
  0
ENDBLK
  5
33
330
31
100
AcDbEntity
  8
0
100
AcDbBlockEnd
  0
BLOCK
  5
38
330
37
100
AcDbEntity
  8
0
100
AcDbBlockBegin
  2
_OPEN30
 70
     0
 71
     0
 10
0.0
 20
0.0
 30
0.0
  3
_OPEN30
  1

  0
LINE
  5
3A
330
37
100
AcDbEntity
  8
SLD-0
  6
Continuous
100
AcDbLine
 10
-1.0
 20
0.267949
 30
0.0
 11
0.0
 21
0.0
 31
0.0
  0
LINE
  5
3B
330
37
100
AcDbEntity
  8
SLD-0
  6
Continuous
100
AcDbLine
 10
0.0
 20
0.0
 30
0.0
 11
-1.0
 21
-0.267949
 31
0.0
  0
LINE
  5
3C
330
37
100
AcDbEntity
  8
SLD-0
  6
Continuous
100
AcDbLine
 10
0.0
 20
0.0
 30
0.0
 11
-1.0
 21
0.0
 31
0.0
  0
ENDBLK
  5
39
330
37
100
AcDbEntity
  8
0
100
AcDbBlockEnd
  0
BLOCK
  5
3E
330
3D
100
AcDbEntity
  8
0
100
AcDbBlockBegin
  2
SW_CENTERMARK0
 70
     0
 71
     0
 10
0.0
 20
0.0
 30
0.0
  3
SW_CENTERMARK0
  1

  0
LINE
  5
40
330
3D
100
AcDbEntity
  8
SLD-0
  6
Continuous
 62
     7
100
AcDbLine
 10
90.4171628971
 20
168.7289253002
 30
0.0
 11
90.4171628971
 21
171.2289253002
 31
0.0
  0
LINE
  5
41
330
3D
100
AcDbEntity
  8
SLD-0
  6
Continuous
 62
     7
100
AcDbLine
 10
90.4171628971
 20
168.7289253002
 30
0.0
 11
87.9171628971
 21
168.7289253002
 31
0.0
  0
LINE
  5
42
330
3D
100
AcDbEntity
  8
SLD-0
  6
Continuous
 62
     7
100
AcDbLine
 10
90.4171628971
 20
168.7289253002
 30
0.0
 11
90.4171628971
 21
166.2289253002
 31
0.0
  0
LINE
  5
43
330
3D
100
AcDbEntity
  8
SLD-0
  6
Continuous
 62
     7
100
AcDbLine
 10
90.4171628971
 20
168.7289253002
 30
0.0
 11
92.9171628971
 21
168.7289253002
 31
0.0
  0
ENDBLK
  5
3F
330
3D
100
AcDbEntity
  8
0
100
AcDbBlockEnd
  0
BLOCK
  5
45
330
44
100
AcDbEntity
  8
0
100
AcDbBlockBegin
  2
SW_CENTERMARK1
 70
     0
 71
     0
 10
0.0
 20
0.0
 30
0.0
  3
SW_CENTERMARK1
  1

  0
LINE
  5
47
330
44
100
AcDbEntity
  8
SLD-0
  6
Continuous
 62
     7
100
AcDbLine
 10
160.4171628971
 20
168.7289253002
 30
0.0
 11
160.4171628971
 21
171.2289253002
 31
0.0
  0
LINE
  5
48
330
44
100
AcDbEntity
  8
SLD-0
  6
Continuous
 62
     7
100
AcDbLine
 10
160.4171628971
 20
168.7289253002
 30
0.0
 11
157.9171628971
 21
168.7289253002
 31
0.0
  0
LINE
  5
49
330
44
100
AcDbEntity
  8
SLD-0
  6
Continuous
 62
     7
100
AcDbLine
 10
160.4171628971
 20
168.7289253002
 30
0.0
 11
160.4171628971
 21
166.2289253002
 31
0.0
  0
LINE
  5
4A
330
44
100
AcDbEntity
  8
SLD-0
  6
Continuous
 62
     7
100
AcDbLine
 10
160.4171628971
 20
168.7289253002
 30
0.0
 11
162.9171628971
 21
168.7289253002
 31
0.0
  0
ENDBLK
  5
46
330
44
100
AcDbEntity
  8
0
100
AcDbBlockEnd
  0
BLOCK
  5
4C
330
4B
100
AcDbEntity
  8
0
100
AcDbBlockBegin
  2
SW_CENTERMARK2
 70
     0
 71
     0
 10
0.0
 20
0.0
 30
0.0
  3
SW_CENTERMARK2
  1

  0
LINE
  5
4E
330
4B
100
AcDbEntity
  8
SLD-0
  6
Continuous
 62
     7
100
AcDbLine
 10
71.4171628971
 20
168.7289253002
 30
0.0
 11
71.4171628971
 21
171.2289253002
 31
0.0
  0
LINE
  5
4F
330
4B
100
AcDbEntity
  8
SLD-0
  6
Continuous
 62
     7
100
AcDbLine
 10
71.4171628971
 20
168.7289253002
 30
0.0
 11
68.9171628971
 21
168.7289253002
 31
0.0
  0
LINE
  5
50
330
4B
100
AcDbEntity
  8
SLD-0
  6
Continuous
 62
     7
100
AcDbLine
 10
71.4171628971
 20
168.7289253002
 30
0.0
 11
71.4171628971
 21
166.2289253002
 31
0.0
  0
LINE
  5
51
330
4B
100
AcDbEntity
  8
SLD-0
  6
Continuous
 62
     7
100
AcDbLine
 10
71.4171628971
 20
168.7289253002
 30
0.0
 11
73.9171628971
 21
168.7289253002
 31
0.0
  0
LINE
  5
52
330
4B
100
AcDbEntity
  8
SLD-0
  6
Continuous
 62
     7
100
AcDbLine
 10
71.4171628971
 20
173.7289253002
 30
0.0
 11
71.4171628971
 21
178.7289253002
 31
0.0
  0
LINE
  5
53
330
4B
100
AcDbEntity
  8
SLD-0
  6
Continuous
 62
     7
100
AcDbLine
 10
66.4171628971
 20
168.7289253002
 30
0.0
 11
61.4171628971
 21
168.7289253002
 31
0.0
  0
LINE
  5
54
330
4B
100
AcDbEntity
  8
SLD-0
  6
Continuous
 62
     7
100
AcDbLine
 10
71.4171628971
 20
163.7289253002
 30
0.0
 11
71.4171628971
 21
158.7289253002
 31
0.0
  0
LINE
  5
55
330
4B
100
AcDbEntity
  8
SLD-0
  6
Continuous
 62
     7
100
AcDbLine
 10
76.4171628971
 20
168.7289253002
 30
0.0
 11
81.4171628971
 21
168.7289253002
 31
0.0
  0
ENDBLK
  5
4D
330
4B
100
AcDbEntity
  8
0
100
AcDbBlockEnd
  0
BLOCK
  5
91
330
87
100
AcDbEntity
  8
0
100
AcDbBlockBegin
  2
*D6
 70
     1
 71
     0
 10
0.0
 20
0.0
 30
0.0
  3
*D6
  1

  0
LINE
  5
98
330
87
100
AcDbEntity
  8
SLD-0
 62
     7
100
AcDbLine
 10
90.4171628971
 20
169.7289253002
 30
0.0
 11
90.4171628971
 21
199.0246044405
 31
0.0
  0
LINE
  5
99
330
87
100
AcDbEntity
  8
SLD-0
 62
     7
100
AcDbLine
 10
56.4171628971
 20
182.2289253002
 30
0.0
 11
56.4171628971
 21
199.0246044405
 31
0.0
  0
LINE
  5
9A
330
87
100
AcDbEntity
  8
SLD-0
 62
     7
100
AcDbLine
 10
90.4171628971
 20
198.0246044405
 30
0.0
 11
56.4171628971
 21
198.0246044405
 31
0.0
  0
LINE
  5
9B
330
87
100
AcDbEntity
  8
SLD-0
 62
     7
100
AcDbLine
 10
87.4171628971
 20
198.8284514405
 30
0.0
 11
90.4171628971
 21
198.0246044405
 31
0.0
  0
LINE
  5
9C
330
87
100
AcDbEntity
  8
SLD-0
 62
     7
100
AcDbLine
 10
90.4171628971
 20
198.0246044405
 30
0.0
 11
87.4171628971
 21
197.2207574405
 31
0.0
  0
LINE
  5
9D
330
87
100
AcDbEntity
  8
SLD-0
 62
     7
100
AcDbLine
 10
90.4171628971
 20
198.0246044405
 30
0.0
 11
87.4171628971
 21
198.0246044405
 31
0.0
  0
LINE
  5
9E
330
87
100
AcDbEntity
  8
SLD-0
 62
     7
100
AcDbLine
 10
59.4171628971
 20
197.2207574405
 30
0.0
 11
56.4171628971
 21
198.0246044405
 31
0.0
  0
LINE
  5
9F
330
87
100
AcDbEntity
  8
SLD-0
 62
     7
100
AcDbLine
 10
56.4171628971
 20
198.0246044405
 30
0.0
 11
59.4171628971
 21
198.8284514405
 31
0.0
  0
LINE
  5
A0
330
87
100
AcDbEntity
  8
SLD-0
 62
     7
100
AcDbLine
 10
56.4171628971
 20
198.0246044405
 30
0.0
 11
59.4171628971
 21
198.0246044405
 31
0.0
  0
MTEXT
  5
A2
330
87
100
AcDbEntity
  8
SLD-0
 62
     7
100
AcDbMText
 10
71.3807128375
 20
202.5512982528
 30
0.1
 40
3.5
 41
0.0
 71
     1
 72
     1
  1
34
  7
SLDTEXTSTYLE2
 73
     1
 44
1.0
  0
ENDBLK
  5
92
330
87
100
AcDbEntity
  8
0
100
AcDbBlockEnd
  0
BLOCK
  5
96
330
95
100
AcDbEntity
  8
0
100
AcDbBlockBegin
  2
_None
 70
     0
 71
     0
 10
0.0
 20
0.0
 30
0.0
  3
_None
  1

  0
ENDBLK
  5
97
330
95
100
AcDbEntity
  8
0
100
AcDbBlockEnd
  0
BLOCK
  5
AE
330
A4
100
AcDbEntity
  8
0
100
AcDbBlockBegin
  2
*D8
 70
     1
 71
     0
 10
0.0
 20
0.0
 30
0.0
  3
*D8
  1

  0
LINE
  5
B0
330
A4
100
AcDbEntity
  8
SLD-0
 62
     7
100
AcDbLine
 10
90.4171628971
 20
169.7289253002
 30
0.0
 11
90.4171628971
 21
199.0246044405
 31
0.0
  0
LINE
  5
B1
330
A4
100
AcDbEntity
  8
SLD-0
 62
     7
100
AcDbLine
 10
160.4171628971
 20
169.7289253002
 30
0.0
 11
160.4171628971
 21
199.0246044405
 31
0.0
  0
LINE
  5
B2
330
A4
100
AcDbEntity
  8
SLD-0
 62
     7
100
AcDbLine
 10
90.4171628971
 20
198.0246044405
 30
0.0
 11
160.4171628971
 21
198.0246044405
 31
0.0
  0
LINE
  5
B3
330
A4
100
AcDbEntity
  8
SLD-0
 62
     7
100
AcDbLine
 10
93.4171628971
 20
197.2207574405
 30
0.0
 11
90.4171628971
 21
198.0246044405
 31
0.0
  0
LINE
  5
B4
330
A4
100
AcDbEntity
  8
SLD-0
 62
     7
100
AcDbLine
 10
90.4171628971
 20
198.0246044405
 30
0.0
 11
93.4171628971
 21
198.8284514405
 31
0.0
  0
LINE
  5
B5
330
A4
100
AcDbEntity
  8
SLD-0
 62
     7
100
AcDbLine
 10
90.4171628971
 20
198.0246044405
 30
0.0
 11
93.4171628971
 21
198.0246044405
 31
0.0
  0
LINE
  5
B6
330
A4
100
AcDbEntity
  8
SLD-0
 62
     7
100
AcDbLine
 10
157.4171628971
 20
198.8284514405
 30
0.0
 11
160.4171628971
 21
198.0246044405
 31
0.0
  0
LINE
  5
B7
330
A4
100
AcDbEntity
  8
SLD-0
 62
     7
100
AcDbLine
 10
160.4171628971
 20
198.0246044405
 30
0.0
 11
157.4171628971
 21
197.2207574405
 31
0.0
  0
LINE
  5
B8
330
A4
100
AcDbEntity
  8
SLD-0
 62
     7
100
AcDbLine
 10
160.4171628971
 20
198.0246044405
 30
0.0
 11
157.4171628971
 21
198.0246044405
 31
0.0
  0
MTEXT
  5
B9
330
A4
100
AcDbEntity
  8
SLD-0
 62
     7
100
AcDbMText
 10
123.3807128375
 20
202.5512982528
 30
0.1
 40
3.5
 41
0.0
 71
     1
 72
     1
  1
70
  7
SLDTEXTSTYLE2
 73
     1
 44
1.0
  0
ENDBLK
  5
AF
330
A4
100
AcDbEntity
  8
0
100
AcDbBlockEnd
  0
BLOCK
  5
C7
330
BB
100
AcDbEntity
  8
0
100
AcDbBlockBegin
  2
*D9
 70
     1
 71
     0
 10
0.0
 20
0.0
 30
0.0
  3
*D9
  1

  0
LINE
  5
CA
330
BB
100
AcDbEntity
  8
SLD-0
 62
     7
100
AcDbLine
 10
119.7946275966
 20
171.9789253002
 30
0.0
 11
119.7946275966
 21
176.9789253002
 31
0.0
  0
LINE
  5
CB
330
BB
100
AcDbEntity
  8
SLD-0
 62
     7
100
AcDbLine
 10
119.7946275966
 20
171.9789253002
 30
0.0
 11
119.7946275966
 21
165.4789253002
 31
0.0
  0
LINE
  5
CC
330
BB
100
AcDbEntity
  8
SLD-0
 62
     7
100
AcDbLine
 10
119.7946275966
 20
165.4789253002
 30
0.0
 11
119.7946275966
 21
143.498787327
 31
0.0
  0
LINE
  5
CD
330
BB
100
AcDbEntity
  8
SLD-0
 62
     7
100
AcDbLine
 10
120.5984745966
 20
174.9789253002
 30
0.0
 11
119.7946275966
 21
171.9789253002
 31
0.0
  0
LINE
  5
CE
330
BB
100
AcDbEntity
  8
SLD-0
 62
     7
100
AcDbLine
 10
119.7946275966
 20
171.9789253002
 30
0.0
 11
118.9907805966
 21
174.9789253002
 31
0.0
  0
LINE
  5
CF
330
BB
100
AcDbEntity
  8
SLD-0
 62
     7
100
AcDbLine
 10
119.7946275966
 20
171.9789253002
 30
0.0
 11
119.7946275966
 21
174.9789253002
 31
0.0
  0
LINE
  5
D0
330
BB
100
AcDbEntity
  8
SLD-0
 62
     7
100
AcDbLine
 10
118.9907805966
 20
162.4789253002
 30
0.0
 11
119.7946275966
 21
165.4789253002
 31
0.0
  0
LINE
  5
D1
330
BB
100
AcDbEntity
  8
SLD-0
 62
     7
100
AcDbLine
 10
119.7946275966
 20
165.4789253002
 30
0.0
 11
120.5984745966
 21
162.4789253002
 31
0.0
  0
LINE
  5
D2
330
BB
100
AcDbEntity
  8
SLD-0
 62
     7
100
AcDbLine
 10
119.7946275966
 20
165.4789253002
 30
0.0
 11
119.7946275966
 21
162.4789253002
 31
0.0
  0
MTEXT
  5
D3
330
BB
100
AcDbEntity
  8
SLD-0
 62
     7
100
AcDbMText
 10
115.2679337843
 20
145.086287327
 30
0.1
 40
3.5
 41
0.0
 71
     1
 72
     1
  1
6.5
  7
SLDTEXTSTYLE2
 11
6.123031769111886E-17
 21
1.0
 31
0.0
 73
     1
 44
1.0
  0
ENDBLK
  5
C8
330
BB
100
AcDbEntity
  8
0
100
AcDbBlockEnd
  0
BLOCK
  5
E0
330
D5
100
AcDbEntity
  8
0
100
AcDbBlockBegin
  2
*D10
 70
     1
 71
     0
 10
0.0
 20
0.0
 30
0.0
  3
*D10
  1

  0
LINE
  5
E2
330
D5
100
AcDbEntity
  8
SLD-0
100
AcDbLine
 10
163.4171628971
 20
168.7289253002
 30
0.0
 11
184.2236595094
 21
168.7289253002
 31
0.0
  0
LINE
  5
E3
330
D5
100
AcDbEntity
  8
SLD-0
100
AcDbLine
 10
164.4171628971
 20
156.2289253002
 30
0.0
 11
184.2236595094
 21
156.2289253002
 31
0.0
  0
LINE
  5
E4
330
D5
100
AcDbEntity
  8
SLD-0
100
AcDbLine
 10
183.2236595094
 20
168.7289253002
 30
0.0
 11
183.2236595094
 21
173.7289253002
 31
0.0
  0
LINE
  5
E5
330
D5
100
AcDbEntity
  8
SLD-0
100
AcDbLine
 10
183.2236595094
 20
168.7289253002
 30
0.0
 11
183.2236595094
 21
156.2289253002
 31
0.0
  0
LINE
  5
E6
330
D5
100
AcDbEntity
  8
SLD-0
100
AcDbLine
 10
183.2236595094
 20
156.2289253002
 30
0.0
 11
183.2236595094
 21
151.2289253002
 31
0.0
  0
LINE
  5
E7
330
D5
100
AcDbEntity
  8
SLD-0
100
AcDbLine
 10
184.0275065094
 20
171.7289253002
 30
0.0
 11
183.2236595094
 21
168.7289253002
 31
0.0
  0
LINE
  5
E8
330
D5
100
AcDbEntity
  8
SLD-0
100
AcDbLine
 10
183.2236595094
 20
168.7289253002
 30
0.0
 11
182.4198125094
 21
171.7289253002
 31
0.0
  0
LINE
  5
E9
330
D5
100
AcDbEntity
  8
SLD-0
100
AcDbLine
 10
183.2236595094
 20
168.7289253002
 30
0.0
 11
183.2236595094
 21
171.7289253002
 31
0.0
  0
LINE
  5
EA
330
D5
100
AcDbEntity
  8
SLD-0
100
AcDbLine
 10
182.4198125094
 20
153.2289253002
 30
0.0
 11
183.2236595094
 21
156.2289253002
 31
0.0
  0
LINE
  5
EB
330
D5
100
AcDbEntity
  8
SLD-0
100
AcDbLine
 10
183.2236595094
 20
156.2289253002
 30
0.0
 11
184.0275065094
 21
153.2289253002
 31
0.0
  0
LINE
  5
EC
330
D5
100
AcDbEntity
  8
SLD-0
100
AcDbLine
 10
183.2236595094
 20
156.2289253002
 30
0.0
 11
183.2236595094
 21
153.2289253002
 31
0.0
  0
MTEXT
  5
ED
330
D5
100
AcDbEntity
  8
SLD-0
100
AcDbMText
 10
178.6969656971
 20
158.4060251811
 30
0.1
 40
3.5
 41
0.0
 71
     1
 72
     1
  1
12.5
  7
SLDTEXTSTYLE2
 11
6.123031769111886E-17
 21
1.0
 31
0.0
 73
     1
 44
1.0
  0
ENDBLK
  5
E1
330
D5
100
AcDbEntity
  8
0
100
AcDbBlockEnd
  0
BLOCK
  5
FA
330
EF
100
AcDbEntity
  8
0
100
AcDbBlockBegin
  2
*D11
 70
     1
 71
     0
 10
0.0
 20
0.0
 30
0.0
  3
*D11
  1

  0
LINE
  5
FC
330
EF
100
AcDbEntity
  8
SLD-0
100
AcDbLine
 10
58.4171628971
 20
156.2289253002
 30
0.0
 11
50.372772166
 21
156.2289253002
 31
0.0
  0
LINE
  5
FD
330
EF
100
AcDbEntity
  8
SLD-0
100
AcDbLine
 10
63.9671628971
 20
168.7289253002
 30
0.0
 11
50.372772166
 21
168.7289253002
 31
0.0
  0
LINE
  5
FE
330
EF
100
AcDbEntity
  8
SLD-0
100
AcDbLine
 10
51.372772166
 20
156.2289253002
 30
0.0
 11
51.372772166
 21
151.2289253002
 31
0.0
  0
LINE
  5
FF
330
EF
100
AcDbEntity
  8
SLD-0
100
AcDbLine
 10
51.372772166
 20
156.2289253002
 30
0.0
 11
51.372772166
 21
168.7289253002
 31
0.0
  0
LINE
  5
100
330
EF
100
AcDbEntity
  8
SLD-0
100
AcDbLine
 10
51.372772166
 20
168.7289253002
 30
0.0
 11
51.372772166
 21
173.7289253002
 31
0.0
  0
LINE
  5
101
330
EF
100
AcDbEntity
  8
SLD-0
100
AcDbLine
 10
50.568925166
 20
153.2289253002
 30
0.0
 11
51.372772166
 21
156.2289253002
 31
0.0
  0
LINE
  5
102
330
EF
100
AcDbEntity
  8
SLD-0
100
AcDbLine
 10
51.372772166
 20
156.2289253002
 30
0.0
 11
52.176619166
 21
153.2289253002
 31
0.0
  0
LINE
  5
103
330
EF
100
AcDbEntity
  8
SLD-0
100
AcDbLine
 10
51.372772166
 20
156.2289253002
 30
0.0
 11
51.372772166
 21
153.2289253002
 31
0.0
  0
LINE
  5
104
330
EF
100
AcDbEntity
  8
SLD-0
100
AcDbLine
 10
52.176619166
 20
171.7289253002
 30
0.0
 11
51.372772166
 21
168.7289253002
 31
0.0
  0
LINE
  5
105
330
EF
100
AcDbEntity
  8
SLD-0
100
AcDbLine
 10
51.372772166
 20
168.7289253002
 30
0.0
 11
50.568925166
 21
171.7289253002
 31
0.0
  0
LINE
  5
106
330
EF
100
AcDbEntity
  8
SLD-0
100
AcDbLine
 10
51.372772166
 20
168.7289253002
 30
0.0
 11
51.372772166
 21
171.7289253002
 31
0.0
  0
MTEXT
  5
107
330
EF
100
AcDbEntity
  8
SLD-0
100
AcDbMText
 10
46.8460783536
 20
158.4060251811
 30
0.1
 40
3.5
 41
0.0
 71
     1
 72
     1
  1
12.5
  7
SLDTEXTSTYLE2
 11
6.123031769111886E-17
 21
1.0
 31
0.0
 73
     1
 44
1.0
  0
ENDBLK
  5
FB
330
EF
100
AcDbEntity
  8
0
100
AcDbBlockEnd
  0
BLOCK
  5
113
330
109
100
AcDbEntity
  8
0
100
AcDbBlockBegin
  2
*D12
 70
     1
 71
     0
 10
0.0
 20
0.0
 30
0.0
  3
*D12
  1

  0
LINE
  5
115
330
109
100
AcDbEntity
  8
SLD-0
 62
     7
100
AcDbLine
 10
166.4171628971
 20
169.7289253002
 30
0.0
 11
166.4171628971
 21
209.2162401754
 31
0.0
  0
LINE
  5
116
330
109
100
AcDbEntity
  8
SLD-0
 62
     7
100
AcDbLine
 10
56.4171628971
 20
169.7289253002
 30
0.0
 11
56.4171628971
 21
209.2162401754
 31
0.0
  0
LINE
  5
117
330
109
100
AcDbEntity
  8
SLD-0
 62
     7
100
AcDbLine
 10
166.4171628971
 20
208.2162401754
 30
0.0
 11
56.4171628971
 21
208.2162401754
 31
0.0
  0
LINE
  5
118
330
109
100
AcDbEntity
  8
SLD-0
 62
     7
100
AcDbLine
 10
163.4171628971
 20
209.0200871754
 30
0.0
 11
166.4171628971
 21
208.2162401754
 31
0.0
  0
LINE
  5
119
330
109
100
AcDbEntity
  8
SLD-0
 62
     7
100
AcDbLine
 10
166.4171628971
 20
208.2162401754
 30
0.0
 11
163.4171628971
 21
207.4123931754
 31
0.0
  0
LINE
  5
11A
330
109
100
AcDbEntity
  8
SLD-0
 62
     7
100
AcDbLine
 10
166.4171628971
 20
208.2162401754
 30
0.0
 11
163.4171628971
 21
208.2162401754
 31
0.0
  0
LINE
  5
11B
330
109
100
AcDbEntity
  8
SLD-0
 62
     7
100
AcDbLine
 10
59.4171628971
 20
207.4123931754
 30
0.0
 11
56.4171628971
 21
208.2162401754
 31
0.0
  0
LINE
  5
11C
330
109
100
AcDbEntity
  8
SLD-0
 62
     7
100
AcDbLine
 10
56.4171628971
 20
208.2162401754
 30
0.0
 11
59.4171628971
 21
209.0200871754
 31
0.0
  0
LINE
  5
11D
330
109
100
AcDbEntity
  8
SLD-0
 62
     7
100
AcDbLine
 10
56.4171628971
 20
208.2162401754
 30
0.0
 11
59.4171628971
 21
208.2162401754
 31
0.0
  0
MTEXT
  5
11E
330
109
100
AcDbEntity
  8
SLD-0
 62
     7
100
AcDbMText
 10
108.3624878077
 20
212.7429339877
 30
0.1
 40
3.5
 41
0.0
 71
     1
 72
     1
  1
110
  7
SLDTEXTSTYLE2
 73
     1
 44
1.0
  0
ENDBLK
  5
114
330
109
100
AcDbEntity
  8
0
100
AcDbBlockEnd
  0
BLOCK
  5
127
330
120
100
AcDbEntity
  8
0
100
AcDbBlockBegin
  2
*D13
 70
     1
 71
     0
 10
0.0
 20
0.0
 30
0.0
  3
*D13
  1

  0
LINE
  5
12A
330
120
100
AcDbEntity
  8
SLD-0
 62
     7
100
AcDbLine
 10
163.0145373356
 20
170.6824211476
 30
0.0
 11
178.0781360429
 21
182.011814817
 31
0.0
  0
LINE
  5
12B
330
120
100
AcDbEntity
  8
SLD-0
 62
     7
100
AcDbLine
 10
165.8952865947
 20
171.8432198836
 30
0.0
 11
163.0145373356
 21
170.6824211476
 31
0.0
  0
LINE
  5
12C
330
120
100
AcDbEntity
  8
SLD-0
 62
     7
100
AcDbLine
 10
163.0145373356
 20
170.6824211476
 30
0.0
 11
164.9289408862
 21
173.1280762838
 31
0.0
  0
LINE
  5
12D
330
120
100
AcDbEntity
  8
SLD-0
 62
     7
100
AcDbLine
 10
163.0145373356
 20
170.6824211476
 30
0.0
 11
165.4121137404
 21
172.4856480837
 31
0.0
  0
MTEXT
  5
12E
330
120
100
AcDbEntity
  8
SLD-0
 62
     7
100
AcDbMText
 10
169.2141256626
 20
180.9923045383
 30
0.1
 40
3.5
 41
0.0
 71
     1
 72
     1
  1
2-R
  7
SLDTEXTSTYLE2
 11
0.7991921349083729
 21
0.6010756454062974
 31
0.0
 73
     1
 44
1.0
  0
ENDBLK
  5
128
330
120
100
AcDbEntity
  8
0
100
AcDbBlockEnd
  0
BLOCK
  5
13A
330
130
100
AcDbEntity
  8
0
100
AcDbBlockBegin
  2
*D14
 70
     1
 71
     0
 10
0.0
 20
0.0
 30
0.0
  3
*D14
  1

  0
LINE
  5
13C
330
130
100
AcDbEntity
  8
SLD-0
 62
     7
100
AcDbLine
 10
71.4171628971
 20
177.4789253002
 30
0.0
 11
71.4171628971
 21
190.539127905
 31
0.0
  0
LINE
  5
13D
330
130
100
AcDbEntity
  8
SLD-0
 62
     7
100
AcDbLine
 10
56.4171628971
 20
169.7289253002
 30
0.0
 11
56.4171628971
 21
190.539127905
 31
0.0
  0
LINE
  5
13E
330
130
100
AcDbEntity
  8
SLD-0
 62
     7
100
AcDbLine
 10
71.4171628971
 20
189.539127905
 30
0.0
 11
56.4171628971
 21
189.539127905
 31
0.0
  0
LINE
  5
13F
330
130
100
AcDbEntity
  8
SLD-0
 62
     7
100
AcDbLine
 10
68.4171628971
 20
190.342974905
 30
0.0
 11
71.4171628971
 21
189.539127905
 31
0.0
  0
LINE
  5
140
330
130
100
AcDbEntity
  8
SLD-0
 62
     7
100
AcDbLine
 10
71.4171628971
 20
189.539127905
 30
0.0
 11
68.4171628971
 21
188.735280905
 31
0.0
  0
LINE
  5
141
330
130
100
AcDbEntity
  8
SLD-0
 62
     7
100
AcDbLine
 10
71.4171628971
 20
189.539127905
 30
0.0
 11
68.4171628971
 21
189.539127905
 31
0.0
  0
LINE
  5
142
330
130
100
AcDbEntity
  8
SLD-0
 62
     7
100
AcDbLine
 10
59.4171628971
 20
188.735280905
 30
0.0
 11
56.4171628971
 21
189.539127905
 31
0.0
  0
LINE
  5
143
330
130
100
AcDbEntity
  8
SLD-0
 62
     7
100
AcDbLine
 10
56.4171628971
 20
189.539127905
 30
0.0
 11
59.4171628971
 21
190.342974905
 31
0.0
  0
LINE
  5
144
330
130
100
AcDbEntity
  8
SLD-0
 62
     7
100
AcDbLine
 10
56.4171628971
 20
189.539127905
 30
0.0
 11
59.4171628971
 21
189.539127905
 31
0.0
  0
MTEXT
  5
145
330
130
100
AcDbEntity
  8
SLD-0
 62
     7
100
AcDbMText
 10
61.8807128375
 20
194.0658217173
 30
0.1
 40
3.5
 41
0.0
 71
     1
 72
     1
  1
15
  7
SLDTEXTSTYLE2
 73
     1
 44
1.0
  0
ENDBLK
  5
13B
330
130
100
AcDbEntity
  8
0
100
AcDbBlockEnd
  0
BLOCK
  5
14E
330
147
100
AcDbEntity
  8
0
100
AcDbBlockBegin
  2
*D15
 70
     1
 71
     0
 10
0.0
 20
0.0
 30
0.0
  3
*D15
  1

  0
LINE
  5
151
330
147
100
AcDbEntity
  8
SLD-0
 62
     7
100
AcDbLine
 10
73.0535272712
 20
160.3879234638
 30
0.0
 11
75.8556924708
 21
146.1045123568
 31
0.0
  0
LINE
  5
152
330
147
100
AcDbEntity
  8
SLD-0
 62
     7
100
AcDbLine
 10
75.8556924708
 20
146.1045123568
 30
0.0
 11
94.873342888
 21
146.1045123568
 31
0.0
  0
LINE
  5
153
330
147
100
AcDbEntity
  8
SLD-0
 62
     7
100
AcDbLine
 10
72.8422571323
 20
157.2892890988
 30
0.0
 11
73.0535272712
 21
160.3879234638
 31
0.0
  0
LINE
  5
154
330
147
100
AcDbEntity
  8
SLD-0
 62
     7
100
AcDbLine
 10
73.0535272712
 20
160.3879234638
 30
0.0
 11
74.4198781448
 21
157.5987918266
 31
0.0
  0
LINE
  5
155
330
147
100
AcDbEntity
  8
SLD-0
 62
     7
100
AcDbLine
 10
73.0535272712
 20
160.3879234638
 30
0.0
 11
73.6310676385
 21
157.4440404627
 31
0.0
  0
MTEXT
  5
156
330
147
100
AcDbEntity
  8
SLD-0
 62
     7
100
AcDbMText
 10
79.0306924708
 20
150.6312061692
 30
0.1
 40
3.5
 41
0.0
 71
     1
 72
     1
  1
M
  7
SLDTEXTSTYLE2
 73
     1
 44
1.0
  0
MTEXT
  5
157
330
147
100
AcDbEntity
  8
SLD-0
 62
     7
100
AcDbMText
 10
81.0671425304
 20
150.6312061692
 30
0.1
 40
3.5
 41
0.0
 71
     1
 72
     1
  1
17
  7
SLDTEXTSTYLE2
 73
     1
 44
1.0
  0
MTEXT
  5
158
330
147
100
AcDbEntity
  8
SLD-0
 62
     7
100
AcDbMText
 10
85.1400426496
 20
150.6312061692
 30
0.1
 40
3.5
 41
0.0
 71
     1
 72
     1
  1
 P=1
  7
SLDTEXTSTYLE2
 73
     1
 44
1.0
  0
ENDBLK
  5
14F
330
147
100
AcDbEntity
  8
0
100
AcDbBlockEnd
  0
BLOCK
  5
165
330
15A
100
AcDbEntity
  8
0
100
AcDbBlockBegin
  2
*D16
 70
     1
 71
     0
 10
0.0
 20
0.0
 30
0.0
  3
*D16
  1

  0
LINE
  5
167
330
15A
100
AcDbEntity
  8
SLD-0
 62
     7
100
AcDbLine
 10
58.4171628971
 20
181.2289253002
 30
0.0
 11
40.8127110546
 21
181.2289253002
 31
0.0
  0
LINE
  5
168
330
15A
100
AcDbEntity
  8
SLD-0
 62
     7
100
AcDbLine
 10
58.4171628971
 20
156.2289253002
 30
0.0
 11
40.8127110546
 21
156.2289253002
 31
0.0
  0
LINE
  5
169
330
15A
100
AcDbEntity
  8
SLD-0
 62
     7
100
AcDbLine
 10
41.8127110546
 20
181.2289253002
 30
0.0
 11
41.8127110546
 21
156.2289253002
 31
0.0
  0
LINE
  5
16A
330
15A
100
AcDbEntity
  8
SLD-0
 62
     7
100
AcDbLine
 10
41.0088640546
 20
178.2289253002
 30
0.0
 11
41.8127110546
 21
181.2289253002
 31
0.0
  0
LINE
  5
16B
330
15A
100
AcDbEntity
  8
SLD-0
 62
     7
100
AcDbLine
 10
41.8127110546
 20
181.2289253002
 30
0.0
 11
42.6165580546
 21
178.2289253002
 31
0.0
  0
LINE
  5
16C
330
15A
100
AcDbEntity
  8
SLD-0
 62
     7
100
AcDbLine
 10
41.8127110546
 20
181.2289253002
 30
0.0
 11
41.8127110546
 21
178.2289253002
 31
0.0
  0
LINE
  5
16D
330
15A
100
AcDbEntity
  8
SLD-0
 62
     7
100
AcDbLine
 10
42.6165580546
 20
159.2289253002
 30
0.0
 11
41.8127110546
 21
156.2289253002
 31
0.0
  0
LINE
  5
16E
330
15A
100
AcDbEntity
  8
SLD-0
 62
     7
100
AcDbLine
 10
41.8127110546
 20
156.2289253002
 30
0.0
 11
41.0088640546
 21
159.2289253002
 31
0.0
  0
LINE
  5
16F
330
15A
100
AcDbEntity
  8
SLD-0
 62
     7
100
AcDbLine
 10
41.8127110546
 20
156.2289253002
 30
0.0
 11
41.8127110546
 21
159.2289253002
 31
0.0
  0
MTEXT
  5
170
330
15A
100
AcDbEntity
  8
SLD-0
 62
     7
100
AcDbMText
 10
37.2860172422
 20
166.6924752407
 30
0.1
 40
3.5
 41
0.0
 71
     1
 72
     1
  1
25
  7
SLDTEXTSTYLE2
 11
6.123031769111886E-17
 21
1.0
 31
0.0
 73
     1
 44
1.0
  0
ENDBLK
  5
166
330
15A
100
AcDbEntity
  8
0
100
AcDbBlockEnd
  0
BLOCK
  5
17D
330
172
100
AcDbEntity
  8
0
100
AcDbBlockBegin
  2
*D17
 70
     1
 71
     0
 10
0.0
 20
0.0
 30
0.0
  3
*D17
  1

  0
LINE
  5
17F
330
172
100
AcDbEntity
  8
SLD-0
 62
     7
100
AcDbLine
 10
55.4171628971
 20
122.7490404732
 30
0.0
 11
41.2665172101
 21
122.7490404732
 31
0.0
  0
LINE
  5
180
330
172
100
AcDbEntity
  8
SLD-0
 62
     7
100
AcDbLine
 10
55.4171628971
 20
117.7490404732
 30
0.0
 11
41.2665172101
 21
117.7490404732
 31
0.0
  0
LINE
  5
181
330
172
100
AcDbEntity
  8
SLD-0
 62
     7
100
AcDbLine
 10
42.2665172101
 20
122.7490404732
 30
0.0
 11
42.2665172101
 21
127.7490404732
 31
0.0
  0
LINE
  5
182
330
172
100
AcDbEntity
  8
SLD-0
 62
     7
100
AcDbLine
 10
42.2665172101
 20
122.7490404732
 30
0.0
 11
42.2665172101
 21
117.7490404732
 31
0.0
  0
LINE
  5
183
330
172
100
AcDbEntity
  8
SLD-0
 62
     7
100
AcDbLine
 10
42.2665172101
 20
117.7490404732
 30
0.0
 11
42.2665172101
 21
112.7490404732
 31
0.0
  0
LINE
  5
184
330
172
100
AcDbEntity
  8
SLD-0
 62
     7
100
AcDbLine
 10
43.0703642101
 20
125.7490404732
 30
0.0
 11
42.2665172101
 21
122.7490404732
 31
0.0
  0
LINE
  5
185
330
172
100
AcDbEntity
  8
SLD-0
 62
     7
100
AcDbLine
 10
42.2665172101
 20
122.7490404732
 30
0.0
 11
41.4626702101
 21
125.7490404732
 31
0.0
  0
LINE
  5
186
330
172
100
AcDbEntity
  8
SLD-0
 62
     7
100
AcDbLine
 10
42.2665172101
 20
122.7490404732
 30
0.0
 11
42.2665172101
 21
125.7490404732
 31
0.0
  0
LINE
  5
187
330
172
100
AcDbEntity
  8
SLD-0
 62
     7
100
AcDbLine
 10
41.4626702101
 20
114.7490404732
 30
0.0
 11
42.2665172101
 21
117.7490404732
 31
0.0
  0
LINE
  5
188
330
172
100
AcDbEntity
  8
SLD-0
 62
     7
100
AcDbLine
 10
42.2665172101
 20
117.7490404732
 30
0.0
 11
43.0703642101
 21
114.7490404732
 31
0.0
  0
LINE
  5
189
330
172
100
AcDbEntity
  8
SLD-0
 62
     7
100
AcDbLine
 10
42.2665172101
 20
117.7490404732
 30
0.0
 11
42.2665172101
 21
114.7490404732
 31
0.0
  0
MTEXT
  5
18A
330
172
100
AcDbEntity
  8
SLD-0
 62
     7
100
AcDbMText
 10
37.7398233977
 20
119.2308154434
 30
0.1
 40
3.5
 41
0.0
 71
     1
 72
     1
  1
5
  7
SLDTEXTSTYLE2
 11
6.123031769111886E-17
 21
1.0
 31
0.0
 73
     1
 44
1.0
  0
ENDBLK
  5
17E
330
172
100
AcDbEntity
  8
0
100
AcDbBlockEnd
  0
BLOCK
  5
190
330
18F
100
AcDbEntity
  8
0
100
AcDbBlockBegin
  2
SW_NOTE_0
 70
     0
 71
     0
 10
0.0
 20
0.0
 30
0.0
  3
SW_NOTE_0
  1

  0
MTEXT
  5
192
330
18F
100
AcDbEntity
  8
0
  6
Continuous
 62
     7
370
     0
100
AcDbMText
 10
0.0
 20
4.9260606061
 30
0.0
 40
4.2333333333
 41
0.0
 71
     1
 72
     1
  1
スライド70Ｔ5
  7
SLDTEXTSTYLE0
 73
     1
 44
1.0
  0
MTEXT
  5
193
330
18F
100
AcDbEntity
  8
0
  6
Continuous
 62
     7
370
     0
100
AcDbMText
 10
-6.1339251697
 20
-0.7183837702
 30
0.0
 40
4.2333333333
 41
0.0
 71
     1
 72
     1
  1
ブラケットＷ　Ｍ17
  7
SLDTEXTSTYLE0
 73
     1
 44
1.0
  0
ENDBLK
  5
191
330
18F
100
AcDbEntity
  8
0
100
AcDbBlockEnd
  0
ENDSEC
  0
SECTION
  2
ENTITIES
  0
LINE
  5
56
330
1F
100
AcDbEntity
  8
SLD-0
  6
Continuous
 62
     7
100
AcDbLine
 10
166.417161705
 20
178.2289249948
 30
0.0
 11
163.4171630759
 21
181.2289254865
 31
0.0
  0
LINE
  5
57
330
1F
100
AcDbEntity
  8
SLD-0
  6
Continuous
 62
     7
100
AcDbLine
 10
163.4171630759
 20
156.228925114
 30
0.0
 11
166.417161705
 21
159.2289256057
 31
0.0
  0
LINE
  5
58
330
1F
100
AcDbEntity
  8
SLD-0
  6
Continuous
 62
     7
100
AcDbLine
 10
59.4171627927
 20
156.228925114
 30
0.0
 11
163.4171630759
 21
156.228925114
 31
0.0
  0
LINE
  5
59
330
1F
100
AcDbEntity
  8
SLD-0
  6
Continuous
 62
     7
100
AcDbLine
 10
56.4171632323
 20
159.2289256057
 30
0.0
 11
59.4171627927
 21
156.228925114
 31
0.0
  0
LINE
  5
5A
330
1F
100
AcDbEntity
  8
SLD-0
  6
Continuous
 62
     7
100
AcDbLine
 10
59.4171627927
 20
181.2289254865
 30
0.0
 11
56.4171632323
 21
178.2289249948
 31
0.0
  0
LINE
  5
5B
330
1F
100
AcDbEntity
  8
SLD-0
  6
Continuous
 62
     7
100
AcDbLine
 10
59.4171627927
 20
181.2289254865
 30
0.0
 11
163.4171630759
 21
181.2289254865
 31
0.0
  0
LINE
  5
5C
330
1F
100
AcDbEntity
  8
SLD-0
  6
Continuous
 62
     7
100
AcDbLine
 10
160.4171628971
 20
171.9789253002
 30
0.0
 11
90.4171628971
 21
171.9789253002
 31
0.0
  0
LINE
  5
5D
330
1F
100
AcDbEntity
  8
SLD-0
  6
Continuous
 62
     7
100
AcDbLine
 10
90.4171628971
 20
165.4789253002
 30
0.0
 11
160.4171628971
 21
165.4789253002
 31
0.0
  0
LINE
  5
5E
330
1F
100
AcDbEntity
  8
SLD-0
  6
Continuous
 62
     7
100
AcDbLine
 10
56.4171632323
 20
178.2289249948
 30
0.0
 11
56.4171632323
 21
159.2289256057
 31
0.0
  0
LINE
  5
5F
330
1F
100
AcDbEntity
  8
SLD-0
  6
Continuous
 62
     7
100
AcDbLine
 10
166.417161705
 20
178.2289249948
 30
0.0
 11
166.417161705
 21
159.2289256057
 31
0.0
  0
LINE
  5
60
330
1F
100
AcDbEntity
  8
SLD-0
 62
     7
100
AcDbLine
 10
164.9171628971
 20
157.7289253002
 30
0.0
 11
168.5545927487
 21
151.783203167
 31
0.0
  0
LINE
  5
61
330
1F
100
AcDbEntity
  8
SLD-0
 62
     7
100
AcDbLine
 10
168.5545927487
 20
151.783203167
 30
0.0
 11
174.49753621
 21
142.1477508656
 31
0.0
  0
LINE
  5
62
330
1F
100
AcDbEntity
  8
SLD-0
  6
CENTERX2
 62
     7
100
AcDbLine
 10
162.4171628971
 20
168.7289253002
 30
0.0
 11
88.4171628971
 21
168.7289253002
 31
0.0
  0
LINE
  5
63
330
1F
100
AcDbEntity
  8
SLD-0
  6
Continuous
 62
     7
100
AcDbLine
 10
166.417161705
 20
122.7490403614
 30
0.0
 11
166.417161705
 21
117.7490404732
 31
0.0
  0
LINE
  5
64
330
1F
100
AcDbEntity
  8
SLD-0
  6
Continuous
 62
     7
100
AcDbLine
 10
166.417161705
 20
117.7490404732
 30
0.0
 11
163.4171630759
 21
117.7490404732
 31
0.0
  0
LINE
  5
65
330
1F
100
AcDbEntity
  8
SLD-0
  6
Continuous
 62
     7
100
AcDbLine
 10
163.4171630759
 20
117.7490404732
 30
0.0
 11
163.4171630759
 21
122.7490403614
 31
0.0
  0
LINE
  5
66
330
1F
100
AcDbEntity
  8
SLD-0
  6
Continuous
 62
     7
100
AcDbLine
 10
163.4171630759
 20
122.7490403614
 30
0.0
 11
166.417161705
 21
122.7490403614
 31
0.0
  0
LINE
  5
67
330
1F
100
AcDbEntity
  8
SLD-0
  6
Continuous
 62
     7
100
AcDbLine
 10
59.4171627927
 20
122.7490403614
 30
0.0
 11
59.4171627927
 21
117.7490404732
 31
0.0
  0
LINE
  5
68
330
1F
100
AcDbEntity
  8
SLD-0
  6
Continuous
 62
     7
100
AcDbLine
 10
59.4171627927
 20
122.7490403614
 30
0.0
 11
163.4171630759
 21
122.7490403614
 31
0.0
  0
LINE
  5
69
330
1F
100
AcDbEntity
  8
SLD-0
  6
Continuous
 62
     7
100
AcDbLine
 10
163.4171630759
 20
117.7490404732
 30
0.0
 11
59.4171627927
 21
117.7490404732
 31
0.0
  0
LINE
  5
6A
330
1F
100
AcDbEntity
  8
SLD-0
  6
Continuous
 62
     7
100
AcDbLine
 10
56.4171632323
 20
117.7490404732
 30
0.0
 11
56.4171632323
 21
122.7490403614
 31
0.0
  0
LINE
  5
6B
330
1F
100
AcDbEntity
  8
SLD-0
  6
Continuous
 62
     7
100
AcDbLine
 10
56.4171632323
 20
122.7490403614
 30
0.0
 11
59.4171627927
 21
122.7490403614
 31
0.0
  0
LINE
  5
6C
330
1F
100
AcDbEntity
  8
SLD-0
  6
Continuous
 62
     7
100
AcDbLine
 10
59.4171627927
 20
117.7490404732
 30
0.0
 11
56.4171632323
 21
117.7490404732
 31
0.0
  0
LINE
  5
6D
330
1F
100
AcDbEntity
  8
SLD-0
  6
HIDDEN
 62
     7
100
AcDbLine
 10
90.4171622861
 20
117.7490404732
 30
0.0
 11
90.4171622861
 21
122.7490403614
 31
0.0
  0
LINE
  5
6E
330
1F
100
AcDbEntity
  8
SLD-0
  6
HIDDEN
 62
     7
100
AcDbLine
 10
90.4171622861
 20
117.7490404732
 30
0.0
 11
90.4171622861
 21
122.7490403614
 31
0.0
  0
LINE
  5
6F
330
1F
100
AcDbEntity
  8
SLD-0
  6
HIDDEN
 62
     7
100
AcDbLine
 10
160.4171644468
 20
117.7490404732
 30
0.0
 11
160.4171644468
 21
122.7490403614
 31
0.0
  0
LINE
  5
70
330
1F
100
AcDbEntity
  8
SLD-0
  6
HIDDEN
 62
     7
100
AcDbLine
 10
63.9171630647
 20
122.7490403614
 30
0.0
 11
63.9171630647
 21
117.7490404732
 31
0.0
  0
LINE
  5
71
330
1F
100
AcDbEntity
  8
SLD-0
  6
HIDDEN
 62
     7
100
AcDbLine
 10
78.9171627294
 20
117.7490404732
 30
0.0
 11
78.9171627294
 21
122.7490403614
 31
0.0
  0
LINE
  5
72
330
1F
100
AcDbEntity
  8
SLD-0
  6
HIDDEN
 62
     7
100
AcDbLine
 10
87.1671631504
 20
122.7490403614
 30
0.0
 11
87.1671631504
 21
117.7490404732
 31
0.0
  0
LINE
  5
73
330
1F
100
AcDbEntity
  8
SLD-0
  6
HIDDEN
 62
     7
100
AcDbLine
 10
163.6671598572
 20
117.7490404732
 30
0.0
 11
163.6671598572
 21
122.7490403614
 31
0.0
  0
LINE
  5
74
330
1F
100
AcDbEntity
  8
SLD-0
  6
HIDDEN
 62
     7
100
AcDbLine
 10
79.917163359
 20
117.7490404732
 30
0.0
 11
79.917163359
 21
122.7490403614
 31
0.0
  0
LINE
  5
75
330
1F
100
AcDbEntity
  8
SLD-0
  6
HIDDEN
 62
     7
100
AcDbLine
 10
62.9171624351
 20
122.7490403614
 30
0.0
 11
62.9171624351
 21
117.7490404732
 31
0.0
  0
LINE
  5
76
330
1F
100
AcDbEntity
  8
SLD-0
  6
CENTERX2
 62
     7
100
AcDbLine
 10
90.4171628971
 20
115.7490404732
 30
0.0
 11
90.4171628971
 21
124.7490404732
 31
0.0
  0
LINE
  5
77
330
1F
100
AcDbEntity
  8
SLD-0
  6
CENTERX2
 62
     7
100
AcDbLine
 10
160.4171628971
 20
115.7490404732
 30
0.0
 11
160.4171628971
 21
124.7490404732
 31
0.0
  0
LINE
  5
78
330
1F
100
AcDbEntity
  8
SLD-0
  6
CENTERX2
 62
     7
100
AcDbLine
 10
71.4171628971
 20
115.7490404732
 30
0.0
 11
71.4171628971
 21
124.7490404732
 31
0.0
  0
LINE
  5
79
330
1F
100
AcDbEntity
  8
0
  6
Continuous
 62
     7
370
     0
100
AcDbLine
 10
20.2604743903
 20
285.0
 30
0.0
 11
196.7604743903
 21
285.0
 31
0.0
  0
LINE
  5
7A
330
1F
100
AcDbEntity
  8
0
  6
Continuous
 62
     7
370
     0
100
AcDbLine
 10
20.2604743903
 20
285.0
 30
0.0
 11
20.2604743903
 21
10.0
 31
0.0
  0
LINE
  5
7B
330
1F
100
AcDbEntity
  8
0
  6
Continuous
 62
     7
370
     0
100
AcDbLine
 10
20.2604743903
 20
10.0
 30
0.0
 11
196.7604743903
 21
10.0
 31
0.0
  0
LINE
  5
7C
330
1F
100
AcDbEntity
  8
0
  6
Continuous
 62
     7
370
     0
100
AcDbLine
 10
196.7604743903
 20
285.0
 30
0.0
 11
196.7604743903
 21
10.0
 31
0.0
  0
LINE
  5
7D
330
1F
100
AcDbEntity
  8
0
  6
Continuous
 62
     7
370
     0
100
AcDbLine
 10
127.0104743903
 20
50.75
 30
0.0
 11
196.7604743903
 21
50.75
 31
0.0
  0
LINE
  5
7E
330
1F
100
AcDbEntity
  8
0
  6
Continuous
 62
     7
370
     0
100
AcDbLine
 10
127.0104743903
 20
50.75
 30
0.0
 11
127.0104743903
 21
10.0
 31
0.0
  0
LINE
  5
7F
330
1F
100
AcDbEntity
  8
0
  6
Continuous
 62
     7
370
     0
100
AcDbLine
 10
127.0104743903
 20
22.75
 30
0.0
 11
196.7604743903
 21
22.75
 31
0.0
  0
LINE
  5
80
330
1F
100
AcDbEntity
  8
0
  6
Continuous
 62
     7
370
     0
100
AcDbLine
 10
127.0104743903
 20
36.75
 30
0.0
 11
196.7604743903
 21
36.75
 31
0.0
  0
ARC
  5
81
330
1F
100
AcDbEntity
  8
SLD-0
  6
Continuous
 62
     7
100
AcDbCircle
 10
90.4171628971
 20
168.7289253002
 30
0.0
 40
3.250000000000028
100
AcDbArc
 50
90.0
 51
270.0
  0
CIRCLE
  5
82
330
1F
100
AcDbEntity
  8
SLD-0
  6
Continuous
 62
     7
100
AcDbCircle
 10
71.4171628971
 20
168.7289253002
 30
0.0
 40
7.499999999999986
  0
ARC
  5
83
330
1F
100
AcDbEntity
  8
SLD-0
  6
Continuous
 62
     7
100
AcDbCircle
 10
160.4171628971
 20
168.7289253002
 30
0.0
 40
3.250000000000028
100
AcDbArc
 50
270.0
 51
90.0
  0
CIRCLE
  5
84
330
1F
100
AcDbEntity
  8
SLD-0
 62
     7
100
AcDbCircle
 10
71.4171628971
 20
168.7289253002
 30
0.0
 40
8.500000461900001
  0
DIMENSION
  5
85
330
1F
100
AcDbEntity
  8
SLD-0
 62
     7
100
AcDbDimension
  2
*D6
 10
90.4171628971
 20
198.0246044405
 30
0.0
 11
73.4171628971
 21
198.0246044405
 31
0.0
 70
   160
 71
     1
 42
34.0
  3
SLDDIMSTYLE0
100
AcDbAlignedDimension
 13
56.4171628971
 23
181.2289253002
 33
0.0
 14
90.4171628971
 24
168.7289253002
 34
0.0
100
AcDbRotatedDimension
1001
ACAD
1000
DSTYLE
1002
{
1070
    77
1070
     3
1070
   143
1040
0.0393700787
1070
    41
1040
3.0
1070
    44
1040
1.0
1070
    42
1040
1.0
1070
   147
1040
1.524
1070
    73
1070
     0
1070
    74
1070
     0
1070
   140
1040
3.5
1070
   284
1070
    12
1070
    78
1070
    12
1002
}
  0
DIMENSION
  5
A3
330
1F
100
AcDbEntity
  8
SLD-0
 62
     7
100
AcDbDimension
  2
*D8
 10
90.4171628971
 20
198.0246044405
 30
0.0
 11
125.4171628971
 21
198.0246044405
 31
0.0
 70
   160
 71
     1
 42
70.0
  3
SLDDIMSTYLE0
100
AcDbAlignedDimension
 13
160.4171628971
 23
168.7289253002
 33
0.0
 14
90.4171628971
 24
168.7289253002
 34
0.0
100
AcDbRotatedDimension
1001
ACAD
1000
DSTYLE
1002
{
1070
    77
1070
     3
1070
   143
1040
0.0393700787
1070
    41
1040
3.0
1070
    44
1040
1.0
1070
    42
1040
1.0
1070
   147
1040
1.524
1070
    73
1070
     0
1070
    74
1070
     0
1070
   140
1040
3.5
1070
   284
1070
    12
1070
    78
1070
    12
1002
}
  0
DIMENSION
  5
BA
330
1F
100
AcDbEntity
  8
SLD-0
 62
     7
100
AcDbDimension
  2
*D9
 10
119.7946275966
 20
171.9789253002
 30
0.0
 11
119.7946275966
 21
148.1409624164
 31
0.0
 70
   160
 71
     1
 42
6.5
  3
SLDDIMSTYLE1
100
AcDbAlignedDimension
 13
90.4171628971
 23
165.4789253002
 33
0.0
 14
90.4171628971
 24
171.9789253002
 34
0.0
 50
90.0
100
AcDbRotatedDimension
1001
ACAD
1000
DSTYLE
1002
{
1070
    77
1070
     3
1070
   143
1040
0.0393700787
1070
    41
1040
3.0
1070
    44
1040
1.0
1070
    42
1040
1.0
1070
   147
1040
1.524
1070
    73
1070
     0
1070
    74
1070
     0
1070
   140
1040
3.5
1070
   284
1070
    12
1070
    78
1070
    12
1002
}
  0
DIMENSION
  5
D4
330
1F
100
AcDbEntity
  8
SLD-0
100
AcDbDimension
  2
*D10
 10
183.2236595094
 20
168.7289253002
 30
0.0
 11
183.2236595094
 21
162.4789253002
 31
0.0
 70
   160
 71
     1
 42
12.5
  3
SLDDIMSTYLE1
100
AcDbAlignedDimension
 13
163.4171628971
 23
156.2289253002
 33
0.0
 14
162.4171628971
 24
168.7289253002
 34
0.0
 50
90.0
100
AcDbRotatedDimension
1001
ACAD
1000
DSTYLE
1002
{
1070
    77
1070
     3
1070
   143
1040
0.0393700787
1070
    41
1040
3.0
1070
    44
1040
1.0
1070
    42
1040
1.0
1070
   147
1040
1.524
1070
    73
1070
     0
1070
    74
1070
     0
1070
   140
1040
3.5
1070
   284
1070
    12
1070
    78
1070
    12
1002
}
  0
DIMENSION
  5
EE
330
1F
100
AcDbEntity
  8
SLD-0
100
AcDbDimension
  2
*D11
 10
51.372772166
 20
156.2289253002
 30
0.0
 11
51.372772166
 21
162.4789253002
 31
0.0
 70
   160
 71
     1
 42
12.5
  3
SLDDIMSTYLE1
100
AcDbAlignedDimension
 13
64.9671628971
 23
168.7289253002
 33
0.0
 14
59.4171628971
 24
156.2289253002
 34
0.0
 50
90.0
100
AcDbRotatedDimension
1001
ACAD
1000
DSTYLE
1002
{
1070
    77
1070
     3
1070
   143
1040
0.0393700787
1070
    41
1040
3.0
1070
    44
1040
1.0
1070
    42
1040
1.0
1070
   147
1040
1.524
1070
    73
1070
     0
1070
    74
1070
     0
1070
   140
1040
3.5
1070
   284
1070
    12
1070
    78
1070
    12
1002
}
  0
DIMENSION
  5
108
330
1F
100
AcDbEntity
  8
SLD-0
 62
     7
100
AcDbDimension
  2
*D12
 10
166.4171628971
 20
208.2162401754
 30
0.0
 11
111.4171628971
 21
208.2162401754
 31
0.0
 70
   160
 71
     1
 42
110.0
  3
SLDDIMSTYLE0
100
AcDbAlignedDimension
 13
56.4171628971
 23
168.7289253002
 33
0.0
 14
166.4171628971
 24
168.7289253002
 34
0.0
100
AcDbRotatedDimension
1001
ACAD
1000
DSTYLE
1002
{
1070
    77
1070
     3
1070
   143
1040
0.0393700787
1070
    41
1040
3.0
1070
    44
1040
1.0
1070
    42
1040
1.0
1070
   147
1040
1.524
1070
    73
1070
     0
1070
    74
1070
     0
1070
   140
1040
3.5
1070
   284
1070
    12
1070
    78
1070
    12
1002
}
  0
DIMENSION
  5
11F
330
1F
100
AcDbEntity
  8
SLD-0
 62
     7
100
AcDbDimension
  2
*D13
 10
160.4171628971
 20
168.7289253002
 30
0.0
 11
174.4615084031
 21
179.291734504
 31
0.0
 70
   164
  1
<>-R
 71
     1
 42
232.81562745
  3
SLDDIMSTYLE2
100
AcDbRadialDimension
 15
0.0
 25
0.0
 35
0.0
 40
0.0
1001
ACAD
1000
DSTYLE
1002
{
1070
    77
1070
     0
1070
   143
1040
0.0393700787
1070
    41
1040
3.0
1070
    44
1040
1.0
1070
    42
1040
1.0
1070
   147
1040
1.524
1070
    73
1070
     1
1070
    74
1070
     1
1070
   140
1040
3.5
1070
   284
1070
    12
1070
    78
1070
    12
1002
}
  0
DIMENSION
  5
12F
330
1F
100
AcDbEntity
  8
SLD-0
 62
     7
100
AcDbDimension
  2
*D14
 10
71.4171628971
 20
189.539127905
 30
0.0
 11
63.9171628971
 21
189.539127905
 31
0.0
 70
   160
 71
     1
 42
15.0
  3
SLDDIMSTYLE0
100
AcDbAlignedDimension
 13
56.4171628971
 23
168.7289253002
 33
0.0
 14
71.4171628971
 24
168.7289253002
 34
0.0
100
AcDbRotatedDimension
1001
ACAD
1000
DSTYLE
1002
{
1070
    77
1070
     3
1070
   143
1040
0.0393700787
1070
    41
1040
3.0
1070
    44
1040
1.0
1070
    42
1040
1.0
1070
   147
1040
1.524
1070
    73
1070
     0
1070
    74
1070
     0
1070
   140
1040
3.5
1070
   284
1070
    12
1070
    78
1070
    12
1002
}
  0
DIMENSION
  5
146
330
1F
100
AcDbEntity
  8
SLD-0
 62
     7
100
AcDbDimension
  2
*D15
 10
6.6263851669
 20
15.6553803382
 30
0.0
 11
86.1582676794
 21
-5.5254291776
 31
0.0
 70
   163
  1
M<> P=1<>
 71
     1
 42
16.999997468
  3
SLDDIMSTYLE3
100
AcDbDiametricDimension
 15
0.0
 25
0.0
 35
0.0
 40
0.0
1001
ACAD
1000
DSTYLE
1002
{
1070
    77
1070
     0
1070
   143
1040
0.0393700787
1070
    41
1040
3.0
1070
    44
1040
1.0
1070
    42
1040
1.0
1070
   147
1040
1.524
1070
    73
1070
     1
1070
    74
1070
     1
1070
   140
1040
3.5
1070
   284
1070
    12
1070
    78
1070
    12
1002
}
  0
DIMENSION
  5
159
330
1F
100
AcDbEntity
  8
SLD-0
 62
     7
100
AcDbDimension
  2
*D16
 10
41.8127110546
 20
181.2289253002
 30
0.0
 11
41.8127110546
 21
168.7289253002
 31
0.0
 70
   160
 71
     1
 42
25.0
  3
SLDDIMSTYLE0
100
AcDbAlignedDimension
 13
59.4171628971
 23
156.2289253002
 33
0.0
 14
59.4171628971
 24
181.2289253002
 34
0.0
 50
90.0
100
AcDbRotatedDimension
1001
ACAD
1000
DSTYLE
1002
{
1070
    77
1070
     3
1070
   143
1040
0.0393700787
1070
    41
1040
3.0
1070
    44
1040
1.0
1070
    42
1040
1.0
1070
   147
1040
1.524
1070
    73
1070
     0
1070
    74
1070
     0
1070
   140
1040
3.5
1070
   284
1070
    12
1070
    78
1070
    12
1002
}
  0
DIMENSION
  5
171
330
1F
100
AcDbEntity
  8
SLD-0
 62
     7
100
AcDbDimension
  2
*D17
 10
42.2665172101
 20
122.7490404732
 30
0.0
 11
42.2665172101
 21
120.2490404732
 31
0.0
 70
   160
 71
     1
 42
5.0
  3
SLDDIMSTYLE0
100
AcDbAlignedDimension
 13
56.4171628971
 23
117.7490404732
 33
0.0
 14
56.4171628971
 24
122.7490404732
 34
0.0
 50
90.0
100
AcDbRotatedDimension
1001
ACAD
1000
DSTYLE
1002
{
1070
    77
1070
     3
1070
   143
1040
0.0393700787
1070
    41
1040
3.0
1070
    44
1040
1.0
1070
    42
1040
1.0
1070
   147
1040
1.524
1070
    73
1070
     0
1070
    74
1070
     0
1070
   140
1040
3.5
1070
   284
1070
    12
1070
    78
1070
    12
1002
}
  0
MTEXT
  5
18B
330
1F
100
AcDbEntity
  8
SLD-0
 62
     7
100
AcDbMText
 10
173.2411767934
 20
152.8086177835
 30
0.0
 40
3.5
 41
0.0
 71
     1
 72
     1
  1
4-
  7
SLDTEXTSTYLE1
 11
0.5249578949006839
 21
-0.851128197501083
 31
0.0
 73
     1
 44
1.0
  0
MTEXT
  5
18C
330
1F
100
AcDbEntity
  8
SLD-0
 62
     7
100
AcDbMText
 10
175.379277866
 20
149.3420576463
 30
0.0
 40
3.5
 41
0.0
 71
     1
 72
     1
  1
C
  7
SLDTEXTSTYLE1
 11
0.5249578949006839
 21
-0.851128197501083
 31
0.0
 73
     1
 44
1.0
  0
MTEXT
  5
18D
330
1F
100
AcDbEntity
  8
SLD-0
 62
     7
100
AcDbMText
 10
176.4483284023
 20
147.6087775778
 30
0.0
 40
3.5
 41
0.0
 71
     1
 72
     1
  1
3
  7
SLDTEXTSTYLE1
 11
0.5249578949006839
 21
-0.851128197501083
 31
0.0
 73
     1
 44
1.0
  0
MTEXT
  5
18E
330
1F
100
AcDbEntity
  8
0
  6
Continuous
 62
     7
370
     0
100
AcDbMText
 10
147.3092643017
 20
32.1055705861
 30
0.0
 40
4.2333333333
 41
0.0
 71
     1
 72
     1
  1
N01863-124
  7
SLDTEXTSTYLE0
 73
     1
 44
1.0
  0
INSERT
  5
194
330
1F
100
AcDbEntity
  8
0
  6
Continuous
 62
     7
370
     0
100
AcDbBlockReference
  2
SW_NOTE_0
 10
146.6236712868
 20
44.1442849448
 30
0.0
  0
MTEXT
  5
195
330
1F
100
AcDbEntity
  8
0
  6
Continuous
 62
     7
370
     0
100
AcDbMText
 10
155.559727385
 20
16.2918259049
 30
0.0
 40
4.2333333333
 41
0.0
 71
     1
 72
     1
  1
131144
  7
SLDTEXTSTYLE0
 73
     1
 44
1.0
  0
INSERT
  5
196
330
1F
100
AcDbEntity
  8
0
  6
Continuous
 62
     7
370
     0
100
AcDbBlockReference
  2
_OPEN30
 10
164.9171628971
 20
157.7289253002
 30
0.0
 41
3.0
 42
3.0
 43
3.0
 50
121.4571522225
  0
INSERT
  5
197
330
1F
100
AcDbEntity
  8
0
  6
Continuous
 62
     7
370
     0
100
AcDbBlockReference
  2
SW_CENTERMARK0
 10
0.0
 20
0.0
 30
0.0
  0
INSERT
  5
198
330
1F
100
AcDbEntity
  8
0
  6
Continuous
 62
     7
370
     0
100
AcDbBlockReference
  2
SW_CENTERMARK1
 10
0.0
 20
0.0
 30
0.0
  0
INSERT
  5
199
330
1F
100
AcDbEntity
  8
0
  6
Continuous
 62
     7
370
     0
100
AcDbBlockReference
  2
SW_CENTERMARK2
 10
0.0
 20
0.0
 30
0.0
  0
ENDSEC
  0
SECTION
  2
OBJECTS
  0
DICTIONARY
  5
C
330
0
100
AcDbDictionary
281
     1
  3
ACAD_GROUP
350
D
  3
ACAD_LAYOUT
350
1A
  3
ACAD_MLINESTYLE
350
17
  3
ACAD_PLOTSETTINGS
350
19
  3
ACAD_PLOTSTYLENAME
350
E
  0
DICTIONARY
  5
D
102
{ACAD_REACTORS
330
C
102
}
330
C
100
AcDbDictionary
281
     1
  0
DICTIONARY
  5
1A
102
{ACAD_REACTORS
330
C
102
}
330
C
100
AcDbDictionary
281
     1
  3
Layout1
350
1E
  3
Layout2
350
26
  3
Model
350
22
  0
DICTIONARY
  5
17
102
{ACAD_REACTORS
330
C
102
}
330
C
100
AcDbDictionary
281
     1
  3
Standard
350
18
  0
DICTIONARY
  5
19
102
{ACAD_REACTORS
330
C
102
}
330
C
100
AcDbDictionary
281
     1
  0
ACDBDICTIONARYWDFLT
  5
E
102
{ACAD_REACTORS
330
C
102
}
330
C
100
AcDbDictionary
281
     1
  3
Normal
350
F
100
AcDbDictionaryWithDefault
340
F
  0
LAYOUT
  5
1E
102
{ACAD_REACTORS
330
1A
102
}
330
1A
100
AcDbPlotSettings
  1

  2

  4

  6

 40
0.0
 41
0.0
 42
0.0
 43
0.0
 44
0.0
 45
0.0
 46
0.0
 47
0.0
 48
0.0
 49
0.0
140
0.0
141
0.0
142
1.0
143
1.0
 70
   688
 72
     0
 73
     0
 74
     5
  7

 75
    16
147
1.0
148
0.0
149
0.0
100
AcDbLayout
  1
Layout1
 70
     1
 71
     1
 10
0.0
 20
0.0
 11
0.0
 21
0.0
 12
0.0
 22
0.0
 32
0.0
 14
0.0
 24
0.0
 34
0.0
 15
0.0
 25
0.0
 35
0.0
146
0.0
 13
0.0
 23
0.0
 33
0.0
 16
1.0
 26
0.0
 36
0.0
 17
0.0
 27
1.0
 37
0.0
 76
     0
330
1B
  0
LAYOUT
  5
26
102
{ACAD_REACTORS
330
1A
102
}
330
1A
100
AcDbPlotSettings
  1

  2

  4

  6

 40
0.0
 41
0.0
 42
0.0
 43
0.0
 44
0.0
 45
0.0
 46
0.0
 47
0.0
 48
0.0
 49
0.0
140
0.0
141
0.0
142
1.0
143
1.0
 70
   688
 72
     0
 73
     0
 74
     5
  7

 75
    16
147
1.0
148
0.0
149
0.0
100
AcDbLayout
  1
Layout2
 70
     1
 71
     2
 10
0.0
 20
0.0
 11
0.0
 21
0.0
 12
0.0
 22
0.0
 32
0.0
 14
0.0
 24
0.0
 34
0.0
 15
0.0
 25
0.0
 35
0.0
146
0.0
 13
0.0
 23
0.0
 33
0.0
 16
1.0
 26
0.0
 36
0.0
 17
0.0
 27
1.0
 37
0.0
 76
     0
330
23
  0
LAYOUT
  5
22
102
{ACAD_REACTORS
330
1A
102
}
330
1A
100
AcDbPlotSettings
  1

  2

  4

  6

 40
0.0
 41
0.0
 42
0.0
 43
0.0
 44
0.0
 45
0.0
 46
0.0
 47
0.0
 48
0.0
 49
0.0
140
0.0
141
0.0
142
1.0
143
1.0
 70
  1712
 72
     0
 73
     0
 74
     0
  7

 75
     0
147
1.0
148
0.0
149
0.0
100
AcDbLayout
  1
Model
 70
     1
 71
     0
 10
0.0
 20
0.0
 11
0.0
 21
0.0
 12
0.0
 22
0.0
 32
0.0
 14
0.0
 24
0.0
 34
0.0
 15
210.0
 25
297.0
 35
0.0
146
0.0
 13
0.0
 23
0.0
 33
0.0
 16
1.0
 26
0.0
 36
0.0
 17
0.0
 27
1.0
 37
0.0
 76
     0
330
1F
  0
MLINESTYLE
  5
18
102
{ACAD_REACTORS
330
17
102
}
330
17
100
AcDbMlineStyle
  2
Standard
 70
     0
  3

 62
   256
 51
90.0
 52
90.0
 71
     2
 49
0.5
 62
   256
  6
BYLAYER
 49
-0.5
 62
   256
  6
BYLAYER
  0
ACDBPLACEHOLDER
  5
F
102
{ACAD_REACTORS
330
E
102
}
330
E
  0
ENDSEC
  0
EOF
