  0
SECTION
  2
HEADER
  9
$ACADVER
  1
AC1015
  9
$ACADMAINTVER
 70
     6
  9
$DWGCODEPAGE
  3
DOS932
  9
$INSBASE
 10
0.0
 20
0.0
 30
0.0
  9
$EXTMIN
 10
0.0
 20
0.0
 30
0.0
  9
$EXTMAX
 10
210.0
 20
297.0
 30
0.0
  9
$LIMMIN
 10
0.0
 20
0.0
  9
$LIMMAX
 10
0.0
 20
0.0
  9
$ORTHOMODE
 70
     0
  9
$REGENMODE
 70
     1
  9
$FILLMODE
 70
     1
  9
$QTEXTMODE
 70
     0
  9
$MIRRTEXT
 70
     1
  9
$LTSCALE
 40
1.0
  9
$ATTMODE
 70
     1
  9
$TEXTSIZE
 40
3.5
  9
$TRACEWID
 40
1.0
  9
$TEXTSTYLE
  7
Standard
  9
$CLAYER
  8
0
  9
$CELTYPE
  6
ByLayer
  9
$CECOLOR
 62
   256
  9
$CELTSCALE
 40
1.0
  9
$DISPSILH
 70
     0
  9
$DIMSCALE
 40
1.0
  9
$DIMASZ
 40
3.0
  9
$DIMEXO
 40
1.0
  9
$DIMDLI
 40
3.75
  9
$DIMRND
 40
0.0
  9
$DIMDLE
 40
0.0
  9
$DIMEXE
 40
1.0
  9
$DIMTP
 40
0.0
  9
$DIMTM
 40
0.0
  9
$DIMTXT
 40
3.5
  9
$DIMCEN
 40
2.5
  9
$DIMTSZ
 40
0.0
  9
$DIMTOL
 70
     0
  9
$DIMLIM
 70
     0
  9
$DIMTIH
 70
     1
  9
$DIMTOH
 70
     1
  9
$DIMSE1
 70
     0
  9
$DIMSE2
 70
     0
  9
$DIMTAD
 70
     1
  9
$DIMZIN
 70
     1
  9
$DIMBLK
  1

  9
$DIMASO
 70
     1
  9
$DIMSHO
 70
     1
  9
$DIMPOST
  1

  9
$DIMAPOST
  1

  9
$DIMALT
 70
     0
  9
$DIMALTD
 70
     3
  9
$DIMALTF
 40
0.0393700787
  9
$DIMLFAC
 40
1.0
  9
$DIMTOFL
 70
     1
  9
$DIMTVP
 40
0.0
  9
$DIMTIX
 70
     0
  9
$DIMSOXD
 70
     0
  9
$DIMSAH
 70
     0
  9
$DIMBLK1
  1

  9
$DIMBLK2
  1

  9
$DIMSTYLE
  2
ISO-25
  9
$DIMCLRD
 70
     0
  9
$DIMCLRE
 70
     0
  9
$DIMCLRT
 70
     0
  9
$DIMTFAC
 40
1.0
  9
$DIMGAP
 40
1.524
  9
$DIMJUST
 70
     0
  9
$DIMSD1
 70
     0
  9
$DIMSD2
 70
     0
  9
$DIMTOLJ
 70
     0
  9
$DIMTZIN
 70
     1
  9
$DIMALTZ
 70
     0
  9
$DIMALTTZ
 70
     0
  9
$DIMUPT
 70
     0
  9
$DIMDEC
 70
     2
  9
$DIMTDEC
 70
     2
  9
$DIMALTU
 70
     2
  9
$DIMALTTD
 70
     3
  9
$DIMTXSTY
  7
Standard
  9
$DIMAUNIT
 70
     0
  9
$DIMADEC
 70
     0
  9
$DIMALTRND
 40
0.0
  9
$DIMAZIN
 70
     0
  9
$DIMDSEP
 70
    44
  9
$DIMATFIT
 70
     3
  9
$DIMFRAC
 70
     0
  9
$DIMLDRBLK
  1

  9
$DIMLUNIT
 70
     2
  9
$DIMLWD
 70
    -2
  9
$DIMLWE
 70
    -2
  9
$DIMTMOVE
 70
     0
  9
$LUNITS
 70
     2
  9
$LUPREC
 70
     1
  9
$SKETCHINC
 40
1.0
  9
$FILLETRAD
 40
10.0
  9
$AUNITS
 70
     0
  9
$AUPREC
 70
     0
  9
$MENU
  1
.
  9
$ELEVATION
 40
0.0
  9
$PELEVATION
 40
0.0
  9
$THICKNESS
 40
0.0
  9
$LIMCHECK
 70
     0
  9
$CHAMFERA
 40
10.0
  9
$CHAMFERB
 40
10.0
  9
$CHAMFERC
 40
20.0
  9
$CHAMFERD
 40
0.0
  9
$SKPOLY
 70
     0
  9
$TDCREATE
 40
2454359.558850729
  9
$TDUCREATE
 40
2454359.183850729
  9
$TDUPDATE
 40
2454359.558850741
  9
$TDUUPDATE
 40
2454359.183850741
  9
$TDINDWG
 40
0.0000000116
  9
$TDUSRTIMER
 40
0.0000000116
  9
$USRTIMER
 70
     1
  9
$ANGBASE
 50
0.0
  9
$ANGDIR
 70
     0
  9
$PDMODE
 70
     0
  9
$PDSIZE
 40
-1.0
  9
$PLINEWID
 40
0.0
  9
$SPLFRAME
 70
     0
  9
$SPLINETYPE
 70
     6
  9
$SPLINESEGS
 70
     8
  9
$HANDSEED
  5
25E
  9
$SURFTAB1
 70
     6
  9
$SURFTAB2
 70
     6
  9
$SURFTYPE
 70
     6
  9
$SURFU
 70
     6
  9
$SURFV
 70
     6
  9
$UCSBASE
  2

  9
$UCSNAME
  2

  9
$UCSORG
 10
0.0
 20
0.0
 30
0.0
  9
$UCSXDIR
 10
1.0
 20
0.0
 30
0.0
  9
$UCSYDIR
 10
0.0
 20
1.0
 30
0.0
  9
$UCSORTHOREF
  2

  9
$UCSORTHOVIEW
 70
     0
  9
$UCSORGTOP
 10
0.0
 20
0.0
 30
0.0
  9
$UCSORGBOTTOM
 10
0.0
 20
0.0
 30
0.0
  9
$UCSORGLEFT
 10
0.0
 20
0.0
 30
0.0
  9
$UCSORGRIGHT
 10
0.0
 20
0.0
 30
0.0
  9
$UCSORGFRONT
 10
0.0
 20
0.0
 30
0.0
  9
$UCSORGBACK
 10
0.0
 20
0.0
 30
0.0
  9
$PUCSBASE
  2

  9
$PUCSNAME
  2

  9
$PUCSORG
 10
0.0
 20
0.0
 30
0.0
  9
$PUCSXDIR
 10
1.0
 20
0.0
 30
0.0
  9
$PUCSYDIR
 10
0.0
 20
1.0
 30
0.0
  9
$PUCSORTHOREF
  2

  9
$PUCSORTHOVIEW
 70
     0
  9
$PUCSORGTOP
 10
0.0
 20
0.0
 30
0.0
  9
$PUCSORGBOTTOM
 10
0.0
 20
0.0
 30
0.0
  9
$PUCSORGLEFT
 10
0.0
 20
0.0
 30
0.0
  9
$PUCSORGRIGHT
 10
0.0
 20
0.0
 30
0.0
  9
$PUCSORGFRONT
 10
0.0
 20
0.0
 30
0.0
  9
$PUCSORGBACK
 10
0.0
 20
0.0
 30
0.0
  9
$USERI1
 70
     0
  9
$USERI2
 70
     0
  9
$USERI3
 70
     0
  9
$USERI4
 70
     0
  9
$USERI5
 70
     0
  9
$USERR1
 40
0.0
  9
$USERR2
 40
0.0
  9
$USERR3
 40
0.0
  9
$USERR4
 40
0.0
  9
$USERR5
 40
0.0
  9
$WORLDVIEW
 70
     1
  9
$SHADEDGE
 70
     3
  9
$SHADEDIF
 70
    70
  9
$TILEMODE
 70
     1
  9
$MAXACTVP
 70
    64
  9
$PINSBASE
 10
0.0
 20
0.0
 30
0.0
  9
$PLIMCHECK
 70
     0
  9
$PEXTMIN
 10
1.0000000000E+20
 20
1.0000000000E+20
 30
1.0000000000E+20
  9
$PEXTMAX
 10
-1.0000000000E+20
 20
-1.0000000000E+20
 30
-1.0000000000E+20
  9
$PLIMMIN
 10
0.0
 20
0.0
  9
$PLIMMAX
 10
420.0
 20
297.0
  9
$UNITMODE
 70
     0
  9
$VISRETAIN
 70
     1
  9
$PLINEGEN
 70
     0
  9
$PSLTSCALE
 70
     1
  9
$TREEDEPTH
 70
  3020
  9
$CMLSTYLE
  2
Standard
  9
$CMLJUST
 70
     0
  9
$CMLSCALE
 40
20.0
  9
$PROXYGRAPHICS
 70
     1
  9
$MEASUREMENT
 70
     1
  9
$CELWEIGHT
370
    -1
  9
$ENDCAPS
280
     0
  9
$JOINSTYLE
280
     0
  9
$LWDISPLAY
290
     1
  9
$INSUNITS
 70
     4
  9
$HYPERLINKBASE
  1

  9
$STYLESHEET
  1

  9
$XEDIT
290
     1
  9
$CEPSNTYPE
380
     0
  9
$PSTYLEMODE
290
     1
  9
$FINGERPRINTGUID
  2
{35CBB916-2ED2-4B36-957E-A11D8F58F930}
  9
$VERSIONGUID
  2
{FAEB1C32-E019-11D5-929B-00C0DF256EC4}
  9
$EXTNAMES
290
     1
  9
$PSVPSCALE
 40
0.0
  9
$OLESTARTUP
290
     0
  0
ENDSEC
  0
SECTION
  2
CLASSES
  0
CLASS
  1
ACDBDICTIONARYWDFLT
  2
AcDbDictionaryWithDefault
  3
ObjectDBX Classes
 90
        0
280
     0
281
     0
  0
CLASS
  1
ACDBPLACEHOLDER
  2
AcDbPlaceHolder
  3
ObjectDBX Classes
 90
        0
280
     0
281
     0
  0
CLASS
  1
LAYOUT
  2
AcDbLayout
  3
ObjectDBX Classes
 90
        0
280
     0
281
     0
  0
ENDSEC
  0
SECTION
  2
TABLES
  0
TABLE
  2
VPORT
  5
8
330
0
100
AcDbSymbolTable
 70
     1
  0
VPORT
  5
29
330
8
100
AcDbSymbolTableRecord
100
AcDbViewportTableRecord
  2
*Active
 70
     0
 10
0.0
 20
0.0
 11
1.0
 21
1.0
 12
105.0
 22
148.5
 13
0.0
 23
0.0
 14
10.0
 24
10.0
 15
10.0
 25
10.0
 16
0.0
 26
0.0
 36
1.0
 17
0.0
 27
0.0
 37
0.0
 40
297.0
 41
1.9729729729
 42
50.0
 43
0.0
 44
0.0
 50
0.0
 51
0.0
 71
     0
 72
  2000
 73
     1
 74
     3
 75
     0
 76
     0
 77
     0
 78
     0
281
     0
 65
     1
110
0.0
120
0.0
130
0.0
111
1.0
121
0.0
131
0.0
112
0.0
122
1.0
132
0.0
 79
     0
146
0.0
  0
ENDTAB
  0
TABLE
  2
LTYPE
  5
5
330
0
100
AcDbSymbolTable
 70
     6
  0
LTYPE
  5
14
330
5
100
AcDbSymbolTableRecord
100
AcDbLinetypeTableRecord
  2
ByBlock
 70
     0
  3

 72
    65
 73
     0
 40
0.0
  0
LTYPE
  5
15
330
5
100
AcDbSymbolTableRecord
100
AcDbLinetypeTableRecord
  2
ByLayer
 70
     0
  3

 72
    65
 73
     0
 40
0.0
  0
LTYPE
  5
16
330
5
100
AcDbSymbolTableRecord
100
AcDbLinetypeTableRecord
  2
Continuous
 70
     0
  3
Solid line
 72
    65
 73
     0
 40
0.0
  0
LTYPE
  5
2A
330
5
100
AcDbSymbolTableRecord
100
AcDbLinetypeTableRecord
  2
HIDDEN
 70
     0
  3
Hidden __ __ __ __ __ __ __ __ __ __ __ __ __ __
 72
    65
 73
     2
 40
1.905
 49
1.27
 74
     0
 49
-0.635
 74
     0
  0
LTYPE
  5
2B
330
5
100
AcDbSymbolTableRecord
100
AcDbLinetypeTableRecord
  2
PHANTOM
 70
     0
  3
Phantom ______  __  __  ______  __  __  ______
 72
    65
 73
     6
 40
12.7
 49
6.35
 74
     0
 49
-1.27
 74
     0
 49
1.27
 74
     0
 49
-1.27
 74
     0
 49
1.27
 74
     0
 49
-1.27
 74
     0
  0
LTYPE
  5
2C
330
5
100
AcDbSymbolTableRecord
100
AcDbLinetypeTableRecord
  2
CENTER
 70
     0
  3
Center ____ _ ____ _ ____ _ ____ _ ____ _ ____
 72
    65
 73
     4
 40
10.16
 49
6.35
 74
     0
 49
-1.27
 74
     0
 49
1.27
 74
     0
 49
-1.27
 74
     0
  0
LTYPE
  5
2D
330
5
100
AcDbSymbolTableRecord
100
AcDbLinetypeTableRecord
  2
CENTERX2
 70
     0
  3
Center (2x) ________  __  ________  __  _____
 72
    65
 73
     4
 40
20.32
 49
12.7
 74
     0
 49
-2.54
 74
     0
 49
2.54
 74
     0
 49
-2.54
 74
     0
  0
LTYPE
  5
2E
330
5
100
AcDbSymbolTableRecord
100
AcDbLinetypeTableRecord
  2
DOT2
 70
     0
  3
Dot (.5x) ........................................
 72
    65
 73
     2
 40
0.635
 49
0.0
 74
     0
 49
-0.635
 74
     0
  0
ENDTAB
  0
TABLE
  2
LAYER
  5
2
330
0
100
AcDbSymbolTable
 70
     4
  0
LAYER
  5
10
330
2
100
AcDbSymbolTableRecord
100
AcDbLayerTableRecord
  2
0
 70
     0
 62
     7
  6
Continuous
370
    -3
390
F
  0
LAYER
  5
2F
330
2
100
AcDbSymbolTableRecord
100
AcDbLayerTableRecord
  2
SLD-0
 70
     0
 62
     7
  6
Continuous
370
     0
390
F
  0
LAYER
  5
30
330
2
100
AcDbSymbolTableRecord
100
AcDbLayerTableRecord
  2
SLD-DEFPOINTS
 70
     0
 62
     7
  6
Continuous
370
     0
390
F
  0
LAYER
  5
CC
330
2
100
AcDbSymbolTableRecord
100
AcDbLayerTableRecord
  2
Defpoints
 70
     0
 62
     7
  6
Continuous
290
     0
370
    -3
390
F
  0
ENDTAB
  0
TABLE
  2
STYLE
  5
3
330
0
100
AcDbSymbolTable
 70
     4
  0
STYLE
  5
11
330
3
100
AcDbSymbolTableRecord
100
AcDbTextStyleTableRecord
  2
Standard
 70
     0
 40
0.0
 41
1.0
 50
0.0
 71
     0
 42
2.5
  3
txt
  4
bigfont
  0
STYLE
  5
34
330
3
100
AcDbSymbolTableRecord
100
AcDbTextStyleTableRecord
  2
SLDTEXTSTYLE0
 70
     0
 40
0.0
 41
0.7
 50
0.0
 71
     0
 42
0.2
  3
TXT
  4
bigfont
  0
STYLE
  5
D9
330
3
100
AcDbSymbolTableRecord
100
AcDbTextStyleTableRecord
  2
SLDTEXTSTYLE1
 70
     0
 40
0.0
 41
0.75
 50
0.0
 71
     0
 42
0.2
  3
TXT
  4
bigfont
  0
STYLE
  5
E7
330
3
100
AcDbSymbolTableRecord
100
AcDbTextStyleTableRecord
  2
SLDTEXTSTYLE2
 70
     0
 40
0.0
 41
0.96
 50
0.0
 71
     0
 42
0.2
  3
TXT
  4
bigfont
  0
ENDTAB
  0
TABLE
  2
VIEW
  5
6
330
0
100
AcDbSymbolTable
 70
     0
  0
ENDTAB
  0
TABLE
  2
UCS
  5
7
330
0
100
AcDbSymbolTable
 70
     0
  0
ENDTAB
  0
TABLE
  2
APPID
  5
9
330
0
100
AcDbSymbolTable
 70
     1
  0
APPID
  5
12
330
9
100
AcDbSymbolTableRecord
100
AcDbRegAppTableRecord
  2
ACAD
 70
     0
  0
ENDTAB
  0
TABLE
  2
DIMSTYLE
  5
A
330
0
100
AcDbSymbolTable
 70
     5
100
AcDbDimStyleTable
  0
DIMSTYLE
105
27
330
A
100
AcDbSymbolTableRecord
100
AcDbDimStyleTableRecord
  2
ISO-25
 70
     0
 41
2.5
 42
0.625
 43
3.75
 44
1.25
 73
     0
 74
     0
 77
     1
 78
     8
140
2.5
141
2.5
143
0.0393700787
147
0.625
171
     3
172
     1
271
     2
272
     2
274
     3
278
    44
283
     0
284
     8
340
11
  0
DIMSTYLE
105
DA
102
{ACAD_REACTORS
330
CB
330
E9
330
11A
330
134
330
16E
330
188
330
1A2
330
1BA
330
1D4
330
1EB
330
203
330
230
102
}
330
A
100
AcDbSymbolTableRecord
100
AcDbDimStyleTableRecord
  2
SLDDIMSTYLE0
 70
     0
 41
3.0
 44
0.0
 73
     0
 74
     0
 77
     3
 78
    12
140
3.5
147
0.875
173
     1
271
     0
272
     2
284
    12
340
D9
341
DB
343
DB
344
DB
  0
DIMSTYLE
105
10F
102
{ACAD_REACTORS
330
100
102
}
330
A
100
AcDbSymbolTableRecord
100
AcDbDimStyleTableRecord
  2
SLDDIMSTYLE1
 70
     0
 41
3.0
 44
0.0
 73
     0
 74
     0
 77
     3
 78
    12
140
3.5
147
0.875
173
     1
271
     1
272
     2
284
    12
340
D9
341
DB
343
DB
344
DB
  0
DIMSTYLE
105
155
102
{ACAD_REACTORS
330
14B
102
}
330
A
100
AcDbSymbolTableRecord
100
AcDbDimStyleTableRecord
  2
SLDDIMSTYLE2
 70
     0
 41
3.0
 44
0.0
 78
    12
140
3.5
147
0.875
173
     1
271
     0
272
     2
284
    12
340
D9
341
DB
343
DB
344
DB
  0
DIMSTYLE
105
165
102
{ACAD_REACTORS
330
15B
330
21E
102
}
330
A
100
AcDbSymbolTableRecord
100
AcDbDimStyleTableRecord
  2
SLDDIMSTYLE3
 70
     0
 41
3.0
 44
0.0
 78
    12
140
3.5
147
0.875
172
     1
173
     1
271
     0
272
     2
284
    12
340
D9
341
DB
343
DB
344
DB
  0
ENDTAB
  0
TABLE
  2
BLOCK_RECORD
  5
1
330
0
100
AcDbSymbolTable
 70
    25
  0
BLOCK_RECORD
  5
1F
330
1
100
AcDbSymbolTableRecord
100
AcDbBlockTableRecord
  2
*Model_Space
340
22
  0
BLOCK_RECORD
  5
1B
330
1
100
AcDbSymbolTableRecord
100
AcDbBlockTableRecord
  2
*Paper_Space
340
1E
  0
BLOCK_RECORD
  5
23
330
1
100
AcDbSymbolTableRecord
100
AcDbBlockTableRecord
  2
*Paper_Space0
340
26
  0
BLOCK_RECORD
  5
31
330
1
100
AcDbSymbolTableRecord
100
AcDbBlockTableRecord
  2
注記
340
0
  0
BLOCK_RECORD
  5
37
330
1
100
AcDbSymbolTableRecord
100
AcDbBlockTableRecord
  2
_OPEN30
340
0
102
{BLKREFS
331
258
331
259
102
}
  0
BLOCK_RECORD
  5
3D
330
1
100
AcDbSymbolTableRecord
100
AcDbBlockTableRecord
  2
SW_CENTERMARK0
340
0
102
{BLKREFS
331
25A
102
}
  0
BLOCK_RECORD
  5
44
330
1
100
AcDbSymbolTableRecord
100
AcDbBlockTableRecord
  2
SW_CENTERMARK1
340
0
102
{BLKREFS
331
25B
102
}
  0
BLOCK_RECORD
  5
4B
330
1
100
AcDbSymbolTableRecord
100
AcDbBlockTableRecord
  2
SW_CENTERMARK2
340
0
102
{BLKREFS
331
25C
102
}
  0
BLOCK_RECORD
  5
56
330
1
100
AcDbSymbolTableRecord
100
AcDbBlockTableRecord
  2
SW_CENTERMARK3
340
0
102
{BLKREFS
331
25D
102
}
  0
BLOCK_RECORD
  5
CD
330
1
100
AcDbSymbolTableRecord
100
AcDbBlockTableRecord
  2
*D7
340
0
  0
BLOCK_RECORD
  5
DB
330
1
100
AcDbSymbolTableRecord
100
AcDbBlockTableRecord
  2
_None
340
0
102
{BLKREFS
331
D2
331
D1
331
EF
331
EE
331
107
331
106
331
120
331
11F
331
13A
331
139
331
150
331
160
331
174
331
173
331
18E
331
18D
331
1A8
331
1A7
331
1C0
331
1BF
331
1DA
331
1D9
331
1F1
331
1F0
331
20A
331
209
331
223
331
236
331
235
102
}
  0
BLOCK_RECORD
  5
EA
330
1
100
AcDbSymbolTableRecord
100
AcDbBlockTableRecord
  2
*D9
340
0
  0
BLOCK_RECORD
  5
101
330
1
100
AcDbSymbolTableRecord
100
AcDbBlockTableRecord
  2
*D10
340
0
  0
BLOCK_RECORD
  5
11B
330
1
100
AcDbSymbolTableRecord
100
AcDbBlockTableRecord
  2
*D11
340
0
  0
BLOCK_RECORD
  5
135
330
1
100
AcDbSymbolTableRecord
100
AcDbBlockTableRecord
  2
*D12
340
0
  0
BLOCK_RECORD
  5
14C
330
1
100
AcDbSymbolTableRecord
100
AcDbBlockTableRecord
  2
*D13
340
0
  0
BLOCK_RECORD
  5
15C
330
1
100
AcDbSymbolTableRecord
100
AcDbBlockTableRecord
  2
*D14
340
0
  0
BLOCK_RECORD
  5
16F
330
1
100
AcDbSymbolTableRecord
100
AcDbBlockTableRecord
  2
*D15
340
0
  0
BLOCK_RECORD
  5
189
330
1
100
AcDbSymbolTableRecord
100
AcDbBlockTableRecord
  2
*D16
340
0
  0
BLOCK_RECORD
  5
1A3
330
1
100
AcDbSymbolTableRecord
100
AcDbBlockTableRecord
  2
*D17
340
0
  0
BLOCK_RECORD
  5
1BB
330
1
100
AcDbSymbolTableRecord
100
AcDbBlockTableRecord
  2
*D18
340
0
  0
BLOCK_RECORD
  5
1D5
330
1
100
AcDbSymbolTableRecord
100
AcDbBlockTableRecord
  2
*D19
340
0
  0
BLOCK_RECORD
  5
1EC
330
1
100
AcDbSymbolTableRecord
100
AcDbBlockTableRecord
  2
*D20
340
0
  0
BLOCK_RECORD
  5
204
330
1
100
AcDbSymbolTableRecord
100
AcDbBlockTableRecord
  2
*D21
340
0
  0
BLOCK_RECORD
  5
21F
330
1
100
AcDbSymbolTableRecord
100
AcDbBlockTableRecord
  2
*D22
340
0
  0
BLOCK_RECORD
  5
231
330
1
100
AcDbSymbolTableRecord
100
AcDbBlockTableRecord
  2
*D23
340
0
  0
BLOCK_RECORD
  5
251
330
1
100
AcDbSymbolTableRecord
100
AcDbBlockTableRecord
  2
SW_NOTE_0
340
0
102
{BLKREFS
331
256
102
}
  0
ENDTAB
  0
ENDSEC
  0
SECTION
  2
BLOCKS
  0
BLOCK
  5
20
330
1F
100
AcDbEntity
  8
0
100
AcDbBlockBegin
  2
*Model_Space
 70
     0
 71
     0
 10
0.0
 20
0.0
 30
0.0
  3
*Model_Space
  1

  0
ENDBLK
  5
21
330
1F
100
AcDbEntity
  8
0
100
AcDbBlockEnd
  0
BLOCK
  5
1C
330
1B
100
AcDbEntity
 67
     1
  8
0
100
AcDbBlockBegin
  2
*Paper_Space
 70
     0
 71
     0
 10
0.0
 20
0.0
 30
0.0
  3
*Paper_Space
  1

  0
ENDBLK
  5
1D
330
1B
100
AcDbEntity
 67
     1
  8
0
100
AcDbBlockEnd
  0
BLOCK
  5
24
330
23
100
AcDbEntity
  8
0
100
AcDbBlockBegin
  2
*Paper_Space0
 70
     0
 71
     0
 10
0.0
 20
0.0
 30
0.0
  3
*Paper_Space0
  1

  0
ENDBLK
  5
25
330
23
100
AcDbEntity
  8
0
100
AcDbBlockEnd
  0
BLOCK
  5
32
330
31
100
AcDbEntity
  8
0
100
AcDbBlockBegin
  2
注記
 70
     0
 71
     0
 10
0.0
 20
0.0
 30
0.0
  3
注記
  1

  0
MTEXT
  5
35
330
31
100
AcDbEntity
  8
0
  6
Continuous
 62
     7
370
     0
100
AcDbMText
 10
0.2636785918
 20
9.0739778448
 30
0.0
 40
3.5
 41
0.0
 71
     1
 72
     1
  1
１．特記ナキ角部ハ、バリ　カエリノ無キコト。
  7
SLDTEXTSTYLE0
 73
     1
 44
1.0
  0
MTEXT
  5
36
330
31
100
AcDbEntity
  8
0
  6
Continuous
 62
     7
370
     0
100
AcDbMText
 10
0.2636785918
 20
3.5759549983
 30
0.0
 40
3.5
 41
0.0
 71
     1
 72
     1
  1
２．特記ナキ隅部ハ、Ｒ０．４ＭＡＸトスル。
  7
SLDTEXTSTYLE0
 73
     1
 44
1.0
  0
ENDBLK
  5
33
330
31
100
AcDbEntity
  8
0
100
AcDbBlockEnd
  0
BLOCK
  5
38
330
37
100
AcDbEntity
  8
0
100
AcDbBlockBegin
  2
_OPEN30
 70
     0
 71
     0
 10
0.0
 20
0.0
 30
0.0
  3
_OPEN30
  1

  0
LINE
  5
3A
330
37
100
AcDbEntity
  8
SLD-0
  6
Continuous
100
AcDbLine
 10
-1.0
 20
0.267949
 30
0.0
 11
0.0
 21
0.0
 31
0.0
  0
LINE
  5
3B
330
37
100
AcDbEntity
  8
SLD-0
  6
Continuous
100
AcDbLine
 10
0.0
 20
0.0
 30
0.0
 11
-1.0
 21
-0.267949
 31
0.0
  0
LINE
  5
3C
330
37
100
AcDbEntity
  8
SLD-0
  6
Continuous
100
AcDbLine
 10
0.0
 20
0.0
 30
0.0
 11
-1.0
 21
0.0
 31
0.0
  0
ENDBLK
  5
39
330
37
100
AcDbEntity
  8
0
100
AcDbBlockEnd
  0
BLOCK
  5
3E
330
3D
100
AcDbEntity
  8
0
100
AcDbBlockBegin
  2
SW_CENTERMARK0
 70
     0
 71
     0
 10
0.0
 20
0.0
 30
0.0
  3
SW_CENTERMARK0
  1

  0
LINE
  5
40
330
3D
100
AcDbEntity
  8
SLD-0
  6
Continuous
 62
     7
100
AcDbLine
 10
100.9765316567
 20
196.9698764227
 30
0.0
 11
100.9765316567
 21
199.4698764227
 31
0.0
  0
LINE
  5
41
330
3D
100
AcDbEntity
  8
SLD-0
  6
Continuous
 62
     7
100
AcDbLine
 10
100.9765316567
 20
196.9698764227
 30
0.0
 11
98.4765316567
 21
196.9698764227
 31
0.0
  0
LINE
  5
42
330
3D
100
AcDbEntity
  8
SLD-0
  6
Continuous
 62
     7
100
AcDbLine
 10
100.9765316567
 20
196.9698764227
 30
0.0
 11
100.9765316567
 21
194.4698764227
 31
0.0
  0
LINE
  5
43
330
3D
100
AcDbEntity
  8
SLD-0
  6
Continuous
 62
     7
100
AcDbLine
 10
100.9765316567
 20
196.9698764227
 30
0.0
 11
103.4765316567
 21
196.9698764227
 31
0.0
  0
ENDBLK
  5
3F
330
3D
100
AcDbEntity
  8
0
100
AcDbBlockEnd
  0
BLOCK
  5
45
330
44
100
AcDbEntity
  8
0
100
AcDbBlockBegin
  2
SW_CENTERMARK1
 70
     0
 71
     0
 10
0.0
 20
0.0
 30
0.0
  3
SW_CENTERMARK1
  1

  0
LINE
  5
47
330
44
100
AcDbEntity
  8
SLD-0
  6
Continuous
 62
     7
100
AcDbLine
 10
140.9765316567
 20
196.9698764227
 30
0.0
 11
140.9765316567
 21
199.4698764227
 31
0.0
  0
LINE
  5
48
330
44
100
AcDbEntity
  8
SLD-0
  6
Continuous
 62
     7
100
AcDbLine
 10
140.9765316567
 20
196.9698764227
 30
0.0
 11
138.4765316567
 21
196.9698764227
 31
0.0
  0
LINE
  5
49
330
44
100
AcDbEntity
  8
SLD-0
  6
Continuous
 62
     7
100
AcDbLine
 10
140.9765316567
 20
196.9698764227
 30
0.0
 11
140.9765316567
 21
194.4698764227
 31
0.0
  0
LINE
  5
4A
330
44
100
AcDbEntity
  8
SLD-0
  6
Continuous
 62
     7
100
AcDbLine
 10
140.9765316567
 20
196.9698764227
 30
0.0
 11
143.4765316567
 21
196.9698764227
 31
0.0
  0
ENDBLK
  5
46
330
44
100
AcDbEntity
  8
0
100
AcDbBlockEnd
  0
BLOCK
  5
4C
330
4B
100
AcDbEntity
  8
0
100
AcDbBlockBegin
  2
SW_CENTERMARK2
 70
     0
 71
     0
 10
0.0
 20
0.0
 30
0.0
  3
SW_CENTERMARK2
  1

  0
LINE
  5
4E
330
4B
100
AcDbEntity
  8
SLD-0
  6
Continuous
 62
     7
100
AcDbLine
 10
85.9765316567
 20
196.9698764227
 30
0.0
 11
85.9765316567
 21
199.4698764227
 31
0.0
  0
LINE
  5
4F
330
4B
100
AcDbEntity
  8
SLD-0
  6
Continuous
 62
     7
100
AcDbLine
 10
85.9765316567
 20
196.9698764227
 30
0.0
 11
83.4765317126
 21
196.9698764227
 31
0.0
  0
LINE
  5
50
330
4B
100
AcDbEntity
  8
SLD-0
  6
Continuous
 62
     7
100
AcDbLine
 10
85.9765316567
 20
196.9698764227
 30
0.0
 11
85.9765316567
 21
194.4698764227
 31
0.0
  0
LINE
  5
51
330
4B
100
AcDbEntity
  8
SLD-0
  6
Continuous
 62
     7
100
AcDbLine
 10
85.9765316567
 20
196.9698764227
 30
0.0
 11
88.4765316567
 21
196.9698764227
 31
0.0
  0
LINE
  5
52
330
4B
100
AcDbEntity
  8
SLD-0
  6
Continuous
 62
     7
100
AcDbLine
 10
85.9765316567
 20
199.4698764227
 30
0.0
 11
85.9765316567
 21
201.9698764227
 31
0.0
  0
LINE
  5
53
330
4B
100
AcDbEntity
  8
SLD-0
  6
Continuous
 62
     7
100
AcDbLine
 10
83.4765317126
 20
196.9698764227
 30
0.0
 11
80.9765316567
 21
196.9698764227
 31
0.0
  0
LINE
  5
54
330
4B
100
AcDbEntity
  8
SLD-0
  6
Continuous
 62
     7
100
AcDbLine
 10
85.9765316567
 20
194.4698764227
 30
0.0
 11
85.9765316567
 21
191.9698764227
 31
0.0
  0
LINE
  5
55
330
4B
100
AcDbEntity
  8
SLD-0
  6
Continuous
 62
     7
100
AcDbLine
 10
88.4765316567
 20
196.9698764227
 30
0.0
 11
90.9765316567
 21
196.9698764227
 31
0.0
  0
ENDBLK
  5
4D
330
4B
100
AcDbEntity
  8
0
100
AcDbBlockEnd
  0
BLOCK
  5
57
330
56
100
AcDbEntity
  8
0
100
AcDbBlockBegin
  2
SW_CENTERMARK3
 70
     0
 71
     0
 10
0.0
 20
0.0
 30
0.0
  3
SW_CENTERMARK3
  1

  0
LINE
  5
59
330
56
100
AcDbEntity
  8
SLD-0
  6
Continuous
 62
     7
100
AcDbLine
 10
85.9765316567
 20
134.7354483176
 30
0.0
 11
85.9765316567
 21
137.2354483176
 31
0.0
  0
LINE
  5
5A
330
56
100
AcDbEntity
  8
SLD-0
  6
Continuous
 62
     7
100
AcDbLine
 10
85.9765316567
 20
134.7354483176
 30
0.0
 11
83.4765317126
 21
134.7354483176
 31
0.0
  0
LINE
  5
5B
330
56
100
AcDbEntity
  8
SLD-0
  6
Continuous
 62
     7
100
AcDbLine
 10
85.9765316567
 20
134.7354483176
 30
0.0
 11
85.9765316567
 21
132.2354483176
 31
0.0
  0
LINE
  5
5C
330
56
100
AcDbEntity
  8
SLD-0
  6
Continuous
 62
     7
100
AcDbLine
 10
85.9765316567
 20
134.7354483176
 30
0.0
 11
88.4765316008
 21
134.7354483176
 31
0.0
  0
LINE
  5
5D
330
56
100
AcDbEntity
  8
SLD-0
  6
Continuous
 62
     7
100
AcDbLine
 10
85.9765316567
 20
137.2354483176
 30
0.0
 11
85.9765316567
 21
139.7354483176
 31
0.0
  0
LINE
  5
5E
330
56
100
AcDbEntity
  8
SLD-0
  6
Continuous
 62
     7
100
AcDbLine
 10
83.4765317126
 20
134.7354483176
 30
0.0
 11
80.9765316567
 21
134.7354483176
 31
0.0
  0
LINE
  5
5F
330
56
100
AcDbEntity
  8
SLD-0
  6
Continuous
 62
     7
100
AcDbLine
 10
85.9765316567
 20
132.2354483176
 30
0.0
 11
85.9765316567
 21
129.7354483176
 31
0.0
  0
LINE
  5
60
330
56
100
AcDbEntity
  8
SLD-0
  6
Continuous
 62
     7
100
AcDbLine
 10
88.4765316008
 20
134.7354483176
 30
0.0
 11
90.9765316567
 21
134.7354483176
 31
0.0
  0
ENDBLK
  5
58
330
56
100
AcDbEntity
  8
0
100
AcDbBlockEnd
  0
BLOCK
  5
D7
330
CD
100
AcDbEntity
  8
0
100
AcDbBlockBegin
  2
*D7
 70
     1
 71
     0
 10
0.0
 20
0.0
 30
0.0
  3
*D7
  1

  0
LINE
  5
DE
330
CD
100
AcDbEntity
  8
SLD-0
 62
     7
100
AcDbLine
 10
100.9765316567
 20
195.9698764227
 30
0.0
 11
100.9765316567
 21
178.5800144639
 31
0.0
  0
LINE
  5
DF
330
CD
100
AcDbEntity
  8
SLD-0
 62
     7
100
AcDbLine
 10
78.9765316567
 20
189.9698764227
 30
0.0
 11
78.9765316567
 21
178.5800144639
 31
0.0
  0
LINE
  5
E0
330
CD
100
AcDbEntity
  8
SLD-0
 62
     7
100
AcDbLine
 10
100.9765316567
 20
179.5800144639
 30
0.0
 11
78.9765316567
 21
179.5800144639
 31
0.0
  0
LINE
  5
E1
330
CD
100
AcDbEntity
  8
SLD-0
 62
     7
100
AcDbLine
 10
97.9765316567
 20
180.3838614639
 30
0.0
 11
100.9765316567
 21
179.5800144639
 31
0.0
  0
LINE
  5
E2
330
CD
100
AcDbEntity
  8
SLD-0
 62
     7
100
AcDbLine
 10
100.9765316567
 20
179.5800144639
 30
0.0
 11
97.9765316567
 21
178.7761674639
 31
0.0
  0
LINE
  5
E3
330
CD
100
AcDbEntity
  8
SLD-0
 62
     7
100
AcDbLine
 10
100.9765316567
 20
179.5800144639
 30
0.0
 11
97.9765316567
 21
179.5800144639
 31
0.0
  0
LINE
  5
E4
330
CD
100
AcDbEntity
  8
SLD-0
 62
     7
100
AcDbLine
 10
81.9765316567
 20
178.7761674639
 30
0.0
 11
78.9765316567
 21
179.5800144639
 31
0.0
  0
LINE
  5
E5
330
CD
100
AcDbEntity
  8
SLD-0
 62
     7
100
AcDbLine
 10
78.9765316567
 20
179.5800144639
 30
0.0
 11
81.9765316567
 21
180.3838614639
 31
0.0
  0
LINE
  5
E6
330
CD
100
AcDbEntity
  8
SLD-0
 62
     7
100
AcDbLine
 10
78.9765316567
 20
179.5800144639
 30
0.0
 11
81.9765316567
 21
179.5800144639
 31
0.0
  0
MTEXT
  5
E8
330
CD
100
AcDbEntity
  8
SLD-0
 62
     7
100
AcDbMText
 10
87.9400815971
 20
184.1067082762
 30
0.1
 40
3.5
 41
0.0
 71
     1
 72
     1
  1
22
  7
SLDTEXTSTYLE2
 73
     1
 44
1.0
  0
ENDBLK
  5
D8
330
CD
100
AcDbEntity
  8
0
100
AcDbBlockEnd
  0
BLOCK
  5
DC
330
DB
100
AcDbEntity
  8
0
100
AcDbBlockBegin
  2
_None
 70
     0
 71
     0
 10
0.0
 20
0.0
 30
0.0
  3
_None
  1

  0
ENDBLK
  5
DD
330
DB
100
AcDbEntity
  8
0
100
AcDbBlockEnd
  0
BLOCK
  5
F4
330
EA
100
AcDbEntity
  8
0
100
AcDbBlockBegin
  2
*D9
 70
     1
 71
     0
 10
0.0
 20
0.0
 30
0.0
  3
*D9
  1

  0
LINE
  5
F6
330
EA
100
AcDbEntity
  8
SLD-0
 62
     7
100
AcDbLine
 10
100.9765316567
 20
195.9698764227
 30
0.0
 11
100.9765316567
 21
178.5800144639
 31
0.0
  0
LINE
  5
F7
330
EA
100
AcDbEntity
  8
SLD-0
 62
     7
100
AcDbLine
 10
140.9765316567
 20
195.9698764227
 30
0.0
 11
140.9765316567
 21
178.5800144639
 31
0.0
  0
LINE
  5
F8
330
EA
100
AcDbEntity
  8
SLD-0
 62
     7
100
AcDbLine
 10
100.9765316567
 20
179.5800144639
 30
0.0
 11
140.9765316567
 21
179.5800144639
 31
0.0
  0
LINE
  5
F9
330
EA
100
AcDbEntity
  8
SLD-0
 62
     7
100
AcDbLine
 10
103.9765316567
 20
178.7761674639
 30
0.0
 11
100.9765316567
 21
179.5800144639
 31
0.0
  0
LINE
  5
FA
330
EA
100
AcDbEntity
  8
SLD-0
 62
     7
100
AcDbLine
 10
100.9765316567
 20
179.5800144639
 30
0.0
 11
103.9765316567
 21
180.3838614639
 31
0.0
  0
LINE
  5
FB
330
EA
100
AcDbEntity
  8
SLD-0
 62
     7
100
AcDbLine
 10
100.9765316567
 20
179.5800144639
 30
0.0
 11
103.9765316567
 21
179.5800144639
 31
0.0
  0
LINE
  5
FC
330
EA
100
AcDbEntity
  8
SLD-0
 62
     7
100
AcDbLine
 10
137.9765316567
 20
180.3838614639
 30
0.0
 11
140.9765316567
 21
179.5800144639
 31
0.0
  0
LINE
  5
FD
330
EA
100
AcDbEntity
  8
SLD-0
 62
     7
100
AcDbLine
 10
140.9765316567
 20
179.5800144639
 30
0.0
 11
137.9765316567
 21
178.7761674639
 31
0.0
  0
LINE
  5
FE
330
EA
100
AcDbEntity
  8
SLD-0
 62
     7
100
AcDbLine
 10
140.9765316567
 20
179.5800144639
 30
0.0
 11
137.9765316567
 21
179.5800144639
 31
0.0
  0
MTEXT
  5
FF
330
EA
100
AcDbEntity
  8
SLD-0
 62
     7
100
AcDbMText
 10
118.9400815971
 20
184.1067082762
 30
0.1
 40
3.5
 41
0.0
 71
     1
 72
     1
  1
40
  7
SLDTEXTSTYLE2
 73
     1
 44
1.0
  0
ENDBLK
  5
F5
330
EA
100
AcDbEntity
  8
0
100
AcDbBlockEnd
  0
BLOCK
  5
10D
330
101
100
AcDbEntity
  8
0
100
AcDbBlockBegin
  2
*D10
 70
     1
 71
     0
 10
0.0
 20
0.0
 30
0.0
  3
*D10
  1

  0
LINE
  5
110
330
101
100
AcDbEntity
  8
SLD-0
 62
     7
100
AcDbLine
 10
122.999575135
 20
199.2198764227
 30
0.0
 11
122.999575135
 21
214.9996934575
 31
0.0
  0
LINE
  5
111
330
101
100
AcDbEntity
  8
SLD-0
 62
     7
100
AcDbLine
 10
122.999575135
 20
199.2198764227
 30
0.0
 11
122.999575135
 21
194.7198764227
 31
0.0
  0
LINE
  5
112
330
101
100
AcDbEntity
  8
SLD-0
 62
     7
100
AcDbLine
 10
122.999575135
 20
194.7198764227
 30
0.0
 11
122.999575135
 21
189.7198764227
 31
0.0
  0
LINE
  5
113
330
101
100
AcDbEntity
  8
SLD-0
 62
     7
100
AcDbLine
 10
123.803422135
 20
202.2198764227
 30
0.0
 11
122.999575135
 21
199.2198764227
 31
0.0
  0
LINE
  5
114
330
101
100
AcDbEntity
  8
SLD-0
 62
     7
100
AcDbLine
 10
122.999575135
 20
199.2198764227
 30
0.0
 11
122.195728135
 21
202.2198764227
 31
0.0
  0
LINE
  5
115
330
101
100
AcDbEntity
  8
SLD-0
 62
     7
100
AcDbLine
 10
122.999575135
 20
199.2198764227
 30
0.0
 11
122.999575135
 21
202.2198764227
 31
0.0
  0
LINE
  5
116
330
101
100
AcDbEntity
  8
SLD-0
 62
     7
100
AcDbLine
 10
122.195728135
 20
191.7198764227
 30
0.0
 11
122.999575135
 21
194.7198764227
 31
0.0
  0
LINE
  5
117
330
101
100
AcDbEntity
  8
SLD-0
 62
     7
100
AcDbLine
 10
122.999575135
 20
194.7198764227
 30
0.0
 11
123.803422135
 21
191.7198764227
 31
0.0
  0
LINE
  5
118
330
101
100
AcDbEntity
  8
SLD-0
 62
     7
100
AcDbLine
 10
122.999575135
 20
194.7198764227
 30
0.0
 11
122.999575135
 21
191.7198764227
 31
0.0
  0
MTEXT
  5
119
330
101
100
AcDbEntity
  8
SLD-0
 62
     7
100
AcDbMText
 10
118.4728813226
 20
207.3028432788
 30
0.1
 40
3.5
 41
0.0
 71
     1
 72
     1
  1
4.5
  7
SLDTEXTSTYLE2
 11
6.123031769111886E-17
 21
1.0
 31
0.0
 73
     1
 44
1.0
  0
ENDBLK
  5
10E
330
101
100
AcDbEntity
  8
0
100
AcDbBlockEnd
  0
BLOCK
  5
126
330
11B
100
AcDbEntity
  8
0
100
AcDbBlockBegin
  2
*D11
 70
     1
 71
     0
 10
0.0
 20
0.0
 30
0.0
  3
*D11
  1

  0
LINE
  5
128
330
11B
100
AcDbEntity
  8
SLD-0
100
AcDbLine
 10
143.9765316567
 20
196.9698764227
 30
0.0
 11
161.4858521668
 21
196.9698764227
 31
0.0
  0
LINE
  5
129
330
11B
100
AcDbEntity
  8
SLD-0
100
AcDbLine
 10
144.9765316567
 20
190.9698764227
 30
0.0
 11
161.4858521668
 21
190.9698764227
 31
0.0
  0
LINE
  5
12A
330
11B
100
AcDbEntity
  8
SLD-0
100
AcDbLine
 10
160.4858521668
 20
196.9698764227
 30
0.0
 11
160.4858521668
 21
201.9698764227
 31
0.0
  0
LINE
  5
12B
330
11B
100
AcDbEntity
  8
SLD-0
100
AcDbLine
 10
160.4858521668
 20
196.9698764227
 30
0.0
 11
160.4858521668
 21
190.9698764227
 31
0.0
  0
LINE
  5
12C
330
11B
100
AcDbEntity
  8
SLD-0
100
AcDbLine
 10
160.4858521668
 20
190.9698764227
 30
0.0
 11
160.4858521668
 21
185.9698764227
 31
0.0
  0
LINE
  5
12D
330
11B
100
AcDbEntity
  8
SLD-0
100
AcDbLine
 10
161.2896991668
 20
199.9698764227
 30
0.0
 11
160.4858521668
 21
196.9698764227
 31
0.0
  0
LINE
  5
12E
330
11B
100
AcDbEntity
  8
SLD-0
100
AcDbLine
 10
160.4858521668
 20
196.9698764227
 30
0.0
 11
159.6820051668
 21
199.9698764227
 31
0.0
  0
LINE
  5
12F
330
11B
100
AcDbEntity
  8
SLD-0
100
AcDbLine
 10
160.4858521668
 20
196.9698764227
 30
0.0
 11
160.4858521668
 21
199.9698764227
 31
0.0
  0
LINE
  5
130
330
11B
100
AcDbEntity
  8
SLD-0
100
AcDbLine
 10
159.6820051668
 20
187.9698764227
 30
0.0
 11
160.4858521668
 21
190.9698764227
 31
0.0
  0
LINE
  5
131
330
11B
100
AcDbEntity
  8
SLD-0
100
AcDbLine
 10
160.4858521668
 20
190.9698764227
 30
0.0
 11
161.2896991668
 21
187.9698764227
 31
0.0
  0
LINE
  5
132
330
11B
100
AcDbEntity
  8
SLD-0
100
AcDbLine
 10
160.4858521668
 20
190.9698764227
 30
0.0
 11
160.4858521668
 21
187.9698764227
 31
0.0
  0
MTEXT
  5
133
330
11B
100
AcDbEntity
  8
SLD-0
100
AcDbMText
 10
155.9591583544
 20
192.9516513929
 30
0.1
 40
3.5
 41
0.0
 71
     1
 72
     1
  1
6
  7
SLDTEXTSTYLE2
 11
6.123031769111886E-17
 21
1.0
 31
0.0
 73
     1
 44
1.0
  0
ENDBLK
  5
127
330
11B
100
AcDbEntity
  8
0
100
AcDbBlockEnd
  0
BLOCK
  5
13F
330
135
100
AcDbEntity
  8
0
100
AcDbBlockBegin
  2
*D12
 70
     1
 71
     0
 10
0.0
 20
0.0
 30
0.0
  3
*D12
  1

  0
LINE
  5
141
330
135
100
AcDbEntity
  8
SLD-0
 62
     7
100
AcDbLine
 10
146.9765316567
 20
195.9698764227
 30
0.0
 11
146.9765316567
 21
170.0397070545
 31
0.0
  0
LINE
  5
142
330
135
100
AcDbEntity
  8
SLD-0
 62
     7
100
AcDbLine
 10
78.9765316567
 20
195.9698764227
 30
0.0
 11
78.9765316567
 21
170.0397070545
 31
0.0
  0
LINE
  5
143
330
135
100
AcDbEntity
  8
SLD-0
 62
     7
100
AcDbLine
 10
146.9765316567
 20
171.0397070545
 30
0.0
 11
78.9765316567
 21
171.0397070545
 31
0.0
  0
LINE
  5
144
330
135
100
AcDbEntity
  8
SLD-0
 62
     7
100
AcDbLine
 10
143.9765316567
 20
171.8435540545
 30
0.0
 11
146.9765316567
 21
171.0397070545
 31
0.0
  0
LINE
  5
145
330
135
100
AcDbEntity
  8
SLD-0
 62
     7
100
AcDbLine
 10
146.9765316567
 20
171.0397070545
 30
0.0
 11
143.9765316567
 21
170.2358600545
 31
0.0
  0
LINE
  5
146
330
135
100
AcDbEntity
  8
SLD-0
 62
     7
100
AcDbLine
 10
146.9765316567
 20
171.0397070545
 30
0.0
 11
143.9765316567
 21
171.0397070545
 31
0.0
  0
LINE
  5
147
330
135
100
AcDbEntity
  8
SLD-0
 62
     7
100
AcDbLine
 10
81.9765316567
 20
170.2358600545
 30
0.0
 11
78.9765316567
 21
171.0397070545
 31
0.0
  0
LINE
  5
148
330
135
100
AcDbEntity
  8
SLD-0
 62
     7
100
AcDbLine
 10
78.9765316567
 20
171.0397070545
 30
0.0
 11
81.9765316567
 21
171.8435540545
 31
0.0
  0
LINE
  5
149
330
135
100
AcDbEntity
  8
SLD-0
 62
     7
100
AcDbLine
 10
78.9765316567
 20
171.0397070545
 30
0.0
 11
81.9765316567
 21
171.0397070545
 31
0.0
  0
MTEXT
  5
14A
330
135
100
AcDbEntity
  8
SLD-0
 62
     7
100
AcDbMText
 10
110.9400815971
 20
175.5664008669
 30
0.1
 40
3.5
 41
0.0
 71
     1
 72
     1
  1
68
  7
SLDTEXTSTYLE2
 73
     1
 44
1.0
  0
ENDBLK
  5
140
330
135
100
AcDbEntity
  8
0
100
AcDbBlockEnd
  0
BLOCK
  5
153
330
14C
100
AcDbEntity
  8
0
100
AcDbBlockBegin
  2
*D13
 70
     1
 71
     0
 10
0.0
 20
0.0
 30
0.0
  3
*D13
  1

  0
LINE
  5
156
330
14C
100
AcDbEntity
  8
SLD-0
 62
     7
100
AcDbLine
 10
99.7352074242
 20
198.8464728497
 30
0.0
 11
90.2923538835
 21
213.1218932042
 31
0.0
  0
LINE
  5
157
330
14C
100
AcDbEntity
  8
SLD-0
 62
     7
100
AcDbLine
 10
98.7505512956
 20
201.7920835347
 30
0.0
 11
99.7352074242
 21
198.8464728497
 31
0.0
  0
LINE
  5
158
330
14C
100
AcDbEntity
  8
SLD-0
 62
     7
100
AcDbLine
 10
99.7352074242
 20
198.8464728497
 30
0.0
 11
97.4096655995
 21
200.9051193033
 31
0.0
  0
LINE
  5
159
330
14C
100
AcDbEntity
  8
SLD-0
 62
     7
100
AcDbLine
 10
99.7352074242
 20
198.8464728497
 30
0.0
 11
98.0801084475
 21
201.348601419
 31
0.0
  0
MTEXT
  5
15A
330
14C
100
AcDbEntity
  8
SLD-0
 62
     7
100
AcDbMText
 10
94.9279084242
 20
214.2848236835
 30
0.1
 40
3.5
 41
0.0
 71
     1
 72
     1
  1
2-R
  7
SLDTEXTSTYLE2
 11
0.551699658915931
 21
-0.8340428564240842
 31
0.0
 73
     1
 44
1.0
  0
ENDBLK
  5
154
330
14C
100
AcDbEntity
  8
0
100
AcDbBlockEnd
  0
BLOCK
  5
163
330
15C
100
AcDbEntity
  8
0
100
AcDbBlockBegin
  2
*D14
 70
     1
 71
     0
 10
0.0
 20
0.0
 30
0.0
  3
*D14
  1

  0
LINE
  5
166
330
15C
100
AcDbEntity
  8
SLD-0
 62
     7
100
AcDbLine
 10
84.2187732856
 20
199.4009842995
 30
0.0
 11
71.8578403765
 21
216.4970549859
 31
0.0
  0
LINE
  5
167
330
15C
100
AcDbEntity
  8
SLD-0
 62
     7
100
AcDbLine
 10
71.8578403765
 20
216.4970549859
 30
0.0
 11
36.5449787556
 21
216.4970549859
 31
0.0
  0
LINE
  5
168
330
15C
100
AcDbEntity
  8
SLD-0
 62
     7
100
AcDbLine
 10
83.1124278391
 20
202.3030817741
 30
0.0
 11
84.2187732856
 21
199.4009842995
 31
0.0
  0
LINE
  5
169
330
15C
100
AcDbEntity
  8
SLD-0
 62
     7
100
AcDbLine
 10
84.2187732856
 20
199.4009842995
 30
0.0
 11
81.8096019901
 21
201.3611025786
 31
0.0
  0
LINE
  5
16A
330
15C
100
AcDbEntity
  8
SLD-0
 62
     7
100
AcDbLine
 10
84.2187732856
 20
199.4009842995
 30
0.0
 11
82.4610149146
 21
201.8320921764
 31
0.0
  0
MTEXT
  5
16B
330
15C
100
AcDbEntity
  8
SLD-0
 62
     7
100
AcDbMText
 10
38.1324787556
 20
221.0237487982
 30
0.1
 40
3.5
 41
0.0
 71
     1
 72
     1
  1
M
  7
SLDTEXTSTYLE2
 73
     1
 44
1.0
  0
MTEXT
  5
16C
330
15C
100
AcDbEntity
  8
SLD-0
 62
     7
100
AcDbMText
 10
40.1689288151
 20
221.0237487982
 30
0.1
 40
3.5
 41
0.0
 71
     1
 72
     1
  1
6
  7
SLDTEXTSTYLE2
 73
     1
 44
1.0
  0
MTEXT
  5
16D
330
15C
100
AcDbEntity
  8
SLD-0
 62
     7
100
AcDbMText
 10
42.2053788747
 20
221.0237487982
 30
0.1
 40
3.5
 41
0.0
 71
     1
 72
     1
  1
　P＝0.75貫通
  7
SLDTEXTSTYLE2
 73
     1
 44
1.0
  0
ENDBLK
  5
164
330
15C
100
AcDbEntity
  8
0
100
AcDbBlockEnd
  0
BLOCK
  5
17A
330
16F
100
AcDbEntity
  8
0
100
AcDbBlockBegin
  2
*D15
 70
     1
 71
     0
 10
0.0
 20
0.0
 30
0.0
  3
*D15
  1

  0
LINE
  5
17C
330
16F
100
AcDbEntity
  8
SLD-0
100
AcDbLine
 10
79.4765316567
 20
190.9698764227
 30
0.0
 11
65.2970924115
 21
190.9698764227
 31
0.0
  0
LINE
  5
17D
330
16F
100
AcDbEntity
  8
SLD-0
100
AcDbLine
 10
79.9765316567
 20
196.9698764227
 30
0.0
 11
65.2970924115
 21
196.9698764227
 31
0.0
  0
LINE
  5
17E
330
16F
100
AcDbEntity
  8
SLD-0
100
AcDbLine
 10
66.2970924115
 20
190.9698764227
 30
0.0
 11
66.2970924115
 21
185.9698764227
 31
0.0
  0
LINE
  5
17F
330
16F
100
AcDbEntity
  8
SLD-0
100
AcDbLine
 10
66.2970924115
 20
190.9698764227
 30
0.0
 11
66.2970924115
 21
196.9698764227
 31
0.0
  0
LINE
  5
180
330
16F
100
AcDbEntity
  8
SLD-0
100
AcDbLine
 10
66.2970924115
 20
196.9698764227
 30
0.0
 11
66.2970924115
 21
201.9698764227
 31
0.0
  0
LINE
  5
181
330
16F
100
AcDbEntity
  8
SLD-0
100
AcDbLine
 10
65.4932454115
 20
187.9698764227
 30
0.0
 11
66.2970924115
 21
190.9698764227
 31
0.0
  0
LINE
  5
182
330
16F
100
AcDbEntity
  8
SLD-0
100
AcDbLine
 10
66.2970924115
 20
190.9698764227
 30
0.0
 11
67.1009394115
 21
187.9698764227
 31
0.0
  0
LINE
  5
183
330
16F
100
AcDbEntity
  8
SLD-0
100
AcDbLine
 10
66.2970924115
 20
190.9698764227
 30
0.0
 11
66.2970924115
 21
187.9698764227
 31
0.0
  0
LINE
  5
184
330
16F
100
AcDbEntity
  8
SLD-0
100
AcDbLine
 10
67.1009394115
 20
199.9698764227
 30
0.0
 11
66.2970924115
 21
196.9698764227
 31
0.0
  0
LINE
  5
185
330
16F
100
AcDbEntity
  8
SLD-0
100
AcDbLine
 10
66.2970924115
 20
196.9698764227
 30
0.0
 11
65.4932454115
 21
199.9698764227
 31
0.0
  0
LINE
  5
186
330
16F
100
AcDbEntity
  8
SLD-0
100
AcDbLine
 10
66.2970924115
 20
196.9698764227
 30
0.0
 11
66.2970924115
 21
199.9698764227
 31
0.0
  0
MTEXT
  5
187
330
16F
100
AcDbEntity
  8
SLD-0
100
AcDbMText
 10
61.7703985991
 20
192.9516513929
 30
0.1
 40
3.5
 41
0.0
 71
     1
 72
     1
  1
6
  7
SLDTEXTSTYLE2
 11
6.123031769111886E-17
 21
1.0
 31
0.0
 73
     1
 44
1.0
  0
ENDBLK
  5
17B
330
16F
100
AcDbEntity
  8
0
100
AcDbBlockEnd
  0
BLOCK
  5
194
330
189
100
AcDbEntity
  8
0
100
AcDbBlockBegin
  2
*D16
 70
     1
 71
     0
 10
0.0
 20
0.0
 30
0.0
  3
*D16
  1

  0
LINE
  5
196
330
189
100
AcDbEntity
  8
SLD-0
100
AcDbLine
 10
78.9765316567
 20
202.4698764227
 30
0.0
 11
78.9765316567
 21
219.7476312031
 31
0.0
  0
LINE
  5
197
330
189
100
AcDbEntity
  8
SLD-0
100
AcDbLine
 10
85.9765316567
 20
199.9698764227
 30
0.0
 11
85.9765316567
 21
219.7476312031
 31
0.0
  0
LINE
  5
198
330
189
100
AcDbEntity
  8
SLD-0
100
AcDbLine
 10
78.9765316567
 20
218.7476312031
 30
0.0
 11
73.9765316567
 21
218.7476312031
 31
0.0
  0
LINE
  5
199
330
189
100
AcDbEntity
  8
SLD-0
100
AcDbLine
 10
78.9765316567
 20
218.7476312031
 30
0.0
 11
85.9765316567
 21
218.7476312031
 31
0.0
  0
LINE
  5
19A
330
189
100
AcDbEntity
  8
SLD-0
100
AcDbLine
 10
85.9765316567
 20
218.7476312031
 30
0.0
 11
90.9765316567
 21
218.7476312031
 31
0.0
  0
LINE
  5
19B
330
189
100
AcDbEntity
  8
SLD-0
100
AcDbLine
 10
75.9765316567
 20
219.5514782031
 30
0.0
 11
78.9765316567
 21
218.7476312031
 31
0.0
  0
LINE
  5
19C
330
189
100
AcDbEntity
  8
SLD-0
100
AcDbLine
 10
78.9765316567
 20
218.7476312031
 30
0.0
 11
75.9765316567
 21
217.9437842031
 31
0.0
  0
LINE
  5
19D
330
189
100
AcDbEntity
  8
SLD-0
100
AcDbLine
 10
78.9765316567
 20
218.7476312031
 30
0.0
 11
75.9765316567
 21
218.7476312031
 31
0.0
  0
LINE
  5
19E
330
189
100
AcDbEntity
  8
SLD-0
100
AcDbLine
 10
88.9765316567
 20
217.9437842031
 30
0.0
 11
85.9765316567
 21
218.7476312031
 31
0.0
  0
LINE
  5
19F
330
189
100
AcDbEntity
  8
SLD-0
100
AcDbLine
 10
85.9765316567
 20
218.7476312031
 30
0.0
 11
88.9765316567
 21
219.5514782031
 31
0.0
  0
LINE
  5
1A0
330
189
100
AcDbEntity
  8
SLD-0
100
AcDbLine
 10
85.9765316567
 20
218.7476312031
 30
0.0
 11
88.9765316567
 21
218.7476312031
 31
0.0
  0
MTEXT
  5
1A1
330
189
100
AcDbEntity
  8
SLD-0
100
AcDbMText
 10
81.4583066269
 20
223.2743250155
 30
0.1
 40
3.5
 41
0.0
 71
     1
 72
     1
  1
7
  7
SLDTEXTSTYLE2
 73
     1
 44
1.0
  0
ENDBLK
  5
195
330
189
100
AcDbEntity
  8
0
100
AcDbBlockEnd
  0
BLOCK
  5
1AE
330
1A3
100
AcDbEntity
  8
0
100
AcDbBlockBegin
  2
*D17
 70
     1
 71
     0
 10
0.0
 20
0.0
 30
0.0
  3
*D17
  1

  0
LINE
  5
1B0
330
1A3
100
AcDbEntity
  8
SLD-0
 62
     7
100
AcDbLine
 10
79.4765316567
 20
202.9698764227
 30
0.0
 11
57.6295675976
 21
202.9698764227
 31
0.0
  0
LINE
  5
1B1
330
1A3
100
AcDbEntity
  8
SLD-0
 62
     7
100
AcDbLine
 10
79.4765316567
 20
190.9698764227
 30
0.0
 11
57.6295675976
 21
190.9698764227
 31
0.0
  0
LINE
  5
1B2
330
1A3
100
AcDbEntity
  8
SLD-0
 62
     7
100
AcDbLine
 10
58.6295675976
 20
202.9698764227
 30
0.0
 11
58.6295675976
 21
190.9698764227
 31
0.0
  0
LINE
  5
1B3
330
1A3
100
AcDbEntity
  8
SLD-0
 62
     7
100
AcDbLine
 10
57.8257205976
 20
199.9698764227
 30
0.0
 11
58.6295675976
 21
202.9698764227
 31
0.0
  0
LINE
  5
1B4
330
1A3
100
AcDbEntity
  8
SLD-0
 62
     7
100
AcDbLine
 10
58.6295675976
 20
202.9698764227
 30
0.0
 11
59.4334145976
 21
199.9698764227
 31
0.0
  0
LINE
  5
1B5
330
1A3
100
AcDbEntity
  8
SLD-0
 62
     7
100
AcDbLine
 10
58.6295675976
 20
202.9698764227
 30
0.0
 11
58.6295675976
 21
199.9698764227
 31
0.0
  0
LINE
  5
1B6
330
1A3
100
AcDbEntity
  8
SLD-0
 62
     7
100
AcDbLine
 10
59.4334145976
 20
193.9698764227
 30
0.0
 11
58.6295675976
 21
190.9698764227
 31
0.0
  0
LINE
  5
1B7
330
1A3
100
AcDbEntity
  8
SLD-0
 62
     7
100
AcDbLine
 10
58.6295675976
 20
190.9698764227
 30
0.0
 11
57.8257205976
 21
193.9698764227
 31
0.0
  0
LINE
  5
1B8
330
1A3
100
AcDbEntity
  8
SLD-0
 62
     7
100
AcDbLine
 10
58.6295675976
 20
190.9698764227
 30
0.0
 11
58.6295675976
 21
193.9698764227
 31
0.0
  0
MTEXT
  5
1B9
330
1A3
100
AcDbEntity
  8
SLD-0
 62
     7
100
AcDbMText
 10
54.1028737852
 20
194.9334263631
 30
0.1
 40
3.5
 41
0.0
 71
     1
 72
     1
  1
12
  7
SLDTEXTSTYLE2
 11
6.123031769111886E-17
 21
1.0
 31
0.0
 73
     1
 44
1.0
  0
ENDBLK
  5
1AF
330
1A3
100
AcDbEntity
  8
0
100
AcDbBlockEnd
  0
BLOCK
  5
1C6
330
1BB
100
AcDbEntity
  8
0
100
AcDbBlockBegin
  2
*D18
 70
     1
 71
     0
 10
0.0
 20
0.0
 30
0.0
  3
*D18
  1

  0
LINE
  5
1C8
330
1BB
100
AcDbEntity
  8
SLD-0
 62
     7
100
AcDbLine
 10
85.9765316567
 20
133.7354483176
 30
0.0
 11
85.9765316567
 21
116.63546426
 31
0.0
  0
LINE
  5
1C9
330
1BB
100
AcDbEntity
  8
SLD-0
 62
     7
100
AcDbLine
 10
78.9765316567
 20
126.7354483176
 30
0.0
 11
78.9765316567
 21
116.63546426
 31
0.0
  0
LINE
  5
1CA
330
1BB
100
AcDbEntity
  8
SLD-0
 62
     7
100
AcDbLine
 10
85.9765316567
 20
117.63546426
 30
0.0
 11
90.9765316567
 21
117.63546426
 31
0.0
  0
LINE
  5
1CB
330
1BB
100
AcDbEntity
  8
SLD-0
 62
     7
100
AcDbLine
 10
85.9765316567
 20
117.63546426
 30
0.0
 11
78.9765316567
 21
117.63546426
 31
0.0
  0
LINE
  5
1CC
330
1BB
100
AcDbEntity
  8
SLD-0
 62
     7
100
AcDbLine
 10
78.9765316567
 20
117.63546426
 30
0.0
 11
73.9765316567
 21
117.63546426
 31
0.0
  0
LINE
  5
1CD
330
1BB
100
AcDbEntity
  8
SLD-0
 62
     7
100
AcDbLine
 10
88.9765316567
 20
116.83161726
 30
0.0
 11
85.9765316567
 21
117.63546426
 31
0.0
  0
LINE
  5
1CE
330
1BB
100
AcDbEntity
  8
SLD-0
 62
     7
100
AcDbLine
 10
85.9765316567
 20
117.63546426
 30
0.0
 11
88.9765316567
 21
118.43931126
 31
0.0
  0
LINE
  5
1CF
330
1BB
100
AcDbEntity
  8
SLD-0
 62
     7
100
AcDbLine
 10
85.9765316567
 20
117.63546426
 30
0.0
 11
88.9765316567
 21
117.63546426
 31
0.0
  0
LINE
  5
1D0
330
1BB
100
AcDbEntity
  8
SLD-0
 62
     7
100
AcDbLine
 10
75.9765316567
 20
118.43931126
 30
0.0
 11
78.9765316567
 21
117.63546426
 31
0.0
  0
LINE
  5
1D1
330
1BB
100
AcDbEntity
  8
SLD-0
 62
     7
100
AcDbLine
 10
78.9765316567
 20
117.63546426
 30
0.0
 11
75.9765316567
 21
116.83161726
 31
0.0
  0
LINE
  5
1D2
330
1BB
100
AcDbEntity
  8
SLD-0
 62
     7
100
AcDbLine
 10
78.9765316567
 20
117.63546426
 30
0.0
 11
75.9765316567
 21
117.63546426
 31
0.0
  0
MTEXT
  5
1D3
330
1BB
100
AcDbEntity
  8
SLD-0
 62
     7
100
AcDbMText
 10
81.4583066269
 20
122.1621580723
 30
0.1
 40
3.5
 41
0.0
 71
     1
 72
     1
  1
7
  7
SLDTEXTSTYLE2
 73
     1
 44
1.0
  0
ENDBLK
  5
1C7
330
1BB
100
AcDbEntity
  8
0
100
AcDbBlockEnd
  0
BLOCK
  5
1DF
330
1D5
100
AcDbEntity
  8
0
100
AcDbBlockBegin
  2
*D19
 70
     1
 71
     0
 10
0.0
 20
0.0
 30
0.0
  3
*D19
  1

  0
LINE
  5
1E1
330
1D5
100
AcDbEntity
  8
SLD-0
 62
     7
100
AcDbLine
 10
92.9765316567
 20
126.7354483176
 30
0.0
 11
92.9765316567
 21
105.1690559021
 31
0.0
  0
LINE
  5
1E2
330
1D5
100
AcDbEntity
  8
SLD-0
 62
     7
100
AcDbLine
 10
78.9765316567
 20
126.7354483176
 30
0.0
 11
78.9765316567
 21
105.1690559021
 31
0.0
  0
LINE
  5
1E3
330
1D5
100
AcDbEntity
  8
SLD-0
 62
     7
100
AcDbLine
 10
92.9765316567
 20
106.1690559021
 30
0.0
 11
78.9765316567
 21
106.1690559021
 31
0.0
  0
LINE
  5
1E4
330
1D5
100
AcDbEntity
  8
SLD-0
 62
     7
100
AcDbLine
 10
89.9765316567
 20
106.9729029021
 30
0.0
 11
92.9765316567
 21
106.1690559021
 31
0.0
  0
LINE
  5
1E5
330
1D5
100
AcDbEntity
  8
SLD-0
 62
     7
100
AcDbLine
 10
92.9765316567
 20
106.1690559021
 30
0.0
 11
89.9765316567
 21
105.3652089021
 31
0.0
  0
LINE
  5
1E6
330
1D5
100
AcDbEntity
  8
SLD-0
 62
     7
100
AcDbLine
 10
92.9765316567
 20
106.1690559021
 30
0.0
 11
89.9765316567
 21
106.1690559021
 31
0.0
  0
LINE
  5
1E7
330
1D5
100
AcDbEntity
  8
SLD-0
 62
     7
100
AcDbLine
 10
81.9765316567
 20
105.3652089021
 30
0.0
 11
78.9765316567
 21
106.1690559021
 31
0.0
  0
LINE
  5
1E8
330
1D5
100
AcDbEntity
  8
SLD-0
 62
     7
100
AcDbLine
 10
78.9765316567
 20
106.1690559021
 30
0.0
 11
81.9765316567
 21
106.9729029021
 31
0.0
  0
LINE
  5
1E9
330
1D5
100
AcDbEntity
  8
SLD-0
 62
     7
100
AcDbLine
 10
78.9765316567
 20
106.1690559021
 30
0.0
 11
81.9765316567
 21
106.1690559021
 31
0.0
  0
MTEXT
  5
1EA
330
1D5
100
AcDbEntity
  8
SLD-0
 62
     7
100
AcDbMText
 10
83.9400815971
 20
110.6957497144
 30
0.1
 40
3.5
 41
0.0
 71
     1
 72
     1
  1
14
  7
SLDTEXTSTYLE2
 73
     1
 44
1.0
  0
ENDBLK
  5
1E0
330
1D5
100
AcDbEntity
  8
0
100
AcDbBlockEnd
  0
BLOCK
  5
1F7
330
1EC
100
AcDbEntity
  8
0
100
AcDbBlockBegin
  2
*D20
 70
     1
 71
     0
 10
0.0
 20
0.0
 30
0.0
  3
*D20
  1

  0
LINE
  5
1F9
330
1EC
100
AcDbEntity
  8
SLD-0
 62
     7
100
AcDbLine
 10
77.9765316567
 20
141.7354483176
 30
0.0
 11
58.2003597804
 21
141.7354483176
 31
0.0
  0
LINE
  5
1FA
330
1EC
100
AcDbEntity
  8
SLD-0
 62
     7
100
AcDbLine
 10
77.9765316567
 20
127.7354483176
 30
0.0
 11
58.2003597804
 21
127.7354483176
 31
0.0
  0
LINE
  5
1FB
330
1EC
100
AcDbEntity
  8
SLD-0
 62
     7
100
AcDbLine
 10
59.2003597804
 20
141.7354483176
 30
0.0
 11
59.2003597804
 21
127.7354483176
 31
0.0
  0
LINE
  5
1FC
330
1EC
100
AcDbEntity
  8
SLD-0
 62
     7
100
AcDbLine
 10
58.3965127804
 20
138.7354483176
 30
0.0
 11
59.2003597804
 21
141.7354483176
 31
0.0
  0
LINE
  5
1FD
330
1EC
100
AcDbEntity
  8
SLD-0
 62
     7
100
AcDbLine
 10
59.2003597804
 20
141.7354483176
 30
0.0
 11
60.0042067804
 21
138.7354483176
 31
0.0
  0
LINE
  5
1FE
330
1EC
100
AcDbEntity
  8
SLD-0
 62
     7
100
AcDbLine
 10
59.2003597804
 20
141.7354483176
 30
0.0
 11
59.2003597804
 21
138.7354483176
 31
0.0
  0
LINE
  5
1FF
330
1EC
100
AcDbEntity
  8
SLD-0
 62
     7
100
AcDbLine
 10
60.0042067804
 20
130.7354483176
 30
0.0
 11
59.2003597804
 21
127.7354483176
 31
0.0
  0
LINE
  5
200
330
1EC
100
AcDbEntity
  8
SLD-0
 62
     7
100
AcDbLine
 10
59.2003597804
 20
127.7354483176
 30
0.0
 11
58.3965127804
 21
130.7354483176
 31
0.0
  0
LINE
  5
201
330
1EC
100
AcDbEntity
  8
SLD-0
 62
     7
100
AcDbLine
 10
59.2003597804
 20
127.7354483176
 30
0.0
 11
59.2003597804
 21
130.7354483176
 31
0.0
  0
MTEXT
  5
202
330
1EC
100
AcDbEntity
  8
SLD-0
 62
     7
100
AcDbMText
 10
54.673665968
 20
132.698998258
 30
0.1
 40
3.5
 41
0.0
 71
     1
 72
     1
  1
14
  7
SLDTEXTSTYLE2
 11
6.123031769111886E-17
 21
1.0
 31
0.0
 73
     1
 44
1.0
  0
ENDBLK
  5
1F8
330
1EC
100
AcDbEntity
  8
0
100
AcDbBlockEnd
  0
BLOCK
  5
210
330
204
100
AcDbEntity
  8
0
100
AcDbBlockBegin
  2
*D21
 70
     1
 71
     0
 10
0.0
 20
0.0
 30
0.0
  3
*D21
  1

  0
LINE
  5
212
330
204
100
AcDbEntity
  8
SLD-0
100
AcDbLine
 10
144.9765316567
 20
137.7354483176
 30
0.0
 11
159.3974807585
 21
137.7354483176
 31
0.0
  0
LINE
  5
213
330
204
100
AcDbEntity
  8
SLD-0
100
AcDbLine
 10
144.9765316567
 20
141.7354483176
 30
0.0
 11
159.3974807585
 21
141.7354483176
 31
0.0
  0
LINE
  5
214
330
204
100
AcDbEntity
  8
SLD-0
100
AcDbLine
 10
158.3974807585
 20
137.7354483176
 30
0.0
 11
158.3974807585
 21
132.7354483176
 31
0.0
  0
LINE
  5
215
330
204
100
AcDbEntity
  8
SLD-0
100
AcDbLine
 10
158.3974807585
 20
137.7354483176
 30
0.0
 11
158.3974807585
 21
141.7354483176
 31
0.0
  0
LINE
  5
216
330
204
100
AcDbEntity
  8
SLD-0
100
AcDbLine
 10
158.3974807585
 20
141.7354483176
 30
0.0
 11
158.3974807585
 21
150.3348936411
 31
0.0
  0
LINE
  5
217
330
204
100
AcDbEntity
  8
SLD-0
100
AcDbLine
 10
157.5936337585
 20
134.7354483176
 30
0.0
 11
158.3974807585
 21
137.7354483176
 31
0.0
  0
LINE
  5
218
330
204
100
AcDbEntity
  8
SLD-0
100
AcDbLine
 10
158.3974807585
 20
137.7354483176
 30
0.0
 11
159.2013277585
 21
134.7354483176
 31
0.0
  0
LINE
  5
219
330
204
100
AcDbEntity
  8
SLD-0
100
AcDbLine
 10
158.3974807585
 20
137.7354483176
 30
0.0
 11
158.3974807585
 21
134.7354483176
 31
0.0
  0
LINE
  5
21A
330
204
100
AcDbEntity
  8
SLD-0
100
AcDbLine
 10
159.2013277585
 20
144.7354483176
 30
0.0
 11
158.3974807585
 21
141.7354483176
 31
0.0
  0
LINE
  5
21B
330
204
100
AcDbEntity
  8
SLD-0
100
AcDbLine
 10
158.3974807585
 20
141.7354483176
 30
0.0
 11
157.5936337585
 21
144.7354483176
 31
0.0
  0
LINE
  5
21C
330
204
100
AcDbEntity
  8
SLD-0
100
AcDbLine
 10
158.3974807585
 20
141.7354483176
 30
0.0
 11
158.3974807585
 21
144.7354483176
 31
0.0
  0
MTEXT
  5
21D
330
204
100
AcDbEntity
  8
SLD-0
100
AcDbMText
 10
153.8707869461
 20
146.7109435815
 30
0.1
 40
3.5
 41
0.0
 71
     1
 72
     1
  1
4
  7
SLDTEXTSTYLE2
 11
6.123031769111886E-17
 21
1.0
 31
0.0
 73
     1
 44
1.0
  0
ENDBLK
  5
211
330
204
100
AcDbEntity
  8
0
100
AcDbBlockEnd
  0
BLOCK
  5
226
330
21F
100
AcDbEntity
  8
0
100
AcDbBlockBegin
  2
*D22
 70
     1
 71
     0
 10
0.0
 20
0.0
 30
0.0
  3
*D22
  1

  0
LINE
  5
228
330
21F
100
AcDbEntity
  8
SLD-0
 62
     7
100
AcDbLine
 10
84.0620504703
 20
137.0451586429
 30
0.0
 11
70.6672378214
 21
153.2052219024
 31
0.0
  0
LINE
  5
229
330
21F
100
AcDbEntity
  8
SLD-0
 62
     7
100
AcDbLine
 10
70.6672378214
 20
153.2052219024
 30
0.0
 11
35.3543762004
 21
153.2052219024
 31
0.0
  0
LINE
  5
22A
330
21F
100
AcDbEntity
  8
SLD-0
 62
     7
100
AcDbLine
 10
82.7664538559
 20
139.8678522876
 30
0.0
 11
84.0620504703
 21
137.0451586429
 31
0.0
  0
LINE
  5
22B
330
21F
100
AcDbEntity
  8
SLD-0
 62
     7
100
AcDbLine
 10
84.0620504703
 20
137.0451586429
 30
0.0
 11
81.5286847119
 21
138.8418856488
 31
0.0
  0
LINE
  5
22C
330
21F
100
AcDbEntity
  8
SLD-0
 62
     7
100
AcDbLine
 10
84.0620504703
 20
137.0451586429
 30
0.0
 11
82.1475692839
 21
139.3548689682
 31
0.0
  0
MTEXT
  5
22D
330
21F
100
AcDbEntity
  8
SLD-0
 62
     7
100
AcDbMText
 10
36.9418762004
 20
157.7319157147
 30
0.1
 40
3.5
 41
0.0
 71
     1
 72
     1
  1
M
  7
SLDTEXTSTYLE2
 73
     1
 44
1.0
  0
MTEXT
  5
22E
330
21F
100
AcDbEntity
  8
SLD-0
 62
     7
100
AcDbMText
 10
38.97832626
 20
157.7319157147
 30
0.1
 40
3.5
 41
0.0
 71
     1
 72
     1
  1
6
  7
SLDTEXTSTYLE2
 73
     1
 44
1.0
  0
MTEXT
  5
22F
330
21F
100
AcDbEntity
  8
SLD-0
 62
     7
100
AcDbMText
 10
41.0147763196
 20
157.7319157147
 30
0.1
 40
3.5
 41
0.0
 71
     1
 72
     1
  1
　P＝0.75貫通
  7
SLDTEXTSTYLE2
 73
     1
 44
1.0
  0
ENDBLK
  5
227
330
21F
100
AcDbEntity
  8
0
100
AcDbBlockEnd
  0
BLOCK
  5
23C
330
231
100
AcDbEntity
  8
0
100
AcDbBlockBegin
  2
*D23
 70
     1
 71
     0
 10
0.0
 20
0.0
 30
0.0
  3
*D23
  1

  0
LINE
  5
23E
330
231
100
AcDbEntity
  8
SLD-0
100
AcDbLine
 10
79.4765316567
 20
141.7354483176
 30
0.0
 11
68.6557877585
 21
141.7354483176
 31
0.0
  0
LINE
  5
23F
330
231
100
AcDbEntity
  8
SLD-0
100
AcDbLine
 10
87.4765316567
 20
134.7354483176
 30
0.0
 11
68.6557877585
 21
134.7354483176
 31
0.0
  0
LINE
  5
240
330
231
100
AcDbEntity
  8
SLD-0
100
AcDbLine
 10
69.6557877585
 20
141.7354483176
 30
0.0
 11
69.6557877585
 21
146.7354483176
 31
0.0
  0
LINE
  5
241
330
231
100
AcDbEntity
  8
SLD-0
100
AcDbLine
 10
69.6557877585
 20
141.7354483176
 30
0.0
 11
69.6557877585
 21
134.7354483176
 31
0.0
  0
LINE
  5
242
330
231
100
AcDbEntity
  8
SLD-0
100
AcDbLine
 10
69.6557877585
 20
134.7354483176
 30
0.0
 11
69.6557877585
 21
129.7354483176
 31
0.0
  0
LINE
  5
243
330
231
100
AcDbEntity
  8
SLD-0
100
AcDbLine
 10
70.4596347585
 20
144.7354483176
 30
0.0
 11
69.6557877585
 21
141.7354483176
 31
0.0
  0
LINE
  5
244
330
231
100
AcDbEntity
  8
SLD-0
100
AcDbLine
 10
69.6557877585
 20
141.7354483176
 30
0.0
 11
68.8519407585
 21
144.7354483176
 31
0.0
  0
LINE
  5
245
330
231
100
AcDbEntity
  8
SLD-0
100
AcDbLine
 10
69.6557877585
 20
141.7354483176
 30
0.0
 11
69.6557877585
 21
144.7354483176
 31
0.0
  0
LINE
  5
246
330
231
100
AcDbEntity
  8
SLD-0
100
AcDbLine
 10
68.8519407585
 20
131.7354483176
 30
0.0
 11
69.6557877585
 21
134.7354483176
 31
0.0
  0
LINE
  5
247
330
231
100
AcDbEntity
  8
SLD-0
100
AcDbLine
 10
69.6557877585
 20
134.7354483176
 30
0.0
 11
70.4596347585
 21
131.7354483176
 31
0.0
  0
LINE
  5
248
330
231
100
AcDbEntity
  8
SLD-0
100
AcDbLine
 10
69.6557877585
 20
134.7354483176
 30
0.0
 11
69.6557877585
 21
131.7354483176
 31
0.0
  0
MTEXT
  5
249
330
231
100
AcDbEntity
  8
SLD-0
100
AcDbMText
 10
65.1290939461
 20
137.2172232878
 30
0.1
 40
3.5
 41
0.0
 71
     1
 72
     1
  1
7
  7
SLDTEXTSTYLE2
 11
6.123031769111886E-17
 21
1.0
 31
0.0
 73
     1
 44
1.0
  0
ENDBLK
  5
23D
330
231
100
AcDbEntity
  8
0
100
AcDbBlockEnd
  0
BLOCK
  5
252
330
251
100
AcDbEntity
  8
0
100
AcDbBlockBegin
  2
SW_NOTE_0
 70
     0
 71
     0
 10
0.0
 20
0.0
 30
0.0
  3
SW_NOTE_0
  1

  0
MTEXT
  5
254
330
251
100
AcDbEntity
  8
0
  6
Continuous
 62
     7
370
     0
100
AcDbMText
 10
0.0
 20
4.9260606061
 30
0.0
 40
4.2333333333
 41
0.0
 71
     1
 72
     1
  1
φ12　スライド40
  7
SLDTEXTSTYLE0
 73
     1
 44
1.0
  0
MTEXT
  5
255
330
251
100
AcDbEntity
  8
0
  6
Continuous
 62
     7
370
     0
100
AcDbMText
 10
3.9511118084
 20
-0.7183837702
 30
0.0
 40
4.2333333333
 41
0.0
 71
     1
 72
     1
  1
Ｍ6ブラケット
  7
SLDTEXTSTYLE0
 73
     1
 44
1.0
  0
ENDBLK
  5
253
330
251
100
AcDbEntity
  8
0
100
AcDbBlockEnd
  0
ENDSEC
  0
SECTION
  2
ENTITIES
  0
LINE
  5
61
330
1F
100
AcDbEntity
  8
SLD-0
  6
Continuous
 62
     7
100
AcDbLine
 10
146.9765323421
 20
199.9698764487
 30
0.0
 11
143.9765299878
 21
202.9698764748
 31
0.0
  0
LINE
  5
62
330
1F
100
AcDbEntity
  8
SLD-0
  6
Continuous
 62
     7
100
AcDbLine
 10
146.9765323421
 20
199.9698764487
 30
0.0
 11
146.9765323421
 21
193.9698763966
 31
0.0
  0
LINE
  5
63
330
1F
100
AcDbEntity
  8
SLD-0
  6
Continuous
 62
     7
100
AcDbLine
 10
143.9765299878
 20
190.9698763705
 30
0.0
 11
146.9765323421
 21
193.9698763966
 31
0.0
  0
LINE
  5
64
330
1F
100
AcDbEntity
  8
SLD-0
  6
Continuous
 62
     7
100
AcDbLine
 10
78.9765314406
 20
192.4698766164
 30
0.0
 11
80.4765316865
 21
190.9698763705
 31
0.0
  0
LINE
  5
65
330
1F
100
AcDbEntity
  8
SLD-0
  6
Continuous
 62
     7
100
AcDbLine
 10
80.4765316865
 20
202.9698764748
 30
0.0
 11
78.9765314406
 21
201.4698762289
 31
0.0
  0
LINE
  5
66
330
1F
100
AcDbEntity
  8
SLD-0
  6
Continuous
 62
     7
100
AcDbLine
 10
80.4765316865
 20
202.9698764748
 30
0.0
 11
143.9765299878
 21
202.9698764748
 31
0.0
  0
LINE
  5
67
330
1F
100
AcDbEntity
  8
SLD-0
  6
Continuous
 62
     7
100
AcDbLine
 10
140.9765316567
 20
199.2198764227
 30
0.0
 11
100.9765316567
 21
199.2198764227
 31
0.0
  0
LINE
  5
68
330
1F
100
AcDbEntity
  8
SLD-0
  6
Continuous
 62
     7
100
AcDbLine
 10
100.9765316567
 20
194.7198764227
 30
0.0
 11
140.9765316567
 21
194.7198764227
 31
0.0
  0
LINE
  5
69
330
1F
100
AcDbEntity
  8
SLD-0
  6
Continuous
 62
     7
100
AcDbLine
 10
78.9765314406
 20
201.4698762289
 30
0.0
 11
78.9765314406
 21
192.4698766164
 31
0.0
  0
LINE
  5
6A
330
1F
100
AcDbEntity
  8
SLD-0
  6
Continuous
 62
     7
100
AcDbLine
 10
80.4765316865
 20
190.9698763705
 30
0.0
 11
143.9765299878
 21
190.9698763705
 31
0.0
  0
LINE
  5
6B
330
1F
100
AcDbEntity
  8
SLD-0
  6
HIDDEN
 62
     7
100
AcDbLine
 10
92.9765318728
 20
202.9698764748
 30
0.0
 11
92.9765318728
 21
190.9698763705
 31
0.0
  0
LINE
  5
6C
330
1F
100
AcDbEntity
  8
SLD-0
  6
HIDDEN
 62
     7
100
AcDbLine
 10
83.4765317126
 20
202.9698764748
 30
0.0
 11
83.4765317126
 21
196.9698764227
 31
0.0
  0
LINE
  5
6D
330
1F
100
AcDbEntity
  8
SLD-0
  6
HIDDEN
 62
     7
100
AcDbLine
 10
88.4765316008
 20
196.9698764227
 30
0.0
 11
88.4765316008
 21
202.9698764748
 31
0.0
  0
LINE
  5
6E
330
1F
100
AcDbEntity
  8
SLD-0
  6
HIDDEN
 62
     7
100
AcDbLine
 10
83.4765317126
 20
196.9698764227
 30
0.0
 11
83.4765317126
 21
190.9698763705
 31
0.0
  0
LINE
  5
6F
330
1F
100
AcDbEntity
  8
SLD-0
  6
HIDDEN
 62
     7
100
AcDbLine
 10
88.4765316008
 20
190.9698763705
 30
0.0
 11
88.4765316008
 21
196.9698764227
 31
0.0
  0
LINE
  5
70
330
1F
100
AcDbEntity
  8
SLD-0
 62
     7
100
AcDbLine
 10
145.4765316567
 20
201.4698764227
 30
0.0
 11
148.4698783504
 21
204.3083891398
 31
0.0
  0
LINE
  5
71
330
1F
100
AcDbEntity
  8
SLD-0
 62
     7
100
AcDbLine
 10
148.4698783504
 20
204.3083891398
 30
0.0
 11
156.6065816675
 21
212.1795121325
 31
0.0
  0
LINE
  5
72
330
1F
100
AcDbEntity
  8
SLD-0
 62
     7
100
AcDbLine
 10
79.7265316567
 20
191.7198764227
 30
0.0
 11
64.9635423091
 21
173.3061584697
 31
0.0
  0
LINE
  5
73
330
1F
100
AcDbEntity
  8
SLD-0
 62
     7
100
AcDbLine
 10
64.9635423091
 20
173.3061584697
 30
0.0
 11
74.6008964547
 21
185.3098002409
 31
0.0
  0
LINE
  5
74
330
1F
100
AcDbEntity
  8
SLD-0
  6
HIDDEN
 62
     7
100
AcDbLine
 10
85.9765316567
 20
193.9698763966
 30
0.0
 11
85.2792791415
 21
194.0520281281
 31
0.0
  0
LINE
  5
75
330
1F
100
AcDbEntity
  8
SLD-0
  6
HIDDEN
 62
     7
100
AcDbLine
 10
85.2792791415
 20
194.0520281281
 30
0.0
 11
84.6657526421
 21
194.2713846295
 31
0.0
  0
LINE
  5
76
330
1F
100
AcDbEntity
  8
SLD-0
  6
HIDDEN
 62
     7
100
AcDbLine
 10
84.6657526421
 20
194.2713846295
 30
0.0
 11
84.3126342373
 21
194.4738075911
 31
0.0
  0
LINE
  5
77
330
1F
100
AcDbEntity
  8
SLD-0
  6
HIDDEN
 62
     7
100
AcDbLine
 10
84.3126342373
 20
194.4738075911
 30
0.0
 11
84.0173383916
 21
194.6979692514
 31
0.0
  0
LINE
  5
78
330
1F
100
AcDbEntity
  8
SLD-0
  6
HIDDEN
 62
     7
100
AcDbLine
 10
84.0173383916
 20
194.6979692514
 30
0.0
 11
83.7770711372
 21
194.9301821954
 31
0.0
  0
LINE
  5
79
330
1F
100
AcDbEntity
  8
SLD-0
  6
HIDDEN
 62
     7
100
AcDbLine
 10
83.7770711372
 20
194.9301821954
 30
0.0
 11
83.60055431
 21
195.13828378
 31
0.0
  0
LINE
  5
7A
330
1F
100
AcDbEntity
  8
SLD-0
  6
HIDDEN
 62
     7
100
AcDbLine
 10
83.60055431
 20
195.13828378
 30
0.0
 11
83.4915327581
 21
195.2891680488
 31
0.0
  0
LINE
  5
7B
330
1F
100
AcDbEntity
  8
SLD-0
  6
HIDDEN
 62
     7
100
AcDbLine
 10
83.4915327581
 20
195.2891680488
 30
0.0
 11
83.4910244888
 21
195.2899197425
 31
0.0
  0
LINE
  5
7C
330
1F
100
AcDbEntity
  8
SLD-0
  6
HIDDEN
 62
     7
100
AcDbLine
 10
83.4910244888
 20
195.2899197425
 30
0.0
 11
83.6146324149
 21
195.1201651321
 31
0.0
  0
LINE
  5
7D
330
1F
100
AcDbEntity
  8
SLD-0
  6
HIDDEN
 62
     7
100
AcDbLine
 10
83.6146324149
 20
195.1201651321
 30
0.0
 11
83.7180334351
 21
194.9997836567
 31
0.0
  0
LINE
  5
7E
330
1F
100
AcDbEntity
  8
SLD-0
  6
HIDDEN
 62
     7
100
AcDbLine
 10
88.3472356221
 20
195.1328438084
 30
0.0
 11
88.359867383
 21
195.1478691847
 31
0.0
  0
LINE
  5
7F
330
1F
100
AcDbEntity
  8
SLD-0
  6
HIDDEN
 62
     7
100
AcDbLine
 10
88.359867383
 20
195.1478691847
 30
0.0
 11
88.4637033308
 21
195.2923850698
 31
0.0
  0
LINE
  5
80
330
1F
100
AcDbEntity
  8
SLD-0
  6
HIDDEN
 62
     7
100
AcDbLine
 10
88.4637033308
 20
195.2923850698
 30
0.0
 11
88.4603442831
 21
195.2874154161
 31
0.0
  0
LINE
  5
81
330
1F
100
AcDbEntity
  8
SLD-0
  6
HIDDEN
 62
     7
100
AcDbLine
 10
88.4603442831
 20
195.2874154161
 30
0.0
 11
88.331593361
 21
195.1114672777
 31
0.0
  0
LINE
  5
82
330
1F
100
AcDbEntity
  8
SLD-0
  6
HIDDEN
 62
     7
100
AcDbLine
 10
88.331593361
 20
195.1114672777
 30
0.0
 11
88.1531517229
 21
194.9057440582
 31
0.0
  0
LINE
  5
83
330
1F
100
AcDbEntity
  8
SLD-0
  6
HIDDEN
 62
     7
100
AcDbLine
 10
88.1531517229
 20
194.9057440582
 30
0.0
 11
87.9158197644
 21
194.6809549193
 31
0.0
  0
LINE
  5
84
330
1F
100
AcDbEntity
  8
SLD-0
  6
HIDDEN
 62
     7
100
AcDbLine
 10
87.9158197644
 20
194.6809549193
 30
0.0
 11
87.6057009886
 21
194.4510386168
 31
0.0
  0
LINE
  5
85
330
1F
100
AcDbEntity
  8
SLD-0
  6
HIDDEN
 62
     7
100
AcDbLine
 10
87.6057009886
 20
194.4510386168
 30
0.0
 11
87.2342531078
 21
194.2462507944
 31
0.0
  0
LINE
  5
86
330
1F
100
AcDbEntity
  8
SLD-0
  6
HIDDEN
 62
     7
100
AcDbLine
 10
87.2342531078
 20
194.2462507944
 30
0.0
 11
86.5805712969
 21
194.0313162125
 31
0.0
  0
LINE
  5
87
330
1F
100
AcDbEntity
  8
SLD-0
  6
HIDDEN
 62
     7
100
AcDbLine
 10
86.5805712969
 20
194.0313162125
 30
0.0
 11
85.9765316567
 21
193.9698763966
 31
0.0
  0
LINE
  5
88
330
1F
100
AcDbEntity
  8
SLD-0
  6
HIDDEN
 62
     7
100
AcDbLine
 10
88.9765316828
 20
190.9698763705
 30
0.0
 11
88.9765316828
 21
202.9698764748
 31
0.0
  0
LINE
  5
89
330
1F
100
AcDbEntity
  8
SLD-0
  6
HIDDEN
 62
     7
100
AcDbLine
 10
82.9765316306
 20
202.9698764748
 30
0.0
 11
82.9765316306
 21
190.9698763705
 31
0.0
  0
LINE
  5
8A
330
1F
100
AcDbEntity
  8
SLD-0
  6
HIDDEN
 62
     7
100
AcDbLine
 10
85.9765316567
 20
199.4698763668
 30
0.0
 11
86.131669232
 21
199.4478044874
 31
0.0
  0
LINE
  5
8B
330
1F
100
AcDbEntity
  8
SLD-0
  6
HIDDEN
 62
     7
100
AcDbLine
 10
88.4616891129
 20
197.0742320048
 30
0.0
 11
88.4619352149
 21
196.8116577994
 31
0.0
  0
LINE
  5
8C
330
1F
100
AcDbEntity
  8
SLD-0
  6
HIDDEN
 62
     7
100
AcDbLine
 10
85.5883282642
 20
199.4222732104
 30
0.0
 11
85.9765316567
 21
199.4698763668
 31
0.0
  0
LINE
  5
8D
330
1F
100
AcDbEntity
  8
SLD-0
  6
CENTERX2
 62
     7
100
AcDbLine
 10
85.9765316567
 20
188.9698764227
 30
0.0
 11
85.9765316567
 21
198.9698764227
 31
0.0
  0
LINE
  5
8E
330
1F
100
AcDbEntity
  8
SLD-0
  6
CENTERX2
 62
     7
100
AcDbLine
 10
85.9765316567
 20
194.9698764227
 30
0.0
 11
85.9765316567
 21
204.9698764227
 31
0.0
  0
LINE
  5
8F
330
1F
100
AcDbEntity
  8
SLD-0
  6
CENTERX2
 62
     7
100
AcDbLine
 10
142.9765316567
 20
196.9698764227
 30
0.0
 11
98.9765316567
 21
196.9698764227
 31
0.0
  0
LINE
  5
90
330
1F
100
AcDbEntity
  8
SLD-0
  6
Continuous
 62
     7
100
AcDbLine
 10
143.9765299878
 20
137.7354483436
 30
0.0
 11
143.9765299878
 21
141.7354485336
 31
0.0
  0
LINE
  5
91
330
1F
100
AcDbEntity
  8
SLD-0
  6
Continuous
 62
     7
100
AcDbLine
 10
143.9765299878
 20
137.7354483436
 30
0.0
 11
92.9765318728
 21
137.7354483436
 31
0.0
  0
LINE
  5
92
330
1F
100
AcDbEntity
  8
SLD-0
  6
Continuous
 62
     7
100
AcDbLine
 10
92.9765318728
 20
137.7354483436
 30
0.0
 11
92.9765318728
 21
127.7354481015
 31
0.0
  0
LINE
  5
93
330
1F
100
AcDbEntity
  8
SLD-0
  6
Continuous
 62
     7
100
AcDbLine
 10
92.9765318728
 20
127.7354481015
 30
0.0
 11
80.4765316865
 21
127.7354481015
 31
0.0
  0
LINE
  5
94
330
1F
100
AcDbEntity
  8
SLD-0
  6
Continuous
 62
     7
100
AcDbLine
 10
80.4765316865
 20
141.7354485336
 30
0.0
 11
80.4765316865
 21
127.7354481015
 31
0.0
  0
LINE
  5
95
330
1F
100
AcDbEntity
  8
SLD-0
  6
Continuous
 62
     7
100
AcDbLine
 10
80.4765316865
 20
141.7354485336
 30
0.0
 11
143.9765299878
 21
141.7354485336
 31
0.0
  0
LINE
  5
96
330
1F
100
AcDbEntity
  8
SLD-0
  6
Continuous
 62
     7
100
AcDbLine
 10
78.9765314406
 20
127.7354481015
 30
0.0
 11
78.9765314406
 21
141.7354485336
 31
0.0
  0
LINE
  5
97
330
1F
100
AcDbEntity
  8
SLD-0
  6
Continuous
 62
     7
100
AcDbLine
 10
78.9765314406
 20
141.7354485336
 30
0.0
 11
80.4765316865
 21
141.7354485336
 31
0.0
  0
LINE
  5
98
330
1F
100
AcDbEntity
  8
SLD-0
  6
Continuous
 62
     7
100
AcDbLine
 10
80.4765316865
 20
127.7354481015
 30
0.0
 11
78.9765314406
 21
127.7354481015
 31
0.0
  0
LINE
  5
99
330
1F
100
AcDbEntity
  8
SLD-0
  6
Continuous
 62
     7
100
AcDbLine
 10
146.9765323421
 20
141.7354485336
 30
0.0
 11
146.9765323421
 21
137.7354483436
 31
0.0
  0
LINE
  5
9A
330
1F
100
AcDbEntity
  8
SLD-0
  6
Continuous
 62
     7
100
AcDbLine
 10
146.9765323421
 20
137.7354483436
 30
0.0
 11
143.9765299878
 21
137.7354483436
 31
0.0
  0
LINE
  5
9B
330
1F
100
AcDbEntity
  8
SLD-0
  6
Continuous
 62
     7
100
AcDbLine
 10
143.9765299878
 20
141.7354485336
 30
0.0
 11
146.9765323421
 21
141.7354485336
 31
0.0
  0
LINE
  5
9C
330
1F
100
AcDbEntity
  8
SLD-0
  6
HIDDEN
 62
     7
100
AcDbLine
 10
140.9765313587
 20
137.7354483436
 30
0.0
 11
140.9765313587
 21
141.7354485336
 31
0.0
  0
LINE
  5
9D
330
1F
100
AcDbEntity
  8
SLD-0
  6
HIDDEN
 62
     7
100
AcDbLine
 10
100.9765313214
 20
137.7354483436
 30
0.0
 11
100.9765313214
 21
141.7354485336
 31
0.0
  0
LINE
  5
9E
330
1F
100
AcDbEntity
  8
SLD-0
  6
HIDDEN
 62
     7
100
AcDbLine
 10
100.9765313214
 20
137.7354483436
 30
0.0
 11
100.9765313214
 21
141.7354485336
 31
0.0
  0
LINE
  5
9F
330
1F
100
AcDbEntity
  8
SLD-0
  6
HIDDEN
 62
     7
100
AcDbLine
 10
83.4765317126
 20
134.7354483176
 30
0.0
 11
83.4765317126
 21
127.7354481015
 31
0.0
  0
LINE
  5
A0
330
1F
100
AcDbEntity
  8
SLD-0
  6
HIDDEN
 62
     7
100
AcDbLine
 10
88.4765316008
 20
127.7354481015
 30
0.0
 11
88.4765316008
 21
134.7354483176
 31
0.0
  0
LINE
  5
A1
330
1F
100
AcDbEntity
  8
SLD-0
  6
HIDDEN
 62
     7
100
AcDbLine
 10
83.4765317126
 20
141.7354485336
 30
0.0
 11
83.4765317126
 21
134.7354483176
 31
0.0
  0
LINE
  5
A2
330
1F
100
AcDbEntity
  8
SLD-0
  6
HIDDEN
 62
     7
100
AcDbLine
 10
88.4765316008
 20
134.7354483176
 30
0.0
 11
88.4765316008
 21
141.7354485336
 31
0.0
  0
LINE
  5
A3
330
1F
100
AcDbEntity
  8
SLD-0
  6
HIDDEN
 62
     7
100
AcDbLine
 10
143.2265321931
 20
137.7354483436
 30
0.0
 11
143.2265321931
 21
141.7354485336
 31
0.0
  0
LINE
  5
A4
330
1F
100
AcDbEntity
  8
SLD-0
  6
HIDDEN
 62
     7
100
AcDbLine
 10
98.7265314183
 20
141.7354485336
 30
0.0
 11
98.7265314183
 21
137.7354483436
 31
0.0
  0
LINE
  5
A5
330
1F
100
AcDbEntity
  8
SLD-0
  6
HIDDEN
 62
     7
100
AcDbLine
 10
88.9765316828
 20
127.7354481015
 30
0.0
 11
88.9765316828
 21
141.7354485336
 31
0.0
  0
LINE
  5
A6
330
1F
100
AcDbEntity
  8
SLD-0
  6
HIDDEN
 62
     7
100
AcDbLine
 10
82.9765316306
 20
141.7354485336
 30
0.0
 11
82.9765316306
 21
127.7354481015
 31
0.0
  0
LINE
  5
A7
330
1F
100
AcDbEntity
  8
SLD-0
  6
HIDDEN
 62
     7
100
AcDbLine
 10
85.9765316567
 20
131.7354482915
 30
0.0
 11
86.0305136597
 21
131.7418085262
 31
0.0
  0
LINE
  5
A8
330
1F
100
AcDbEntity
  8
SLD-0
  6
HIDDEN
 62
     7
100
AcDbLine
 10
88.3462577334
 20
132.8964857701
 30
0.0
 11
88.3525090034
 21
132.9038556749
 31
0.0
  0
LINE
  5
A9
330
1F
100
AcDbEntity
  8
SLD-0
  6
HIDDEN
 62
     7
100
AcDbLine
 10
88.3525090034
 20
132.9038556749
 30
0.0
 11
88.4615305553
 21
133.0547399437
 31
0.0
  0
LINE
  5
AA
330
1F
100
AcDbEntity
  8
SLD-0
  6
HIDDEN
 62
     7
100
AcDbLine
 10
88.4615305553
 20
133.0547399437
 30
0.0
 11
88.4620388246
 21
133.0554916374
 31
0.0
  0
LINE
  5
AB
330
1F
100
AcDbEntity
  8
SLD-0
  6
HIDDEN
 62
     7
100
AcDbLine
 10
88.4620388246
 20
133.0554916374
 30
0.0
 11
88.3384308985
 21
132.885737027
 31
0.0
  0
LINE
  5
AC
330
1F
100
AcDbEntity
  8
SLD-0
  6
HIDDEN
 62
     7
100
AcDbLine
 10
88.3384308985
 20
132.885737027
 30
0.0
 11
88.1654684639
 21
132.6843707673
 31
0.0
  0
LINE
  5
AD
330
1F
100
AcDbEntity
  8
SLD-0
  6
HIDDEN
 62
     7
100
AcDbLine
 10
88.1654684639
 20
132.6843707673
 30
0.0
 11
88.1534928197
 21
132.6728642769
 31
0.0
  0
LINE
  5
AE
330
1F
100
AcDbEntity
  8
SLD-0
  6
HIDDEN
 62
     7
100
AcDbLine
 10
86.5758769654
 20
131.79820849
 30
0.0
 11
86.2493965691
 21
131.7482162583
 31
0.0
  0
LINE
  5
AF
330
1F
100
AcDbEntity
  8
SLD-0
  6
HIDDEN
 62
     7
100
AcDbLine
 10
86.2493965691
 20
131.7482162583
 30
0.0
 11
85.8735941296
 21
131.7372147776
 31
0.0
  0
LINE
  5
B0
330
1F
100
AcDbEntity
  8
SLD-0
  6
HIDDEN
 62
     7
100
AcDbLine
 10
85.8735941296
 20
131.7372147776
 30
0.0
 11
85.2297662499
 21
131.8298776485
 31
0.0
  0
LINE
  5
B1
330
1F
100
AcDbEntity
  8
SLD-0
  6
HIDDEN
 62
     7
100
AcDbLine
 10
85.2297662499
 20
131.8298776485
 30
0.0
 11
84.652967213
 21
132.0432045348
 31
0.0
  0
LINE
  5
B2
330
1F
100
AcDbEntity
  8
SLD-0
  6
HIDDEN
 62
     7
100
AcDbLine
 10
84.652967213
 20
132.0432045348
 30
0.0
 11
84.3001318139
 21
132.2477623205
 31
0.0
  0
LINE
  5
B3
330
1F
100
AcDbEntity
  8
SLD-0
  6
HIDDEN
 62
     7
100
AcDbLine
 10
84.3001318139
 20
132.2477623205
 30
0.0
 11
84.0057552999
 21
132.473581735
 31
0.0
  0
LINE
  5
B4
330
1F
100
AcDbEntity
  8
SLD-0
  6
HIDDEN
 62
     7
100
AcDbLine
 10
84.0057552999
 20
132.473581735
 30
0.0
 11
83.767164659
 21
132.7065069079
 31
0.0
  0
LINE
  5
B5
330
1F
100
AcDbEntity
  8
SLD-0
  6
HIDDEN
 62
     7
100
AcDbLine
 10
83.767164659
 20
132.7065069079
 30
0.0
 11
83.5931959304
 21
132.9134410796
 31
0.0
  0
LINE
  5
B6
330
1F
100
AcDbEntity
  8
SLD-0
  6
HIDDEN
 62
     7
100
AcDbLine
 10
83.5931959304
 20
132.9134410796
 30
0.0
 11
83.4893599825
 21
133.0579569647
 31
0.0
  0
LINE
  5
B7
330
1F
100
AcDbEntity
  8
SLD-0
  6
HIDDEN
 62
     7
100
AcDbLine
 10
83.4893599825
 20
133.0579569647
 30
0.0
 11
83.4927190302
 21
133.052987311
 31
0.0
  0
LINE
  5
B8
330
1F
100
AcDbEntity
  8
SLD-0
  6
HIDDEN
 62
     7
100
AcDbLine
 10
83.4927190302
 20
133.052987311
 30
0.0
 11
83.6214699524
 21
132.8770391727
 31
0.0
  0
LINE
  5
B9
330
1F
100
AcDbEntity
  8
SLD-0
  6
HIDDEN
 62
     7
100
AcDbLine
 10
83.6214699524
 20
132.8770391727
 30
0.0
 11
83.6971485263
 21
132.7897903127
 31
0.0
  0
LINE
  5
BA
330
1F
100
AcDbEntity
  8
SLD-0
  6
HIDDEN
 62
     7
100
AcDbLine
 10
85.9400402882
 20
131.7391600776
 30
0.0
 11
85.9765316567
 21
131.7354482915
 31
0.0
  0
LINE
  5
BB
330
1F
100
AcDbEntity
  8
SLD-0
  6
CENTERX2
 62
     7
100
AcDbLine
 10
100.9765316567
 20
135.7354483176
 30
0.0
 11
100.9765316567
 21
143.7354483176
 31
0.0
  0
LINE
  5
BC
330
1F
100
AcDbEntity
  8
SLD-0
  6
CENTERX2
 62
     7
100
AcDbLine
 10
140.9765316567
 20
135.7354483176
 30
0.0
 11
140.9765316567
 21
143.7354483176
 31
0.0
  0
LINE
  5
BD
330
1F
100
AcDbEntity
  8
0
  6
Continuous
 62
     7
370
     0
100
AcDbLine
 10
20.2604743903
 20
285.0
 30
0.0
 11
196.7604743903
 21
285.0
 31
0.0
  0
LINE
  5
BE
330
1F
100
AcDbEntity
  8
0
  6
Continuous
 62
     7
370
     0
100
AcDbLine
 10
20.2604743903
 20
285.0
 30
0.0
 11
20.2604743903
 21
10.0
 31
0.0
  0
LINE
  5
BF
330
1F
100
AcDbEntity
  8
0
  6
Continuous
 62
     7
370
     0
100
AcDbLine
 10
20.2604743903
 20
10.0
 30
0.0
 11
196.7604743903
 21
10.0
 31
0.0
  0
LINE
  5
C0
330
1F
100
AcDbEntity
  8
0
  6
Continuous
 62
     7
370
     0
100
AcDbLine
 10
196.7604743903
 20
285.0
 30
0.0
 11
196.7604743903
 21
10.0
 31
0.0
  0
LINE
  5
C1
330
1F
100
AcDbEntity
  8
0
  6
Continuous
 62
     7
370
     0
100
AcDbLine
 10
127.0104743903
 20
50.75
 30
0.0
 11
196.7604743903
 21
50.75
 31
0.0
  0
LINE
  5
C2
330
1F
100
AcDbEntity
  8
0
  6
Continuous
 62
     7
370
     0
100
AcDbLine
 10
127.0104743903
 20
50.75
 30
0.0
 11
127.0104743903
 21
10.0
 31
0.0
  0
LINE
  5
C3
330
1F
100
AcDbEntity
  8
0
  6
Continuous
 62
     7
370
     0
100
AcDbLine
 10
127.0104743903
 20
22.75
 30
0.0
 11
196.7604743903
 21
22.75
 31
0.0
  0
LINE
  5
C4
330
1F
100
AcDbEntity
  8
0
  6
Continuous
 62
     7
370
     0
100
AcDbLine
 10
127.0104743903
 20
36.75
 30
0.0
 11
196.7604743903
 21
36.75
 31
0.0
  0
ARC
  5
C5
330
1F
100
AcDbEntity
  8
SLD-0
  6
Continuous
 62
     7
100
AcDbCircle
 10
140.9765316567
 20
196.9698764227
 30
0.0
 40
2.25
100
AcDbArc
 50
270.0
 51
90.0
  0
ARC
  5
C6
330
1F
100
AcDbEntity
  8
SLD-0
  6
Continuous
 62
     7
100
AcDbCircle
 10
100.9765316567
 20
196.9698764227
 30
0.0
 40
2.25
100
AcDbArc
 50
90.0
 51
270.0
  0
CIRCLE
  5
C7
330
1F
100
AcDbEntity
  8
SLD-0
  6
Continuous
 62
     7
100
AcDbCircle
 10
85.9765316567
 20
196.9698764227
 30
0.0
 40
2.5
  0
CIRCLE
  5
C8
330
1F
100
AcDbEntity
  8
SLD-0
 62
     7
100
AcDbCircle
 10
85.9765316567
 20
196.9698764227
 30
0.0
 40
3.000000026100011
  0
CIRCLE
  5
C9
330
1F
100
AcDbEntity
  8
SLD-0
  6
Continuous
 62
     7
100
AcDbCircle
 10
85.9765316567
 20
134.7354483176
 30
0.0
 40
2.5
  0
CIRCLE
  5
CA
330
1F
100
AcDbEntity
  8
SLD-0
 62
     7
100
AcDbCircle
 10
85.9765316567
 20
134.7354483176
 30
0.0
 40
3.000000026100011
  0
DIMENSION
  5
CB
330
1F
100
AcDbEntity
  8
SLD-0
 62
     7
100
AcDbDimension
  2
*D7
 10
100.9765316567
 20
179.5800144639
 30
0.0
 11
89.9765316567
 21
179.5800144639
 31
0.0
 70
   160
 71
     1
 42
22.0
  3
SLDDIMSTYLE0
100
AcDbAlignedDimension
 13
78.9765316567
 23
190.9698764227
 33
0.0
 14
100.9765316567
 24
196.9698764227
 34
0.0
100
AcDbRotatedDimension
1001
ACAD
1000
DSTYLE
1002
{
1070
    77
1070
     3
1070
   143
1040
0.0393700787
1070
    41
1040
3.0
1070
    44
1040
1.0
1070
    42
1040
1.0
1070
   147
1040
1.524
1070
    73
1070
     0
1070
    74
1070
     0
1070
   140
1040
3.5
1070
   284
1070
    12
1070
    78
1070
    12
1002
}
  0
DIMENSION
  5
E9
330
1F
100
AcDbEntity
  8
SLD-0
 62
     7
100
AcDbDimension
  2
*D9
 10
100.9765316567
 20
179.5800144639
 30
0.0
 11
120.9765316567
 21
179.5800144639
 31
0.0
 70
   160
 71
     1
 42
40.0
  3
SLDDIMSTYLE0
100
AcDbAlignedDimension
 13
140.9765316567
 23
196.9698764227
 33
0.0
 14
100.9765316567
 24
196.9698764227
 34
0.0
100
AcDbRotatedDimension
1001
ACAD
1000
DSTYLE
1002
{
1070
    77
1070
     3
1070
   143
1040
0.0393700787
1070
    41
1040
3.0
1070
    44
1040
1.0
1070
    42
1040
1.0
1070
   147
1040
1.524
1070
    73
1070
     0
1070
    74
1070
     0
1070
   140
1040
3.5
1070
   284
1070
    12
1070
    78
1070
    12
1002
}
  0
DIMENSION
  5
100
330
1F
100
AcDbEntity
  8
SLD-0
 62
     7
100
AcDbDimension
  2
*D10
 10
122.999575135
 20
199.2198764227
 30
0.0
 11
122.999575135
 21
210.3575183682
 31
0.0
 70
   160
 71
     1
 42
4.5
  3
SLDDIMSTYLE1
100
AcDbAlignedDimension
 13
140.9765316567
 23
194.7198764227
 33
0.0
 14
140.9765316567
 24
199.2198764227
 34
0.0
 50
90.0
100
AcDbRotatedDimension
1001
ACAD
1000
DSTYLE
1002
{
1070
    77
1070
     3
1070
   143
1040
0.0393700787
1070
    41
1040
3.0
1070
    44
1040
1.0
1070
    42
1040
1.0
1070
   147
1040
1.524
1070
    73
1070
     0
1070
    74
1070
     0
1070
   140
1040
3.5
1070
   284
1070
    12
1070
    78
1070
    12
1002
}
  0
DIMENSION
  5
11A
330
1F
100
AcDbEntity
  8
SLD-0
100
AcDbDimension
  2
*D11
 10
160.4858521668
 20
196.9698764227
 30
0.0
 11
160.4858521668
 21
193.9698764227
 31
0.0
 70
   160
 71
     1
 42
6.0
  3
SLDDIMSTYLE0
100
AcDbAlignedDimension
 13
143.9765316567
 23
190.9698764227
 33
0.0
 14
142.9765316567
 24
196.9698764227
 34
0.0
 50
90.0
100
AcDbRotatedDimension
1001
ACAD
1000
DSTYLE
1002
{
1070
    77
1070
     3
1070
   143
1040
0.0393700787
1070
    41
1040
3.0
1070
    44
1040
1.0
1070
    42
1040
1.0
1070
   147
1040
1.524
1070
    73
1070
     0
1070
    74
1070
     0
1070
   140
1040
3.5
1070
   284
1070
    12
1070
    78
1070
    12
1002
}
  0
DIMENSION
  5
134
330
1F
100
AcDbEntity
  8
SLD-0
 62
     7
100
AcDbDimension
  2
*D12
 10
146.9765316567
 20
171.0397070545
 30
0.0
 11
112.9765316567
 21
171.0397070545
 31
0.0
 70
   160
 71
     1
 42
68.0
  3
SLDDIMSTYLE0
100
AcDbAlignedDimension
 13
78.9765316567
 23
196.9698764227
 33
0.0
 14
146.9765316567
 24
196.9698764227
 34
0.0
100
AcDbRotatedDimension
1001
ACAD
1000
DSTYLE
1002
{
1070
    77
1070
     3
1070
   143
1040
0.0393700787
1070
    41
1040
3.0
1070
    44
1040
1.0
1070
    42
1040
1.0
1070
   147
1040
1.524
1070
    73
1070
     0
1070
    74
1070
     0
1070
   140
1040
3.5
1070
   284
1070
    12
1070
    78
1070
    12
1002
}
  0
DIMENSION
  5
14B
330
1F
100
AcDbEntity
  8
SLD-0
 62
     7
100
AcDbDimension
  2
*D13
 10
100.9765316567
 20
196.9698764227
 30
0.0
 11
92.7775304871
 21
209.3648783867
 31
0.0
 70
   164
  1
<>-R
 71
     1
 42
221.3445101271
  3
SLDDIMSTYLE2
100
AcDbRadialDimension
 15
0.0
 25
0.0
 35
0.0
 40
0.0
1001
ACAD
1000
DSTYLE
1002
{
1070
    77
1070
     0
1070
   143
1040
0.0393700787
1070
    41
1040
3.0
1070
    44
1040
1.0
1070
    42
1040
1.0
1070
   147
1040
1.524
1070
    73
1070
     1
1070
    74
1070
     1
1070
   140
1040
3.5
1070
   284
1070
    12
1070
    78
1070
    12
1002
}
  0
DIMENSION
  5
15B
330
1F
100
AcDbEntity
  8
SLD-0
 62
     7
100
AcDbDimension
  2
*D14
 10
2.40027716
 20
5.4989691544
 30
0.0
 11
53.407659566
 21
-5.4989697497
 31
0.0
 70
   163
  1
M<>　P＝0.75貫通<>
 71
     1
 42
5.9999993505
  3
SLDDIMSTYLE3
100
AcDbDiametricDimension
 15
0.0
 25
0.0
 35
0.0
 40
0.0
1001
ACAD
1000
DSTYLE
1002
{
1070
    77
1070
     0
1070
   143
1040
0.0393700787
1070
    41
1040
3.0
1070
    44
1040
1.0
1070
    42
1040
1.0
1070
   147
1040
1.524
1070
    73
1070
     1
1070
    74
1070
     1
1070
   140
1040
3.5
1070
   284
1070
    12
1070
    78
1070
    12
1002
}
  0
DIMENSION
  5
16E
330
1F
100
AcDbEntity
  8
SLD-0
100
AcDbDimension
  2
*D15
 10
66.2970924115
 20
190.9698764227
 30
0.0
 11
66.2970924115
 21
193.9698764227
 31
0.0
 70
   160
 71
     1
 42
6.0
  3
SLDDIMSTYLE0
100
AcDbAlignedDimension
 13
80.9765316567
 23
196.9698764227
 33
0.0
 14
80.4765316567
 24
190.9698764227
 34
0.0
 50
90.0
100
AcDbRotatedDimension
1001
ACAD
1000
DSTYLE
1002
{
1070
    77
1070
     3
1070
   143
1040
0.0393700787
1070
    41
1040
3.0
1070
    44
1040
1.0
1070
    42
1040
1.0
1070
   147
1040
1.524
1070
    73
1070
     0
1070
    74
1070
     0
1070
   140
1040
3.5
1070
   284
1070
    12
1070
    78
1070
    12
1002
}
  0
DIMENSION
  5
188
330
1F
100
AcDbEntity
  8
SLD-0
100
AcDbDimension
  2
*D16
 10
78.9765316567
 20
218.7476312031
 30
0.0
 11
82.4765316567
 21
218.7476312031
 31
0.0
 70
   160
 71
     1
 42
7.0
  3
SLDDIMSTYLE0
100
AcDbAlignedDimension
 13
85.9765316567
 23
198.9698764227
 33
0.0
 14
78.9765316567
 24
201.4698764227
 34
0.0
100
AcDbRotatedDimension
1001
ACAD
1000
DSTYLE
1002
{
1070
    77
1070
     3
1070
   143
1040
0.0393700787
1070
    41
1040
3.0
1070
    44
1040
1.0
1070
    42
1040
1.0
1070
   147
1040
1.524
1070
    73
1070
     0
1070
    74
1070
     0
1070
   140
1040
3.5
1070
   284
1070
    12
1070
    78
1070
    12
1002
}
  0
DIMENSION
  5
1A2
330
1F
100
AcDbEntity
  8
SLD-0
 62
     7
100
AcDbDimension
  2
*D17
 10
58.6295675976
 20
202.9698764227
 30
0.0
 11
58.6295675976
 21
196.9698764227
 31
0.0
 70
   160
 71
     1
 42
12.0
  3
SLDDIMSTYLE0
100
AcDbAlignedDimension
 13
80.4765316567
 23
190.9698764227
 33
0.0
 14
80.4765316567
 24
202.9698764227
 34
0.0
 50
90.0
100
AcDbRotatedDimension
1001
ACAD
1000
DSTYLE
1002
{
1070
    77
1070
     3
1070
   143
1040
0.0393700787
1070
    41
1040
3.0
1070
    44
1040
1.0
1070
    42
1040
1.0
1070
   147
1040
1.524
1070
    73
1070
     0
1070
    74
1070
     0
1070
   140
1040
3.5
1070
   284
1070
    12
1070
    78
1070
    12
1002
}
  0
DIMENSION
  5
1BA
330
1F
100
AcDbEntity
  8
SLD-0
 62
     7
100
AcDbDimension
  2
*D18
 10
85.9765316567
 20
117.63546426
 30
0.0
 11
82.4765316567
 21
117.63546426
 31
0.0
 70
   160
 71
     1
 42
7.0
  3
SLDDIMSTYLE0
100
AcDbAlignedDimension
 13
78.9765316567
 23
127.7354483176
 33
0.0
 14
85.9765316567
 24
134.7354483176
 34
0.0
100
AcDbRotatedDimension
1001
ACAD
1000
DSTYLE
1002
{
1070
    77
1070
     3
1070
   143
1040
0.0393700787
1070
    41
1040
3.0
1070
    44
1040
1.0
1070
    42
1040
1.0
1070
   147
1040
1.524
1070
    73
1070
     0
1070
    74
1070
     0
1070
   140
1040
3.5
1070
   284
1070
    12
1070
    78
1070
    12
1002
}
  0
DIMENSION
  5
1D4
330
1F
100
AcDbEntity
  8
SLD-0
 62
     7
100
AcDbDimension
  2
*D19
 10
92.9765316567
 20
106.1690559021
 30
0.0
 11
85.9765316567
 21
106.1690559021
 31
0.0
 70
   160
 71
     1
 42
14.0
  3
SLDDIMSTYLE0
100
AcDbAlignedDimension
 13
78.9765316567
 23
127.7354483176
 33
0.0
 14
92.9765316567
 24
127.7354483176
 34
0.0
100
AcDbRotatedDimension
1001
ACAD
1000
DSTYLE
1002
{
1070
    77
1070
     3
1070
   143
1040
0.0393700787
1070
    41
1040
3.0
1070
    44
1040
1.0
1070
    42
1040
1.0
1070
   147
1040
1.524
1070
    73
1070
     0
1070
    74
1070
     0
1070
   140
1040
3.5
1070
   284
1070
    12
1070
    78
1070
    12
1002
}
  0
DIMENSION
  5
1EB
330
1F
100
AcDbEntity
  8
SLD-0
 62
     7
100
AcDbDimension
  2
*D20
 10
59.2003597804
 20
141.7354483176
 30
0.0
 11
59.2003597804
 21
134.7354483176
 31
0.0
 70
   160
 71
     1
 42
14.0
  3
SLDDIMSTYLE0
100
AcDbAlignedDimension
 13
78.9765316567
 23
127.7354483176
 33
0.0
 14
78.9765316567
 24
141.7354483176
 34
0.0
 50
90.0
100
AcDbRotatedDimension
1001
ACAD
1000
DSTYLE
1002
{
1070
    77
1070
     3
1070
   143
1040
0.0393700787
1070
    41
1040
3.0
1070
    44
1040
1.0
1070
    42
1040
1.0
1070
   147
1040
1.524
1070
    73
1070
     0
1070
    74
1070
     0
1070
   140
1040
3.5
1070
   284
1070
    12
1070
    78
1070
    12
1002
}
  0
DIMENSION
  5
203
330
1F
100
AcDbEntity
  8
SLD-0
100
AcDbDimension
  2
*D21
 10
158.3974807585
 20
137.7354483176
 30
0.0
 11
158.3974807585
 21
147.7291686113
 31
0.0
 70
   160
 71
     1
 42
4.0
  3
SLDDIMSTYLE0
100
AcDbAlignedDimension
 13
143.9765316567
 23
141.7354483176
 33
0.0
 14
143.9765316567
 24
137.7354483176
 34
0.0
 50
90.0
100
AcDbRotatedDimension
1001
ACAD
1000
DSTYLE
1002
{
1070
    77
1070
     3
1070
   143
1040
0.0393700787
1070
    41
1040
3.0
1070
    44
1040
1.0
1070
    42
1040
1.0
1070
   147
1040
1.524
1070
    73
1070
     0
1070
    74
1070
     0
1070
   140
1040
3.5
1070
   284
1070
    12
1070
    78
1070
    12
1002
}
  0
DIMENSION
  5
21E
330
1F
100
AcDbEntity
  8
SLD-0
 62
     7
100
AcDbDimension
  2
*D22
 10
3.2275500844
 20
5.0579547606
 30
0.0
 11
52.2170570109
 21
-5.0579557506
 31
0.0
 70
   163
  1
M<>　P＝0.75貫通<>
 71
     1
 42
5.9999988257
  3
SLDDIMSTYLE3
100
AcDbDiametricDimension
 15
0.0
 25
0.0
 35
0.0
 40
0.0
1001
ACAD
1000
DSTYLE
1002
{
1070
    77
1070
     0
1070
   143
1040
0.0393700787
1070
    41
1040
3.0
1070
    44
1040
1.0
1070
    42
1040
1.0
1070
   147
1040
1.524
1070
    73
1070
     1
1070
    74
1070
     1
1070
   140
1040
3.5
1070
   284
1070
    12
1070
    78
1070
    12
1002
}
  0
DIMENSION
  5
230
330
1F
100
AcDbEntity
  8
SLD-0
100
AcDbDimension
  2
*D23
 10
69.6557877585
 20
141.7354483176
 30
0.0
 11
69.6557877585
 21
138.2354483176
 31
0.0
 70
   160
 71
     1
 42
7.0
  3
SLDDIMSTYLE0
100
AcDbAlignedDimension
 13
88.4765316567
 23
134.7354483176
 33
0.0
 14
80.4765316567
 24
141.7354483176
 34
0.0
 50
90.0
100
AcDbRotatedDimension
1001
ACAD
1000
DSTYLE
1002
{
1070
    77
1070
     3
1070
   143
1040
0.0393700787
1070
    41
1040
3.0
1070
    44
1040
1.0
1070
    42
1040
1.0
1070
   147
1040
1.524
1070
    73
1070
     0
1070
    74
1070
     0
1070
   140
1040
3.5
1070
   284
1070
    12
1070
    78
1070
    12
1002
}
  0
MTEXT
  5
24A
330
1F
100
AcDbEntity
  8
SLD-0
 62
     7
100
AcDbMText
 10
146.4632180615
 20
208.6660100077
 30
0.0
 40
3.5
 41
0.0
 71
     1
 72
     1
  1
2-
  7
SLDTEXTSTYLE1
 11
0.7187392362583328
 21
0.6952797352596928
 31
0.0
 73
     1
 44
1.0
  0
MTEXT
  5
24B
330
1F
100
AcDbEntity
  8
SLD-0
 62
     7
100
AcDbMText
 10
149.3905711825
 20
211.4978149244
 30
0.0
 40
3.5
 41
0.0
 71
     1
 72
     1
  1
C
  7
SLDTEXTSTYLE1
 11
0.7187392362583328
 21
0.6952797352596928
 31
0.0
 73
     1
 44
1.0
  0
MTEXT
  5
24C
330
1F
100
AcDbEntity
  8
SLD-0
 62
     7
100
AcDbMText
 10
150.854247743
 20
212.9137173827
 30
0.0
 40
3.5
 41
0.0
 71
     1
 72
     1
  1
3
  7
SLDTEXTSTYLE1
 11
0.7187392362583328
 21
0.6952797352596928
 31
0.0
 73
     1
 44
1.0
  0
MTEXT
  5
24D
330
1F
100
AcDbEntity
  8
SLD-0
 62
     7
100
AcDbMText
 10
62.427219898
 20
177.3783340271
 30
0.0
 40
3.5
 41
0.0
 71
     1
 72
     1
  1
2-
  7
SLDTEXTSTYLE1
 11
0.6260583175075529
 21
0.7797762391094076
 31
0.0
 73
     1
 44
1.0
  0
MTEXT
  5
24E
330
1F
100
AcDbEntity
  8
SLD-0
 62
     7
100
AcDbMText
 10
64.9770928939
 20
180.5542847644
 30
0.0
 40
3.5
 41
0.0
 71
     1
 72
     1
  1
C
  7
SLDTEXTSTYLE1
 11
0.6260583175075529
 21
0.7797762391094076
 31
0.0
 73
     1
 44
1.0
  0
MTEXT
  5
24F
330
1F
100
AcDbEntity
  8
SLD-0
 62
     7
100
AcDbMText
 10
66.2520293918
 20
182.1422601331
 30
0.0
 40
3.5
 41
0.0
 71
     1
 72
     1
  1
1.5
  7
SLDTEXTSTYLE1
 11
0.6260583175075529
 21
0.7797762391094076
 31
0.0
 73
     1
 44
1.0
  0
MTEXT
  5
250
330
1F
100
AcDbEntity
  8
0
  6
Continuous
 62
     7
370
     0
100
AcDbMText
 10
150.0404667575
 20
29.8861652342
 30
0.0
 40
4.2333333333
 41
0.0
 71
     1
 72
     1
  1
N01863-212
  7
SLDTEXTSTYLE0
 73
     1
 44
1.0
  0
INSERT
  5
256
330
1F
100
AcDbEntity
  8
0
  6
Continuous
 62
     7
370
     0
100
AcDbBlockReference
  2
SW_NOTE_0
 10
143.1648673058
 20
43.5879618526
 30
0.0
  0
MTEXT
  5
257
330
1F
100
AcDbEntity
  8
0
  6
Continuous
 62
     7
370
     0
100
AcDbMText
 10
155.5876558863
 20
16.2918259049
 30
0.0
 40
4.2333333333
 41
0.0
 71
     1
 72
     1
  1
131156
  7
SLDTEXTSTYLE0
 73
     1
 44
1.0
  0
INSERT
  5
258
330
1F
100
AcDbEntity
  8
0
  6
Continuous
 62
     7
370
     0
100
AcDbBlockReference
  2
_OPEN30
 10
145.4765316567
 20
201.4698764227
 30
0.0
 41
3.0
 42
3.0
 43
3.0
 50
-136.5208271013
  0
INSERT
  5
259
330
1F
100
AcDbEntity
  8
0
  6
Continuous
 62
     7
370
     0
100
AcDbBlockReference
  2
_OPEN30
 10
79.7265316567
 20
191.7198764227
 30
0.0
 41
3.0
 42
3.0
 43
3.0
 50
51.2795010297
  0
INSERT
  5
25A
330
1F
100
AcDbEntity
  8
0
  6
Continuous
 62
     7
370
     0
100
AcDbBlockReference
  2
SW_CENTERMARK0
 10
0.0
 20
0.0
 30
0.0
  0
INSERT
  5
25B
330
1F
100
AcDbEntity
  8
0
  6
Continuous
 62
     7
370
     0
100
AcDbBlockReference
  2
SW_CENTERMARK1
 10
0.0
 20
0.0
 30
0.0
  0
INSERT
  5
25C
330
1F
100
AcDbEntity
  8
0
  6
Continuous
 62
     7
370
     0
100
AcDbBlockReference
  2
SW_CENTERMARK2
 10
0.0
 20
0.0
 30
0.0
  0
INSERT
  5
25D
330
1F
100
AcDbEntity
  8
0
  6
Continuous
 62
     7
370
     0
100
AcDbBlockReference
  2
SW_CENTERMARK3
 10
0.0
 20
0.0
 30
0.0
  0
ENDSEC
  0
SECTION
  2
OBJECTS
  0
DICTIONARY
  5
C
330
0
100
AcDbDictionary
281
     1
  3
ACAD_GROUP
350
D
  3
ACAD_LAYOUT
350
1A
  3
ACAD_MLINESTYLE
350
17
  3
ACAD_PLOTSETTINGS
350
19
  3
ACAD_PLOTSTYLENAME
350
E
  0
DICTIONARY
  5
D
102
{ACAD_REACTORS
330
C
102
}
330
C
100
AcDbDictionary
281
     1
  0
DICTIONARY
  5
1A
102
{ACAD_REACTORS
330
C
102
}
330
C
100
AcDbDictionary
281
     1
  3
Layout1
350
1E
  3
Layout2
350
26
  3
Model
350
22
  0
DICTIONARY
  5
17
102
{ACAD_REACTORS
330
C
102
}
330
C
100
AcDbDictionary
281
     1
  3
Standard
350
18
  0
DICTIONARY
  5
19
102
{ACAD_REACTORS
330
C
102
}
330
C
100
AcDbDictionary
281
     1
  0
ACDBDICTIONARYWDFLT
  5
E
102
{ACAD_REACTORS
330
C
102
}
330
C
100
AcDbDictionary
281
     1
  3
Normal
350
F
100
AcDbDictionaryWithDefault
340
F
  0
LAYOUT
  5
1E
102
{ACAD_REACTORS
330
1A
102
}
330
1A
100
AcDbPlotSettings
  1

  2

  4

  6

 40
0.0
 41
0.0
 42
0.0
 43
0.0
 44
0.0
 45
0.0
 46
0.0
 47
0.0
 48
0.0
 49
0.0
140
0.0
141
0.0
142
1.0
143
1.0
 70
   688
 72
     0
 73
     0
 74
     5
  7

 75
    16
147
1.0
148
0.0
149
0.0
100
AcDbLayout
  1
Layout1
 70
     1
 71
     1
 10
0.0
 20
0.0
 11
0.0
 21
0.0
 12
0.0
 22
0.0
 32
0.0
 14
0.0
 24
0.0
 34
0.0
 15
0.0
 25
0.0
 35
0.0
146
0.0
 13
0.0
 23
0.0
 33
0.0
 16
1.0
 26
0.0
 36
0.0
 17
0.0
 27
1.0
 37
0.0
 76
     0
330
1B
  0
LAYOUT
  5
26
102
{ACAD_REACTORS
330
1A
102
}
330
1A
100
AcDbPlotSettings
  1

  2

  4

  6

 40
0.0
 41
0.0
 42
0.0
 43
0.0
 44
0.0
 45
0.0
 46
0.0
 47
0.0
 48
0.0
 49
0.0
140
0.0
141
0.0
142
1.0
143
1.0
 70
   688
 72
     0
 73
     0
 74
     5
  7

 75
    16
147
1.0
148
0.0
149
0.0
100
AcDbLayout
  1
Layout2
 70
     1
 71
     2
 10
0.0
 20
0.0
 11
0.0
 21
0.0
 12
0.0
 22
0.0
 32
0.0
 14
0.0
 24
0.0
 34
0.0
 15
0.0
 25
0.0
 35
0.0
146
0.0
 13
0.0
 23
0.0
 33
0.0
 16
1.0
 26
0.0
 36
0.0
 17
0.0
 27
1.0
 37
0.0
 76
     0
330
23
  0
LAYOUT
  5
22
102
{ACAD_REACTORS
330
1A
102
}
330
1A
100
AcDbPlotSettings
  1

  2

  4

  6

 40
0.0
 41
0.0
 42
0.0
 43
0.0
 44
0.0
 45
0.0
 46
0.0
 47
0.0
 48
0.0
 49
0.0
140
0.0
141
0.0
142
1.0
143
1.0
 70
  1712
 72
     0
 73
     0
 74
     0
  7

 75
     0
147
1.0
148
0.0
149
0.0
100
AcDbLayout
  1
Model
 70
     1
 71
     0
 10
0.0
 20
0.0
 11
0.0
 21
0.0
 12
0.0
 22
0.0
 32
0.0
 14
0.0
 24
0.0
 34
0.0
 15
210.0
 25
297.0
 35
0.0
146
0.0
 13
0.0
 23
0.0
 33
0.0
 16
1.0
 26
0.0
 36
0.0
 17
0.0
 27
1.0
 37
0.0
 76
     0
330
1F
  0
MLINESTYLE
  5
18
102
{ACAD_REACTORS
330
17
102
}
330
17
100
AcDbMlineStyle
  2
Standard
 70
     0
  3

 62
   256
 51
90.0
 52
90.0
 71
     2
 49
0.5
 62
   256
  6
BYLAYER
 49
-0.5
 62
   256
  6
BYLAYER
  0
ACDBPLACEHOLDER
  5
F
102
{ACAD_REACTORS
330
E
102
}
330
E
  0
ENDSEC
  0
EOF
