  0
SECTION
  2
HEADER
  9
$ACADVER
  1
AC1015
  9
$ACADMAINTVER
 70
     6
  9
$DWGCODEPAGE
  3
DOS932
  9
$INSBASE
 10
0.0
 20
0.0
 30
0.0
  9
$EXTMIN
 10
0.0
 20
0.0
 30
0.0
  9
$EXTMAX
 10
210.0
 20
297.0
 30
0.0
  9
$LIMMIN
 10
0.0
 20
0.0
  9
$LIMMAX
 10
0.0
 20
0.0
  9
$ORTHOMODE
 70
     0
  9
$REGENMODE
 70
     1
  9
$FILLMODE
 70
     1
  9
$QTEXTMODE
 70
     0
  9
$MIRRTEXT
 70
     1
  9
$LTSCALE
 40
1.0
  9
$ATTMODE
 70
     1
  9
$TEXTSIZE
 40
3.5
  9
$TRACEWID
 40
1.0
  9
$TEXTSTYLE
  7
Standard
  9
$CLAYER
  8
0
  9
$CELTYPE
  6
ByLayer
  9
$CECOLOR
 62
   256
  9
$CELTSCALE
 40
1.0
  9
$DISPSILH
 70
     0
  9
$DIMSCALE
 40
1.0
  9
$DIMASZ
 40
3.0
  9
$DIMEXO
 40
1.0
  9
$DIMDLI
 40
3.75
  9
$DIMRND
 40
0.0
  9
$DIMDLE
 40
0.0
  9
$DIMEXE
 40
1.0
  9
$DIMTP
 40
0.0
  9
$DIMTM
 40
0.0
  9
$DIMTXT
 40
3.5
  9
$DIMCEN
 40
2.5
  9
$DIMTSZ
 40
0.0
  9
$DIMTOL
 70
     0
  9
$DIMLIM
 70
     0
  9
$DIMTIH
 70
     1
  9
$DIMTOH
 70
     1
  9
$DIMSE1
 70
     0
  9
$DIMSE2
 70
     0
  9
$DIMTAD
 70
     1
  9
$DIMZIN
 70
     1
  9
$DIMBLK
  1

  9
$DIMASO
 70
     1
  9
$DIMSHO
 70
     1
  9
$DIMPOST
  1

  9
$DIMAPOST
  1

  9
$DIMALT
 70
     0
  9
$DIMALTD
 70
     3
  9
$DIMALTF
 40
0.0393700787
  9
$DIMLFAC
 40
1.0
  9
$DIMTOFL
 70
     1
  9
$DIMTVP
 40
0.0
  9
$DIMTIX
 70
     0
  9
$DIMSOXD
 70
     0
  9
$DIMSAH
 70
     0
  9
$DIMBLK1
  1

  9
$DIMBLK2
  1

  9
$DIMSTYLE
  2
ISO-25
  9
$DIMCLRD
 70
     0
  9
$DIMCLRE
 70
     0
  9
$DIMCLRT
 70
     0
  9
$DIMTFAC
 40
1.0
  9
$DIMGAP
 40
1.524
  9
$DIMJUST
 70
     0
  9
$DIMSD1
 70
     0
  9
$DIMSD2
 70
     0
  9
$DIMTOLJ
 70
     0
  9
$DIMTZIN
 70
     1
  9
$DIMALTZ
 70
     0
  9
$DIMALTTZ
 70
     0
  9
$DIMUPT
 70
     0
  9
$DIMDEC
 70
     2
  9
$DIMTDEC
 70
     2
  9
$DIMALTU
 70
     2
  9
$DIMALTTD
 70
     3
  9
$DIMTXSTY
  7
Standard
  9
$DIMAUNIT
 70
     0
  9
$DIMADEC
 70
     0
  9
$DIMALTRND
 40
0.0
  9
$DIMAZIN
 70
     0
  9
$DIMDSEP
 70
    44
  9
$DIMATFIT
 70
     3
  9
$DIMFRAC
 70
     0
  9
$DIMLDRBLK
  1

  9
$DIMLUNIT
 70
     2
  9
$DIMLWD
 70
    -2
  9
$DIMLWE
 70
    -2
  9
$DIMTMOVE
 70
     0
  9
$LUNITS
 70
     2
  9
$LUPREC
 70
     1
  9
$SKETCHINC
 40
1.0
  9
$FILLETRAD
 40
10.0
  9
$AUNITS
 70
     0
  9
$AUPREC
 70
     0
  9
$MENU
  1
.
  9
$ELEVATION
 40
0.0
  9
$PELEVATION
 40
0.0
  9
$THICKNESS
 40
0.0
  9
$LIMCHECK
 70
     0
  9
$CHAMFERA
 40
10.0
  9
$CHAMFERB
 40
10.0
  9
$CHAMFERC
 40
20.0
  9
$CHAMFERD
 40
0.0
  9
$SKPOLY
 70
     0
  9
$TDCREATE
 40
2454322.683410012
  9
$TDUCREATE
 40
2454322.308410012
  9
$TDUPDATE
 40
2454322.683410023
  9
$TDUUPDATE
 40
2454322.308410023
  9
$TDINDWG
 40
0.0000000116
  9
$TDUSRTIMER
 40
0.0000000116
  9
$USRTIMER
 70
     1
  9
$ANGBASE
 50
0.0
  9
$ANGDIR
 70
     0
  9
$PDMODE
 70
     0
  9
$PDSIZE
 40
-1.0
  9
$PLINEWID
 40
0.0
  9
$SPLFRAME
 70
     0
  9
$SPLINETYPE
 70
     6
  9
$SPLINESEGS
 70
     8
  9
$HANDSEED
  5
262
  9
$SURFTAB1
 70
     6
  9
$SURFTAB2
 70
     6
  9
$SURFTYPE
 70
     6
  9
$SURFU
 70
     6
  9
$SURFV
 70
     6
  9
$UCSBASE
  2

  9
$UCSNAME
  2

  9
$UCSORG
 10
0.0
 20
0.0
 30
0.0
  9
$UCSXDIR
 10
1.0
 20
0.0
 30
0.0
  9
$UCSYDIR
 10
0.0
 20
1.0
 30
0.0
  9
$UCSORTHOREF
  2

  9
$UCSORTHOVIEW
 70
     0
  9
$UCSORGTOP
 10
0.0
 20
0.0
 30
0.0
  9
$UCSORGBOTTOM
 10
0.0
 20
0.0
 30
0.0
  9
$UCSORGLEFT
 10
0.0
 20
0.0
 30
0.0
  9
$UCSORGRIGHT
 10
0.0
 20
0.0
 30
0.0
  9
$UCSORGFRONT
 10
0.0
 20
0.0
 30
0.0
  9
$UCSORGBACK
 10
0.0
 20
0.0
 30
0.0
  9
$PUCSBASE
  2

  9
$PUCSNAME
  2

  9
$PUCSORG
 10
0.0
 20
0.0
 30
0.0
  9
$PUCSXDIR
 10
1.0
 20
0.0
 30
0.0
  9
$PUCSYDIR
 10
0.0
 20
1.0
 30
0.0
  9
$PUCSORTHOREF
  2

  9
$PUCSORTHOVIEW
 70
     0
  9
$PUCSORGTOP
 10
0.0
 20
0.0
 30
0.0
  9
$PUCSORGBOTTOM
 10
0.0
 20
0.0
 30
0.0
  9
$PUCSORGLEFT
 10
0.0
 20
0.0
 30
0.0
  9
$PUCSORGRIGHT
 10
0.0
 20
0.0
 30
0.0
  9
$PUCSORGFRONT
 10
0.0
 20
0.0
 30
0.0
  9
$PUCSORGBACK
 10
0.0
 20
0.0
 30
0.0
  9
$USERI1
 70
     0
  9
$USERI2
 70
     0
  9
$USERI3
 70
     0
  9
$USERI4
 70
     0
  9
$USERI5
 70
     0
  9
$USERR1
 40
0.0
  9
$USERR2
 40
0.0
  9
$USERR3
 40
0.0
  9
$USERR4
 40
0.0
  9
$USERR5
 40
0.0
  9
$WORLDVIEW
 70
     1
  9
$SHADEDGE
 70
     3
  9
$SHADEDIF
 70
    70
  9
$TILEMODE
 70
     1
  9
$MAXACTVP
 70
    64
  9
$PINSBASE
 10
0.0
 20
0.0
 30
0.0
  9
$PLIMCHECK
 70
     0
  9
$PEXTMIN
 10
1.0000000000E+20
 20
1.0000000000E+20
 30
1.0000000000E+20
  9
$PEXTMAX
 10
-1.0000000000E+20
 20
-1.0000000000E+20
 30
-1.0000000000E+20
  9
$PLIMMIN
 10
0.0
 20
0.0
  9
$PLIMMAX
 10
420.0
 20
297.0
  9
$UNITMODE
 70
     0
  9
$VISRETAIN
 70
     1
  9
$PLINEGEN
 70
     0
  9
$PSLTSCALE
 70
     1
  9
$TREEDEPTH
 70
  3020
  9
$CMLSTYLE
  2
Standard
  9
$CMLJUST
 70
     0
  9
$CMLSCALE
 40
20.0
  9
$PROXYGRAPHICS
 70
     1
  9
$MEASUREMENT
 70
     1
  9
$CELWEIGHT
370
    -1
  9
$ENDCAPS
280
     0
  9
$JOINSTYLE
280
     0
  9
$LWDISPLAY
290
     1
  9
$INSUNITS
 70
     4
  9
$HYPERLINKBASE
  1

  9
$STYLESHEET
  1

  9
$XEDIT
290
     1
  9
$CEPSNTYPE
380
     0
  9
$PSTYLEMODE
290
     1
  9
$FINGERPRINTGUID
  2
{C4FB2A16-EB7C-4070-9603-5190B7A4BB04}
  9
$VERSIONGUID
  2
{FAEB1C32-E019-11D5-929B-00C0DF256EC4}
  9
$EXTNAMES
290
     1
  9
$PSVPSCALE
 40
0.0
  9
$OLESTARTUP
290
     0
  0
ENDSEC
  0
SECTION
  2
CLASSES
  0
CLASS
  1
ACDBDICTIONARYWDFLT
  2
AcDbDictionaryWithDefault
  3
ObjectDBX Classes
 90
        0
280
     0
281
     0
  0
CLASS
  1
ACDBPLACEHOLDER
  2
AcDbPlaceHolder
  3
ObjectDBX Classes
 90
        0
280
     0
281
     0
  0
CLASS
  1
LAYOUT
  2
AcDbLayout
  3
ObjectDBX Classes
 90
        0
280
     0
281
     0
  0
ENDSEC
  0
SECTION
  2
TABLES
  0
TABLE
  2
VPORT
  5
8
330
0
100
AcDbSymbolTable
 70
     1
  0
VPORT
  5
29
330
8
100
AcDbSymbolTableRecord
100
AcDbViewportTableRecord
  2
*Active
 70
     0
 10
0.0
 20
0.0
 11
1.0
 21
1.0
 12
105.0
 22
148.5
 13
0.0
 23
0.0
 14
10.0
 24
10.0
 15
10.0
 25
10.0
 16
0.0
 26
0.0
 36
1.0
 17
0.0
 27
0.0
 37
0.0
 40
297.0
 41
1.9729729729
 42
50.0
 43
0.0
 44
0.0
 50
0.0
 51
0.0
 71
     0
 72
  2000
 73
     1
 74
     3
 75
     0
 76
     0
 77
     0
 78
     0
281
     0
 65
     1
110
0.0
120
0.0
130
0.0
111
1.0
121
0.0
131
0.0
112
0.0
122
1.0
132
0.0
 79
     0
146
0.0
  0
ENDTAB
  0
TABLE
  2
LTYPE
  5
5
330
0
100
AcDbSymbolTable
 70
     6
  0
LTYPE
  5
14
330
5
100
AcDbSymbolTableRecord
100
AcDbLinetypeTableRecord
  2
ByBlock
 70
     0
  3

 72
    65
 73
     0
 40
0.0
  0
LTYPE
  5
15
330
5
100
AcDbSymbolTableRecord
100
AcDbLinetypeTableRecord
  2
ByLayer
 70
     0
  3

 72
    65
 73
     0
 40
0.0
  0
LTYPE
  5
16
330
5
100
AcDbSymbolTableRecord
100
AcDbLinetypeTableRecord
  2
Continuous
 70
     0
  3
Solid line
 72
    65
 73
     0
 40
0.0
  0
LTYPE
  5
2A
330
5
100
AcDbSymbolTableRecord
100
AcDbLinetypeTableRecord
  2
HIDDEN
 70
     0
  3
Hidden __ __ __ __ __ __ __ __ __ __ __ __ __ __
 72
    65
 73
     2
 40
1.905
 49
1.27
 74
     0
 49
-0.635
 74
     0
  0
LTYPE
  5
2B
330
5
100
AcDbSymbolTableRecord
100
AcDbLinetypeTableRecord
  2
PHANTOM
 70
     0
  3
Phantom ______  __  __  ______  __  __  ______
 72
    65
 73
     6
 40
12.7
 49
6.35
 74
     0
 49
-1.27
 74
     0
 49
1.27
 74
     0
 49
-1.27
 74
     0
 49
1.27
 74
     0
 49
-1.27
 74
     0
  0
LTYPE
  5
2C
330
5
100
AcDbSymbolTableRecord
100
AcDbLinetypeTableRecord
  2
CENTER
 70
     0
  3
Center ____ _ ____ _ ____ _ ____ _ ____ _ ____
 72
    65
 73
     4
 40
10.16
 49
6.35
 74
     0
 49
-1.27
 74
     0
 49
1.27
 74
     0
 49
-1.27
 74
     0
  0
LTYPE
  5
2D
330
5
100
AcDbSymbolTableRecord
100
AcDbLinetypeTableRecord
  2
CENTERX2
 70
     0
  3
Center (2x) ________  __  ________  __  _____
 72
    65
 73
     4
 40
20.32
 49
12.7
 74
     0
 49
-2.54
 74
     0
 49
2.54
 74
     0
 49
-2.54
 74
     0
  0
LTYPE
  5
2E
330
5
100
AcDbSymbolTableRecord
100
AcDbLinetypeTableRecord
  2
DOT2
 70
     0
  3
Dot (.5x) ........................................
 72
    65
 73
     2
 40
0.635
 49
0.0
 74
     0
 49
-0.635
 74
     0
  0
ENDTAB
  0
TABLE
  2
LAYER
  5
2
330
0
100
AcDbSymbolTable
 70
     4
  0
LAYER
  5
10
330
2
100
AcDbSymbolTableRecord
100
AcDbLayerTableRecord
  2
0
 70
     0
 62
     7
  6
Continuous
370
    -3
390
F
  0
LAYER
  5
2F
330
2
100
AcDbSymbolTableRecord
100
AcDbLayerTableRecord
  2
SLD-0
 70
     0
 62
   179
  6
Continuous
370
     0
390
F
  0
LAYER
  5
30
330
2
100
AcDbSymbolTableRecord
100
AcDbLayerTableRecord
  2
SLD-DEFPOINTS
 70
     0
 62
   179
  6
Continuous
370
     0
390
F
  0
LAYER
  5
12E
330
2
100
AcDbSymbolTableRecord
100
AcDbLayerTableRecord
  2
Defpoints
 70
     0
 62
     7
  6
Continuous
290
     0
370
    -3
390
F
  0
ENDTAB
  0
TABLE
  2
STYLE
  5
3
330
0
100
AcDbSymbolTable
 70
     4
  0
STYLE
  5
11
330
3
100
AcDbSymbolTableRecord
100
AcDbTextStyleTableRecord
  2
Standard
 70
     0
 40
0.0
 41
1.0
 50
0.0
 71
     0
 42
2.5
  3
txt
  4
bigfont
  0
STYLE
  5
34
330
3
100
AcDbSymbolTableRecord
100
AcDbTextStyleTableRecord
  2
SLDTEXTSTYLE0
 70
     0
 40
0.0
 41
0.7
 50
0.0
 71
     0
 42
0.2
  3
TXT
  4
bigfont
  0
STYLE
  5
75
330
3
100
AcDbSymbolTableRecord
100
AcDbTextStyleTableRecord
  2
SLDTEXTSTYLE1
 70
     0
 40
0.0
 41
0.5157894737
 50
0.0
 71
     0
 42
0.2
  3
TXT
  4
bigfont
  0
STYLE
  5
257
330
3
100
AcDbSymbolTableRecord
100
AcDbTextStyleTableRecord
  2
SLDTEXTSTYLE2
 70
     0
 40
0.0
 41
0.4078136866
 50
0.0
 71
     0
 42
0.2
  3
TXT
  4
bigfont
  0
ENDTAB
  0
TABLE
  2
VIEW
  5
6
330
0
100
AcDbSymbolTable
 70
     0
  0
ENDTAB
  0
TABLE
  2
UCS
  5
7
330
0
100
AcDbSymbolTable
 70
     0
  0
ENDTAB
  0
TABLE
  2
APPID
  5
9
330
0
100
AcDbSymbolTable
 70
     1
  0
APPID
  5
12
330
9
100
AcDbSymbolTableRecord
100
AcDbRegAppTableRecord
  2
ACAD
 70
     0
  0
ENDTAB
  0
TABLE
  2
DIMSTYLE
  5
A
330
0
100
AcDbSymbolTable
 70
     6
100
AcDbDimStyleTable
  0
DIMSTYLE
105
27
330
A
100
AcDbSymbolTableRecord
100
AcDbDimStyleTableRecord
  2
ISO-25
 70
     0
 41
2.5
 42
0.625
 43
3.75
 44
1.25
 73
     0
 74
     0
 77
     1
 78
     8
140
2.5
141
2.5
143
0.0393700787
147
0.625
171
     3
172
     1
271
     2
272
     2
274
     3
278
    44
283
     0
284
     8
340
11
  0
DIMSTYLE
105
138
102
{ACAD_REACTORS
330
12D
102
}
330
A
100
AcDbSymbolTableRecord
100
AcDbDimStyleTableRecord
  2
SLDDIMSTYLE0
 70
     0
 41
3.0
 44
0.0
 47
0.000000018
 71
     1
 78
    12
140
3.5
147
0.875
172
     1
173
     1
271
     0
272
     3
284
    12
340
75
341
139
343
139
344
139
  0
DIMSTYLE
105
155
102
{ACAD_REACTORS
330
148
330
20F
330
228
330
23F
102
}
330
A
100
AcDbSymbolTableRecord
100
AcDbDimStyleTableRecord
  2
SLDDIMSTYLE1
 70
     0
 41
3.0
 44
0.0
 73
     0
 74
     0
 77
     3
 78
    12
140
3.5
147
0.875
173
     1
271
     1
272
     2
284
    12
340
75
341
139
343
139
344
139
  0
DIMSTYLE
105
16F
102
{ACAD_REACTORS
330
160
102
}
330
A
100
AcDbSymbolTableRecord
100
AcDbDimStyleTableRecord
  2
SLDDIMSTYLE2
 70
     0
 41
3.0
 44
0.0
 48
0.00005
 71
     1
 73
     0
 74
     0
 77
     3
 78
    12
140
3.5
147
0.875
173
     1
271
     0
272
     2
340
75
341
139
343
139
344
139
  0
DIMSTYLE
105
18E
102
{ACAD_REACTORS
330
180
330
19B
330
1B6
330
1CD
102
}
330
A
100
AcDbSymbolTableRecord
100
AcDbDimStyleTableRecord
  2
SLDDIMSTYLE3
 70
     0
 41
3.0
 44
0.0
 73
     0
 74
     0
 77
     3
 78
    12
140
3.5
147
0.875
173
     1
271
     0
272
     2
284
    12
340
75
341
139
343
139
344
139
  0
DIMSTYLE
105
1EF
102
{ACAD_REACTORS
330
1E5
330
1FD
102
}
330
A
100
AcDbSymbolTableRecord
100
AcDbDimStyleTableRecord
  2
SLDDIMSTYLE4
 70
     0
 41
3.0
 44
0.0
 78
    12
140
3.5
147
0.875
172
     1
173
     1
271
     0
272
     2
284
    12
340
75
341
139
343
139
344
139
  0
ENDTAB
  0
TABLE
  2
BLOCK_RECORD
  5
1
330
0
100
AcDbSymbolTable
 70
    23
  0
BLOCK_RECORD
  5
1F
330
1
100
AcDbSymbolTableRecord
100
AcDbBlockTableRecord
  2
*Model_Space
340
22
  0
BLOCK_RECORD
  5
1B
330
1
100
AcDbSymbolTableRecord
100
AcDbBlockTableRecord
  2
*Paper_Space
340
1E
  0
BLOCK_RECORD
  5
23
330
1
100
AcDbSymbolTableRecord
100
AcDbBlockTableRecord
  2
*Paper_Space0
340
26
  0
BLOCK_RECORD
  5
31
330
1
100
AcDbSymbolTableRecord
100
AcDbBlockTableRecord
  2
注記
340
0
  0
BLOCK_RECORD
  5
37
330
1
100
AcDbSymbolTableRecord
100
AcDbBlockTableRecord
  2
SW_CENTERMARKSYMBOL_0
340
0
102
{BLKREFS
331
25A
102
}
  0
BLOCK_RECORD
  5
3E
330
1
100
AcDbSymbolTableRecord
100
AcDbBlockTableRecord
  2
SW_CENTERMARKSYMBOL_1
340
0
102
{BLKREFS
331
25B
102
}
  0
BLOCK_RECORD
  5
49
330
1
100
AcDbSymbolTableRecord
100
AcDbBlockTableRecord
  2
SW_CENTERMARKSYMBOL_2
340
0
102
{BLKREFS
331
25C
102
}
  0
BLOCK_RECORD
  5
50
330
1
100
AcDbSymbolTableRecord
100
AcDbBlockTableRecord
  2
SW_CENTERMARKSYMBOL_3
340
0
102
{BLKREFS
331
25D
102
}
  0
BLOCK_RECORD
  5
5B
330
1
100
AcDbSymbolTableRecord
100
AcDbBlockTableRecord
  2
SW_CENTERMARKSYMBOL_4
340
0
102
{BLKREFS
331
25E
102
}
  0
BLOCK_RECORD
  5
62
330
1
100
AcDbSymbolTableRecord
100
AcDbBlockTableRecord
  2
SW_CENTERMARKSYMBOL_5
340
0
102
{BLKREFS
331
25F
102
}
  0
BLOCK_RECORD
  5
6D
330
1
100
AcDbSymbolTableRecord
100
AcDbBlockTableRecord
  2
SW_CHAMFER_DIMENSION_0_0
340
0
102
{BLKREFS
331
260
102
}
  0
BLOCK_RECORD
  5
79
330
1
100
AcDbSymbolTableRecord
100
AcDbBlockTableRecord
  2
SW_CENTERMARKSYMBOL_6
340
0
102
{BLKREFS
331
261
102
}
  0
BLOCK_RECORD
  5
12F
330
1
100
AcDbSymbolTableRecord
100
AcDbBlockTableRecord
  2
*D10
340
0
  0
BLOCK_RECORD
  5
139
330
1
100
AcDbSymbolTableRecord
100
AcDbBlockTableRecord
  2
_None
340
0
102
{BLKREFS
331
133
331
14E
331
14D
331
167
331
166
331
186
331
185
331
1A2
331
1A1
331
1BC
331
1BB
331
1D3
331
1D2
331
1EA
331
202
331
215
331
214
331
22E
331
22D
331
245
331
244
102
}
  0
BLOCK_RECORD
  5
149
330
1
100
AcDbSymbolTableRecord
100
AcDbBlockTableRecord
  2
*D12
340
0
  0
BLOCK_RECORD
  5
161
330
1
100
AcDbSymbolTableRecord
100
AcDbBlockTableRecord
  2
*D13
340
0
  0
BLOCK_RECORD
  5
181
330
1
100
AcDbSymbolTableRecord
100
AcDbBlockTableRecord
  2
*D14
340
0
  0
BLOCK_RECORD
  5
19C
330
1
100
AcDbSymbolTableRecord
100
AcDbBlockTableRecord
  2
*D15
340
0
  0
BLOCK_RECORD
  5
1B7
330
1
100
AcDbSymbolTableRecord
100
AcDbBlockTableRecord
  2
*D16
340
0
  0
BLOCK_RECORD
  5
1CE
330
1
100
AcDbSymbolTableRecord
100
AcDbBlockTableRecord
  2
*D17
340
0
  0
BLOCK_RECORD
  5
1E6
330
1
100
AcDbSymbolTableRecord
100
AcDbBlockTableRecord
  2
*D18
340
0
  0
BLOCK_RECORD
  5
1FE
330
1
100
AcDbSymbolTableRecord
100
AcDbBlockTableRecord
  2
*D19
340
0
  0
BLOCK_RECORD
  5
210
330
1
100
AcDbSymbolTableRecord
100
AcDbBlockTableRecord
  2
*D20
340
0
  0
BLOCK_RECORD
  5
229
330
1
100
AcDbSymbolTableRecord
100
AcDbBlockTableRecord
  2
*D21
340
0
  0
BLOCK_RECORD
  5
240
330
1
100
AcDbSymbolTableRecord
100
AcDbBlockTableRecord
  2
*D22
340
0
  0
ENDTAB
  0
ENDSEC
  0
SECTION
  2
BLOCKS
  0
BLOCK
  5
20
330
1F
100
AcDbEntity
  8
0
100
AcDbBlockBegin
  2
*Model_Space
 70
     0
 71
     0
 10
0.0
 20
0.0
 30
0.0
  3
*Model_Space
  1

  0
ENDBLK
  5
21
330
1F
100
AcDbEntity
  8
0
100
AcDbBlockEnd
  0
BLOCK
  5
1C
330
1B
100
AcDbEntity
 67
     1
  8
0
100
AcDbBlockBegin
  2
*Paper_Space
 70
     0
 71
     0
 10
0.0
 20
0.0
 30
0.0
  3
*Paper_Space
  1

  0
ENDBLK
  5
1D
330
1B
100
AcDbEntity
 67
     1
  8
0
100
AcDbBlockEnd
  0
BLOCK
  5
24
330
23
100
AcDbEntity
  8
0
100
AcDbBlockBegin
  2
*Paper_Space0
 70
     0
 71
     0
 10
0.0
 20
0.0
 30
0.0
  3
*Paper_Space0
  1

  0
ENDBLK
  5
25
330
23
100
AcDbEntity
  8
0
100
AcDbBlockEnd
  0
BLOCK
  5
32
330
31
100
AcDbEntity
  8
0
100
AcDbBlockBegin
  2
注記
 70
     0
 71
     0
 10
0.0
 20
0.0
 30
0.0
  3
注記
  1

  0
MTEXT
  5
35
330
31
100
AcDbEntity
  8
0
  6
Continuous
 62
     7
370
     0
100
AcDbMText
 10
0.2636785918
 20
9.0739778448
 30
0.0
 40
3.5
 41
0.0
 71
     1
 72
     1
  1
１．特記ナキ角部ハ、バリ　カエリノ無キコト。
  7
SLDTEXTSTYLE0
 73
     1
 44
1.0
  0
MTEXT
  5
36
330
31
100
AcDbEntity
  8
0
  6
Continuous
 62
     7
370
     0
100
AcDbMText
 10
0.2636785918
 20
3.5759549983
 30
0.0
 40
3.5
 41
0.0
 71
     1
 72
     1
  1
２．特記ナキ隅部ハ、Ｒ０．４ＭＡＸトスル。
  7
SLDTEXTSTYLE0
 73
     1
 44
1.0
  0
ENDBLK
  5
33
330
31
100
AcDbEntity
  8
0
100
AcDbBlockEnd
  0
BLOCK
  5
38
330
37
100
AcDbEntity
  8
0
100
AcDbBlockBegin
  2
SW_CENTERMARKSYMBOL_0
 70
     0
 71
     0
 10
0.0
 20
0.0
 30
0.0
  3
SW_CENTERMARKSYMBOL_0
  1

  0
LINE
  5
3A
330
37
100
AcDbEntity
  8
SLD-0
  6
Continuous
 62
   179
370
     0
100
AcDbLine
 10
0.0
 20
0.0
 30
0.0
 11
0.0
 21
2.5
 31
0.0
  0
LINE
  5
3B
330
37
100
AcDbEntity
  8
SLD-0
  6
Continuous
 62
   179
370
     0
100
AcDbLine
 10
0.0
 20
0.0
 30
0.0
 11
-2.5
 21
0.0
 31
0.0
  0
LINE
  5
3C
330
37
100
AcDbEntity
  8
SLD-0
  6
Continuous
 62
   179
370
     0
100
AcDbLine
 10
0.0
 20
0.0
 30
0.0
 11
0.0
 21
-2.5
 31
0.0
  0
LINE
  5
3D
330
37
100
AcDbEntity
  8
SLD-0
  6
Continuous
 62
   179
370
     0
100
AcDbLine
 10
0.0
 20
0.0
 30
0.0
 11
2.5
 21
0.0
 31
0.0
  0
ENDBLK
  5
39
330
37
100
AcDbEntity
  8
0
100
AcDbBlockEnd
  0
BLOCK
  5
3F
330
3E
100
AcDbEntity
  8
0
100
AcDbBlockBegin
  2
SW_CENTERMARKSYMBOL_1
 70
     0
 71
     0
 10
0.0
 20
0.0
 30
0.0
  3
SW_CENTERMARKSYMBOL_1
  1

  0
LINE
  5
41
330
3E
100
AcDbEntity
  8
SLD-0
  6
Continuous
 62
   179
370
     0
100
AcDbLine
 10
0.0
 20
0.0
 30
0.0
 11
0.0
 21
2.5
 31
0.0
  0
LINE
  5
42
330
3E
100
AcDbEntity
  8
SLD-0
  6
Continuous
 62
   179
370
     0
100
AcDbLine
 10
0.0
 20
0.0
 30
0.0
 11
-2.5
 21
0.0
 31
0.0
  0
LINE
  5
43
330
3E
100
AcDbEntity
  8
SLD-0
  6
Continuous
 62
   179
370
     0
100
AcDbLine
 10
0.0
 20
0.0
 30
0.0
 11
0.0
 21
-2.5
 31
0.0
  0
LINE
  5
44
330
3E
100
AcDbEntity
  8
SLD-0
  6
Continuous
 62
   179
370
     0
100
AcDbLine
 10
0.0
 20
0.0
 30
0.0
 11
2.5
 21
0.0
 31
0.0
  0
LINE
  5
45
330
3E
100
AcDbEntity
  8
SLD-0
  6
Continuous
 62
   179
370
     0
100
AcDbLine
 10
0.0
 20
5.0
 30
0.0
 11
0.0
 21
8.5
 31
0.0
  0
LINE
  5
46
330
3E
100
AcDbEntity
  8
SLD-0
  6
Continuous
 62
   179
370
     0
100
AcDbLine
 10
-5.0
 20
0.0
 30
0.0
 11
-8.5
 21
0.0
 31
0.0
  0
LINE
  5
47
330
3E
100
AcDbEntity
  8
SLD-0
  6
Continuous
 62
   179
370
     0
100
AcDbLine
 10
0.0
 20
-5.0
 30
0.0
 11
0.0
 21
-8.5
 31
0.0
  0
LINE
  5
48
330
3E
100
AcDbEntity
  8
SLD-0
  6
Continuous
 62
   179
370
     0
100
AcDbLine
 10
5.0
 20
0.0
 30
0.0
 11
8.5
 21
0.0
 31
0.0
  0
ENDBLK
  5
40
330
3E
100
AcDbEntity
  8
0
100
AcDbBlockEnd
  0
BLOCK
  5
4A
330
49
100
AcDbEntity
  8
0
100
AcDbBlockBegin
  2
SW_CENTERMARKSYMBOL_2
 70
     0
 71
     0
 10
0.0
 20
0.0
 30
0.0
  3
SW_CENTERMARKSYMBOL_2
  1

  0
LINE
  5
4C
330
49
100
AcDbEntity
  8
SLD-0
  6
Continuous
 62
   179
370
     0
100
AcDbLine
 10
0.0
 20
0.0
 30
0.0
 11
0.0
 21
2.5
 31
0.0
  0
LINE
  5
4D
330
49
100
AcDbEntity
  8
SLD-0
  6
Continuous
 62
   179
370
     0
100
AcDbLine
 10
0.0
 20
0.0
 30
0.0
 11
-2.5
 21
0.0
 31
0.0
  0
LINE
  5
4E
330
49
100
AcDbEntity
  8
SLD-0
  6
Continuous
 62
   179
370
     0
100
AcDbLine
 10
0.0
 20
0.0
 30
0.0
 11
0.0
 21
-2.5
 31
0.0
  0
LINE
  5
4F
330
49
100
AcDbEntity
  8
SLD-0
  6
Continuous
 62
   179
370
     0
100
AcDbLine
 10
0.0
 20
0.0
 30
0.0
 11
2.5
 21
0.0
 31
0.0
  0
ENDBLK
  5
4B
330
49
100
AcDbEntity
  8
0
100
AcDbBlockEnd
  0
BLOCK
  5
51
330
50
100
AcDbEntity
  8
0
100
AcDbBlockBegin
  2
SW_CENTERMARKSYMBOL_3
 70
     0
 71
     0
 10
0.0
 20
0.0
 30
0.0
  3
SW_CENTERMARKSYMBOL_3
  1

  0
LINE
  5
53
330
50
100
AcDbEntity
  8
SLD-0
  6
Continuous
 62
   179
370
     0
100
AcDbLine
 10
0.0
 20
0.0
 30
0.0
 11
0.0
 21
2.5
 31
0.0
  0
LINE
  5
54
330
50
100
AcDbEntity
  8
SLD-0
  6
Continuous
 62
   179
370
     0
100
AcDbLine
 10
0.0
 20
0.0
 30
0.0
 11
-2.5
 21
0.0
 31
0.0
  0
LINE
  5
55
330
50
100
AcDbEntity
  8
SLD-0
  6
Continuous
 62
   179
370
     0
100
AcDbLine
 10
0.0
 20
0.0
 30
0.0
 11
0.0
 21
-2.5
 31
0.0
  0
LINE
  5
56
330
50
100
AcDbEntity
  8
SLD-0
  6
Continuous
 62
   179
370
     0
100
AcDbLine
 10
0.0
 20
0.0
 30
0.0
 11
2.5
 21
0.0
 31
0.0
  0
LINE
  5
57
330
50
100
AcDbEntity
  8
SLD-0
  6
Continuous
 62
   179
370
     0
100
AcDbLine
 10
0.0
 20
5.0
 30
0.0
 11
0.0
 21
11.5
 31
0.0
  0
LINE
  5
58
330
50
100
AcDbEntity
  8
SLD-0
  6
Continuous
 62
   179
370
     0
100
AcDbLine
 10
-5.0
 20
0.0
 30
0.0
 11
-11.5
 21
0.0
 31
0.0
  0
LINE
  5
59
330
50
100
AcDbEntity
  8
SLD-0
  6
Continuous
 62
   179
370
     0
100
AcDbLine
 10
0.0
 20
-5.0
 30
0.0
 11
0.0
 21
-11.5
 31
0.0
  0
LINE
  5
5A
330
50
100
AcDbEntity
  8
SLD-0
  6
Continuous
 62
   179
370
     0
100
AcDbLine
 10
5.0
 20
0.0
 30
0.0
 11
11.5
 21
0.0
 31
0.0
  0
ENDBLK
  5
52
330
50
100
AcDbEntity
  8
0
100
AcDbBlockEnd
  0
BLOCK
  5
5C
330
5B
100
AcDbEntity
  8
0
100
AcDbBlockBegin
  2
SW_CENTERMARKSYMBOL_4
 70
     0
 71
     0
 10
0.0
 20
0.0
 30
0.0
  3
SW_CENTERMARKSYMBOL_4
  1

  0
LINE
  5
5E
330
5B
100
AcDbEntity
  8
SLD-0
  6
Continuous
 62
   179
370
     0
100
AcDbLine
 10
0.0
 20
0.0
 30
0.0
 11
0.0
 21
2.5
 31
0.0
  0
LINE
  5
5F
330
5B
100
AcDbEntity
  8
SLD-0
  6
Continuous
 62
   179
370
     0
100
AcDbLine
 10
0.0
 20
0.0
 30
0.0
 11
-2.5
 21
0.0
 31
0.0
  0
LINE
  5
60
330
5B
100
AcDbEntity
  8
SLD-0
  6
Continuous
 62
   179
370
     0
100
AcDbLine
 10
0.0
 20
0.0
 30
0.0
 11
0.0
 21
-2.5
 31
0.0
  0
LINE
  5
61
330
5B
100
AcDbEntity
  8
SLD-0
  6
Continuous
 62
   179
370
     0
100
AcDbLine
 10
0.0
 20
0.0
 30
0.0
 11
2.5
 21
0.0
 31
0.0
  0
ENDBLK
  5
5D
330
5B
100
AcDbEntity
  8
0
100
AcDbBlockEnd
  0
BLOCK
  5
63
330
62
100
AcDbEntity
  8
0
100
AcDbBlockBegin
  2
SW_CENTERMARKSYMBOL_5
 70
     0
 71
     0
 10
0.0
 20
0.0
 30
0.0
  3
SW_CENTERMARKSYMBOL_5
  1

  0
LINE
  5
65
330
62
100
AcDbEntity
  8
SLD-0
  6
Continuous
 62
   179
370
     0
100
AcDbLine
 10
0.0
 20
0.0
 30
0.0
 11
0.0
 21
2.5
 31
0.0
  0
LINE
  5
66
330
62
100
AcDbEntity
  8
SLD-0
  6
Continuous
 62
   179
370
     0
100
AcDbLine
 10
0.0
 20
0.0
 30
0.0
 11
-2.5
 21
0.0
 31
0.0
  0
LINE
  5
67
330
62
100
AcDbEntity
  8
SLD-0
  6
Continuous
 62
   179
370
     0
100
AcDbLine
 10
0.0
 20
0.0
 30
0.0
 11
0.0
 21
-2.5
 31
0.0
  0
LINE
  5
68
330
62
100
AcDbEntity
  8
SLD-0
  6
Continuous
 62
   179
370
     0
100
AcDbLine
 10
0.0
 20
0.0
 30
0.0
 11
2.5
 21
0.0
 31
0.0
  0
LINE
  5
69
330
62
100
AcDbEntity
  8
SLD-0
  6
Continuous
 62
   179
370
     0
100
AcDbLine
 10
0.0
 20
5.0
 30
0.0
 11
0.0
 21
11.5
 31
0.0
  0
LINE
  5
6A
330
62
100
AcDbEntity
  8
SLD-0
  6
Continuous
 62
   179
370
     0
100
AcDbLine
 10
-5.0
 20
0.0
 30
0.0
 11
-11.5
 21
0.0
 31
0.0
  0
LINE
  5
6B
330
62
100
AcDbEntity
  8
SLD-0
  6
Continuous
 62
   179
370
     0
100
AcDbLine
 10
0.0
 20
-5.0
 30
0.0
 11
0.0
 21
-11.5
 31
0.0
  0
LINE
  5
6C
330
62
100
AcDbEntity
  8
SLD-0
  6
Continuous
 62
   179
370
     0
100
AcDbLine
 10
5.0
 20
0.0
 30
0.0
 11
11.5
 21
0.0
 31
0.0
  0
ENDBLK
  5
64
330
62
100
AcDbEntity
  8
0
100
AcDbBlockEnd
  0
BLOCK
  5
6E
330
6D
100
AcDbEntity
  8
0
100
AcDbBlockBegin
  2
SW_CHAMFER_DIMENSION_0_0
 70
     0
 71
     0
 10
0.0
 20
0.0
 30
0.0
  3
SW_CHAMFER_DIMENSION_0_0
  1

  0
LINE
  5
70
330
6D
100
AcDbEntity
  8
SLD-0
  6
Continuous
 62
   179
370
     0
100
AcDbLine
 10
89.2899101756
 20
188.6264541762
 30
0.0
 11
92.2626917258
 21
189.5257538227
 31
0.0
  0
LINE
  5
71
330
6D
100
AcDbEntity
  8
SLD-0
  6
Continuous
 62
   179
370
     0
100
AcDbLine
 10
92.2626917258
 20
189.5257538227
 30
0.0
 11
90.1378363932
 21
187.2605474711
 31
0.0
  0
LINE
  5
72
330
6D
100
AcDbEntity
  8
SLD-0
  6
Continuous
 62
   179
370
     0
100
AcDbLine
 10
92.2626917258
 20
189.5257538227
 30
0.0
 11
89.7138732844
 21
187.9435008237
 31
0.0
  0
LINE
  5
73
330
6D
100
AcDbEntity
  8
SLD-0
  6
Continuous
 62
   179
370
     0
100
AcDbLine
 10
92.2626917258
 20
189.5257538227
 30
0.0
 11
76.6909363441
 21
179.8591348701
 31
0.0
  0
LINE
  5
74
330
6D
100
AcDbEntity
  8
SLD-0
  6
Continuous
 62
   179
370
     0
100
AcDbLine
 10
76.6909363441
 20
179.8591348701
 30
0.0
 11
89.7818287894
 21
187.9509885541
 31
0.0
  0
MTEXT
  5
76
330
6D
100
AcDbEntity
  8
SLD-0
100
AcDbMText
 10
76.2134723398
 20
183.6508401057
 30
0.0
 40
3.5
 41
0.0
 71
     1
 72
     1
  1
2-
  7
SLDTEXTSTYLE1
 11
0.850614854446765
 21
0.5257892823123241
 31
0.0
 73
     1
 44
1.0
  0
MTEXT
  5
77
330
6D
100
AcDbEntity
  8
SLD-0
100
AcDbMText
 10
79.6768691006
 20
185.7916643432
 30
0.0
 40
3.5
 41
0.0
 71
     1
 72
     1
  1
C
  7
SLDTEXTSTYLE1
 11
0.850614854446765
 21
0.5257892823123241
 31
0.0
 73
     1
 44
1.0
  0
MTEXT
  5
78
330
6D
100
AcDbEntity
  8
SLD-0
100
AcDbMText
 10
81.4072323242
 20
186.8612511635
 30
0.0
 40
3.5
 41
0.0
 71
     1
 72
     1
  1
0.5
  7
SLDTEXTSTYLE1
 11
0.850614854446765
 21
0.5257892823123241
 31
0.0
 73
     1
 44
1.0
  0
ENDBLK
  5
6F
330
6D
100
AcDbEntity
  8
0
100
AcDbBlockEnd
  0
BLOCK
  5
7A
330
79
100
AcDbEntity
  8
0
100
AcDbBlockBegin
  2
SW_CENTERMARKSYMBOL_6
 70
     0
 71
     0
 10
0.0
 20
0.0
 30
0.0
  3
SW_CENTERMARKSYMBOL_6
  1

  0
LINE
  5
7C
330
79
100
AcDbEntity
  8
SLD-0
  6
Continuous
 62
   179
370
     0
100
AcDbLine
 10
0.0
 20
0.0
 30
0.0
 11
0.0
 21
2.5
 31
0.0
  0
LINE
  5
7D
330
79
100
AcDbEntity
  8
SLD-0
  6
Continuous
 62
   179
370
     0
100
AcDbLine
 10
0.0
 20
0.0
 30
0.0
 11
-2.5
 21
0.0
 31
0.0
  0
LINE
  5
7E
330
79
100
AcDbEntity
  8
SLD-0
  6
Continuous
 62
   179
370
     0
100
AcDbLine
 10
0.0
 20
0.0
 30
0.0
 11
0.0
 21
-2.5
 31
0.0
  0
LINE
  5
7F
330
79
100
AcDbEntity
  8
SLD-0
  6
Continuous
 62
   179
370
     0
100
AcDbLine
 10
0.0
 20
0.0
 30
0.0
 11
2.5
 21
0.0
 31
0.0
  0
LINE
  5
80
330
79
100
AcDbEntity
  8
SLD-0
  6
Continuous
 62
   179
370
     0
100
AcDbLine
 10
0.0
 20
5.0
 30
0.0
 11
0.0
 21
6.5
 31
0.0
  0
LINE
  5
81
330
79
100
AcDbEntity
  8
SLD-0
  6
Continuous
 62
   179
370
     0
100
AcDbLine
 10
-5.0
 20
0.0
 30
0.0
 11
-6.5
 21
0.0
 31
0.0
  0
LINE
  5
82
330
79
100
AcDbEntity
  8
SLD-0
  6
Continuous
 62
   179
370
     0
100
AcDbLine
 10
0.0
 20
-5.0
 30
0.0
 11
0.0
 21
-6.5
 31
0.0
  0
LINE
  5
83
330
79
100
AcDbEntity
  8
SLD-0
  6
Continuous
 62
   179
370
     0
100
AcDbLine
 10
5.0
 20
0.0
 30
0.0
 11
6.5
 21
0.0
 31
0.0
  0
ENDBLK
  5
7B
330
79
100
AcDbEntity
  8
0
100
AcDbBlockEnd
  0
BLOCK
  5
136
330
12F
100
AcDbEntity
  8
0
100
AcDbBlockBegin
  2
*D10
 70
     1
 71
     0
 10
0.0
 20
0.0
 30
0.0
  3
*D10
  1

  0
LINE
  5
13C
330
12F
100
AcDbEntity
  8
SLD-0
 62
     7
100
AcDbLine
 10
116.2102894039
 20
144.6642600558
 30
0.0
 11
114.787426363
 21
141.9035299411
 31
0.0
  0
LINE
  5
13D
330
12F
100
AcDbEntity
  8
SLD-0
 62
     7
100
AcDbLine
 10
114.787426363
 20
141.9035299411
 30
0.0
 11
114.6392979592
 21
145.0058239271
 31
0.0
  0
LINE
  5
13E
330
12F
100
AcDbEntity
  8
SLD-0
 62
     7
100
AcDbLine
 10
114.787426363
 20
141.9035299411
 30
0.0
 11
115.4247936816
 21
144.8350419914
 31
0.0
  0
LINE
  5
13F
330
12F
100
AcDbEntity
  8
SLD-0
 62
     7
100
AcDbLine
 10
114.787426363
 20
141.9035299411
 30
0.0
 11
117.415810991
 21
153.9925420153
 31
0.0
  0
LINE
  5
140
330
12F
100
AcDbEntity
  8
SLD-0
 62
     7
100
AcDbLine
 10
117.415810991
 20
153.9925420153
 30
0.0
 11
148.4414823899
 21
153.9925420153
 31
0.0
  0
MTEXT
  5
141
330
12F
100
AcDbEntity
  8
SLD-0
 62
     7
100
AcDbMText
 10
118.840810991
 20
158.065268706
 30
0.1
 40
3.5
 41
0.0
 71
     1
 72
     1
  1
%%c
  7
SLDTEXTSTYLE0
 73
     1
 44
1.0
  0
MTEXT
  5
142
330
12F
100
AcDbEntity
  8
SLD-0
 62
     7
100
AcDbMText
 10
124.4583973122
 20
158.0652689388
 30
0.1
 40
3.5
 41
0.0
 71
     1
 72
     1
  1
12
  7
SLDTEXTSTYLE0
 73
     1
 44
1.0
  0
MTEXT
  5
143
330
12F
100
AcDbEntity
  8
SLD-0
 62
     7
100
AcDbMText
 10
130.5642864314
 20
158.0652689388
 30
0.1
 40
3.5
 41
0.0
 71
     1
 72
     1
  1
H7
  7
SLDTEXTSTYLE0
 73
     1
 44
1.0
  0
MTEXT
  5
144
330
12F
100
AcDbEntity
  8
SLD-0
 62
     7
100
AcDbMText
 10
137.07828125
 20
156.6653455129
 30
0.1
 40
2.1
 41
0.0
 71
     1
 72
     1
  1
0
  7
SLDTEXTSTYLE0
 73
     1
 44
1.0
  0
MTEXT
  5
145
330
12F
100
AcDbEntity
  8
SLD-0
 62
     7
100
AcDbMText
 10
135.8571034262
 20
159.1077011606
 30
0.1
 40
2.1
 41
0.0
 71
     1
 72
     1
  1
+
  7
SLDTEXTSTYLE0
 73
     1
 44
1.0
  0
MTEXT
  5
146
330
12F
100
AcDbEntity
  8
SLD-0
 62
     7
100
AcDbMText
 10
137.07828125
 20
159.1077011606
 30
0.1
 40
2.1
 41
0.0
 71
     1
 72
     1
  1
0.018
  7
SLDTEXTSTYLE0
 73
     1
 44
1.0
  0
MTEXT
  5
147
330
12F
100
AcDbEntity
  8
SLD-0
 62
     7
100
AcDbMText
 10
143.1873096438
 20
158.0652689388
 30
0.1
 40
3.5
 41
0.0
 71
     1
 72
     1
  1
　 
  7
SLDTEXTSTYLE0
 73
     1
 44
1.0
  0
ENDBLK
  5
137
330
12F
100
AcDbEntity
  8
0
100
AcDbBlockEnd
  0
BLOCK
  5
13A
330
139
100
AcDbEntity
  8
0
100
AcDbBlockBegin
  2
_None
 70
     0
 71
     0
 10
0.0
 20
0.0
 30
0.0
  3
_None
  1

  0
ENDBLK
  5
13B
330
139
100
AcDbEntity
  8
0
100
AcDbBlockEnd
  0
BLOCK
  5
153
330
149
100
AcDbEntity
  8
0
100
AcDbBlockBegin
  2
*D12
 70
     1
 71
     0
 10
0.0
 20
0.0
 30
0.0
  3
*D12
  1

  0
LINE
  5
156
330
149
100
AcDbEntity
  8
SLD-0
 62
     7
100
AcDbLine
 10
110.5126917258
 20
118.4205366775
 30
0.0
 11
113.5126917258
 21
117.6166896775
 31
0.0
  0
LINE
  5
157
330
149
100
AcDbEntity
  8
SLD-0
 62
     7
100
AcDbLine
 10
113.5126917258
 20
117.6166896775
 30
0.0
 11
110.5126917258
 21
116.8128426775
 31
0.0
  0
LINE
  5
158
330
149
100
AcDbEntity
  8
SLD-0
 62
     7
100
AcDbLine
 10
113.5126917258
 20
117.6166896775
 30
0.0
 11
110.5126917258
 21
117.6166896775
 31
0.0
  0
LINE
  5
159
330
149
100
AcDbEntity
  8
SLD-0
 62
     7
100
AcDbLine
 10
95.0126917258
 20
116.8128426775
 30
0.0
 11
92.0126917258
 21
117.6166896775
 31
0.0
  0
LINE
  5
15A
330
149
100
AcDbEntity
  8
SLD-0
 62
     7
100
AcDbLine
 10
92.0126917258
 20
117.6166896775
 30
0.0
 11
95.0126917258
 21
118.4205366775
 31
0.0
  0
LINE
  5
15B
330
149
100
AcDbEntity
  8
SLD-0
 62
     7
100
AcDbLine
 10
92.0126917258
 20
117.6166896775
 30
0.0
 11
95.0126917258
 21
117.6166896775
 31
0.0
  0
LINE
  5
15C
330
149
100
AcDbEntity
  8
SLD-0
 62
     7
100
AcDbLine
 10
113.5126917258
 20
126.5405058404
 30
0.0
 11
113.5126917258
 21
116.6166896775
 31
0.0
  0
LINE
  5
15D
330
149
100
AcDbEntity
  8
SLD-0
 62
     7
100
AcDbLine
 10
92.0126917258
 20
131.0405058404
 30
0.0
 11
92.0126917258
 21
116.6166896775
 31
0.0
  0
LINE
  5
15E
330
149
100
AcDbEntity
  8
SLD-0
 62
     7
100
AcDbLine
 10
113.5126917258
 20
117.6166896775
 30
0.0
 11
92.0126917258
 21
117.6166896775
 31
0.0
  0
MTEXT
  5
15F
330
149
100
AcDbEntity
  8
SLD-0
 62
     7
100
AcDbMText
 10
98.6894829175
 20
121.689416601
 30
0.1
 40
3.5
 41
0.0
 71
     1
 72
     1
  1
21.5
  7
SLDTEXTSTYLE0
 73
     1
 44
1.0
  0
ENDBLK
  5
154
330
149
100
AcDbEntity
  8
0
100
AcDbBlockEnd
  0
BLOCK
  5
16D
330
161
100
AcDbEntity
  8
0
100
AcDbBlockBegin
  2
*D13
 70
     1
 71
     0
 10
0.0
 20
0.0
 30
0.0
  3
*D13
  1

  0
LINE
  5
170
330
161
100
AcDbEntity
  8
SLD-0
 62
     7
100
AcDbLine
 10
80.5025229315
 20
129.0405058404
 30
0.0
 11
81.3063699315
 21
132.0405058404
 31
0.0
  0
LINE
  5
171
330
161
100
AcDbEntity
  8
SLD-0
 62
     7
100
AcDbLine
 10
81.3063699315
 20
132.0405058404
 30
0.0
 11
82.1102169315
 21
129.0405058404
 31
0.0
  0
LINE
  5
172
330
161
100
AcDbEntity
  8
SLD-0
 62
     7
100
AcDbLine
 10
81.3063699315
 20
132.0405058404
 30
0.0
 11
81.3063699315
 21
129.0405058404
 31
0.0
  0
LINE
  5
173
330
161
100
AcDbEntity
  8
SLD-0
 62
     7
100
AcDbLine
 10
82.1102169315
 20
143.0405058404
 30
0.0
 11
81.3063699315
 21
140.0405058404
 31
0.0
  0
LINE
  5
174
330
161
100
AcDbEntity
  8
SLD-0
 62
     7
100
AcDbLine
 10
81.3063699315
 20
140.0405058404
 30
0.0
 11
80.5025229315
 21
143.0405058404
 31
0.0
  0
LINE
  5
175
330
161
100
AcDbEntity
  8
SLD-0
 62
     7
100
AcDbLine
 10
81.3063699315
 20
140.0405058404
 30
0.0
 11
81.3063699315
 21
143.0405058404
 31
0.0
  0
LINE
  5
176
330
161
100
AcDbEntity
  8
SLD-0
 62
     7
100
AcDbLine
 10
102.5126917258
 20
132.0405058404
 30
0.0
 11
80.3063699315
 21
132.0405058404
 31
0.0
  0
LINE
  5
177
330
161
100
AcDbEntity
  8
SLD-0
 62
     7
100
AcDbLine
 10
102.5126917258
 20
140.0405058404
 30
0.0
 11
80.3063699315
 21
140.0405058404
 31
0.0
  0
LINE
  5
178
330
161
100
AcDbEntity
  8
SLD-0
 62
     7
100
AcDbLine
 10
81.3063699315
 20
132.0405058404
 30
0.0
 11
81.3063699315
 21
127.0405058404
 31
0.0
  0
LINE
  5
179
330
161
100
AcDbEntity
  8
SLD-0
 62
     7
100
AcDbLine
 10
81.3063699315
 20
132.0405058404
 30
0.0
 11
81.3063699315
 21
140.0405058404
 31
0.0
  0
LINE
  5
17A
330
161
100
AcDbEntity
  8
SLD-0
 62
     7
100
AcDbLine
 10
81.3063699315
 20
140.0405058404
 30
0.0
 11
81.3063699315
 21
163.9703325973
 31
0.0
  0
MTEXT
  5
17B
330
161
100
AcDbEntity
  8
SLD-0
 62
     7
100
AcDbMText
 10
77.2336432408
 20
147.4007901102
 30
0.1
 40
3.5
 41
0.0
 71
     1
 72
     1
  1
%%c
  7
SLDTEXTSTYLE0
 11
6.123031769111886E-17
 21
1.0
 31
0.0
 73
     1
 44
1.0
  0
MTEXT
  5
17C
330
161
100
AcDbEntity
  8
SLD-0
 62
     7
100
AcDbMText
 10
77.233643008
 20
153.0183764315
 30
0.1
 40
3.5
 41
0.0
 71
     1
 72
     1
  1
8
  7
SLDTEXTSTYLE0
 11
6.123031769111886E-17
 21
1.0
 31
0.0
 73
     1
 44
1.0
  0
MTEXT
  5
17D
330
161
100
AcDbEntity
  8
SLD-0
 62
     7
100
AcDbMText
 10
78.6335664339
 20
156.2738042035
 30
0.1
 40
2.1
 41
0.0
 71
     1
 72
     1
  1
-
  7
SLDTEXTSTYLE0
 11
6.123031769111886E-17
 21
1.0
 31
0.0
 73
     1
 44
1.0
  0
MTEXT
  5
17E
330
161
100
AcDbEntity
  8
SLD-0
 62
     7
100
AcDbMText
 10
78.6335664339
 20
157.4949820273
 30
0.1
 40
2.1
 41
0.0
 71
     1
 72
     1
  1
0.05
  7
SLDTEXTSTYLE0
 11
6.123031769111886E-17
 21
1.0
 31
0.0
 73
     1
 44
1.0
  0
MTEXT
  5
17F
330
161
100
AcDbEntity
  8
SLD-0
 62
     7
100
AcDbMText
 10
76.1912107862
 20
157.4949820273
 30
0.1
 40
2.1
 41
0.0
 71
     1
 72
     1
  1
0
  7
SLDTEXTSTYLE0
 11
6.123031769111886E-17
 21
1.0
 31
0.0
 73
     1
 44
1.0
  0
ENDBLK
  5
16E
330
161
100
AcDbEntity
  8
0
100
AcDbBlockEnd
  0
BLOCK
  5
18C
330
181
100
AcDbEntity
  8
0
100
AcDbBlockBegin
  2
*D14
 70
     1
 71
     0
 10
0.0
 20
0.0
 30
0.0
  3
*D14
  1

  0
LINE
  5
18F
330
181
100
AcDbEntity
  8
SLD-0
 62
     7
100
AcDbLine
 10
177.7246050605
 20
125.0405058404
 30
0.0
 11
178.5284520605
 21
128.0405058404
 31
0.0
  0
LINE
  5
190
330
181
100
AcDbEntity
  8
SLD-0
 62
     7
100
AcDbLine
 10
178.5284520605
 20
128.0405058404
 30
0.0
 11
179.3322990605
 21
125.0405058404
 31
0.0
  0
LINE
  5
191
330
181
100
AcDbEntity
  8
SLD-0
 62
     7
100
AcDbLine
 10
178.5284520605
 20
128.0405058404
 30
0.0
 11
178.5284520605
 21
125.0405058404
 31
0.0
  0
LINE
  5
192
330
181
100
AcDbEntity
  8
SLD-0
 62
     7
100
AcDbLine
 10
179.3322990605
 20
139.0405058404
 30
0.0
 11
178.5284520605
 21
136.0405058404
 31
0.0
  0
LINE
  5
193
330
181
100
AcDbEntity
  8
SLD-0
 62
     7
100
AcDbLine
 10
178.5284520605
 20
136.0405058404
 30
0.0
 11
177.7246050605
 21
139.0405058404
 31
0.0
  0
LINE
  5
194
330
181
100
AcDbEntity
  8
SLD-0
 62
     7
100
AcDbLine
 10
178.5284520605
 20
136.0405058404
 30
0.0
 11
178.5284520605
 21
139.0405058404
 31
0.0
  0
LINE
  5
195
330
181
100
AcDbEntity
  8
SLD-0
 62
     7
100
AcDbLine
 10
161.143226998
 20
128.0405058404
 30
0.0
 11
179.5284520605
 21
128.0405058404
 31
0.0
  0
LINE
  5
196
330
181
100
AcDbEntity
  8
SLD-0
 62
     7
100
AcDbLine
 10
169.7709456747
 20
136.0405058404
 30
0.0
 11
179.5284520605
 21
136.0405058404
 31
0.0
  0
LINE
  5
197
330
181
100
AcDbEntity
  8
SLD-0
 62
     7
100
AcDbLine
 10
178.5284520605
 20
128.0405058404
 30
0.0
 11
178.5284520605
 21
123.0405058404
 31
0.0
  0
LINE
  5
198
330
181
100
AcDbEntity
  8
SLD-0
 62
     7
100
AcDbLine
 10
178.5284520605
 20
128.0405058404
 30
0.0
 11
178.5284520605
 21
136.0405058404
 31
0.0
  0
LINE
  5
199
330
181
100
AcDbEntity
  8
SLD-0
 62
     7
100
AcDbLine
 10
178.5284520605
 20
136.0405058404
 30
0.0
 11
178.5284520605
 21
141.0405058404
 31
0.0
  0
MTEXT
  5
19A
330
181
100
AcDbEntity
  8
SLD-0
 62
     7
100
AcDbMText
 10
174.455725137
 20
131.0233808663
 30
0.1
 40
3.5
 41
0.0
 71
     1
 72
     1
  1
8
  7
SLDTEXTSTYLE0
 11
6.123031769111886E-17
 21
1.0
 31
0.0
 73
     1
 44
1.0
  0
ENDBLK
  5
18D
330
181
100
AcDbEntity
  8
0
100
AcDbBlockEnd
  0
BLOCK
  5
1A8
330
19C
100
AcDbEntity
  8
0
100
AcDbBlockBegin
  2
*D15
 70
     1
 71
     0
 10
0.0
 20
0.0
 30
0.0
  3
*D15
  1

  0
LINE
  5
1AA
330
19C
100
AcDbEntity
  8
SLD-0
 62
     7
100
AcDbLine
 10
172.7635135627
 20
132.5405058404
 30
0.0
 11
173.5673605627
 21
135.5405058404
 31
0.0
  0
LINE
  5
1AB
330
19C
100
AcDbEntity
  8
SLD-0
 62
     7
100
AcDbLine
 10
173.5673605627
 20
135.5405058404
 30
0.0
 11
174.3712075627
 21
132.5405058404
 31
0.0
  0
LINE
  5
1AC
330
19C
100
AcDbEntity
  8
SLD-0
 62
     7
100
AcDbLine
 10
173.5673605627
 20
135.5405058404
 30
0.0
 11
173.5673605627
 21
132.5405058404
 31
0.0
  0
LINE
  5
1AD
330
19C
100
AcDbEntity
  8
SLD-0
 62
     7
100
AcDbLine
 10
174.3712075627
 20
139.5405058404
 30
0.0
 11
173.5673605627
 21
136.5405058404
 31
0.0
  0
LINE
  5
1AE
330
19C
100
AcDbEntity
  8
SLD-0
 62
     7
100
AcDbLine
 10
173.5673605627
 20
136.5405058404
 30
0.0
 11
172.7635135627
 21
139.5405058404
 31
0.0
  0
LINE
  5
1AF
330
19C
100
AcDbEntity
  8
SLD-0
 62
     7
100
AcDbLine
 10
173.5673605627
 20
136.5405058404
 30
0.0
 11
173.5673605627
 21
139.5405058404
 31
0.0
  0
LINE
  5
1B0
330
19C
100
AcDbEntity
  8
SLD-0
 62
     7
100
AcDbLine
 10
166.2709456747
 20
135.5405058404
 30
0.0
 11
174.5673605627
 21
135.5405058404
 31
0.0
  0
LINE
  5
1B1
330
19C
100
AcDbEntity
  8
SLD-0
 62
     7
100
AcDbLine
 10
166.2709456747
 20
136.5405058404
 30
0.0
 11
174.5673605627
 21
136.5405058404
 31
0.0
  0
LINE
  5
1B2
330
19C
100
AcDbEntity
  8
SLD-0
 62
     7
100
AcDbLine
 10
173.5673605627
 20
135.5405058404
 30
0.0
 11
173.5673605627
 21
130.5405058404
 31
0.0
  0
LINE
  5
1B3
330
19C
100
AcDbEntity
  8
SLD-0
 62
     7
100
AcDbLine
 10
173.5673605627
 20
135.5405058404
 30
0.0
 11
173.5673605627
 21
136.5405058404
 31
0.0
  0
LINE
  5
1B4
330
19C
100
AcDbEntity
  8
SLD-0
 62
     7
100
AcDbLine
 10
173.5673605627
 20
136.5405058404
 30
0.0
 11
173.5673605627
 21
146.9336129941
 31
0.0
  0
MTEXT
  5
1B5
330
19C
100
AcDbEntity
  8
SLD-0
 62
     7
100
AcDbMText
 10
169.4946336392
 20
143.3118630459
 30
0.1
 40
3.5
 41
0.0
 71
     1
 72
     1
  1
1
  7
SLDTEXTSTYLE0
 11
6.123031769111886E-17
 21
1.0
 31
0.0
 73
     1
 44
1.0
  0
ENDBLK
  5
1A9
330
19C
100
AcDbEntity
  8
0
100
AcDbBlockEnd
  0
BLOCK
  5
1C1
330
1B7
100
AcDbEntity
  8
0
100
AcDbBlockBegin
  2
*D16
 70
     1
 71
     0
 10
0.0
 20
0.0
 30
0.0
  3
*D16
  1

  0
LINE
  5
1C3
330
1B7
100
AcDbEntity
  8
SLD-0
 62
     7
100
AcDbLine
 10
48.3241622373
 20
151.0276288251
 30
0.0
 11
45.3241622373
 21
151.8314758251
 31
0.0
  0
LINE
  5
1C4
330
1B7
100
AcDbEntity
  8
SLD-0
 62
     7
100
AcDbLine
 10
45.3241622373
 20
151.8314758251
 30
0.0
 11
48.3241622373
 21
152.6353228251
 31
0.0
  0
LINE
  5
1C5
330
1B7
100
AcDbEntity
  8
SLD-0
 62
     7
100
AcDbLine
 10
45.3241622373
 20
151.8314758251
 30
0.0
 11
48.3241622373
 21
151.8314758251
 31
0.0
  0
LINE
  5
1C6
330
1B7
100
AcDbEntity
  8
SLD-0
 62
     7
100
AcDbLine
 10
58.3241622373
 20
152.6353228251
 30
0.0
 11
61.3241622373
 21
151.8314758251
 31
0.0
  0
LINE
  5
1C7
330
1B7
100
AcDbEntity
  8
SLD-0
 62
     7
100
AcDbLine
 10
61.3241622373
 20
151.8314758251
 30
0.0
 11
58.3241622373
 21
151.0276288251
 31
0.0
  0
LINE
  5
1C8
330
1B7
100
AcDbEntity
  8
SLD-0
 62
     7
100
AcDbLine
 10
61.3241622373
 20
151.8314758251
 30
0.0
 11
58.3241622373
 21
151.8314758251
 31
0.0
  0
LINE
  5
1C9
330
1B7
100
AcDbEntity
  8
SLD-0
 62
     7
100
AcDbLine
 10
45.3241622373
 20
141.163611466
 30
0.0
 11
45.3241622373
 21
152.8314758251
 31
0.0
  0
LINE
  5
1CA
330
1B7
100
AcDbEntity
  8
SLD-0
 62
     7
100
AcDbLine
 10
61.3241622373
 20
141.163611466
 30
0.0
 11
61.3241622373
 21
152.8314758251
 31
0.0
  0
LINE
  5
1CB
330
1B7
100
AcDbEntity
  8
SLD-0
 62
     7
100
AcDbLine
 10
45.3241622373
 20
151.8314758251
 30
0.0
 11
61.3241622373
 21
151.8314758251
 31
0.0
  0
MTEXT
  5
1CC
330
1B7
100
AcDbEntity
  8
SLD-0
 62
     7
100
AcDbMText
 10
51.2883426518
 20
155.9042027486
 30
0.1
 40
3.5
 41
0.0
 71
     1
 72
     1
  1
16
  7
SLDTEXTSTYLE0
 73
     1
 44
1.0
  0
ENDBLK
  5
1C2
330
1B7
100
AcDbEntity
  8
0
100
AcDbBlockEnd
  0
BLOCK
  5
1D9
330
1CE
100
AcDbEntity
  8
0
100
AcDbBlockBegin
  2
*D17
 70
     1
 71
     0
 10
0.0
 20
0.0
 30
0.0
  3
*D17
  1

  0
LINE
  5
1DB
330
1CE
100
AcDbEntity
  8
SLD-0
 62
     7
100
AcDbLine
 10
36.4344827765
 20
141.0405058404
 30
0.0
 11
37.2383297765
 21
144.0405058404
 31
0.0
  0
LINE
  5
1DC
330
1CE
100
AcDbEntity
  8
SLD-0
 62
     7
100
AcDbLine
 10
37.2383297765
 20
144.0405058404
 30
0.0
 11
38.0421767765
 21
141.0405058404
 31
0.0
  0
LINE
  5
1DD
330
1CE
100
AcDbEntity
  8
SLD-0
 62
     7
100
AcDbLine
 10
37.2383297765
 20
144.0405058404
 30
0.0
 11
37.2383297765
 21
141.0405058404
 31
0.0
  0
LINE
  5
1DE
330
1CE
100
AcDbEntity
  8
SLD-0
 62
     7
100
AcDbLine
 10
38.0421767765
 20
131.0405058404
 30
0.0
 11
37.2383297765
 21
128.0405058404
 31
0.0
  0
LINE
  5
1DF
330
1CE
100
AcDbEntity
  8
SLD-0
 62
     7
100
AcDbLine
 10
37.2383297765
 20
128.0405058404
 30
0.0
 11
36.4344827765
 21
131.0405058404
 31
0.0
  0
LINE
  5
1E0
330
1CE
100
AcDbEntity
  8
SLD-0
 62
     7
100
AcDbLine
 10
37.2383297765
 20
128.0405058404
 30
0.0
 11
37.2383297765
 21
131.0405058404
 31
0.0
  0
LINE
  5
1E1
330
1CE
100
AcDbEntity
  8
SLD-0
 62
     7
100
AcDbLine
 10
48.2010566117
 20
144.0405058404
 30
0.0
 11
36.2383297765
 21
144.0405058404
 31
0.0
  0
LINE
  5
1E2
330
1CE
100
AcDbEntity
  8
SLD-0
 62
     7
100
AcDbLine
 10
48.2010566117
 20
128.0405058404
 30
0.0
 11
36.2383297765
 21
128.0405058404
 31
0.0
  0
LINE
  5
1E3
330
1CE
100
AcDbEntity
  8
SLD-0
 62
     7
100
AcDbLine
 10
37.2383297765
 20
144.0405058404
 30
0.0
 11
37.2383297765
 21
128.0405058404
 31
0.0
  0
MTEXT
  5
1E4
330
1CE
100
AcDbEntity
  8
SLD-0
 62
     7
100
AcDbMText
 10
33.165602853
 20
134.0046862549
 30
0.1
 40
3.5
 41
0.0
 71
     1
 72
     1
  1
16
  7
SLDTEXTSTYLE0
 11
-7.044197039909883E-15
 21
1.0
 31
0.0
 73
     1
 44
1.0
  0
ENDBLK
  5
1DA
330
1CE
100
AcDbEntity
  8
0
100
AcDbBlockEnd
  0
BLOCK
  5
1ED
330
1E6
100
AcDbEntity
  8
0
100
AcDbBlockBegin
  2
*D18
 70
     1
 71
     0
 10
0.0
 20
0.0
 30
0.0
  3
*D18
  1

  0
ARC
  5
1F0
330
1E6
100
AcDbEntity
  8
SLD-0
 62
     7
100
AcDbCircle
 10
53.3241622373
 20
136.0405058404
 30
0.0
 40
9.000000000000011
100
AcDbArc
 50
339.0741472952
 51
42.413862067
  0
ARC
  5
1F1
330
1E6
100
AcDbEntity
  8
SLD-0
 62
     7
100
AcDbCircle
 10
53.3241622373
 20
136.0405058404
 30
0.0
 40
9.000000000000021
100
AcDbArc
 50
209.7334785752
 51
290.9258527048
  0
LINE
  5
1F2
330
1E6
100
AcDbEntity
  8
SLD-0
 62
     7
100
AcDbLine
 10
43.1517103425
 20
129.6243237631
 30
0.0
 11
46.0498172186
 21
130.7410809141
 31
0.0
  0
LINE
  5
1F3
330
1E6
100
AcDbEntity
  8
SLD-0
 62
     7
100
AcDbLine
 10
46.0498172186
 20
130.7410809141
 30
0.0
 11
44.0983607489
 21
128.3248881142
 31
0.0
  0
LINE
  5
1F4
330
1E6
100
AcDbEntity
  8
SLD-0
 62
     7
100
AcDbLine
 10
46.0498172186
 20
130.7410809141
 30
0.0
 11
43.6250355457
 21
128.9746059387
 31
0.0
  0
LINE
  5
1F5
330
1E6
100
AcDbEntity
  8
SLD-0
 62
     7
100
AcDbLine
 10
63.496614132
 20
142.4566879177
 30
0.0
 11
60.5985072559
 21
141.3399307667
 31
0.0
  0
LINE
  5
1F6
330
1E6
100
AcDbEntity
  8
SLD-0
 62
     7
100
AcDbLine
 10
60.5985072559
 20
141.3399307667
 30
0.0
 11
62.5499637256
 21
143.7561235666
 31
0.0
  0
LINE
  5
1F7
330
1E6
100
AcDbEntity
  8
SLD-0
 62
     7
100
AcDbLine
 10
60.5985072559
 20
141.3399307667
 30
0.0
 11
63.0232889288
 21
143.1064057421
 31
0.0
  0
LINE
  5
1F8
330
1E6
100
AcDbEntity
  8
SLD-0
 62
     7
100
AcDbLine
 10
60.5985072559
 20
141.3399307667
 30
0.0
 11
72.851319491
 21
150.2662132582
 31
0.0
  0
LINE
  5
1F9
330
1E6
100
AcDbEntity
  8
SLD-0
 62
     7
100
AcDbLine
 10
46.0498172186
 20
130.7410809141
 30
0.0
 11
42.0085144305
 21
127.796955955
 31
0.0
  0
LINE
  5
1FA
330
1E6
100
AcDbEntity
  8
SLD-0
 62
     7
100
AcDbLine
 10
60.5985072559
 20
141.3399307667
 30
0.0
 11
46.0498172186
 21
130.7410809141
 31
0.0
  0
MTEXT
  5
1FB
330
1E6
100
AcDbEntity
  8
SLD-0
 62
     7
100
AcDbMText
 10
61.3456960152
 20
146.9083669145
 30
0.1
 40
3.5
 41
0.0
 71
     1
 72
     1
  1
%%c
  7
SLDTEXTSTYLE0
 11
0.8082605576257671
 21
0.5888249918154663
 31
0.0
 73
     1
 44
1.0
  0
MTEXT
  5
1FC
330
1E6
100
AcDbEntity
  8
SLD-0
 62
     7
100
AcDbMText
 10
65.8861693306
 20
150.2161423224
 30
0.1
 40
3.5
 41
0.0
 71
     1
 72
     1
  1
18
  7
SLDTEXTSTYLE0
 11
0.8082605576257671
 21
0.5888249918154663
 31
0.0
 73
     1
 44
1.0
  0
ENDBLK
  5
1EE
330
1E6
100
AcDbEntity
  8
0
100
AcDbBlockEnd
  0
BLOCK
  5
205
330
1FE
100
AcDbEntity
  8
0
100
AcDbBlockBegin
  2
*D19
 70
     1
 71
     0
 10
0.0
 20
0.0
 30
0.0
  3
*D19
  1

  0
LINE
  5
207
330
1FE
100
AcDbEntity
  8
SLD-0
 62
     7
100
AcDbLine
 10
50.3009398993
 20
131.9777116425
 30
0.0
 11
52.4000283988
 21
134.2668157185
 31
0.0
  0
LINE
  5
208
330
1FE
100
AcDbEntity
  8
SLD-0
 62
     7
100
AcDbLine
 10
52.4000283988
 20
134.2668157185
 30
0.0
 11
51.7267153827
 21
131.2348494288
 31
0.0
  0
LINE
  5
209
330
1FE
100
AcDbEntity
  8
SLD-0
 62
     7
100
AcDbLine
 10
52.4000283988
 20
134.2668157185
 30
0.0
 11
51.013827641
 21
131.6062805357
 31
0.0
  0
LINE
  5
20A
330
1FE
100
AcDbEntity
  8
SLD-0
 62
     7
100
AcDbLine
 10
52.4000283988
 20
134.2668157185
 30
0.0
 11
44.4859035957
 21
119.0772355934
 31
0.0
  0
LINE
  5
20B
330
1FE
100
AcDbEntity
  8
SLD-0
 62
     7
100
AcDbLine
 10
44.4859035957
 20
119.0772355934
 30
0.0
 11
27.5084860828
 21
119.0772355934
 31
0.0
  0
MTEXT
  5
20C
330
1FE
100
AcDbEntity
  8
SLD-0
 62
     7
100
AcDbMText
 10
29.0959860828
 20
123.1499625169
 30
0.1
 40
3.5
 41
0.0
 71
     1
 72
     1
  1
M
  7
SLDTEXTSTYLE0
 73
     1
 44
1.0
  0
MTEXT
  5
20D
330
1FE
100
AcDbEntity
  8
SLD-0
 62
     7
100
AcDbMText
 10
31.1302360309
 20
123.1499625169
 30
0.1
 40
3.5
 41
0.0
 71
     1
 72
     1
  1
4
  7
SLDTEXTSTYLE0
 73
     1
 44
1.0
  0
MTEXT
  5
20E
330
1FE
100
AcDbEntity
  8
SLD-0
 62
     7
100
AcDbMText
 10
33.1644859791
 20
123.1499625169
 30
0.1
 40
3.5
 41
0.0
 71
     1
 72
     1
  1
深10
  7
SLDTEXTSTYLE0
 73
     1
 44
1.0
  0
ENDBLK
  5
206
330
1FE
100
AcDbEntity
  8
0
100
AcDbBlockEnd
  0
BLOCK
  5
21A
330
210
100
AcDbEntity
  8
0
100
AcDbBlockBegin
  2
*D20
 70
     1
 71
     0
 10
0.0
 20
0.0
 30
0.0
  3
*D20
  1

  0
LINE
  5
21C
330
210
100
AcDbEntity
  8
SLD-0
 62
     7
100
AcDbLine
 10
89.0126917258
 20
209.7062172645
 30
0.0
 11
92.0126917258
 21
208.9023702645
 31
0.0
  0
LINE
  5
21D
330
210
100
AcDbEntity
  8
SLD-0
 62
     7
100
AcDbLine
 10
92.0126917258
 20
208.9023702645
 30
0.0
 11
89.0126917258
 21
208.0985232645
 31
0.0
  0
LINE
  5
21E
330
210
100
AcDbEntity
  8
SLD-0
 62
     7
100
AcDbLine
 10
92.0126917258
 20
208.9023702645
 30
0.0
 11
89.0126917258
 21
208.9023702645
 31
0.0
  0
LINE
  5
21F
330
210
100
AcDbEntity
  8
SLD-0
 62
     7
100
AcDbLine
 10
106.5126917258
 20
208.0985232645
 30
0.0
 11
103.5126917258
 21
208.9023702645
 31
0.0
  0
LINE
  5
220
330
210
100
AcDbEntity
  8
SLD-0
 62
     7
100
AcDbLine
 10
103.5126917258
 20
208.9023702645
 30
0.0
 11
106.5126917258
 21
209.7062172645
 31
0.0
  0
LINE
  5
221
330
210
100
AcDbEntity
  8
SLD-0
 62
     7
100
AcDbLine
 10
103.5126917258
 20
208.9023702645
 30
0.0
 11
106.5126917258
 21
208.9023702645
 31
0.0
  0
LINE
  5
222
330
210
100
AcDbEntity
  8
SLD-0
 62
     7
100
AcDbLine
 10
92.0126917258
 20
198.2757538227
 30
0.0
 11
92.0126917258
 21
209.9023702645
 31
0.0
  0
LINE
  5
223
330
210
100
AcDbEntity
  8
SLD-0
 62
     7
100
AcDbLine
 10
103.5126917258
 20
202.2757538227
 30
0.0
 11
103.5126917258
 21
209.9023702645
 31
0.0
  0
LINE
  5
224
330
210
100
AcDbEntity
  8
SLD-0
 62
     7
100
AcDbLine
 10
92.0126917258
 20
208.9023702645
 30
0.0
 11
87.0126917258
 21
208.9023702645
 31
0.0
  0
LINE
  5
225
330
210
100
AcDbEntity
  8
SLD-0
 62
     7
100
AcDbLine
 10
92.0126917258
 20
208.9023702645
 30
0.0
 11
103.5126917258
 21
208.9023702645
 31
0.0
  0
LINE
  5
226
330
210
100
AcDbEntity
  8
SLD-0
 62
     7
100
AcDbLine
 10
103.5126917258
 20
208.9023702645
 30
0.0
 11
108.5126917258
 21
208.9023702645
 31
0.0
  0
MTEXT
  5
227
330
210
100
AcDbEntity
  8
SLD-0
 62
     7
100
AcDbMText
 10
93.6894829175
 20
212.9750971879
 30
0.1
 40
3.5
 41
0.0
 71
     1
 72
     1
  1
11.5
  7
SLDTEXTSTYLE0
 73
     1
 44
1.0
  0
ENDBLK
  5
21B
330
210
100
AcDbEntity
  8
0
100
AcDbBlockEnd
  0
BLOCK
  5
233
330
229
100
AcDbEntity
  8
0
100
AcDbBlockBegin
  2
*D21
 70
     1
 71
     0
 10
0.0
 20
0.0
 30
0.0
  3
*D21
  1

  0
LINE
  5
235
330
229
100
AcDbEntity
  8
SLD-0
 62
     7
100
AcDbLine
 10
120.5126917258
 20
174.1771683943
 30
0.0
 11
123.5126917258
 21
173.3733213943
 31
0.0
  0
LINE
  5
236
330
229
100
AcDbEntity
  8
SLD-0
 62
     7
100
AcDbLine
 10
123.5126917258
 20
173.3733213943
 30
0.0
 11
120.5126917258
 21
172.5694743943
 31
0.0
  0
LINE
  5
237
330
229
100
AcDbEntity
  8
SLD-0
 62
     7
100
AcDbLine
 10
123.5126917258
 20
173.3733213943
 30
0.0
 11
120.5126917258
 21
173.3733213943
 31
0.0
  0
LINE
  5
238
330
229
100
AcDbEntity
  8
SLD-0
 62
     7
100
AcDbLine
 10
95.0126917258
 20
172.5694743943
 30
0.0
 11
92.0126917258
 21
173.3733213943
 31
0.0
  0
LINE
  5
239
330
229
100
AcDbEntity
  8
SLD-0
 62
     7
100
AcDbLine
 10
92.0126917258
 20
173.3733213943
 30
0.0
 11
95.0126917258
 21
174.1771683943
 31
0.0
  0
LINE
  5
23A
330
229
100
AcDbEntity
  8
SLD-0
 62
     7
100
AcDbLine
 10
92.0126917258
 20
173.3733213943
 30
0.0
 11
95.0126917258
 21
173.3733213943
 31
0.0
  0
LINE
  5
23B
330
229
100
AcDbEntity
  8
SLD-0
 62
     7
100
AcDbLine
 10
123.5126917258
 20
185.7757538227
 30
0.0
 11
123.5126917258
 21
172.3733213943
 31
0.0
  0
LINE
  5
23C
330
229
100
AcDbEntity
  8
SLD-0
 62
     7
100
AcDbLine
 10
92.0126917258
 20
188.2757538227
 30
0.0
 11
92.0126917258
 21
172.3733213943
 31
0.0
  0
LINE
  5
23D
330
229
100
AcDbEntity
  8
SLD-0
 62
     7
100
AcDbLine
 10
123.5126917258
 20
173.3733213943
 30
0.0
 11
92.0126917258
 21
173.3733213943
 31
0.0
  0
MTEXT
  5
23E
330
229
100
AcDbEntity
  8
SLD-0
 62
     7
100
AcDbMText
 10
103.6894829175
 20
177.4460483178
 30
0.1
 40
3.5
 41
0.0
 71
     1
 72
     1
  1
31.5
  7
SLDTEXTSTYLE0
 73
     1
 44
1.0
  0
ENDBLK
  5
234
330
229
100
AcDbEntity
  8
0
100
AcDbBlockEnd
  0
BLOCK
  5
24A
330
240
100
AcDbEntity
  8
0
100
AcDbBlockBegin
  2
*D22
 70
     1
 71
     0
 10
0.0
 20
0.0
 30
0.0
  3
*D22
  1

  0
LINE
  5
24C
330
240
100
AcDbEntity
  8
SLD-0
 62
     7
100
AcDbLine
 10
95.0126917258
 20
217.0731447968
 30
0.0
 11
92.0126917258
 21
217.8769917968
 31
0.0
  0
LINE
  5
24D
330
240
100
AcDbEntity
  8
SLD-0
 62
     7
100
AcDbLine
 10
92.0126917258
 20
217.8769917968
 30
0.0
 11
95.0126917258
 21
218.6808387968
 31
0.0
  0
LINE
  5
24E
330
240
100
AcDbEntity
  8
SLD-0
 62
     7
100
AcDbLine
 10
92.0126917258
 20
217.8769917968
 30
0.0
 11
95.0126917258
 21
217.8769917968
 31
0.0
  0
LINE
  5
24F
330
240
100
AcDbEntity
  8
SLD-0
 62
     7
100
AcDbLine
 10
126.5126917258
 20
218.6808387968
 30
0.0
 11
129.5126917258
 21
217.8769917968
 31
0.0
  0
LINE
  5
250
330
240
100
AcDbEntity
  8
SLD-0
 62
     7
100
AcDbLine
 10
129.5126917258
 20
217.8769917968
 30
0.0
 11
126.5126917258
 21
217.0731447968
 31
0.0
  0
LINE
  5
251
330
240
100
AcDbEntity
  8
SLD-0
 62
     7
100
AcDbLine
 10
129.5126917258
 20
217.8769917968
 30
0.0
 11
126.5126917258
 21
217.8769917968
 31
0.0
  0
LINE
  5
252
330
240
100
AcDbEntity
  8
SLD-0
 62
     7
100
AcDbLine
 10
92.0126917258
 20
197.7757538227
 30
0.0
 11
92.0126917258
 21
218.8769917968
 31
0.0
  0
LINE
  5
253
330
240
100
AcDbEntity
  8
SLD-0
 62
     7
100
AcDbLine
 10
129.5126917258
 20
202.2757538227
 30
0.0
 11
129.5126917258
 21
218.8769917968
 31
0.0
  0
LINE
  5
254
330
240
100
AcDbEntity
  8
SLD-0
 62
     7
100
AcDbLine
 10
92.0126917258
 20
217.8769917968
 30
0.0
 11
129.5126917258
 21
217.8769917968
 31
0.0
  0
MTEXT
  5
255
330
240
100
AcDbEntity
  8
SLD-0
 62
     7
100
AcDbMText
 10
106.6894829175
 20
221.9497187203
 30
0.1
 40
3.5
 41
0.0
 71
     1
 72
     1
  1
37.5
  7
SLDTEXTSTYLE0
 73
     1
 44
1.0
  0
ENDBLK
  5
24B
330
240
100
AcDbEntity
  8
0
100
AcDbBlockEnd
  0
ENDSEC
  0
SECTION
  2
ENTITIES
  0
LINE
  5
84
330
1F
100
AcDbEntity
  8
SLD-0
  6
Continuous
 62
   179
370
     0
100
AcDbLine
 10
20.2604743903
 20
285.0
 30
0.0
 11
196.7604743903
 21
285.0
 31
0.0
  0
LINE
  5
85
330
1F
100
AcDbEntity
  8
SLD-0
  6
Continuous
 62
   179
370
     0
100
AcDbLine
 10
20.2604743903
 20
285.0
 30
0.0
 11
20.2604743903
 21
10.0
 31
0.0
  0
LINE
  5
86
330
1F
100
AcDbEntity
  8
SLD-0
  6
Continuous
 62
   179
370
     0
100
AcDbLine
 10
20.2604743903
 20
10.0
 30
0.0
 11
196.7604743903
 21
10.0
 31
0.0
  0
LINE
  5
87
330
1F
100
AcDbEntity
  8
SLD-0
  6
Continuous
 62
   179
370
     0
100
AcDbLine
 10
196.7604743903
 20
285.0
 30
0.0
 11
196.7604743903
 21
10.0
 31
0.0
  0
LINE
  5
88
330
1F
100
AcDbEntity
  8
SLD-0
  6
Continuous
 62
   179
370
     0
100
AcDbLine
 10
127.0104743903
 20
50.75
 30
0.0
 11
196.7604743903
 21
50.75
 31
0.0
  0
LINE
  5
89
330
1F
100
AcDbEntity
  8
SLD-0
  6
Continuous
 62
   179
370
     0
100
AcDbLine
 10
127.0104743903
 20
50.75
 30
0.0
 11
127.0104743903
 21
10.0
 31
0.0
  0
LINE
  5
8A
330
1F
100
AcDbEntity
  8
SLD-0
  6
Continuous
 62
   179
370
     0
100
AcDbLine
 10
127.0104743903
 20
22.75
 30
0.0
 11
196.7604743903
 21
22.75
 31
0.0
  0
LINE
  5
8B
330
1F
100
AcDbEntity
  8
SLD-0
  6
Continuous
 62
   179
370
     0
100
AcDbLine
 10
127.0104743903
 20
36.75
 30
0.0
 11
196.7604743903
 21
36.75
 31
0.0
  0
LINE
  5
8C
330
1F
100
AcDbEntity
  8
SLD-0
  6
Continuous
 62
   179
370
     0
100
AcDbLine
 10
92.5126917258
 20
140.0405058404
 30
0.0
 11
92.0126917258
 21
139.5405058404
 31
0.0
  0
LINE
  5
8D
330
1F
100
AcDbEntity
  8
SLD-0
  6
Continuous
 62
   179
370
     0
100
AcDbLine
 10
92.0126917258
 20
132.5405058404
 30
0.0
 11
92.5126917258
 21
132.0405058404
 31
0.0
  0
LINE
  5
8E
330
1F
100
AcDbEntity
  8
SLD-0
  6
Continuous
 62
   179
370
     0
100
AcDbLine
 10
103.5126917258
 20
140.0405058404
 30
0.0
 11
92.5126917258
 21
140.0405058404
 31
0.0
  0
LINE
  5
8F
330
1F
100
AcDbEntity
  8
SLD-0
  6
Continuous
 62
   179
370
     0
100
AcDbLine
 10
92.5126917258
 20
132.0405058404
 30
0.0
 11
103.5126917258
 21
132.0405058404
 31
0.0
  0
LINE
  5
90
330
1F
100
AcDbEntity
  8
SLD-0
  6
Continuous
 62
   179
370
     0
100
AcDbLine
 10
103.5126917258
 20
131.9174002148
 30
0.0
 11
103.5126917258
 21
128.0405058404
 31
0.0
  0
LINE
  5
91
330
1F
100
AcDbEntity
  8
SLD-0
  6
Continuous
 62
   179
370
     0
100
AcDbLine
 10
109.1537927823
 20
131.9174002148
 30
0.0
 11
103.5126917258
 21
131.9174002148
 31
0.0
  0
LINE
  5
92
330
1F
100
AcDbEntity
  8
SLD-0
  6
Continuous
 62
   179
370
     0
100
AcDbLine
 10
129.0126917258
 20
131.9174002148
 30
0.0
 11
117.8715906693
 21
131.9174002148
 31
0.0
  0
LINE
  5
93
330
1F
100
AcDbEntity
  8
SLD-0
  6
Continuous
 62
   179
370
     0
100
AcDbLine
 10
129.0126917258
 20
128.0405058404
 30
0.0
 11
129.0126917258
 21
131.9174002148
 31
0.0
  0
LINE
  5
94
330
1F
100
AcDbEntity
  8
SLD-0
  6
Continuous
 62
   179
370
     0
100
AcDbLine
 10
129.0126917258
 20
128.0405058404
 30
0.0
 11
103.5126917258
 21
128.0405058404
 31
0.0
  0
LINE
  5
95
330
1F
100
AcDbEntity
  8
SLD-0
  6
Continuous
 62
   179
370
     0
100
AcDbLine
 10
109.1537927823
 20
140.163611466
 30
0.0
 11
103.5126917258
 21
140.163611466
 31
0.0
  0
LINE
  5
96
330
1F
100
AcDbEntity
  8
SLD-0
  6
Continuous
 62
   179
370
     0
100
AcDbLine
 10
103.5126917258
 20
144.0405058404
 30
0.0
 11
103.5126917258
 21
140.163611466
 31
0.0
  0
LINE
  5
97
330
1F
100
AcDbEntity
  8
SLD-0
  6
Continuous
 62
   179
370
     0
100
AcDbLine
 10
129.0126917258
 20
144.0405058404
 30
0.0
 11
103.5126917258
 21
144.0405058404
 31
0.0
  0
LINE
  5
98
330
1F
100
AcDbEntity
  8
SLD-0
  6
Continuous
 62
   179
370
     0
100
AcDbLine
 10
129.0126917258
 20
140.163611466
 30
0.0
 11
129.0126917258
 21
144.0405058404
 31
0.0
  0
LINE
  5
99
330
1F
100
AcDbEntity
  8
SLD-0
  6
Continuous
 62
   179
370
     0
100
AcDbLine
 10
129.0126917258
 20
140.163611466
 30
0.0
 11
117.8715906694
 21
140.163611466
 31
0.0
  0
LINE
  5
9A
330
1F
100
AcDbEntity
  8
SLD-0
  6
Continuous
 62
   179
370
     0
100
AcDbLine
 10
119.4918220973
 20
135.5405058404
 30
0.0
 11
129.5126917258
 21
135.5405058404
 31
0.0
  0
LINE
  5
9B
330
1F
100
AcDbEntity
  8
SLD-0
  6
Continuous
 62
   179
370
     0
100
AcDbLine
 10
129.5126917258
 20
135.5405058404
 30
0.0
 11
129.5126917258
 21
133.1682245171
 31
0.0
  0
LINE
  5
9C
330
1F
100
AcDbEntity
  8
SLD-0
  6
Continuous
 62
   179
370
     0
100
AcDbLine
 10
129.0126917258
 20
131.9174002148
 30
0.0
 11
129.5126917258
 21
133.1682245171
 31
0.0
  0
LINE
  5
9D
330
1F
100
AcDbEntity
  8
SLD-0
  6
Continuous
 62
   179
370
     0
100
AcDbLine
 10
129.5126917258
 20
138.9127871637
 30
0.0
 11
129.0126917258
 21
140.163611466
 31
0.0
  0
LINE
  5
9E
330
1F
100
AcDbEntity
  8
SLD-0
  6
Continuous
 62
   179
370
     0
100
AcDbLine
 10
129.0126917258
 20
144.0405058404
 30
0.0
 11
129.5126917258
 21
144.0405058404
 31
0.0
  0
LINE
  5
9F
330
1F
100
AcDbEntity
  8
SLD-0
  6
Continuous
 62
   179
370
     0
100
AcDbLine
 10
129.5126917258
 20
144.0405058404
 30
0.0
 11
129.5126917258
 21
138.9127871637
 31
0.0
  0
LINE
  5
A0
330
1F
100
AcDbEntity
  8
SLD-0
  6
Continuous
 62
   179
370
     0
100
AcDbLine
 10
103.5126917258
 20
140.163611466
 30
0.0
 11
103.5126917258
 21
131.9174002148
 31
0.0
  0
LINE
  5
A1
330
1F
100
AcDbEntity
  8
SLD-0
  6
Continuous
 62
   179
370
     0
100
AcDbLine
 10
129.5126917258
 20
128.0405058404
 30
0.0
 11
129.0126917258
 21
128.0405058404
 31
0.0
  0
LINE
  5
A2
330
1F
100
AcDbEntity
  8
SLD-0
  6
Continuous
 62
   179
370
     0
100
AcDbLine
 10
129.5126917258
 20
133.1682245171
 30
0.0
 11
129.5126917258
 21
128.0405058404
 31
0.0
  0
LINE
  5
A3
330
1F
100
AcDbEntity
  8
SLD-0
  6
Continuous
 62
   179
370
     0
100
AcDbLine
 10
129.5126917258
 20
136.5405058404
 30
0.0
 11
119.4918220973
 21
136.5405058404
 31
0.0
  0
LINE
  5
A4
330
1F
100
AcDbEntity
  8
SLD-0
  6
Continuous
 62
   179
370
     0
100
AcDbLine
 10
129.5126917258
 20
138.9127871637
 30
0.0
 11
129.5126917258
 21
136.5405058404
 31
0.0
  0
LINE
  5
A5
330
1F
100
AcDbEntity
  8
SLD-0
  6
Continuous
 62
   179
370
     0
100
AcDbLine
 10
92.0126917258
 20
136.0405058404
 30
0.0
 11
92.0126917258
 21
139.5405058404
 31
0.0
  0
LINE
  5
A6
330
1F
100
AcDbEntity
  8
SLD-0
  6
Continuous
 62
   179
370
     0
100
AcDbLine
 10
92.0126917258
 20
132.5405058404
 30
0.0
 11
92.0126917258
 21
136.0405058404
 31
0.0
  0
LINE
  5
A7
330
1F
100
AcDbEntity
  8
SLD-0
  6
Continuous
 62
   179
370
     0
100
AcDbLine
 10
92.5126917258
 20
136.0405058404
 30
0.0
 11
92.5126917258
 21
132.0405058404
 31
0.0
  0
LINE
  5
A8
330
1F
100
AcDbEntity
  8
SLD-0
  6
Continuous
 62
   179
370
     0
100
AcDbLine
 10
92.5126917258
 20
140.0405058404
 30
0.0
 11
92.5126917258
 21
136.0405058404
 31
0.0
  0
LINE
  5
A9
330
1F
100
AcDbEntity
  8
SLD-0
  6
HIDDEN
 62
   179
370
     0
100
AcDbLine
 10
123.5126917258
 20
140.0405058404
 30
0.0
 11
127.5126917258
 21
140.0405058404
 31
0.0
  0
LINE
  5
AA
330
1F
100
AcDbEntity
  8
SLD-0
  6
HIDDEN
 62
   179
370
     0
100
AcDbLine
 10
119.5126917258
 20
140.0405058404
 30
0.0
 11
123.5126917258
 21
140.0405058404
 31
0.0
  0
LINE
  5
AB
330
1F
100
AcDbEntity
  8
SLD-0
  6
HIDDEN
 62
   179
370
     0
100
AcDbLine
 10
104.0126917258
 20
136.0405058404
 30
0.0
 11
104.0126917258
 21
137.6905058404
 31
0.0
  0
LINE
  5
AC
330
1F
100
AcDbEntity
  8
SLD-0
  6
HIDDEN
 62
   179
370
     0
100
AcDbLine
 10
104.0126917258
 20
134.3905058404
 30
0.0
 11
104.0126917258
 21
136.0405058404
 31
0.0
  0
LINE
  5
AD
330
1F
100
AcDbEntity
  8
SLD-0
  6
HIDDEN
 62
   179
370
     0
100
AcDbLine
 10
119.5126917258
 20
144.0405058404
 30
0.0
 11
119.5126917258
 21
140.0405058404
 31
0.0
  0
LINE
  5
AE
330
1F
100
AcDbEntity
  8
SLD-0
  6
HIDDEN
 62
   179
370
     0
100
AcDbLine
 10
127.5126917258
 20
140.0405058404
 30
0.0
 11
127.5126917258
 21
144.0405058404
 31
0.0
  0
LINE
  5
AF
330
1F
100
AcDbEntity
  8
SLD-0
  6
HIDDEN
 62
   179
370
     0
100
AcDbLine
 10
121.2626917258
 20
140.0405058404
 30
0.0
 11
121.2626917258
 21
136.5405058404
 31
0.0
  0
LINE
  5
B0
330
1F
100
AcDbEntity
  8
SLD-0
  6
HIDDEN
 62
   179
370
     0
100
AcDbLine
 10
125.7626917258
 20
136.5405058404
 30
0.0
 11
125.7626917258
 21
140.0405058404
 31
0.0
  0
LINE
  5
B1
330
1F
100
AcDbEntity
  8
SLD-0
  6
HIDDEN
 62
   179
370
     0
100
AcDbLine
 10
121.8626917258
 20
135.5405058404
 30
0.0
 11
121.8626917258
 21
128.0405058404
 31
0.0
  0
LINE
  5
B2
330
1F
100
AcDbEntity
  8
SLD-0
  6
HIDDEN
 62
   179
370
     0
100
AcDbLine
 10
125.1626917258
 20
128.0405058404
 30
0.0
 11
125.1626917258
 21
135.5405058404
 31
0.0
  0
LINE
  5
B3
330
1F
100
AcDbEntity
  8
SLD-0
  6
HIDDEN
 62
   179
370
     0
100
AcDbLine
 10
92.0126917258
 20
134.3905058404
 30
0.0
 11
104.0126917258
 21
134.3905058404
 31
0.0
  0
LINE
  5
B4
330
1F
100
AcDbEntity
  8
SLD-0
  6
HIDDEN
 62
   179
370
     0
100
AcDbLine
 10
104.0126917258
 20
137.6905058404
 30
0.0
 11
92.0126917258
 21
137.6905058404
 31
0.0
  0
LINE
  5
B5
330
1F
100
AcDbEntity
  8
SLD-0
  6
HIDDEN
 62
   179
370
     0
100
AcDbLine
 10
104.0126917258
 20
134.3905058404
 30
0.0
 11
105.0041117472
 21
136.0405058404
 31
0.0
  0
LINE
  5
B6
330
1F
100
AcDbEntity
  8
SLD-0
  6
HIDDEN
 62
   179
370
     0
100
AcDbLine
 10
105.0041117472
 20
136.0405058404
 30
0.0
 11
104.0126917258
 21
137.6905058404
 31
0.0
  0
LINE
  5
B7
330
1F
100
AcDbEntity
  8
SLD-0
  6
HIDDEN
 62
   179
370
     0
100
AcDbLine
 10
102.0126917258
 20
138.0405058404
 30
0.0
 11
92.0126917258
 21
138.0405058404
 31
0.0
  0
LINE
  5
B8
330
1F
100
AcDbEntity
  8
SLD-0
  6
HIDDEN
 62
   179
370
     0
100
AcDbLine
 10
92.0126917258
 20
134.0405058404
 30
0.0
 11
102.0126917258
 21
134.0405058404
 31
0.0
  0
LINE
  5
B9
330
1F
100
AcDbEntity
  8
SLD-0
  6
HIDDEN
 62
   179
370
     0
100
AcDbLine
 10
102.0126917258
 20
138.0405058404
 30
0.0
 11
102.0126917258
 21
138.0181674928
 31
0.0
  0
LINE
  5
BA
330
1F
100
AcDbEntity
  8
SLD-0
  6
HIDDEN
 62
   179
370
     0
100
AcDbLine
 10
102.0126917258
 20
138.0181674928
 30
0.0
 11
102.0126917258
 21
134.0405058404
 31
0.0
  0
LINE
  5
BB
330
1F
100
AcDbEntity
  8
SLD-0
  6
HIDDEN
 62
   179
370
     0
100
AcDbLine
 10
125.5126917258
 20
128.0405058404
 30
0.0
 11
125.5126917258
 21
135.5405058404
 31
0.0
  0
LINE
  5
BC
330
1F
100
AcDbEntity
  8
SLD-0
  6
HIDDEN
 62
   179
370
     0
100
AcDbLine
 10
121.5126917258
 20
135.5405058404
 30
0.0
 11
121.5126917258
 21
128.0405058404
 31
0.0
  0
LINE
  5
BD
330
1F
100
AcDbEntity
  8
SLD-0
  6
CENTERX2
 62
   179
370
     0
100
AcDbLine
 10
131.0126917258
 20
136.0405058404
 30
0.0
 11
103.5126917258
 21
136.0405058404
 31
0.0
  0
LINE
  5
BE
330
1F
100
AcDbEntity
  8
SLD-0
  6
CENTERX2
 62
   179
370
     0
100
AcDbLine
 10
90.0126917258
 20
136.0405058404
 30
0.0
 11
103.5126917258
 21
136.0405058404
 31
0.0
  0
LINE
  5
BF
330
1F
100
AcDbEntity
  8
SLD-0
  6
CENTERX2
 62
   179
370
     0
100
AcDbLine
 10
123.5126917258
 20
126.0405058404
 30
0.0
 11
123.5126917258
 21
146.0405058404
 31
0.0
  0
LINE
  5
C0
330
1F
100
AcDbEntity
  8
SLD-0
  6
Continuous
 62
   179
370
     0
100
AcDbLine
 10
160.143226998
 20
144.0405058404
 30
0.0
 11
161.3940513003
 21
144.0405058404
 31
0.0
  0
LINE
  5
C1
330
1F
100
AcDbEntity
  8
SLD-0
  6
Continuous
 62
   179
370
     0
100
AcDbLine
 10
165.2709456747
 20
140.163611466
 30
0.0
 11
165.2709456747
 21
138.9127871637
 31
0.0
  0
LINE
  5
C2
330
1F
100
AcDbEntity
  8
SLD-0
  6
Continuous
 62
   179
370
     0
100
AcDbLine
 10
149.2709456747
 20
135.5405058404
 30
0.0
 11
149.2709456747
 21
133.1682245171
 31
0.0
  0
LINE
  5
C3
330
1F
100
AcDbEntity
  8
SLD-0
  6
Continuous
 62
   179
370
     0
100
AcDbLine
 10
165.2709456747
 20
135.5405058404
 30
0.0
 11
149.2709456747
 21
135.5405058404
 31
0.0
  0
LINE
  5
C4
330
1F
100
AcDbEntity
  8
SLD-0
  6
Continuous
 62
   179
370
     0
100
AcDbLine
 10
154.3986643514
 20
128.0405058404
 30
0.0
 11
160.143226998
 21
128.0405058404
 31
0.0
  0
LINE
  5
C5
330
1F
100
AcDbEntity
  8
SLD-0
  6
Continuous
 62
   179
370
     0
100
AcDbLine
 10
165.2709456747
 20
133.1682245171
 30
0.0
 11
165.2709456747
 21
135.5405058404
 31
0.0
  0
LINE
  5
C6
330
1F
100
AcDbEntity
  8
SLD-0
  6
Continuous
 62
   179
370
     0
100
AcDbLine
 10
165.2709456747
 20
136.5405058404
 30
0.0
 11
149.2709456747
 21
136.5405058404
 31
0.0
  0
LINE
  5
C7
330
1F
100
AcDbEntity
  8
SLD-0
  6
Continuous
 62
   179
370
     0
100
AcDbLine
 10
149.2709456747
 20
138.9127871637
 30
0.0
 11
149.2709456747
 21
136.5405058404
 31
0.0
  0
LINE
  5
C8
330
1F
100
AcDbEntity
  8
SLD-0
  6
Continuous
 62
   179
370
     0
100
AcDbLine
 10
160.143226998
 20
144.0405058404
 30
0.0
 11
154.3986643514
 21
144.0405058404
 31
0.0
  0
LINE
  5
C9
330
1F
100
AcDbEntity
  8
SLD-0
  6
Continuous
 62
   179
370
     0
100
AcDbLine
 10
165.2709456747
 20
136.5405058404
 30
0.0
 11
165.2709456747
 21
138.9127871637
 31
0.0
  0
LINE
  5
CA
330
1F
100
AcDbEntity
  8
SLD-0
  6
Continuous
 62
   179
370
     0
100
AcDbLine
 10
161.3940513003
 20
128.0405058404
 30
0.0
 11
160.143226998
 21
128.0405058404
 31
0.0
  0
LINE
  5
CB
330
1F
100
AcDbEntity
  8
SLD-0
  6
Continuous
 62
   179
370
     0
100
AcDbLine
 10
165.2709456747
 20
133.1682245171
 30
0.0
 11
165.2709456747
 21
131.9174002148
 31
0.0
  0
LINE
  5
CC
330
1F
100
AcDbEntity
  8
SLD-0
  6
Continuous
 62
   179
370
     0
100
AcDbLine
 10
149.2709456747
 20
138.9127871637
 30
0.0
 11
149.2709456747
 21
140.163611466
 31
0.0
  0
LINE
  5
CD
330
1F
100
AcDbEntity
  8
SLD-0
  6
Continuous
 62
   179
370
     0
100
AcDbLine
 10
153.1478400491
 20
144.0405058404
 30
0.0
 11
154.3986643514
 21
144.0405058404
 31
0.0
  0
LINE
  5
CE
330
1F
100
AcDbEntity
  8
SLD-0
  6
Continuous
 62
   179
370
     0
100
AcDbLine
 10
149.2709456747
 20
131.9174002148
 30
0.0
 11
149.2709456747
 21
133.1682245171
 31
0.0
  0
LINE
  5
CF
330
1F
100
AcDbEntity
  8
SLD-0
  6
Continuous
 62
   179
370
     0
100
AcDbLine
 10
154.3986643514
 20
128.0405058404
 30
0.0
 11
153.1478400491
 21
128.0405058404
 31
0.0
  0
LINE
  5
D0
330
1F
100
AcDbEntity
  8
SLD-0
  6
Continuous
 62
   179
370
     0
100
AcDbLine
 10
149.2709456747
 20
135.5405058404
 30
0.0
 11
149.2709456747
 21
136.5405058404
 31
0.0
  0
LINE
  5
D1
330
1F
100
AcDbEntity
  8
SLD-0
  6
Continuous
 62
   179
370
     0
100
AcDbLine
 10
165.2709456747
 20
136.5405058404
 30
0.0
 11
165.2709456747
 21
135.5405058404
 31
0.0
  0
LINE
  5
D2
330
1F
100
AcDbEntity
  8
SLD-0
  6
HIDDEN
 62
   179
370
     0
100
AcDbLine
 10
161.2709456747
 20
140.0405058404
 30
0.0
 11
153.2709456747
 21
140.0405058404
 31
0.0
  0
LINE
  5
D3
330
1F
100
AcDbEntity
  8
SLD-0
  6
HIDDEN
 62
   179
370
     0
100
AcDbLine
 10
153.2709456747
 20
144.0405058404
 30
0.0
 11
161.2652764574
 21
144.0405058404
 31
0.0
  0
LINE
  5
D4
330
1F
100
AcDbEntity
  8
SLD-0
  6
HIDDEN
 62
   179
370
     0
100
AcDbLine
 10
155.0209456747
 20
140.0405058404
 30
0.0
 11
159.5209456747
 21
140.0405058404
 31
0.0
  0
LINE
  5
D5
330
1F
100
AcDbEntity
  8
SLD-0
  6
HIDDEN
 62
   179
370
     0
100
AcDbLine
 10
159.5209456747
 20
136.5405058404
 30
0.0
 11
155.0209456747
 21
136.5405058404
 31
0.0
  0
LINE
  5
D6
330
1F
100
AcDbEntity
  8
SLD-0
  6
HIDDEN
 62
   179
370
     0
100
AcDbLine
 10
155.6209456747
 20
128.0405058404
 30
0.0
 11
158.9209456747
 21
128.0405058404
 31
0.0
  0
LINE
  5
D7
330
1F
100
AcDbEntity
  8
SLD-0
  6
HIDDEN
 62
   179
370
     0
100
AcDbLine
 10
155.6209456747
 20
135.5405058404
 30
0.0
 11
158.9209456747
 21
135.5405058404
 31
0.0
  0
LINE
  5
D8
330
1F
100
AcDbEntity
  8
SLD-0
  6
HIDDEN
 62
   179
370
     0
100
AcDbLine
 10
153.2709456747
 20
144.0405058404
 30
0.0
 11
153.2709456747
 21
140.0405058404
 31
0.0
  0
LINE
  5
D9
330
1F
100
AcDbEntity
  8
SLD-0
  6
HIDDEN
 62
   179
370
     0
100
AcDbLine
 10
161.2709456747
 20
140.0405058404
 30
0.0
 11
161.2709456747
 21
144.0405058404
 31
0.0
  0
LINE
  5
DA
330
1F
100
AcDbEntity
  8
SLD-0
  6
HIDDEN
 62
   179
370
     0
100
AcDbLine
 10
155.0209456747
 20
140.0405058404
 30
0.0
 11
155.0209456747
 21
136.5405058404
 31
0.0
  0
LINE
  5
DB
330
1F
100
AcDbEntity
  8
SLD-0
  6
HIDDEN
 62
   179
370
     0
100
AcDbLine
 10
159.5209456747
 20
136.5405058404
 30
0.0
 11
159.5209456747
 21
140.0405058404
 31
0.0
  0
LINE
  5
DC
330
1F
100
AcDbEntity
  8
SLD-0
  6
HIDDEN
 62
   179
370
     0
100
AcDbLine
 10
155.6209456747
 20
135.5405058404
 30
0.0
 11
155.6209456747
 21
128.0405058404
 31
0.0
  0
LINE
  5
DD
330
1F
100
AcDbEntity
  8
SLD-0
  6
HIDDEN
 62
   179
370
     0
100
AcDbLine
 10
158.9209456747
 20
128.0405058404
 30
0.0
 11
158.9209456747
 21
135.5405058404
 31
0.0
  0
LINE
  5
DE
330
1F
100
AcDbEntity
  8
SLD-0
  6
Continuous
 62
     7
370
     0
100
AcDbLine
 10
158.286580833
 20
125.126147246
 30
0.0
 11
157.2129496196
 21
128.0405058404
 31
0.0
  0
LINE
  5
DF
330
1F
100
AcDbEntity
  8
SLD-0
  6
Continuous
 62
     7
370
     0
100
AcDbLine
 10
157.2129496196
 20
128.0405058404
 30
0.0
 11
159.5999201084
 21
126.0534120115
 31
0.0
  0
LINE
  5
E0
330
1F
100
AcDbEntity
  8
SLD-0
  6
Continuous
 62
     7
370
     0
100
AcDbLine
 10
157.2129496196
 20
128.0405058404
 30
0.0
 11
158.9432504707
 21
125.5897796287
 31
0.0
  0
LINE
  5
E1
330
1F
100
AcDbEntity
  8
SLD-0
  6
Continuous
 62
   179
370
     0
100
AcDbLine
 10
158.9432504707
 20
125.5897796287
 30
0.0
 11
165.0142270466
 21
116.9911007254
 31
0.0
  0
LINE
  5
E2
330
1F
100
AcDbEntity
  8
SLD-0
  6
Continuous
 62
   179
370
     0
100
AcDbLine
 10
165.0142270466
 20
116.9911007254
 30
0.0
 11
169.5890054922
 21
116.9911007254
 31
0.0
  0
LINE
  5
E3
330
1F
100
AcDbEntity
  8
SLD-0
  6
HIDDEN
 62
   179
370
     0
100
AcDbLine
 10
159.2709456747
 20
128.0405058404
 30
0.0
 11
159.2709456747
 21
135.5405058404
 31
0.0
  0
LINE
  5
E4
330
1F
100
AcDbEntity
  8
SLD-0
  6
HIDDEN
 62
   179
370
     0
100
AcDbLine
 10
155.2709456747
 20
135.5405058404
 30
0.0
 11
155.2709456747
 21
128.0405058404
 31
0.0
  0
LINE
  5
E5
330
1F
100
AcDbEntity
  8
SLD-0
  6
CENTERX2
 62
   179
370
     0
100
AcDbLine
 10
167.2709456747
 20
136.0405058404
 30
0.0
 11
147.2709456747
 21
136.0405058404
 31
0.0
  0
LINE
  5
E6
330
1F
100
AcDbEntity
  8
SLD-0
  6
CENTERX2
 62
   179
370
     0
100
AcDbLine
 10
157.2709456747
 20
126.0405058404
 30
0.0
 11
157.2709456747
 21
146.0405058404
 31
0.0
  0
LINE
  5
E7
330
1F
100
AcDbEntity
  8
SLD-0
  6
Continuous
 62
   179
370
     0
100
AcDbLine
 10
57.4472678629
 20
128.0405058404
 30
0.0
 11
49.2010566117
 21
128.0405058404
 31
0.0
  0
LINE
  5
E8
330
1F
100
AcDbEntity
  8
SLD-0
  6
Continuous
 62
   179
370
     0
100
AcDbLine
 10
49.2010566117
 20
144.0405058404
 30
0.0
 11
57.4472678629
 21
144.0405058404
 31
0.0
  0
LINE
  5
E9
330
1F
100
AcDbEntity
  8
SLD-0
  6
Continuous
 62
   179
370
     0
100
AcDbLine
 10
61.3241622373
 20
140.163611466
 30
0.0
 11
61.3241622373
 21
131.9174002148
 31
0.0
  0
LINE
  5
EA
330
1F
100
AcDbEntity
  8
SLD-0
  6
Continuous
 62
   179
370
     0
100
AcDbLine
 10
45.3241622373
 20
131.9174002148
 30
0.0
 11
45.3241622373
 21
140.163611466
 31
0.0
  0
LINE
  5
EB
330
1F
100
AcDbEntity
  8
SLD-0
  6
Continuous
 62
   179
370
     0
100
AcDbLine
 10
92.5126917258
 20
197.2757538227
 30
0.0
 11
92.0126917258
 21
196.7757538227
 31
0.0
  0
LINE
  5
EC
330
1F
100
AcDbEntity
  8
SLD-0
  6
Continuous
 62
   179
370
     0
100
AcDbLine
 10
92.0126917258
 20
189.7757538227
 30
0.0
 11
92.5126917258
 21
189.2757538227
 31
0.0
  0
LINE
  5
ED
330
1F
100
AcDbEntity
  8
SLD-0
  6
Continuous
 62
   179
370
     0
100
AcDbLine
 10
103.5126917258
 20
197.2757538227
 30
0.0
 11
92.5126917258
 21
197.2757538227
 31
0.0
  0
LINE
  5
EE
330
1F
100
AcDbEntity
  8
SLD-0
  6
Continuous
 62
   179
370
     0
100
AcDbLine
 10
92.5126917258
 20
189.2757538227
 30
0.0
 11
103.5126917258
 21
189.2757538227
 31
0.0
  0
LINE
  5
EF
330
1F
100
AcDbEntity
  8
SLD-0
  6
Continuous
 62
   179
370
     0
100
AcDbLine
 10
103.5126917258
 20
201.2757538227
 30
0.0
 11
103.5126917258
 21
197.3988594483
 31
0.0
  0
LINE
  5
F0
330
1F
100
AcDbEntity
  8
SLD-0
  6
Continuous
 62
   179
370
     0
100
AcDbLine
 10
109.1537927823
 20
201.2757538227
 30
0.0
 11
103.5126917258
 21
201.2757538227
 31
0.0
  0
LINE
  5
F1
330
1F
100
AcDbEntity
  8
SLD-0
  6
Continuous
 62
   179
370
     0
100
AcDbLine
 10
129.0126917258
 20
201.2757538227
 30
0.0
 11
117.8715906693
 21
201.2757538227
 31
0.0
  0
LINE
  5
F2
330
1F
100
AcDbEntity
  8
SLD-0
  6
Continuous
 62
   179
370
     0
100
AcDbLine
 10
129.0126917258
 20
197.3988594483
 30
0.0
 11
129.0126917258
 21
201.2757538227
 31
0.0
  0
LINE
  5
F3
330
1F
100
AcDbEntity
  8
SLD-0
  6
Continuous
 62
   179
370
     0
100
AcDbLine
 10
129.0126917258
 20
197.3988594483
 30
0.0
 11
103.5126917258
 21
197.3988594483
 31
0.0
  0
LINE
  5
F4
330
1F
100
AcDbEntity
  8
SLD-0
  6
Continuous
 62
   179
370
     0
100
AcDbLine
 10
129.5126917258
 20
201.2757538227
 30
0.0
 11
129.5126917258
 21
196.1480351459
 31
0.0
  0
LINE
  5
F5
330
1F
100
AcDbEntity
  8
SLD-0
  6
Continuous
 62
   179
370
     0
100
AcDbLine
 10
129.5126917258
 20
196.1480351459
 30
0.0
 11
129.0126917258
 21
197.3988594483
 31
0.0
  0
LINE
  5
F6
330
1F
100
AcDbEntity
  8
SLD-0
  6
Continuous
 62
   179
370
     0
100
AcDbLine
 10
129.0126917258
 20
201.2757538227
 30
0.0
 11
129.5126917258
 21
201.2757538227
 31
0.0
  0
LINE
  5
F7
330
1F
100
AcDbEntity
  8
SLD-0
  6
Continuous
 62
   179
370
     0
100
AcDbLine
 10
129.0126917258
 20
189.152648197
 30
0.0
 11
129.5126917258
 21
190.4034724994
 31
0.0
  0
LINE
  5
F8
330
1F
100
AcDbEntity
  8
SLD-0
  6
Continuous
 62
   179
370
     0
100
AcDbLine
 10
129.0126917258
 20
189.152648197
 30
0.0
 11
103.5126917258
 21
189.152648197
 31
0.0
  0
LINE
  5
F9
330
1F
100
AcDbEntity
  8
SLD-0
  6
Continuous
 62
   179
370
     0
100
AcDbLine
 10
129.5126917258
 20
196.1480351459
 30
0.0
 11
129.5126917258
 21
190.4034724994
 31
0.0
  0
LINE
  5
FA
330
1F
100
AcDbEntity
  8
SLD-0
  6
Continuous
 62
   179
370
     0
100
AcDbLine
 10
103.5126917258
 20
197.3988594483
 30
0.0
 11
103.5126917258
 21
189.152648197
 31
0.0
  0
LINE
  5
FB
330
1F
100
AcDbEntity
  8
SLD-0
  6
Continuous
 62
   179
370
     0
100
AcDbLine
 10
129.5126917258
 20
185.2757538227
 30
0.0
 11
129.0126917258
 21
185.2757538227
 31
0.0
  0
LINE
  5
FC
330
1F
100
AcDbEntity
  8
SLD-0
  6
Continuous
 62
   179
370
     0
100
AcDbLine
 10
129.0126917258
 20
185.2757538227
 30
0.0
 11
129.0126917258
 21
189.152648197
 31
0.0
  0
LINE
  5
FD
330
1F
100
AcDbEntity
  8
SLD-0
  6
Continuous
 62
   179
370
     0
100
AcDbLine
 10
129.5126917258
 20
190.4034724994
 30
0.0
 11
129.5126917258
 21
185.2757538227
 31
0.0
  0
LINE
  5
FE
330
1F
100
AcDbEntity
  8
SLD-0
  6
Continuous
 62
   179
370
     0
100
AcDbLine
 10
109.1537927823
 20
185.2757538227
 30
0.0
 11
103.5126917258
 21
185.2757538227
 31
0.0
  0
LINE
  5
FF
330
1F
100
AcDbEntity
  8
SLD-0
  6
Continuous
 62
   179
370
     0
100
AcDbLine
 10
129.0126917258
 20
185.2757538227
 30
0.0
 11
117.8715906693
 21
185.2757538227
 31
0.0
  0
LINE
  5
100
330
1F
100
AcDbEntity
  8
SLD-0
  6
Continuous
 62
   179
370
     0
100
AcDbLine
 10
103.5126917258
 20
189.152648197
 30
0.0
 11
103.5126917258
 21
185.2757538227
 31
0.0
  0
LINE
  5
101
330
1F
100
AcDbEntity
  8
SLD-0
  6
Continuous
 62
   179
370
     0
100
AcDbLine
 10
92.0126917258
 20
189.7757538227
 30
0.0
 11
92.0126917258
 21
196.7757538227
 31
0.0
  0
LINE
  5
102
330
1F
100
AcDbEntity
  8
SLD-0
  6
Continuous
 62
   179
370
     0
100
AcDbLine
 10
92.5126917258
 20
197.2757538227
 30
0.0
 11
92.5126917258
 21
189.2757538227
 31
0.0
  0
LINE
  5
103
330
1F
100
AcDbEntity
  8
SLD-0
  6
HIDDEN
 62
   179
370
     0
100
AcDbLine
 10
119.4918220974
 20
201.2757538227
 30
0.0
 11
119.4918220974
 21
185.2757538227
 31
0.0
  0
LINE
  5
104
330
1F
100
AcDbEntity
  8
SLD-0
  6
HIDDEN
 62
   179
370
     0
100
AcDbLine
 10
104.0126917258
 20
191.6257538227
 30
0.0
 11
104.0126917258
 21
194.9257538227
 31
0.0
  0
LINE
  5
105
330
1F
100
AcDbEntity
  8
SLD-0
  6
HIDDEN
 62
   179
370
     0
100
AcDbLine
 10
107.5126917258
 20
201.2757538227
 30
0.0
 11
107.5126917258
 21
185.2757538227
 31
0.0
  0
LINE
  5
106
330
1F
100
AcDbEntity
  8
SLD-0
  6
HIDDEN
 62
   179
370
     0
100
AcDbLine
 10
92.0126917258
 20
191.6257538227
 30
0.0
 11
104.0126917258
 21
191.6257538227
 31
0.0
  0
LINE
  5
107
330
1F
100
AcDbEntity
  8
SLD-0
  6
HIDDEN
 62
   179
370
     0
100
AcDbLine
 10
104.0126917258
 20
194.9257538227
 30
0.0
 11
92.0126917258
 21
194.9257538227
 31
0.0
  0
LINE
  5
108
330
1F
100
AcDbEntity
  8
SLD-0
  6
HIDDEN
 62
   179
370
     0
100
AcDbLine
 10
104.0126917258
 20
191.6257538227
 30
0.0
 11
105.0041117472
 21
193.2757538227
 31
0.0
  0
LINE
  5
109
330
1F
100
AcDbEntity
  8
SLD-0
  6
HIDDEN
 62
   179
370
     0
100
AcDbLine
 10
105.0041117472
 20
193.2757538227
 30
0.0
 11
104.0126917258
 21
194.9257538227
 31
0.0
  0
LINE
  5
10A
330
1F
100
AcDbEntity
  8
SLD-0
  6
HIDDEN
 62
   179
370
     0
100
AcDbLine
 10
102.0126917258
 20
195.2757538227
 30
0.0
 11
92.0126917258
 21
195.2757538227
 31
0.0
  0
LINE
  5
10B
330
1F
100
AcDbEntity
  8
SLD-0
  6
HIDDEN
 62
   179
370
     0
100
AcDbLine
 10
92.0126917258
 20
191.2757538227
 30
0.0
 11
102.0126917258
 21
191.2757538227
 31
0.0
  0
LINE
  5
10C
330
1F
100
AcDbEntity
  8
SLD-0
  6
HIDDEN
 62
   179
370
     0
100
AcDbLine
 10
102.0126917258
 20
193.2757538227
 30
0.0
 11
102.0126917258
 21
192.9776692903
 31
0.0
  0
LINE
  5
10D
330
1F
100
AcDbEntity
  8
SLD-0
  6
HIDDEN
 62
   179
370
     0
100
AcDbLine
 10
102.0126917258
 20
192.9776692903
 30
0.0
 11
102.0126917258
 21
191.2757538227
 31
0.0
  0
LINE
  5
10E
330
1F
100
AcDbEntity
  8
SLD-0
  6
HIDDEN
 62
   179
370
     0
100
AcDbLine
 10
102.0126917258
 20
195.2757538227
 30
0.0
 11
102.0126917258
 21
193.2757538227
 31
0.0
  0
LINE
  5
10F
330
1F
100
AcDbEntity
  8
SLD-0
  6
CENTERX2
 62
   179
370
     0
100
AcDbLine
 10
131.0126917258
 20
193.2757538227
 30
0.0
 11
103.5126917258
 21
193.2757538227
 31
0.0
  0
LINE
  5
110
330
1F
100
AcDbEntity
  8
SLD-0
  6
CENTERX2
 62
   179
370
     0
100
AcDbLine
 10
90.0126917258
 20
193.2757538227
 30
0.0
 11
103.5126917258
 21
193.2757538227
 31
0.0
  0
LINE
  5
111
330
1F
100
AcDbEntity
  8
SLD-0
  6
CENTERX2
 62
   179
370
     0
100
AcDbLine
 10
113.5126917258
 20
203.2757538227
 30
0.0
 11
113.5126917258
 21
183.2757538227
 31
0.0
  0
ARC
  5
112
330
1F
100
AcDbEntity
  8
SLD-0
  6
Continuous
 62
   179
370
     0
100
AcDbCircle
 10
113.5126917258
 20
136.0415797056
 30
0.0
 40
6.000737993983028
100
AcDbArc
 50
223.4150796514
 51
316.5849203484
  0
ARC
  5
113
330
1F
100
AcDbEntity
  8
SLD-0
  6
Continuous
 62
   179
370
     0
100
AcDbCircle
 10
113.5126917258
 20
136.0394319752
 30
0.0
 40
6.000737993981823
100
AcDbArc
 50
43.4150796507
 51
136.5849203486
  0
ARC
  5
114
330
1F
100
AcDbEntity
  8
SLD-0
  6
Continuous
 62
   179
370
     0
100
AcDbCircle
 10
113.5126917258
 20
136.0405058404
 30
0.0
 40
5.999999999997971
100
AcDbArc
 50
316.5923692684
 51
355.2198081528
  0
ARC
  5
115
330
1F
100
AcDbEntity
  8
SLD-0
  6
Continuous
 62
   179
370
     0
100
AcDbCircle
 10
113.5126917258
 20
136.0405058404
 30
0.0
 40
5.999999999958314
100
AcDbArc
 50
136.5923692682
 51
223.4076307318
  0
ARC
  5
116
330
1F
100
AcDbEntity
  8
SLD-0
  6
Continuous
 62
   179
370
     0
100
AcDbCircle
 10
113.5126917258
 20
136.0405058404
 30
0.0
 40
5.999999999996672
100
AcDbArc
 50
4.7801918472
 51
43.4076307308
  0
ARC
  5
117
330
1F
100
AcDbEntity
  8
SLD-0
  6
Continuous
 62
   179
370
     0
100
AcDbCircle
 10
157.2709456747
 20
136.0405058404
 30
0.0
 40
8.500000000004073
100
AcDbArc
 50
19.7499227956
 51
70.2500772044
  0
ARC
  5
118
330
1F
100
AcDbEntity
  8
SLD-0
  6
Continuous
 62
   179
370
     0
100
AcDbCircle
 10
157.2709456747
 20
136.0405058404
 30
0.0
 40
8.999999999997407
100
AcDbArc
 50
27.2660444507
 51
62.7339555494
  0
ARC
  5
119
330
1F
100
AcDbEntity
  8
SLD-0
  6
Continuous
 62
   179
370
     0
100
AcDbCircle
 10
157.2709456747
 20
136.0405058404
 30
0.0
 40
8.499999999993962
100
AcDbArc
 50
199.7499227956
 51
250.2500772044
  0
ARC
  5
11A
330
1F
100
AcDbEntity
  8
SLD-0
  6
Continuous
 62
   179
370
     0
100
AcDbCircle
 10
157.2709456747
 20
136.0405058404
 30
0.0
 40
8.499999999995353
100
AcDbArc
 50
289.7499227956
 51
340.2500772044
  0
ARC
  5
11B
330
1F
100
AcDbEntity
  8
SLD-0
  6
Continuous
 62
   179
370
     0
100
AcDbCircle
 10
157.2709456747
 20
136.0405058404
 30
0.0
 40
8.500000000005251
100
AcDbArc
 50
109.7499227956
 51
160.2500772042
  0
ARC
  5
11C
330
1F
100
AcDbEntity
  8
SLD-0
  6
Continuous
 62
   179
370
     0
100
AcDbCircle
 10
157.2709456747
 20
136.0405058404
 30
0.0
 40
8.999999999995701
100
AcDbArc
 50
297.2660444507
 51
332.7339555493
  0
ARC
  5
11D
330
1F
100
AcDbEntity
  8
SLD-0
  6
Continuous
 62
   179
370
     0
100
AcDbCircle
 10
157.2709456747
 20
136.0405058404
 30
0.0
 40
8.999999999986734
100
AcDbArc
 50
117.2660444507
 51
152.7339555494
  0
ARC
  5
11E
330
1F
100
AcDbEntity
  8
SLD-0
  6
Continuous
 62
   179
370
     0
100
AcDbCircle
 10
157.2709456747
 20
136.0405058404
 30
0.0
 40
8.999999999994341
100
AcDbArc
 50
207.2660444507
 51
242.7339555493
  0
CIRCLE
  5
11F
330
1F
100
AcDbEntity
  8
SLD-0
  6
Continuous
 62
   179
370
     0
100
AcDbCircle
 10
53.3241622373
 20
136.0405058404
 30
0.0
 40
3.5
  0
CIRCLE
  5
120
330
1F
100
AcDbEntity
  8
SLD-0
  6
Continuous
 62
   179
370
     0
100
AcDbCircle
 10
53.3241622373
 20
136.0405058404
 30
0.0
 40
3.999999999999993
  0
CIRCLE
  5
121
330
1F
100
AcDbEntity
  8
SLD-0
  6
Continuous
 62
   179
370
     0
100
AcDbCircle
 10
53.3241622373
 20
136.0405058404
 30
0.0
 40
1.649999999999992
  0
ARC
  5
122
330
1F
100
AcDbEntity
  8
SLD-0
  6
Continuous
 62
   179
370
     0
100
AcDbCircle
 10
53.3241622373
 20
136.0405058404
 30
0.0
 40
8.999999999991919
100
AcDbArc
 50
27.2660444507
 51
62.7339555494
  0
ARC
  5
123
330
1F
100
AcDbEntity
  8
SLD-0
  6
Continuous
 62
   179
370
     0
100
AcDbCircle
 10
53.3241622373
 20
136.0405058404
 30
0.0
 40
8.999999999991907
100
AcDbArc
 50
297.2660444506
 51
332.7339555494
  0
ARC
  5
124
330
1F
100
AcDbEntity
  8
SLD-0
  6
Continuous
 62
   179
370
     0
100
AcDbCircle
 10
53.3241622373
 20
136.0405058404
 30
0.0
 40
8.999999999991911
100
AcDbArc
 50
207.2660444506
 51
242.7339555494
  0
ARC
  5
125
330
1F
100
AcDbEntity
  8
SLD-0
  6
Continuous
 62
   179
370
     0
100
AcDbCircle
 10
53.3241622373
 20
136.0405058404
 30
0.0
 40
8.999999999991911
100
AcDbArc
 50
117.2660444506
 51
152.7339555494
  0
CIRCLE
  5
126
330
1F
100
AcDbEntity
  8
SLD-0
  6
Continuous
 62
   179
370
     0
100
AcDbCircle
 10
53.3241622373
 20
136.0405058404
 30
0.0
 40
2.000000000000007
  0
ARC
  5
127
330
1F
100
AcDbEntity
  8
SLD-0
  6
Continuous
 62
   179
370
     0
100
AcDbCircle
 10
113.5126917258
 20
208.3489435551
 30
0.0
 40
8.308430236264558
100
AcDbArc
 50
238.3562793777
 51
301.6437206223
  0
CIRCLE
  5
128
330
1F
100
AcDbEntity
  8
SLD-0
  6
Continuous
 62
   179
370
     0
100
AcDbCircle
 10
123.5126917258
 20
193.2757538227
 30
0.0
 40
3.999999999999986
  0
ARC
  5
129
330
1F
100
AcDbEntity
  8
SLD-0
  6
Continuous
 62
   179
370
     0
100
AcDbCircle
 10
113.5126917258
 20
178.2025640902
 30
0.0
 40
8.308430236307027
100
AcDbArc
 50
58.3562793777
 51
121.6437206223
  0
CIRCLE
  5
12A
330
1F
100
AcDbEntity
  8
SLD-0
  6
Continuous
 62
   179
370
     0
100
AcDbCircle
 10
123.5126917258
 20
193.2757538227
 30
0.0
 40
2.249999999999957
  0
CIRCLE
  5
12B
330
1F
100
AcDbEntity
  8
SLD-0
  6
Continuous
 62
   179
370
     0
100
AcDbCircle
 10
123.5126917258
 20
193.2757538227
 30
0.0
 40
1.649999999999977
  0
CIRCLE
  5
12C
330
1F
100
AcDbEntity
  8
SLD-0
  6
Continuous
 62
   179
370
     0
100
AcDbCircle
 10
123.5126917258
 20
193.2757538227
 30
0.0
 40
1.999999999999986
  0
DIMENSION
  5
12D
330
1F
100
AcDbEntity
  8
SLD-0
 62
     7
100
AcDbDimension
  2
*D10
 10
7.6880299372
 20
9.2138021368
 30
0.0
 11
133.7223966904
 21
-4.6069018021
 31
0.0
 70
   163
  1
%%c12H7/　 
 71
     1
 42
11.9999980888
  3
SLDDIMSTYLE0
100
AcDbDiametricDimension
 15
0.0
 25
0.0
 35
0.0
 40
0.0
1001
ACAD
1000
DSTYLE
1002
{
1070
    77
1070
     0
1070
   143
1040
0.0393700787
1070
    41
1040
3.0
1070
    44
1040
1.0
1070
    42
1040
1.0
1070
   147
1040
1.524
1070
    73
1070
     1
1070
    74
1070
     1
1070
   140
1040
3.5
1070
   284
1070
    12
1070
    78
1070
    12
1002
}
  0
DIMENSION
  5
148
330
1F
100
AcDbEntity
  8
SLD-0
 62
     7
100
AcDbDimension
  2
*D12
 10
113.5126917258
 20
117.6166896775
 30
0.0
 11
102.7626917258
 21
117.6166896775
 31
0.0
 70
   160
 71
     1
 42
21.5
  3
SLDDIMSTYLE1
100
AcDbAlignedDimension
 13
92.0126917258
 23
132.0405058404
 33
0.0
 14
113.5126917258
 24
127.5405058404
 34
0.0
100
AcDbRotatedDimension
1001
ACAD
1000
DSTYLE
1002
{
1070
    77
1070
     3
1070
   143
1040
0.0393700787
1070
    41
1040
3.0
1070
    44
1040
1.0
1070
    42
1040
1.0
1070
   147
1040
1.524
1070
    73
1070
     0
1070
    74
1070
     0
1070
   140
1040
3.5
1070
   284
1070
    12
1070
    78
1070
    12
1002
}
  0
DIMENSION
  5
160
330
1F
100
AcDbEntity
  8
SLD-0
 62
     7
100
AcDbDimension
  2
*D13
 10
81.3063699315
 20
132.0405058404
 30
0.0
 11
81.3063699315
 21
155.7668113537
 31
0.0
 70
   160
  1
%%c<>
 71
     1
 42
8.0
  3
SLDDIMSTYLE2
100
AcDbAlignedDimension
 13
103.5126917258
 23
140.0405058404
 33
0.0
 14
103.5126917258
 24
132.0405058404
 34
0.0
 50
90.0
100
AcDbRotatedDimension
1001
ACAD
1000
DSTYLE
1002
{
1070
    77
1070
     3
1070
   143
1040
0.0393700787
1070
    41
1040
3.0
1070
    44
1040
1.0
1070
    42
1040
1.0
1070
   147
1040
1.524
1070
    73
1070
     0
1070
    74
1070
     0
1070
   140
1040
3.5
1070
   284
1070
     0
1070
    78
1070
    12
1002
}
  0
DIMENSION
  5
180
330
1F
100
AcDbEntity
  8
SLD-0
 62
     7
100
AcDbDimension
  2
*D14
 10
178.5284520605
 20
128.0405058404
 30
0.0
 11
178.5284520605
 21
132.0405058404
 31
0.0
 70
   160
 71
     1
 42
8.0
  3
SLDDIMSTYLE3
100
AcDbAlignedDimension
 13
168.7709456747
 23
136.0405058404
 33
0.0
 14
160.143226998
 24
128.0405058404
 34
0.0
 50
90.0
100
AcDbRotatedDimension
1001
ACAD
1000
DSTYLE
1002
{
1070
    77
1070
     3
1070
   143
1040
0.0393700787
1070
    41
1040
3.0
1070
    44
1040
1.0
1070
    42
1040
1.0
1070
   147
1040
1.524
1070
    73
1070
     0
1070
    74
1070
     0
1070
   140
1040
3.5
1070
   284
1070
    12
1070
    78
1070
    12
1002
}
  0
DIMENSION
  5
19B
330
1F
100
AcDbEntity
  8
SLD-0
 62
     7
100
AcDbDimension
  2
*D15
 10
173.5673605627
 20
135.5405058404
 30
0.0
 11
173.5673605627
 21
144.32898802
 31
0.0
 70
   160
 71
     1
 42
1.0
  3
SLDDIMSTYLE3
100
AcDbAlignedDimension
 13
165.2709456747
 23
136.5405058404
 33
0.0
 14
165.2709456747
 24
135.5405058404
 34
0.0
 50
90.0
100
AcDbRotatedDimension
1001
ACAD
1000
DSTYLE
1002
{
1070
    77
1070
     3
1070
   143
1040
0.0393700787
1070
    41
1040
3.0
1070
    44
1040
1.0
1070
    42
1040
1.0
1070
   147
1040
1.524
1070
    73
1070
     0
1070
    74
1070
     0
1070
   140
1040
3.5
1070
   284
1070
    12
1070
    78
1070
    12
1002
}
  0
DIMENSION
  5
1B6
330
1F
100
AcDbEntity
  8
SLD-0
 62
     7
100
AcDbDimension
  2
*D16
 10
45.3241622373
 20
151.8314758251
 30
0.0
 11
53.3241622373
 21
151.8314758251
 31
0.0
 70
   160
 71
     1
 42
16.0
  3
SLDDIMSTYLE3
100
AcDbAlignedDimension
 13
61.3241622373
 23
140.163611466
 33
0.0
 14
45.3241622373
 24
140.163611466
 34
0.0
100
AcDbRotatedDimension
1001
ACAD
1000
DSTYLE
1002
{
1070
    77
1070
     3
1070
   143
1040
0.0393700787
1070
    41
1040
3.0
1070
    44
1040
1.0
1070
    42
1040
1.0
1070
   147
1040
1.524
1070
    73
1070
     0
1070
    74
1070
     0
1070
   140
1040
3.5
1070
   284
1070
    12
1070
    78
1070
    12
1002
}
  0
DIMENSION
  5
1CD
330
1F
100
AcDbEntity
  8
SLD-0
 62
     7
100
AcDbDimension
  2
*D17
 10
37.2383297765
 20
144.0405058404
 30
0.0
 11
37.2383297765
 21
136.0405058404
 31
0.0
 70
   160
 71
     1
 42
16.0
  3
SLDDIMSTYLE3
100
AcDbAlignedDimension
 13
49.2010566117
 23
128.0405058404
 33
0.0
 14
49.2010566117
 24
144.0405058404
 34
0.0
 50
90.0
100
AcDbRotatedDimension
1001
ACAD
1000
DSTYLE
1002
{
1070
    77
1070
     3
1070
   143
1040
0.0393700787
1070
    41
1040
3.0
1070
    44
1040
1.0
1070
    42
1040
1.0
1070
   147
1040
1.524
1070
    73
1070
     0
1070
    74
1070
     0
1070
   140
1040
3.5
1070
   284
1070
    12
1070
    78
1070
    12
1002
}
  0
DIMENSION
  5
1E5
330
1F
100
AcDbEntity
  8
SLD-0
 62
     7
100
AcDbDimension
  2
*D18
 10
6.5688987339
 20
16.758562518
 30
0.0
 11
53.3241722373
 21
-5.5861888142
 31
0.0
 70
   163
  1
<>
 71
     1
 42
17.9999957846
  3
SLDDIMSTYLE4
100
AcDbDiametricDimension
 15
0.0
 25
0.0
 35
0.0
 40
0.0
1001
ACAD
1000
DSTYLE
1002
{
1070
    77
1070
     0
1070
   143
1040
0.0393700787
1070
    41
1040
3.0
1070
    44
1040
1.0
1070
    42
1040
1.0
1070
   147
1040
1.524
1070
    73
1070
     1
1070
    74
1070
     1
1070
   140
1040
3.5
1070
   284
1070
    12
1070
    78
1070
    12
1002
}
  0
DIMENSION
  5
1FD
330
1F
100
AcDbEntity
  8
SLD-0
 62
     7
100
AcDbDimension
  2
*D19
 10
1.4597552742
 20
3.724125004
 30
0.0
 11
35.2034448392
 21
-5.5861888142
 31
0.0
 70
   163
  1
M<>深10<>
 71
     1
 42
3.9999990632
  3
SLDDIMSTYLE4
100
AcDbDiametricDimension
 15
0.0
 25
0.0
 35
0.0
 40
0.0
1001
ACAD
1000
DSTYLE
1002
{
1070
    77
1070
     0
1070
   143
1040
0.0393700787
1070
    41
1040
3.0
1070
    44
1040
1.0
1070
    42
1040
1.0
1070
   147
1040
1.524
1070
    73
1070
     1
1070
    74
1070
     1
1070
   140
1040
3.5
1070
   284
1070
    12
1070
    78
1070
    12
1002
}
  0
DIMENSION
  5
20F
330
1F
100
AcDbEntity
  8
SLD-0
 62
     7
100
AcDbDimension
  2
*D20
 10
92.0126917258
 20
208.9023702645
 30
0.0
 11
97.7626917258
 21
208.9023702645
 31
0.0
 70
   160
 71
     1
 42
11.5
  3
SLDDIMSTYLE1
100
AcDbAlignedDimension
 13
103.5126917258
 23
201.2757538227
 33
0.0
 14
92.0126917258
 24
197.2757538227
 34
0.0
100
AcDbRotatedDimension
1001
ACAD
1000
DSTYLE
1002
{
1070
    77
1070
     3
1070
   143
1040
0.0393700787
1070
    41
1040
3.0
1070
    44
1040
1.0
1070
    42
1040
1.0
1070
   147
1040
1.524
1070
    73
1070
     0
1070
    74
1070
     0
1070
   140
1040
3.5
1070
   284
1070
    12
1070
    78
1070
    12
1002
}
  0
DIMENSION
  5
228
330
1F
100
AcDbEntity
  8
SLD-0
 62
     7
100
AcDbDimension
  2
*D21
 10
123.5126917258
 20
173.3733213943
 30
0.0
 11
107.7626917258
 21
173.3733213943
 31
0.0
 70
   160
 71
     1
 42
31.5
  3
SLDDIMSTYLE1
100
AcDbAlignedDimension
 13
92.0126917258
 23
189.2757538227
 33
0.0
 14
123.5126917258
 24
186.7757538227
 34
0.0
100
AcDbRotatedDimension
1001
ACAD
1000
DSTYLE
1002
{
1070
    77
1070
     3
1070
   143
1040
0.0393700787
1070
    41
1040
3.0
1070
    44
1040
1.0
1070
    42
1040
1.0
1070
   147
1040
1.524
1070
    73
1070
     0
1070
    74
1070
     0
1070
   140
1040
3.5
1070
   284
1070
    12
1070
    78
1070
    12
1002
}
  0
DIMENSION
  5
23F
330
1F
100
AcDbEntity
  8
SLD-0
 62
     7
100
AcDbDimension
  2
*D22
 10
92.0126917258
 20
217.8769917968
 30
0.0
 11
110.7626917258
 21
217.8769917968
 31
0.0
 70
   160
 71
     1
 42
37.5
  3
SLDDIMSTYLE1
100
AcDbAlignedDimension
 13
129.5126917258
 23
201.2757538227
 33
0.0
 14
92.0126917258
 24
196.7757538227
 34
0.0
100
AcDbRotatedDimension
1001
ACAD
1000
DSTYLE
1002
{
1070
    77
1070
     3
1070
   143
1040
0.0393700787
1070
    41
1040
3.0
1070
    44
1040
1.0
1070
    42
1040
1.0
1070
   147
1040
1.524
1070
    73
1070
     0
1070
    74
1070
     0
1070
   140
1040
3.5
1070
   284
1070
    12
1070
    78
1070
    12
1002
}
  0
MTEXT
  5
256
330
1F
100
AcDbEntity
  8
SLD-0
 62
     7
100
AcDbMText
 10
147.2491141874
 20
29.1648046204
 30
0.0
 40
4.2333333333
 41
0.0
 71
     1
 72
     1
  1
N01864-302-1
  7
SLDTEXTSTYLE1
 73
     1
 44
1.0
  0
MTEXT
  5
258
330
1F
100
AcDbEntity
  8
SLD-0
 62
     7
100
AcDbMText
 10
140.3857233583
 20
42.6886182372
 30
0.0
 40
4.2333333333
 41
0.0
 71
     1
 72
     1
  1
12 Rotation BKT 8A
  7
SLDTEXTSTYLE2
 73
     1
 44
1.0
  0
MTEXT
  5
259
330
1F
100
AcDbEntity
  8
SLD-0
 62
     7
100
AcDbMText
 10
165.5170386629
 20
120.4694787249
 30
0.0
 40
3.5
 41
0.0
 71
     1
 72
     1
  1
M4
  7
SLDTEXTSTYLE1
 73
     1
 44
1.0
  0
INSERT
  5
25A
330
1F
100
AcDbEntity
  8
0
  6
Continuous
 62
     7
370
     0
100
AcDbBlockReference
  2
SW_CENTERMARKSYMBOL_0
 10
113.5126917258
 20
136.0405058404
 30
0.0
  0
INSERT
  5
25B
330
1F
100
AcDbEntity
  8
0
  6
Continuous
 62
     7
370
     0
100
AcDbBlockReference
  2
SW_CENTERMARKSYMBOL_1
 10
113.5126917258
 20
136.0405058404
 30
0.0
  0
INSERT
  5
25C
330
1F
100
AcDbEntity
  8
0
  6
Continuous
 62
     7
370
     0
100
AcDbBlockReference
  2
SW_CENTERMARKSYMBOL_2
 10
157.2709456747
 20
136.0405058404
 30
0.0
  0
INSERT
  5
25D
330
1F
100
AcDbEntity
  8
0
  6
Continuous
 62
     7
370
     0
100
AcDbBlockReference
  2
SW_CENTERMARKSYMBOL_3
 10
157.2709456747
 20
136.0405058404
 30
0.0
  0
INSERT
  5
25E
330
1F
100
AcDbEntity
  8
0
  6
Continuous
 62
     7
370
     0
100
AcDbBlockReference
  2
SW_CENTERMARKSYMBOL_4
 10
53.3241622373
 20
136.0405058404
 30
0.0
  0
INSERT
  5
25F
330
1F
100
AcDbEntity
  8
0
  6
Continuous
 62
     7
370
     0
100
AcDbBlockReference
  2
SW_CENTERMARKSYMBOL_5
 10
53.3241622373
 20
136.0405058404
 30
0.0
  0
INSERT
  5
260
330
1F
100
AcDbEntity
  8
0
  6
Continuous
 62
     7
370
     0
100
AcDbBlockReference
  2
SW_CHAMFER_DIMENSION_0_0
 10
0.0
 20
0.0
 30
0.0
  0
INSERT
  5
261
330
1F
100
AcDbEntity
  8
0
  6
Continuous
 62
     7
370
     0
100
AcDbBlockReference
  2
SW_CENTERMARKSYMBOL_6
 10
123.5126917258
 20
193.2757538227
 30
0.0
  0
ENDSEC
  0
SECTION
  2
OBJECTS
  0
DICTIONARY
  5
C
330
0
100
AcDbDictionary
281
     1
  3
ACAD_GROUP
350
D
  3
ACAD_LAYOUT
350
1A
  3
ACAD_MLINESTYLE
350
17
  3
ACAD_PLOTSETTINGS
350
19
  3
ACAD_PLOTSTYLENAME
350
E
  0
DICTIONARY
  5
D
102
{ACAD_REACTORS
330
C
102
}
330
C
100
AcDbDictionary
281
     1
  0
DICTIONARY
  5
1A
102
{ACAD_REACTORS
330
C
102
}
330
C
100
AcDbDictionary
281
     1
  3
Layout1
350
1E
  3
Layout2
350
26
  3
Model
350
22
  0
DICTIONARY
  5
17
102
{ACAD_REACTORS
330
C
102
}
330
C
100
AcDbDictionary
281
     1
  3
Standard
350
18
  0
DICTIONARY
  5
19
102
{ACAD_REACTORS
330
C
102
}
330
C
100
AcDbDictionary
281
     1
  0
ACDBDICTIONARYWDFLT
  5
E
102
{ACAD_REACTORS
330
C
102
}
330
C
100
AcDbDictionary
281
     1
  3
Normal
350
F
100
AcDbDictionaryWithDefault
340
F
  0
LAYOUT
  5
1E
102
{ACAD_REACTORS
330
1A
102
}
330
1A
100
AcDbPlotSettings
  1

  2

  4

  6

 40
0.0
 41
0.0
 42
0.0
 43
0.0
 44
0.0
 45
0.0
 46
0.0
 47
0.0
 48
0.0
 49
0.0
140
0.0
141
0.0
142
1.0
143
1.0
 70
   688
 72
     0
 73
     0
 74
     5
  7

 75
    16
147
1.0
148
0.0
149
0.0
100
AcDbLayout
  1
Layout1
 70
     1
 71
     1
 10
0.0
 20
0.0
 11
0.0
 21
0.0
 12
0.0
 22
0.0
 32
0.0
 14
0.0
 24
0.0
 34
0.0
 15
0.0
 25
0.0
 35
0.0
146
0.0
 13
0.0
 23
0.0
 33
0.0
 16
1.0
 26
0.0
 36
0.0
 17
0.0
 27
1.0
 37
0.0
 76
     0
330
1B
  0
LAYOUT
  5
26
102
{ACAD_REACTORS
330
1A
102
}
330
1A
100
AcDbPlotSettings
  1

  2

  4

  6

 40
0.0
 41
0.0
 42
0.0
 43
0.0
 44
0.0
 45
0.0
 46
0.0
 47
0.0
 48
0.0
 49
0.0
140
0.0
141
0.0
142
1.0
143
1.0
 70
   688
 72
     0
 73
     0
 74
     5
  7

 75
    16
147
1.0
148
0.0
149
0.0
100
AcDbLayout
  1
Layout2
 70
     1
 71
     2
 10
0.0
 20
0.0
 11
0.0
 21
0.0
 12
0.0
 22
0.0
 32
0.0
 14
0.0
 24
0.0
 34
0.0
 15
0.0
 25
0.0
 35
0.0
146
0.0
 13
0.0
 23
0.0
 33
0.0
 16
1.0
 26
0.0
 36
0.0
 17
0.0
 27
1.0
 37
0.0
 76
     0
330
23
  0
LAYOUT
  5
22
102
{ACAD_REACTORS
330
1A
102
}
330
1A
100
AcDbPlotSettings
  1

  2

  4

  6

 40
0.0
 41
0.0
 42
0.0
 43
0.0
 44
0.0
 45
0.0
 46
0.0
 47
0.0
 48
0.0
 49
0.0
140
0.0
141
0.0
142
1.0
143
1.0
 70
  1712
 72
     0
 73
     0
 74
     0
  7

 75
     0
147
1.0
148
0.0
149
0.0
100
AcDbLayout
  1
Model
 70
     1
 71
     0
 10
0.0
 20
0.0
 11
0.0
 21
0.0
 12
0.0
 22
0.0
 32
0.0
 14
0.0
 24
0.0
 34
0.0
 15
210.0
 25
297.0
 35
0.0
146
0.0
 13
0.0
 23
0.0
 33
0.0
 16
1.0
 26
0.0
 36
0.0
 17
0.0
 27
1.0
 37
0.0
 76
     0
330
1F
  0
MLINESTYLE
  5
18
102
{ACAD_REACTORS
330
17
102
}
330
17
100
AcDbMlineStyle
  2
Standard
 70
     0
  3

 62
   256
 51
90.0
 52
90.0
 71
     2
 49
0.5
 62
   256
  6
BYLAYER
 49
-0.5
 62
   256
  6
BYLAYER
  0
ACDBPLACEHOLDER
  5
F
102
{ACAD_REACTORS
330
E
102
}
330
E
  0
ENDSEC
  0
EOF
