  0
SECTION
  2
HEADER
  9
$ACADVER
  1
AC1015
  9
$ACADMAINTVER
 70
     6
  9
$DWGCODEPAGE
  3
DOS932
  9
$INSBASE
 10
0.0
 20
0.0
 30
0.0
  9
$EXTMIN
 10
0.0
 20
0.0
 30
0.0
  9
$EXTMAX
 10
210.0
 20
297.0
 30
0.0
  9
$LIMMIN
 10
0.0
 20
0.0
  9
$LIMMAX
 10
0.0
 20
0.0
  9
$ORTHOMODE
 70
     0
  9
$REGENMODE
 70
     1
  9
$FILLMODE
 70
     1
  9
$QTEXTMODE
 70
     0
  9
$MIRRTEXT
 70
     1
  9
$LTSCALE
 40
1.0
  9
$ATTMODE
 70
     1
  9
$TEXTSIZE
 40
3.5
  9
$TRACEWID
 40
1.0
  9
$TEXTSTYLE
  7
Standard
  9
$CLAYER
  8
0
  9
$CELTYPE
  6
ByLayer
  9
$CECOLOR
 62
   256
  9
$CELTSCALE
 40
1.0
  9
$DISPSILH
 70
     0
  9
$DIMSCALE
 40
1.0
  9
$DIMASZ
 40
3.0
  9
$DIMEXO
 40
1.0
  9
$DIMDLI
 40
3.75
  9
$DIMRND
 40
0.0
  9
$DIMDLE
 40
0.0
  9
$DIMEXE
 40
1.0
  9
$DIMTP
 40
0.0
  9
$DIMTM
 40
0.0
  9
$DIMTXT
 40
3.5
  9
$DIMCEN
 40
2.5
  9
$DIMTSZ
 40
0.0
  9
$DIMTOL
 70
     0
  9
$DIMLIM
 70
     0
  9
$DIMTIH
 70
     1
  9
$DIMTOH
 70
     1
  9
$DIMSE1
 70
     0
  9
$DIMSE2
 70
     0
  9
$DIMTAD
 70
     1
  9
$DIMZIN
 70
     1
  9
$DIMBLK
  1

  9
$DIMASO
 70
     1
  9
$DIMSHO
 70
     1
  9
$DIMPOST
  1

  9
$DIMAPOST
  1

  9
$DIMALT
 70
     0
  9
$DIMALTD
 70
     3
  9
$DIMALTF
 40
0.0393700787
  9
$DIMLFAC
 40
1.0
  9
$DIMTOFL
 70
     1
  9
$DIMTVP
 40
0.0
  9
$DIMTIX
 70
     0
  9
$DIMSOXD
 70
     0
  9
$DIMSAH
 70
     0
  9
$DIMBLK1
  1

  9
$DIMBLK2
  1

  9
$DIMSTYLE
  2
ISO-25
  9
$DIMCLRD
 70
     0
  9
$DIMCLRE
 70
     0
  9
$DIMCLRT
 70
     0
  9
$DIMTFAC
 40
1.0
  9
$DIMGAP
 40
1.524
  9
$DIMJUST
 70
     0
  9
$DIMSD1
 70
     0
  9
$DIMSD2
 70
     0
  9
$DIMTOLJ
 70
     0
  9
$DIMTZIN
 70
     1
  9
$DIMALTZ
 70
     0
  9
$DIMALTTZ
 70
     0
  9
$DIMUPT
 70
     0
  9
$DIMDEC
 70
     2
  9
$DIMTDEC
 70
     2
  9
$DIMALTU
 70
     2
  9
$DIMALTTD
 70
     3
  9
$DIMTXSTY
  7
Standard
  9
$DIMAUNIT
 70
     0
  9
$DIMADEC
 70
     0
  9
$DIMALTRND
 40
0.0
  9
$DIMAZIN
 70
     0
  9
$DIMDSEP
 70
    44
  9
$DIMATFIT
 70
     3
  9
$DIMFRAC
 70
     0
  9
$DIMLDRBLK
  1

  9
$DIMLUNIT
 70
     2
  9
$DIMLWD
 70
    -2
  9
$DIMLWE
 70
    -2
  9
$DIMTMOVE
 70
     0
  9
$LUNITS
 70
     2
  9
$LUPREC
 70
     1
  9
$SKETCHINC
 40
1.0
  9
$FILLETRAD
 40
10.0
  9
$AUNITS
 70
     0
  9
$AUPREC
 70
     0
  9
$MENU
  1
.
  9
$ELEVATION
 40
0.0
  9
$PELEVATION
 40
0.0
  9
$THICKNESS
 40
0.0
  9
$LIMCHECK
 70
     0
  9
$CHAMFERA
 40
10.0
  9
$CHAMFERB
 40
10.0
  9
$CHAMFERC
 40
20.0
  9
$CHAMFERD
 40
0.0
  9
$SKPOLY
 70
     0
  9
$TDCREATE
 40
2454359.57968316
  9
$TDUCREATE
 40
2454359.20468316
  9
$TDUPDATE
 40
2454359.579683171
  9
$TDUUPDATE
 40
2454359.204683171
  9
$TDINDWG
 40
0.0000000116
  9
$TDUSRTIMER
 40
0.0000000116
  9
$USRTIMER
 70
     1
  9
$ANGBASE
 50
0.0
  9
$ANGDIR
 70
     0
  9
$PDMODE
 70
     0
  9
$PDSIZE
 40
-1.0
  9
$PLINEWID
 40
0.0
  9
$SPLFRAME
 70
     0
  9
$SPLINETYPE
 70
     6
  9
$SPLINESEGS
 70
     8
  9
$HANDSEED
  5
1FC
  9
$SURFTAB1
 70
     6
  9
$SURFTAB2
 70
     6
  9
$SURFTYPE
 70
     6
  9
$SURFU
 70
     6
  9
$SURFV
 70
     6
  9
$UCSBASE
  2

  9
$UCSNAME
  2

  9
$UCSORG
 10
0.0
 20
0.0
 30
0.0
  9
$UCSXDIR
 10
1.0
 20
0.0
 30
0.0
  9
$UCSYDIR
 10
0.0
 20
1.0
 30
0.0
  9
$UCSORTHOREF
  2

  9
$UCSORTHOVIEW
 70
     0
  9
$UCSORGTOP
 10
0.0
 20
0.0
 30
0.0
  9
$UCSORGBOTTOM
 10
0.0
 20
0.0
 30
0.0
  9
$UCSORGLEFT
 10
0.0
 20
0.0
 30
0.0
  9
$UCSORGRIGHT
 10
0.0
 20
0.0
 30
0.0
  9
$UCSORGFRONT
 10
0.0
 20
0.0
 30
0.0
  9
$UCSORGBACK
 10
0.0
 20
0.0
 30
0.0
  9
$PUCSBASE
  2

  9
$PUCSNAME
  2

  9
$PUCSORG
 10
0.0
 20
0.0
 30
0.0
  9
$PUCSXDIR
 10
1.0
 20
0.0
 30
0.0
  9
$PUCSYDIR
 10
0.0
 20
1.0
 30
0.0
  9
$PUCSORTHOREF
  2

  9
$PUCSORTHOVIEW
 70
     0
  9
$PUCSORGTOP
 10
0.0
 20
0.0
 30
0.0
  9
$PUCSORGBOTTOM
 10
0.0
 20
0.0
 30
0.0
  9
$PUCSORGLEFT
 10
0.0
 20
0.0
 30
0.0
  9
$PUCSORGRIGHT
 10
0.0
 20
0.0
 30
0.0
  9
$PUCSORGFRONT
 10
0.0
 20
0.0
 30
0.0
  9
$PUCSORGBACK
 10
0.0
 20
0.0
 30
0.0
  9
$USERI1
 70
     0
  9
$USERI2
 70
     0
  9
$USERI3
 70
     0
  9
$USERI4
 70
     0
  9
$USERI5
 70
     0
  9
$USERR1
 40
0.0
  9
$USERR2
 40
0.0
  9
$USERR3
 40
0.0
  9
$USERR4
 40
0.0
  9
$USERR5
 40
0.0
  9
$WORLDVIEW
 70
     1
  9
$SHADEDGE
 70
     3
  9
$SHADEDIF
 70
    70
  9
$TILEMODE
 70
     1
  9
$MAXACTVP
 70
    64
  9
$PINSBASE
 10
0.0
 20
0.0
 30
0.0
  9
$PLIMCHECK
 70
     0
  9
$PEXTMIN
 10
1.0000000000E+20
 20
1.0000000000E+20
 30
1.0000000000E+20
  9
$PEXTMAX
 10
-1.0000000000E+20
 20
-1.0000000000E+20
 30
-1.0000000000E+20
  9
$PLIMMIN
 10
0.0
 20
0.0
  9
$PLIMMAX
 10
420.0
 20
297.0
  9
$UNITMODE
 70
     0
  9
$VISRETAIN
 70
     1
  9
$PLINEGEN
 70
     0
  9
$PSLTSCALE
 70
     1
  9
$TREEDEPTH
 70
  3020
  9
$CMLSTYLE
  2
Standard
  9
$CMLJUST
 70
     0
  9
$CMLSCALE
 40
20.0
  9
$PROXYGRAPHICS
 70
     1
  9
$MEASUREMENT
 70
     1
  9
$CELWEIGHT
370
    -1
  9
$ENDCAPS
280
     0
  9
$JOINSTYLE
280
     0
  9
$LWDISPLAY
290
     1
  9
$INSUNITS
 70
     4
  9
$HYPERLINKBASE
  1

  9
$STYLESHEET
  1

  9
$XEDIT
290
     1
  9
$CEPSNTYPE
380
     0
  9
$PSTYLEMODE
290
     1
  9
$FINGERPRINTGUID
  2
{FF0CAB24-2A8A-40CC-A957-5ED814149EA9}
  9
$VERSIONGUID
  2
{FAEB1C32-E019-11D5-929B-00C0DF256EC4}
  9
$EXTNAMES
290
     1
  9
$PSVPSCALE
 40
0.0
  9
$OLESTARTUP
290
     0
  0
ENDSEC
  0
SECTION
  2
CLASSES
  0
CLASS
  1
ACDBDICTIONARYWDFLT
  2
AcDbDictionaryWithDefault
  3
ObjectDBX Classes
 90
        0
280
     0
281
     0
  0
CLASS
  1
ACDBPLACEHOLDER
  2
AcDbPlaceHolder
  3
ObjectDBX Classes
 90
        0
280
     0
281
     0
  0
CLASS
  1
LAYOUT
  2
AcDbLayout
  3
ObjectDBX Classes
 90
        0
280
     0
281
     0
  0
ENDSEC
  0
SECTION
  2
TABLES
  0
TABLE
  2
VPORT
  5
8
330
0
100
AcDbSymbolTable
 70
     1
  0
VPORT
  5
29
330
8
100
AcDbSymbolTableRecord
100
AcDbViewportTableRecord
  2
*Active
 70
     0
 10
0.0
 20
0.0
 11
1.0
 21
1.0
 12
105.0
 22
148.5
 13
0.0
 23
0.0
 14
10.0
 24
10.0
 15
10.0
 25
10.0
 16
0.0
 26
0.0
 36
1.0
 17
0.0
 27
0.0
 37
0.0
 40
297.0
 41
1.9729729729
 42
50.0
 43
0.0
 44
0.0
 50
0.0
 51
0.0
 71
     0
 72
  2000
 73
     1
 74
     3
 75
     0
 76
     0
 77
     0
 78
     0
281
     0
 65
     1
110
0.0
120
0.0
130
0.0
111
1.0
121
0.0
131
0.0
112
0.0
122
1.0
132
0.0
 79
     0
146
0.0
  0
ENDTAB
  0
TABLE
  2
LTYPE
  5
5
330
0
100
AcDbSymbolTable
 70
     6
  0
LTYPE
  5
14
330
5
100
AcDbSymbolTableRecord
100
AcDbLinetypeTableRecord
  2
ByBlock
 70
     0
  3

 72
    65
 73
     0
 40
0.0
  0
LTYPE
  5
15
330
5
100
AcDbSymbolTableRecord
100
AcDbLinetypeTableRecord
  2
ByLayer
 70
     0
  3

 72
    65
 73
     0
 40
0.0
  0
LTYPE
  5
16
330
5
100
AcDbSymbolTableRecord
100
AcDbLinetypeTableRecord
  2
Continuous
 70
     0
  3
Solid line
 72
    65
 73
     0
 40
0.0
  0
LTYPE
  5
2A
330
5
100
AcDbSymbolTableRecord
100
AcDbLinetypeTableRecord
  2
HIDDEN
 70
     0
  3
Hidden __ __ __ __ __ __ __ __ __ __ __ __ __ __
 72
    65
 73
     2
 40
1.905
 49
1.27
 74
     0
 49
-0.635
 74
     0
  0
LTYPE
  5
2B
330
5
100
AcDbSymbolTableRecord
100
AcDbLinetypeTableRecord
  2
PHANTOM
 70
     0
  3
Phantom ______  __  __  ______  __  __  ______
 72
    65
 73
     6
 40
12.7
 49
6.35
 74
     0
 49
-1.27
 74
     0
 49
1.27
 74
     0
 49
-1.27
 74
     0
 49
1.27
 74
     0
 49
-1.27
 74
     0
  0
LTYPE
  5
2C
330
5
100
AcDbSymbolTableRecord
100
AcDbLinetypeTableRecord
  2
CENTER
 70
     0
  3
Center ____ _ ____ _ ____ _ ____ _ ____ _ ____
 72
    65
 73
     4
 40
10.16
 49
6.35
 74
     0
 49
-1.27
 74
     0
 49
1.27
 74
     0
 49
-1.27
 74
     0
  0
LTYPE
  5
2D
330
5
100
AcDbSymbolTableRecord
100
AcDbLinetypeTableRecord
  2
CENTERX2
 70
     0
  3
Center (2x) ________  __  ________  __  _____
 72
    65
 73
     4
 40
20.32
 49
12.7
 74
     0
 49
-2.54
 74
     0
 49
2.54
 74
     0
 49
-2.54
 74
     0
  0
LTYPE
  5
2E
330
5
100
AcDbSymbolTableRecord
100
AcDbLinetypeTableRecord
  2
DOT2
 70
     0
  3
Dot (.5x) ........................................
 72
    65
 73
     2
 40
0.635
 49
0.0
 74
     0
 49
-0.635
 74
     0
  0
ENDTAB
  0
TABLE
  2
LAYER
  5
2
330
0
100
AcDbSymbolTable
 70
     4
  0
LAYER
  5
10
330
2
100
AcDbSymbolTableRecord
100
AcDbLayerTableRecord
  2
0
 70
     0
 62
     7
  6
Continuous
370
    -3
390
F
  0
LAYER
  5
2F
330
2
100
AcDbSymbolTableRecord
100
AcDbLayerTableRecord
  2
SLD-0
 70
     0
 62
     7
  6
Continuous
370
     0
390
F
  0
LAYER
  5
30
330
2
100
AcDbSymbolTableRecord
100
AcDbLayerTableRecord
  2
SLD-DEFPOINTS
 70
     0
 62
     7
  6
Continuous
370
     0
390
F
  0
LAYER
  5
11C
330
2
100
AcDbSymbolTableRecord
100
AcDbLayerTableRecord
  2
Defpoints
 70
     0
 62
     7
  6
Continuous
290
     0
370
    -3
390
F
  0
ENDTAB
  0
TABLE
  2
STYLE
  5
3
330
0
100
AcDbSymbolTable
 70
     4
  0
STYLE
  5
11
330
3
100
AcDbSymbolTableRecord
100
AcDbTextStyleTableRecord
  2
Standard
 70
     0
 40
0.0
 41
1.0
 50
0.0
 71
     0
 42
2.5
  3
txt
  4
bigfont
  0
STYLE
  5
34
330
3
100
AcDbSymbolTableRecord
100
AcDbTextStyleTableRecord
  2
SLDTEXTSTYLE0
 70
     0
 40
0.0
 41
0.7
 50
0.0
 71
     0
 42
0.2
  3
TXT
  4
bigfont
  0
STYLE
  5
12B
330
3
100
AcDbSymbolTableRecord
100
AcDbTextStyleTableRecord
  2
SLDTEXTSTYLE1
 70
     0
 40
0.0
 41
0.75
 50
0.0
 71
     0
 42
0.2
  3
TXT
  4
bigfont
  0
STYLE
  5
133
330
3
100
AcDbSymbolTableRecord
100
AcDbTextStyleTableRecord
  2
SLDTEXTSTYLE2
 70
     0
 40
0.0
 41
0.96
 50
0.0
 71
     0
 42
0.2
  3
TXT
  4
bigfont
  0
ENDTAB
  0
TABLE
  2
VIEW
  5
6
330
0
100
AcDbSymbolTable
 70
     0
  0
ENDTAB
  0
TABLE
  2
UCS
  5
7
330
0
100
AcDbSymbolTable
 70
     0
  0
ENDTAB
  0
TABLE
  2
APPID
  5
9
330
0
100
AcDbSymbolTable
 70
     1
  0
APPID
  5
12
330
9
100
AcDbSymbolTableRecord
100
AcDbRegAppTableRecord
  2
ACAD
 70
     0
  0
ENDTAB
  0
TABLE
  2
DIMSTYLE
  5
A
330
0
100
AcDbSymbolTable
 70
     5
100
AcDbDimStyleTable
  0
DIMSTYLE
105
27
330
A
100
AcDbSymbolTableRecord
100
AcDbDimStyleTableRecord
  2
ISO-25
 70
     0
 41
2.5
 42
0.625
 43
3.75
 44
1.25
 73
     0
 74
     0
 77
     1
 78
     8
140
2.5
141
2.5
143
0.0393700787
147
0.625
171
     3
172
     1
271
     2
272
     2
274
     3
278
    44
283
     0
284
     8
340
11
  0
DIMSTYLE
105
12C
102
{ACAD_REACTORS
330
11B
102
}
330
A
100
AcDbSymbolTableRecord
100
AcDbDimStyleTableRecord
  2
SLDDIMSTYLE0
 70
     0
 41
3.0
 44
0.0
 73
     0
 74
     0
 77
     3
 78
    12
140
3.5
147
0.875
173
     1
271
     0
272
     2
284
    12
340
12B
341
54
343
54
344
54
  0
DIMSTYLE
105
140
102
{ACAD_REACTORS
330
136
330
193
330
1AA
102
}
330
A
100
AcDbSymbolTableRecord
100
AcDbDimStyleTableRecord
  2
SLDDIMSTYLE1
 70
     0
 41
3.0
 44
0.0
 78
    12
140
3.5
147
0.875
172
     1
173
     1
271
     0
272
     2
284
    12
340
12B
341
141
343
141
344
141
  0
DIMSTYLE
105
159
102
{ACAD_REACTORS
330
14C
330
164
330
17B
102
}
330
A
100
AcDbSymbolTableRecord
100
AcDbDimStyleTableRecord
  2
SLDDIMSTYLE2
 70
     0
 41
3.0
 44
0.0
 73
     0
 74
     0
 77
     3
 78
    12
140
3.5
147
0.875
173
     1
271
     0
272
     2
284
    12
340
12B
341
141
343
141
344
141
  0
DIMSTYLE
105
1C9
102
{ACAD_REACTORS
330
1BC
330
1D6
102
}
330
A
100
AcDbSymbolTableRecord
100
AcDbDimStyleTableRecord
  2
SLDDIMSTYLE3
 70
     0
 41
3.0
 44
0.0
 73
     0
 74
     0
 77
     3
 78
    12
140
3.5
147
0.875
173
     1
271
     1
272
     2
284
    12
340
12B
341
141
343
141
344
141
  0
ENDTAB
  0
TABLE
  2
BLOCK_RECORD
  5
1
330
0
100
AcDbSymbolTable
 70
    17
  0
BLOCK_RECORD
  5
1F
330
1
100
AcDbSymbolTableRecord
100
AcDbBlockTableRecord
  2
*Model_Space
340
22
  0
BLOCK_RECORD
  5
1B
330
1
100
AcDbSymbolTableRecord
100
AcDbBlockTableRecord
  2
*Paper_Space
340
1E
  0
BLOCK_RECORD
  5
23
330
1
100
AcDbSymbolTableRecord
100
AcDbBlockTableRecord
  2
*Paper_Space0
340
26
  0
BLOCK_RECORD
  5
31
330
1
100
AcDbSymbolTableRecord
100
AcDbBlockTableRecord
  2
注記
340
0
  0
BLOCK_RECORD
  5
37
330
1
100
AcDbSymbolTableRecord
100
AcDbBlockTableRecord
  2
SW_CENTERMARK0
340
0
102
{BLKREFS
331
1F8
102
}
  0
BLOCK_RECORD
  5
42
330
1
100
AcDbSymbolTableRecord
100
AcDbBlockTableRecord
  2
SW_CENTERMARK1
340
0
102
{BLKREFS
331
1F9
102
}
  0
BLOCK_RECORD
  5
49
330
1
100
AcDbSymbolTableRecord
100
AcDbBlockTableRecord
  2
SW_CENTERMARK2
340
0
102
{BLKREFS
331
1FA
102
}
  0
BLOCK_RECORD
  5
54
330
1
100
AcDbSymbolTableRecord
100
AcDbBlockTableRecord
  2
_OPEN30
340
0
102
{BLKREFS
331
123
331
122
331
12D
331
12E
331
1FB
102
}
  0
BLOCK_RECORD
  5
11D
330
1
100
AcDbSymbolTableRecord
100
AcDbBlockTableRecord
  2
*D6
340
0
  0
BLOCK_RECORD
  5
137
330
1
100
AcDbSymbolTableRecord
100
AcDbBlockTableRecord
  2
*D7
340
0
  0
BLOCK_RECORD
  5
141
330
1
100
AcDbSymbolTableRecord
100
AcDbBlockTableRecord
  2
_None
340
0
102
{BLKREFS
331
13B
331
152
331
151
331
16A
331
169
331
181
331
180
331
198
331
1AF
331
1C2
331
1C1
331
1DC
331
1DB
102
}
  0
BLOCK_RECORD
  5
14D
330
1
100
AcDbSymbolTableRecord
100
AcDbBlockTableRecord
  2
*D9
340
0
  0
BLOCK_RECORD
  5
165
330
1
100
AcDbSymbolTableRecord
100
AcDbBlockTableRecord
  2
*D10
340
0
  0
BLOCK_RECORD
  5
17C
330
1
100
AcDbSymbolTableRecord
100
AcDbBlockTableRecord
  2
*D11
340
0
  0
BLOCK_RECORD
  5
194
330
1
100
AcDbSymbolTableRecord
100
AcDbBlockTableRecord
  2
*D12
340
0
  0
BLOCK_RECORD
  5
1AB
330
1
100
AcDbSymbolTableRecord
100
AcDbBlockTableRecord
  2
*D13
340
0
  0
BLOCK_RECORD
  5
1BD
330
1
100
AcDbSymbolTableRecord
100
AcDbBlockTableRecord
  2
*D14
340
0
  0
BLOCK_RECORD
  5
1D7
330
1
100
AcDbSymbolTableRecord
100
AcDbBlockTableRecord
  2
*D15
340
0
  0
BLOCK_RECORD
  5
1F1
330
1
100
AcDbSymbolTableRecord
100
AcDbBlockTableRecord
  2
SW_NOTE_0
340
0
102
{BLKREFS
331
1F6
102
}
  0
ENDTAB
  0
ENDSEC
  0
SECTION
  2
BLOCKS
  0
BLOCK
  5
20
330
1F
100
AcDbEntity
  8
0
100
AcDbBlockBegin
  2
*Model_Space
 70
     0
 71
     0
 10
0.0
 20
0.0
 30
0.0
  3
*Model_Space
  1

  0
ENDBLK
  5
21
330
1F
100
AcDbEntity
  8
0
100
AcDbBlockEnd
  0
BLOCK
  5
1C
330
1B
100
AcDbEntity
 67
     1
  8
0
100
AcDbBlockBegin
  2
*Paper_Space
 70
     0
 71
     0
 10
0.0
 20
0.0
 30
0.0
  3
*Paper_Space
  1

  0
ENDBLK
  5
1D
330
1B
100
AcDbEntity
 67
     1
  8
0
100
AcDbBlockEnd
  0
BLOCK
  5
24
330
23
100
AcDbEntity
  8
0
100
AcDbBlockBegin
  2
*Paper_Space0
 70
     0
 71
     0
 10
0.0
 20
0.0
 30
0.0
  3
*Paper_Space0
  1

  0
ENDBLK
  5
25
330
23
100
AcDbEntity
  8
0
100
AcDbBlockEnd
  0
BLOCK
  5
32
330
31
100
AcDbEntity
  8
0
100
AcDbBlockBegin
  2
注記
 70
     0
 71
     0
 10
0.0
 20
0.0
 30
0.0
  3
注記
  1

  0
MTEXT
  5
35
330
31
100
AcDbEntity
  8
0
  6
Continuous
 62
     7
370
     0
100
AcDbMText
 10
0.2636785918
 20
9.0739778448
 30
0.0
 40
3.5
 41
0.0
 71
     1
 72
     1
  1
１．特記ナキ角部ハ、バリ　カエリノ無キコト。
  7
SLDTEXTSTYLE0
 73
     1
 44
1.0
  0
MTEXT
  5
36
330
31
100
AcDbEntity
  8
0
  6
Continuous
 62
     7
370
     0
100
AcDbMText
 10
0.2636785918
 20
3.5759549983
 30
0.0
 40
3.5
 41
0.0
 71
     1
 72
     1
  1
２．特記ナキ隅部ハ、Ｒ０．４ＭＡＸトスル。
  7
SLDTEXTSTYLE0
 73
     1
 44
1.0
  0
ENDBLK
  5
33
330
31
100
AcDbEntity
  8
0
100
AcDbBlockEnd
  0
BLOCK
  5
38
330
37
100
AcDbEntity
  8
0
100
AcDbBlockBegin
  2
SW_CENTERMARK0
 70
     0
 71
     0
 10
0.0
 20
0.0
 30
0.0
  3
SW_CENTERMARK0
  1

  0
LINE
  5
3A
330
37
100
AcDbEntity
  8
SLD-0
  6
Continuous
 62
     7
100
AcDbLine
 10
139.3846135455
 20
141.5657193122
 30
0.0
 11
139.3846137131
 21
144.0657191721
 31
0.0
  0
LINE
  5
3B
330
37
100
AcDbEntity
  8
SLD-0
  6
Continuous
 62
     7
100
AcDbLine
 10
139.3846135455
 20
141.5657193122
 30
0.0
 11
136.8846137131
 21
141.5657191721
 31
0.0
  0
LINE
  5
3C
330
37
100
AcDbEntity
  8
SLD-0
  6
Continuous
 62
     7
100
AcDbLine
 10
139.3846135455
 20
141.5657193122
 30
0.0
 11
139.3846137131
 21
139.0657191721
 31
0.0
  0
LINE
  5
3D
330
37
100
AcDbEntity
  8
SLD-0
  6
Continuous
 62
     7
100
AcDbLine
 10
139.3846135455
 20
141.5657193122
 30
0.0
 11
141.8846137131
 21
141.5657191721
 31
0.0
  0
LINE
  5
3E
330
37
100
AcDbEntity
  8
SLD-0
  6
Continuous
 62
     7
100
AcDbLine
 10
139.3846137131
 20
146.5657191721
 30
0.0
 11
139.3846137131
 21
148.5657191721
 31
0.0
  0
LINE
  5
3F
330
37
100
AcDbEntity
  8
SLD-0
  6
Continuous
 62
     7
100
AcDbLine
 10
134.3846137131
 20
141.5657191721
 30
0.0
 11
132.3846137131
 21
141.5657191721
 31
0.0
  0
LINE
  5
40
330
37
100
AcDbEntity
  8
SLD-0
  6
Continuous
 62
     7
100
AcDbLine
 10
139.3846137131
 20
136.5657191721
 30
0.0
 11
139.3846137131
 21
134.5657191721
 31
0.0
  0
LINE
  5
41
330
37
100
AcDbEntity
  8
SLD-0
  6
Continuous
 62
     7
100
AcDbLine
 10
144.3846137131
 20
141.5657191721
 30
0.0
 11
146.3846137131
 21
141.5657191721
 31
0.0
  0
ENDBLK
  5
39
330
37
100
AcDbEntity
  8
0
100
AcDbBlockEnd
  0
BLOCK
  5
43
330
42
100
AcDbEntity
  8
0
100
AcDbBlockBegin
  2
SW_CENTERMARK1
 70
     0
 71
     0
 10
0.0
 20
0.0
 30
0.0
  3
SW_CENTERMARK1
  1

  0
LINE
  5
45
330
42
100
AcDbEntity
  8
SLD-0
  6
Continuous
 62
     7
100
AcDbLine
 10
64.4176481725
 20
141.5657191721
 30
0.0
 11
64.4176481725
 21
144.0657191721
 31
0.0
  0
LINE
  5
46
330
42
100
AcDbEntity
  8
SLD-0
  6
Continuous
 62
     7
100
AcDbLine
 10
64.4176481725
 20
141.5657191721
 30
0.0
 11
61.9176481725
 21
141.5657191721
 31
0.0
  0
LINE
  5
47
330
42
100
AcDbEntity
  8
SLD-0
  6
Continuous
 62
     7
100
AcDbLine
 10
64.4176481725
 20
141.5657191721
 30
0.0
 11
64.4176481725
 21
139.0657191721
 31
0.0
  0
LINE
  5
48
330
42
100
AcDbEntity
  8
SLD-0
  6
Continuous
 62
     7
100
AcDbLine
 10
64.4176481725
 20
141.5657191721
 30
0.0
 11
66.9176481725
 21
141.5657191721
 31
0.0
  0
ENDBLK
  5
44
330
42
100
AcDbEntity
  8
0
100
AcDbBlockEnd
  0
BLOCK
  5
4A
330
49
100
AcDbEntity
  8
0
100
AcDbBlockBegin
  2
SW_CENTERMARK2
 70
     0
 71
     0
 10
0.0
 20
0.0
 30
0.0
  3
SW_CENTERMARK2
  1

  0
LINE
  5
4C
330
49
100
AcDbEntity
  8
SLD-0
  6
Continuous
 62
     7
100
AcDbLine
 10
64.4176481725
 20
141.5657191721
 30
0.0
 11
64.4176481725
 21
144.0657191721
 31
0.0
  0
LINE
  5
4D
330
49
100
AcDbEntity
  8
SLD-0
  6
Continuous
 62
     7
100
AcDbLine
 10
64.4176481725
 20
141.5657191721
 30
0.0
 11
61.9176481725
 21
141.5657191721
 31
0.0
  0
LINE
  5
4E
330
49
100
AcDbEntity
  8
SLD-0
  6
Continuous
 62
     7
100
AcDbLine
 10
64.4176481725
 20
141.5657191721
 30
0.0
 11
64.4176481725
 21
139.0657191721
 31
0.0
  0
LINE
  5
4F
330
49
100
AcDbEntity
  8
SLD-0
  6
Continuous
 62
     7
100
AcDbLine
 10
64.4176481725
 20
141.5657191721
 30
0.0
 11
66.9176481725
 21
141.5657191721
 31
0.0
  0
LINE
  5
50
330
49
100
AcDbEntity
  8
SLD-0
  6
Continuous
 62
     7
100
AcDbLine
 10
64.4176481725
 20
146.5657191721
 30
0.0
 11
64.4176481725
 21
152.0657191721
 31
0.0
  0
LINE
  5
51
330
49
100
AcDbEntity
  8
SLD-0
  6
Continuous
 62
     7
100
AcDbLine
 10
59.4176481725
 20
141.5657191721
 30
0.0
 11
53.9176481725
 21
141.5657191721
 31
0.0
  0
LINE
  5
52
330
49
100
AcDbEntity
  8
SLD-0
  6
Continuous
 62
     7
100
AcDbLine
 10
64.4176481725
 20
136.5657191721
 30
0.0
 11
64.4176481725
 21
131.0657191721
 31
0.0
  0
LINE
  5
53
330
49
100
AcDbEntity
  8
SLD-0
  6
Continuous
 62
     7
100
AcDbLine
 10
69.4176481725
 20
141.5657191721
 30
0.0
 11
74.9176481725
 21
141.5657191721
 31
0.0
  0
ENDBLK
  5
4B
330
49
100
AcDbEntity
  8
0
100
AcDbBlockEnd
  0
BLOCK
  5
55
330
54
100
AcDbEntity
  8
0
100
AcDbBlockBegin
  2
_OPEN30
 70
     0
 71
     0
 10
0.0
 20
0.0
 30
0.0
  3
_OPEN30
  1

  0
LINE
  5
57
330
54
100
AcDbEntity
  8
SLD-0
  6
Continuous
100
AcDbLine
 10
-1.0
 20
0.267949
 30
0.0
 11
0.0
 21
0.0
 31
0.0
  0
LINE
  5
58
330
54
100
AcDbEntity
  8
SLD-0
  6
Continuous
100
AcDbLine
 10
0.0
 20
0.0
 30
0.0
 11
-1.0
 21
-0.267949
 31
0.0
  0
LINE
  5
59
330
54
100
AcDbEntity
  8
SLD-0
  6
Continuous
100
AcDbLine
 10
0.0
 20
0.0
 30
0.0
 11
-1.0
 21
0.0
 31
0.0
  0
ENDBLK
  5
56
330
54
100
AcDbEntity
  8
0
100
AcDbBlockEnd
  0
BLOCK
  5
129
330
11D
100
AcDbEntity
  8
0
100
AcDbBlockBegin
  2
*D6
 70
     1
 71
     0
 10
0.0
 20
0.0
 30
0.0
  3
*D6
  1

  0
INSERT
  5
12D
330
11D
100
AcDbEntity
  8
SLD-0
 62
     7
100
AcDbBlockReference
  2
_OPEN30
 10
108.6590797868
 20
145.5657191721
 30
0.1
 41
3.0
 42
3.0
 50
90.0
  0
INSERT
  5
12E
330
11D
100
AcDbEntity
  8
SLD-0
 62
     7
100
AcDbBlockReference
  2
_OPEN30
 10
108.6590797868
 20
137.5657191721
 30
0.1
 41
3.0
 42
3.0
 50
270.0
  0
LINE
  5
12F
330
11D
100
AcDbEntity
  8
SLD-0
 62
     7
100
AcDbLine
 10
130.8846137131
 20
145.5657191721
 30
0.0
 11
107.6590797868
 21
145.5657191721
 31
0.0
  0
LINE
  5
130
330
11D
100
AcDbEntity
  8
SLD-0
 62
     7
100
AcDbLine
 10
130.8846137131
 20
137.5657191721
 30
0.0
 11
107.6590797868
 21
137.5657191721
 31
0.0
  0
LINE
  5
131
330
11D
100
AcDbEntity
  8
SLD-0
 62
     7
100
AcDbLine
 10
108.6590797868
 20
145.5657191721
 30
0.0
 11
108.6590797868
 21
137.5657191721
 31
0.0
  0
LINE
  5
132
330
11D
100
AcDbEntity
  8
SLD-0
 62
     7
100
AcDbLine
 10
108.6590797868
 20
137.5657191721
 30
0.0
 11
108.6590797868
 21
122.4181150142
 31
0.0
  0
MTEXT
  5
134
330
11D
100
AcDbEntity
  8
SLD-0
 62
     7
100
AcDbMText
 10
103.8849790674
 20
124.0056150142
 30
0.0
 40
3.5
 41
0.0
 71
     1
 72
     1
  1
%%c
  7
SLDTEXTSTYLE2
 11
-7.044197039909883E-15
 21
1.0
 31
0.0
 73
     1
 44
1.0
  0
MTEXT
  5
135
330
11D
100
AcDbEntity
  8
SLD-0
 62
     7
100
AcDbMText
 10
103.8849790674
 20
128.6411723023
 30
0.0
 40
3.5
 41
0.0
 71
     1
 72
     1
  1
8
  7
SLDTEXTSTYLE2
 11
-7.044197039909883E-15
 21
1.0
 31
0.0
 73
     1
 44
1.0
  0
ENDBLK
  5
12A
330
11D
100
AcDbEntity
  8
0
100
AcDbBlockEnd
  0
BLOCK
  5
13E
330
137
100
AcDbEntity
  8
0
100
AcDbBlockBegin
  2
*D7
 70
     1
 71
     0
 10
0.0
 20
0.0
 30
0.0
  3
*D7
  1

  0
LINE
  5
144
330
137
100
AcDbEntity
  8
SLD-0
 62
     7
100
AcDbLine
 10
141.5939038281
 20
146.051144145
 30
0.0
 11
146.7223830671
 21
156.4632709613
 31
0.0
  0
LINE
  5
145
330
137
100
AcDbEntity
  8
SLD-0
 62
     7
100
AcDbLine
 10
146.7223830671
 20
156.4632709613
 30
0.0
 11
167.7764835439
 21
156.4632709613
 31
0.0
  0
LINE
  5
146
330
137
100
AcDbEntity
  8
SLD-0
 62
     7
100
AcDbLine
 10
143.6405969788
 20
148.3872128825
 30
0.0
 11
141.5939038281
 21
146.051144145
 31
0.0
  0
LINE
  5
147
330
137
100
AcDbEntity
  8
SLD-0
 62
     7
100
AcDbLine
 10
141.5939038281
 20
146.051144145
 30
0.0
 11
142.1983588155
 21
149.097585375
 31
0.0
  0
LINE
  5
148
330
137
100
AcDbEntity
  8
SLD-0
 62
     7
100
AcDbLine
 10
141.5939038281
 20
146.051144145
 30
0.0
 11
142.9194778971
 21
148.7423991287
 31
0.0
  0
MTEXT
  5
149
330
137
100
AcDbEntity
  8
SLD-0
 62
     7
100
AcDbMText
 10
149.8973830671
 20
160.9899647736
 30
0.1
 40
3.5
 41
0.0
 71
     1
 72
     1
  1
M
  7
SLDTEXTSTYLE2
 73
     1
 44
1.0
  0
MTEXT
  5
14A
330
137
100
AcDbEntity
  8
SLD-0
 62
     7
100
AcDbMText
 10
151.9338331267
 20
160.9899647736
 30
0.1
 40
3.5
 41
0.0
 71
     1
 72
     1
  1
10
  7
SLDTEXTSTYLE2
 73
     1
 44
1.0
  0
MTEXT
  5
14B
330
137
100
AcDbEntity
  8
SLD-0
 62
     7
100
AcDbMText
 10
156.0067332459
 20
160.9899647736
 30
0.1
 40
3.5
 41
0.0
 71
     1
 72
     1
  1
xP1.0
  7
SLDTEXTSTYLE2
 73
     1
 44
1.0
  0
ENDBLK
  5
13F
330
137
100
AcDbEntity
  8
0
100
AcDbBlockEnd
  0
BLOCK
  5
142
330
141
100
AcDbEntity
  8
0
100
AcDbBlockBegin
  2
_None
 70
     0
 71
     0
 10
0.0
 20
0.0
 30
0.0
  3
_None
  1

  0
ENDBLK
  5
143
330
141
100
AcDbEntity
  8
0
100
AcDbBlockEnd
  0
BLOCK
  5
157
330
14D
100
AcDbEntity
  8
0
100
AcDbBlockBegin
  2
*D9
 70
     1
 71
     0
 10
0.0
 20
0.0
 30
0.0
  3
*D9
  1

  0
LINE
  5
15A
330
14D
100
AcDbEntity
  8
SLD-0
 62
     7
100
AcDbLine
 10
120.3846137131
 20
146.5657191721
 30
0.0
 11
120.3846137131
 21
162.783552058
 31
0.0
  0
LINE
  5
15B
330
14D
100
AcDbEntity
  8
SLD-0
 62
     7
100
AcDbLine
 10
139.3846137131
 20
149.5657191721
 30
0.0
 11
139.3846137131
 21
162.783552058
 31
0.0
  0
LINE
  5
15C
330
14D
100
AcDbEntity
  8
SLD-0
 62
     7
100
AcDbLine
 10
120.3846137131
 20
161.783552058
 30
0.0
 11
139.3846137131
 21
161.783552058
 31
0.0
  0
LINE
  5
15D
330
14D
100
AcDbEntity
  8
SLD-0
 62
     7
100
AcDbLine
 10
123.3846137131
 20
160.979705058
 30
0.0
 11
120.3846137131
 21
161.783552058
 31
0.0
  0
LINE
  5
15E
330
14D
100
AcDbEntity
  8
SLD-0
 62
     7
100
AcDbLine
 10
120.3846137131
 20
161.783552058
 30
0.0
 11
123.3846137131
 21
162.587399058
 31
0.0
  0
LINE
  5
15F
330
14D
100
AcDbEntity
  8
SLD-0
 62
     7
100
AcDbLine
 10
120.3846137131
 20
161.783552058
 30
0.0
 11
123.3846137131
 21
161.783552058
 31
0.0
  0
LINE
  5
160
330
14D
100
AcDbEntity
  8
SLD-0
 62
     7
100
AcDbLine
 10
136.3846137131
 20
162.587399058
 30
0.0
 11
139.3846137131
 21
161.783552058
 31
0.0
  0
LINE
  5
161
330
14D
100
AcDbEntity
  8
SLD-0
 62
     7
100
AcDbLine
 10
139.3846137131
 20
161.783552058
 30
0.0
 11
136.3846137131
 21
160.979705058
 31
0.0
  0
LINE
  5
162
330
14D
100
AcDbEntity
  8
SLD-0
 62
     7
100
AcDbLine
 10
139.3846137131
 20
161.783552058
 30
0.0
 11
136.3846137131
 21
161.783552058
 31
0.0
  0
MTEXT
  5
163
330
14D
100
AcDbEntity
  8
SLD-0
 62
     7
100
AcDbMText
 10
127.8481636535
 20
166.3102458703
 30
0.1
 40
3.5
 41
0.0
 71
     1
 72
     1
  1
19
  7
SLDTEXTSTYLE2
 73
     1
 44
1.0
  0
ENDBLK
  5
158
330
14D
100
AcDbEntity
  8
0
100
AcDbBlockEnd
  0
BLOCK
  5
16F
330
165
100
AcDbEntity
  8
0
100
AcDbBlockBegin
  2
*D10
 70
     1
 71
     0
 10
0.0
 20
0.0
 30
0.0
  3
*D10
  1

  0
LINE
  5
171
330
165
100
AcDbEntity
  8
SLD-0
 62
     7
100
AcDbLine
 10
57.4176481725
 20
146.4387025183
 30
0.0
 11
57.4176481725
 21
158.3566891569
 31
0.0
  0
LINE
  5
172
330
165
100
AcDbEntity
  8
SLD-0
 62
     7
100
AcDbLine
 10
71.4176481725
 20
146.4387025183
 30
0.0
 11
71.4176481725
 21
158.3566891569
 31
0.0
  0
LINE
  5
173
330
165
100
AcDbEntity
  8
SLD-0
 62
     7
100
AcDbLine
 10
57.4176481725
 20
157.3566891569
 30
0.0
 11
71.4176481725
 21
157.3566891569
 31
0.0
  0
LINE
  5
174
330
165
100
AcDbEntity
  8
SLD-0
 62
     7
100
AcDbLine
 10
60.4176481725
 20
156.5528421569
 30
0.0
 11
57.4176481725
 21
157.3566891569
 31
0.0
  0
LINE
  5
175
330
165
100
AcDbEntity
  8
SLD-0
 62
     7
100
AcDbLine
 10
57.4176481725
 20
157.3566891569
 30
0.0
 11
60.4176481725
 21
158.1605361569
 31
0.0
  0
LINE
  5
176
330
165
100
AcDbEntity
  8
SLD-0
 62
     7
100
AcDbLine
 10
57.4176481725
 20
157.3566891569
 30
0.0
 11
60.4176481725
 21
157.3566891569
 31
0.0
  0
LINE
  5
177
330
165
100
AcDbEntity
  8
SLD-0
 62
     7
100
AcDbLine
 10
68.4176481725
 20
158.1605361569
 30
0.0
 11
71.4176481725
 21
157.3566891569
 31
0.0
  0
LINE
  5
178
330
165
100
AcDbEntity
  8
SLD-0
 62
     7
100
AcDbLine
 10
71.4176481725
 20
157.3566891569
 30
0.0
 11
68.4176481725
 21
156.5528421569
 31
0.0
  0
LINE
  5
179
330
165
100
AcDbEntity
  8
SLD-0
 62
     7
100
AcDbLine
 10
71.4176481725
 20
157.3566891569
 30
0.0
 11
68.4176481725
 21
157.3566891569
 31
0.0
  0
MTEXT
  5
17A
330
165
100
AcDbEntity
  8
SLD-0
 62
     7
100
AcDbMText
 10
62.3811981129
 20
161.8833829692
 30
0.1
 40
3.5
 41
0.0
 71
     1
 72
     1
  1
14
  7
SLDTEXTSTYLE2
 73
     1
 44
1.0
  0
ENDBLK
  5
170
330
165
100
AcDbEntity
  8
0
100
AcDbBlockEnd
  0
BLOCK
  5
187
330
17C
100
AcDbEntity
  8
0
100
AcDbBlockBegin
  2
*D11
 70
     1
 71
     0
 10
0.0
 20
0.0
 30
0.0
  3
*D11
  1

  0
LINE
  5
189
330
17C
100
AcDbEntity
  8
SLD-0
 62
     7
100
AcDbLine
 10
59.5446648262
 20
148.5657191721
 30
0.0
 11
47.5819379911
 21
148.5657191721
 31
0.0
  0
LINE
  5
18A
330
17C
100
AcDbEntity
  8
SLD-0
 62
     7
100
AcDbLine
 10
59.5446648262
 20
134.5657191721
 30
0.0
 11
47.5819379911
 21
134.5657191721
 31
0.0
  0
LINE
  5
18B
330
17C
100
AcDbEntity
  8
SLD-0
 62
     7
100
AcDbLine
 10
48.5819379911
 20
148.5657191721
 30
0.0
 11
48.5819379911
 21
134.5657191721
 31
0.0
  0
LINE
  5
18C
330
17C
100
AcDbEntity
  8
SLD-0
 62
     7
100
AcDbLine
 10
47.7780909911
 20
145.5657191721
 30
0.0
 11
48.5819379911
 21
148.5657191721
 31
0.0
  0
LINE
  5
18D
330
17C
100
AcDbEntity
  8
SLD-0
 62
     7
100
AcDbLine
 10
48.5819379911
 20
148.5657191721
 30
0.0
 11
49.3857849911
 21
145.5657191721
 31
0.0
  0
LINE
  5
18E
330
17C
100
AcDbEntity
  8
SLD-0
 62
     7
100
AcDbLine
 10
48.5819379911
 20
148.5657191721
 30
0.0
 11
48.5819379911
 21
145.5657191721
 31
0.0
  0
LINE
  5
18F
330
17C
100
AcDbEntity
  8
SLD-0
 62
     7
100
AcDbLine
 10
49.3857849911
 20
137.5657191721
 30
0.0
 11
48.5819379911
 21
134.5657191721
 31
0.0
  0
LINE
  5
190
330
17C
100
AcDbEntity
  8
SLD-0
 62
     7
100
AcDbLine
 10
48.5819379911
 20
134.5657191721
 30
0.0
 11
47.7780909911
 21
137.5657191721
 31
0.0
  0
LINE
  5
191
330
17C
100
AcDbEntity
  8
SLD-0
 62
     7
100
AcDbLine
 10
48.5819379911
 20
134.5657191721
 30
0.0
 11
48.5819379911
 21
137.5657191721
 31
0.0
  0
MTEXT
  5
192
330
17C
100
AcDbEntity
  8
SLD-0
 62
     7
100
AcDbMText
 10
44.0552441787
 20
139.5292691125
 30
0.1
 40
3.5
 41
0.0
 71
     1
 72
     1
  1
14
  7
SLDTEXTSTYLE2
 11
6.123031769111886E-17
 21
1.0
 31
0.0
 73
     1
 44
1.0
  0
ENDBLK
  5
188
330
17C
100
AcDbEntity
  8
0
100
AcDbBlockEnd
  0
BLOCK
  5
19B
330
194
100
AcDbEntity
  8
0
100
AcDbBlockBegin
  2
*D12
 70
     1
 71
     0
 10
0.0
 20
0.0
 30
0.0
  3
*D12
  1

  0
ARC
  5
19D
330
194
100
AcDbEntity
  8
SLD-0
 62
     7
100
AcDbCircle
 10
64.4176481725
 20
141.5657191721
 30
0.0
 40
8.000000000000007
100
AcDbArc
 50
338.169991977
 51
47.0234165319
  0
ARC
  5
19E
330
194
100
AcDbEntity
  8
SLD-0
 62
     7
100
AcDbCircle
 10
64.4176481725
 20
141.5657191721
 30
0.0
 40
8.0
100
AcDbArc
 50
212.7733838341
 51
291.830008023
  0
LINE
  5
19F
330
194
100
AcDbEntity
  8
SLD-0
 62
     7
100
AcDbLine
 10
70.5551126694
 20
146.697144856
 30
0.0
 11
84.5377806783
 21
158.3878066568
 31
0.0
  0
LINE
  5
1A0
330
194
100
AcDbEntity
  8
SLD-0
 62
     7
100
AcDbLine
 10
58.2801836755
 20
136.4342934883
 30
0.0
 11
54.4442683649
 21
133.2271524359
 31
0.0
  0
LINE
  5
1A1
330
194
100
AcDbEntity
  8
SLD-0
 62
     7
100
AcDbLine
 10
70.5551126694
 20
146.697144856
 30
0.0
 11
58.2801836755
 21
136.4342934883
 31
0.0
  0
LINE
  5
1A2
330
194
100
AcDbEntity
  8
SLD-0
 62
     7
100
AcDbLine
 10
55.4630243464
 20
135.1267066598
 30
0.0
 11
58.2801836755
 21
136.4342934883
 31
0.0
  0
LINE
  5
1A3
330
194
100
AcDbEntity
  8
SLD-0
 62
     7
100
AcDbLine
 10
58.2801836755
 20
136.4342934883
 30
0.0
 11
56.4942446318
 21
133.8933110539
 31
0.0
  0
LINE
  5
1A4
330
194
100
AcDbEntity
  8
SLD-0
 62
     7
100
AcDbLine
 10
58.2801836755
 20
136.4342934883
 30
0.0
 11
55.9786344891
 21
134.5100088569
 31
0.0
  0
LINE
  5
1A5
330
194
100
AcDbEntity
  8
SLD-0
 62
     7
100
AcDbLine
 10
73.3722719985
 20
148.0047316845
 30
0.0
 11
70.5551126694
 21
146.697144856
 31
0.0
  0
LINE
  5
1A6
330
194
100
AcDbEntity
  8
SLD-0
 62
     7
100
AcDbLine
 10
70.5551126694
 20
146.697144856
 30
0.0
 11
72.3410517131
 21
149.2381272904
 31
0.0
  0
LINE
  5
1A7
330
194
100
AcDbEntity
  8
SLD-0
 62
     7
100
AcDbLine
 10
70.5551126694
 20
146.697144856
 30
0.0
 11
72.8566618558
 21
148.6214294874
 31
0.0
  0
MTEXT
  5
1A8
330
194
100
AcDbEntity
  8
SLD-0
 62
     7
100
AcDbMText
 10
72.9885683375
 20
154.6194524311
 30
0.1
 40
3.5
 41
0.0
 71
     1
 72
     1
  1
%%c
  7
SLDTEXTSTYLE2
 11
0.7671830621006273
 21
0.6414282105005245
 31
0.0
 73
     1
 44
1.0
  0
MTEXT
  5
1A9
330
194
100
AcDbEntity
  8
SLD-0
 62
     7
100
AcDbMText
 10
77.2979036289
 20
158.2224115693
 30
0.1
 40
3.5
 41
0.0
 71
     1
 72
     1
  1
16
  7
SLDTEXTSTYLE2
 11
0.7671830621006273
 21
0.6414282105005245
 31
0.0
 73
     1
 44
1.0
  0
ENDBLK
  5
19C
330
194
100
AcDbEntity
  8
0
100
AcDbBlockEnd
  0
BLOCK
  5
1B2
330
1AB
100
AcDbEntity
  8
0
100
AcDbBlockBegin
  2
*D13
 70
     1
 71
     0
 10
0.0
 20
0.0
 30
0.0
  3
*D13
  1

  0
LINE
  5
1B4
330
1AB
100
AcDbEntity
  8
SLD-0
 62
     7
100
AcDbLine
 10
65.6776204635
 20
140.0125064289
 30
0.0
 11
75.2535747128
 21
128.2078863794
 31
0.0
  0
LINE
  5
1B5
330
1AB
100
AcDbEntity
  8
SLD-0
 62
     7
100
AcDbLine
 10
75.2535747128
 20
128.2078863794
 30
0.0
 11
92.2347750704
 21
128.2078863794
 31
0.0
  0
LINE
  5
1B6
330
1AB
100
AcDbEntity
  8
SLD-0
 62
     7
100
AcDbLine
 10
66.9433061981
 20
137.1762748409
 30
0.0
 11
65.6776204635
 21
140.0125064289
 31
0.0
  0
LINE
  5
1B7
330
1AB
100
AcDbEntity
  8
SLD-0
 62
     7
100
AcDbLine
 10
65.6776204635
 20
140.0125064289
 30
0.0
 11
68.1918516021
 21
138.1890997872
 31
0.0
  0
LINE
  5
1B8
330
1AB
100
AcDbEntity
  8
SLD-0
 62
     7
100
AcDbLine
 10
65.6776204635
 20
140.0125064289
 30
0.0
 11
67.5675789001
 21
137.682687314
 31
0.0
  0
MTEXT
  5
1B9
330
1AB
100
AcDbEntity
  8
SLD-0
 62
     7
100
AcDbMText
 10
78.4285747128
 20
132.7345801918
 30
0.1
 40
3.5
 41
0.0
 71
     1
 72
     1
  1
M
  7
SLDTEXTSTYLE2
 73
     1
 44
1.0
  0
MTEXT
  5
1BA
330
1AB
100
AcDbEntity
  8
SLD-0
 62
     7
100
AcDbMText
 10
80.4650247724
 20
132.7345801918
 30
0.1
 40
3.5
 41
0.0
 71
     1
 72
     1
  1
4
  7
SLDTEXTSTYLE2
 73
     1
 44
1.0
  0
MTEXT
  5
1BB
330
1AB
100
AcDbEntity
  8
SLD-0
 62
     7
100
AcDbMText
 10
82.501474832
 20
132.7345801918
 30
0.1
 40
3.5
 41
0.0
 71
     1
 72
     1
  1
深10
  7
SLDTEXTSTYLE2
 73
     1
 44
1.0
  0
ENDBLK
  5
1B3
330
1AB
100
AcDbEntity
  8
0
100
AcDbBlockEnd
  0
BLOCK
  5
1C7
330
1BD
100
AcDbEntity
  8
0
100
AcDbBlockBegin
  2
*D14
 70
     1
 71
     0
 10
0.0
 20
0.0
 30
0.0
  3
*D14
  1

  0
LINE
  5
1CA
330
1BD
100
AcDbEntity
  8
SLD-0
100
AcDbLine
 10
120.3846137131
 20
203.1089030493
 30
0.0
 11
120.3846137131
 21
214.7355194911
 31
0.0
  0
LINE
  5
1CB
330
1BD
100
AcDbEntity
  8
SLD-0
100
AcDbLine
 10
131.8846137131
 20
206.1089030493
 30
0.0
 11
131.8846137131
 21
214.7355194911
 31
0.0
  0
LINE
  5
1CC
330
1BD
100
AcDbEntity
  8
SLD-0
100
AcDbLine
 10
120.3846137131
 20
213.7355194911
 30
0.0
 11
115.3846137131
 21
213.7355194911
 31
0.0
  0
LINE
  5
1CD
330
1BD
100
AcDbEntity
  8
SLD-0
100
AcDbLine
 10
120.3846137131
 20
213.7355194911
 30
0.0
 11
131.8846137131
 21
213.7355194911
 31
0.0
  0
LINE
  5
1CE
330
1BD
100
AcDbEntity
  8
SLD-0
100
AcDbLine
 10
131.8846137131
 20
213.7355194911
 30
0.0
 11
136.8846137131
 21
213.7355194911
 31
0.0
  0
LINE
  5
1CF
330
1BD
100
AcDbEntity
  8
SLD-0
100
AcDbLine
 10
117.3846137131
 20
214.5393664911
 30
0.0
 11
120.3846137131
 21
213.7355194911
 31
0.0
  0
LINE
  5
1D0
330
1BD
100
AcDbEntity
  8
SLD-0
100
AcDbLine
 10
120.3846137131
 20
213.7355194911
 30
0.0
 11
117.3846137131
 21
212.9316724911
 31
0.0
  0
LINE
  5
1D1
330
1BD
100
AcDbEntity
  8
SLD-0
100
AcDbLine
 10
120.3846137131
 20
213.7355194911
 30
0.0
 11
117.3846137131
 21
213.7355194911
 31
0.0
  0
LINE
  5
1D2
330
1BD
100
AcDbEntity
  8
SLD-0
100
AcDbLine
 10
134.8846137131
 20
212.9316724911
 30
0.0
 11
131.8846137131
 21
213.7355194911
 31
0.0
  0
LINE
  5
1D3
330
1BD
100
AcDbEntity
  8
SLD-0
100
AcDbLine
 10
131.8846137131
 20
213.7355194911
 30
0.0
 11
134.8846137131
 21
214.5393664911
 31
0.0
  0
LINE
  5
1D4
330
1BD
100
AcDbEntity
  8
SLD-0
100
AcDbLine
 10
131.8846137131
 20
213.7355194911
 30
0.0
 11
134.8846137131
 21
213.7355194911
 31
0.0
  0
MTEXT
  5
1D5
330
1BD
100
AcDbEntity
  8
SLD-0
100
AcDbMText
 10
122.0617135939
 20
218.2622133035
 30
0.1
 40
3.5
 41
0.0
 71
     1
 72
     1
  1
11.5
  7
SLDTEXTSTYLE2
 73
     1
 44
1.0
  0
ENDBLK
  5
1C8
330
1BD
100
AcDbEntity
  8
0
100
AcDbBlockEnd
  0
BLOCK
  5
1E1
330
1D7
100
AcDbEntity
  8
0
100
AcDbBlockBegin
  2
*D15
 70
     1
 71
     0
 10
0.0
 20
0.0
 30
0.0
  3
*D15
  1

  0
LINE
  5
1E3
330
1D7
100
AcDbEntity
  8
SLD-0
 62
     7
100
AcDbLine
 10
120.3846137131
 20
202.6089030493
 30
0.0
 11
120.3846137131
 21
224.4318901333
 31
0.0
  0
LINE
  5
1E4
330
1D7
100
AcDbEntity
  8
SLD-0
 62
     7
100
AcDbLine
 10
146.8846137131
 20
206.1089030493
 30
0.0
 11
146.8846137131
 21
224.4318901333
 31
0.0
  0
LINE
  5
1E5
330
1D7
100
AcDbEntity
  8
SLD-0
 62
     7
100
AcDbLine
 10
120.3846137131
 20
223.4318901333
 30
0.0
 11
146.8846137131
 21
223.4318901333
 31
0.0
  0
LINE
  5
1E6
330
1D7
100
AcDbEntity
  8
SLD-0
 62
     7
100
AcDbLine
 10
123.3846137131
 20
222.6280431333
 30
0.0
 11
120.3846137131
 21
223.4318901333
 31
0.0
  0
LINE
  5
1E7
330
1D7
100
AcDbEntity
  8
SLD-0
 62
     7
100
AcDbLine
 10
120.3846137131
 20
223.4318901333
 30
0.0
 11
123.3846137131
 21
224.2357371333
 31
0.0
  0
LINE
  5
1E8
330
1D7
100
AcDbEntity
  8
SLD-0
 62
     7
100
AcDbLine
 10
120.3846137131
 20
223.4318901333
 30
0.0
 11
123.3846137131
 21
223.4318901333
 31
0.0
  0
LINE
  5
1E9
330
1D7
100
AcDbEntity
  8
SLD-0
 62
     7
100
AcDbLine
 10
143.8846137131
 20
224.2357371333
 30
0.0
 11
146.8846137131
 21
223.4318901333
 31
0.0
  0
LINE
  5
1EA
330
1D7
100
AcDbEntity
  8
SLD-0
 62
     7
100
AcDbLine
 10
146.8846137131
 20
223.4318901333
 30
0.0
 11
143.8846137131
 21
222.6280431333
 31
0.0
  0
LINE
  5
1EB
330
1D7
100
AcDbEntity
  8
SLD-0
 62
     7
100
AcDbLine
 10
146.8846137131
 20
223.4318901333
 30
0.0
 11
143.8846137131
 21
223.4318901333
 31
0.0
  0
MTEXT
  5
1EC
330
1D7
100
AcDbEntity
  8
SLD-0
 62
     7
100
AcDbMText
 10
129.5617135939
 20
227.9585839457
 30
0.1
 40
3.5
 41
0.0
 71
     1
 72
     1
  1
26.5
  7
SLDTEXTSTYLE2
 73
     1
 44
1.0
  0
ENDBLK
  5
1E2
330
1D7
100
AcDbEntity
  8
0
100
AcDbBlockEnd
  0
BLOCK
  5
1F2
330
1F1
100
AcDbEntity
  8
0
100
AcDbBlockBegin
  2
SW_NOTE_0
 70
     0
 71
     0
 10
0.0
 20
0.0
 30
0.0
  3
SW_NOTE_0
  1

  0
MTEXT
  5
1F4
330
1F1
100
AcDbEntity
  8
0
  6
Continuous
 62
     7
370
     0
100
AcDbMText
 10
0.0
 20
4.9260606061
 30
0.0
 40
4.2333333333
 41
0.0
 71
     1
 72
     1
  1
Ｍ10　ローテーション
  7
SLDTEXTSTYLE0
 73
     1
 44
1.0
  0
MTEXT
  5
1F5
330
1F1
100
AcDbEntity
  8
0
  6
Continuous
 62
     7
370
     0
100
AcDbMText
 10
7.0687811822
 20
-0.7183837702
 30
0.0
 40
4.2333333333
 41
0.0
 71
     1
 72
     1
  1
ブラケット　８Ａ
  7
SLDTEXTSTYLE0
 73
     1
 44
1.0
  0
ENDBLK
  5
1F3
330
1F1
100
AcDbEntity
  8
0
100
AcDbBlockEnd
  0
ENDSEC
  0
SECTION
  2
ENTITIES
  0
LINE
  5
5A
330
1F
100
AcDbEntity
  8
SLD-0
  6
Continuous
 62
     7
100
AcDbLine
 10
131.8846137131
 20
145.5657193621
 30
0.0
 11
120.8846137131
 21
145.5657191721
 31
0.0
  0
LINE
  5
5B
330
1F
100
AcDbEntity
  8
SLD-0
  6
Continuous
 62
     7
100
AcDbLine
 10
120.8846137131
 20
137.5657191721
 30
0.0
 11
131.8846137131
 21
137.5657189822
 31
0.0
  0
LINE
  5
5C
330
1F
100
AcDbEntity
  8
SLD-0
  6
Continuous
 62
     7
100
AcDbLine
 10
120.8846137131
 20
145.5657191721
 30
0.0
 11
120.3846137131
 21
145.0657191721
 31
0.0
  0
LINE
  5
5D
330
1F
100
AcDbEntity
  8
SLD-0
  6
Continuous
 62
     7
100
AcDbLine
 10
120.3846137131
 20
138.0657191721
 30
0.0
 11
120.8846137131
 21
137.5657191721
 31
0.0
  0
LINE
  5
5E
330
1F
100
AcDbEntity
  8
SLD-0
  6
Continuous
 62
     7
100
AcDbLine
 10
137.0933256623
 20
145.4387024904
 30
0.0
 11
131.8846136734
 21
145.4387024904
 31
0.0
  0
LINE
  5
5F
330
1F
100
AcDbEntity
  8
SLD-0
  6
Continuous
 62
     7
100
AcDbLine
 10
131.8846136734
 20
148.5657191442
 30
0.0
 11
131.8846136734
 21
145.4387024904
 31
0.0
  0
LINE
  5
60
330
1F
100
AcDbEntity
  8
SLD-0
  6
Continuous
 62
     7
100
AcDbLine
 10
146.3846137131
 20
148.5657191442
 30
0.0
 11
131.8846136734
 21
148.5657191442
 31
0.0
  0
LINE
  5
61
330
1F
100
AcDbEntity
  8
SLD-0
  6
Continuous
 62
     7
100
AcDbLine
 10
146.3846137131
 20
145.4387025183
 30
0.0
 11
146.3846137131
 21
148.5657191442
 31
0.0
  0
LINE
  5
62
330
1F
100
AcDbEntity
  8
SLD-0
  6
Continuous
 62
     7
100
AcDbLine
 10
146.3846137131
 20
145.4387025183
 30
0.0
 11
141.6759013067
 21
145.4387025183
 31
0.0
  0
LINE
  5
63
330
1F
100
AcDbEntity
  8
SLD-0
  6
Continuous
 62
     7
100
AcDbLine
 10
131.8846136734
 20
137.6927356068
 30
0.0
 11
131.8846136734
 21
134.565718953
 31
0.0
  0
LINE
  5
64
330
1F
100
AcDbEntity
  8
SLD-0
  6
Continuous
 62
     7
100
AcDbLine
 10
137.0933258259
 20
137.6927356068
 30
0.0
 11
131.8846136734
 21
137.6927356068
 31
0.0
  0
LINE
  5
65
330
1F
100
AcDbEntity
  8
SLD-0
  6
Continuous
 62
     7
100
AcDbLine
 10
146.3846137131
 20
137.6927358259
 30
0.0
 11
141.6759015606
 21
137.6927358259
 31
0.0
  0
LINE
  5
66
330
1F
100
AcDbEntity
  8
SLD-0
  6
Continuous
 62
     7
100
AcDbLine
 10
146.3846137131
 20
134.565718953
 30
0.0
 11
146.3846137131
 21
137.6927358259
 31
0.0
  0
LINE
  5
67
330
1F
100
AcDbEntity
  8
SLD-0
  6
Continuous
 62
     7
100
AcDbLine
 10
146.3846137131
 20
134.565718953
 30
0.0
 11
131.8846136734
 21
134.565718953
 31
0.0
  0
LINE
  5
68
330
1F
100
AcDbEntity
  8
SLD-0
  6
Continuous
 62
     7
100
AcDbLine
 10
131.8846136734
 20
145.4387024904
 30
0.0
 11
131.8846136734
 21
137.6927356068
 31
0.0
  0
LINE
  5
69
330
1F
100
AcDbEntity
  8
SLD-0
  6
Continuous
 62
     7
100
AcDbLine
 10
146.8846133778
 20
144.2583014907
 30
0.0
 11
146.6506334821
 21
144.8542531764
 31
0.0
  0
LINE
  5
6A
330
1F
100
AcDbEntity
  8
SLD-0
  6
Continuous
 62
     7
100
AcDbLine
 10
146.6506334821
 20
144.8542531764
 30
0.0
 11
146.3846137131
 21
145.4387025183
 31
0.0
  0
LINE
  5
6B
330
1F
100
AcDbEntity
  8
SLD-0
  6
Continuous
 62
     7
100
AcDbLine
 10
146.8846133778
 20
144.2583014907
 30
0.0
 11
146.8846137131
 21
138.8731367686
 31
0.0
  0
LINE
  5
6C
330
1F
100
AcDbEntity
  8
SLD-0
  6
Continuous
 62
     7
100
AcDbLine
 10
146.3846137131
 20
137.6927358259
 30
0.0
 11
146.6499266083
 21
138.2755232228
 31
0.0
  0
LINE
  5
6D
330
1F
100
AcDbEntity
  8
SLD-0
  6
Continuous
 62
     7
100
AcDbLine
 10
146.6499266083
 20
138.2755232228
 30
0.0
 11
146.8846137131
 21
138.8731367686
 31
0.0
  0
LINE
  5
6E
330
1F
100
AcDbEntity
  8
SLD-0
  6
Continuous
 62
     7
100
AcDbLine
 10
146.8846137131
 20
138.8731367686
 30
0.0
 11
146.8846137131
 21
134.565718953
 31
0.0
  0
LINE
  5
6F
330
1F
100
AcDbEntity
  8
SLD-0
  6
Continuous
 62
     7
100
AcDbLine
 10
146.8846137131
 20
134.565718953
 30
0.0
 11
146.3846137131
 21
134.565718953
 31
0.0
  0
LINE
  5
70
330
1F
100
AcDbEntity
  8
SLD-0
  6
Continuous
 62
     7
100
AcDbLine
 10
146.8846137131
 20
148.5657191442
 30
0.0
 11
146.8846133778
 21
144.2583014907
 31
0.0
  0
LINE
  5
71
330
1F
100
AcDbEntity
  8
SLD-0
  6
Continuous
 62
     7
100
AcDbLine
 10
146.3846137131
 20
148.5657191442
 30
0.0
 11
146.8846137131
 21
148.5657191442
 31
0.0
  0
LINE
  5
72
330
1F
100
AcDbEntity
  8
SLD-0
  6
Continuous
 62
     7
100
AcDbLine
 10
120.8846137131
 20
141.5657191721
 30
0.0
 11
120.8846137131
 21
137.5657191721
 31
0.0
  0
LINE
  5
73
330
1F
100
AcDbEntity
  8
SLD-0
  6
Continuous
 62
     7
100
AcDbLine
 10
120.8846137131
 20
145.5657191721
 30
0.0
 11
120.8846137131
 21
141.5657191721
 31
0.0
  0
LINE
  5
74
330
1F
100
AcDbEntity
  8
SLD-0
  6
Continuous
 62
     7
100
AcDbLine
 10
120.3846137131
 20
141.5657191721
 30
0.0
 11
120.3846137131
 21
145.0657191721
 31
0.0
  0
LINE
  5
75
330
1F
100
AcDbEntity
  8
SLD-0
  6
Continuous
 62
     7
100
AcDbLine
 10
120.3846137131
 20
138.0657191721
 30
0.0
 11
120.3846137131
 21
141.5657191721
 31
0.0
  0
LINE
  5
76
330
1F
100
AcDbEntity
  8
SLD-0
  6
HIDDEN
 62
     7
100
AcDbLine
 10
120.3846136907
 20
139.9157191811
 30
0.0
 11
131.8846137131
 21
139.9157191811
 31
0.0
  0
LINE
  5
77
330
1F
100
AcDbEntity
  8
SLD-0
  6
HIDDEN
 62
     7
100
AcDbLine
 10
131.8846137131
 20
143.2157191632
 30
0.0
 11
120.3846136907
 21
143.2157191632
 31
0.0
  0
LINE
  5
78
330
1F
100
AcDbEntity
  8
SLD-0
  6
HIDDEN
 62
     7
100
AcDbLine
 10
131.8846137131
 20
139.9157191811
 30
0.0
 11
132.8760337185
 21
141.5657191721
 31
0.0
  0
LINE
  5
79
330
1F
100
AcDbEntity
  8
SLD-0
  6
HIDDEN
 62
     7
100
AcDbLine
 10
132.8760337185
 20
141.5657191721
 30
0.0
 11
131.8846137131
 21
143.2157191632
 31
0.0
  0
LINE
  5
7A
330
1F
100
AcDbEntity
  8
SLD-0
 62
     7
100
AcDbLine
 10
142.5468909422
 20
145.4387025626
 30
0.0
 11
142.8620849604
 21
145.1583774944
 31
0.0
  0
LINE
  5
7B
330
1F
100
AcDbEntity
  8
SLD-0
 62
     7
100
AcDbLine
 10
142.8620849604
 20
145.1583774944
 30
0.0
 11
143.1525281499
 21
144.8524831978
 31
0.0
  0
LINE
  5
7C
330
1F
100
AcDbEntity
  8
SLD-0
 62
     7
100
AcDbLine
 10
143.1525281499
 20
144.8524831978
 30
0.0
 11
143.4161557684
 21
144.5231961736
 31
0.0
  0
LINE
  5
7D
330
1F
100
AcDbEntity
  8
SLD-0
 62
     7
100
AcDbLine
 10
143.4161557684
 20
144.5231961736
 30
0.0
 11
143.6510893384
 21
144.1728605607
 31
0.0
  0
LINE
  5
7E
330
1F
100
AcDbEntity
  8
SLD-0
 62
     7
100
AcDbLine
 10
143.6510893384
 20
144.1728605607
 30
0.0
 11
143.8556580672
 21
143.8039695097
 31
0.0
  0
LINE
  5
7F
330
1F
100
AcDbEntity
  8
SLD-0
 62
     7
100
AcDbLine
 10
143.8556580672
 20
143.8039695097
 30
0.0
 11
144.0284053663
 21
143.4191483024
 31
0.0
  0
LINE
  5
80
330
1F
100
AcDbEntity
  8
SLD-0
 62
     7
100
AcDbLine
 10
144.0284053663
 20
143.4191483024
 30
0.0
 11
144.1681018899
 21
143.0211359586
 31
0.0
  0
LINE
  5
81
330
1F
100
AcDbEntity
  8
SLD-0
 62
     7
100
AcDbLine
 10
144.1681018899
 20
143.0211359586
 30
0.0
 11
144.2737539167
 21
142.6127652123
 31
0.0
  0
LINE
  5
82
330
1F
100
AcDbEntity
  8
SLD-0
 62
     7
100
AcDbLine
 10
144.2737539167
 20
142.6127652123
 30
0.0
 11
144.3446089382
 21
142.1969425467
 31
0.0
  0
LINE
  5
83
330
1F
100
AcDbEntity
  8
SLD-0
 62
     7
100
AcDbLine
 10
144.3446089382
 20
142.1969425467
 30
0.0
 11
144.3801631088
 21
141.7766273264
 31
0.0
  0
LINE
  5
84
330
1F
100
AcDbEntity
  8
SLD-0
 62
     7
100
AcDbLine
 10
144.3801631088
 20
141.7766273264
 30
0.0
 11
144.3801631088
 21
141.3548110179
 31
0.0
  0
LINE
  5
85
330
1F
100
AcDbEntity
  8
SLD-0
 62
     7
100
AcDbLine
 10
144.3801631088
 20
141.3548110179
 30
0.0
 11
144.3446089382
 21
140.9344957976
 31
0.0
  0
LINE
  5
86
330
1F
100
AcDbEntity
  8
SLD-0
 62
     7
100
AcDbLine
 10
144.3446089382
 20
140.9344957976
 30
0.0
 11
144.2737539167
 21
140.518673132
 31
0.0
  0
LINE
  5
87
330
1F
100
AcDbEntity
  8
SLD-0
 62
     7
100
AcDbLine
 10
144.2737539167
 20
140.518673132
 30
0.0
 11
144.1681018899
 21
140.1103023857
 31
0.0
  0
LINE
  5
88
330
1F
100
AcDbEntity
  8
SLD-0
 62
     7
100
AcDbLine
 10
144.1681018899
 20
140.1103023857
 30
0.0
 11
144.0284053663
 21
139.7122900419
 31
0.0
  0
LINE
  5
89
330
1F
100
AcDbEntity
  8
SLD-0
 62
     7
100
AcDbLine
 10
144.0284053663
 20
139.7122900419
 30
0.0
 11
143.8556580672
 21
139.3274688346
 31
0.0
  0
LINE
  5
8A
330
1F
100
AcDbEntity
  8
SLD-0
 62
     7
100
AcDbLine
 10
143.8556580672
 20
139.3274688346
 30
0.0
 11
143.6510893384
 21
138.9585777836
 31
0.0
  0
LINE
  5
8B
330
1F
100
AcDbEntity
  8
SLD-0
 62
     7
100
AcDbLine
 10
143.6510893384
 20
138.9585777836
 30
0.0
 11
143.4161557684
 21
138.6082421707
 31
0.0
  0
LINE
  5
8C
330
1F
100
AcDbEntity
  8
SLD-0
 62
     7
100
AcDbLine
 10
143.4161557684
 20
138.6082421707
 30
0.0
 11
143.1525281499
 21
138.2789551465
 31
0.0
  0
LINE
  5
8D
330
1F
100
AcDbEntity
  8
SLD-0
 62
     7
100
AcDbLine
 10
143.1525281499
 20
138.2789551465
 30
0.0
 11
142.8620849604
 21
137.9730608498
 31
0.0
  0
LINE
  5
8E
330
1F
100
AcDbEntity
  8
SLD-0
 62
     7
100
AcDbLine
 10
142.8620849604
 20
137.9730608498
 30
0.0
 11
142.5468909422
 21
137.6927357817
 31
0.0
  0
LINE
  5
8F
330
1F
100
AcDbEntity
  8
SLD-0
 62
     7
100
AcDbLine
 10
142.5468909422
 20
145.4387025626
 30
0.0
 11
142.1217459122
 21
145.7497985286
 31
0.0
  0
LINE
  5
90
330
1F
100
AcDbEntity
  8
SLD-0
 62
     7
100
AcDbLine
 10
142.1217459122
 20
145.7497985286
 30
0.0
 11
141.6619538198
 21
146.0168054511
 31
0.0
  0
LINE
  5
91
330
1F
100
AcDbEntity
  8
SLD-0
 62
     7
100
AcDbLine
 10
141.6619538198
 20
146.0168054511
 30
0.0
 11
141.17261645
 21
146.2350925615
 31
0.0
  0
LINE
  5
92
330
1F
100
AcDbEntity
  8
SLD-0
 62
     7
100
AcDbLine
 10
141.17261645
 20
146.2350925615
 30
0.0
 11
140.6502888406
 21
146.4022086186
 31
0.0
  0
LINE
  5
93
330
1F
100
AcDbEntity
  8
SLD-0
 62
     7
100
AcDbLine
 10
140.6502888406
 20
146.4022086186
 30
0.0
 11
140.1037440503
 21
146.5130862964
 31
0.0
  0
LINE
  5
94
330
1F
100
AcDbEntity
  8
SLD-0
 62
     7
100
AcDbLine
 10
140.1037440503
 20
146.5130862964
 30
0.0
 11
139.5461179184
 21
146.5631099602
 31
0.0
  0
LINE
  5
95
330
1F
100
AcDbEntity
  8
SLD-0
 62
     7
100
AcDbLine
 10
139.5461179184
 20
146.5631099602
 30
0.0
 11
139.0698879825
 21
146.555390693
 31
0.0
  0
LINE
  5
96
330
1F
100
AcDbEntity
  8
SLD-0
 62
     7
100
AcDbLine
 10
139.0698879825
 20
146.555390693
 30
0.0
 11
138.5964534114
 21
146.5027900597
 31
0.0
  0
LINE
  5
97
330
1F
100
AcDbEntity
  8
SLD-0
 62
     7
100
AcDbLine
 10
138.5964534114
 20
146.5027900597
 30
0.0
 11
138.1353760938
 21
146.4071450939
 31
0.0
  0
LINE
  5
98
330
1F
100
AcDbEntity
  8
SLD-0
 62
     7
100
AcDbLine
 10
138.1353760938
 20
146.4071450939
 30
0.0
 11
137.5096977556
 21
146.2007034754
 31
0.0
  0
LINE
  5
99
330
1F
100
AcDbEntity
  8
SLD-0
 62
     7
100
AcDbLine
 10
137.5096977556
 20
146.2007034754
 30
0.0
 11
136.9251135605
 21
145.9189774653
 31
0.0
  0
LINE
  5
9A
330
1F
100
AcDbEntity
  8
SLD-0
 62
     7
100
AcDbLine
 10
136.9251135605
 20
145.9189774653
 30
0.0
 11
136.5626786704
 21
145.6932560725
 31
0.0
  0
LINE
  5
9B
330
1F
100
AcDbEntity
  8
SLD-0
 62
     7
100
AcDbLine
 10
136.5626786704
 20
145.6932560725
 30
0.0
 11
136.2223361487
 21
145.4387025626
 31
0.0
  0
LINE
  5
9C
330
1F
100
AcDbEntity
  8
SLD-0
 62
     7
100
AcDbLine
 10
136.2223361487
 20
137.6927357817
 30
0.0
 11
135.9071425962
 21
137.9730608498
 31
0.0
  0
LINE
  5
9D
330
1F
100
AcDbEntity
  8
SLD-0
 62
     7
100
AcDbLine
 10
135.9071425962
 20
137.9730608498
 30
0.0
 11
135.6166989411
 21
138.2789551465
 31
0.0
  0
LINE
  5
9E
330
1F
100
AcDbEntity
  8
SLD-0
 62
     7
100
AcDbLine
 10
135.6166989411
 20
138.2789551465
 30
0.0
 11
135.353072021
 21
138.6082421707
 31
0.0
  0
LINE
  5
9F
330
1F
100
AcDbEntity
  8
SLD-0
 62
     7
100
AcDbLine
 10
135.353072021
 20
138.6082421707
 30
0.0
 11
135.1181382181
 21
138.9585777836
 31
0.0
  0
LINE
  5
A0
330
1F
100
AcDbEntity
  8
SLD-0
 62
     7
100
AcDbLine
 10
135.1181382181
 20
138.9585777836
 30
0.0
 11
134.9135694893
 21
139.3274688346
 31
0.0
  0
LINE
  5
A1
330
1F
100
AcDbEntity
  8
SLD-0
 62
     7
100
AcDbLine
 10
134.9135694893
 20
139.3274688346
 30
0.0
 11
134.7408221903
 21
139.7122900419
 31
0.0
  0
LINE
  5
A2
330
1F
100
AcDbEntity
  8
SLD-0
 62
     7
100
AcDbLine
 10
134.7408221903
 20
139.7122900419
 30
0.0
 11
134.6011252011
 21
140.1103023857
 31
0.0
  0
LINE
  5
A3
330
1F
100
AcDbEntity
  8
SLD-0
 62
     7
100
AcDbLine
 10
134.6011252011
 20
140.1103023857
 30
0.0
 11
134.4954731742
 21
140.518673132
 31
0.0
  0
LINE
  5
A4
330
1F
100
AcDbEntity
  8
SLD-0
 62
     7
100
AcDbLine
 10
134.4954731742
 20
140.518673132
 30
0.0
 11
134.4246181528
 21
140.9344957976
 31
0.0
  0
LINE
  5
A5
330
1F
100
AcDbEntity
  8
SLD-0
 62
     7
100
AcDbLine
 10
134.4246181528
 20
140.9344957976
 30
0.0
 11
134.3890639821
 21
141.3548110179
 31
0.0
  0
LINE
  5
A6
330
1F
100
AcDbEntity
  8
SLD-0
 62
     7
100
AcDbLine
 10
134.3890639821
 20
141.3548110179
 30
0.0
 11
134.3890639821
 21
141.7766273264
 31
0.0
  0
LINE
  5
A7
330
1F
100
AcDbEntity
  8
SLD-0
 62
     7
100
AcDbLine
 10
134.3890639821
 20
141.7766273264
 30
0.0
 11
134.4246181528
 21
142.1969425467
 31
0.0
  0
LINE
  5
A8
330
1F
100
AcDbEntity
  8
SLD-0
 62
     7
100
AcDbLine
 10
134.4246181528
 20
142.1969425467
 30
0.0
 11
134.4954731742
 21
142.6127652123
 31
0.0
  0
LINE
  5
A9
330
1F
100
AcDbEntity
  8
SLD-0
 62
     7
100
AcDbLine
 10
134.4954731742
 20
142.6127652123
 30
0.0
 11
134.6011252011
 21
143.0211359586
 31
0.0
  0
LINE
  5
AA
330
1F
100
AcDbEntity
  8
SLD-0
 62
     7
100
AcDbLine
 10
134.6011252011
 20
143.0211359586
 30
0.0
 11
134.7408221903
 21
143.4191483024
 31
0.0
  0
LINE
  5
AB
330
1F
100
AcDbEntity
  8
SLD-0
 62
     7
100
AcDbLine
 10
134.7408221903
 20
143.4191483024
 30
0.0
 11
134.9135694893
 21
143.8039695097
 31
0.0
  0
LINE
  5
AC
330
1F
100
AcDbEntity
  8
SLD-0
 62
     7
100
AcDbLine
 10
134.9135694893
 20
143.8039695097
 30
0.0
 11
135.1181382181
 21
144.1728605607
 31
0.0
  0
LINE
  5
AD
330
1F
100
AcDbEntity
  8
SLD-0
 62
     7
100
AcDbLine
 10
135.1181382181
 20
144.1728605607
 30
0.0
 11
135.353072021
 21
144.5231961736
 31
0.0
  0
LINE
  5
AE
330
1F
100
AcDbEntity
  8
SLD-0
 62
     7
100
AcDbLine
 10
135.353072021
 20
144.5231961736
 30
0.0
 11
135.6166989411
 21
144.8524831978
 31
0.0
  0
LINE
  5
AF
330
1F
100
AcDbEntity
  8
SLD-0
 62
     7
100
AcDbLine
 10
135.6166989411
 20
144.8524831978
 30
0.0
 11
135.9071425962
 21
145.1583774944
 31
0.0
  0
LINE
  5
B0
330
1F
100
AcDbEntity
  8
SLD-0
 62
     7
100
AcDbLine
 10
135.9071425962
 20
145.1583774944
 30
0.0
 11
136.2223361487
 21
145.4387025626
 31
0.0
  0
LINE
  5
B1
330
1F
100
AcDbEntity
  8
SLD-0
 62
     7
100
AcDbLine
 10
136.2223361487
 20
137.6927357817
 30
0.0
 11
136.6474811787
 21
137.3816398156
 31
0.0
  0
LINE
  5
B2
330
1F
100
AcDbEntity
  8
SLD-0
 62
     7
100
AcDbLine
 10
136.6474811787
 20
137.3816398156
 30
0.0
 11
137.1072732712
 21
137.1146328931
 31
0.0
  0
LINE
  5
B3
330
1F
100
AcDbEntity
  8
SLD-0
 62
     7
100
AcDbLine
 10
137.1072732712
 20
137.1146328931
 30
0.0
 11
137.5966111066
 21
136.8963457828
 31
0.0
  0
LINE
  5
B4
330
1F
100
AcDbEntity
  8
SLD-0
 62
     7
100
AcDbLine
 10
137.5966111066
 20
136.8963457828
 30
0.0
 11
138.118938716
 21
136.7292297257
 31
0.0
  0
LINE
  5
B5
330
1F
100
AcDbEntity
  8
SLD-0
 62
     7
100
AcDbLine
 10
138.118938716
 20
136.7292297257
 30
0.0
 11
138.6654835062
 21
136.6183520479
 31
0.0
  0
LINE
  5
B6
330
1F
100
AcDbEntity
  8
SLD-0
 62
     7
100
AcDbLine
 10
138.6654835062
 20
136.6183520479
 30
0.0
 11
139.2231091725
 21
136.5683283841
 31
0.0
  0
LINE
  5
B7
330
1F
100
AcDbEntity
  8
SLD-0
 62
     7
100
AcDbLine
 10
139.2231091725
 20
136.5683283841
 30
0.0
 11
139.6993395741
 21
136.5760476513
 31
0.0
  0
LINE
  5
B8
330
1F
100
AcDbEntity
  8
SLD-0
 62
     7
100
AcDbLine
 10
139.6993395741
 20
136.5760476513
 30
0.0
 11
140.1727736796
 21
136.6286482846
 31
0.0
  0
LINE
  5
B9
330
1F
100
AcDbEntity
  8
SLD-0
 62
     7
100
AcDbLine
 10
140.1727736796
 20
136.6286482846
 30
0.0
 11
140.6338509972
 21
136.7242932504
 31
0.0
  0
LINE
  5
BA
330
1F
100
AcDbEntity
  8
SLD-0
 62
     7
100
AcDbLine
 10
140.6338509972
 20
136.7242932504
 30
0.0
 11
141.2595302666
 21
136.9307348689
 31
0.0
  0
LINE
  5
BB
330
1F
100
AcDbEntity
  8
SLD-0
 62
     7
100
AcDbLine
 10
141.2595302666
 20
136.9307348689
 30
0.0
 11
141.8441139961
 21
137.212460879
 31
0.0
  0
LINE
  5
BC
330
1F
100
AcDbEntity
  8
SLD-0
 62
     7
100
AcDbLine
 10
141.8441139961
 20
137.212460879
 30
0.0
 11
142.2065484206
 21
137.4381822718
 31
0.0
  0
LINE
  5
BD
330
1F
100
AcDbEntity
  8
SLD-0
 62
     7
100
AcDbLine
 10
142.2065484206
 20
137.4381822718
 30
0.0
 11
142.5468909422
 21
137.6927357817
 31
0.0
  0
LINE
  5
BE
330
1F
100
AcDbEntity
  8
SLD-0
  6
HIDDEN
 62
     7
100
AcDbLine
 10
128.3846136051
 20
143.5657192671
 30
0.0
 11
120.3846136907
 21
143.5657192671
 31
0.0
  0
LINE
  5
BF
330
1F
100
AcDbEntity
  8
SLD-0
  6
HIDDEN
 62
     7
100
AcDbLine
 10
120.3846136907
 20
139.5657190771
 30
0.0
 11
128.3846136051
 21
139.5657190771
 31
0.0
  0
LINE
  5
C0
330
1F
100
AcDbEntity
  8
SLD-0
  6
HIDDEN
 62
     7
100
AcDbLine
 10
128.3846136051
 20
143.5657192671
 30
0.0
 11
128.3846136051
 21
143.5486090088
 31
0.0
  0
LINE
  5
C1
330
1F
100
AcDbEntity
  8
SLD-0
  6
HIDDEN
 62
     7
100
AcDbLine
 10
128.3846136051
 20
143.5486090088
 30
0.0
 11
128.3846136051
 21
139.5657190771
 31
0.0
  0
LINE
  5
C2
330
1F
100
AcDbEntity
  8
SLD-0
  6
CENTERX2
 62
     7
100
AcDbLine
 10
148.3846137131
 20
141.5657191721
 30
0.0
 11
131.8846137131
 21
141.5657191721
 31
0.0
  0
LINE
  5
C3
330
1F
100
AcDbEntity
  8
SLD-0
  6
CENTERX2
 62
     7
100
AcDbLine
 10
118.8846137131
 20
141.5657191721
 30
0.0
 11
131.8846137131
 21
141.5657191721
 31
0.0
  0
LINE
  5
C4
330
1F
100
AcDbEntity
  8
SLD-0
  6
Continuous
 62
     7
100
AcDbLine
 10
68.2906315187
 20
134.5657191721
 30
0.0
 11
60.5446648262
 21
134.5657191721
 31
0.0
  0
LINE
  5
C5
330
1F
100
AcDbEntity
  8
SLD-0
  6
Continuous
 62
     7
100
AcDbLine
 10
60.5446648262
 20
148.5657191721
 30
0.0
 11
68.2906315187
 21
148.5657191721
 31
0.0
  0
LINE
  5
C6
330
1F
100
AcDbEntity
  8
SLD-0
  6
Continuous
 62
     7
100
AcDbLine
 10
71.4176481725
 20
145.4387025183
 30
0.0
 11
71.4176481725
 21
137.6927358259
 31
0.0
  0
LINE
  5
C7
330
1F
100
AcDbEntity
  8
SLD-0
  6
Continuous
 62
     7
100
AcDbLine
 10
57.4176481725
 20
137.6927358259
 30
0.0
 11
57.4176481725
 21
145.4387025183
 31
0.0
  0
LINE
  5
C8
330
1F
100
AcDbEntity
  8
SLD-0
 62
     7
100
AcDbLine
 10
58.168395
 20
136.5657192839
 30
0.0
 11
58.1726502129
 21
136.5657192839
 31
0.0
  0
LINE
  5
C9
330
1F
100
AcDbEntity
  8
SLD-0
 62
     7
100
AcDbLine
 10
70.662646132
 20
136.5657192839
 30
0.0
 11
70.6669013449
 21
136.5657192839
 31
0.0
  0
LINE
  5
CA
330
1F
100
AcDbEntity
  8
SLD-0
 62
     7
100
AcDbLine
 10
70.6669013449
 20
146.5657190604
 30
0.0
 11
70.662646132
 21
146.5657190604
 31
0.0
  0
LINE
  5
CB
330
1F
100
AcDbEntity
  8
SLD-0
 62
     7
100
AcDbLine
 10
58.1726502129
 20
146.5657190604
 30
0.0
 11
58.168395
 21
146.5657190604
 31
0.0
  0
LINE
  5
CC
330
1F
100
AcDbEntity
  8
SLD-0
  6
Continuous
 62
     7
100
AcDbLine
 10
120.8846137131
 20
202.1089030493
 30
0.0
 11
120.3846137131
 21
201.6089030493
 31
0.0
  0
LINE
  5
CD
330
1F
100
AcDbEntity
  8
SLD-0
  6
Continuous
 62
     7
100
AcDbLine
 10
120.3846137131
 20
194.6089030493
 30
0.0
 11
120.8846137131
 21
194.1089030493
 31
0.0
  0
LINE
  5
CE
330
1F
100
AcDbEntity
  8
SLD-0
  6
Continuous
 62
     7
100
AcDbLine
 10
131.8846137131
 20
202.1089032393
 30
0.0
 11
120.8846137131
 21
202.1089030493
 31
0.0
  0
LINE
  5
CF
330
1F
100
AcDbEntity
  8
SLD-0
  6
Continuous
 62
     7
100
AcDbLine
 10
120.8846137131
 20
194.1089030493
 30
0.0
 11
131.8846137131
 21
194.1089028594
 31
0.0
  0
LINE
  5
D0
330
1F
100
AcDbEntity
  8
SLD-0
  6
Continuous
 62
     7
100
AcDbLine
 10
131.8846137131
 20
205.1089030935
 30
0.0
 11
131.8846137131
 21
201.9818864398
 31
0.0
  0
LINE
  5
D1
330
1F
100
AcDbEntity
  8
SLD-0
  6
Continuous
 62
     7
100
AcDbLine
 10
137.0933257843
 20
205.1089033096
 30
0.0
 11
131.8846137131
 21
205.1089030935
 31
0.0
  0
LINE
  5
D2
330
1F
100
AcDbEntity
  8
SLD-0
  6
Continuous
 62
     7
100
AcDbLine
 10
146.3846137131
 20
205.1089030935
 30
0.0
 11
141.6759013067
 21
205.1089033096
 31
0.0
  0
LINE
  5
D3
330
1F
100
AcDbEntity
  8
SLD-0
  6
Continuous
 62
     7
100
AcDbLine
 10
146.3846137131
 20
201.9818864398
 30
0.0
 11
146.3846137131
 21
205.1089030935
 31
0.0
  0
LINE
  5
D4
330
1F
100
AcDbEntity
  8
SLD-0
  6
Continuous
 62
     7
100
AcDbLine
 10
146.3846137131
 20
201.9818864398
 30
0.0
 11
131.8846137131
 21
201.9818864398
 31
0.0
  0
LINE
  5
D5
330
1F
100
AcDbEntity
  8
SLD-0
  6
Continuous
 62
     7
100
AcDbLine
 10
146.8846137131
 20
205.1089030935
 30
0.0
 11
146.8846137131
 21
200.8014854971
 31
0.0
  0
LINE
  5
D6
330
1F
100
AcDbEntity
  8
SLD-0
  6
Continuous
 62
     7
100
AcDbLine
 10
146.8846137131
 20
200.8014854971
 30
0.0
 11
146.6506334821
 21
201.3974370978
 31
0.0
  0
LINE
  5
D7
330
1F
100
AcDbEntity
  8
SLD-0
  6
Continuous
 62
     7
100
AcDbLine
 10
146.6506334821
 20
201.3974370978
 30
0.0
 11
146.3846137131
 21
201.9818864398
 31
0.0
  0
LINE
  5
D8
330
1F
100
AcDbEntity
  8
SLD-0
  6
Continuous
 62
     7
100
AcDbLine
 10
146.3846137131
 20
205.1089030935
 30
0.0
 11
146.8846137131
 21
205.1089030935
 31
0.0
  0
LINE
  5
D9
330
1F
100
AcDbEntity
  8
SLD-0
  6
Continuous
 62
     7
100
AcDbLine
 10
146.3846132959
 20
194.2359197031
 30
0.0
 11
146.6499266083
 21
194.8187071442
 31
0.0
  0
LINE
  5
DA
330
1F
100
AcDbEntity
  8
SLD-0
  6
Continuous
 62
     7
100
AcDbLine
 10
146.6499266083
 20
194.8187071442
 30
0.0
 11
146.8846133778
 21
195.416320775
 31
0.0
  0
LINE
  5
DB
330
1F
100
AcDbEntity
  8
SLD-0
  6
Continuous
 62
     7
100
AcDbLine
 10
146.3846132959
 20
194.2359197031
 30
0.0
 11
131.8846137131
 21
194.2359197031
 31
0.0
  0
LINE
  5
DC
330
1F
100
AcDbEntity
  8
SLD-0
  6
Continuous
 62
     7
100
AcDbLine
 10
146.8846137131
 20
200.8014854971
 30
0.0
 11
146.8846133778
 21
195.416320775
 31
0.0
  0
LINE
  5
DD
330
1F
100
AcDbEntity
  8
SLD-0
  6
Continuous
 62
     7
100
AcDbLine
 10
131.8846137131
 20
201.9818864398
 30
0.0
 11
131.8846137131
 21
194.2359197031
 31
0.0
  0
LINE
  5
DE
330
1F
100
AcDbEntity
  8
SLD-0
  6
Continuous
 62
     7
100
AcDbLine
 10
146.8846137131
 20
191.1089030493
 30
0.0
 11
146.3846137131
 21
191.1089030493
 31
0.0
  0
LINE
  5
DF
330
1F
100
AcDbEntity
  8
SLD-0
  6
Continuous
 62
     7
100
AcDbLine
 10
146.3846137131
 20
191.1089030493
 30
0.0
 11
146.3846132959
 21
194.2359197031
 31
0.0
  0
LINE
  5
E0
330
1F
100
AcDbEntity
  8
SLD-0
  6
Continuous
 62
     7
100
AcDbLine
 10
146.8846133778
 20
195.416320775
 30
0.0
 11
146.8846137131
 21
191.1089030493
 31
0.0
  0
LINE
  5
E1
330
1F
100
AcDbEntity
  8
SLD-0
  6
Continuous
 62
     7
100
AcDbLine
 10
137.0933257843
 20
191.1089028333
 30
0.0
 11
131.8846137131
 21
191.1089030493
 31
0.0
  0
LINE
  5
E2
330
1F
100
AcDbEntity
  8
SLD-0
  6
Continuous
 62
     7
100
AcDbLine
 10
146.3846137131
 20
191.1089030493
 30
0.0
 11
141.6759013067
 21
191.1089028333
 31
0.0
  0
LINE
  5
E3
330
1F
100
AcDbEntity
  8
SLD-0
  6
Continuous
 62
     7
100
AcDbLine
 10
131.8846137131
 20
194.2359197031
 30
0.0
 11
131.8846137131
 21
191.1089030493
 31
0.0
  0
LINE
  5
E4
330
1F
100
AcDbEntity
  8
SLD-0
  6
Continuous
 62
     7
100
AcDbLine
 10
120.3846137131
 20
194.6089030493
 30
0.0
 11
120.3846137131
 21
201.6089030493
 31
0.0
  0
LINE
  5
E5
330
1F
100
AcDbEntity
  8
SLD-0
  6
Continuous
 62
     7
100
AcDbLine
 10
120.8846137131
 20
202.1089030493
 30
0.0
 11
120.8846137131
 21
194.1089030493
 31
0.0
  0
LINE
  5
E6
330
1F
100
AcDbEntity
  8
SLD-0
  6
HIDDEN
 62
     7
100
AcDbLine
 10
143.8846138174
 20
191.1089028333
 30
0.0
 11
143.8846138174
 21
205.1089032654
 31
0.0
  0
LINE
  5
E7
330
1F
100
AcDbEntity
  8
SLD-0
  6
HIDDEN
 62
     7
100
AcDbLine
 10
134.8846137392
 20
205.1089032654
 30
0.0
 11
134.8846137392
 21
191.1089028333
 31
0.0
  0
LINE
  5
E8
330
1F
100
AcDbEntity
  8
SLD-0
  6
HIDDEN
 62
     7
100
AcDbLine
 10
120.3846136907
 20
196.4589030583
 30
0.0
 11
131.8846137131
 21
196.4589030583
 31
0.0
  0
LINE
  5
E9
330
1F
100
AcDbEntity
  8
SLD-0
  6
HIDDEN
 62
     7
100
AcDbLine
 10
131.8846137131
 20
199.7589030404
 30
0.0
 11
120.3846136907
 21
199.7589030404
 31
0.0
  0
LINE
  5
EA
330
1F
100
AcDbEntity
  8
SLD-0
  6
HIDDEN
 62
     7
100
AcDbLine
 10
131.8846137131
 20
196.4589030583
 30
0.0
 11
132.8760337185
 21
198.1089030493
 31
0.0
  0
LINE
  5
EB
330
1F
100
AcDbEntity
  8
SLD-0
  6
HIDDEN
 62
     7
100
AcDbLine
 10
132.8760337185
 20
198.1089030493
 30
0.0
 11
131.8846137131
 21
199.7589030404
 31
0.0
  0
LINE
  5
EC
330
1F
100
AcDbEntity
  8
SLD-0
 62
     7
100
AcDbLine
 10
120.6346137131
 20
194.3589030493
 30
0.0
 11
105.2707823821
 21
182.1015582687
 31
0.0
  0
LINE
  5
ED
330
1F
100
AcDbEntity
  8
SLD-0
 62
     7
100
AcDbLine
 10
105.2707823821
 20
182.1015582687
 30
0.0
 11
117.3178430988
 21
191.6845817366
 31
0.0
  0
LINE
  5
EE
330
1F
100
AcDbEntity
  8
SLD-0
 62
     7
100
AcDbLine
 10
136.2223361487
 20
205.1089032654
 30
0.0
 11
136.6474811787
 21
204.9274047938
 31
0.0
  0
LINE
  5
EF
330
1F
100
AcDbEntity
  8
SLD-0
 62
     7
100
AcDbLine
 10
136.6474811787
 20
204.9274047938
 30
0.0
 11
137.1072732712
 21
204.7562002305
 31
0.0
  0
LINE
  5
F0
330
1F
100
AcDbEntity
  8
SLD-0
 62
     7
100
AcDbLine
 10
137.1072732712
 20
204.7562002305
 30
0.0
 11
137.5966111066
 21
204.6048211966
 31
0.0
  0
LINE
  5
F1
330
1F
100
AcDbEntity
  8
SLD-0
 62
     7
100
AcDbLine
 10
137.5966111066
 20
204.6048211966
 30
0.0
 11
138.118938716
 21
204.4816384193
 31
0.0
  0
LINE
  5
F2
330
1F
100
AcDbEntity
  8
SLD-0
 62
     7
100
AcDbLine
 10
138.118938716
 20
204.4816384193
 30
0.0
 11
138.6654835062
 21
204.3959809568
 31
0.0
  0
LINE
  5
F3
330
1F
100
AcDbEntity
  8
SLD-0
 62
     7
100
AcDbLine
 10
138.6654835062
 20
204.3959809568
 30
0.0
 11
139.2231091725
 21
204.3559890341
 31
0.0
  0
LINE
  5
F4
330
1F
100
AcDbEntity
  8
SLD-0
 62
     7
100
AcDbLine
 10
139.2231091725
 20
204.3559890341
 30
0.0
 11
139.6993395741
 21
204.3623825636
 31
0.0
  0
LINE
  5
F5
330
1F
100
AcDbEntity
  8
SLD-0
 62
     7
100
AcDbLine
 10
139.6993395741
 20
204.3623825636
 30
0.0
 11
140.1727736796
 21
204.4039828804
 31
0.0
  0
LINE
  5
F6
330
1F
100
AcDbEntity
  8
SLD-0
 62
     7
100
AcDbLine
 10
140.1727736796
 20
204.4039828804
 30
0.0
 11
140.6338509972
 21
204.477623022
 31
0.0
  0
LINE
  5
F7
330
1F
100
AcDbEntity
  8
SLD-0
 62
     7
100
AcDbLine
 10
140.6338509972
 20
204.477623022
 30
0.0
 11
141.2595302666
 21
204.629402059
 31
0.0
  0
LINE
  5
F8
330
1F
100
AcDbEntity
  8
SLD-0
 62
     7
100
AcDbLine
 10
141.2595302666
 20
204.629402059
 30
0.0
 11
141.8441139961
 21
204.8207688246
 31
0.0
  0
LINE
  5
F9
330
1F
100
AcDbEntity
  8
SLD-0
 62
     7
100
AcDbLine
 10
141.8441139961
 20
204.8207688246
 30
0.0
 11
142.2065484206
 21
204.9618767675
 31
0.0
  0
LINE
  5
FA
330
1F
100
AcDbEntity
  8
SLD-0
 62
     7
100
AcDbLine
 10
142.2065484206
 20
204.9618767675
 30
0.0
 11
142.5468909422
 21
205.1089032654
 31
0.0
  0
LINE
  5
FB
330
1F
100
AcDbEntity
  8
SLD-0
  6
HIDDEN
 62
     7
100
AcDbLine
 10
134.3846136572
 20
205.1089032654
 30
0.0
 11
134.3846136572
 21
191.1089028333
 31
0.0
  0
LINE
  5
FC
330
1F
100
AcDbEntity
  8
SLD-0
  6
HIDDEN
 62
     7
100
AcDbLine
 10
144.3846138994
 20
191.1089028333
 30
0.0
 11
144.3846138994
 21
205.1089032654
 31
0.0
  0
LINE
  5
FD
330
1F
100
AcDbEntity
  8
SLD-0
  6
HIDDEN
 62
     7
100
AcDbLine
 10
128.3846136051
 20
200.1089031443
 30
0.0
 11
120.3846136907
 21
200.1089031443
 31
0.0
  0
LINE
  5
FE
330
1F
100
AcDbEntity
  8
SLD-0
  6
HIDDEN
 62
     7
100
AcDbLine
 10
120.3846136907
 20
196.1089029544
 30
0.0
 11
128.3846136051
 21
196.1089029544
 31
0.0
  0
LINE
  5
FF
330
1F
100
AcDbEntity
  8
SLD-0
  6
HIDDEN
 62
     7
100
AcDbLine
 10
128.3846136051
 20
198.1089030493
 30
0.0
 11
128.3846136051
 21
197.8478506541
 31
0.0
  0
LINE
  5
100
330
1F
100
AcDbEntity
  8
SLD-0
  6
HIDDEN
 62
     7
100
AcDbLine
 10
128.3846136051
 20
197.8478506541
 30
0.0
 11
128.3846136051
 21
196.1089029544
 31
0.0
  0
LINE
  5
101
330
1F
100
AcDbEntity
  8
SLD-0
  6
HIDDEN
 62
     7
100
AcDbLine
 10
128.3846136051
 20
200.1089031443
 30
0.0
 11
128.3846136051
 21
198.1089030493
 31
0.0
  0
LINE
  5
102
330
1F
100
AcDbEntity
  8
SLD-0
  6
CENTERX2
 62
     7
100
AcDbLine
 10
148.3846137131
 20
198.1089030493
 30
0.0
 11
131.8846137131
 21
198.1089030493
 31
0.0
  0
LINE
  5
103
330
1F
100
AcDbEntity
  8
SLD-0
  6
CENTERX2
 62
     7
100
AcDbLine
 10
118.8846137131
 20
198.1089030493
 30
0.0
 11
131.8846137131
 21
198.1089030493
 31
0.0
  0
LINE
  5
104
330
1F
100
AcDbEntity
  8
SLD-0
  6
CENTERX2
 62
     7
100
AcDbLine
 10
139.3846137131
 20
207.1089030493
 30
0.0
 11
139.3846137131
 21
189.1089030493
 31
0.0
  0
LINE
  5
105
330
1F
100
AcDbEntity
  8
0
  6
Continuous
 62
     7
370
     0
100
AcDbLine
 10
20.2604743903
 20
285.0
 30
0.0
 11
196.7604743903
 21
285.0
 31
0.0
  0
LINE
  5
106
330
1F
100
AcDbEntity
  8
0
  6
Continuous
 62
     7
370
     0
100
AcDbLine
 10
20.2604743903
 20
285.0
 30
0.0
 11
20.2604743903
 21
10.0
 31
0.0
  0
LINE
  5
107
330
1F
100
AcDbEntity
  8
0
  6
Continuous
 62
     7
370
     0
100
AcDbLine
 10
20.2604743903
 20
10.0
 30
0.0
 11
196.7604743903
 21
10.0
 31
0.0
  0
LINE
  5
108
330
1F
100
AcDbEntity
  8
0
  6
Continuous
 62
     7
370
     0
100
AcDbLine
 10
196.7604743903
 20
285.0
 30
0.0
 11
196.7604743903
 21
10.0
 31
0.0
  0
LINE
  5
109
330
1F
100
AcDbEntity
  8
0
  6
Continuous
 62
     7
370
     0
100
AcDbLine
 10
127.0104743903
 20
50.75
 30
0.0
 11
196.7604743903
 21
50.75
 31
0.0
  0
LINE
  5
10A
330
1F
100
AcDbEntity
  8
0
  6
Continuous
 62
     7
370
     0
100
AcDbLine
 10
127.0104743903
 20
50.75
 30
0.0
 11
127.0104743903
 21
10.0
 31
0.0
  0
LINE
  5
10B
330
1F
100
AcDbEntity
  8
0
  6
Continuous
 62
     7
370
     0
100
AcDbLine
 10
127.0104743903
 20
22.75
 30
0.0
 11
196.7604743903
 21
22.75
 31
0.0
  0
LINE
  5
10C
330
1F
100
AcDbEntity
  8
0
  6
Continuous
 62
     7
370
     0
100
AcDbLine
 10
127.0104743903
 20
36.75
 30
0.0
 11
196.7604743903
 21
36.75
 31
0.0
  0
ARC
  5
10D
330
1F
100
AcDbEntity
  8
SLD-0
  6
Continuous
 62
     7
100
AcDbCircle
 10
139.3846135081
 20
141.565719097
 30
0.0
 40
4.500000039760728
100
AcDbArc
 50
59.3911033627
 51
120.608897335
  0
ARC
  5
10E
330
1F
100
AcDbEntity
  8
SLD-0
  6
Continuous
 62
     7
100
AcDbCircle
 10
139.3846135081
 20
141.565719097
 30
0.0
 40
4.500000039760761
100
AcDbArc
 50
239.3911050849
 51
300.6089003939
  0
ARC
  5
10F
330
1F
100
AcDbEntity
  8
SLD-0
  6
Continuous
 62
     7
100
AcDbCircle
 10
139.3846135081
 20
141.565719097
 30
0.0
 40
4.500000039760761
100
AcDbArc
 50
120.608897335
 51
239.3911050849
  0
ARC
  5
110
330
1F
100
AcDbEntity
  8
SLD-0
  6
Continuous
 62
     7
100
AcDbCircle
 10
139.3846135081
 20
141.565719097
 30
0.0
 40
4.500000039760745
100
AcDbArc
 50
300.6089003939
 51
59.3911033627
  0
CIRCLE
  5
111
330
1F
100
AcDbEntity
  8
SLD-0
  6
Continuous
 62
     7
100
AcDbCircle
 10
64.4176481725
 20
141.5657191721
 30
0.0
 40
3.499999999978826
  0
CIRCLE
  5
112
330
1F
100
AcDbEntity
  8
SLD-0
  6
Continuous
 62
     7
100
AcDbCircle
 10
64.4176481725
 20
141.5657191721
 30
0.0
 40
3.999999999978826
  0
CIRCLE
  5
113
330
1F
100
AcDbEntity
  8
SLD-0
  6
Continuous
 62
     7
100
AcDbCircle
 10
64.4176481725
 20
141.5657191721
 30
0.0
 40
1.649999999978817
  0
ARC
  5
114
330
1F
100
AcDbEntity
  8
SLD-0
  6
Continuous
 62
     7
100
AcDbCircle
 10
64.4176481725
 20
141.5657191721
 30
0.0
 40
7.999999999977542
100
AcDbArc
 50
28.9550243719
 51
61.044975628
  0
ARC
  5
115
330
1F
100
AcDbEntity
  8
SLD-0
  6
Continuous
 62
     7
100
AcDbCircle
 10
64.4176481725
 20
141.5657191721
 30
0.0
 40
7.999999999983555
100
AcDbArc
 50
298.955024372
 51
331.0449756282
  0
ARC
  5
116
330
1F
100
AcDbEntity
  8
SLD-0
  6
Continuous
 62
     7
100
AcDbCircle
 10
64.4176481725
 20
141.5657191721
 30
0.0
 40
8.000000000009278
100
AcDbArc
 50
118.9550243724
 51
151.0449756283
  0
ARC
  5
117
330
1F
100
AcDbEntity
  8
SLD-0
  6
Continuous
 62
     7
100
AcDbCircle
 10
64.4176481725
 20
141.5657191721
 30
0.0
 40
8.000000000020593
100
AcDbArc
 50
208.9550243718
 51
241.0449756276
  0
CIRCLE
  5
118
330
1F
100
AcDbEntity
  8
SLD-0
 62
     7
100
AcDbCircle
 10
64.4176481725
 20
141.5657191721
 30
0.0
 40
2.000000094978816
  0
ARC
  5
119
330
1F
100
AcDbEntity
  8
SLD-0
  6
Continuous
 62
     7
100
AcDbCircle
 10
139.3846135455
 20
211.7322960728
 30
0.0
 40
7.008518481111272
100
AcDbArc
 50
250.9175176304
 51
289.0824823695
  0
ARC
  5
11A
330
1F
100
AcDbEntity
  8
SLD-0
  6
Continuous
 62
     7
100
AcDbCircle
 10
139.3846135455
 20
184.4855104973
 30
0.0
 40
7.008518077400003
100
AcDbArc
 50
70.9175164887
 51
109.0824835113
  0
DIMENSION
  5
11B
330
1F
100
AcDbEntity
  8
SLD-0
 62
     7
100
AcDbDimension
  2
*D6
 10
108.6590797868
 20
137.5657191721
 30
0.0
 11
108.6590797868
 21
127.6880366634
 31
0.0
 70
   160
  1
%%c<>
 71
     1
 42
8.0
  3
SLDDIMSTYLE0
100
AcDbAlignedDimension
 13
131.8846137131
 23
145.5657191721
 33
0.0
 14
131.8846137131
 24
137.5657191721
 34
0.0
 50
90.0
100
AcDbRotatedDimension
1001
ACAD
1000
DSTYLE
1002
{
1070
    77
1070
     3
1070
   143
1040
0.0393700787
1070
    41
1040
3.0
1070
    44
1040
1.0
1070
    42
1040
1.0
1070
   147
1040
1.524
1070
    73
1070
     0
1070
    74
1070
     0
1070
   140
1040
3.5
1070
   284
1070
    12
1070
    78
1070
    12
1002
}
  0
DIMENSION
  5
136
330
1F
100
AcDbEntity
  8
SLD-0
 62
     7
100
AcDbDimension
  2
*D7
 10
7.0159605887
 20
7.1257470963
 30
0.0
 11
158.0431833055
 21
-4.2754487994
 31
0.0
 70
   163
  1
M<>xP1.0<>
 71
     1
 42
9.9999987331
  3
SLDDIMSTYLE1
100
AcDbDiametricDimension
 15
0.0
 25
0.0
 35
0.0
 40
0.0
1001
ACAD
1000
DSTYLE
1002
{
1070
    77
1070
     0
1070
   143
1040
0.0393700787
1070
    41
1040
3.0
1070
    44
1040
1.0
1070
    42
1040
1.0
1070
   147
1040
1.524
1070
    73
1070
     1
1070
    74
1070
     1
1070
   140
1040
3.5
1070
   284
1070
    12
1070
    78
1070
    12
1002
}
  0
DIMENSION
  5
14C
330
1F
100
AcDbEntity
  8
SLD-0
 62
     7
100
AcDbDimension
  2
*D9
 10
120.3846137131
 20
161.783552058
 30
0.0
 11
129.8846137131
 21
161.783552058
 31
0.0
 70
   160
 71
     1
 42
19.0
  3
SLDDIMSTYLE2
100
AcDbAlignedDimension
 13
139.3846137131
 23
148.5657191721
 33
0.0
 14
120.3846137131
 24
145.5657191721
 34
0.0
100
AcDbRotatedDimension
1001
ACAD
1000
DSTYLE
1002
{
1070
    77
1070
     3
1070
   143
1040
0.0393700787
1070
    41
1040
3.0
1070
    44
1040
1.0
1070
    42
1040
1.0
1070
   147
1040
1.524
1070
    73
1070
     0
1070
    74
1070
     0
1070
   140
1040
3.5
1070
   284
1070
    12
1070
    78
1070
    12
1002
}
  0
DIMENSION
  5
164
330
1F
100
AcDbEntity
  8
SLD-0
 62
     7
100
AcDbDimension
  2
*D10
 10
57.4176481725
 20
157.3566891569
 30
0.0
 11
64.4176481725
 21
157.3566891569
 31
0.0
 70
   160
 71
     1
 42
14.0
  3
SLDDIMSTYLE2
100
AcDbAlignedDimension
 13
71.4176481725
 23
145.4387025183
 33
0.0
 14
57.4176481725
 24
145.4387025183
 34
0.0
100
AcDbRotatedDimension
1001
ACAD
1000
DSTYLE
1002
{
1070
    77
1070
     3
1070
   143
1040
0.0393700787
1070
    41
1040
3.0
1070
    44
1040
1.0
1070
    42
1040
1.0
1070
   147
1040
1.524
1070
    73
1070
     0
1070
    74
1070
     0
1070
   140
1040
3.5
1070
   284
1070
    12
1070
    78
1070
    12
1002
}
  0
DIMENSION
  5
17B
330
1F
100
AcDbEntity
  8
SLD-0
 62
     7
100
AcDbDimension
  2
*D11
 10
48.5819379911
 20
148.5657191721
 30
0.0
 11
48.5819379911
 21
141.5657191721
 31
0.0
 70
   160
 71
     1
 42
14.0
  3
SLDDIMSTYLE2
100
AcDbAlignedDimension
 13
60.5446648262
 23
134.5657191721
 33
0.0
 14
60.5446648262
 24
148.5657191721
 34
0.0
 50
90.0
100
AcDbRotatedDimension
1001
ACAD
1000
DSTYLE
1002
{
1070
    77
1070
     3
1070
   143
1040
0.0393700787
1070
    41
1040
3.0
1070
    44
1040
1.0
1070
    42
1040
1.0
1070
   147
1040
1.524
1070
    73
1070
     0
1070
    74
1070
     0
1070
   140
1040
3.5
1070
   284
1070
    12
1070
    78
1070
    12
1002
}
  0
DIMENSION
  5
193
330
1F
100
AcDbEntity
  8
SLD-0
 62
     7
100
AcDbDimension
  2
*D12
 10
6.6267785678
 20
14.5631624308
 30
0.0
 11
80.3502172537
 21
-5.4611870403
 31
0.0
 70
   163
  1
<>
 71
     1
 42
15.9999966929
  3
SLDDIMSTYLE1
100
AcDbDiametricDimension
 15
0.0
 25
0.0
 35
0.0
 40
0.0
1001
ACAD
1000
DSTYLE
1002
{
1070
    77
1070
     0
1070
   143
1040
0.0393700787
1070
    41
1040
3.0
1070
    44
1040
1.0
1070
    42
1040
1.0
1070
   147
1040
1.524
1070
    73
1070
     1
1070
    74
1070
     1
1070
   140
1040
3.5
1070
   284
1070
    12
1070
    78
1070
    12
1002
}
  0
DIMENSION
  5
1AA
330
1F
100
AcDbEntity
  8
SLD-0
 62
     7
100
AcDbDimension
  2
*D13
 10
1.656694642
 20
3.6407906077
 30
0.0
 11
84.5379248916
 21
-5.4611870403
 31
0.0
 70
   163
  1
M<>深10<>
 71
     1
 42
3.9999991732
  3
SLDDIMSTYLE1
100
AcDbDiametricDimension
 15
0.0
 25
0.0
 35
0.0
 40
0.0
1001
ACAD
1000
DSTYLE
1002
{
1070
    77
1070
     0
1070
   143
1040
0.0393700787
1070
    41
1040
3.0
1070
    44
1040
1.0
1070
    42
1040
1.0
1070
   147
1040
1.524
1070
    73
1070
     1
1070
    74
1070
     1
1070
   140
1040
3.5
1070
   284
1070
    12
1070
    78
1070
    12
1002
}
  0
DIMENSION
  5
1BC
330
1F
100
AcDbEntity
  8
SLD-0
100
AcDbDimension
  2
*D14
 10
120.3846137131
 20
213.7355194911
 30
0.0
 11
126.1346137131
 21
213.7355194911
 31
0.0
 70
   160
 71
     1
 42
11.5
  3
SLDDIMSTYLE3
100
AcDbAlignedDimension
 13
131.8846137131
 23
205.1089030493
 33
0.0
 14
120.3846137131
 24
202.1089030493
 34
0.0
100
AcDbRotatedDimension
1001
ACAD
1000
DSTYLE
1002
{
1070
    77
1070
     3
1070
   143
1040
0.0393700787
1070
    41
1040
3.0
1070
    44
1040
1.0
1070
    42
1040
1.0
1070
   147
1040
1.524
1070
    73
1070
     0
1070
    74
1070
     0
1070
   140
1040
3.5
1070
   284
1070
    12
1070
    78
1070
    12
1002
}
  0
DIMENSION
  5
1D6
330
1F
100
AcDbEntity
  8
SLD-0
 62
     7
100
AcDbDimension
  2
*D15
 10
120.3846137131
 20
223.4318901333
 30
0.0
 11
133.6346137131
 21
223.4318901333
 31
0.0
 70
   160
 71
     1
 42
26.5
  3
SLDDIMSTYLE3
100
AcDbAlignedDimension
 13
146.8846137131
 23
205.1089030493
 33
0.0
 14
120.3846137131
 24
201.6089030493
 34
0.0
100
AcDbRotatedDimension
1001
ACAD
1000
DSTYLE
1002
{
1070
    77
1070
     3
1070
   143
1040
0.0393700787
1070
    41
1040
3.0
1070
    44
1040
1.0
1070
    42
1040
1.0
1070
   147
1040
1.524
1070
    73
1070
     0
1070
    74
1070
     0
1070
   140
1040
3.5
1070
   284
1070
    12
1070
    78
1070
    12
1002
}
  0
MTEXT
  5
1ED
330
1F
100
AcDbEntity
  8
SLD-0
 62
     7
100
AcDbMText
 10
103.6948523176
 20
186.6327821184
 30
0.0
 40
3.5
 41
0.0
 71
     1
 72
     1
  1
2-
  7
SLDTEXTSTYLE1
 11
0.7825968050024036
 21
0.622528907601912
 31
0.0
 73
     1
 44
1.0
  0
MTEXT
  5
1EE
330
1F
100
AcDbEntity
  8
SLD-0
 62
     7
100
AcDbMText
 10
106.882290938
 20
189.1682801804
 30
0.0
 40
3.5
 41
0.0
 71
     1
 72
     1
  1
C
  7
SLDTEXTSTYLE1
 11
0.7825968050024036
 21
0.622528907601912
 31
0.0
 73
     1
 44
1.0
  0
MTEXT
  5
1EF
330
1F
100
AcDbEntity
  8
SLD-0
 62
     7
100
AcDbMText
 10
108.4760102481
 20
190.4360292114
 30
0.0
 40
3.5
 41
0.0
 71
     1
 72
     1
  1
0.5
  7
SLDTEXTSTYLE1
 11
0.7825968050024036
 21
0.622528907601912
 31
0.0
 73
     1
 44
1.0
  0
MTEXT
  5
1F0
330
1F
100
AcDbEntity
  8
0
  6
Continuous
 62
     7
370
     0
100
AcDbMText
 10
148.9405578115
 20
28.8029541341
 30
0.0
 40
4.2333333333
 41
0.0
 71
     1
 72
     1
  1
N01864-305
  7
SLDTEXTSTYLE0
 73
     1
 44
1.0
  0
INSERT
  5
1F6
330
1F
100
AcDbEntity
  8
0
  6
Continuous
 62
     7
370
     0
100
AcDbBlockReference
  2
SW_NOTE_0
 10
138.1598738293
 20
43.4201818724
 30
0.0
  0
MTEXT
  5
1F7
330
1F
100
AcDbEntity
  8
0
  6
Continuous
 62
     7
370
     0
100
AcDbMText
 10
155.5950049528
 20
16.2918259049
 30
0.0
 40
4.2333333333
 41
0.0
 71
     1
 72
     1
  1
131172
  7
SLDTEXTSTYLE0
 73
     1
 44
1.0
  0
INSERT
  5
1F8
330
1F
100
AcDbEntity
  8
0
  6
Continuous
 62
     7
370
     0
100
AcDbBlockReference
  2
SW_CENTERMARK0
 10
0.0
 20
0.0
 30
0.0
  0
INSERT
  5
1F9
330
1F
100
AcDbEntity
  8
0
  6
Continuous
 62
     7
370
     0
100
AcDbBlockReference
  2
SW_CENTERMARK1
 10
0.0
 20
0.0
 30
0.0
  0
INSERT
  5
1FA
330
1F
100
AcDbEntity
  8
0
  6
Continuous
 62
     7
370
     0
100
AcDbBlockReference
  2
SW_CENTERMARK2
 10
0.0
 20
0.0
 30
0.0
  0
INSERT
  5
1FB
330
1F
100
AcDbEntity
  8
0
  6
Continuous
 62
     7
370
     0
100
AcDbBlockReference
  2
_OPEN30
 10
120.6346137131
 20
194.3589030493
 30
0.0
 41
3.0
 42
3.0
 43
3.0
 50
38.5830481709
  0
ENDSEC
  0
SECTION
  2
OBJECTS
  0
DICTIONARY
  5
C
330
0
100
AcDbDictionary
281
     1
  3
ACAD_GROUP
350
D
  3
ACAD_LAYOUT
350
1A
  3
ACAD_MLINESTYLE
350
17
  3
ACAD_PLOTSETTINGS
350
19
  3
ACAD_PLOTSTYLENAME
350
E
  0
DICTIONARY
  5
D
102
{ACAD_REACTORS
330
C
102
}
330
C
100
AcDbDictionary
281
     1
  0
DICTIONARY
  5
1A
102
{ACAD_REACTORS
330
C
102
}
330
C
100
AcDbDictionary
281
     1
  3
Layout1
350
1E
  3
Layout2
350
26
  3
Model
350
22
  0
DICTIONARY
  5
17
102
{ACAD_REACTORS
330
C
102
}
330
C
100
AcDbDictionary
281
     1
  3
Standard
350
18
  0
DICTIONARY
  5
19
102
{ACAD_REACTORS
330
C
102
}
330
C
100
AcDbDictionary
281
     1
  0
ACDBDICTIONARYWDFLT
  5
E
102
{ACAD_REACTORS
330
C
102
}
330
C
100
AcDbDictionary
281
     1
  3
Normal
350
F
100
AcDbDictionaryWithDefault
340
F
  0
LAYOUT
  5
1E
102
{ACAD_REACTORS
330
1A
102
}
330
1A
100
AcDbPlotSettings
  1

  2

  4

  6

 40
0.0
 41
0.0
 42
0.0
 43
0.0
 44
0.0
 45
0.0
 46
0.0
 47
0.0
 48
0.0
 49
0.0
140
0.0
141
0.0
142
1.0
143
1.0
 70
   688
 72
     0
 73
     0
 74
     5
  7

 75
    16
147
1.0
148
0.0
149
0.0
100
AcDbLayout
  1
Layout1
 70
     1
 71
     1
 10
0.0
 20
0.0
 11
0.0
 21
0.0
 12
0.0
 22
0.0
 32
0.0
 14
0.0
 24
0.0
 34
0.0
 15
0.0
 25
0.0
 35
0.0
146
0.0
 13
0.0
 23
0.0
 33
0.0
 16
1.0
 26
0.0
 36
0.0
 17
0.0
 27
1.0
 37
0.0
 76
     0
330
1B
  0
LAYOUT
  5
26
102
{ACAD_REACTORS
330
1A
102
}
330
1A
100
AcDbPlotSettings
  1

  2

  4

  6

 40
0.0
 41
0.0
 42
0.0
 43
0.0
 44
0.0
 45
0.0
 46
0.0
 47
0.0
 48
0.0
 49
0.0
140
0.0
141
0.0
142
1.0
143
1.0
 70
   688
 72
     0
 73
     0
 74
     5
  7

 75
    16
147
1.0
148
0.0
149
0.0
100
AcDbLayout
  1
Layout2
 70
     1
 71
     2
 10
0.0
 20
0.0
 11
0.0
 21
0.0
 12
0.0
 22
0.0
 32
0.0
 14
0.0
 24
0.0
 34
0.0
 15
0.0
 25
0.0
 35
0.0
146
0.0
 13
0.0
 23
0.0
 33
0.0
 16
1.0
 26
0.0
 36
0.0
 17
0.0
 27
1.0
 37
0.0
 76
     0
330
23
  0
LAYOUT
  5
22
102
{ACAD_REACTORS
330
1A
102
}
330
1A
100
AcDbPlotSettings
  1

  2

  4

  6

 40
0.0
 41
0.0
 42
0.0
 43
0.0
 44
0.0
 45
0.0
 46
0.0
 47
0.0
 48
0.0
 49
0.0
140
0.0
141
0.0
142
1.0
143
1.0
 70
  1712
 72
     0
 73
     0
 74
     0
  7

 75
     0
147
1.0
148
0.0
149
0.0
100
AcDbLayout
  1
Model
 70
     1
 71
     0
 10
0.0
 20
0.0
 11
0.0
 21
0.0
 12
0.0
 22
0.0
 32
0.0
 14
0.0
 24
0.0
 34
0.0
 15
210.0
 25
297.0
 35
0.0
146
0.0
 13
0.0
 23
0.0
 33
0.0
 16
1.0
 26
0.0
 36
0.0
 17
0.0
 27
1.0
 37
0.0
 76
     0
330
1F
  0
MLINESTYLE
  5
18
102
{ACAD_REACTORS
330
17
102
}
330
17
100
AcDbMlineStyle
  2
Standard
 70
     0
  3

 62
   256
 51
90.0
 52
90.0
 71
     2
 49
0.5
 62
   256
  6
BYLAYER
 49
-0.5
 62
   256
  6
BYLAYER
  0
ACDBPLACEHOLDER
  5
F
102
{ACAD_REACTORS
330
E
102
}
330
E
  0
ENDSEC
  0
EOF
