  0
SECTION
  2
HEADER
  9
$ACADVER
  1
AC1015
  9
$ACADMAINTVER
 70
     6
  9
$DWGCODEPAGE
  3
DOS932
  9
$INSBASE
 10
0.0
 20
0.0
 30
0.0
  9
$EXTMIN
 10
0.0
 20
0.0
 30
0.0
  9
$EXTMAX
 10
210.0
 20
297.0
 30
0.0
  9
$LIMMIN
 10
0.0
 20
0.0
  9
$LIMMAX
 10
0.0
 20
0.0
  9
$ORTHOMODE
 70
     0
  9
$REGENMODE
 70
     1
  9
$FILLMODE
 70
     1
  9
$QTEXTMODE
 70
     0
  9
$MIRRTEXT
 70
     1
  9
$LTSCALE
 40
1.0
  9
$ATTMODE
 70
     1
  9
$TEXTSIZE
 40
3.5
  9
$TRACEWID
 40
1.0
  9
$TEXTSTYLE
  7
Standard
  9
$CLAYER
  8
0
  9
$CELTYPE
  6
ByLayer
  9
$CECOLOR
 62
   256
  9
$CELTSCALE
 40
1.0
  9
$DISPSILH
 70
     0
  9
$DIMSCALE
 40
1.0
  9
$DIMASZ
 40
3.0
  9
$DIMEXO
 40
1.0
  9
$DIMDLI
 40
3.75
  9
$DIMRND
 40
0.0
  9
$DIMDLE
 40
0.0
  9
$DIMEXE
 40
1.0
  9
$DIMTP
 40
0.0
  9
$DIMTM
 40
0.0
  9
$DIMTXT
 40
3.5
  9
$DIMCEN
 40
2.5
  9
$DIMTSZ
 40
0.0
  9
$DIMTOL
 70
     0
  9
$DIMLIM
 70
     0
  9
$DIMTIH
 70
     1
  9
$DIMTOH
 70
     1
  9
$DIMSE1
 70
     0
  9
$DIMSE2
 70
     0
  9
$DIMTAD
 70
     1
  9
$DIMZIN
 70
     1
  9
$DIMBLK
  1

  9
$DIMASO
 70
     1
  9
$DIMSHO
 70
     1
  9
$DIMPOST
  1

  9
$DIMAPOST
  1

  9
$DIMALT
 70
     0
  9
$DIMALTD
 70
     3
  9
$DIMALTF
 40
0.0393700787
  9
$DIMLFAC
 40
1.0
  9
$DIMTOFL
 70
     1
  9
$DIMTVP
 40
0.0
  9
$DIMTIX
 70
     0
  9
$DIMSOXD
 70
     0
  9
$DIMSAH
 70
     0
  9
$DIMBLK1
  1

  9
$DIMBLK2
  1

  9
$DIMSTYLE
  2
ISO-25
  9
$DIMCLRD
 70
     0
  9
$DIMCLRE
 70
     0
  9
$DIMCLRT
 70
     0
  9
$DIMTFAC
 40
1.0
  9
$DIMGAP
 40
1.524
  9
$DIMJUST
 70
     0
  9
$DIMSD1
 70
     0
  9
$DIMSD2
 70
     0
  9
$DIMTOLJ
 70
     0
  9
$DIMTZIN
 70
     1
  9
$DIMALTZ
 70
     0
  9
$DIMALTTZ
 70
     0
  9
$DIMUPT
 70
     0
  9
$DIMDEC
 70
     2
  9
$DIMTDEC
 70
     2
  9
$DIMALTU
 70
     2
  9
$DIMALTTD
 70
     3
  9
$DIMTXSTY
  7
Standard
  9
$DIMAUNIT
 70
     0
  9
$DIMADEC
 70
     0
  9
$DIMALTRND
 40
0.0
  9
$DIMAZIN
 70
     0
  9
$DIMDSEP
 70
    44
  9
$DIMATFIT
 70
     3
  9
$DIMFRAC
 70
     0
  9
$DIMLDRBLK
  1

  9
$DIMLUNIT
 70
     2
  9
$DIMLWD
 70
    -2
  9
$DIMLWE
 70
    -2
  9
$DIMTMOVE
 70
     0
  9
$LUNITS
 70
     2
  9
$LUPREC
 70
     1
  9
$SKETCHINC
 40
1.0
  9
$FILLETRAD
 40
10.0
  9
$AUNITS
 70
     0
  9
$AUPREC
 70
     0
  9
$MENU
  1
.
  9
$ELEVATION
 40
0.0
  9
$PELEVATION
 40
0.0
  9
$THICKNESS
 40
0.0
  9
$LIMCHECK
 70
     0
  9
$CHAMFERA
 40
10.0
  9
$CHAMFERB
 40
10.0
  9
$CHAMFERC
 40
20.0
  9
$CHAMFERD
 40
0.0
  9
$SKPOLY
 70
     0
  9
$TDCREATE
 40
2454359.580962269
  9
$TDUCREATE
 40
2454359.205962269
  9
$TDUPDATE
 40
2454359.58096228
  9
$TDUUPDATE
 40
2454359.20596228
  9
$TDINDWG
 40
0.0000000116
  9
$TDUSRTIMER
 40
0.0000000116
  9
$USRTIMER
 70
     1
  9
$ANGBASE
 50
0.0
  9
$ANGDIR
 70
     0
  9
$PDMODE
 70
     0
  9
$PDSIZE
 40
-1.0
  9
$PLINEWID
 40
0.0
  9
$SPLFRAME
 70
     0
  9
$SPLINETYPE
 70
     6
  9
$SPLINESEGS
 70
     8
  9
$HANDSEED
  5
1FA
  9
$SURFTAB1
 70
     6
  9
$SURFTAB2
 70
     6
  9
$SURFTYPE
 70
     6
  9
$SURFU
 70
     6
  9
$SURFV
 70
     6
  9
$UCSBASE
  2

  9
$UCSNAME
  2

  9
$UCSORG
 10
0.0
 20
0.0
 30
0.0
  9
$UCSXDIR
 10
1.0
 20
0.0
 30
0.0
  9
$UCSYDIR
 10
0.0
 20
1.0
 30
0.0
  9
$UCSORTHOREF
  2

  9
$UCSORTHOVIEW
 70
     0
  9
$UCSORGTOP
 10
0.0
 20
0.0
 30
0.0
  9
$UCSORGBOTTOM
 10
0.0
 20
0.0
 30
0.0
  9
$UCSORGLEFT
 10
0.0
 20
0.0
 30
0.0
  9
$UCSORGRIGHT
 10
0.0
 20
0.0
 30
0.0
  9
$UCSORGFRONT
 10
0.0
 20
0.0
 30
0.0
  9
$UCSORGBACK
 10
0.0
 20
0.0
 30
0.0
  9
$PUCSBASE
  2

  9
$PUCSNAME
  2

  9
$PUCSORG
 10
0.0
 20
0.0
 30
0.0
  9
$PUCSXDIR
 10
1.0
 20
0.0
 30
0.0
  9
$PUCSYDIR
 10
0.0
 20
1.0
 30
0.0
  9
$PUCSORTHOREF
  2

  9
$PUCSORTHOVIEW
 70
     0
  9
$PUCSORGTOP
 10
0.0
 20
0.0
 30
0.0
  9
$PUCSORGBOTTOM
 10
0.0
 20
0.0
 30
0.0
  9
$PUCSORGLEFT
 10
0.0
 20
0.0
 30
0.0
  9
$PUCSORGRIGHT
 10
0.0
 20
0.0
 30
0.0
  9
$PUCSORGFRONT
 10
0.0
 20
0.0
 30
0.0
  9
$PUCSORGBACK
 10
0.0
 20
0.0
 30
0.0
  9
$USERI1
 70
     0
  9
$USERI2
 70
     0
  9
$USERI3
 70
     0
  9
$USERI4
 70
     0
  9
$USERI5
 70
     0
  9
$USERR1
 40
0.0
  9
$USERR2
 40
0.0
  9
$USERR3
 40
0.0
  9
$USERR4
 40
0.0
  9
$USERR5
 40
0.0
  9
$WORLDVIEW
 70
     1
  9
$SHADEDGE
 70
     3
  9
$SHADEDIF
 70
    70
  9
$TILEMODE
 70
     1
  9
$MAXACTVP
 70
    64
  9
$PINSBASE
 10
0.0
 20
0.0
 30
0.0
  9
$PLIMCHECK
 70
     0
  9
$PEXTMIN
 10
1.0000000000E+20
 20
1.0000000000E+20
 30
1.0000000000E+20
  9
$PEXTMAX
 10
-1.0000000000E+20
 20
-1.0000000000E+20
 30
-1.0000000000E+20
  9
$PLIMMIN
 10
0.0
 20
0.0
  9
$PLIMMAX
 10
420.0
 20
297.0
  9
$UNITMODE
 70
     0
  9
$VISRETAIN
 70
     1
  9
$PLINEGEN
 70
     0
  9
$PSLTSCALE
 70
     1
  9
$TREEDEPTH
 70
  3020
  9
$CMLSTYLE
  2
Standard
  9
$CMLJUST
 70
     0
  9
$CMLSCALE
 40
20.0
  9
$PROXYGRAPHICS
 70
     1
  9
$MEASUREMENT
 70
     1
  9
$CELWEIGHT
370
    -1
  9
$ENDCAPS
280
     0
  9
$JOINSTYLE
280
     0
  9
$LWDISPLAY
290
     1
  9
$INSUNITS
 70
     4
  9
$HYPERLINKBASE
  1

  9
$STYLESHEET
  1

  9
$XEDIT
290
     1
  9
$CEPSNTYPE
380
     0
  9
$PSTYLEMODE
290
     1
  9
$FINGERPRINTGUID
  2
{2079A648-398D-4BC5-AEA9-F2638DB7272A}
  9
$VERSIONGUID
  2
{FAEB1C32-E019-11D5-929B-00C0DF256EC4}
  9
$EXTNAMES
290
     1
  9
$PSVPSCALE
 40
0.0
  9
$OLESTARTUP
290
     0
  0
ENDSEC
  0
SECTION
  2
CLASSES
  0
CLASS
  1
ACDBDICTIONARYWDFLT
  2
AcDbDictionaryWithDefault
  3
ObjectDBX Classes
 90
        0
280
     0
281
     0
  0
CLASS
  1
ACDBPLACEHOLDER
  2
AcDbPlaceHolder
  3
ObjectDBX Classes
 90
        0
280
     0
281
     0
  0
CLASS
  1
LAYOUT
  2
AcDbLayout
  3
ObjectDBX Classes
 90
        0
280
     0
281
     0
  0
ENDSEC
  0
SECTION
  2
TABLES
  0
TABLE
  2
VPORT
  5
8
330
0
100
AcDbSymbolTable
 70
     1
  0
VPORT
  5
29
330
8
100
AcDbSymbolTableRecord
100
AcDbViewportTableRecord
  2
*Active
 70
     0
 10
0.0
 20
0.0
 11
1.0
 21
1.0
 12
105.0
 22
148.5
 13
0.0
 23
0.0
 14
10.0
 24
10.0
 15
10.0
 25
10.0
 16
0.0
 26
0.0
 36
1.0
 17
0.0
 27
0.0
 37
0.0
 40
297.0
 41
1.9729729729
 42
50.0
 43
0.0
 44
0.0
 50
0.0
 51
0.0
 71
     0
 72
  2000
 73
     1
 74
     3
 75
     0
 76
     0
 77
     0
 78
     0
281
     0
 65
     1
110
0.0
120
0.0
130
0.0
111
1.0
121
0.0
131
0.0
112
0.0
122
1.0
132
0.0
 79
     0
146
0.0
  0
ENDTAB
  0
TABLE
  2
LTYPE
  5
5
330
0
100
AcDbSymbolTable
 70
     6
  0
LTYPE
  5
14
330
5
100
AcDbSymbolTableRecord
100
AcDbLinetypeTableRecord
  2
ByBlock
 70
     0
  3

 72
    65
 73
     0
 40
0.0
  0
LTYPE
  5
15
330
5
100
AcDbSymbolTableRecord
100
AcDbLinetypeTableRecord
  2
ByLayer
 70
     0
  3

 72
    65
 73
     0
 40
0.0
  0
LTYPE
  5
16
330
5
100
AcDbSymbolTableRecord
100
AcDbLinetypeTableRecord
  2
Continuous
 70
     0
  3
Solid line
 72
    65
 73
     0
 40
0.0
  0
LTYPE
  5
2A
330
5
100
AcDbSymbolTableRecord
100
AcDbLinetypeTableRecord
  2
HIDDEN
 70
     0
  3
Hidden __ __ __ __ __ __ __ __ __ __ __ __ __ __
 72
    65
 73
     2
 40
1.905
 49
1.27
 74
     0
 49
-0.635
 74
     0
  0
LTYPE
  5
2B
330
5
100
AcDbSymbolTableRecord
100
AcDbLinetypeTableRecord
  2
PHANTOM
 70
     0
  3
Phantom ______  __  __  ______  __  __  ______
 72
    65
 73
     6
 40
12.7
 49
6.35
 74
     0
 49
-1.27
 74
     0
 49
1.27
 74
     0
 49
-1.27
 74
     0
 49
1.27
 74
     0
 49
-1.27
 74
     0
  0
LTYPE
  5
2C
330
5
100
AcDbSymbolTableRecord
100
AcDbLinetypeTableRecord
  2
CENTER
 70
     0
  3
Center ____ _ ____ _ ____ _ ____ _ ____ _ ____
 72
    65
 73
     4
 40
10.16
 49
6.35
 74
     0
 49
-1.27
 74
     0
 49
1.27
 74
     0
 49
-1.27
 74
     0
  0
LTYPE
  5
2D
330
5
100
AcDbSymbolTableRecord
100
AcDbLinetypeTableRecord
  2
CENTERX2
 70
     0
  3
Center (2x) ________  __  ________  __  _____
 72
    65
 73
     4
 40
20.32
 49
12.7
 74
     0
 49
-2.54
 74
     0
 49
2.54
 74
     0
 49
-2.54
 74
     0
  0
LTYPE
  5
2E
330
5
100
AcDbSymbolTableRecord
100
AcDbLinetypeTableRecord
  2
DOT2
 70
     0
  3
Dot (.5x) ........................................
 72
    65
 73
     2
 40
0.635
 49
0.0
 74
     0
 49
-0.635
 74
     0
  0
ENDTAB
  0
TABLE
  2
LAYER
  5
2
330
0
100
AcDbSymbolTable
 70
     4
  0
LAYER
  5
10
330
2
100
AcDbSymbolTableRecord
100
AcDbLayerTableRecord
  2
0
 70
     0
 62
     7
  6
Continuous
370
    -3
390
F
  0
LAYER
  5
2F
330
2
100
AcDbSymbolTableRecord
100
AcDbLayerTableRecord
  2
SLD-0
 70
     0
 62
     7
  6
Continuous
370
     0
390
F
  0
LAYER
  5
30
330
2
100
AcDbSymbolTableRecord
100
AcDbLayerTableRecord
  2
SLD-DEFPOINTS
 70
     0
 62
     7
  6
Continuous
370
     0
390
F
  0
LAYER
  5
11B
330
2
100
AcDbSymbolTableRecord
100
AcDbLayerTableRecord
  2
Defpoints
 70
     0
 62
     7
  6
Continuous
290
     0
370
    -3
390
F
  0
ENDTAB
  0
TABLE
  2
STYLE
  5
3
330
0
100
AcDbSymbolTable
 70
     4
  0
STYLE
  5
11
330
3
100
AcDbSymbolTableRecord
100
AcDbTextStyleTableRecord
  2
Standard
 70
     0
 40
0.0
 41
1.0
 50
0.0
 71
     0
 42
2.5
  3
txt
  4
bigfont
  0
STYLE
  5
34
330
3
100
AcDbSymbolTableRecord
100
AcDbTextStyleTableRecord
  2
SLDTEXTSTYLE0
 70
     0
 40
0.0
 41
0.7
 50
0.0
 71
     0
 42
0.2
  3
TXT
  4
bigfont
  0
STYLE
  5
128
330
3
100
AcDbSymbolTableRecord
100
AcDbTextStyleTableRecord
  2
SLDTEXTSTYLE1
 70
     0
 40
0.0
 41
0.75
 50
0.0
 71
     0
 42
0.2
  3
TXT
  4
bigfont
  0
STYLE
  5
136
330
3
100
AcDbSymbolTableRecord
100
AcDbTextStyleTableRecord
  2
SLDTEXTSTYLE2
 70
     0
 40
0.0
 41
0.96
 50
0.0
 71
     0
 42
0.2
  3
TXT
  4
bigfont
  0
ENDTAB
  0
TABLE
  2
VIEW
  5
6
330
0
100
AcDbSymbolTable
 70
     0
  0
ENDTAB
  0
TABLE
  2
UCS
  5
7
330
0
100
AcDbSymbolTable
 70
     0
  0
ENDTAB
  0
TABLE
  2
APPID
  5
9
330
0
100
AcDbSymbolTable
 70
     1
  0
APPID
  5
12
330
9
100
AcDbSymbolTableRecord
100
AcDbRegAppTableRecord
  2
ACAD
 70
     0
  0
ENDTAB
  0
TABLE
  2
DIMSTYLE
  5
A
330
0
100
AcDbSymbolTable
 70
     5
100
AcDbDimStyleTable
  0
DIMSTYLE
105
27
330
A
100
AcDbSymbolTableRecord
100
AcDbDimStyleTableRecord
  2
ISO-25
 70
     0
 41
2.5
 42
0.625
 43
3.75
 44
1.25
 73
     0
 74
     0
 77
     1
 78
     8
140
2.5
141
2.5
143
0.0393700787
147
0.625
171
     3
172
     1
271
     2
272
     2
274
     3
278
    44
283
     0
284
     8
340
11
  0
DIMSTYLE
105
129
102
{ACAD_REACTORS
330
11A
330
1BB
330
1D4
102
}
330
A
100
AcDbSymbolTableRecord
100
AcDbDimStyleTableRecord
  2
SLDDIMSTYLE0
 70
     0
 41
3.0
 44
0.0
 73
     0
 74
     0
 77
     3
 78
    12
140
3.5
147
0.875
173
     1
271
     1
272
     2
284
    12
340
128
341
12A
343
12A
344
12A
  0
DIMSTYLE
105
146
102
{ACAD_REACTORS
330
138
102
}
330
A
100
AcDbSymbolTableRecord
100
AcDbDimStyleTableRecord
  2
SLDDIMSTYLE1
 70
     0
 41
3.0
 44
0.0
 73
     0
 74
     0
 77
     3
 78
    12
140
3.5
147
0.875
173
     1
271
     0
272
     2
284
    12
340
128
341
54
343
54
344
54
  0
DIMSTYLE
105
159
102
{ACAD_REACTORS
330
14F
330
192
330
1A9
102
}
330
A
100
AcDbSymbolTableRecord
100
AcDbDimStyleTableRecord
  2
SLDDIMSTYLE2
 70
     0
 41
3.0
 44
0.0
 78
    12
140
3.5
147
0.875
172
     1
173
     1
271
     0
272
     2
284
    12
340
128
341
12A
343
12A
344
12A
  0
DIMSTYLE
105
16F
102
{ACAD_REACTORS
330
162
330
17A
102
}
330
A
100
AcDbSymbolTableRecord
100
AcDbDimStyleTableRecord
  2
SLDDIMSTYLE3
 70
     0
 41
3.0
 44
0.0
 73
     0
 74
     0
 77
     3
 78
    12
140
3.5
147
0.875
173
     1
271
     0
272
     2
284
    12
340
128
341
12A
343
12A
344
12A
  0
ENDTAB
  0
TABLE
  2
BLOCK_RECORD
  5
1
330
0
100
AcDbSymbolTable
 70
    17
  0
BLOCK_RECORD
  5
1F
330
1
100
AcDbSymbolTableRecord
100
AcDbBlockTableRecord
  2
*Model_Space
340
22
  0
BLOCK_RECORD
  5
1B
330
1
100
AcDbSymbolTableRecord
100
AcDbBlockTableRecord
  2
*Paper_Space
340
1E
  0
BLOCK_RECORD
  5
23
330
1
100
AcDbSymbolTableRecord
100
AcDbBlockTableRecord
  2
*Paper_Space0
340
26
  0
BLOCK_RECORD
  5
31
330
1
100
AcDbSymbolTableRecord
100
AcDbBlockTableRecord
  2
注記
340
0
  0
BLOCK_RECORD
  5
37
330
1
100
AcDbSymbolTableRecord
100
AcDbBlockTableRecord
  2
SW_CENTERMARK0
340
0
102
{BLKREFS
331
1F6
102
}
  0
BLOCK_RECORD
  5
42
330
1
100
AcDbSymbolTableRecord
100
AcDbBlockTableRecord
  2
SW_CENTERMARK1
340
0
102
{BLKREFS
331
1F7
102
}
  0
BLOCK_RECORD
  5
49
330
1
100
AcDbSymbolTableRecord
100
AcDbBlockTableRecord
  2
SW_CENTERMARK2
340
0
102
{BLKREFS
331
1F8
102
}
  0
BLOCK_RECORD
  5
54
330
1
100
AcDbSymbolTableRecord
100
AcDbBlockTableRecord
  2
_OPEN30
340
0
102
{BLKREFS
331
13F
331
13E
331
147
331
148
331
1F9
102
}
  0
BLOCK_RECORD
  5
11C
330
1
100
AcDbSymbolTableRecord
100
AcDbBlockTableRecord
  2
*D6
340
0
  0
BLOCK_RECORD
  5
12A
330
1
100
AcDbSymbolTableRecord
100
AcDbBlockTableRecord
  2
_None
340
0
102
{BLKREFS
331
121
331
120
331
154
331
168
331
167
331
180
331
17F
331
197
331
1AE
331
1C1
331
1C0
331
1DA
331
1D9
102
}
  0
BLOCK_RECORD
  5
139
330
1
100
AcDbSymbolTableRecord
100
AcDbBlockTableRecord
  2
*D8
340
0
  0
BLOCK_RECORD
  5
150
330
1
100
AcDbSymbolTableRecord
100
AcDbBlockTableRecord
  2
*D9
340
0
  0
BLOCK_RECORD
  5
163
330
1
100
AcDbSymbolTableRecord
100
AcDbBlockTableRecord
  2
*D10
340
0
  0
BLOCK_RECORD
  5
17B
330
1
100
AcDbSymbolTableRecord
100
AcDbBlockTableRecord
  2
*D11
340
0
  0
BLOCK_RECORD
  5
193
330
1
100
AcDbSymbolTableRecord
100
AcDbBlockTableRecord
  2
*D12
340
0
  0
BLOCK_RECORD
  5
1AA
330
1
100
AcDbSymbolTableRecord
100
AcDbBlockTableRecord
  2
*D13
340
0
  0
BLOCK_RECORD
  5
1BC
330
1
100
AcDbSymbolTableRecord
100
AcDbBlockTableRecord
  2
*D14
340
0
  0
BLOCK_RECORD
  5
1D5
330
1
100
AcDbSymbolTableRecord
100
AcDbBlockTableRecord
  2
*D15
340
0
  0
BLOCK_RECORD
  5
1EF
330
1
100
AcDbSymbolTableRecord
100
AcDbBlockTableRecord
  2
SW_NOTE_0
340
0
102
{BLKREFS
331
1F4
102
}
  0
ENDTAB
  0
ENDSEC
  0
SECTION
  2
BLOCKS
  0
BLOCK
  5
20
330
1F
100
AcDbEntity
  8
0
100
AcDbBlockBegin
  2
*Model_Space
 70
     0
 71
     0
 10
0.0
 20
0.0
 30
0.0
  3
*Model_Space
  1

  0
ENDBLK
  5
21
330
1F
100
AcDbEntity
  8
0
100
AcDbBlockEnd
  0
BLOCK
  5
1C
330
1B
100
AcDbEntity
 67
     1
  8
0
100
AcDbBlockBegin
  2
*Paper_Space
 70
     0
 71
     0
 10
0.0
 20
0.0
 30
0.0
  3
*Paper_Space
  1

  0
ENDBLK
  5
1D
330
1B
100
AcDbEntity
 67
     1
  8
0
100
AcDbBlockEnd
  0
BLOCK
  5
24
330
23
100
AcDbEntity
  8
0
100
AcDbBlockBegin
  2
*Paper_Space0
 70
     0
 71
     0
 10
0.0
 20
0.0
 30
0.0
  3
*Paper_Space0
  1

  0
ENDBLK
  5
25
330
23
100
AcDbEntity
  8
0
100
AcDbBlockEnd
  0
BLOCK
  5
32
330
31
100
AcDbEntity
  8
0
100
AcDbBlockBegin
  2
注記
 70
     0
 71
     0
 10
0.0
 20
0.0
 30
0.0
  3
注記
  1

  0
MTEXT
  5
35
330
31
100
AcDbEntity
  8
0
  6
Continuous
 62
     7
370
     0
100
AcDbMText
 10
0.2636785918
 20
9.0739778448
 30
0.0
 40
3.5
 41
0.0
 71
     1
 72
     1
  1
１．特記ナキ角部ハ、バリ　カエリノ無キコト。
  7
SLDTEXTSTYLE0
 73
     1
 44
1.0
  0
MTEXT
  5
36
330
31
100
AcDbEntity
  8
0
  6
Continuous
 62
     7
370
     0
100
AcDbMText
 10
0.2636785918
 20
3.5759549983
 30
0.0
 40
3.5
 41
0.0
 71
     1
 72
     1
  1
２．特記ナキ隅部ハ、Ｒ０．４ＭＡＸトスル。
  7
SLDTEXTSTYLE0
 73
     1
 44
1.0
  0
ENDBLK
  5
33
330
31
100
AcDbEntity
  8
0
100
AcDbBlockEnd
  0
BLOCK
  5
38
330
37
100
AcDbEntity
  8
0
100
AcDbBlockBegin
  2
SW_CENTERMARK0
 70
     0
 71
     0
 10
0.0
 20
0.0
 30
0.0
  3
SW_CENTERMARK0
  1

  0
LINE
  5
3A
330
37
100
AcDbEntity
  8
SLD-0
  6
Continuous
 62
     7
100
AcDbLine
 10
141.2771902497
 20
140.9311560513
 30
0.0
 11
141.2771902497
 21
143.4311560513
 31
0.0
  0
LINE
  5
3B
330
37
100
AcDbEntity
  8
SLD-0
  6
Continuous
 62
     7
100
AcDbLine
 10
141.2771902497
 20
140.9311560513
 30
0.0
 11
138.7771902497
 21
140.9311560513
 31
0.0
  0
LINE
  5
3C
330
37
100
AcDbEntity
  8
SLD-0
  6
Continuous
 62
     7
100
AcDbLine
 10
141.2771902497
 20
140.9311560513
 30
0.0
 11
141.2771902497
 21
138.4311560513
 31
0.0
  0
LINE
  5
3D
330
37
100
AcDbEntity
  8
SLD-0
  6
Continuous
 62
     7
100
AcDbLine
 10
141.2771902497
 20
140.9311560513
 30
0.0
 11
143.7771902497
 21
140.9311560513
 31
0.0
  0
LINE
  5
3E
330
37
100
AcDbEntity
  8
SLD-0
  6
Continuous
 62
     7
100
AcDbLine
 10
141.2771902497
 20
145.9311560513
 30
0.0
 11
141.2771902497
 21
148.8311560513
 31
0.0
  0
LINE
  5
3F
330
37
100
AcDbEntity
  8
SLD-0
  6
Continuous
 62
     7
100
AcDbLine
 10
136.2771902497
 20
140.9311560513
 30
0.0
 11
133.3771902497
 21
140.9311560513
 31
0.0
  0
LINE
  5
40
330
37
100
AcDbEntity
  8
SLD-0
  6
Continuous
 62
     7
100
AcDbLine
 10
141.2771902497
 20
135.9311560513
 30
0.0
 11
141.2771902497
 21
133.0311560513
 31
0.0
  0
LINE
  5
41
330
37
100
AcDbEntity
  8
SLD-0
  6
Continuous
 62
     7
100
AcDbLine
 10
146.2771902497
 20
140.9311560513
 30
0.0
 11
149.1771902497
 21
140.9311560513
 31
0.0
  0
ENDBLK
  5
39
330
37
100
AcDbEntity
  8
0
100
AcDbBlockEnd
  0
BLOCK
  5
43
330
42
100
AcDbEntity
  8
0
100
AcDbBlockBegin
  2
SW_CENTERMARK1
 70
     0
 71
     0
 10
0.0
 20
0.0
 30
0.0
  3
SW_CENTERMARK1
  1

  0
LINE
  5
45
330
42
100
AcDbEntity
  8
SLD-0
  6
Continuous
 62
     7
100
AcDbLine
 10
65.2196103241
 20
140.9311560513
 30
0.0
 11
65.2196103241
 21
143.4311560513
 31
0.0
  0
LINE
  5
46
330
42
100
AcDbEntity
  8
SLD-0
  6
Continuous
 62
     7
100
AcDbLine
 10
65.2196103241
 20
140.9311560513
 30
0.0
 11
62.7196103241
 21
140.9311560513
 31
0.0
  0
LINE
  5
47
330
42
100
AcDbEntity
  8
SLD-0
  6
Continuous
 62
     7
100
AcDbLine
 10
65.2196103241
 20
140.9311560513
 30
0.0
 11
65.2196103241
 21
138.4311560513
 31
0.0
  0
LINE
  5
48
330
42
100
AcDbEntity
  8
SLD-0
  6
Continuous
 62
     7
100
AcDbLine
 10
65.2196103241
 20
140.9311560513
 30
0.0
 11
67.7196103241
 21
140.9311560513
 31
0.0
  0
ENDBLK
  5
44
330
42
100
AcDbEntity
  8
0
100
AcDbBlockEnd
  0
BLOCK
  5
4A
330
49
100
AcDbEntity
  8
0
100
AcDbBlockBegin
  2
SW_CENTERMARK2
 70
     0
 71
     0
 10
0.0
 20
0.0
 30
0.0
  3
SW_CENTERMARK2
  1

  0
LINE
  5
4C
330
49
100
AcDbEntity
  8
SLD-0
  6
Continuous
 62
     7
100
AcDbLine
 10
65.2196103241
 20
140.9311560513
 30
0.0
 11
65.2196103241
 21
143.4311560513
 31
0.0
  0
LINE
  5
4D
330
49
100
AcDbEntity
  8
SLD-0
  6
Continuous
 62
     7
100
AcDbLine
 10
65.2196103241
 20
140.9311560513
 30
0.0
 11
62.7196103241
 21
140.9311560513
 31
0.0
  0
LINE
  5
4E
330
49
100
AcDbEntity
  8
SLD-0
  6
Continuous
 62
     7
100
AcDbLine
 10
65.2196103241
 20
140.9311560513
 30
0.0
 11
65.2196103241
 21
138.4311560513
 31
0.0
  0
LINE
  5
4F
330
49
100
AcDbEntity
  8
SLD-0
  6
Continuous
 62
     7
100
AcDbLine
 10
65.2196103241
 20
140.9311560513
 30
0.0
 11
67.7196103241
 21
140.9311560513
 31
0.0
  0
LINE
  5
50
330
49
100
AcDbEntity
  8
SLD-0
  6
Continuous
 62
     7
100
AcDbLine
 10
65.2196103241
 20
145.9311560513
 30
0.0
 11
65.2196103241
 21
152.4311560513
 31
0.0
  0
LINE
  5
51
330
49
100
AcDbEntity
  8
SLD-0
  6
Continuous
 62
     7
100
AcDbLine
 10
60.2196103241
 20
140.9311560513
 30
0.0
 11
53.7196103241
 21
140.9311560513
 31
0.0
  0
LINE
  5
52
330
49
100
AcDbEntity
  8
SLD-0
  6
Continuous
 62
     7
100
AcDbLine
 10
65.2196103241
 20
135.9311560513
 30
0.0
 11
65.2196103241
 21
129.4311560513
 31
0.0
  0
LINE
  5
53
330
49
100
AcDbEntity
  8
SLD-0
  6
Continuous
 62
     7
100
AcDbLine
 10
70.2196103241
 20
140.9311560513
 30
0.0
 11
76.7196103241
 21
140.9311560513
 31
0.0
  0
ENDBLK
  5
4B
330
49
100
AcDbEntity
  8
0
100
AcDbBlockEnd
  0
BLOCK
  5
55
330
54
100
AcDbEntity
  8
0
100
AcDbBlockBegin
  2
_OPEN30
 70
     0
 71
     0
 10
0.0
 20
0.0
 30
0.0
  3
_OPEN30
  1

  0
LINE
  5
57
330
54
100
AcDbEntity
  8
SLD-0
  6
Continuous
100
AcDbLine
 10
-1.0
 20
0.267949
 30
0.0
 11
0.0
 21
0.0
 31
0.0
  0
LINE
  5
58
330
54
100
AcDbEntity
  8
SLD-0
  6
Continuous
100
AcDbLine
 10
0.0
 20
0.0
 30
0.0
 11
-1.0
 21
-0.267949
 31
0.0
  0
LINE
  5
59
330
54
100
AcDbEntity
  8
SLD-0
  6
Continuous
100
AcDbLine
 10
0.0
 20
0.0
 30
0.0
 11
-1.0
 21
0.0
 31
0.0
  0
ENDBLK
  5
56
330
54
100
AcDbEntity
  8
0
100
AcDbBlockEnd
  0
BLOCK
  5
126
330
11C
100
AcDbEntity
  8
0
100
AcDbBlockBegin
  2
*D6
 70
     1
 71
     0
 10
0.0
 20
0.0
 30
0.0
  3
*D6
  1

  0
LINE
  5
12D
330
11C
100
AcDbEntity
  8
SLD-0
100
AcDbLine
 10
141.2771902497
 20
150.4311560513
 30
0.0
 11
141.2771902497
 21
161.9049456621
 31
0.0
  0
LINE
  5
12E
330
11C
100
AcDbEntity
  8
SLD-0
100
AcDbLine
 10
117.7771902497
 20
147.9311560513
 30
0.0
 11
117.7771902497
 21
161.9049456621
 31
0.0
  0
LINE
  5
12F
330
11C
100
AcDbEntity
  8
SLD-0
100
AcDbLine
 10
141.2771902497
 20
160.9049456621
 30
0.0
 11
117.7771902497
 21
160.9049456621
 31
0.0
  0
LINE
  5
130
330
11C
100
AcDbEntity
  8
SLD-0
100
AcDbLine
 10
138.2771902497
 20
161.7087926621
 30
0.0
 11
141.2771902497
 21
160.9049456621
 31
0.0
  0
LINE
  5
131
330
11C
100
AcDbEntity
  8
SLD-0
100
AcDbLine
 10
141.2771902497
 20
160.9049456621
 30
0.0
 11
138.2771902497
 21
160.1010986621
 31
0.0
  0
LINE
  5
132
330
11C
100
AcDbEntity
  8
SLD-0
100
AcDbLine
 10
141.2771902497
 20
160.9049456621
 30
0.0
 11
138.2771902497
 21
160.9049456621
 31
0.0
  0
LINE
  5
133
330
11C
100
AcDbEntity
  8
SLD-0
100
AcDbLine
 10
120.7771902497
 20
160.1010986621
 30
0.0
 11
117.7771902497
 21
160.9049456621
 31
0.0
  0
LINE
  5
134
330
11C
100
AcDbEntity
  8
SLD-0
100
AcDbLine
 10
117.7771902497
 20
160.9049456621
 30
0.0
 11
120.7771902497
 21
161.7087926621
 31
0.0
  0
LINE
  5
135
330
11C
100
AcDbEntity
  8
SLD-0
100
AcDbLine
 10
117.7771902497
 20
160.9049456621
 30
0.0
 11
120.7771902497
 21
160.9049456621
 31
0.0
  0
MTEXT
  5
137
330
11C
100
AcDbEntity
  8
SLD-0
100
AcDbMText
 10
125.4542901305
 20
165.4316394744
 30
0.1
 40
3.5
 41
0.0
 71
     1
 72
     1
  1
23.5
  7
SLDTEXTSTYLE2
 73
     1
 44
1.0
  0
ENDBLK
  5
127
330
11C
100
AcDbEntity
  8
0
100
AcDbBlockEnd
  0
BLOCK
  5
12B
330
12A
100
AcDbEntity
  8
0
100
AcDbBlockBegin
  2
_None
 70
     0
 71
     0
 10
0.0
 20
0.0
 30
0.0
  3
_None
  1

  0
ENDBLK
  5
12C
330
12A
100
AcDbEntity
  8
0
100
AcDbBlockEnd
  0
BLOCK
  5
144
330
139
100
AcDbEntity
  8
0
100
AcDbBlockBegin
  2
*D8
 70
     1
 71
     0
 10
0.0
 20
0.0
 30
0.0
  3
*D8
  1

  0
INSERT
  5
147
330
139
100
AcDbEntity
  8
SLD-0
 62
     7
100
AcDbBlockReference
  2
_OPEN30
 10
106.2343316293
 20
146.9311560513
 30
0.1
 41
3.0
 42
3.0
 50
90.0
  0
INSERT
  5
148
330
139
100
AcDbEntity
  8
SLD-0
 62
     7
100
AcDbBlockReference
  2
_OPEN30
 10
106.2343316293
 20
134.9311560513
 30
0.1
 41
3.0
 42
3.0
 50
270.0
  0
LINE
  5
149
330
139
100
AcDbEntity
  8
SLD-0
 62
     7
100
AcDbLine
 10
130.2771902497
 20
146.9311560513
 30
0.0
 11
105.2343316293
 21
146.9311560513
 31
0.0
  0
LINE
  5
14A
330
139
100
AcDbEntity
  8
SLD-0
 62
     7
100
AcDbLine
 10
130.2771902497
 20
134.9311560513
 30
0.0
 11
105.2343316293
 21
134.9311560513
 31
0.0
  0
LINE
  5
14B
330
139
100
AcDbEntity
  8
SLD-0
 62
     7
100
AcDbLine
 10
106.2343316293
 20
146.9311560513
 30
0.0
 11
106.2343316293
 21
134.9311560513
 31
0.0
  0
LINE
  5
14C
330
139
100
AcDbEntity
  8
SLD-0
 62
     7
100
AcDbLine
 10
106.2343316293
 20
134.9311560513
 30
0.0
 11
106.2343316293
 21
118.9388519079
 31
0.0
  0
MTEXT
  5
14D
330
139
100
AcDbEntity
  8
SLD-0
 62
     7
100
AcDbMText
 10
101.4602309099
 20
120.5263519079
 30
0.0
 40
3.5
 41
0.0
 71
     1
 72
     1
  1
%%c
  7
SLDTEXTSTYLE2
 11
-7.044197039909883E-15
 21
1.0
 31
0.0
 73
     1
 44
1.0
  0
MTEXT
  5
14E
330
139
100
AcDbEntity
  8
SLD-0
 62
     7
100
AcDbMText
 10
101.4602309099
 20
125.159128361
 30
0.0
 40
3.5
 41
0.0
 71
     1
 72
     1
  1
12
  7
SLDTEXTSTYLE2
 11
-7.044197039909883E-15
 21
1.0
 31
0.0
 73
     1
 44
1.0
  0
ENDBLK
  5
145
330
139
100
AcDbEntity
  8
0
100
AcDbBlockEnd
  0
BLOCK
  5
157
330
150
100
AcDbEntity
  8
0
100
AcDbBlockBegin
  2
*D9
 70
     1
 71
     0
 10
0.0
 20
0.0
 30
0.0
  3
*D9
  1

  0
LINE
  5
15A
330
150
100
AcDbEntity
  8
SLD-0
 62
     7
100
AcDbLine
 10
144.0433655248
 20
146.2554658044
 30
0.0
 11
149.5433672949
 21
156.8418206645
 31
0.0
  0
LINE
  5
15B
330
150
100
AcDbEntity
  8
SLD-0
 62
     7
100
AcDbLine
 10
149.5433672949
 20
156.8418206645
 30
0.0
 11
170.5974677716
 21
156.8418206645
 31
0.0
  0
LINE
  5
15C
330
150
100
AcDbEntity
  8
SLD-0
 62
     7
100
AcDbLine
 10
146.1397748994
 20
148.5470237316
 30
0.0
 11
144.0433655248
 21
146.2554658044
 31
0.0
  0
LINE
  5
15D
330
150
100
AcDbEntity
  8
SLD-0
 62
     7
100
AcDbLine
 10
144.0433655248
 20
146.2554658044
 30
0.0
 11
144.7131314253
 21
149.2882176304
 31
0.0
  0
LINE
  5
15E
330
150
100
AcDbEntity
  8
SLD-0
 62
     7
100
AcDbLine
 10
144.0433655248
 20
146.2554658044
 30
0.0
 11
145.4264531623
 21
148.917620681
 31
0.0
  0
MTEXT
  5
15F
330
150
100
AcDbEntity
  8
SLD-0
 62
     7
100
AcDbMText
 10
152.7183672949
 20
161.3685144769
 30
0.1
 40
3.5
 41
0.0
 71
     1
 72
     1
  1
M
  7
SLDTEXTSTYLE2
 73
     1
 44
1.0
  0
MTEXT
  5
160
330
150
100
AcDbEntity
  8
SLD-0
 62
     7
100
AcDbMText
 10
154.7548173545
 20
161.3685144769
 30
0.1
 40
3.5
 41
0.0
 71
     1
 72
     1
  1
12
  7
SLDTEXTSTYLE2
 73
     1
 44
1.0
  0
MTEXT
  5
161
330
150
100
AcDbEntity
  8
SLD-0
 62
     7
100
AcDbMText
 10
158.8277174736
 20
161.3685144769
 30
0.1
 40
3.5
 41
0.0
 71
     1
 72
     1
  1
xP1.0
  7
SLDTEXTSTYLE2
 73
     1
 44
1.0
  0
ENDBLK
  5
158
330
150
100
AcDbEntity
  8
0
100
AcDbBlockEnd
  0
BLOCK
  5
16D
330
163
100
AcDbEntity
  8
0
100
AcDbBlockBegin
  2
*D10
 70
     1
 71
     0
 10
0.0
 20
0.0
 30
0.0
  3
*D10
  1

  0
LINE
  5
170
330
163
100
AcDbEntity
  8
SLD-0
 62
     7
100
AcDbLine
 10
57.2196103241
 20
146.0542616769
 30
0.0
 11
57.2196103241
 21
157.722126036
 31
0.0
  0
LINE
  5
171
330
163
100
AcDbEntity
  8
SLD-0
 62
     7
100
AcDbLine
 10
73.2196103241
 20
146.0542616769
 30
0.0
 11
73.2196103241
 21
157.722126036
 31
0.0
  0
LINE
  5
172
330
163
100
AcDbEntity
  8
SLD-0
 62
     7
100
AcDbLine
 10
57.2196103241
 20
156.722126036
 30
0.0
 11
73.2196103241
 21
156.722126036
 31
0.0
  0
LINE
  5
173
330
163
100
AcDbEntity
  8
SLD-0
 62
     7
100
AcDbLine
 10
60.2196103241
 20
155.918279036
 30
0.0
 11
57.2196103241
 21
156.722126036
 31
0.0
  0
LINE
  5
174
330
163
100
AcDbEntity
  8
SLD-0
 62
     7
100
AcDbLine
 10
57.2196103241
 20
156.722126036
 30
0.0
 11
60.2196103241
 21
157.525973036
 31
0.0
  0
LINE
  5
175
330
163
100
AcDbEntity
  8
SLD-0
 62
     7
100
AcDbLine
 10
57.2196103241
 20
156.722126036
 30
0.0
 11
60.2196103241
 21
156.722126036
 31
0.0
  0
LINE
  5
176
330
163
100
AcDbEntity
  8
SLD-0
 62
     7
100
AcDbLine
 10
70.2196103241
 20
157.525973036
 30
0.0
 11
73.2196103241
 21
156.722126036
 31
0.0
  0
LINE
  5
177
330
163
100
AcDbEntity
  8
SLD-0
 62
     7
100
AcDbLine
 10
73.2196103241
 20
156.722126036
 30
0.0
 11
70.2196103241
 21
155.918279036
 31
0.0
  0
LINE
  5
178
330
163
100
AcDbEntity
  8
SLD-0
 62
     7
100
AcDbLine
 10
73.2196103241
 20
156.722126036
 30
0.0
 11
70.2196103241
 21
156.722126036
 31
0.0
  0
MTEXT
  5
179
330
163
100
AcDbEntity
  8
SLD-0
 62
     7
100
AcDbMText
 10
63.1831602645
 20
161.2488198483
 30
0.1
 40
3.5
 41
0.0
 71
     1
 72
     1
  1
16
  7
SLDTEXTSTYLE2
 73
     1
 44
1.0
  0
ENDBLK
  5
16E
330
163
100
AcDbEntity
  8
0
100
AcDbBlockEnd
  0
BLOCK
  5
186
330
17B
100
AcDbEntity
  8
0
100
AcDbBlockBegin
  2
*D11
 70
     1
 71
     0
 10
0.0
 20
0.0
 30
0.0
  3
*D11
  1

  0
LINE
  5
188
330
17B
100
AcDbEntity
  8
SLD-0
 62
     7
100
AcDbLine
 10
60.0965046984
 20
148.9311560513
 30
0.0
 11
48.1337778633
 21
148.9311560513
 31
0.0
  0
LINE
  5
189
330
17B
100
AcDbEntity
  8
SLD-0
 62
     7
100
AcDbLine
 10
60.0965046984
 20
132.9311560513
 30
0.0
 11
48.1337778633
 21
132.9311560513
 31
0.0
  0
LINE
  5
18A
330
17B
100
AcDbEntity
  8
SLD-0
 62
     7
100
AcDbLine
 10
49.1337778633
 20
148.9311560513
 30
0.0
 11
49.1337778633
 21
132.9311560513
 31
0.0
  0
LINE
  5
18B
330
17B
100
AcDbEntity
  8
SLD-0
 62
     7
100
AcDbLine
 10
48.3299308633
 20
145.9311560513
 30
0.0
 11
49.1337778633
 21
148.9311560513
 31
0.0
  0
LINE
  5
18C
330
17B
100
AcDbEntity
  8
SLD-0
 62
     7
100
AcDbLine
 10
49.1337778633
 20
148.9311560513
 30
0.0
 11
49.9376248633
 21
145.9311560513
 31
0.0
  0
LINE
  5
18D
330
17B
100
AcDbEntity
  8
SLD-0
 62
     7
100
AcDbLine
 10
49.1337778633
 20
148.9311560513
 30
0.0
 11
49.1337778633
 21
145.9311560513
 31
0.0
  0
LINE
  5
18E
330
17B
100
AcDbEntity
  8
SLD-0
 62
     7
100
AcDbLine
 10
49.9376248633
 20
135.9311560513
 30
0.0
 11
49.1337778633
 21
132.9311560513
 31
0.0
  0
LINE
  5
18F
330
17B
100
AcDbEntity
  8
SLD-0
 62
     7
100
AcDbLine
 10
49.1337778633
 20
132.9311560513
 30
0.0
 11
48.3299308633
 21
135.9311560513
 31
0.0
  0
LINE
  5
190
330
17B
100
AcDbEntity
  8
SLD-0
 62
     7
100
AcDbLine
 10
49.1337778633
 20
132.9311560513
 30
0.0
 11
49.1337778633
 21
135.9311560513
 31
0.0
  0
MTEXT
  5
191
330
17B
100
AcDbEntity
  8
SLD-0
 62
     7
100
AcDbMText
 10
44.6070840509
 20
138.8947059917
 30
0.1
 40
3.5
 41
0.0
 71
     1
 72
     1
  1
16
  7
SLDTEXTSTYLE2
 11
6.123031769111886E-17
 21
1.0
 31
0.0
 73
     1
 44
1.0
  0
ENDBLK
  5
187
330
17B
100
AcDbEntity
  8
0
100
AcDbBlockEnd
  0
BLOCK
  5
19A
330
193
100
AcDbEntity
  8
0
100
AcDbBlockBegin
  2
*D12
 70
     1
 71
     0
 10
0.0
 20
0.0
 30
0.0
  3
*D12
  1

  0
ARC
  5
19C
330
193
100
AcDbEntity
  8
SLD-0
 62
     7
100
AcDbCircle
 10
65.2196103241
 20
140.9311560513
 30
0.0
 40
9.000000000000018
100
AcDbArc
 50
339.0741472952
 51
41.9052041702
  0
ARC
  5
19D
330
193
100
AcDbEntity
  8
SLD-0
 62
     7
100
AcDbCircle
 10
65.2196103241
 20
140.9311560513
 30
0.0
 40
9.000000000000016
100
AcDbArc
 50
209.2248206783
 51
290.9258527048
  0
LINE
  5
19E
330
193
100
AcDbEntity
  8
SLD-0
 62
     7
100
AcDbLine
 10
72.540715061
 20
146.1657931381
 30
0.0
 11
86.5879632743
 21
156.2096661746
 31
0.0
  0
LINE
  5
19F
330
193
100
AcDbEntity
  8
SLD-0
 62
     7
100
AcDbLine
 10
57.8985055871
 20
135.6965189644
 30
0.0
 11
53.8312251777
 21
132.7883872495
 31
0.0
  0
LINE
  5
1A0
330
193
100
AcDbEntity
  8
SLD-0
 62
     7
100
AcDbLine
 10
72.540715061
 20
146.1657931381
 30
0.0
 11
57.8985055871
 21
135.6965189644
 31
0.0
  0
LINE
  5
1A1
330
193
100
AcDbEntity
  8
SLD-0
 62
     7
100
AcDbLine
 10
54.9905987505
 20
134.6055341665
 30
0.0
 11
57.8985055871
 21
135.6965189644
 31
0.0
  0
LINE
  5
1A2
330
193
100
AcDbEntity
  8
SLD-0
 62
     7
100
AcDbLine
 10
57.8985055871
 20
135.6965189644
 30
0.0
 11
55.9256759324
 21
133.2977457044
 31
0.0
  0
LINE
  5
1A3
330
193
100
AcDbEntity
  8
SLD-0
 62
     7
100
AcDbLine
 10
57.8985055871
 20
135.6965189644
 30
0.0
 11
55.4581373415
 21
133.9516399355
 31
0.0
  0
LINE
  5
1A4
330
193
100
AcDbEntity
  8
SLD-0
 62
     7
100
AcDbLine
 10
75.4486218976
 20
147.256777936
 30
0.0
 11
72.540715061
 21
146.1657931381
 31
0.0
  0
LINE
  5
1A5
330
193
100
AcDbEntity
  8
SLD-0
 62
     7
100
AcDbLine
 10
72.540715061
 20
146.1657931381
 30
0.0
 11
74.5135447157
 21
148.5645663981
 31
0.0
  0
LINE
  5
1A6
330
193
100
AcDbEntity
  8
SLD-0
 62
     7
100
AcDbLine
 10
72.540715061
 20
146.1657931381
 30
0.0
 11
74.9810833066
 21
147.910672167
 31
0.0
  0
MTEXT
  5
1A7
330
193
100
AcDbEntity
  8
SLD-0
 62
     7
100
AcDbMText
 10
74.7870080366
 20
153.3247727954
 30
0.1
 40
3.5
 41
0.0
 71
     1
 72
     1
  1
%%c
  7
SLDTEXTSTYLE2
 11
0.8134560818789912
 21
0.5816263429849786
 31
0.0
 73
     1
 44
1.0
  0
MTEXT
  5
1A8
330
193
100
AcDbEntity
  8
SLD-0
 62
     7
100
AcDbMText
 10
79.3562629834
 20
156.5918195408
 30
0.1
 40
3.5
 41
0.0
 71
     1
 72
     1
  1
18
  7
SLDTEXTSTYLE2
 11
0.8134560818789912
 21
0.5816263429849786
 31
0.0
 73
     1
 44
1.0
  0
ENDBLK
  5
19B
330
193
100
AcDbEntity
  8
0
100
AcDbBlockEnd
  0
BLOCK
  5
1B1
330
1AA
100
AcDbEntity
  8
0
100
AcDbBlockBegin
  2
*D13
 70
     1
 71
     0
 10
0.0
 20
0.0
 30
0.0
  3
*D13
  1

  0
LINE
  5
1B3
330
1AA
100
AcDbEntity
  8
SLD-0
 62
     7
100
AcDbLine
 10
66.1902417282
 20
139.1824780714
 30
0.0
 11
74.5585437668
 21
124.1062447655
 31
0.0
  0
LINE
  5
1B4
330
1AA
100
AcDbEntity
  8
SLD-0
 62
     7
100
AcDbLine
 10
74.5585437668
 20
124.1062447655
 30
0.0
 11
91.5397441244
 21
124.1062447655
 31
0.0
  0
LINE
  5
1B5
330
1AA
100
AcDbEntity
  8
SLD-0
 62
     7
100
AcDbLine
 10
66.9433540604
 20
136.1693415304
 30
0.0
 11
66.1902417282
 21
139.1824780714
 31
0.0
  0
LINE
  5
1B6
330
1AA
100
AcDbEntity
  8
SLD-0
 62
     7
100
AcDbLine
 10
66.1902417282
 20
139.1824780714
 30
0.0
 11
68.3490236085
 21
136.9495806728
 31
0.0
  0
LINE
  5
1B7
330
1AA
100
AcDbEntity
  8
SLD-0
 62
     7
100
AcDbLine
 10
66.1902417282
 20
139.1824780714
 30
0.0
 11
67.6461888345
 21
136.5594611016
 31
0.0
  0
MTEXT
  5
1B8
330
1AA
100
AcDbEntity
  8
SLD-0
 62
     7
100
AcDbMText
 10
77.7335437668
 20
128.6329385778
 30
0.1
 40
3.5
 41
0.0
 71
     1
 72
     1
  1
M
  7
SLDTEXTSTYLE2
 73
     1
 44
1.0
  0
MTEXT
  5
1B9
330
1AA
100
AcDbEntity
  8
SLD-0
 62
     7
100
AcDbMText
 10
79.7699938264
 20
128.6329385778
 30
0.1
 40
3.5
 41
0.0
 71
     1
 72
     1
  1
4
  7
SLDTEXTSTYLE2
 73
     1
 44
1.0
  0
MTEXT
  5
1BA
330
1AA
100
AcDbEntity
  8
SLD-0
 62
     7
100
AcDbMText
 10
81.806443886
 20
128.6329385778
 30
0.1
 40
3.5
 41
0.0
 71
     1
 72
     1
  1
深10
  7
SLDTEXTSTYLE2
 73
     1
 44
1.0
  0
ENDBLK
  5
1B2
330
1AA
100
AcDbEntity
  8
0
100
AcDbBlockEnd
  0
BLOCK
  5
1C6
330
1BC
100
AcDbEntity
  8
0
100
AcDbBlockBegin
  2
*D14
 70
     1
 71
     0
 10
0.0
 20
0.0
 30
0.0
  3
*D14
  1

  0
LINE
  5
1C8
330
1BC
100
AcDbEntity
  8
SLD-0
 62
     7
100
AcDbLine
 10
131.2771902497
 20
186.9828596731
 30
0.0
 11
131.2771902497
 21
211.5405482495
 31
0.0
  0
LINE
  5
1C9
330
1BC
100
AcDbEntity
  8
SLD-0
 62
     7
100
AcDbLine
 10
117.7771902497
 20
186.9828596731
 30
0.0
 11
117.7771902497
 21
211.5405482495
 31
0.0
  0
LINE
  5
1CA
330
1BC
100
AcDbEntity
  8
SLD-0
 62
     7
100
AcDbLine
 10
131.2771902497
 20
210.5405482495
 30
0.0
 11
136.2771902497
 21
210.5405482495
 31
0.0
  0
LINE
  5
1CB
330
1BC
100
AcDbEntity
  8
SLD-0
 62
     7
100
AcDbLine
 10
131.2771902497
 20
210.5405482495
 30
0.0
 11
117.7771902497
 21
210.5405482495
 31
0.0
  0
LINE
  5
1CC
330
1BC
100
AcDbEntity
  8
SLD-0
 62
     7
100
AcDbLine
 10
117.7771902497
 20
210.5405482495
 30
0.0
 11
112.7771902497
 21
210.5405482495
 31
0.0
  0
LINE
  5
1CD
330
1BC
100
AcDbEntity
  8
SLD-0
 62
     7
100
AcDbLine
 10
134.2771902497
 20
209.7367012495
 30
0.0
 11
131.2771902497
 21
210.5405482495
 31
0.0
  0
LINE
  5
1CE
330
1BC
100
AcDbEntity
  8
SLD-0
 62
     7
100
AcDbLine
 10
131.2771902497
 20
210.5405482495
 30
0.0
 11
134.2771902497
 21
211.3443952495
 31
0.0
  0
LINE
  5
1CF
330
1BC
100
AcDbEntity
  8
SLD-0
 62
     7
100
AcDbLine
 10
131.2771902497
 20
210.5405482495
 30
0.0
 11
134.2771902497
 21
210.5405482495
 31
0.0
  0
LINE
  5
1D0
330
1BC
100
AcDbEntity
  8
SLD-0
 62
     7
100
AcDbLine
 10
114.7771902497
 20
211.3443952495
 30
0.0
 11
117.7771902497
 21
210.5405482495
 31
0.0
  0
LINE
  5
1D1
330
1BC
100
AcDbEntity
  8
SLD-0
 62
     7
100
AcDbLine
 10
117.7771902497
 20
210.5405482495
 30
0.0
 11
114.7771902497
 21
209.7367012495
 31
0.0
  0
LINE
  5
1D2
330
1BC
100
AcDbEntity
  8
SLD-0
 62
     7
100
AcDbLine
 10
117.7771902497
 20
210.5405482495
 30
0.0
 11
114.7771902497
 21
210.5405482495
 31
0.0
  0
MTEXT
  5
1D3
330
1BC
100
AcDbEntity
  8
SLD-0
 62
     7
100
AcDbMText
 10
120.4542901305
 20
215.0672420619
 30
0.1
 40
3.5
 41
0.0
 71
     1
 72
     1
  1
13.5
  7
SLDTEXTSTYLE2
 73
     1
 44
1.0
  0
ENDBLK
  5
1C7
330
1BC
100
AcDbEntity
  8
0
100
AcDbBlockEnd
  0
BLOCK
  5
1DF
330
1D5
100
AcDbEntity
  8
0
100
AcDbBlockBegin
  2
*D15
 70
     1
 71
     0
 10
0.0
 20
0.0
 30
0.0
  3
*D15
  1

  0
LINE
  5
1E1
330
1D5
100
AcDbEntity
  8
SLD-0
 62
     7
100
AcDbLine
 10
151.2771902497
 20
200.9828596731
 30
0.0
 11
151.2771902497
 21
220.0957351102
 31
0.0
  0
LINE
  5
1E2
330
1D5
100
AcDbEntity
  8
SLD-0
 62
     7
100
AcDbLine
 10
117.7771902497
 20
198.4828596731
 30
0.0
 11
117.7771902497
 21
220.0957351102
 31
0.0
  0
LINE
  5
1E3
330
1D5
100
AcDbEntity
  8
SLD-0
 62
     7
100
AcDbLine
 10
151.2771902497
 20
219.0957351102
 30
0.0
 11
117.7771902497
 21
219.0957351102
 31
0.0
  0
LINE
  5
1E4
330
1D5
100
AcDbEntity
  8
SLD-0
 62
     7
100
AcDbLine
 10
148.2771902497
 20
219.8995821102
 30
0.0
 11
151.2771902497
 21
219.0957351102
 31
0.0
  0
LINE
  5
1E5
330
1D5
100
AcDbEntity
  8
SLD-0
 62
     7
100
AcDbLine
 10
151.2771902497
 20
219.0957351102
 30
0.0
 11
148.2771902497
 21
218.2918881102
 31
0.0
  0
LINE
  5
1E6
330
1D5
100
AcDbEntity
  8
SLD-0
 62
     7
100
AcDbLine
 10
151.2771902497
 20
219.0957351102
 30
0.0
 11
148.2771902497
 21
219.0957351102
 31
0.0
  0
LINE
  5
1E7
330
1D5
100
AcDbEntity
  8
SLD-0
 62
     7
100
AcDbLine
 10
120.7771902497
 20
218.2918881102
 30
0.0
 11
117.7771902497
 21
219.0957351102
 31
0.0
  0
LINE
  5
1E8
330
1D5
100
AcDbEntity
  8
SLD-0
 62
     7
100
AcDbLine
 10
117.7771902497
 20
219.0957351102
 30
0.0
 11
120.7771902497
 21
219.8995821102
 31
0.0
  0
LINE
  5
1E9
330
1D5
100
AcDbEntity
  8
SLD-0
 62
     7
100
AcDbLine
 10
117.7771902497
 20
219.0957351102
 30
0.0
 11
120.7771902497
 21
219.0957351102
 31
0.0
  0
MTEXT
  5
1EA
330
1D5
100
AcDbEntity
  8
SLD-0
 62
     7
100
AcDbMText
 10
130.4542901305
 20
223.6224289226
 30
0.1
 40
3.5
 41
0.0
 71
     1
 72
     1
  1
33.5
  7
SLDTEXTSTYLE2
 73
     1
 44
1.0
  0
ENDBLK
  5
1E0
330
1D5
100
AcDbEntity
  8
0
100
AcDbBlockEnd
  0
BLOCK
  5
1F0
330
1EF
100
AcDbEntity
  8
0
100
AcDbBlockBegin
  2
SW_NOTE_0
 70
     0
 71
     0
 10
0.0
 20
0.0
 30
0.0
  3
SW_NOTE_0
  1

  0
MTEXT
  5
1F2
330
1EF
100
AcDbEntity
  8
0
  6
Continuous
 62
     7
370
     0
100
AcDbMText
 10
0.0
 20
4.9260606061
 30
0.0
 40
4.2333333333
 41
0.0
 71
     1
 72
     1
  1
Ｍ12　ローテーション
  7
SLDTEXTSTYLE0
 73
     1
 44
1.0
  0
MTEXT
  5
1F3
330
1EF
100
AcDbEntity
  8
0
  6
Continuous
 62
     7
370
     0
100
AcDbMText
 10
6.2466133386
 20
-0.7183837702
 30
0.0
 40
4.2333333333
 41
0.0
 71
     1
 72
     1
  1
ブラケット　12Ａ
  7
SLDTEXTSTYLE0
 73
     1
 44
1.0
  0
ENDBLK
  5
1F1
330
1EF
100
AcDbEntity
  8
0
100
AcDbBlockEnd
  0
ENDSEC
  0
SECTION
  2
ENTITIES
  0
LINE
  5
5A
330
1F
100
AcDbEntity
  8
SLD-0
  6
Continuous
 62
     7
100
AcDbLine
 10
131.2771902497
 20
146.9311560513
 30
0.0
 11
118.2771902497
 21
146.9311560513
 31
0.0
  0
LINE
  5
5B
330
1F
100
AcDbEntity
  8
SLD-0
  6
Continuous
 62
     7
100
AcDbLine
 10
118.2771902497
 20
134.9311560513
 30
0.0
 11
131.2771902497
 21
134.9311560513
 31
0.0
  0
LINE
  5
5C
330
1F
100
AcDbEntity
  8
SLD-0
  6
Continuous
 62
     7
100
AcDbLine
 10
118.2771902497
 20
146.9311560513
 30
0.0
 11
117.7771902497
 21
146.4311560513
 31
0.0
  0
LINE
  5
5D
330
1F
100
AcDbEntity
  8
SLD-0
  6
Continuous
 62
     7
100
AcDbLine
 10
117.7771902497
 20
135.4311560513
 30
0.0
 11
118.2771902497
 21
134.9311560513
 31
0.0
  0
LINE
  5
5E
330
1F
100
AcDbEntity
  8
SLD-0
  6
Continuous
 62
     7
100
AcDbLine
 10
150.7771902497
 20
136.8080504257
 30
0.0
 11
151.2771902497
 21
138.058874728
 31
0.0
  0
LINE
  5
5F
330
1F
100
AcDbEntity
  8
SLD-0
  6
Continuous
 62
     7
100
AcDbLine
 10
150.7771902497
 20
136.8080504257
 30
0.0
 11
144.7643094045
 21
136.8080504257
 31
0.0
  0
LINE
  5
60
330
1F
100
AcDbEntity
  8
SLD-0
  6
Continuous
 62
     7
100
AcDbLine
 10
150.7771902497
 20
145.0542616769
 30
0.0
 11
144.7643094045
 21
145.0542616769
 31
0.0
  0
LINE
  5
61
330
1F
100
AcDbEntity
  8
SLD-0
  6
Continuous
 62
     7
100
AcDbLine
 10
151.2771902497
 20
143.8034373745
 30
0.0
 11
150.7771902497
 21
145.0542616769
 31
0.0
  0
LINE
  5
62
330
1F
100
AcDbEntity
  8
SLD-0
  6
Continuous
 62
     7
100
AcDbLine
 10
151.2771902497
 20
143.8034373745
 30
0.0
 11
151.2771902497
 21
138.058874728
 31
0.0
  0
LINE
  5
63
330
1F
100
AcDbEntity
  8
SLD-0
  6
Continuous
 62
     7
100
AcDbLine
 10
137.7900710994
 20
136.808050431
 30
0.0
 11
131.2771902542
 21
136.808050431
 31
0.0
  0
LINE
  5
64
330
1F
100
AcDbEntity
  8
SLD-0
  6
Continuous
 62
     7
100
AcDbLine
 10
150.7771902497
 20
132.9311560566
 30
0.0
 11
150.7771902497
 21
136.8080504257
 31
0.0
  0
LINE
  5
65
330
1F
100
AcDbEntity
  8
SLD-0
  6
Continuous
 62
     7
100
AcDbLine
 10
150.7771902497
 20
132.9311560566
 30
0.0
 11
131.2771902542
 21
132.9311560566
 31
0.0
  0
LINE
  5
66
330
1F
100
AcDbEntity
  8
SLD-0
  6
Continuous
 62
     7
100
AcDbLine
 10
131.2771902542
 20
136.808050431
 30
0.0
 11
131.2771902542
 21
132.9311560566
 31
0.0
  0
LINE
  5
67
330
1F
100
AcDbEntity
  8
SLD-0
  6
Continuous
 62
     7
100
AcDbLine
 10
137.7900710949
 20
145.0542616677
 30
0.0
 11
131.2771902542
 21
145.0542616677
 31
0.0
  0
LINE
  5
68
330
1F
100
AcDbEntity
  8
SLD-0
  6
Continuous
 62
     7
100
AcDbLine
 10
150.7771902497
 20
148.9311560421
 30
0.0
 11
131.2771902542
 21
148.9311560421
 31
0.0
  0
LINE
  5
69
330
1F
100
AcDbEntity
  8
SLD-0
  6
Continuous
 62
     7
100
AcDbLine
 10
150.7771902497
 20
145.0542616769
 30
0.0
 11
150.7771902497
 21
148.9311560421
 31
0.0
  0
LINE
  5
6A
330
1F
100
AcDbEntity
  8
SLD-0
  6
Continuous
 62
     7
100
AcDbLine
 10
131.2771902542
 20
148.9311560421
 30
0.0
 11
131.2771902542
 21
145.0542616677
 31
0.0
  0
LINE
  5
6B
330
1F
100
AcDbEntity
  8
SLD-0
  6
Continuous
 62
     7
100
AcDbLine
 10
150.7771902497
 20
148.9311560421
 30
0.0
 11
151.2771902497
 21
148.9311560421
 31
0.0
  0
LINE
  5
6C
330
1F
100
AcDbEntity
  8
SLD-0
  6
Continuous
 62
     7
100
AcDbLine
 10
151.2771902497
 20
148.9311560421
 30
0.0
 11
151.2771902497
 21
143.8034373745
 31
0.0
  0
LINE
  5
6D
330
1F
100
AcDbEntity
  8
SLD-0
  6
Continuous
 62
     7
100
AcDbLine
 10
151.2771902497
 20
132.9311560566
 30
0.0
 11
150.7771902497
 21
132.9311560566
 31
0.0
  0
LINE
  5
6E
330
1F
100
AcDbEntity
  8
SLD-0
  6
Continuous
 62
     7
100
AcDbLine
 10
151.2771902497
 20
138.058874728
 30
0.0
 11
151.2771902497
 21
132.9311560566
 31
0.0
  0
LINE
  5
6F
330
1F
100
AcDbEntity
  8
SLD-0
  6
Continuous
 62
     7
100
AcDbLine
 10
131.2771902542
 20
145.0542616677
 30
0.0
 11
131.2771902542
 21
136.808050431
 31
0.0
  0
LINE
  5
70
330
1F
100
AcDbEntity
  8
SLD-0
  6
Continuous
 62
     7
100
AcDbLine
 10
118.2771902497
 20
140.9311560513
 30
0.0
 11
118.2771902497
 21
134.9311560513
 31
0.0
  0
LINE
  5
71
330
1F
100
AcDbEntity
  8
SLD-0
  6
Continuous
 62
     7
100
AcDbLine
 10
118.2771902497
 20
146.9311560513
 30
0.0
 11
118.2771902497
 21
140.9311560513
 31
0.0
  0
LINE
  5
72
330
1F
100
AcDbEntity
  8
SLD-0
  6
Continuous
 62
     7
100
AcDbLine
 10
117.7771902497
 20
140.9311560513
 30
0.0
 11
117.7771902497
 21
146.4311560513
 31
0.0
  0
LINE
  5
73
330
1F
100
AcDbEntity
  8
SLD-0
  6
Continuous
 62
     7
100
AcDbLine
 10
117.7771902497
 20
135.4311560513
 30
0.0
 11
117.7771902497
 21
140.9311560513
 31
0.0
  0
LINE
  5
74
330
1F
100
AcDbEntity
  8
SLD-0
  6
HIDDEN
 62
     7
100
AcDbLine
 10
129.7771902497
 20
140.9311560513
 30
0.0
 11
129.7771902497
 21
142.5811560513
 31
0.0
  0
LINE
  5
75
330
1F
100
AcDbEntity
  8
SLD-0
  6
HIDDEN
 62
     7
100
AcDbLine
 10
129.7771902497
 20
139.2811560513
 30
0.0
 11
129.7771902497
 21
140.9311560513
 31
0.0
  0
LINE
  5
76
330
1F
100
AcDbEntity
  8
SLD-0
  6
HIDDEN
 62
     7
100
AcDbLine
 10
117.7771898995
 20
139.2811560513
 30
0.0
 11
129.7771902497
 21
139.2811560513
 31
0.0
  0
LINE
  5
77
330
1F
100
AcDbEntity
  8
SLD-0
  6
HIDDEN
 62
     7
100
AcDbLine
 10
129.7771902497
 20
142.5811560513
 30
0.0
 11
117.7771898995
 21
142.5811560513
 31
0.0
  0
LINE
  5
78
330
1F
100
AcDbEntity
  8
SLD-0
  6
HIDDEN
 62
     7
100
AcDbLine
 10
129.7771902497
 20
139.2811560513
 30
0.0
 11
130.7686102421
 21
140.9311560513
 31
0.0
  0
LINE
  5
79
330
1F
100
AcDbEntity
  8
SLD-0
  6
HIDDEN
 62
     7
100
AcDbLine
 10
130.7686102421
 20
140.9311560513
 30
0.0
 11
129.7771902497
 21
142.5811560513
 31
0.0
  0
LINE
  5
7A
330
1F
100
AcDbEntity
  8
SLD-0
  6
HIDDEN
 62
     7
100
AcDbLine
 10
127.7771901417
 20
142.9311561463
 30
0.0
 11
117.7771898995
 21
142.9311561463
 31
0.0
  0
LINE
  5
7B
330
1F
100
AcDbEntity
  8
SLD-0
  6
HIDDEN
 62
     7
100
AcDbLine
 10
117.7771898995
 20
138.9311559563
 30
0.0
 11
127.7771901417
 21
138.9311559563
 31
0.0
  0
LINE
  5
7C
330
1F
100
AcDbEntity
  8
SLD-0
  6
HIDDEN
 62
     7
100
AcDbLine
 10
127.7771901417
 20
142.9311561463
 30
0.0
 11
127.7771901417
 21
142.9107988318
 31
0.0
  0
LINE
  5
7D
330
1F
100
AcDbEntity
  8
SLD-0
  6
HIDDEN
 62
     7
100
AcDbLine
 10
127.7771901417
 20
142.9107988318
 30
0.0
 11
127.7771901417
 21
138.9311559563
 31
0.0
  0
LINE
  5
7E
330
1F
100
AcDbEntity
  8
SLD-0
 62
     7
100
AcDbLine
 10
145.6360888745
 20
145.0542617188
 30
0.0
 11
145.9673211987
 21
144.6731698764
 31
0.0
  0
LINE
  5
7F
330
1F
100
AcDbEntity
  8
SLD-0
 62
     7
100
AcDbLine
 10
145.9673211987
 20
144.6731698764
 30
0.0
 11
146.265339766
 21
144.2655779486
 31
0.0
  0
LINE
  5
80
330
1F
100
AcDbEntity
  8
SLD-0
 62
     7
100
AcDbLine
 10
146.265339766
 20
144.2655779486
 30
0.0
 11
146.5280314054
 21
143.8343721041
 31
0.0
  0
LINE
  5
81
330
1F
100
AcDbEntity
  8
SLD-0
 62
     7
100
AcDbLine
 10
146.5280314054
 20
143.8343721041
 30
0.0
 11
146.7535390596
 21
143.3826061496
 31
0.0
  0
LINE
  5
82
330
1F
100
AcDbEntity
  8
SLD-0
 62
     7
100
AcDbLine
 10
146.7535390596
 20
143.3826061496
 30
0.0
 11
146.9402627166
 21
142.913479411
 31
0.0
  0
LINE
  5
83
330
1F
100
AcDbEntity
  8
SLD-0
 62
     7
100
AcDbLine
 10
146.9402627166
 20
142.913479411
 30
0.0
 11
147.0868826921
 21
142.4303142651
 31
0.0
  0
LINE
  5
84
330
1F
100
AcDbEntity
  8
SLD-0
 62
     7
100
AcDbLine
 10
147.0868826921
 20
142.4303142651
 30
0.0
 11
147.192358699
 21
141.9365322747
 31
0.0
  0
LINE
  5
85
330
1F
100
AcDbEntity
  8
SLD-0
 62
     7
100
AcDbLine
 10
147.192358699
 20
141.9365322747
 30
0.0
 11
147.2559456791
 21
141.4356304979
 31
0.0
  0
LINE
  5
86
330
1F
100
AcDbEntity
  8
SLD-0
 62
     7
100
AcDbLine
 10
147.2559456791
 20
141.4356304979
 30
0.0
 11
147.2771910097
 21
140.9311560513
 31
0.0
  0
LINE
  5
87
330
1F
100
AcDbEntity
  8
SLD-0
 62
     7
100
AcDbLine
 10
147.2771910097
 20
140.9311560513
 30
0.0
 11
147.2559456791
 21
140.4266816046
 31
0.0
  0
LINE
  5
88
330
1F
100
AcDbEntity
  8
SLD-0
 62
     7
100
AcDbLine
 10
147.2559456791
 20
140.4266816046
 30
0.0
 11
147.192358699
 21
139.9257798278
 31
0.0
  0
LINE
  5
89
330
1F
100
AcDbEntity
  8
SLD-0
 62
     7
100
AcDbLine
 10
147.192358699
 20
139.9257798278
 30
0.0
 11
147.0868826921
 21
139.4319978374
 31
0.0
  0
LINE
  5
8A
330
1F
100
AcDbEntity
  8
SLD-0
 62
     7
100
AcDbLine
 10
147.0868826921
 20
139.4319978374
 30
0.0
 11
146.9402627166
 21
138.9488326916
 31
0.0
  0
LINE
  5
8B
330
1F
100
AcDbEntity
  8
SLD-0
 62
     7
100
AcDbLine
 10
146.9402627166
 20
138.9488326916
 30
0.0
 11
146.7535390596
 21
138.479705953
 31
0.0
  0
LINE
  5
8C
330
1F
100
AcDbEntity
  8
SLD-0
 62
     7
100
AcDbLine
 10
146.7535390596
 20
138.479705953
 30
0.0
 11
146.5280314054
 21
138.0279399985
 31
0.0
  0
LINE
  5
8D
330
1F
100
AcDbEntity
  8
SLD-0
 62
     7
100
AcDbLine
 10
146.5280314054
 20
138.0279399985
 30
0.0
 11
146.265339766
 21
137.596734154
 31
0.0
  0
LINE
  5
8E
330
1F
100
AcDbEntity
  8
SLD-0
 62
     7
100
AcDbLine
 10
146.265339766
 20
137.596734154
 30
0.0
 11
145.9673211987
 21
137.1891422262
 31
0.0
  0
LINE
  5
8F
330
1F
100
AcDbEntity
  8
SLD-0
 62
     7
100
AcDbLine
 10
145.9673211987
 20
137.1891422262
 30
0.0
 11
145.6360888745
 21
136.8080503837
 31
0.0
  0
LINE
  5
90
330
1F
100
AcDbEntity
  8
SLD-0
 62
     7
100
AcDbLine
 10
145.6360888745
 20
145.0542617188
 30
0.0
 11
145.1402816068
 21
145.5219034636
 31
0.0
  0
LINE
  5
91
330
1F
100
AcDbEntity
  8
SLD-0
 62
     7
100
AcDbLine
 10
145.1402816068
 20
145.5219034636
 30
0.0
 11
144.5925987403
 21
145.9318101936
 31
0.0
  0
LINE
  5
92
330
1F
100
AcDbEntity
  8
SLD-0
 62
     7
100
AcDbLine
 10
144.5925987403
 20
145.9318101936
 30
0.0
 11
143.9991646524
 21
146.2781979301
 31
0.0
  0
LINE
  5
93
330
1F
100
AcDbEntity
  8
SLD-0
 62
     7
100
AcDbLine
 10
143.9991646524
 20
146.2781979301
 30
0.0
 11
143.4790452088
 21
146.5122364992
 31
0.0
  0
LINE
  5
94
330
1F
100
AcDbEntity
  8
SLD-0
 62
     7
100
AcDbLine
 10
143.4790452088
 20
146.5122364992
 30
0.0
 11
142.9301302026
 21
146.6986905382
 31
0.0
  0
LINE
  5
95
330
1F
100
AcDbEntity
  8
SLD-0
 62
     7
100
AcDbLine
 10
142.9301302026
 20
146.6986905382
 30
0.0
 11
142.3596876751
 21
146.8326980778
 31
0.0
  0
LINE
  5
96
330
1F
100
AcDbEntity
  8
SLD-0
 62
     7
100
AcDbLine
 10
142.3596876751
 20
146.8326980778
 30
0.0
 11
141.7659397315
 21
146.9104630471
 31
0.0
  0
LINE
  5
97
330
1F
100
AcDbEntity
  8
SLD-0
 62
     7
100
AcDbLine
 10
141.7659397315
 20
146.9104630471
 30
0.0
 11
141.1612226705
 21
146.929284145
 31
0.0
  0
LINE
  5
98
330
1F
100
AcDbEntity
  8
SLD-0
 62
     7
100
AcDbLine
 10
141.1612226705
 20
146.929284145
 30
0.0
 11
140.5612134452
 21
146.8882840657
 31
0.0
  0
LINE
  5
99
330
1F
100
AcDbEntity
  8
SLD-0
 62
     7
100
AcDbLine
 10
140.5612134452
 20
146.8882840657
 30
0.0
 11
139.8171388622
 21
146.750506998
 31
0.0
  0
LINE
  5
9A
330
1F
100
AcDbEntity
  8
SLD-0
 62
     7
100
AcDbLine
 10
139.8171388622
 20
146.750506998
 30
0.0
 11
139.1079078506
 21
146.5252792061
 31
0.0
  0
LINE
  5
9B
330
1F
100
AcDbEntity
  8
SLD-0
 62
     7
100
AcDbLine
 10
139.1079078506
 20
146.5252792061
 30
0.0
 11
138.4884097691
 21
146.2434772932
 31
0.0
  0
LINE
  5
9C
330
1F
100
AcDbEntity
  8
SLD-0
 62
     7
100
AcDbLine
 10
138.4884097691
 20
146.2434772932
 30
0.0
 11
137.9099117669
 21
145.896980592
 31
0.0
  0
LINE
  5
9D
330
1F
100
AcDbEntity
  8
SLD-0
 62
     7
100
AcDbLine
 10
137.9099117669
 20
145.896980592
 30
0.0
 11
137.3787156384
 21
145.4920657509
 31
0.0
  0
LINE
  5
9E
330
1F
100
AcDbEntity
  8
SLD-0
 62
     7
100
AcDbLine
 10
137.3787156384
 20
145.4920657509
 30
0.0
 11
136.9182911779
 21
145.0542617188
 31
0.0
  0
LINE
  5
9F
330
1F
100
AcDbEntity
  8
SLD-0
 62
     7
100
AcDbLine
 10
136.9182911779
 20
136.8080503837
 30
0.0
 11
136.5870588537
 21
137.1891422262
 31
0.0
  0
LINE
  5
A0
330
1F
100
AcDbEntity
  8
SLD-0
 62
     7
100
AcDbLine
 10
136.5870588537
 20
137.1891422262
 30
0.0
 11
136.2890412177
 21
137.596734154
 31
0.0
  0
LINE
  5
A1
330
1F
100
AcDbEntity
  8
SLD-0
 62
     7
100
AcDbLine
 10
136.2890412177
 20
137.596734154
 30
0.0
 11
136.026348647
 21
138.0279399985
 31
0.0
  0
LINE
  5
A2
330
1F
100
AcDbEntity
  8
SLD-0
 62
     7
100
AcDbLine
 10
136.026348647
 20
138.0279399985
 30
0.0
 11
135.8008419241
 21
138.479705953
 31
0.0
  0
LINE
  5
A3
330
1F
100
AcDbEntity
  8
SLD-0
 62
     7
100
AcDbLine
 10
135.8008419241
 20
138.479705953
 30
0.0
 11
135.6141173358
 21
138.9488326916
 31
0.0
  0
LINE
  5
A4
330
1F
100
AcDbEntity
  8
SLD-0
 62
     7
100
AcDbLine
 10
135.6141173358
 20
138.9488326916
 30
0.0
 11
135.4674978259
 21
139.4319978374
 31
0.0
  0
LINE
  5
A5
330
1F
100
AcDbEntity
  8
SLD-0
 62
     7
100
AcDbLine
 10
135.4674978259
 20
139.4319978374
 30
0.0
 11
135.3620218191
 21
139.9257798278
 31
0.0
  0
LINE
  5
A6
330
1F
100
AcDbEntity
  8
SLD-0
 62
     7
100
AcDbLine
 10
135.3620218191
 20
139.9257798278
 30
0.0
 11
135.2984357703
 21
140.4266816046
 31
0.0
  0
LINE
  5
A7
330
1F
100
AcDbEntity
  8
SLD-0
 62
     7
100
AcDbLine
 10
135.2984357703
 20
140.4266816046
 30
0.0
 11
135.2771904397
 21
140.9311560513
 31
0.0
  0
LINE
  5
A8
330
1F
100
AcDbEntity
  8
SLD-0
 62
     7
100
AcDbLine
 10
135.2771904397
 20
140.9311560513
 30
0.0
 11
135.2984357703
 21
141.4356304979
 31
0.0
  0
LINE
  5
A9
330
1F
100
AcDbEntity
  8
SLD-0
 62
     7
100
AcDbLine
 10
135.2984357703
 20
141.4356304979
 30
0.0
 11
135.3620218191
 21
141.9365322747
 31
0.0
  0
LINE
  5
AA
330
1F
100
AcDbEntity
  8
SLD-0
 62
     7
100
AcDbLine
 10
135.3620218191
 20
141.9365322747
 30
0.0
 11
135.4674978259
 21
142.4303142651
 31
0.0
  0
LINE
  5
AB
330
1F
100
AcDbEntity
  8
SLD-0
 62
     7
100
AcDbLine
 10
135.4674978259
 20
142.4303142651
 30
0.0
 11
135.6141173358
 21
142.913479411
 31
0.0
  0
LINE
  5
AC
330
1F
100
AcDbEntity
  8
SLD-0
 62
     7
100
AcDbLine
 10
135.6141173358
 20
142.913479411
 30
0.0
 11
135.8008419241
 21
143.3826061496
 31
0.0
  0
LINE
  5
AD
330
1F
100
AcDbEntity
  8
SLD-0
 62
     7
100
AcDbLine
 10
135.8008419241
 20
143.3826061496
 30
0.0
 11
136.026348647
 21
143.8343721041
 31
0.0
  0
LINE
  5
AE
330
1F
100
AcDbEntity
  8
SLD-0
 62
     7
100
AcDbLine
 10
136.026348647
 20
143.8343721041
 30
0.0
 11
136.2890412177
 21
144.2655779486
 31
0.0
  0
LINE
  5
AF
330
1F
100
AcDbEntity
  8
SLD-0
 62
     7
100
AcDbLine
 10
136.2890412177
 20
144.2655779486
 30
0.0
 11
136.5870588537
 21
144.6731698764
 31
0.0
  0
LINE
  5
B0
330
1F
100
AcDbEntity
  8
SLD-0
 62
     7
100
AcDbLine
 10
136.5870588537
 20
144.6731698764
 30
0.0
 11
136.9182911779
 21
145.0542617188
 31
0.0
  0
LINE
  5
B1
330
1F
100
AcDbEntity
  8
SLD-0
 62
     7
100
AcDbLine
 10
136.9182911779
 20
136.8080503837
 30
0.0
 11
137.4140984456
 21
136.340408639
 31
0.0
  0
LINE
  5
B2
330
1F
100
AcDbEntity
  8
SLD-0
 62
     7
100
AcDbLine
 10
137.4140984456
 20
136.340408639
 30
0.0
 11
137.9617822434
 21
135.9305019089
 31
0.0
  0
LINE
  5
B3
330
1F
100
AcDbEntity
  8
SLD-0
 62
     7
100
AcDbLine
 10
137.9617822434
 20
135.9305019089
 30
0.0
 11
138.5552158657
 21
135.5841141724
 31
0.0
  0
LINE
  5
B4
330
1F
100
AcDbEntity
  8
SLD-0
 62
     7
100
AcDbLine
 10
138.5552158657
 20
135.5841141724
 30
0.0
 11
139.0753353092
 21
135.3500756034
 31
0.0
  0
LINE
  5
B5
330
1F
100
AcDbEntity
  8
SLD-0
 62
     7
100
AcDbLine
 10
139.0753353092
 20
135.3500756034
 30
0.0
 11
139.6242498498
 21
135.1636215643
 31
0.0
  0
LINE
  5
B6
330
1F
100
AcDbEntity
  8
SLD-0
 62
     7
100
AcDbLine
 10
139.6242498498
 20
135.1636215643
 30
0.0
 11
140.1946933086
 21
135.0296140247
 31
0.0
  0
LINE
  5
B7
330
1F
100
AcDbEntity
  8
SLD-0
 62
     7
100
AcDbLine
 10
140.1946933086
 20
135.0296140247
 30
0.0
 11
140.7884403209
 21
134.9518490554
 31
0.0
  0
LINE
  5
B8
330
1F
100
AcDbEntity
  8
SLD-0
 62
     7
100
AcDbLine
 10
140.7884403209
 20
134.9518490554
 30
0.0
 11
141.3931573819
 21
134.9330279575
 31
0.0
  0
LINE
  5
B9
330
1F
100
AcDbEntity
  8
SLD-0
 62
     7
100
AcDbLine
 10
141.3931573819
 20
134.9330279575
 30
0.0
 11
141.9931675385
 21
134.9740280369
 31
0.0
  0
LINE
  5
BA
330
1F
100
AcDbEntity
  8
SLD-0
 62
     7
100
AcDbLine
 10
141.9931675385
 20
134.9740280369
 30
0.0
 11
142.7372411902
 21
135.1118051046
 31
0.0
  0
LINE
  5
BB
330
1F
100
AcDbEntity
  8
SLD-0
 62
     7
100
AcDbLine
 10
142.7372411902
 20
135.1118051046
 30
0.0
 11
143.4464722018
 21
135.3370328964
 31
0.0
  0
LINE
  5
BC
330
1F
100
AcDbEntity
  8
SLD-0
 62
     7
100
AcDbLine
 10
143.4464722018
 20
135.3370328964
 30
0.0
 11
144.0659702833
 21
135.6188348093
 31
0.0
  0
LINE
  5
BD
330
1F
100
AcDbEntity
  8
SLD-0
 62
     7
100
AcDbLine
 10
144.0659702833
 20
135.6188348093
 30
0.0
 11
144.6444687511
 21
135.9653315106
 31
0.0
  0
LINE
  5
BE
330
1F
100
AcDbEntity
  8
SLD-0
 62
     7
100
AcDbLine
 10
144.6444687511
 20
135.9653315106
 30
0.0
 11
145.175664414
 21
136.3702463516
 31
0.0
  0
LINE
  5
BF
330
1F
100
AcDbEntity
  8
SLD-0
 62
     7
100
AcDbLine
 10
145.175664414
 20
136.3702463516
 30
0.0
 11
145.6360888745
 21
136.8080503837
 31
0.0
  0
LINE
  5
C0
330
1F
100
AcDbEntity
  8
SLD-0
  6
CENTERX2
 62
     7
100
AcDbLine
 10
152.7771902497
 20
140.9311560513
 30
0.0
 11
131.2771902497
 21
140.9311560513
 31
0.0
  0
LINE
  5
C1
330
1F
100
AcDbEntity
  8
SLD-0
  6
CENTERX2
 62
     7
100
AcDbLine
 10
115.7771902497
 20
140.9311560513
 30
0.0
 11
131.2771902497
 21
140.9311560513
 31
0.0
  0
LINE
  5
C2
330
1F
100
AcDbEntity
  8
SLD-0
  6
Continuous
 62
     7
100
AcDbLine
 10
69.3427159497
 20
132.9311560513
 30
0.0
 11
61.0965046984
 21
132.9311560513
 31
0.0
  0
LINE
  5
C3
330
1F
100
AcDbEntity
  8
SLD-0
  6
Continuous
 62
     7
100
AcDbLine
 10
61.0965046985
 20
148.9311560513
 30
0.0
 11
69.3427159497
 21
148.9311560513
 31
0.0
  0
LINE
  5
C4
330
1F
100
AcDbEntity
  8
SLD-0
  6
Continuous
 62
     7
100
AcDbLine
 10
73.2196103241
 20
145.0542616769
 30
0.0
 11
73.2196103241
 21
136.8080504257
 31
0.0
  0
LINE
  5
C5
330
1F
100
AcDbEntity
  8
SLD-0
  6
Continuous
 62
     7
100
AcDbLine
 10
57.2196103241
 20
136.8080504257
 30
0.0
 11
57.2196103241
 21
145.0542616769
 31
0.0
  0
LINE
  5
C6
330
1F
100
AcDbEntity
  8
SLD-0
 62
     7
100
AcDbLine
 10
58.507439075
 20
134.9311559991
 30
0.0
 11
58.5114065091
 21
134.9311559991
 31
0.0
  0
LINE
  5
C7
330
1F
100
AcDbEntity
  8
SLD-0
 62
     7
100
AcDbLine
 10
71.927814139
 20
134.9311559991
 30
0.0
 11
71.9317815732
 21
134.9311559991
 31
0.0
  0
LINE
  5
C8
330
1F
100
AcDbEntity
  8
SLD-0
 62
     7
100
AcDbLine
 10
71.9317815732
 20
146.9311561034
 30
0.0
 11
71.927814139
 21
146.9311561034
 31
0.0
  0
LINE
  5
C9
330
1F
100
AcDbEntity
  8
SLD-0
 62
     7
100
AcDbLine
 10
58.5114065091
 20
146.9311561034
 30
0.0
 11
58.507439075
 21
146.9311561034
 31
0.0
  0
LINE
  5
CA
330
1F
100
AcDbEntity
  8
SLD-0
  6
Continuous
 62
     7
100
AcDbLine
 10
131.2771902497
 20
197.9828596731
 30
0.0
 11
118.2771902497
 21
197.9828596731
 31
0.0
  0
LINE
  5
CB
330
1F
100
AcDbEntity
  8
SLD-0
  6
Continuous
 62
     7
100
AcDbLine
 10
118.2771902497
 20
185.9828596731
 30
0.0
 11
131.2771902497
 21
185.9828596731
 31
0.0
  0
LINE
  5
CC
330
1F
100
AcDbEntity
  8
SLD-0
  6
Continuous
 62
     7
100
AcDbLine
 10
118.2771902497
 20
197.9828596731
 30
0.0
 11
117.7771902497
 21
197.4828596731
 31
0.0
  0
LINE
  5
CD
330
1F
100
AcDbEntity
  8
SLD-0
  6
Continuous
 62
     7
100
AcDbLine
 10
117.7771902497
 20
186.4828596731
 30
0.0
 11
118.2771902497
 21
185.9828596731
 31
0.0
  0
LINE
  5
CE
330
1F
100
AcDbEntity
  8
SLD-0
  6
Continuous
 62
     7
100
AcDbLine
 10
151.2771902497
 20
199.9828596731
 30
0.0
 11
151.2771902497
 21
194.8551409964
 31
0.0
  0
LINE
  5
CF
330
1F
100
AcDbEntity
  8
SLD-0
  6
Continuous
 62
     7
100
AcDbLine
 10
151.2771902497
 20
194.8551409964
 30
0.0
 11
150.7771902497
 21
196.1059652988
 31
0.0
  0
LINE
  5
D0
330
1F
100
AcDbEntity
  8
SLD-0
  6
Continuous
 62
     7
100
AcDbLine
 10
150.7771902497
 20
196.1059652988
 30
0.0
 11
150.7771902497
 21
199.9828596731
 31
0.0
  0
LINE
  5
D1
330
1F
100
AcDbEntity
  8
SLD-0
  6
Continuous
 62
     7
100
AcDbLine
 10
150.7771902497
 20
199.9828596731
 30
0.0
 11
151.2771902497
 21
199.9828596731
 31
0.0
  0
LINE
  5
D2
330
1F
100
AcDbEntity
  8
SLD-0
  6
Continuous
 62
     7
100
AcDbLine
 10
137.7900710407
 20
199.9828600531
 30
0.0
 11
131.2771902497
 21
199.9828596731
 31
0.0
  0
LINE
  5
D3
330
1F
100
AcDbEntity
  8
SLD-0
  6
Continuous
 62
     7
100
AcDbLine
 10
150.7771902497
 20
199.9828596731
 30
0.0
 11
144.7643094773
 21
199.9828600531
 31
0.0
  0
LINE
  5
D4
330
1F
100
AcDbEntity
  8
SLD-0
  6
Continuous
 62
     7
100
AcDbLine
 10
150.7771902497
 20
196.1059652988
 30
0.0
 11
131.2771902497
 21
196.1059652988
 31
0.0
  0
LINE
  5
D5
330
1F
100
AcDbEntity
  8
SLD-0
  6
Continuous
 62
     7
100
AcDbLine
 10
131.2771902497
 20
199.9828596731
 30
0.0
 11
131.2771902497
 21
196.1059652988
 31
0.0
  0
LINE
  5
D6
330
1F
100
AcDbEntity
  8
SLD-0
  6
Continuous
 62
     7
100
AcDbLine
 10
150.7771902497
 20
187.8597540475
 30
0.0
 11
151.2771902497
 21
189.1105783499
 31
0.0
  0
LINE
  5
D7
330
1F
100
AcDbEntity
  8
SLD-0
  6
Continuous
 62
     7
100
AcDbLine
 10
150.7771902497
 20
187.8597540475
 30
0.0
 11
131.2771902497
 21
187.8597540475
 31
0.0
  0
LINE
  5
D8
330
1F
100
AcDbEntity
  8
SLD-0
  6
Continuous
 62
     7
100
AcDbLine
 10
151.2771902497
 20
194.8551409964
 30
0.0
 11
151.2771902497
 21
189.1105783499
 31
0.0
  0
LINE
  5
D9
330
1F
100
AcDbEntity
  8
SLD-0
  6
Continuous
 62
     7
100
AcDbLine
 10
131.2771902497
 20
196.1059652988
 30
0.0
 11
131.2771902497
 21
187.8597540475
 31
0.0
  0
LINE
  5
DA
330
1F
100
AcDbEntity
  8
SLD-0
  6
Continuous
 62
     7
100
AcDbLine
 10
151.2771902497
 20
183.9828596731
 30
0.0
 11
150.7771902497
 21
183.9828596731
 31
0.0
  0
LINE
  5
DB
330
1F
100
AcDbEntity
  8
SLD-0
  6
Continuous
 62
     7
100
AcDbLine
 10
150.7771902497
 20
183.9828596731
 30
0.0
 11
150.7771902497
 21
187.8597540475
 31
0.0
  0
LINE
  5
DC
330
1F
100
AcDbEntity
  8
SLD-0
  6
Continuous
 62
     7
100
AcDbLine
 10
151.2771902497
 20
189.1105783499
 30
0.0
 11
151.2771902497
 21
183.9828596731
 31
0.0
  0
LINE
  5
DD
330
1F
100
AcDbEntity
  8
SLD-0
  6
Continuous
 62
     7
100
AcDbLine
 10
137.7900710407
 20
183.9828592932
 30
0.0
 11
131.2771902497
 21
183.9828596731
 31
0.0
  0
LINE
  5
DE
330
1F
100
AcDbEntity
  8
SLD-0
  6
Continuous
 62
     7
100
AcDbLine
 10
150.7771902497
 20
183.9828596731
 30
0.0
 11
144.7643094773
 21
183.9828592932
 31
0.0
  0
LINE
  5
DF
330
1F
100
AcDbEntity
  8
SLD-0
  6
Continuous
 62
     7
100
AcDbLine
 10
131.2771902497
 20
187.8597540475
 30
0.0
 11
131.2771902497
 21
183.9828596731
 31
0.0
  0
LINE
  5
E0
330
1F
100
AcDbEntity
  8
SLD-0
  6
Continuous
 62
     7
100
AcDbLine
 10
118.2771902497
 20
197.9828596731
 30
0.0
 11
118.2771902497
 21
185.9828596731
 31
0.0
  0
LINE
  5
E1
330
1F
100
AcDbEntity
  8
SLD-0
  6
Continuous
 62
     7
100
AcDbLine
 10
117.7771902497
 20
186.4828596731
 30
0.0
 11
117.7771902497
 21
197.4828596731
 31
0.0
  0
LINE
  5
E2
330
1F
100
AcDbEntity
  8
SLD-0
  6
HIDDEN
 62
     7
100
AcDbLine
 10
129.7771902497
 20
190.3328596731
 30
0.0
 11
129.7771902497
 21
193.6328596731
 31
0.0
  0
LINE
  5
E3
330
1F
100
AcDbEntity
  8
SLD-0
  6
HIDDEN
 62
     7
100
AcDbLine
 10
146.6771901663
 20
183.9828592932
 30
0.0
 11
146.6771901663
 21
199.9828600531
 31
0.0
  0
LINE
  5
E4
330
1F
100
AcDbEntity
  8
SLD-0
  6
HIDDEN
 62
     7
100
AcDbLine
 10
135.8771903518
 20
199.9828600531
 30
0.0
 11
135.8771903518
 21
183.9828592932
 31
0.0
  0
LINE
  5
E5
330
1F
100
AcDbEntity
  8
SLD-0
  6
HIDDEN
 62
     7
100
AcDbLine
 10
117.7771898995
 20
190.3328596731
 30
0.0
 11
129.7771902497
 21
190.3328596731
 31
0.0
  0
LINE
  5
E6
330
1F
100
AcDbEntity
  8
SLD-0
  6
HIDDEN
 62
     7
100
AcDbLine
 10
129.7771902497
 20
193.6328596731
 30
0.0
 11
117.7771898995
 21
193.6328596731
 31
0.0
  0
LINE
  5
E7
330
1F
100
AcDbEntity
  8
SLD-0
  6
HIDDEN
 62
     7
100
AcDbLine
 10
129.7771902497
 20
190.3328596731
 30
0.0
 11
130.7686102421
 21
191.9828596731
 31
0.0
  0
LINE
  5
E8
330
1F
100
AcDbEntity
  8
SLD-0
  6
HIDDEN
 62
     7
100
AcDbLine
 10
130.7686102421
 20
191.9828596731
 30
0.0
 11
129.7771902497
 21
193.6328596731
 31
0.0
  0
LINE
  5
E9
330
1F
100
AcDbEntity
  8
SLD-0
 62
     7
100
AcDbLine
 10
118.0271902497
 20
186.2328596731
 30
0.0
 11
104.5825950241
 21
172.8978177912
 31
0.0
  0
LINE
  5
EA
330
1F
100
AcDbEntity
  8
SLD-0
 62
     7
100
AcDbLine
 10
104.5825950241
 20
172.8978177912
 30
0.0
 11
115.5301229859
 21
183.719908265
 31
0.0
  0
LINE
  5
EB
330
1F
100
AcDbEntity
  8
SLD-0
  6
HIDDEN
 62
     7
100
AcDbLine
 10
127.7771901417
 20
193.9828597681
 30
0.0
 11
117.7771898995
 21
193.9828597681
 31
0.0
  0
LINE
  5
EC
330
1F
100
AcDbEntity
  8
SLD-0
  6
HIDDEN
 62
     7
100
AcDbLine
 10
117.7771898995
 20
189.9828595782
 30
0.0
 11
127.7771901417
 21
189.9828595782
 31
0.0
  0
LINE
  5
ED
330
1F
100
AcDbEntity
  8
SLD-0
  6
HIDDEN
 62
     7
100
AcDbLine
 10
127.7771901417
 20
191.9828596731
 30
0.0
 11
127.7771901417
 21
191.6982300029
 31
0.0
  0
LINE
  5
EE
330
1F
100
AcDbEntity
  8
SLD-0
  6
HIDDEN
 62
     7
100
AcDbLine
 10
127.7771901417
 20
191.6982300029
 30
0.0
 11
127.7771901417
 21
189.9828595782
 31
0.0
  0
LINE
  5
EF
330
1F
100
AcDbEntity
  8
SLD-0
  6
HIDDEN
 62
     7
100
AcDbLine
 10
127.7771901417
 20
193.9828597681
 30
0.0
 11
127.7771901417
 21
191.9828596731
 31
0.0
  0
LINE
  5
F0
330
1F
100
AcDbEntity
  8
SLD-0
 62
     7
100
AcDbLine
 10
136.9182911779
 20
199.9828600531
 30
0.0
 11
137.4140984456
 21
199.7237060426
 31
0.0
  0
LINE
  5
F1
330
1F
100
AcDbEntity
  8
SLD-0
 62
     7
100
AcDbLine
 10
137.4140984456
 20
199.7237060426
 30
0.0
 11
137.9617822434
 21
199.4654684534
 31
0.0
  0
LINE
  5
F2
330
1F
100
AcDbEntity
  8
SLD-0
 62
     7
100
AcDbLine
 10
137.9617822434
 20
199.4654684534
 30
0.0
 11
138.5552158657
 21
199.2222754491
 31
0.0
  0
LINE
  5
F3
330
1F
100
AcDbEntity
  8
SLD-0
 62
     7
100
AcDbLine
 10
138.5552158657
 20
199.2222754491
 30
0.0
 11
139.0753353092
 21
199.0434368348
 31
0.0
  0
LINE
  5
F4
330
1F
100
AcDbEntity
  8
SLD-0
 62
     7
100
AcDbLine
 10
139.0753353092
 20
199.0434368348
 30
0.0
 11
139.6242498498
 21
198.8919935396
 31
0.0
  0
LINE
  5
F5
330
1F
100
AcDbEntity
  8
SLD-0
 62
     7
100
AcDbLine
 10
139.6242498498
 20
198.8919935396
 30
0.0
 11
140.1946933086
 21
198.7778431943
 31
0.0
  0
LINE
  5
F6
330
1F
100
AcDbEntity
  8
SLD-0
 62
     7
100
AcDbLine
 10
140.1946933086
 20
198.7778431943
 30
0.0
 11
140.7884403209
 21
198.7099693363
 31
0.0
  0
LINE
  5
F7
330
1F
100
AcDbEntity
  8
SLD-0
 62
     7
100
AcDbLine
 10
140.7884403209
 20
198.7099693363
 30
0.0
 11
141.3931573819
 21
198.6931999421
 31
0.0
  0
LINE
  5
F8
330
1F
100
AcDbEntity
  8
SLD-0
 62
     7
100
AcDbLine
 10
141.3931573819
 20
198.6931999421
 30
0.0
 11
141.9931675385
 21
198.7291638946
 31
0.0
  0
LINE
  5
F9
330
1F
100
AcDbEntity
  8
SLD-0
 62
     7
100
AcDbLine
 10
141.9931675385
 20
198.7291638946
 30
0.0
 11
142.7372411902
 21
198.8484644538
 31
0.0
  0
LINE
  5
FA
330
1F
100
AcDbEntity
  8
SLD-0
 62
     7
100
AcDbLine
 10
142.7372411902
 20
198.8484644538
 30
0.0
 11
143.4464722018
 21
199.0330926349
 31
0.0
  0
LINE
  5
FB
330
1F
100
AcDbEntity
  8
SLD-0
 62
     7
100
AcDbLine
 10
143.4464722018
 20
199.0330926349
 30
0.0
 11
144.0659702833
 21
199.2475766895
 31
0.0
  0
LINE
  5
FC
330
1F
100
AcDbEntity
  8
SLD-0
 62
     7
100
AcDbLine
 10
144.0659702833
 20
199.2475766895
 30
0.0
 11
144.6444687511
 21
199.4886579199
 31
0.0
  0
LINE
  5
FD
330
1F
100
AcDbEntity
  8
SLD-0
 62
     7
100
AcDbLine
 10
144.6444687511
 20
199.4886579199
 30
0.0
 11
145.175664414
 21
199.7416032685
 31
0.0
  0
LINE
  5
FE
330
1F
100
AcDbEntity
  8
SLD-0
 62
     7
100
AcDbLine
 10
145.175664414
 20
199.7416032685
 30
0.0
 11
145.6360888745
 21
199.9828600531
 31
0.0
  0
LINE
  5
FF
330
1F
100
AcDbEntity
  8
SLD-0
  6
HIDDEN
 62
     7
100
AcDbLine
 10
135.2771904397
 20
199.9828600531
 30
0.0
 11
135.2771904397
 21
183.9828592932
 31
0.0
  0
LINE
  5
100
330
1F
100
AcDbEntity
  8
SLD-0
  6
HIDDEN
 62
     7
100
AcDbLine
 10
147.2771910097
 20
183.9828592932
 30
0.0
 11
147.2771910097
 21
199.9828600531
 31
0.0
  0
LINE
  5
101
330
1F
100
AcDbEntity
  8
SLD-0
  6
CENTERX2
 62
     7
100
AcDbLine
 10
152.7771902497
 20
191.9828596731
 30
0.0
 11
131.2771902497
 21
191.9828596731
 31
0.0
  0
LINE
  5
102
330
1F
100
AcDbEntity
  8
SLD-0
  6
CENTERX2
 62
     7
100
AcDbLine
 10
115.7771902497
 20
191.9828596731
 30
0.0
 11
131.2771902497
 21
191.9828596731
 31
0.0
  0
LINE
  5
103
330
1F
100
AcDbEntity
  8
SLD-0
  6
CENTERX2
 62
     7
100
AcDbLine
 10
141.2771902497
 20
201.9828596731
 30
0.0
 11
141.2771902497
 21
181.9828596731
 31
0.0
  0
LINE
  5
104
330
1F
100
AcDbEntity
  8
0
  6
Continuous
 62
     7
370
     0
100
AcDbLine
 10
20.2604743903
 20
285.0
 30
0.0
 11
196.7604743903
 21
285.0
 31
0.0
  0
LINE
  5
105
330
1F
100
AcDbEntity
  8
0
  6
Continuous
 62
     7
370
     0
100
AcDbLine
 10
20.2604743903
 20
285.0
 30
0.0
 11
20.2604743903
 21
10.0
 31
0.0
  0
LINE
  5
106
330
1F
100
AcDbEntity
  8
0
  6
Continuous
 62
     7
370
     0
100
AcDbLine
 10
20.2604743903
 20
10.0
 30
0.0
 11
196.7604743903
 21
10.0
 31
0.0
  0
LINE
  5
107
330
1F
100
AcDbEntity
  8
0
  6
Continuous
 62
     7
370
     0
100
AcDbLine
 10
196.7604743903
 20
285.0
 30
0.0
 11
196.7604743903
 21
10.0
 31
0.0
  0
LINE
  5
108
330
1F
100
AcDbEntity
  8
0
  6
Continuous
 62
     7
370
     0
100
AcDbLine
 10
127.0104743903
 20
50.75
 30
0.0
 11
196.7604743903
 21
50.75
 31
0.0
  0
LINE
  5
109
330
1F
100
AcDbEntity
  8
0
  6
Continuous
 62
     7
370
     0
100
AcDbLine
 10
127.0104743903
 20
50.75
 30
0.0
 11
127.0104743903
 21
10.0
 31
0.0
  0
LINE
  5
10A
330
1F
100
AcDbEntity
  8
0
  6
Continuous
 62
     7
370
     0
100
AcDbLine
 10
127.0104743903
 20
22.75
 30
0.0
 11
196.7604743903
 21
22.75
 31
0.0
  0
LINE
  5
10B
330
1F
100
AcDbEntity
  8
0
  6
Continuous
 62
     7
370
     0
100
AcDbLine
 10
127.0104743903
 20
36.75
 30
0.0
 11
196.7604743903
 21
36.75
 31
0.0
  0
ARC
  5
10C
330
1F
100
AcDbEntity
  8
SLD-0
  6
Continuous
 62
     7
100
AcDbCircle
 10
141.2771902497
 20
140.9311560513
 30
0.0
 40
5.399999999965515
100
AcDbArc
 50
310.2228921948
 51
49.7771078052
  0
ARC
  5
10D
330
1F
100
AcDbEntity
  8
SLD-0
  6
Continuous
 62
     7
100
AcDbCircle
 10
141.2771902551
 20
140.9337028788
 30
0.0
 40
5.401944846588801
100
AcDbArc
 50
229.79455172
 51
310.2054481922
  0
ARC
  5
10E
330
1F
100
AcDbEntity
  8
SLD-0
  6
Continuous
 62
     7
100
AcDbCircle
 10
141.2771902551
 20
140.9286094308
 30
0.0
 40
5.401944688495748
100
AcDbArc
 50
49.7945503905
 51
130.2054497601
  0
ARC
  5
10F
330
1F
100
AcDbEntity
  8
SLD-0
  6
Continuous
 62
     7
100
AcDbCircle
 10
141.2771902497
 20
140.9311560513
 30
0.0
 40
5.399999992963834
100
AcDbArc
 50
130.2228922576
 51
229.7771078052
  0
CIRCLE
  5
110
330
1F
100
AcDbEntity
  8
SLD-0
  6
Continuous
 62
     7
100
AcDbCircle
 10
65.2196103241
 20
140.9311560513
 30
0.0
 40
5.500000000000014
  0
CIRCLE
  5
111
330
1F
100
AcDbEntity
  8
SLD-0
  6
Continuous
 62
     7
100
AcDbCircle
 10
65.2196103241
 20
140.9311560513
 30
0.0
 40
6.000000000000014
  0
CIRCLE
  5
112
330
1F
100
AcDbEntity
  8
SLD-0
  6
Continuous
 62
     7
100
AcDbCircle
 10
65.2196103241
 20
140.9311560513
 30
0.0
 40
1.650000000000006
  0
ARC
  5
113
330
1F
100
AcDbEntity
  8
SLD-0
  6
Continuous
 62
     7
100
AcDbCircle
 10
65.2196103241
 20
140.9311560513
 30
0.0
 40
9.000000000037749
100
AcDbArc
 50
207.2660444507
 51
242.7339555488
  0
ARC
  5
114
330
1F
100
AcDbEntity
  8
SLD-0
  6
Continuous
 62
     7
100
AcDbCircle
 10
65.2196103241
 20
140.9311560513
 30
0.0
 40
9.000000000021879
100
AcDbArc
 50
117.2660444507
 51
152.7339555495
  0
ARC
  5
115
330
1F
100
AcDbEntity
  8
SLD-0
  6
Continuous
 62
     7
100
AcDbCircle
 10
65.2196103241
 20
140.9311560513
 30
0.0
 40
9.000000000006709
100
AcDbArc
 50
27.2660444507
 51
62.7339555495
  0
ARC
  5
116
330
1F
100
AcDbEntity
  8
SLD-0
  6
Continuous
 62
     7
100
AcDbCircle
 10
65.2196103241
 20
140.9311560513
 30
0.0
 40
8.99999999999193
100
AcDbArc
 50
297.2660444506
 51
332.7339555494
  0
CIRCLE
  5
117
330
1F
100
AcDbEntity
  8
SLD-0
 62
     7
100
AcDbCircle
 10
65.2196103241
 20
140.9311560513
 30
0.0
 40
2.000000095000004
  0
ARC
  5
118
330
1F
100
AcDbEntity
  8
SLD-0
  6
Continuous
 62
     7
100
AcDbCircle
 10
141.277190259
 20
207.2118497117
 30
0.0
 40
8.026100667610406
100
AcDbArc
 50
244.2482733868
 51
295.7517266136
  0
ARC
  5
119
330
1F
100
AcDbEntity
  8
SLD-0
  6
Continuous
 62
     7
100
AcDbCircle
 10
141.277190259
 20
176.7538699667
 30
0.0
 40
8.026100368500007
100
AcDbArc
 50
64.2482723566
 51
115.7517276434
  0
DIMENSION
  5
11A
330
1F
100
AcDbEntity
  8
SLD-0
100
AcDbDimension
  2
*D6
 10
141.2771902497
 20
160.9049456621
 30
0.0
 11
129.5271902497
 21
160.9049456621
 31
0.0
 70
   160
 71
     1
 42
23.5
  3
SLDDIMSTYLE0
100
AcDbAlignedDimension
 13
117.7771902497
 23
146.9311560513
 33
0.0
 14
141.2771902497
 24
149.4311560513
 34
0.0
100
AcDbRotatedDimension
1001
ACAD
1000
DSTYLE
1002
{
1070
    77
1070
     3
1070
   143
1040
0.0393700787
1070
    41
1040
3.0
1070
    44
1040
1.0
1070
    42
1040
1.0
1070
   147
1040
1.524
1070
    73
1070
     0
1070
    74
1070
     0
1070
   140
1040
3.5
1070
   284
1070
    12
1070
    78
1070
    12
1002
}
  0
DIMENSION
  5
138
330
1F
100
AcDbEntity
  8
SLD-0
 62
     7
100
AcDbDimension
  2
*D8
 10
106.2343316293
 20
134.9311560513
 30
0.0
 11
106.2343316293
 21
125.117371837
 31
0.0
 70
   160
  1
%%c<>
 71
     1
 42
12.0
  3
SLDDIMSTYLE1
100
AcDbAlignedDimension
 13
131.2771902497
 23
146.9311560513
 33
0.0
 14
131.2771902497
 24
134.9311560513
 34
0.0
 50
90.0
100
AcDbRotatedDimension
1001
ACAD
1000
DSTYLE
1002
{
1070
    77
1070
     3
1070
   143
1040
0.0393700787
1070
    41
1040
3.0
1070
    44
1040
1.0
1070
    42
1040
1.0
1070
   147
1040
1.524
1070
    73
1070
     0
1070
    74
1070
     0
1070
   140
1040
3.5
1070
   284
1070
    12
1070
    78
1070
    12
1002
}
  0
DIMENSION
  5
14F
330
1F
100
AcDbEntity
  8
SLD-0
 62
     7
100
AcDbDimension
  2
*D9
 10
8.495678282
 20
8.4748695781
 30
0.0
 11
160.8641675332
 21
-4.2374353211
 31
0.0
 70
   163
  1
M<>xP1.0<>
 71
     1
 42
11.9999984932
  3
SLDDIMSTYLE2
100
AcDbDiametricDimension
 15
0.0
 25
0.0
 35
0.0
 40
0.0
1001
ACAD
1000
DSTYLE
1002
{
1070
    77
1070
     0
1070
   143
1040
0.0393700787
1070
    41
1040
3.0
1070
    44
1040
1.0
1070
    42
1040
1.0
1070
   147
1040
1.524
1070
    73
1070
     1
1070
    74
1070
     1
1070
   140
1040
3.5
1070
   284
1070
    12
1070
    78
1070
    12
1002
}
  0
DIMENSION
  5
162
330
1F
100
AcDbEntity
  8
SLD-0
 62
     7
100
AcDbDimension
  2
*D10
 10
57.2196103241
 20
156.722126036
 30
0.0
 11
65.2196103241
 21
156.722126036
 31
0.0
 70
   160
 71
     1
 42
16.0
  3
SLDDIMSTYLE3
100
AcDbAlignedDimension
 13
73.2196103241
 23
145.0542616769
 33
0.0
 14
57.2196103241
 24
145.0542616769
 34
0.0
100
AcDbRotatedDimension
1001
ACAD
1000
DSTYLE
1002
{
1070
    77
1070
     3
1070
   143
1040
0.0393700787
1070
    41
1040
3.0
1070
    44
1040
1.0
1070
    42
1040
1.0
1070
   147
1040
1.524
1070
    73
1070
     0
1070
    74
1070
     0
1070
   140
1040
3.5
1070
   284
1070
    12
1070
    78
1070
    12
1002
}
  0
DIMENSION
  5
17A
330
1F
100
AcDbEntity
  8
SLD-0
 62
     7
100
AcDbDimension
  2
*D11
 10
49.1337778633
 20
148.9311560513
 30
0.0
 11
49.1337778633
 21
140.9311560513
 31
0.0
 70
   160
 71
     1
 42
16.0
  3
SLDDIMSTYLE3
100
AcDbAlignedDimension
 13
61.0965046984
 23
132.9311560513
 33
0.0
 14
61.0965046984
 24
148.9311560513
 34
0.0
 50
90.0
100
AcDbRotatedDimension
1001
ACAD
1000
DSTYLE
1002
{
1070
    77
1070
     3
1070
   143
1040
0.0393700787
1070
    41
1040
3.0
1070
    44
1040
1.0
1070
    42
1040
1.0
1070
   147
1040
1.524
1070
    73
1070
     0
1070
    74
1070
     0
1070
   140
1040
3.5
1070
   284
1070
    12
1070
    78
1070
    12
1002
}
  0
DIMENSION
  5
192
330
1F
100
AcDbEntity
  8
SLD-0
 62
     7
100
AcDbDimension
  2
*D12
 10
7.559712613
 20
16.3355627652
 30
0.0
 11
82.1476629072
 21
-5.4451887174
 31
0.0
 70
   163
  1
<>
 71
     1
 42
17.999996268
  3
SLDDIMSTYLE2
100
AcDbDiametricDimension
 15
0.0
 25
0.0
 35
0.0
 40
0.0
1001
ACAD
1000
DSTYLE
1002
{
1070
    77
1070
     0
1070
   143
1040
0.0393700787
1070
    41
1040
3.0
1070
    44
1040
1.0
1070
    42
1040
1.0
1070
   147
1040
1.524
1070
    73
1070
     1
1070
    74
1070
     1
1070
   140
1040
3.5
1070
   284
1070
    12
1070
    78
1070
    12
1002
}
  0
DIMENSION
  5
1A9
330
1F
100
AcDbEntity
  8
SLD-0
 62
     7
100
AcDbDimension
  2
*D13
 10
1.6799361362
 20
3.6301250589
 30
0.0
 11
83.8428939456
 21
-5.4451887174
 31
0.0
 70
   163
  1
M<>深10<>
 71
     1
 42
3.9999991706
  3
SLDDIMSTYLE2
100
AcDbDiametricDimension
 15
0.0
 25
0.0
 35
0.0
 40
0.0
1001
ACAD
1000
DSTYLE
1002
{
1070
    77
1070
     0
1070
   143
1040
0.0393700787
1070
    41
1040
3.0
1070
    44
1040
1.0
1070
    42
1040
1.0
1070
   147
1040
1.524
1070
    73
1070
     1
1070
    74
1070
     1
1070
   140
1040
3.5
1070
   284
1070
    12
1070
    78
1070
    12
1002
}
  0
DIMENSION
  5
1BB
330
1F
100
AcDbEntity
  8
SLD-0
 62
     7
100
AcDbDimension
  2
*D14
 10
131.2771902497
 20
210.5405482495
 30
0.0
 11
124.5271902497
 21
210.5405482495
 31
0.0
 70
   160
 71
     1
 42
13.5
  3
SLDDIMSTYLE0
100
AcDbAlignedDimension
 13
117.7771902497
 23
185.9828596731
 33
0.0
 14
131.2771902497
 24
185.9828596731
 34
0.0
100
AcDbRotatedDimension
1001
ACAD
1000
DSTYLE
1002
{
1070
    77
1070
     3
1070
   143
1040
0.0393700787
1070
    41
1040
3.0
1070
    44
1040
1.0
1070
    42
1040
1.0
1070
   147
1040
1.524
1070
    73
1070
     0
1070
    74
1070
     0
1070
   140
1040
3.5
1070
   284
1070
    12
1070
    78
1070
    12
1002
}
  0
DIMENSION
  5
1D4
330
1F
100
AcDbEntity
  8
SLD-0
 62
     7
100
AcDbDimension
  2
*D15
 10
151.2771902497
 20
219.0957351102
 30
0.0
 11
134.5271902497
 21
219.0957351102
 31
0.0
 70
   160
 71
     1
 42
33.5
  3
SLDDIMSTYLE0
100
AcDbAlignedDimension
 13
117.7771902497
 23
197.4828596731
 33
0.0
 14
151.2771902497
 24
199.9828596731
 34
0.0
100
AcDbRotatedDimension
1001
ACAD
1000
DSTYLE
1002
{
1070
    77
1070
     3
1070
   143
1040
0.0393700787
1070
    41
1040
3.0
1070
    44
1040
1.0
1070
    42
1040
1.0
1070
   147
1040
1.524
1070
    73
1070
     0
1070
    74
1070
     0
1070
   140
1040
3.5
1070
   284
1070
    12
1070
    78
1070
    12
1002
}
  0
MTEXT
  5
1EB
330
1F
100
AcDbEntity
  8
SLD-0
 62
     7
100
AcDbMText
 10
102.5288726439
 20
177.2334572514
 30
0.0
 40
3.5
 41
0.0
 71
     1
 72
     1
  1
2-
  7
SLDTEXTSTYLE1
 11
0.7111693555013344
 21
0.7030207307013191
 31
0.0
 73
     1
 44
1.0
  0
MTEXT
  5
1EC
330
1F
100
AcDbEntity
  8
SLD-0
 62
     7
100
AcDbMText
 10
105.4253943967
 20
180.0967904693
 30
0.0
 40
3.5
 41
0.0
 71
     1
 72
     1
  1
C
  7
SLDTEXTSTYLE1
 11
0.7111693555013344
 21
0.7030207307013191
 31
0.0
 73
     1
 44
1.0
  0
MTEXT
  5
1ED
330
1F
100
AcDbEntity
  8
SLD-0
 62
     7
100
AcDbMText
 10
106.873655273
 20
181.5284570783
 30
0.0
 40
3.5
 41
0.0
 71
     1
 72
     1
  1
0.5
  7
SLDTEXTSTYLE1
 11
0.7111693555013344
 21
0.7030207307013191
 31
0.0
 73
     1
 44
1.0
  0
MTEXT
  5
1EE
330
1F
100
AcDbEntity
  8
0
  6
Continuous
 62
     7
370
     0
100
AcDbMText
 10
149.9512935523
 20
29.8861652342
 30
0.0
 40
4.2333333333
 41
0.0
 71
     1
 72
     1
  1
N01864-306
  7
SLDTEXTSTYLE0
 73
     1
 44
1.0
  0
INSERT
  5
1F4
330
1F
100
AcDbEntity
  8
0
  6
Continuous
 62
     7
370
     0
100
AcDbBlockReference
  2
SW_NOTE_0
 10
138.9647744326
 20
43.3819162629
 30
0.0
  0
MTEXT
  5
1F5
330
1F
100
AcDbEntity
  8
0
  6
Continuous
 62
     7
370
     0
100
AcDbMText
 10
157.1711199181
 20
16.542024121
 30
0.0
 40
4.2333333333
 41
0.0
 71
     1
 72
     1
  1
131173
  7
SLDTEXTSTYLE0
 73
     1
 44
1.0
  0
INSERT
  5
1F6
330
1F
100
AcDbEntity
  8
0
  6
Continuous
 62
     7
370
     0
100
AcDbBlockReference
  2
SW_CENTERMARK0
 10
0.0
 20
0.0
 30
0.0
  0
INSERT
  5
1F7
330
1F
100
AcDbEntity
  8
0
  6
Continuous
 62
     7
370
     0
100
AcDbBlockReference
  2
SW_CENTERMARK1
 10
0.0
 20
0.0
 30
0.0
  0
INSERT
  5
1F8
330
1F
100
AcDbEntity
  8
0
  6
Continuous
 62
     7
370
     0
100
AcDbBlockReference
  2
SW_CENTERMARK2
 10
0.0
 20
0.0
 30
0.0
  0
INSERT
  5
1F9
330
1F
100
AcDbEntity
  8
0
  6
Continuous
 62
     7
370
     0
100
AcDbBlockReference
  2
_OPEN30
 10
118.0271902497
 20
186.2328596731
 30
0.0
 41
3.0
 42
3.0
 43
3.0
 50
44.7656088773
  0
ENDSEC
  0
SECTION
  2
OBJECTS
  0
DICTIONARY
  5
C
330
0
100
AcDbDictionary
281
     1
  3
ACAD_GROUP
350
D
  3
ACAD_LAYOUT
350
1A
  3
ACAD_MLINESTYLE
350
17
  3
ACAD_PLOTSETTINGS
350
19
  3
ACAD_PLOTSTYLENAME
350
E
  0
DICTIONARY
  5
D
102
{ACAD_REACTORS
330
C
102
}
330
C
100
AcDbDictionary
281
     1
  0
DICTIONARY
  5
1A
102
{ACAD_REACTORS
330
C
102
}
330
C
100
AcDbDictionary
281
     1
  3
Layout1
350
1E
  3
Layout2
350
26
  3
Model
350
22
  0
DICTIONARY
  5
17
102
{ACAD_REACTORS
330
C
102
}
330
C
100
AcDbDictionary
281
     1
  3
Standard
350
18
  0
DICTIONARY
  5
19
102
{ACAD_REACTORS
330
C
102
}
330
C
100
AcDbDictionary
281
     1
  0
ACDBDICTIONARYWDFLT
  5
E
102
{ACAD_REACTORS
330
C
102
}
330
C
100
AcDbDictionary
281
     1
  3
Normal
350
F
100
AcDbDictionaryWithDefault
340
F
  0
LAYOUT
  5
1E
102
{ACAD_REACTORS
330
1A
102
}
330
1A
100
AcDbPlotSettings
  1

  2

  4

  6

 40
0.0
 41
0.0
 42
0.0
 43
0.0
 44
0.0
 45
0.0
 46
0.0
 47
0.0
 48
0.0
 49
0.0
140
0.0
141
0.0
142
1.0
143
1.0
 70
   688
 72
     0
 73
     0
 74
     5
  7

 75
    16
147
1.0
148
0.0
149
0.0
100
AcDbLayout
  1
Layout1
 70
     1
 71
     1
 10
0.0
 20
0.0
 11
0.0
 21
0.0
 12
0.0
 22
0.0
 32
0.0
 14
0.0
 24
0.0
 34
0.0
 15
0.0
 25
0.0
 35
0.0
146
0.0
 13
0.0
 23
0.0
 33
0.0
 16
1.0
 26
0.0
 36
0.0
 17
0.0
 27
1.0
 37
0.0
 76
     0
330
1B
  0
LAYOUT
  5
26
102
{ACAD_REACTORS
330
1A
102
}
330
1A
100
AcDbPlotSettings
  1

  2

  4

  6

 40
0.0
 41
0.0
 42
0.0
 43
0.0
 44
0.0
 45
0.0
 46
0.0
 47
0.0
 48
0.0
 49
0.0
140
0.0
141
0.0
142
1.0
143
1.0
 70
   688
 72
     0
 73
     0
 74
     5
  7

 75
    16
147
1.0
148
0.0
149
0.0
100
AcDbLayout
  1
Layout2
 70
     1
 71
     2
 10
0.0
 20
0.0
 11
0.0
 21
0.0
 12
0.0
 22
0.0
 32
0.0
 14
0.0
 24
0.0
 34
0.0
 15
0.0
 25
0.0
 35
0.0
146
0.0
 13
0.0
 23
0.0
 33
0.0
 16
1.0
 26
0.0
 36
0.0
 17
0.0
 27
1.0
 37
0.0
 76
     0
330
23
  0
LAYOUT
  5
22
102
{ACAD_REACTORS
330
1A
102
}
330
1A
100
AcDbPlotSettings
  1

  2

  4

  6

 40
0.0
 41
0.0
 42
0.0
 43
0.0
 44
0.0
 45
0.0
 46
0.0
 47
0.0
 48
0.0
 49
0.0
140
0.0
141
0.0
142
1.0
143
1.0
 70
  1712
 72
     0
 73
     0
 74
     0
  7

 75
     0
147
1.0
148
0.0
149
0.0
100
AcDbLayout
  1
Model
 70
     1
 71
     0
 10
0.0
 20
0.0
 11
0.0
 21
0.0
 12
0.0
 22
0.0
 32
0.0
 14
0.0
 24
0.0
 34
0.0
 15
210.0
 25
297.0
 35
0.0
146
0.0
 13
0.0
 23
0.0
 33
0.0
 16
1.0
 26
0.0
 36
0.0
 17
0.0
 27
1.0
 37
0.0
 76
     0
330
1F
  0
MLINESTYLE
  5
18
102
{ACAD_REACTORS
330
17
102
}
330
17
100
AcDbMlineStyle
  2
Standard
 70
     0
  3

 62
   256
 51
90.0
 52
90.0
 71
     2
 49
0.5
 62
   256
  6
BYLAYER
 49
-0.5
 62
   256
  6
BYLAYER
  0
ACDBPLACEHOLDER
  5
F
102
{ACAD_REACTORS
330
E
102
}
330
E
  0
ENDSEC
  0
EOF
